  0
SECTION
  2
HEADER
  9
$ACADVER
  1
AC1021
  9
$ACADMAINTVER
 70
    25
  9
$DWGCODEPAGE
  3
ANSI_936
  9
$LASTSAVEDBY
  1
yp.zhu
  9
$INSBASE
 10
0.0
 20
0.0
 30
0.0
  9
$EXTMIN
 10
2894.087255893377
 20
652.0650204174045
 30
-0.0015258207003612
  9
$EXTMAX
 10
3042.675969281788
 20
757.1643542775003
 30
0.0000000349246008
  9
$LIMMIN
 10
0.0
 20
0.0
  9
$LIMMAX
 10
1189.0
 20
841.0
  9
$ORTHOMODE
 70
     0
  9
$REGENMODE
 70
     1
  9
$FILLMODE
 70
     1
  9
$QTEXTMODE
 70
     0
  9
$MIRRTEXT
 70
     1
  9
$LTSCALE
 40
65.395
  9
$ATTMODE
 70
     1
  9
$TEXTSIZE
 40
0.2
  9
$TRACEWID
 40
0.05
  9
$TEXTSTYLE
  7
txt字体
  9
$CLAYER
  8
Dim
  9
$CELTYPE
  6
ByLayer
  9
$CECOLOR
 62
   256
  9
$CELTSCALE
 40
1.0
  9
$DISPSILH
 70
     0
  9
$DIMSCALE
 40
1.0
  9
$DIMASZ
 40
4.5
  9
$DIMEXO
 40
0.2
  9
$DIMDLI
 40
0.2
  9
$DIMRND
 40
0.0
  9
$DIMDLE
 40
0.0
  9
$DIMEXE
 40
0.5
  9
$DIMTP
 40
0.0
  9
$DIMTM
 40
0.0
  9
$DIMTXT
 40
5.0
  9
$DIMCEN
 40
0.0
  9
$DIMTSZ
 40
0.0
  9
$DIMTOL
 70
     0
  9
$DIMLIM
 70
     0
  9
$DIMTIH
 70
     0
  9
$DIMTOH
 70
     0
  9
$DIMSE1
 70
     0
  9
$DIMSE2
 70
     0
  9
$DIMTAD
 70
     1
  9
$DIMZIN
 70
     8
  9
$DIMBLK
  1

  9
$DIMASO
 70
     1
  9
$DIMSHO
 70
     1
  9
$DIMPOST
  1

  9
$DIMAPOST
  1

  9
$DIMALT
 70
     0
  9
$DIMALTD
 70
     2
  9
$DIMALTF
 40
25.4
  9
$DIMLFAC
 40
1.0
  9
$DIMTOFL
 70
     0
  9
$DIMTVP
 40
0.0
  9
$DIMTIX
 70
     0
  9
$DIMSOXD
 70
     0
  9
$DIMSAH
 70
     0
  9
$DIMBLK1
  1

  9
$DIMBLK2
  1

  9
$DIMSTYLE
  2
01
  9
$DIMCLRD
 70
     1
  9
$DIMCLRE
 70
     6
  9
$DIMCLRT
 70
     4
  9
$DIMTFAC
 40
1.0
  9
$DIMGAP
 40
0.5
  9
$DIMJUST
 70
     0
  9
$DIMSD1
 70
     0
  9
$DIMSD2
 70
     0
  9
$DIMTOLJ
 70
     1
  9
$DIMTZIN
 70
     0
  9
$DIMALTZ
 70
     0
  9
$DIMALTTZ
 70
     0
  9
$DIMUPT
 70
     0
  9
$DIMDEC
 70
     1
  9
$DIMTDEC
 70
     1
  9
$DIMALTU
 70
     2
  9
$DIMALTTD
 70
     2
  9
$DIMTXSTY
  7
Romans字体
  9
$DIMAUNIT
 70
     0
  9
$DIMADEC
 70
     2
  9
$DIMALTRND
 40
0.0
  9
$DIMAZIN
 70
     2
  9
$DIMDSEP
 70
    46
  9
$DIMATFIT
 70
     3
  9
$DIMFRAC
 70
     0
  9
$DIMLDRBLK
  1

  9
$DIMLUNIT
 70
     2
  9
$DIMLWD
 70
    -2
  9
$DIMLWE
 70
    -2
  9
$DIMTMOVE
 70
     0
  9
$DIMFXL
 40
1.0
  9
$DIMFXLON
 70
     0
  9
$DIMJOGANG
 40
0.7853981633974483
  9
$DIMTFILL
 70
     0
  9
$DIMTFILLCLR
 70
     0
  9
$DIMARCSYM
 70
     0
  9
$DIMLTYPE
  6

  9
$DIMLTEX1
  6

  9
$DIMLTEX2
  6

  9
$LUNITS
 70
     2
  9
$LUPREC
 70
     4
  9
$SKETCHINC
 40
0.1
  9
$FILLETRAD
 40
0.0
  9
$AUNITS
 70
     0
  9
$AUPREC
 70
     0
  9
$MENU
  1
acad
  9
$ELEVATION
 40
0.0
  9
$PELEVATION
 40
0.0
  9
$THICKNESS
 40
0.0
  9
$LIMCHECK
 70
     0
  9
$CHAMFERA
 40
0.0
  9
$CHAMFERB
 40
0.0
  9
$CHAMFERC
 40
0.0
  9
$CHAMFERD
 40
0.0
  9
$SKPOLY
 70
     0
  9
$TDCREATE
 40
2454351.702036852
  9
$TDUCREATE
 40
2454351.368703519
  9
$TDUPDATE
 40
2460299.478211019
  9
$TDUUPDATE
 40
2460299.144877685
  9
$TDINDWG
 40
1.5197997801
  9
$TDUSRTIMER
 40
1.5197952315
  9
$USRTIMER
 70
     1
  9
$ANGBASE
 50
0.0
  9
$ANGDIR
 70
     0
  9
$PDMODE
 70
     3
  9
$PDSIZE
 40
8.0
  9
$PLINEWID
 40
0.0
  9
$SPLFRAME
 70
     0
  9
$SPLINETYPE
 70
     6
  9
$SPLINESEGS
 70
     8
  9
$HANDSEED
  5
8342E
  9
$SURFTAB1
 70
     6
  9
$SURFTAB2
 70
     6
  9
$SURFTYPE
 70
     6
  9
$SURFU
 70
     6
  9
$SURFV
 70
     6
  9
$UCSBASE
  2

  9
$UCSNAME
  2

  9
$UCSORG
 10
0.0
 20
0.0
 30
0.0
  9
$UCSXDIR
 10
1.0
 20
0.0
 30
0.0
  9
$UCSYDIR
 10
0.0
 20
1.0
 30
0.0
  9
$UCSORTHOREF
  2

  9
$UCSORTHOVIEW
 70
     0
  9
$UCSORGTOP
 10
0.0
 20
0.0
 30
0.0
  9
$UCSORGBOTTOM
 10
0.0
 20
0.0
 30
0.0
  9
$UCSORGLEFT
 10
0.0
 20
0.0
 30
0.0
  9
$UCSORGRIGHT
 10
0.0
 20
0.0
 30
0.0
  9
$UCSORGFRONT
 10
0.0
 20
0.0
 30
0.0
  9
$UCSORGBACK
 10
0.0
 20
0.0
 30
0.0
  9
$PUCSBASE
  2

  9
$PUCSNAME
  2

  9
$PUCSORG
 10
0.0
 20
0.0
 30
0.0
  9
$PUCSXDIR
 10
1.0
 20
0.0
 30
0.0
  9
$PUCSYDIR
 10
0.0
 20
1.0
 30
0.0
  9
$PUCSORTHOREF
  2

  9
$PUCSORTHOVIEW
 70
     0
  9
$PUCSORGTOP
 10
0.0
 20
0.0
 30
0.0
  9
$PUCSORGBOTTOM
 10
0.0
 20
0.0
 30
0.0
  9
$PUCSORGLEFT
 10
0.0
 20
0.0
 30
0.0
  9
$PUCSORGRIGHT
 10
0.0
 20
0.0
 30
0.0
  9
$PUCSORGFRONT
 10
0.0
 20
0.0
 30
0.0
  9
$PUCSORGBACK
 10
0.0
 20
0.0
 30
0.0
  9
$USERI1
 70
     0
  9
$USERI2
 70
     0
  9
$USERI3
 70
     0
  9
$USERI4
 70
     0
  9
$USERI5
 70
     0
  9
$USERR1
 40
0.0
  9
$USERR2
 40
0.0
  9
$USERR3
 40
0.0
  9
$USERR4
 40
0.0
  9
$USERR5
 40
2.5
  9
$WORLDVIEW
 70
     1
  9
$SHADEDGE
 70
     3
  9
$SHADEDIF
 70
    70
  9
$TILEMODE
 70
     1
  9
$MAXACTVP
 70
    16
  9
$PINSBASE
 10
0.0
 20
0.0
 30
0.0
  9
$PLIMCHECK
 70
     0
  9
$PEXTMIN
 10
1.000000000000000E+20
 20
1.000000000000000E+20
 30
1.000000000000000E+20
  9
$PEXTMAX
 10
-1.000000000000000E+20
 20
-1.000000000000000E+20
 30
-1.000000000000000E+20
  9
$PLIMMIN
 10
0.0
 20
0.0
  9
$PLIMMAX
 10
12.0
 20
9.0
  9
$UNITMODE
 70
     0
  9
$VISRETAIN
 70
     0
  9
$PLINEGEN
 70
     1
  9
$PSLTSCALE
 70
     0
  9
$TREEDEPTH
 70
  3020
  9
$CMLSTYLE
  2
Standard
  9
$CMLJUST
 70
     0
  9
$CMLSCALE
 40
1.0
  9
$PROXYGRAPHICS
 70
     0
  9
$MEASUREMENT
 70
     1
  9
$CELWEIGHT
370
    -1
  9
$ENDCAPS
280
     0
  9
$JOINSTYLE
280
     0
  9
$LWDISPLAY
290
     0
  9
$INSUNITS
 70
     4
  9
$HYPERLINKBASE
  1

  9
$STYLESHEET
  1
monochrome.ctb
  9
$XEDIT
290
     1
  9
$CEPSNTYPE
380
     0
  9
$PSTYLEMODE
290
     1
  9
$FINGERPRINTGUID
  2

  9
$VERSIONGUID
  2
{73A4DDCC-7927-46A7-B900-067E85CFA3C5}
  9
$EXTNAMES
290
     1
  9
$PSVPSCALE
 40
0.0
  9
$OLESTARTUP
290
     0
  9
$SORTENTS
280
   127
  9
$INDEXCTL
280
     0
  9
$HIDETEXT
280
     0
  9
$XCLIPFRAME
290
     0
  9
$HALOGAP
280
     0
  9
$OBSCOLOR
 70
   257
  9
$OBSLTYPE
280
     0
  9
$INTERSECTIONDISPLAY
280
     0
  9
$INTERSECTIONCOLOR
 70
   257
  9
$DIMASSOC
280
     2
  9
$PROJECTNAME
  1

  9
$CAMERADISPLAY
290
     0
  9
$LENSLENGTH
 40
50.0
  9
$CAMERAHEIGHT
 40
0.0
  9
$STEPSPERSEC
 40
2.0
  9
$STEPSIZE
 40
6.0
  9
$3DDWFPREC
 40
2.0
  9
$PSOLWIDTH
 40
0.25
  9
$PSOLHEIGHT
 40
4.0
  9
$LOFTANG1
 40
1.570796326794896
  9
$LOFTANG2
 40
1.570796326794896
  9
$LOFTMAG1
 40
0.0
  9
$LOFTMAG2
 40
0.0
  9
$LOFTPARAM
 70
     7
  9
$LOFTNORMALS
280
     1
  9
$LATITUDE
 40
37.795
  9
$LONGITUDE
 40
-122.394
  9
$NORTHDIRECTION
 40
0.0
  9
$TIMEZONE
 70
 -8000
  9
$LIGHTGLYPHDISPLAY
280
     1
  9
$TILEMODELIGHTSYNCH
280
     1
  9
$CMATERIAL
347
12D28
  9
$SOLIDHIST
280
     1
  9
$SHOWHIST
280
     1
  9
$DWFFRAME
280
     2
  9
$DGNFRAME
280
     0
  9
$REALWORLDSCALE
290
     1
  9
$INTERFERECOLOR
 62
     1
  9
$INTERFEREOBJVS
345
12D42
  9
$INTERFEREVPVS
346
12D3F
  9
$CSHADOW
280
     0
  9
$SHADOWPLANELOCATION
 40
0.0
  0
ENDSEC
  0
SECTION
  2
CLASSES
  0
CLASS
  1
ACDBDICTIONARYWDFLT
  2
AcDbDictionaryWithDefault
  3
ObjectDBX Classes
 90
        0
 91
        1
280
     0
281
     0
  0
CLASS
  1
IMAGE
  2
AcDbRasterImage
  3
ISM
 90
     2175
 91
        0
280
     0
281
     1
  0
CLASS
  1
DICTIONARYVAR
  2
AcDbDictionaryVar
  3
ObjectDBX Classes
 90
        0
 91
        9
280
     0
281
     0
  0
CLASS
  1
RASTERVARIABLES
  2
AcDbRasterVariables
  3
ISM
 90
        0
 91
        0
280
     0
281
     0
  0
CLASS
  1
IMAGEDEF
  2
AcDbRasterImageDef
  3
ISM
 90
        0
 91
        0
280
     0
281
     0
  0
CLASS
  1
IMAGEDEF_REACTOR
  2
AcDbRasterImageDefReactor
  3
ISM
 90
        1
 91
        0
280
     0
281
     0
  0
CLASS
  1
IDBUFFER
  2
AcDbIdBuffer
  3
ObjectDBX Classes
 90
        0
 91
        0
280
     0
281
     0
  0
CLASS
  1
SPATIAL_FILTER
  2
AcDbSpatialFilter
  3
ObjectDBX Classes
 90
        0
 91
        0
280
     0
281
     0
  0
CLASS
  1
SORTENTSTABLE
  2
AcDbSortentsTable
  3
ObjectDBX Classes
 90
        0
 91
        0
280
     0
281
     0
  0
CLASS
  1
LAYER_INDEX
  2
AcDbLayerIndex
  3
ObjectDBX Classes
 90
        0
 91
        0
280
     0
281
     0
  0
CLASS
  1
SPATIAL_INDEX
  2
AcDbSpatialIndex
  3
ObjectDBX Classes
 90
        0
 91
        0
280
     0
281
     0
  0
CLASS
  1
OBJECT_PTR
  2
CAseDLPNTableRecord
  3
ASE-LPNTableRecord
 90
        1
 91
        0
280
     0
281
     0
  0
CLASS
  1
PLOTSETTINGS
  2
AcDbPlotSettings
  3
ObjectDBX Classes
 90
        0
 91
        1
280
     0
281
     0
  0
CLASS
  1
WIPEOUT
  2
AcDbWipeout
  3
"WipeOut|Product Desc: Object Enabler for WipeOut entity                        |Company: Autodesk, Inc.                        |WEB Address: www.autodesk.com"
 90
     2175
 91
        0
280
     0
281
     1
  0
CLASS
  1
WIPEOUTVARIABLES
  2
AcDbWipeoutVariables
  3
"WipeOut|Product Desc:     WipeOut Dbx Application|Company:          Autodesk, Inc.|WEB Address:      www.autodesk.com"
 90
        0
 91
        0
280
     0
281
     0
  0
CLASS
  1
RTEXT
  2
RText
  3
RText|AutoCAD Express Tool|expresstools@autodesk.com
 90
        0
 91
        0
280
     0
281
     1
  0
CLASS
  1
ARCALIGNEDTEXT
  2
AcDbArcAlignedText
  3
ATEXT|AutoCAD Express Tool|expresstools@autodesk.com
 90
        0
 91
        0
280
     0
281
     1
  0
CLASS
  1
VLO-VL
  2
vlo_VL
  3
VL|AutoLISP based application
 90
      129
 91
        4
280
     0
281
     0
  0
CLASS
  1
DIMASSOC
  2
AcDbDimAssoc
  3
"AcDbDimAssoc|Product Desc:     AcDim ARX App For Dimension|Company:          Autodesk, Inc.|WEB Address:      www.autodesk.com"
 90
        0
 91
        0
280
     0
281
     0
  0
CLASS
  1
ACAD_EVALUATION_GRAPH
  2
AcDbEvalGraph
  3
ObjectDBX Classes
 90
     1153
 91
        3
280
     0
281
     0
  0
CLASS
  1
ACDB_DYNAMICBLOCKPURGEPREVENTER_VERSION
  2
AcDbDynamicBlockPurgePreventer
  3
ObjectDBX Classes
 90
     1153
 91
        3
280
     0
281
     0
  0
CLASS
  1
MATERIAL
  2
AcDbMaterial
  3
ObjectDBX Classes
 90
     1153
 91
        3
280
     0
281
     0
  0
CLASS
  1
VISUALSTYLE
  2
AcDbVisualStyle
  3
ObjectDBX Classes
 90
     4095
 91
       17
280
     0
281
     0
  0
CLASS
  1
TABLESTYLE
  2
AcDbTableStyle
  3
ObjectDBX Classes
 90
     4095
 91
        1
280
     0
281
     0
  0
CLASS
  1
SCALE
  2
AcDbScale
  3
ObjectDBX Classes
 90
     1153
 91
       33
280
     0
281
     0
  0
CLASS
  1
MLEADERSTYLE
  2
AcDbMLeaderStyle
  3
ACDB_MLEADERSTYLE_CLASS
 90
     4095
 91
        1
280
     0
281
     0
  0
CLASS
  1
CELLSTYLEMAP
  2
AcDbCellStyleMap
  3
ObjectDBX Classes
 90
     1152
 91
        3
280
     0
281
     0
  0
CLASS
  1
ACAECUSTOBJ
  2
AcAeEditorObj
  3
AcAeEditorObj
 90
     1024
 91
        1
280
     0
281
     0
  0
CLASS
  1
MULTILEADER
  2
AcDbMLeader
  3
ACDB_MLEADER_CLASS
 90
     1025
 91
        0
280
     0
281
     1
  0
ENDSEC
  0
SECTION
  2
TABLES
  0
TABLE
  2
VPORT
  5
8
102
{ACAD_XDICTIONARY
360
12DD3
102
}
330
0
100
AcDbSymbolTable
 70
     1
  0
VPORT
  5
12D1D
330
8
100
AcDbSymbolTableRecord
100
AcDbViewportTableRecord
  2
*Active
 70
     0
 10
0.0
 20
0.0
 11
1.0
 21
1.0
 12
2968.381612587582
 22
704.6146873474524
 13
0.0
 23
0.0
 14
1.0
 24
1.0
 15
0.0
 25
0.0
 16
0.0
 26
0.0
 36
1.0
 17
0.0
 27
0.0
 37
0.0
 40
105.8618441420312
 41
2.203389830508474
 42
50.0
 43
0.0
 44
0.0
 50
0.0
 51
0.0
 71
     0
 72
   100
 73
     1
 74
     1
 75
     0
 76
     0
 77
     0
 78
     0
281
     0
 65
     0
110
0.0
120
0.0
130
0.0
111
1.0
121
0.0
131
0.0
112
0.0
122
1.0
132
0.0
 79
     0
146
0.0
348
12D3E
 60
     3
 61
     5
292
     1
282
     1
141
0.0
142
0.0
 63
   250
421
  3355443
  0
ENDTAB
  0
TABLE
  2
LTYPE
  5
5
330
0
100
AcDbSymbolTable
 70
     4
  0
LTYPE
  5
14
330
5
100
AcDbSymbolTableRecord
100
AcDbLinetypeTableRecord
  2
ByBlock
 70
     0
  3

 72
    65
 73
     0
 40
0.0
  0
LTYPE
  5
15
330
5
100
AcDbSymbolTableRecord
100
AcDbLinetypeTableRecord
  2
ByLayer
 70
     0
  3

 72
    65
 73
     0
 40
0.0
  0
LTYPE
  5
16
330
5
100
AcDbSymbolTableRecord
100
AcDbLinetypeTableRecord
  2
CONTINUOUS
 70
     0
  3
Solid line
 72
    65
 73
     0
 40
0.0
  0
LTYPE
  5
1D9F6
330
5
100
AcDbSymbolTableRecord
100
AcDbLinetypeTableRecord
  2
CENTER
 70
     0
  3
____ _ ____ _ ____ _ ____ _ ____ _ ____ _ ____
 72
    65
 73
     4
 40
0.6
 49
0.375
 74
     0
 49
-0.075
 74
     0
 49
0.075
 74
     0
 49
-0.075
 74
     0
  0
LTYPE
  5
827F7
330
5
100
AcDbSymbolTableRecord
100
AcDbLinetypeTableRecord
  2
CENTER2
 70
     0
  3
Center (.5x) ___ _ ___ _ ___ _ ___ _ ___ _ ___
 72
    65
 73
     4
 40
1.125
 49
0.75
 74
     0
 49
-0.125
 74
     0
 49
0.125
 74
     0
 49
-0.125
 74
     0
  0
LTYPE
  5
83274
330
5
100
AcDbSymbolTableRecord
100
AcDbLinetypeTableRecord
  2
HIDDEN
 70
     0
  3
Hidden __ __ __ __ __ __ __ __ __ __ __ __ __ __
 72
    65
 73
     2
 40
9.524999999999996
 49
6.349999999999997
 74
     0
 49
-3.174999999999998
 74
     0
  0
ENDTAB
  0
TABLE
  2
LAYER
  5
2
102
{ACAD_XDICTIONARY
360
7EA
102
}
330
0
100
AcDbSymbolTable
 70
     7
  0
LAYER
  5
10
102
{ACAD_XDICTIONARY
360
12D81
102
}
330
2
100
AcDbSymbolTableRecord
100
AcDbLayerTableRecord
  2
0
 70
     0
 62
     7
  6
CONTINUOUS
370
    30
390
F
347
6897
  0
LAYER
  5
7C8
330
2
100
AcDbSymbolTableRecord
100
AcDbLayerTableRecord
  2
Defpoints
 70
     0
 62
     7
  6
CONTINUOUS
290
     0
370
    -3
390
F
347
6897
  0
LAYER
  5
876E
102
{ACAD_XDICTIONARY
360
12D8B
102
}
330
2
100
AcDbSymbolTableRecord
100
AcDbLayerTableRecord
  2
ASHADE
 70
     0
 62
     7
  6
CONTINUOUS
370
    35
390
F
347
6897
  0
LAYER
  5
F6EE
102
{ACAD_XDICTIONARY
360
12D8D
102
}
330
2
100
AcDbSymbolTableRecord
100
AcDbLayerTableRecord
  2
图框
 70
     0
 62
     7
  6
CONTINUOUS
370
    20
390
F
347
6897
  0
LAYER
  5
1508C
330
2
100
AcDbSymbolTableRecord
100
AcDbLayerTableRecord
  2
打标文字
 70
     0
 62
     3
  6
CONTINUOUS
370
    20
390
F
347
6897
  0
LAYER
  5
1E3BF
102
{ACAD_XDICTIONARY
360
1E3C0
102
}
330
2
100
AcDbSymbolTableRecord
100
AcDbLayerTableRecord
  2
Dim
 70
     0
 62
     3
  6
CONTINUOUS
370
    15
390
F
347
6897
  0
LAYER
  5
81D77
330
2
100
AcDbSymbolTableRecord
100
AcDbLayerTableRecord
  2
CEN
 70
     0
 62
     1
  6
CENTER
370
    15
390
F
347
6897
1001
AcAecLayerStandard
1000

1000

  0
ENDTAB
  0
TABLE
  2
STYLE
  5
3
330
0
100
AcDbSymbolTable
 70
     7
  0
STYLE
  5
11
330
3
100
AcDbSymbolTableRecord
100
AcDbTextStyleTableRecord
  2
STANDARD
 70
     0
 40
0.0
 41
0.75
 50
0.0
 71
     0
 42
0.2
  3

  4

1001
ACAD
1000
仿宋_GB2312
1071
    34353
  0
STYLE
  5
46E5B
330
3
100
AcDbSymbolTableRecord
100
AcDbTextStyleTableRecord
  2
txt字体
 70
     0
 40
0.0
 41
0.7
 50
0.0
 71
     0
 42
0.2
  3
txt.shx
  4

  0
STYLE
  5
474F8
330
3
100
AcDbSymbolTableRecord
100
AcDbTextStyleTableRecord
  2
Romans字体
 70
     0
 40
0.0
 41
0.75
 50
0.0
 71
     0
 42
0.2
  3
romans.shx
  4

  0
STYLE
  5
474F9
330
3
100
AcDbSymbolTableRecord
100
AcDbTextStyleTableRecord
  2
工程字
 70
     0
 40
0.0
 41
1.0
 50
0.0
 71
     0
 42
3.5
  3
gbenor.shx
  4
gbcbig.shx
  0
STYLE
  5
474FA
330
3
100
AcDbSymbolTableRecord
100
AcDbTextStyleTableRecord
  2
Chinese
 70
     0
 40
0.0
 41
1.0
 50
0.0
 71
     0
 42
2.5
  3
PMingLiU.ttf
  4

1001
ACAD
1000
PMingLiU
1071
    34834
  0
ENDTAB
  0
TABLE
  2
VIEW
  5
6
330
0
100
AcDbSymbolTable
 70
     0
  0
ENDTAB
  0
TABLE
  2
UCS
  5
7
330
0
100
AcDbSymbolTable
 70
     0
  0
ENDTAB
  0
TABLE
  2
APPID
  5
9
330
0
100
AcDbSymbolTable
 70
    46
  0
APPID
  5
206
330
9
100
AcDbSymbolTableRecord
100
AcDbRegAppTableRecord
  2
ACAD
 70
     0
  0
APPID
  5
7E2
330
9
100
AcDbSymbolTableRecord
100
AcDbRegAppTableRecord
  2
DCO15
 70
     0
  0
APPID
  5
7E3
330
9
100
AcDbSymbolTableRecord
100
AcDbRegAppTableRecord
  2
ACAD_PSEXT
 70
     0
  0
APPID
  5
7E4
330
9
100
AcDbSymbolTableRecord
100
AcDbRegAppTableRecord
  2
AcAecLayerStandard
 70
     0
  0
APPID
  5
7E5
330
9
100
AcDbSymbolTableRecord
100
AcDbRegAppTableRecord
  2
ACAD_DSTYLE_DIMEXT_LENGTH
 70
     0
  0
APPID
  5
7E6
330
9
100
AcDbSymbolTableRecord
100
AcDbRegAppTableRecord
  2
ACAD_DSTYLE_DIMEXT_ENABLED
 70
     0
  0
APPID
  5
7E7
330
9
100
AcDbSymbolTableRecord
100
AcDbRegAppTableRecord
  2
ACAD_DSTYLE_DIMJOGGED_JOGANGLE_SYMBOL
 70
     0
  0
APPID
  5
7E8
330
9
100
AcDbSymbolTableRecord
100
AcDbRegAppTableRecord
  2
ACAD_DSTYLE_DIMARC_LENGTH_SYMBOL
 70
     0
  0
APPID
  5
7E9
330
9
100
AcDbSymbolTableRecord
100
AcDbRegAppTableRecord
  2
ACAD_DSTYLE_DIMTEXT_FILL
 70
     0
  0
APPID
  5
1765
330
9
100
AcDbSymbolTableRecord
100
AcDbRegAppTableRecord
  2
GENIUS_GENTRA_14
 70
     0
  0
APPID
  5
1766
330
9
100
AcDbSymbolTableRecord
100
AcDbRegAppTableRecord
  2
GENIUS_GENODEF_13
 70
     0
  0
APPID
  5
1767
330
9
100
AcDbSymbolTableRecord
100
AcDbRegAppTableRecord
  2
GENIUS_GENOBJ-N-TIT_13
 70
     0
  0
APPID
  5
1768
330
9
100
AcDbSymbolTableRecord
100
AcDbRegAppTableRecord
  2
GENIUS_GENTITLE_13
 70
     0
  0
APPID
  5
1769
330
9
100
AcDbSymbolTableRecord
100
AcDbRegAppTableRecord
  2
GENIUS_GENOENT_13
 70
     0
  0
APPID
  5
176A
330
9
100
AcDbSymbolTableRecord
100
AcDbRegAppTableRecord
  2
GENIUS_GENOREF_13
 70
     0
  0
APPID
  5
176B
330
9
100
AcDbSymbolTableRecord
100
AcDbRegAppTableRecord
  2
GENIUS_GENOLIS_13
 70
     0
  0
APPID
  5
176C
330
9
100
AcDbSymbolTableRecord
100
AcDbRegAppTableRecord
  2
GENIUS_GENOBJ-N-SDF_13
 70
     0
  0
APPID
  5
176D
330
9
100
AcDbSymbolTableRecord
100
AcDbRegAppTableRecord
  2
GENIUS_GENSCREG_13
 70
     0
  0
APPID
  5
688B
330
9
100
AcDbSymbolTableRecord
100
AcDbRegAppTableRecord
  2
ACAD_DSTYLE_DIM_LINETYPE
 70
     0
  0
APPID
  5
688C
330
9
100
AcDbSymbolTableRecord
100
AcDbRegAppTableRecord
  2
ACAD_DSTYLE_DIM_EXT1_LINETYPE
 70
     0
  0
APPID
  5
688D
330
9
100
AcDbSymbolTableRecord
100
AcDbRegAppTableRecord
  2
ACAD_DSTYLE_DIM_EXT2_LINETYPE
 70
     0
  0
APPID
  5
688E
330
9
100
AcDbSymbolTableRecord
100
AcDbRegAppTableRecord
  2
ACAD_EXEMPT_FROM_CAD_STANDARDS
 70
     0
  0
APPID
  5
688F
330
9
100
AcDbSymbolTableRecord
100
AcDbRegAppTableRecord
  2
CAXA
 70
     0
  0
APPID
  5
6890
330
9
100
AcDbSymbolTableRecord
100
AcDbRegAppTableRecord
  2
AcDbBlockRepETag
 70
     0
  0
APPID
  5
6891
330
9
100
AcDbSymbolTableRecord
100
AcDbRegAppTableRecord
  2
ACAUTHENVIRON
 70
     0
  0
APPID
  5
6892
330
9
100
AcDbSymbolTableRecord
100
AcDbRegAppTableRecord
  2
AcDbDynamicBlockTrueName
 70
     0
  0
APPID
  5
6893
330
9
100
AcDbSymbolTableRecord
100
AcDbRegAppTableRecord
  2
AcDbDynamicBlockGUID
 70
     0
  0
APPID
  5
6894
330
9
100
AcDbSymbolTableRecord
100
AcDbRegAppTableRecord
  2
STD
 70
     0
  0
APPID
  5
6895
330
9
100
AcDbSymbolTableRecord
100
AcDbRegAppTableRecord
  2
AcDbBlockRepBTag
 70
     0
  0
APPID
  5
6896
330
9
100
AcDbSymbolTableRecord
100
AcDbRegAppTableRecord
  2
RAK
 70
     0
  0
APPID
  5
8770
330
9
100
AcDbSymbolTableRecord
100
AcDbRegAppTableRecord
  2
AVE_RENDER
 70
     0
  0
APPID
  5
8771
330
9
100
AcDbSymbolTableRecord
100
AcDbRegAppTableRecord
  2
AVE_ENTITY_MATERIAL
 70
     0
  0
APPID
  5
8772
330
9
100
AcDbSymbolTableRecord
100
AcDbRegAppTableRecord
  2
AVE_FINISH
 70
     0
  0
APPID
  5
8773
330
9
100
AcDbSymbolTableRecord
100
AcDbRegAppTableRecord
  2
AVE_MATERIAL
 70
     0
  0
APPID
  5
8774
330
9
100
AcDbSymbolTableRecord
100
AcDbRegAppTableRecord
  2
AVE_GLOBAL
 70
     0
  0
APPID
  5
F4F3
330
9
100
AcDbSymbolTableRecord
100
AcDbRegAppTableRecord
  2
yx_bom1
 70
     0
  0
APPID
  5
F4F4
330
9
100
AcDbSymbolTableRecord
100
AcDbRegAppTableRecord
  2
yx_bom2
 70
     0
  0
APPID
  5
F4F5
330
9
100
AcDbSymbolTableRecord
100
AcDbRegAppTableRecord
  2
yx_bom3
 70
     0
  0
APPID
  5
12D6F
330
9
100
AcDbSymbolTableRecord
100
AcDbRegAppTableRecord
  2
ACAD_MLEADERVER
 70
     0
  0
APPID
  5
12DFC
330
9
100
AcDbSymbolTableRecord
100
AcDbRegAppTableRecord
  2
AcadAnnoPO
 70
     0
  0
APPID
  5
12FCD
330
9
100
AcDbSymbolTableRecord
100
AcDbRegAppTableRecord
  2
ACAD_DSTYLE_DIMJAG
 70
     0
  0
APPID
  5
12FCE
330
9
100
AcDbSymbolTableRecord
100
AcDbRegAppTableRecord
  2
ACAD_DSTYLE_DIMTALN
 70
     0
  0
APPID
  5
1A9DF
330
9
100
AcDbSymbolTableRecord
100
AcDbRegAppTableRecord
  2
AcadAnnotative
 70
     0
  0
APPID
  5
1E3C3
330
9
100
AcDbSymbolTableRecord
100
AcDbRegAppTableRecord
  2
ACAD_NAV_VCDISPLAY
 70
     0
  0
APPID
  5
463BD
330
9
100
AcDbSymbolTableRecord
100
AcDbRegAppTableRecord
  2
ACAD_DSTYLE_DIMBREAK
 70
     0
  0
APPID
  5
463BF
330
9
100
AcDbSymbolTableRecord
100
AcDbRegAppTableRecord
  2
ACAD_DSTYLE_DIMRADIAL_EXTENSION
 70
     0
  0
ENDTAB
  0
TABLE
  2
DIMSTYLE
  5
A
330
0
100
AcDbSymbolTable
 70
     7
100
AcDbDimStyleTable
 71
     2
340
F6EF
340
207
  0
DIMSTYLE
105
207
330
A
100
AcDbSymbolTableRecord
100
AcDbDimStyleTableRecord
  2
STANDARD
 70
     0
 41
3.5
 47
0.01
 48
0.01
 71
     1
 73
     0
 74
     0
 77
     1
 78
     8
140
3.5
271
     2
272
     2
284
     8
340
11
  0
DIMSTYLE
105
F6EF
102
{ACAD_REACTORS
330
82A2B
330
82A2C
330
82A2D
330
82A2E
330
82A2F
330
82A31
330
82A34
102
}
330
A
100
AcDbSymbolTableRecord
100
AcDbDimStyleTableRecord
  2
01
 70
     0
 41
4.5
 42
0.2
 43
0.2
 44
0.5
 73
     0
 74
     0
 77
     1
 78
     8
 79
     2
140
5.0
141
0.0
147
0.5
176
     1
177
     6
178
     4
179
     2
271
     1
272
     1
340
474F8
1001
ACAD_DSTYLE_DIMJAG
1070
   388
1040
1.5
1001
ACAD_DSTYLE_DIMTALN
1070
   392
1070
     0
  0
DIMSTYLE
105
81D79
102
{ACAD_REACTORS
330
82A33
102
}
330
A
100
AcDbSymbolTableRecord
100
AcDbDimStyleTableRecord
  2
01$3
 70
     0
 41
3.0
 42
0.2
 43
0.2
 44
2.0
 78
     8
 79
     2
140
3.5
141
0.0
147
0.5
176
     1
177
     6
178
     4
271
     2
272
     2
340
11
1001
ACAD_DSTYLE_DIMBREAK
1070
   391
1040
0.125
1001
ACAD_DSTYLE_DIMJAG
1070
   388
1040
1.5
1001
ACAD_DSTYLE_DIMTALN
1070
   392
1070
     0
  0
DIMSTYLE
105
827F8
102
{ACAD_REACTORS
330
82A32
330
82A30
102
}
330
A
100
AcDbSymbolTableRecord
100
AcDbDimStyleTableRecord
  2
01$4
 70
     0
 41
2.0
 42
0.2
 43
0.2
 44
0.5
 47
0.01
 48
0.01
 78
     8
 79
     2
140
2.5
141
0.0
147
0.5
176
     1
177
     6
178
     4
179
     2
271
     2
272
     2
340
11
  0
DIMSTYLE
105
827F9
330
A
100
AcDbSymbolTableRecord
100
AcDbDimStyleTableRecord
  2
DSTYLE2
 70
     0
 41
3.0
 42
0.0
 44
2.0
 45
0.001
 47
1.0
 48
1.0
 73
     0
 74
     0
 77
     1
 78
    11
140
1.75
143
0.039370079
144
0.5
147
2.0
271
     3
272
     3
274
     0
279
     2
340
11
  0
ENDTAB
  0
TABLE
  2
BLOCK_RECORD
  5
1
330
0
100
AcDbSymbolTable
 70
    40
  0
BLOCK_RECORD
  5
1F
330
1
100
AcDbSymbolTableRecord
100
AcDbBlockTableRecord
  2
*MODEL_SPACE
340
22
 70
     0
280
     1
281
     0
  0
BLOCK_RECORD
  5
1B
330
1
100
AcDbSymbolTableRecord
100
AcDbBlockTableRecord
  2
*PAPER_SPACE
340
1E
 70
     0
280
     1
281
     0
  0
BLOCK_RECORD
  5
84E5
330
1
100
AcDbSymbolTableRecord
100
AcDbBlockTableRecord
  2
AVE_RENDER
340
0
102
{BLKREFS
331
8AE2
331
8AE3
331
8AE4
331
8AE5
331
8AE6
331
8AE7
331
8AE8
331
8AE9
102
}
 70
     0
280
     1
281
     0
  0
BLOCK_RECORD
  5
84E8
330
1
100
AcDbSymbolTableRecord
100
AcDbBlockTableRecord
  2
AVE_GLOBAL
340
0
102
{BLKREFS
331
8AEA
102
}
 70
     0
280
     1
281
     0
  0
BLOCK_RECORD
  5
47460
102
{ACAD_XDICTIONARY
360
833CE
102
}
330
1
100
AcDbSymbolTableRecord
100
AcDbBlockTableRecord
  2
A4图框-NEW
340
0
310
2800000020000000200000000100080000000000000400000000000000000000000000000000000000000000000080000080000000808000800000008000800080800000C0C0C000C0DCC000F0CAA6000020400000206000002080000020A0000020C0000020E00000400000004020000040400000406000004080000040A0
310
000040C0000040E00000600000006020000060400000606000006080000060A0000060C0000060E00000800000008020000080400000806000008080000080A0000080C0000080E00000A0000000A0200000A0400000A0600000A0800000A0A00000A0C00000A0E00000C0000000C0200000C0400000C0600000C0800000C0
310
A00000C0C00000C0E00000E0000000E0200000E0400000E0600000E0800000E0A00000E0C00000E0E00040000000400020004000400040006000400080004000A0004000C0004000E00040200000402020004020400040206000402080004020A0004020C0004020E000404000004040200040404000404060004040800040
310
40A0004040C0004040E00040600000406020004060400040606000406080004060A0004060C0004060E00040800000408020004080400040806000408080004080A0004080C0004080E00040A0000040A0200040A0400040A0600040A0800040A0A00040A0C00040A0E00040C0000040C0200040C0400040C0600040C08000
310
40C0A00040C0C00040C0E00040E0000040E0200040E0400040E0600040E0800040E0A00040E0C00040E0E00080000000800020008000400080006000800080008000A0008000C0008000E00080200000802020008020400080206000802080008020A0008020C0008020E00080400000804020008040400080406000804080
310
008040A0008040C0008040E00080600000806020008060400080606000806080008060A0008060C0008060E00080800000808020008080400080806000808080008080A0008080C0008080E00080A0000080A0200080A0400080A0600080A0800080A0A00080A0C00080A0E00080C0000080C0200080C0400080C0600080C0
310
800080C0A00080C0C00080C0E00080E0000080E0200080E0400080E0600080E0800080E0A00080E0C00080E0E000C0000000C0002000C0004000C0006000C0008000C000A000C000C000C000E000C0200000C0202000C0204000C0206000C0208000C020A000C020C000C020E000C0400000C0402000C0404000C0406000C0
310
408000C040A000C040C000C040E000C0600000C0602000C0604000C0606000C0608000C060A000C060C000C060E000C0800000C0802000C0804000C0806000C0808000C080A000C080C000C080E000C0A00000C0A02000C0A04000C0A06000C0A08000C0A0A000C0A0C000C0A0E000C0C00000C0C02000C0C04000C0C06000
310
C0C08000C0C0A000F0FBFF00A4A0A000808080000000FF0000FF000000FFFF00FF000000FF00FF00FFFF0000FFFFFF0000000000000000000000000000000000000000000000000000000000000000000000000000000000000000000000000000000000000000000000000000000000000000000000000000000000000000
310
000000000000000000000000000000000000000000000000000000000000000000000000000000000000000000000000000000000000000000000000000000000000000000000000000000000000000000000000000000000000000000000000000000000000000000000000000000000000F9F9F9F9F9F9F9F9F9F9F9F9F9
310
F9F9F9F9F9F9F9F9F9F9F9F9F9F9FF00000000F9FF000000000000000000FFFFFFFFFFFFFFFFFFFFFFFFF9FAFAFAFF00000000F9FF000000000000000000FFFFFFFFFFFFFFFFFFFFFFFFFFFFFFFFFF00000000F9FD000000000000000000FFFFFFFFFFFFFFFFFFFFFFFFFFFFFFFFFF00000000F9FF000000000000000000FF
310
FFFFFFFFFFFFFFFFFFFFFFFFFFFFFFFF00000000F9FD000000000000000000FFFFFFFFFFFFFFFFFFFFFFFFFFFFFFFFFF00000000F9FF00000000000000000000000000000000000000000000000000FF00000000F9FD00000000000000000000000000000000000000000000000000FF00000000F9FF000000000000000000
310
00000000000000000000000000000000FF00000000F9FD00000000000000000000000000000000000000000000000000FF00000000F9FF00000000000000000000000000000000000000000000000000FF00000000F9FD00000000000000000000000000000000000000000000000000FF00000000F9FD0000000000000000
310
0000000000000000000000000000000000FF00000000F9FF00000000000000000000000000000000000000000000000000FF00000000F9FD00000000000000000000000000000000000000000000000000FF00000000F9FF00000000000000000000000000000000000000000000000000FF00000000F9FD00000000000000
310
000000000000000000000000000000000000FF00000000F9FF00000000000000000000000000000000000000000000000000FF00000000F9FFFFFFFFFFFFFFFFFFFFFFFFFFFFFFFFFFFFFFFFFFFFFFFFFFFFFF00000000F9FFFFFFF9F9F9F9F9F9F9F9F9F9F9F9F9F9F9F9F9F9F9F9F9F9F9F9000000000000000000000000
310
00000000000000000000000000000000000000000000000000000000000000000000000000000000000000000000000000000000000000000000000000000000000000000000000000000000000000000000000000000000000000000000000000000000000000000000000000000000000000000000000000000000000000
310
0000000000000000000000000000000000000000000000000000000000000000000000000000000000000000000000000000000000000000
102
{BLKREFS
331
4BB87
102
}
 70
     4
280
     1
281
     0
1001
AcDbDynamicBlockGUID
1000
{33C9ABEA-8249-4348-846C-AEF2E6AEB96E}
1001
AcDbBlockRepETag
1070
     1
1071
      151
  0
BLOCK_RECORD
  5
822C4
330
1
100
AcDbSymbolTableRecord
100
AcDbBlockTableRecord
  2
*D3
340
0
 70
     0
280
     1
281
     0
  0
BLOCK_RECORD
  5
822D1
330
1
100
AcDbSymbolTableRecord
100
AcDbBlockTableRecord
  2
*D4
340
0
 70
     0
280
     1
281
     0
  0
BLOCK_RECORD
  5
822DA
330
1
100
AcDbSymbolTableRecord
100
AcDbBlockTableRecord
  2
*D5
340
0
 70
     0
280
     1
281
     0
  0
BLOCK_RECORD
  5
822E6
330
1
100
AcDbSymbolTableRecord
100
AcDbBlockTableRecord
  2
*D6
340
0
 70
     0
280
     1
281
     0
  0
BLOCK_RECORD
  5
822F3
330
1
100
AcDbSymbolTableRecord
100
AcDbBlockTableRecord
  2
*D7
340
0
 70
     0
280
     1
281
     0
  0
BLOCK_RECORD
  5
82300
330
1
100
AcDbSymbolTableRecord
100
AcDbBlockTableRecord
  2
*D8
340
0
 70
     0
280
     1
281
     0
  0
BLOCK_RECORD
  5
8230C
330
1
100
AcDbSymbolTableRecord
100
AcDbBlockTableRecord
  2
*D9
340
0
 70
     0
280
     1
281
     0
  0
BLOCK_RECORD
  5
82319
330
1
100
AcDbSymbolTableRecord
100
AcDbBlockTableRecord
  2
*D10
340
0
 70
     0
280
     1
281
     0
  0
BLOCK_RECORD
  5
82325
330
1
100
AcDbSymbolTableRecord
100
AcDbBlockTableRecord
  2
*D11
340
0
 70
     0
280
     1
281
     0
  0
BLOCK_RECORD
  5
82332
330
1
100
AcDbSymbolTableRecord
100
AcDbBlockTableRecord
  2
*D12
340
0
 70
     0
280
     1
281
     0
  0
BLOCK_RECORD
  5
8233F
330
1
100
AcDbSymbolTableRecord
100
AcDbBlockTableRecord
  2
*D13
340
0
 70
     0
280
     1
281
     0
  0
BLOCK_RECORD
  5
8234B
330
1
100
AcDbSymbolTableRecord
100
AcDbBlockTableRecord
  2
*D14
340
0
 70
     0
280
     1
281
     0
  0
BLOCK_RECORD
  5
82781
330
1
100
AcDbSymbolTableRecord
100
AcDbBlockTableRecord
  2
*D15
340
0
 70
     0
280
     1
281
     0
  0
BLOCK_RECORD
  5
8278E
330
1
100
AcDbSymbolTableRecord
100
AcDbBlockTableRecord
  2
*D16
340
0
 70
     0
280
     1
281
     0
  0
BLOCK_RECORD
  5
8279B
330
1
100
AcDbSymbolTableRecord
100
AcDbBlockTableRecord
  2
*D17
340
0
 70
     0
280
     1
281
     0
  0
BLOCK_RECORD
  5
827A8
330
1
100
AcDbSymbolTableRecord
100
AcDbBlockTableRecord
  2
*D18
340
0
 70
     0
280
     1
281
     0
  0
BLOCK_RECORD
  5
827B5
330
1
100
AcDbSymbolTableRecord
100
AcDbBlockTableRecord
  2
*D19
340
0
 70
     0
280
     1
281
     0
  0
BLOCK_RECORD
  5
827C2
330
1
100
AcDbSymbolTableRecord
100
AcDbBlockTableRecord
  2
*D20
340
0
 70
     0
280
     1
281
     0
  0
BLOCK_RECORD
  5
827CB
330
1
100
AcDbSymbolTableRecord
100
AcDbBlockTableRecord
  2
*D21
340
0
 70
     0
280
     1
281
     0
  0
BLOCK_RECORD
  5
827D8
330
1
100
AcDbSymbolTableRecord
100
AcDbBlockTableRecord
  2
*D22
340
0
 70
     0
280
     1
281
     0
  0
BLOCK_RECORD
  5
827E1
330
1
100
AcDbSymbolTableRecord
100
AcDbBlockTableRecord
  2
*D23
340
0
 70
     0
280
     1
281
     0
  0
BLOCK_RECORD
  5
827EA
330
1
100
AcDbSymbolTableRecord
100
AcDbBlockTableRecord
  2
*D24
340
0
 70
     0
280
     1
281
     0
  0
BLOCK_RECORD
  5
82A36
330
1
100
AcDbSymbolTableRecord
100
AcDbBlockTableRecord
  2
*D25
340
0
 70
     0
280
     1
281
     0
  0
BLOCK_RECORD
  5
82A42
330
1
100
AcDbSymbolTableRecord
100
AcDbBlockTableRecord
  2
*D26
340
0
 70
     0
280
     1
281
     0
  0
BLOCK_RECORD
  5
82A4E
330
1
100
AcDbSymbolTableRecord
100
AcDbBlockTableRecord
  2
*D27
340
0
 70
     0
280
     1
281
     0
  0
BLOCK_RECORD
  5
82A5B
330
1
100
AcDbSymbolTableRecord
100
AcDbBlockTableRecord
  2
*D28
340
0
 70
     0
280
     1
281
     0
  0
BLOCK_RECORD
  5
82A67
330
1
100
AcDbSymbolTableRecord
100
AcDbBlockTableRecord
  2
*D29
340
0
 70
     0
280
     1
281
     0
  0
BLOCK_RECORD
  5
82A74
330
1
100
AcDbSymbolTableRecord
100
AcDbBlockTableRecord
  2
*D30
340
0
 70
     0
280
     1
281
     0
  0
BLOCK_RECORD
  5
82A7D
330
1
100
AcDbSymbolTableRecord
100
AcDbBlockTableRecord
  2
*D31
340
0
 70
     0
280
     1
281
     0
  0
BLOCK_RECORD
  5
82A8A
330
1
100
AcDbSymbolTableRecord
100
AcDbBlockTableRecord
  2
*D32
340
0
 70
     0
280
     1
281
     0
  0
BLOCK_RECORD
  5
82A93
330
1
100
AcDbSymbolTableRecord
100
AcDbBlockTableRecord
  2
*D33
340
0
 70
     0
280
     1
281
     0
  0
BLOCK_RECORD
  5
82A9C
330
1
100
AcDbSymbolTableRecord
100
AcDbBlockTableRecord
  2
*D34
340
0
 70
     0
280
     1
281
     0
  0
ENDTAB
  0
ENDSEC
  0
SECTION
  2
BLOCKS
  0
BLOCK
  5
20
330
1F
100
AcDbEntity
  8
0
100
AcDbBlockBegin
  2
*MODEL_SPACE
 70
     0
 10
0.0
 20
0.0
 30
0.0
  3
*MODEL_SPACE
  1

  0
ENDBLK
  5
21
330
1F
100
AcDbEntity
  8
0
100
AcDbBlockEnd
  0
BLOCK
  5
1C
330
1B
100
AcDbEntity
 67
     1
  8
0
100
AcDbBlockBegin
  2
*PAPER_SPACE
 70
     0
 10
0.0
 20
0.0
 30
0.0
  3
*PAPER_SPACE
  1

  0
ENDBLK
  5
1D
330
1B
100
AcDbEntity
 67
     1
  8
0
100
AcDbBlockEnd
  0
BLOCK
  5
84E6
330
84E5
100
AcDbEntity
  8
ASHADE
370
     0
100
AcDbBlockBegin
  2
AVE_RENDER
 70
     0
 10
0.0
 20
0.0
 30
0.0
  3
AVE_RENDER
  1
AVE_RENDER
  0
ENDBLK
  5
84E7
330
84E5
100
AcDbEntity
  8
0
370
     0
100
AcDbBlockEnd
  0
BLOCK
  5
84E9
330
84E8
100
AcDbEntity
  8
ASHADE
370
     0
100
AcDbBlockBegin
  2
AVE_GLOBAL
 70
     0
 10
0.0
 20
0.0
 30
0.0
  3
AVE_GLOBAL
  1
AVE_GLOBAL
  0
ENDBLK
  5
84EA
330
84E8
100
AcDbEntity
  8
0
370
     0
100
AcDbBlockEnd
  0
BLOCK
  5
47462
330
47460
100
AcDbEntity
  8
0
100
AcDbBlockBegin
  2
A4图框-NEW
 70
     0
 10
0.0
 20
0.0
 30
0.0
  3
A4图框-NEW
  1

  0
MTEXT
  5
83339
102
{ACAD_XDICTIONARY
360
83414
102
}
330
47460
100
AcDbEntity
  8
图框
 62
     3
100
AcDbMText
 10
967.6594956750133
 20
499.7664151964293
 30
0.0
 40
2.985513575034151
 41
15.50176341157864
 46
6.292658374511018
 71
     5
 72
     5
  1
YP ZHU
  7
Romans字体
 73
     1
 44
1.0
1001
AcDbBlockRepETag
1070
     1
1071
        0
1005
83339
1001
ACAD
1000
ACAD_MTEXT_DEFINED_HEIGHT_BEGIN
1070
    46
1040
6.292658374511018
1000
ACAD_MTEXT_DEFINED_HEIGHT_END
  0
MTEXT
  5
8333A
330
47460
100
AcDbEntity
  8
图框
 62
     3
100
AcDbMText
 10
983.041569333247
 20
499.7664151964293
 30
0.0
 40
2.487927979195124
 41
15.26238390489062
 46
6.292658374511042
 71
     5
 72
     5
  1
{\W0.7;20.12.2023}
  7
Romans字体
 73
     1
 44
1.0
1001
AcDbBlockRepETag
1070
     1
1071
        1
1005
8333A
1001
ACAD
1000
ACAD_MTEXT_DEFINED_HEIGHT_BEGIN
1070
    46
1040
6.292658374511042
1000
ACAD_MTEXT_DEFINED_HEIGHT_END
  0
MTEXT
  5
8333B
330
47460
100
AcDbEntity
  8
图框
 62
     3
100
AcDbMText
 10
1012.477254728976
 20
487.1810984474071
 30
0.0
 40
2.985513575034151
 41
17.64876416884615
 46
6.292658374511455
 71
     5
 72
     5
  1
HQ ZHANG
  7
Romans字体
 73
     1
 44
1.0
1001
AcDbBlockRepETag
1070
     1
1071
        2
1005
8333B
1001
ACAD
1000
ACAD_MTEXT_DEFINED_HEIGHT_BEGIN
1070
    46
1040
6.292658374511455
1000
ACAD_MTEXT_DEFINED_HEIGHT_END
  0
MTEXT
  5
8333D
330
47460
100
AcDbEntity
  8
图框
 62
     3
100
AcDbMText
 10
1063.722665487208
 20
525.4145966538831
 30
0.0
 40
2.985513575034151
 41
32.4973914334545
 46
11.82914190181707
 71
     5
 72
     5
  1
-
  7
Romans字体
 73
     1
 44
1.0
1001
AcDbBlockRepETag
1070
     1
1071
        4
1005
8333D
1001
ACAD
1000
ACAD_MTEXT_DEFINED_HEIGHT_BEGIN
1070
    46
1040
11.82914190181707
1000
ACAD_MTEXT_DEFINED_HEIGHT_END
  0
MTEXT
  5
8333E
330
47460
100
AcDbEntity
  8
图框
 62
     3
100
AcDbMText
 10
1063.727338552349
 20
513.5854547520641
 30
0.0
 40
2.985513575034151
 41
32.48804530317308
 46
11.82914190182139
 71
     5
 72
     5
  1
-
  7
Romans字体
 73
     1
 44
1.0
1001
AcDbBlockRepETag
1070
     1
1071
        5
1005
8333E
1001
ACAD
1000
ACAD_MTEXT_DEFINED_HEIGHT_BEGIN
1070
    46
1040
11.82914190182139
1000
ACAD_MTEXT_DEFINED_HEIGHT_END
  0
MTEXT
  5
8333F
330
47460
100
AcDbEntity
  8
图框
 62
     3
100
AcDbMText
 10
1110.122306614152
 20
526.8006839312707
 30
0.0
 40
2.985513575034151
 41
33.61239199242139
 46
9.05696734704178
 71
     5
 72
     5
  1
-
  7
Romans字体
 73
     1
 44
1.0
1001
AcDbBlockRepETag
1070
     1
1071
        6
1005
8333F
1001
ACAD
1000
ACAD_MTEXT_DEFINED_HEIGHT_BEGIN
1070
    46
1040
9.05696734704178
1000
ACAD_MTEXT_DEFINED_HEIGHT_END
  0
MTEXT
  5
83340
330
47460
100
AcDbEntity
  8
图框
 62
     3
100
AcDbMText
 10
1110.122306614152
 20
500.2775205517162
 30
0.0
 40
2.985513575034151
 41
33.61239199242139
 46
8.871557304763419
 71
     5
 72
     5
  1
-
  7
Romans字体
 73
     1
 44
1.0
1001
AcDbBlockRepETag
1070
     1
1071
        7
1005
83340
1001
ACAD
1000
ACAD_MTEXT_DEFINED_HEIGHT_BEGIN
1070
    46
1040
8.871557304763419
1000
ACAD_MTEXT_DEFINED_HEIGHT_END
  0
MTEXT
  5
83341
102
{ACAD_XDICTIONARY
360
83416
102
}
330
47460
100
AcDbEntity
  8
图框
 62
     3
100
AcDbMText
 10
967.6594956750133
 20
493.4737568219182
 30
0.0
 40
2.985513575034151
 41
15.50176341157864
 46
6.292658374510335
 71
     5
 72
     5
  1
Q GAO
  7
Romans字体
 73
     1
 44
1.0
1001
AcDbBlockRepETag
1070
     1
1071
        8
1005
83341
1001
ACAD
1000
ACAD_MTEXT_DEFINED_HEIGHT_BEGIN
1070
    46
1040
6.292658374510335
1000
ACAD_MTEXT_DEFINED_HEIGHT_END
  0
MTEXT
  5
83343
330
47460
100
AcDbEntity
  8
图框
 62
     3
100
AcDbMText
 10
1012.477254728976
 20
499.7664151964291
 30
0.0
 40
2.985513575034151
 41
17.64876416884615
 46
6.292658374511397
 71
     5
 72
     5
  1
-
  7
Romans字体
 73
     1
 44
1.0
1001
AcDbBlockRepETag
1070
     1
1071
       10
1005
83343
1001
ACAD
1000
ACAD_MTEXT_DEFINED_HEIGHT_BEGIN
1070
    46
1040
6.292658374511397
1000
ACAD_MTEXT_DEFINED_HEIGHT_END
  0
MTEXT
  5
83344
330
47460
100
AcDbEntity
  8
图框
 62
     3
100
AcDbMText
 10
1028.977802139886
 20
499.7664151964289
 30
0.0
 40
2.487927979195124
 41
15.35233065297265
 46
6.292658374511382
 71
     5
 72
     5
  1
-
  7
Romans字体
 73
     1
 44
1.0
1001
AcDbBlockRepETag
1070
     1
1071
       11
1005
83344
1001
ACAD
1000
ACAD_MTEXT_DEFINED_HEIGHT_BEGIN
1070
    46
1040
6.292658374511382
1000
ACAD_MTEXT_DEFINED_HEIGHT_END
  0
MTEXT
  5
83345
330
47460
100
AcDbEntity
  8
图框
 62
     3
100
AcDbMText
 10
967.6594956750133
 20
487.1810984474071
 30
0.0
 40
2.985513575034151
 41
15.50176341157863
 46
6.292658374511478
 71
     5
 72
     5
  1
-
  7
Romans字体
 73
     1
 44
1.0
1001
AcDbBlockRepETag
1070
     1
1071
       12
1005
83345
1001
ACAD
1000
ACAD_MTEXT_DEFINED_HEIGHT_BEGIN
1070
    46
1040
6.292658374511478
1000
ACAD_MTEXT_DEFINED_HEIGHT_END
  0
MTEXT
  5
83346
330
47460
100
AcDbEntity
  8
图框
 62
     3
100
AcDbMText
 10
983.041569333247
 20
487.1810984474071
 30
0.0
 40
2.487927979195124
 41
15.26238390489062
 46
6.292658374511495
 71
     5
 72
     5
  1
-
  7
Romans字体
 73
     1
 44
1.0
1001
AcDbBlockRepETag
1070
     1
1071
       13
1005
83346
1001
ACAD
1000
ACAD_MTEXT_DEFINED_HEIGHT_BEGIN
1070
    46
1040
6.292658374511495
1000
ACAD_MTEXT_DEFINED_HEIGHT_END
  0
MTEXT
  5
83347
330
47460
100
AcDbEntity
  8
图框
 62
     3
100
AcDbMText
 10
1074.556686986741
 20
495.8417418993361
 30
0.0
 40
2.985513575034151
 41
10.82934843438978
 46
7.886094601210427
 71
     5
 72
     5
  1
-
  7
Romans字体
 73
     1
 44
1.0
1001
AcDbBlockRepETag
1070
     1
1071
       14
1005
83347
1001
ACAD
1000
ACAD_MTEXT_DEFINED_HEIGHT_BEGIN
1070
    46
1040
7.886094601210427
1000
ACAD_MTEXT_DEFINED_HEIGHT_END
  0
LINE
  5
83348
330
47460
100
AcDbEntity
  8
图框
370
    -3
100
AcDbLine
 10
1036.653967466372
 20
499.7847891999413
 30
0.0
 11
1079.971361203936
 21
499.7847891999413
 31
0.0
1001
AcDbBlockRepETag
1070
     1
1071
       15
1005
83348
  0
MTEXT
  5
83349
330
47460
100
AcDbEntity
  8
图框
 62
     1
370
    20
100
AcDbMText
 10
1108.26336443907
 20
491.5162596080882
 30
0.0
 40
2.699054613030988
 41
82.30831305643079
 46
0.0
 71
     5
 72
     5
  1
{\fSimHei|b0|i0|c134|p2;厦门唯恩电气有限公司}
 73
     1
 44
1.0
1001
AcDbBlockRepETag
1070
     1
1071
       16
1005
83349
  0
MTEXT
  5
8334A
330
47460
100
AcDbEntity
  8
图框
 62
     3
370
    20
100
AcDbMText
 10
1108.435451459908
 20
487.298967726064
 30
0.0
 40
1.652482416141417
 41
68.08558693693567
 46
0.0
 71
     5
 72
     5
  1
{\fArial Narrow|b0|i0|c0|p34;XIAMEN WAIN ELECTRICAL CO.LTD}
  7
工程字
 73
     1
 44
1.0
1001
AcDbBlockRepETag
1070
     1
1071
       17
1005
8334A
  0
MTEXT
  5
8334B
330
47460
100
AcDbEntity
  8
图框
 62
     1
370
    20
100
AcDbMText
 10
1085.711816899387
 20
491.0944802995856
 30
0.0
 40
2.005930044038334
 41
5.047240019334847
 46
0.0
 71
     1
 72
     5
  1
{\fArial|b0|i0|c0|p34;A}
  7
Chinese
 73
     1
 44
1.0
1001
AcDbBlockRepETag
1070
     1
1071
       18
1005
8334B
  0
MTEXT
  5
8334C
330
47460
100
AcDbEntity
  8
图框
 62
     1
370
    20
100
AcDbMText
 10
1088.213485935716
 20
491.0944802995856
 30
0.0
 40
2.005930044038334
 41
5.047240019334847
 46
0.0
 71
     1
 72
     5
  1
{\fArial|b0|i0|c0|p34;I}
  7
Chinese
 73
     1
 44
1.0
1001
AcDbBlockRepETag
1070
     1
1071
       19
1005
8334C
  0
MTEXT
  5
8334D
330
47460
100
AcDbEntity
  8
图框
 62
     1
370
    20
100
AcDbMText
 10
1089.142375222864
 20
491.0822866326808
 30
0.0
 40
2.005930044038334
 41
5.047240019334847
 46
0.0
 71
     1
 72
     5
  1
{\fArial|b0|i0|c0|p34;N}
  7
Chinese
 73
     1
 44
1.0
1001
AcDbBlockRepETag
1070
     1
1071
       20
1005
8334D
  0
MTEXT
  5
8334E
330
47460
100
AcDbEntity
  8
图框
100
AcDbMText
 10
1069.142012769545
 20
487.9667319294409
 30
0.0
 40
2.252848170144607
 41
21.65869686878327
 46
7.863925338579296
 71
     5
 72
     5
  1
{\W0.5;\C1;All Dimensions in mm\POriginal Size DIN A 4}
  7
Romans字体
 73
     1
 44
1.0
1001
AcDbBlockRepETag
1070
     1
1071
       21
1005
8334E
1001
ACAD
1000
ACAD_MTEXT_DEFINED_HEIGHT_BEGIN
1070
    46
1040
7.863925338579296
1000
ACAD_MTEXT_DEFINED_HEIGHT_END
  0
MTEXT
  5
8334F
330
47460
100
AcDbEntity
  8
图框
  6
ByBlock
 62
     6
370
    18
100
AcDbMText
 10
1127.40434942308
 20
508.7896535755975
 30
0.0
 40
2.651776162684904
 41
2.557913877927211
 46
0.0
 71
     1
 72
     5
  1
A
  7
Romans字体
 11
0.0000000000000001
 21
1.0
 31
0.0
 73
     1
 44
1.0
1001
AcDbBlockRepETag
1070
     1
1071
       22
1005
8334F
  0
MTEXT
  5
83350
330
47460
100
AcDbEntity
  8
图框
 62
     6
100
AcDbMText
 10
1127.40434942308
 20
556.3746573232886
 30
0.0
 40
2.651776162684904
 41
2.557913877927211
 46
0.0
 71
     1
 72
     5
  1
B
  7
Romans字体
 11
0.0000000000000001
 21
1.0
 31
0.0
 73
     1
 44
1.0
1001
AcDbBlockRepETag
1070
     1
1071
       23
1005
83350
  0
MTEXT
  5
83351
330
47460
100
AcDbEntity
  8
图框
 62
     6
100
AcDbMText
 10
1127.40434942308
 20
607.5539372630998
 30
0.0
 40
2.651776162684904
 41
2.557913877927211
 46
0.0
 71
     1
 72
     5
  1
C
  7
Romans字体
 11
0.0000000000000001
 21
1.0
 31
0.0
 73
     1
 44
1.0
1001
AcDbBlockRepETag
1070
     1
1071
       24
1005
83351
  0
MTEXT
  5
83352
330
47460
100
AcDbEntity
  8
图框
 62
     6
100
AcDbMText
 10
1127.40434942308
 20
658.7332172029115
 30
0.0
 40
2.651776162684904
 41
2.557913877927211
 46
0.0
 71
     1
 72
     5
  1
D
  7
Romans字体
 11
0.0000000000000001
 21
1.0
 31
0.0
 73
     1
 44
1.0
1001
AcDbBlockRepETag
1070
     1
1071
       25
1005
83352
  0
LINE
  5
83353
330
47460
100
AcDbEntity
  8
图框
 62
     6
100
AcDbLine
 10
1130.411601781241
 20
634.0726090796082
 30
0.0
 11
1126.928502610363
 21
634.0726090796082
 31
0.0
1001
AcDbBlockRepETag
1070
     1
1071
       26
1005
83353
  0
LINE
  5
83354
330
47460
100
AcDbEntity
  8
图框
 62
     6
100
AcDbLine
 10
1130.411601781241
 20
582.89332913979
 30
0.0
 11
1126.928502610363
 21
582.89332913979
 31
0.0
1001
AcDbBlockRepETag
1070
     1
1071
       27
1005
83354
  0
MTEXT
  5
83355
330
47460
100
AcDbEntity
  8
图框
 62
     6
100
AcDbMText
 10
1105.329704038389
 20
483.6164543011163
 30
0.0
 40
2.651776162684904
 41
2.557913877927211
 46
0.0
 71
     1
 72
     5
  1
6
  7
Romans字体
 73
     1
 44
1.0
1001
AcDbBlockRepETag
1070
     1
1071
       28
1005
83355
  0
LINE
  5
83356
330
47460
100
AcDbEntity
  8
图框
 62
     6
100
AcDbLine
 10
1081.088565155284
 20
484.0347692601515
 30
0.0
 11
1081.088565155284
 21
480.5347692601475
 31
0.0
1001
AcDbBlockRepETag
1070
     1
1071
       29
1005
83356
  0
MTEXT
  5
83357
330
47460
100
AcDbEntity
  8
图框
 62
     6
100
AcDbMText
 10
1055.900596365941
 20
483.520053108993
 30
0.0
 40
2.651776162684904
 41
2.557913877927211
 46
0.0
 71
     1
 72
     5
  1
5
  7
Romans字体
 73
     1
 44
1.0
1001
AcDbBlockRepETag
1070
     1
1071
       30
1005
83357
  0
LINE
  5
83358
330
47460
100
AcDbEntity
  8
图框
 62
     6
100
AcDbLine
 10
1031.553386436349
 20
484.0347692601515
 30
0.0
 11
1031.553386436349
 21
480.5347692601475
 31
0.0
1001
AcDbBlockRepETag
1070
     1
1071
       31
1005
83358
  0
MTEXT
  5
83359
330
47460
100
AcDbEntity
  8
图框
 62
     6
100
AcDbMText
 10
1006.383180575197
 20
483.5687958215896
 30
0.0
 40
2.651776162684904
 41
2.557913877927211
 46
0.0
 71
     1
 72
     5
  1
4
  7
Romans字体
 73
     1
 44
1.0
1001
AcDbBlockRepETag
1070
     1
1071
       32
1005
83359
  0
LINE
  5
8335A
330
47460
100
AcDbEntity
  8
图框
 62
     6
100
AcDbLine
 10
982.0182077173887
 20
484.0347692601515
 30
0.0
 11
982.0182077173887
 21
480.5347692601475
 31
0.0
1001
AcDbBlockRepETag
1070
     1
1071
       33
1005
8335A
  0
MTEXT
  5
8335B
330
47460
100
AcDbEntity
  8
图框
 62
     6
100
AcDbMText
 10
956.8302389280352
 20
483.5989680297948
 30
0.0
 40
2.651776162684904
 41
2.557913877927211
 46
0.0
 71
     1
 72
     5
  1
3
  7
Romans字体
 73
     1
 44
1.0
1001
AcDbBlockRepETag
1070
     1
1071
       34
1005
8335B
  0
LINE
  5
8335C
330
47460
100
AcDbEntity
  8
图框
 62
     6
100
AcDbLine
 10
932.4830289984245
 20
484.0347692601515
 30
0.0
 11
932.4830289984245
 21
480.5347692601475
 31
0.0
1001
AcDbBlockRepETag
1070
     1
1071
       35
1005
8335C
  0
MTEXT
  5
8335D
330
47460
100
AcDbEntity
  8
图框
 62
     6
100
AcDbMText
 10
906.0252349826365
 20
483.6475250013156
 30
0.0
 40
2.651776162684904
 41
2.557913877927211
 46
0.0
 71
     1
 72
     5
  1
2
  7
Romans字体
 73
     1
 44
1.0
1001
AcDbBlockRepETag
1070
     1
1071
       36
1005
8335D
  0
LINE
  5
8335E
330
47460
100
AcDbEntity
  8
图框
 62
     6
100
AcDbLine
 10
882.9478502794648
 20
484.0347692601515
 30
0.0
 11
882.9478502794648
 21
480.5347692601475
 31
0.0
1001
AcDbBlockRepETag
1070
     1
1071
       37
1005
8335E
  0
MTEXT
  5
8335F
330
47460
100
AcDbEntity
  8
图框
 62
     6
100
AcDbMText
 10
857.7598814901191
 20
483.651829494754
 30
0.0
 40
2.651776162684904
 41
2.557913877927211
 46
0.0
 71
     1
 72
     5
  1
1
  7
Romans字体
 73
     1
 44
1.0
1001
AcDbBlockRepETag
1070
     1
1071
       38
1005
8335F
  0
LINE
  5
83360
330
47460
100
AcDbEntity
  8
图框
370
    50
100
AcDbLine
 10
836.8548209370597
 20
484.0347692601515
 30
0.0
 11
1126.928502610363
 21
484.0347692601515
 31
0.0
1001
AcDbBlockRepETag
1070
     1
1071
       39
1005
83360
  0
LINE
  5
83361
330
47460
100
AcDbEntity
  8
图框
370
    50
100
AcDbLine
 10
836.9128518455362
 20
484.0178684310246
 30
0.0
 11
836.9128518455394
 21
675.0207195125422
 31
0.0
1001
AcDbBlockRepETag
1070
     1
1071
       40
1005
83361
  0
MTEXT
  5
83362
330
47460
100
AcDbEntity
  8
图框
 62
     6
100
AcDbMText
 10
833.8475685789031
 20
658.7332172029115
 30
0.0
 40
2.651776162684904
 41
2.557913877927211
 46
0.0
 71
     1
 72
     5
  1
D
  7
Romans字体
 11
0.0000000000000001
 21
1.0
 31
0.0
 73
     1
 44
1.0
1001
AcDbBlockRepETag
1070
     1
1071
       41
1005
83362
  0
LINE
  5
83363
330
47460
100
AcDbEntity
  8
图框
 62
     6
100
AcDbLine
 10
836.9128518455386
 20
634.0726090796082
 30
0.0
 11
833.4128518455365
 21
634.0726090796082
 31
0.0
1001
AcDbBlockRepETag
1070
     1
1071
       42
1005
83363
  0
MTEXT
  5
83364
330
47460
100
AcDbEntity
  8
图框
 62
     6
100
AcDbMText
 10
833.9039177480142
 20
607.5539372630998
 30
0.0
 40
2.651776162684904
 41
2.557913877927211
 46
0.0
 71
     1
 72
     5
  1
C
  7
Romans字体
 11
0.0000000000000001
 21
1.0
 31
0.0
 73
     1
 44
1.0
1001
AcDbBlockRepETag
1070
     1
1071
       43
1005
83364
  0
LINE
  5
83365
330
47460
100
AcDbEntity
  8
图框
 62
     6
100
AcDbLine
 10
836.9128518455378
 20
582.89332913979
 30
0.0
 11
833.4128518455365
 21
582.89332913979
 31
0.0
1001
AcDbBlockRepETag
1070
     1
1071
       44
1005
83365
  0
MTEXT
  5
83366
330
47460
100
AcDbEntity
  8
图框
 62
     6
100
AcDbMText
 10
833.9039177480142
 20
556.3746573232886
 30
0.0
 40
2.651776162684904
 41
2.557913877927211
 46
0.0
 71
     1
 72
     5
  1
B
  7
Romans字体
 11
0.0000000000000001
 21
1.0
 31
0.0
 73
     1
 44
1.0
1001
AcDbBlockRepETag
1070
     1
1071
       45
1005
83366
  0
LINE
  5
83367
330
47460
100
AcDbEntity
  8
图框
 62
     6
100
AcDbLine
 10
836.9128518455367
 20
531.714049199969
 30
0.0
 11
833.4128518455365
 21
531.714049199969
 31
0.0
1001
AcDbBlockRepETag
1070
     1
1071
       46
1005
83367
  0
MTEXT
  5
83368
330
47460
100
AcDbEntity
  8
图框
 62
     6
100
AcDbMText
 10
833.9039177480142
 20
508.7896535755975
 30
0.0
 40
2.651776162684904
 41
2.557913877927211
 46
0.0
 71
     1
 72
     5
  1
A
  7
Romans字体
 11
0.0000000000000001
 21
1.0
 31
0.0
 73
     1
 44
1.0
1001
AcDbBlockRepETag
1070
     1
1071
       47
1005
83368
  0
LINE
  5
83369
330
47460
100
AcDbEntity
  8
图框
370
    -3
100
AcDbLine
 10
836.9128518455394
 20
675.0207195125422
 30
0.0
 11
836.9128518455394
 21
684.5021384922564
 31
0.0
1001
AcDbBlockRepETag
1070
     1
1071
       48
1005
83369
  0
LINE
  5
8336A
330
47460
100
AcDbEntity
  8
图框
370
    -3
100
AcDbLine
 10
842.6237321475781
 20
675.5347692601515
 30
0.0
 11
842.6237321475781
 21
685.0161882398658
 31
0.0
1001
AcDbBlockRepETag
1070
     1
1071
       49
1005
8336A
  0
LINE
  5
8336B
330
47460
100
AcDbEntity
  8
图框
370
    -3
100
AcDbLine
 10
848.3346124496179
 20
675.5347692601515
 30
0.0
 11
848.3346124496179
 21
685.0161882398658
 31
0.0
1001
AcDbBlockRepETag
1070
     1
1071
       50
1005
8336B
  0
LINE
  5
8336C
330
47460
100
AcDbEntity
  8
图框
370
    -3
100
AcDbLine
 10
854.0454927516588
 20
675.5347692601515
 30
0.0
 11
854.0454927516588
 21
685.0161882398658
 31
0.0
1001
AcDbBlockRepETag
1070
     1
1071
       51
1005
8336C
  0
LINE
  5
8336D
330
47460
100
AcDbEntity
  8
图框
370
    -3
100
AcDbLine
 10
861.5351874539182
 20
675.5347692601515
 30
0.0
 11
861.5351874539182
 21
686.7901958362482
 31
0.0
1001
AcDbBlockRepETag
1070
     1
1071
       52
1005
8336D
  0
MTEXT
  5
8336E
330
47460
100
AcDbEntity
  8
图框
 62
     6
100
AcDbMText
 10
1105.329704038389
 20
678.859919059449
 30
0.0
 40
2.651776162684904
 41
2.557913877927211
 46
0.0
 71
     1
 72
     5
  1
6
  7
Romans字体
 73
     1
 44
1.0
1001
AcDbBlockRepETag
1070
     1
1071
       53
1005
8336E
  0
LINE
  5
8336F
330
47460
100
AcDbEntity
  8
图框
 62
     6
100
AcDbLine
 10
1081.088565155284
 20
679.0347692601516
 30
0.0
 11
1081.088565155284
 21
675.5347692601515
 31
0.0
1001
AcDbBlockRepETag
1070
     1
1071
       54
1005
8336F
  0
MTEXT
  5
83370
330
47460
100
AcDbEntity
  8
图框
 62
     6
100
AcDbMText
 10
1055.900596365941
 20
678.859919059449
 30
0.0
 40
2.651776162684904
 41
2.557913877927211
 46
0.0
 71
     1
 72
     5
  1
5
  7
Romans字体
 73
     1
 44
1.0
1001
AcDbBlockRepETag
1070
     1
1071
       55
1005
83370
  0
LINE
  5
83371
330
47460
100
AcDbEntity
  8
图框
 62
     6
100
AcDbLine
 10
1031.553386436349
 20
679.0347692601516
 30
0.0
 11
1031.553386436349
 21
675.5347692601515
 31
0.0
1001
AcDbBlockRepETag
1070
     1
1071
       56
1005
83371
  0
MTEXT
  5
83372
330
47460
100
AcDbEntity
  8
图框
 62
     6
100
AcDbMText
 10
1006.36541764698
 20
678.7312083656147
 30
0.0
 40
2.651776162684904
 41
2.557913877927211
 46
0.0
 71
     1
 72
     5
  1
4
  7
Romans字体
 73
     1
 44
1.0
1001
AcDbBlockRepETag
1070
     1
1071
       57
1005
83372
  0
LINE
  5
83373
330
47460
100
AcDbEntity
  8
图框
 62
     6
100
AcDbLine
 10
982.0182077173887
 20
679.0347692601516
 30
0.0
 11
982.0182077173887
 21
675.5347692601515
 31
0.0
1001
AcDbBlockRepETag
1070
     1
1071
       58
1005
83373
  0
MTEXT
  5
83374
330
47460
100
AcDbEntity
  8
图框
 62
     6
100
AcDbMText
 10
956.8302389280352
 20
678.859919059449
 30
0.0
 40
2.651776162684904
 41
2.557913877927211
 46
0.0
 71
     1
 72
     5
  1
3
  7
Romans字体
 73
     1
 44
1.0
1001
AcDbBlockRepETag
1070
     1
1071
       59
1005
83374
  0
LINE
  5
83375
330
47460
100
AcDbEntity
  8
图框
 62
     6
100
AcDbLine
 10
932.4830289984245
 20
679.0347692601516
 30
0.0
 11
932.4830289984245
 21
675.5347692601515
 31
0.0
1001
AcDbBlockRepETag
1070
     1
1071
       60
1005
83375
  0
MTEXT
  5
83376
330
47460
100
AcDbEntity
  8
图框
 62
     6
100
AcDbMText
 10
907.295060209082
 20
678.859919059449
 30
0.0
 40
2.651776162684904
 41
2.557913877927211
 46
0.0
 71
     1
 72
     5
  1
2
  7
Romans字体
 73
     1
 44
1.0
1001
AcDbBlockRepETag
1070
     1
1071
       61
1005
83376
  0
LINE
  5
83377
330
47460
100
AcDbEntity
  8
图框
 62
     6
100
AcDbLine
 10
882.9478502794648
 20
678.7962435131815
 30
0.0
 11
882.9478502794648
 21
675.5347692601515
 31
0.0
1001
AcDbBlockRepETag
1070
     1
1071
       62
1005
83377
  0
MTEXT
  5
83378
330
47460
100
AcDbEntity
  8
图框
 62
     6
100
AcDbMText
 10
862.6286629643733
 20
678.859919059449
 30
0.0
 40
2.651776162684904
 41
2.557913877927211
 46
0.0
 71
     1
 72
     5
  1
1
  7
Romans字体
 73
     1
 44
1.0
1001
AcDbBlockRepETag
1070
     1
1071
       63
1005
83378
  0
LINE
  5
83379
330
47460
100
AcDbEntity
  8
图框
370
    -3
100
AcDbLine
 10
836.9128518455394
 20
675.0207195125422
 30
0.0
 11
836.9128518455394
 21
686.7901958362482
 31
0.0
1001
AcDbBlockRepETag
1070
     1
1071
       64
1005
83379
  0
LINE
  5
8337A
330
47460
100
AcDbEntity
  8
图框
370
    50
100
AcDbLine
 10
836.9128518455394
 20
675.5347692601515
 30
0.0
 11
1126.928502610363
 21
675.5347692601515
 31
0.0
1001
AcDbBlockRepETag
1070
     1
1071
       65
1005
8337A
  0
LINE
  5
8337B
330
47460
100
AcDbEntity
  8
图框
370
    -3
100
AcDbLine
 10
842.6237321475781
 20
675.5347692601515
 30
0.0
 11
842.6237321475781
 21
686.7901958362482
 31
0.0
1001
AcDbBlockRepETag
1070
     1
1071
       66
1005
8337B
  0
LINE
  5
8337C
330
47460
100
AcDbEntity
  8
图框
370
    -3
100
AcDbLine
 10
848.3346124496179
 20
675.5347692601515
 30
0.0
 11
848.3346124496179
 21
686.7901958362482
 31
0.0
1001
AcDbBlockRepETag
1070
     1
1071
       67
1005
8337C
  0
MTEXT
  5
8337D
102
{ACAD_XDICTIONARY
360
83418
102
}
330
47460
100
AcDbEntity
  8
图框
100
AcDbMText
 10
857.7903401027889
 20
686.7901958362482
 30
0.0
 40
1.958998408821398
 41
11.25542657609672
 46
7.489694702258906
 71
     4
 72
     5
  1
\pi2.8203;档案员{\H0.7x;\P\pi1.4159;\Fromans|c134;Filing Clerk\fFangSong_GB2312|b0|i0|c134|p49; }
 11
-0.0000000000000002
 21
-1.0
 31
0.0
 73
     1
 44
1.0
1001
AcDbBlockRepETag
1070
     1
1071
       68
1005
8337D
1001
ACAD
1000
ACAD_MTEXT_DEFINED_HEIGHT_BEGIN
1070
    46
1040
7.489694702258906
1000
ACAD_MTEXT_DEFINED_HEIGHT_END
  0
MTEXT
  5
8337E
102
{ACAD_XDICTIONARY
360
8341A
102
}
330
47460
100
AcDbEntity
  8
图框
100
AcDbMText
 10
845.479172298598
 20
686.7901958362482
 30
0.0
 40
1.958998408821398
 41
11.25542657609672
 46
5.710880302039671
 71
     4
 72
     5
  1
\pi0.7115;日期{\Fromans|c134;/Date}
 11
-0.0000000000000002
 21
-1.0
 31
0.0
 73
     1
 44
1.0
1001
AcDbBlockRepETag
1070
     1
1071
       69
1005
8337E
1001
ACAD
1000
ACAD_MTEXT_DEFINED_HEIGHT_BEGIN
1070
    46
1040
5.710880302039671
1000
ACAD_MTEXT_DEFINED_HEIGHT_END
  0
LINE
  5
8337F
330
47460
100
AcDbEntity
  8
图框
370
    -3
100
AcDbLine
 10
854.0454927516588
 20
675.5347692601515
 30
0.0
 11
854.0454927516588
 21
686.7901958362482
 31
0.0
1001
AcDbBlockRepETag
1070
     1
1071
       70
1005
8337F
  0
LINE
  5
83380
330
47460
100
AcDbEntity
  8
图框
370
    -3
100
AcDbLine
 10
1036.653967466372
 20
531.3291676047914
 30
0.0
 11
1036.653967466372
 21
484.0126019753161
 31
0.0
1001
AcDbBlockRepETag
1070
     1
1071
       71
1005
83380
  0
LINE
  5
83381
330
47460
100
AcDbEntity
  8
图框
370
    -3
100
AcDbLine
 10
1047.483315900763
 20
507.6708838011533
 30
0.0
 11
1047.483315900763
 21
491.8986945987308
 31
0.0
1001
AcDbBlockRepETag
1070
     1
1071
       72
1005
83381
  0
LINE
  5
83382
330
47460
100
AcDbEntity
  8
图框
370
    -3
100
AcDbLine
 10
1058.312664335153
 20
507.6708838011533
 30
0.0
 11
1058.312664335153
 21
484.0347692601515
 31
0.0
1001
AcDbBlockRepETag
1070
     1
1071
       73
1005
83382
  0
LINE
  5
83383
330
47460
100
AcDbEntity
  8
图框
370
    25
100
AcDbLine
 10
1048.474135214456
 20
488.1095628329926
 30
0.0
 11
1054.946420288459
 21
488.1095628329926
 31
0.0
1001
AcDbBlockRepETag
1070
     1
1071
       74
1005
83383
  0
LINE
  5
83384
330
47460
100
AcDbEntity
  8
图框
370
    25
100
AcDbLine
 10
1054.232527365989
 20
487.0761716842634
 30
0.0
 11
1049.156490914508
 21
486.4576273751
 31
0.0
1001
AcDbBlockRepETag
1070
     1
1071
       75
1005
83384
  0
LINE
  5
83385
330
47460
100
AcDbEntity
  8
图框
370
    25
100
AcDbLine
 10
1054.232527365989
 20
489.1429539817209
 30
0.0
 11
1049.156490914508
 21
489.7614982908846
 31
0.0
1001
AcDbBlockRepETag
1070
     1
1071
       76
1005
83385
  0
LINE
  5
83386
330
47460
100
AcDbEntity
  8
图框
370
    25
100
AcDbLine
 10
1049.156490914508
 20
489.7614982908846
 30
0.0
 11
1049.156490914508
 21
486.4576273751
 31
0.0
1001
AcDbBlockRepETag
1070
     1
1071
       77
1005
83386
  0
LINE
  5
83387
330
47460
100
AcDbEntity
  8
图框
370
    25
100
AcDbLine
 10
1054.232527365989
 20
489.1429539817209
 30
0.0
 11
1054.232527365989
 21
487.0761716842634
 31
0.0
1001
AcDbBlockRepETag
1070
     1
1071
       78
1005
83387
  0
CIRCLE
  5
83388
330
47460
100
AcDbEntity
  8
图框
370
    25
100
AcDbCircle
 10
1042.502700458579
 20
488.1095628329926
 30
0.0
 40
1.651935457891863
1001
AcDbBlockRepETag
1070
     1
1071
       79
1005
83388
  0
CIRCLE
  5
83389
330
47460
100
AcDbEntity
  8
图框
370
    25
100
AcDbCircle
 10
1042.502700458579
 20
488.1095628329926
 30
0.0
 40
1.033391148728775
1001
AcDbBlockRepETag
1070
     1
1071
       80
1005
83389
  0
LINE
  5
8338A
330
47460
100
AcDbEntity
  8
图框
370
    25
100
AcDbLine
 10
1040.136872078216
 20
488.1095628329926
 30
0.0
 11
1044.868528838943
 21
488.1095628329926
 31
0.0
1001
AcDbBlockRepETag
1070
     1
1071
       81
1005
8338A
  0
LINE
  5
8338B
330
47460
100
AcDbEntity
  8
图框
370
    25
100
AcDbLine
 10
1042.502700458579
 20
490.475391213355
 30
0.0
 11
1042.502700458579
 21
485.743734452629
 31
0.0
1001
AcDbBlockRepETag
1070
     1
1071
       82
1005
8338B
  0
LINE
  5
8338C
330
47460
100
AcDbEntity
  8
图框
370
    -3
100
AcDbLine
 10
1069.142012769546
 20
507.6708838011533
 30
0.0
 11
1069.142012769546
 21
491.8986945987308
 31
0.0
1001
AcDbBlockRepETag
1070
     1
1071
       83
1005
8338C
  0
MTEXT
  5
8338D
330
47460
100
AcDbEntity
  8
图框
100
AcDbMText
 10
1086.643735910939
 20
526.8006839312707
 30
0.0
 40
2.154898249703542
 41
13.34474941400573
 46
9.056967347041775
 71
     5
 72
     5
  1
图号{\Ftxt|c134;\P\Fromans|c134;\W0.65;Drawing No.}
 73
     1
 44
1.0
1001
AcDbBlockRepETag
1070
     1
1071
       84
1005
8338D
1001
ACAD
1000
ACAD_MTEXT_DEFINED_HEIGHT_BEGIN
1070
    46
1040
9.056967347041775
1000
ACAD_MTEXT_DEFINED_HEIGHT_END
  0
LINE
  5
8338E
330
47460
100
AcDbEntity
  8
图框
370
    -3
100
AcDbLine
 10
1093.316110617942
 20
531.3291676047914
 30
0.0
 11
1093.316110617942
 21
495.8417418993347
 31
0.0
1001
AcDbBlockRepETag
1070
     1
1071
       85
1005
8338E
  0
LINE
  5
8338F
330
47460
100
AcDbEntity
  8
图框
370
    -3
100
AcDbLine
 10
1047.473969770481
 20
531.3291676047914
 30
0.0
 11
1047.473969770481
 21
507.6708838011533
 31
0.0
1001
AcDbBlockRepETag
1070
     1
1071
       86
1005
8338F
  0
MTEXT
  5
83390
330
47460
100
AcDbEntity
  8
图框
100
AcDbMText
 10
1063.72733855235
 20
503.7278365005473
 30
0.0
 40
2.252848170144607
 41
10.82934843439208
 46
7.886094601212128
 71
     5
 72
     5
  1
重量\P{\Fromans|c134;Weight}
 73
     1
 44
1.0
1001
AcDbBlockRepETag
1070
     1
1071
       87
1005
83390
1001
ACAD
1000
ACAD_MTEXT_DEFINED_HEIGHT_BEGIN
1070
    46
1040
7.886094601212128
1000
ACAD_MTEXT_DEFINED_HEIGHT_END
  0
LINE
  5
83391
330
47460
100
AcDbEntity
  8
图框
370
    -3
100
AcDbLine
 10
1036.653967466372
 20
519.5000257029746
 30
0.0
 11
1079.971361203936
 21
519.5000257029746
 31
0.0
1001
AcDbBlockRepETag
1070
     1
1071
       88
1005
83391
  0
MTEXT
  5
83392
330
47460
100
AcDbEntity
  8
图框
100
AcDbMText
 10
1074.556686986741
 20
503.7278365005473
 30
0.0
 40
2.252848170144607
 41
10.82934843438984
 46
7.886094601212141
 71
     5
 72
     5
  1
数量\P{\Fromans|c134;Qty.}
 73
     1
 44
1.0
1001
AcDbBlockRepETag
1070
     1
1071
       89
1005
83392
1001
ACAD
1000
ACAD_MTEXT_DEFINED_HEIGHT_BEGIN
1070
    46
1040
7.886094601212141
1000
ACAD_MTEXT_DEFINED_HEIGHT_END
  0
LINE
  5
83393
330
47460
100
AcDbEntity
  8
图框
370
    -3
100
AcDbLine
 10
1079.971361203936
 20
495.8417418993347
 30
0.0
 11
1126.928502610363
 21
495.8417418993342
 31
0.0
1001
AcDbBlockRepETag
1070
     1
1071
       90
1005
83393
  0
LINE
  5
83394
330
47460
100
AcDbEntity
  8
图框
370
    -3
100
AcDbLine
 10
1079.971361203936
 20
504.7132992040975
 30
0.0
 11
1126.928502610363
 21
504.7132992040975
 31
0.0
1001
AcDbBlockRepETag
1070
     1
1071
       91
1005
83394
  0
MTEXT
  5
83395
330
47460
100
AcDbEntity
  8
图框
100
AcDbMText
 10
1052.893317052817
 20
503.7278365005473
 30
0.0
 40
2.252848170144607
 41
10.83869456467139
 46
7.886094601212101
 71
     5
 72
     5
  1
版本\P{\Fromans|c134;REV.}
 73
     1
 44
1.0
1001
AcDbBlockRepETag
1070
     1
1071
       92
1005
83395
1001
ACAD
1000
ACAD_MTEXT_DEFINED_HEIGHT_BEGIN
1070
    46
1040
7.886094601212101
1000
ACAD_MTEXT_DEFINED_HEIGHT_END
  0
MTEXT
  5
83396
330
47460
100
AcDbEntity
  8
图框
100
AcDbMText
 10
1042.068641683568
 20
503.7278365005473
 30
0.0
 40
2.252848170144607
 41
10.8293484343908
 46
7.886094601212136
 71
     5
 72
     5
  1
比例\P{\Fromans|c134;Scale}
 73
     1
 44
1.0
1001
AcDbBlockRepETag
1070
     1
1071
       93
1005
83396
1001
ACAD
1000
ACAD_MTEXT_DEFINED_HEIGHT_BEGIN
1070
    46
1040
7.886094601212136
1000
ACAD_MTEXT_DEFINED_HEIGHT_END
  0
LINE
  5
83397
330
47460
100
AcDbEntity
  8
图框
370
    -3
100
AcDbLine
 10
1036.653967466372
 20
507.6708838011533
 30
0.0
 11
1079.971361203936
 21
507.6708838011533
 31
0.0
1001
AcDbBlockRepETag
1070
     1
1071
       94
1005
83397
  0
LINE
  5
83398
330
47460
100
AcDbEntity
  8
图框
370
    -3
100
AcDbLine
 10
1036.653967466372
 20
491.8986945987308
 30
0.0
 11
1079.971361203936
 21
491.8986945987308
 31
0.0
1001
AcDbBlockRepETag
1070
     1
1071
       95
1005
83398
  0
LINE
  5
83399
330
47460
100
AcDbEntity
  8
图框
370
    -3
100
AcDbLine
 10
1079.971361203936
 20
531.3291676047914
 30
0.0
 11
1079.971361203936
 21
484.0125999975168
 31
0.0
1001
AcDbBlockRepETag
1070
     1
1071
       96
1005
83399
  0
MTEXT
  5
8339A
330
47460
100
AcDbEntity
  8
图框
100
AcDbMText
 10
1042.063968618426
 20
525.4145966538832
 30
0.0
 40
2.252848170144607
 41
10.82000230410933
 46
11.82914190181708
 71
     5
 72
     5
  1
表面处理\P{\Fromans|c134;Finish}
 73
     1
 44
1.0
1001
AcDbBlockRepETag
1070
     1
1071
       97
1005
8339A
1001
ACAD
1000
ACAD_MTEXT_DEFINED_HEIGHT_BEGIN
1070
    46
1040
11.82914190181708
1000
ACAD_MTEXT_DEFINED_HEIGHT_END
  0
MTEXT
  5
8339B
330
47460
100
AcDbEntity
  8
图框
100
AcDbMText
 10
1042.063968618426
 20
513.5854547520639
 30
0.0
 40
2.252848170144607
 41
10.82000230410933
 46
11.8291419018212
 71
     5
 72
     5
  1
材料\P{\Fromans|c134;Material}
 73
     1
 44
1.0
1001
AcDbBlockRepETag
1070
     1
1071
       98
1005
8339B
1001
ACAD
1000
ACAD_MTEXT_DEFINED_HEIGHT_BEGIN
1070
    46
1040
11.8291419018212
1000
ACAD_MTEXT_DEFINED_HEIGHT_END
  0
LINE
  5
8339C
330
47460
100
AcDbEntity
  8
图框
370
    -3
100
AcDbLine
 10
1079.971361203936
 20
522.27220025775
 30
0.0
 11
1126.928502610363
 21
522.27220025775
 31
0.0
1001
AcDbBlockRepETag
1070
     1
1071
       99
1005
8339C
  0
LINE
  5
8339D
330
47460
100
AcDbEntity
  8
图框
370
    -3
100
AcDbLine
 10
1079.971361203936
 20
513.5854547520641
 30
0.0
 11
1126.928502610363
 21
513.5854547520639
 31
0.0
1001
AcDbBlockRepETag
1070
     1
1071
      100
1005
8339D
  0
MTEXT
  5
8339E
330
47460
100
AcDbEntity
  8
图框
100
AcDbMText
 10
1086.643735910939
 20
517.9288275049072
 30
0.0
 40
1.958998408821398
 41
13.34474941400573
 46
8.686745505685811
 71
     5
 72
     5
  1
产品代号\P{\Fromans|c134;Part Code}
 73
     1
 44
1.0
1001
AcDbBlockRepETag
1070
     1
1071
      101
1005
8339E
1001
ACAD
1000
ACAD_MTEXT_DEFINED_HEIGHT_BEGIN
1070
    46
1040
8.686745505685811
1000
ACAD_MTEXT_DEFINED_HEIGHT_END
  0
LINE
  5
8339F
330
47460
100
AcDbEntity
  8
图框
370
    -3
100
AcDbLine
 10
946.9285026103634
 20
525.7982263931411
 30
0.0
 11
1036.653967466372
 21
525.7982263931411
 31
0.0
1001
AcDbBlockRepETag
1070
     1
1071
      102
1005
8339F
  0
LINE
  5
833A0
330
47460
100
AcDbEntity
  8
图框
370
    -3
100
AcDbLine
 10
946.9285026103634
 20
520.2672851814959
 30
0.0
 11
1036.653967466372
 21
520.2672851814959
 31
0.0
1001
AcDbBlockRepETag
1070
     1
1071
      103
1005
833A0
  0
LINE
  5
833A1
330
47460
100
AcDbEntity
  8
图框
370
    35
100
AcDbLine
 10
946.9285026103634
 20
531.3291676047914
 30
0.0
 11
1126.928502610363
 21
531.3291676047914
 31
0.0
1001
AcDbBlockRepETag
1070
     1
1071
      104
1005
833A1
  0
LINE
  5
833A2
330
47460
100
AcDbEntity
  8
图框
370
    -3
100
AcDbLine
 10
990.6727612856927
 20
509.2054027581959
 30
0.0
 11
990.6727612856927
 21
484.0347692601515
 31
0.0
1001
AcDbBlockRepETag
1070
     1
1071
      105
1005
833A2
  0
MTEXT
  5
833A3
102
{ACAD_XDICTIONARY
360
8341C
102
}
330
47460
100
AcDbEntity
  8
图框
100
AcDbMText
 10
997.1628169651232
 20
499.816589978722
 30
0.0
 40
2.252848170144607
 41
12.98011135886052
 46
6.19230880992475
 71
     5
 72
     5
  1
{\f仿宋_GB2312|b0|i0|c134|p49;标准化}\PStand.
  7
Romans字体
 73
     1
 44
1.0
1001
AcDbBlockRepETag
1070
     1
1071
      106
1005
833A3
1001
ACAD
1000
ACAD_MTEXT_DEFINED_HEIGHT_BEGIN
1070
    46
1040
6.19230880992475
1000
ACAD_MTEXT_DEFINED_HEIGHT_END
  0
LINE
  5
833A4
330
47460
100
AcDbEntity
  8
图框
370
    -3
100
AcDbLine
 10
975.4103773808022
 20
509.2054027581959
 30
0.0
 11
975.4103773808022
 21
484.0347692601515
 31
0.0
1001
AcDbBlockRepETag
1070
     1
1071
      107
1005
833A4
  0
MTEXT
  5
833A5
330
47460
100
AcDbEntity
  8
图框
100
AcDbMText
 10
984.5089229802068
 20
511.9708733640202
 30
0.0
 40
2.448748011026752
 41
38.287899328693
 46
5.530941211648832
 71
     5
 72
     5
  1
  变更描述{\Fromans|c134;/Description}
 73
     1
 44
1.0
1001
AcDbBlockRepETag
1070
     1
1071
      108
1005
833A5
1001
ACAD
1000
ACAD_MTEXT_DEFINED_HEIGHT_BEGIN
1070
    46
1040
5.530941211648832
1000
ACAD_MTEXT_DEFINED_HEIGHT_END
  0
MTEXT
  5
833A6
102
{ACAD_XDICTIONARY
360
8341E
102
}
330
47460
100
AcDbEntity
  8
图框
100
AcDbMText
 10
1012.466086049227
 20
511.9708733640202
 30
0.0
 40
1.958998408821398
 41
17.6264268093469
 46
5.530941211648825
 71
     5
 72
     5
  1
签名\P{\Fromans|c134;Signature} 
 73
     1
 44
1.0
1001
AcDbBlockRepETag
1070
     1
1071
      109
1005
833A6
1001
ACAD
1000
ACAD_MTEXT_DEFINED_HEIGHT_BEGIN
1070
    46
1040
5.530941211648825
1000
ACAD_MTEXT_DEFINED_HEIGHT_END
  0
MTEXT
  5
833A7
102
{ACAD_XDICTIONARY
360
83420
102
}
330
47460
100
AcDbEntity
  8
图框
100
AcDbMText
 10
960.7558556394856
 20
511.9708733640202
 30
0.0
 40
1.958998408821398
 41
9.218235352749283
 46
5.530941211648841
 71
     5
 72
     5
  1
处数\P{\Fromans|c134;Number }
 73
     1
 44
1.0
1001
AcDbBlockRepETag
1070
     1
1071
      110
1005
833A7
1001
ACAD
1000
ACAD_MTEXT_DEFINED_HEIGHT_BEGIN
1070
    46
1040
5.530941211648841
1000
ACAD_MTEXT_DEFINED_HEIGHT_END
  0
LINE
  5
833A8
330
47460
100
AcDbEntity
  8
图框
370
    -3
100
AcDbLine
 10
946.9285026103634
 20
514.7363439698449
 30
0.0
 11
1036.653967466372
 21
514.7363439698449
 31
0.0
1001
AcDbBlockRepETag
1070
     1
1071
      111
1005
833A8
  0
LINE
  5
833A9
330
47460
100
AcDbEntity
  8
图框
370
    -3
100
AcDbLine
 10
946.9285026103634
 20
509.2054027581959
 30
0.0
 11
1036.653967466372
 21
509.2054027581959
 31
0.0
1001
AcDbBlockRepETag
1070
     1
1071
      112
1005
833A9
  0
LINE
  5
833AA
330
47460
100
AcDbEntity
  8
图框
370
    -3
100
AcDbLine
 10
946.9285026103634
 20
502.9127443836848
 30
0.0
 11
1036.653967466372
 21
502.9127443836848
 31
0.0
1001
AcDbBlockRepETag
1070
     1
1071
      113
1005
833AA
  0
LINE
  5
833AB
330
47460
100
AcDbEntity
  8
图框
370
    -3
100
AcDbLine
 10
946.9285026103634
 20
496.620086009173
 30
0.0
 11
1036.653967466372
 21
496.620086009173
 31
0.0
1001
AcDbBlockRepETag
1070
     1
1071
      114
1005
833AB
  0
LINE
  5
833AC
330
47460
100
AcDbEntity
  8
图框
370
    35
380
     1
100
AcDbLine
 10
946.9285026103634
 20
531.3291676047914
 30
0.0
 11
946.9285026103634
 21
484.0347692601515
 31
0.0
1001
AcDbBlockRepETag
1070
     1
1071
      115
1005
833AC
  0
LINE
  5
833AD
330
47460
100
AcDbEntity
  8
图框
370
    -3
100
AcDbLine
 10
1021.301636813399
 20
531.3291676047914
 30
0.0
 11
1021.301636813399
 21
484.0347692601515
 31
0.0
1001
AcDbBlockRepETag
1070
     1
1071
      116
1005
833AD
  0
LINE
  5
833AE
330
47460
100
AcDbEntity
  8
图框
370
    -3
100
AcDbLine
 10
1003.652872644553
 20
531.3291676047914
 30
0.0
 11
1003.652872644553
 21
484.0347692601515
 31
0.0
1001
AcDbBlockRepETag
1070
     1
1071
      117
1005
833AE
  0
LINE
  5
833AF
330
47460
100
AcDbEntity
  8
图框
370
    -3
100
AcDbLine
 10
965.3649733158603
 20
531.3291676047914
 30
0.0
 11
965.3649733158603
 21
509.2054027581959
 31
0.0
1001
AcDbBlockRepETag
1070
     1
1071
      118
1005
833AF
  0
LINE
  5
833B0
330
47460
100
AcDbEntity
  8
图框
370
    -3
100
AcDbLine
 10
956.1467379631109
 20
531.3291676047914
 30
0.0
 11
956.1467379631109
 21
509.2054027581959
 31
0.0
1001
AcDbBlockRepETag
1070
     1
1071
      119
1005
833B0
  0
MTEXT
  5
833B1
102
{ACAD_XDICTIONARY
360
83422
102
}
330
47460
100
AcDbEntity
  8
图框
100
AcDbMText
 10
951.537620286737
 20
511.9708733640202
 30
0.0
 40
1.958998408821398
 41
9.218235352747692
 46
5.530941211648832
 71
     5
 72
     5
  1
标记\P{\Fromans|c134;Mark}
 73
     1
 44
1.0
1001
AcDbBlockRepETag
1070
     1
1071
      120
1005
833B1
1001
ACAD
1000
ACAD_MTEXT_DEFINED_HEIGHT_BEGIN
1070
    46
1040
5.530941211648832
1000
ACAD_MTEXT_DEFINED_HEIGHT_END
  0
MTEXT
  5
833B2
102
{ACAD_XDICTIONARY
360
83424
102
}
330
47460
100
AcDbEntity
  8
图框
100
AcDbMText
 10
953.4185582897936
 20
493.4737568219182
 30
0.0
 40
2.252848170144607
 41
12.98011135886041
 46
6.292658374510382
 71
     5
 72
     5
  1
审核\P{\Fromans|c134;Checked}
 73
     1
 44
1.0
1001
AcDbBlockRepETag
1070
     1
1071
      121
1005
833B2
1001
ACAD
1000
ACAD_MTEXT_DEFINED_HEIGHT_BEGIN
1070
    46
1040
6.292658374510382
1000
ACAD_MTEXT_DEFINED_HEIGHT_END
  0
MTEXT
  5
833B3
102
{ACAD_XDICTIONARY
360
83426
102
}
330
47460
100
AcDbEntity
  8
图框
100
AcDbMText
 10
953.4185582897936
 20
499.8775635376777
 30
0.0
 40
2.252848170144607
 41
12.98011135886041
 46
6.070361692014189
 71
     5
 72
     5
  1
绘图\P{\Fromans|c134;Drawn\Ftxt|c134; }
 73
     1
 44
1.0
1001
AcDbBlockRepETag
1070
     1
1071
      122
1005
833B3
1001
ACAD
1000
ACAD_MTEXT_DEFINED_HEIGHT_BEGIN
1070
    46
1040
6.070361692014189
1000
ACAD_MTEXT_DEFINED_HEIGHT_END
  0
ARC
  5
833B4
330
47460
100
AcDbEntity
  8
图框
 62
     4
370
    35
100
AcDbCircle
 10
1086.900627017421
 20
490.0179944151195
 30
0.0
 40
4.063310408393665
100
AcDbArc
 50
18.95237904564806
 51
161.0476209543519
1001
AcDbBlockRepETag
1070
     1
1071
      123
1005
833B4
  0
ARC
  5
833B5
330
47460
100
AcDbEntity
  8
图框
 62
     4
370
    35
100
AcDbCircle
 10
1086.900627017421
 20
490.0179944151195
 30
0.0
 40
4.063310408393665
100
AcDbArc
 50
198.952379045648
 51
341.0476209543519
1001
AcDbBlockRepETag
1070
     1
1071
      124
1005
833B5
  0
LINE
  5
833B6
330
47460
100
AcDbEntity
  8
图框
 62
     4
370
    35
100
AcDbLine
 10
1083.057593369548
 20
488.6983035966752
 30
0.0
 11
1090.74366066529
 21
488.6983035966752
 31
0.0
1001
AcDbBlockRepETag
1070
     1
1071
      125
1005
833B6
  0
LINE
  5
833B7
330
47460
100
AcDbEntity
  8
图框
 62
     4
370
    35
100
AcDbLine
 10
1083.057593369548
 20
491.3376852335652
 30
0.0
 11
1090.74366066529
 21
491.3376852335652
 31
0.0
1001
AcDbBlockRepETag
1070
     1
1071
      126
1005
833B7
  0
MTEXT
  5
833B8
330
47460
100
AcDbEntity
  8
图框
 62
     1
370
    20
100
AcDbMText
 10
1083.034582879669
 20
491.0506288081688
 30
0.0
 40
2.005930044038334
 41
5.047240019334847
 46
0.0
 71
     1
 72
     5
  1
{\fArial|b0|i0|c0|p34;W}
  7
Chinese
 73
     1
 44
1.0
1001
AcDbBlockRepETag
1070
     1
1071
      127
1005
833B8
  0
LINE
  5
833B9
330
47460
100
AcDbEntity
  8
图框
370
    -3
100
AcDbLine
 10
946.9285026103634
 20
490.327427634663
 30
0.0
 11
1036.653967466372
 21
490.327427634663
 31
0.0
1001
AcDbBlockRepETag
1070
     1
1071
      128
1005
833B9
  0
LINE
  5
833BA
330
47460
100
AcDbEntity
  8
图框
370
    -3
100
AcDbLine
 10
959.9086139692238
 20
509.2054027581959
 30
0.0
 11
959.9086139692238
 21
484.0347692601515
 31
0.0
1001
AcDbBlockRepETag
1070
     1
1071
      129
1005
833BA
  0
MTEXT
  5
833BB
330
47460
100
AcDbEntity
  8
图框
100
AcDbMText
 10
967.6594956750129
 20
506.0590735709403
 30
0.0
 40
2.252848170144607
 41
15.50176341157869
 46
6.292658374511246
 71
     5
 72
     5
  1
姓名{\Fromans|c134;/Name\Ftxt|c134; }
 73
     1
 44
1.0
1001
AcDbBlockRepETag
1070
     1
1071
      130
1005
833BB
1001
ACAD
1000
ACAD_MTEXT_DEFINED_HEIGHT_BEGIN
1070
    46
1040
6.292658374511246
1000
ACAD_MTEXT_DEFINED_HEIGHT_END
  0
MTEXT
  5
833BC
330
47460
100
AcDbEntity
  8
图框
100
AcDbMText
 10
983.0415693332477
 20
506.0590735709403
 30
0.0
 40
2.252848170144607
 41
15.26238390489042
 46
6.2926583745112
 71
     5
 72
     5
  1
日期{\Fromans|c134;/Date}
 73
     1
 44
1.0
1001
AcDbBlockRepETag
1070
     1
1071
      131
1005
833BC
1001
ACAD
1000
ACAD_MTEXT_DEFINED_HEIGHT_BEGIN
1070
    46
1040
6.2926583745112
1000
ACAD_MTEXT_DEFINED_HEIGHT_END
  0
LINE
  5
833BD
330
47460
100
AcDbEntity
  8
图框
370
    -3
100
AcDbLine
 10
946.9285026103634
 20
509.2054027581959
 30
0.0
 11
959.9086139692238
 21
502.9127443836848
 31
0.0
1001
AcDbBlockRepETag
1070
     1
1071
      132
1005
833BD
  0
MTEXT
  5
833BE
330
47460
100
AcDbEntity
  8
图框
100
AcDbMText
 10
1012.931405110086
 20
506.0185715840725
 30
0.0
 40
2.252848170144607
 41
16.93492221063566
 46
0.0
 71
     5
 72
     5
  1
姓名{\Fromans|c134;/Name}
 73
     1
 44
1.0
1001
AcDbBlockRepETag
1070
     1
1071
      133
1005
833BE
  0
MTEXT
  5
833BF
330
47460
100
AcDbEntity
  8
图框
100
AcDbMText
 10
1028.977802139886
 20
506.0590735709403
 30
0.0
 40
2.252848170144607
 41
15.35233065297283
 46
6.292658374511256
 71
     5
 72
     5
  1
日期{\Fromans|c134;/Date}
 73
     1
 44
1.0
1001
AcDbBlockRepETag
1070
     1
1071
      134
1005
833BF
1001
ACAD
1000
ACAD_MTEXT_DEFINED_HEIGHT_BEGIN
1070
    46
1040
6.292658374511256
1000
ACAD_MTEXT_DEFINED_HEIGHT_END
  0
LINE
  5
833C0
330
47460
100
AcDbEntity
  8
图框
370
    -3
100
AcDbLine
 10
1003.652872644553
 20
502.9127443836848
 30
0.0
 11
990.6727612856927
 21
509.2054027581959
 31
0.0
1001
AcDbBlockRepETag
1070
     1
1071
      135
1005
833C0
  0
MTEXT
  5
833C1
102
{ACAD_XDICTIONARY
360
83428
102
}
330
47460
100
AcDbEntity
  8
图框
100
AcDbMText
 10
997.1628169651232
 20
487.1810984474071
 30
0.0
 40
2.252848170144607
 41
12.98011135886052
 46
6.292658374511517
 71
     5
 72
     5
  1
批准\P{\Fromans|c134;Approved}
 73
     1
 44
1.0
1001
AcDbBlockRepETag
1070
     1
1071
      136
1005
833C1
1001
ACAD
1000
ACAD_MTEXT_DEFINED_HEIGHT_BEGIN
1070
    46
1040
6.292658374511517
1000
ACAD_MTEXT_DEFINED_HEIGHT_END
  0
MTEXT
  5
833C2
102
{ACAD_XDICTIONARY
360
8342A
102
}
330
47460
100
AcDbEntity
  8
图框
100
AcDbMText
 10
953.4185582897936
 20
487.1810984474071
 30
0.0
 40
2.252848170144607
 41
12.98011135886041
 46
6.292658374511495
 71
     5
 72
     5
  1
工艺\P{\Fromans|c134;Process}
 73
     1
 44
1.0
1001
AcDbBlockRepETag
1070
     1
1071
      137
1005
833C2
1001
ACAD
1000
ACAD_MTEXT_DEFINED_HEIGHT_BEGIN
1070
    46
1040
6.292658374511495
1000
ACAD_MTEXT_DEFINED_HEIGHT_END
  0
MTEXT
  5
833C3
102
{ACAD_XDICTIONARY
360
8342C
102
}
330
47460
100
AcDbEntity
  8
图框
100
AcDbMText
 10
1028.977802139886
 20
511.8287965307664
 30
0.0
 40
1.958998408821398
 41
15.3523306529728
 46
5.246787545140668
 71
     5
 72
     5
  1
日期\P{\Fromans|c134;Date}
 73
     1
 44
1.0
1001
AcDbBlockRepETag
1070
     1
1071
      138
1005
833C3
1001
ACAD
1000
ACAD_MTEXT_DEFINED_HEIGHT_BEGIN
1070
    46
1040
5.246787545140668
1000
ACAD_MTEXT_DEFINED_HEIGHT_END
  0
MTEXT
  5
833C4
330
47460
100
AcDbEntity
  8
图框
100
AcDbMText
 10
1086.643735910939
 20
509.1493769780809
 30
0.0
 40
2.154898249703542
 41
13.34474941400573
 46
8.87215554796615
 71
     5
 72
     5
  1
产品料号\P{\Fromans|c134;Part No.}
 73
     1
 44
1.0
1001
AcDbBlockRepETag
1070
     1
1071
      139
1005
833C4
1001
ACAD
1000
ACAD_MTEXT_DEFINED_HEIGHT_BEGIN
1070
    46
1040
8.87215554796615
1000
ACAD_MTEXT_DEFINED_HEIGHT_END
  0
MTEXT
  5
833C5
330
47460
100
AcDbEntity
  8
图框
100
AcDbMText
 10
1086.643735910939
 20
500.2775205517163
 30
0.0
 40
1.958998408821398
 41
13.34474941400573
 46
8.871557304763321
 71
     5
 72
     5
  1
产品名称\P{\Fromans|c134;Part Name}
 73
     1
 44
1.0
1001
AcDbBlockRepETag
1070
     1
1071
      140
1005
833C5
1001
ACAD
1000
ACAD_MTEXT_DEFINED_HEIGHT_BEGIN
1070
    46
1040
8.871557304763321
1000
ACAD_MTEXT_DEFINED_HEIGHT_END
  0
LINE
  5
833C6
330
47460
100
AcDbEntity
  8
图框
 62
     1
370
    18
100
AcDbLine
 10
833.4128518455365
 20
690.5347692601515
 30
0.0
 11
833.4128518455365
 21
480.5347692601515
 31
0.0
1001
AcDbBlockRepETag
1070
     1
1071
      141
1005
833C6
  0
LINE
  5
833C7
330
47460
100
AcDbEntity
  8
图框
 62
     1
370
    18
100
AcDbLine
 10
833.4128518455365
 20
480.5347692601515
 30
0.0
 11
1130.411601781236
 21
480.5347692601515
 31
0.0
1001
AcDbBlockRepETag
1070
     1
1071
      142
1005
833C7
  0
LINE
  5
833C8
330
47460
100
AcDbEntity
  8
图框
 62
     1
370
    18
100
AcDbLine
 10
833.4128518455365
 20
690.5347692601515
 30
0.0
 11
1130.411601781236
 21
690.5347692601515
 31
0.0
1001
AcDbBlockRepETag
1070
     1
1071
      143
1005
833C8
  0
LINE
  5
833C9
330
47460
100
AcDbEntity
  8
图框
 62
     1
370
    18
100
AcDbLine
 10
1130.411601781236
 20
480.5347692601515
 30
0.0
 11
1130.411601781236
 21
690.5347692601515
 31
0.0
1001
AcDbBlockRepETag
1070
     1
1071
      144
1005
833C9
  0
LINE
  5
833CA
330
47460
100
AcDbEntity
  8
图框
370
    18
100
AcDbLine
 10
836.9128518455394
 20
686.7901958362482
 30
0.0
 11
861.5351874539182
 21
686.7901958362482
 31
0.0
1001
AcDbBlockRepETag
1070
     1
1071
      145
1005
833CA
  0
LINE
  5
833CB
330
47460
100
AcDbEntity
  8
图框
370
    50
100
AcDbLine
 10
1126.928502610363
 20
484.3410054693078
 30
0.0
 11
1126.928502610363
 21
675.5347692601515
 31
0.0
1001
AcDbBlockRepETag
1070
     1
1071
      146
1005
833CB
  0
MTEXT
  5
833CC
330
47460
100
AcDbEntity
  8
图框
 62
     3
100
AcDbMText
 10
1052.897990117958
 20
495.8417418993364
 30
0.0
 40
2.985513575034151
 41
10.82934843439114
 46
7.886094601211307
 71
     5
 72
     5
  1
V1.2
  7
Romans字体
 73
     1
 44
1.0
1001
AcDbBlockRepETag
1070
     1
1071
      147
1005
833CC
1001
ACAD
1000
ACAD_MTEXT_DEFINED_HEIGHT_BEGIN
1070
    46
1040
7.886094601211307
1000
ACAD_MTEXT_DEFINED_HEIGHT_END
  0
LINE
  5
833CD
330
47460
100
AcDbEntity
  8
图框
 62
     6
100
AcDbLine
 10
1126.911601781235
 20
531.714049199969
 30
0.0
 11
1130.411601781236
 21
531.714049199969
 31
0.0
1001
AcDbBlockRepETag
1070
     1
1071
      148
1005
833CD
  0
MTEXT
  5
833D9
330
47460
100
AcDbEntity
  8
图框
 62
     3
100
AcDbMText
 10
983.041569333247
 20
493.4737568219174
 30
0.0
 40
2.487927979195124
 41
15.26238390489062
 46
6.292658374511042
 71
     5
 72
     5
  1
{\W0.7;20.12.2023}
  7
Romans字体
 73
     1
 44
1.0
1001
AcDbBlockRepETag
1070
     1
1071
      149
1005
833D9
1001
ACAD
1000
ACAD_MTEXT_DEFINED_HEIGHT_BEGIN
1070
    46
1040
6.292658374511042
1000
ACAD_MTEXT_DEFINED_HEIGHT_END
  0
MTEXT
  5
833E2
330
47460
100
AcDbEntity
  8
图框
 62
     3
100
AcDbMText
 10
1028.932828765843
 20
487.1810984474074
 30
0.0
 40
2.487927979195124
 41
15.26238390489062
 46
6.292658374511042
 71
     5
 72
     5
  1
{\W0.7;20.12.2023}
  7
Romans字体
 73
     1
 44
1.0
1001
AcDbBlockRepETag
1070
     1
1071
      150
1005
833E2
1001
ACAD
1000
ACAD_MTEXT_DEFINED_HEIGHT_BEGIN
1070
    46
1040
6.292658374511042
1000
ACAD_MTEXT_DEFINED_HEIGHT_END
  0
ENDBLK
  5
474F7
330
47460
100
AcDbEntity
  8
0
100
AcDbBlockEnd
  0
BLOCK
  5
822C5
330
822C4
100
AcDbEntity
  8
0
100
AcDbBlockBegin
  2
*D3
 70
     1
 10
0.0
 20
0.0
 30
0.0
  3
*D3
  1

  0
LINE
  5
826CE
330
822C4
100
AcDbEntity
  8
Dim
 62
     6
370
    -2
100
AcDbLine
 10
2898.778244539039
 20
738.6987859230948
 30
0.0
 11
2898.778244539039
 21
748.1686448059389
 31
0.0
  0
LINE
  5
826CF
330
822C4
100
AcDbEntity
  8
Dim
 62
     6
370
    -2
100
AcDbLine
 10
2913.978244539038
 20
738.6987859230948
 30
0.0
 11
2913.978244539038
 21
748.1686448059389
 31
0.0
  0
LINE
  5
826D0
330
822C4
100
AcDbEntity
  8
Dim
 62
     1
370
    -2
100
AcDbLine
 10
2903.278244539039
 20
746.9686448059388
 30
0.0
 11
2909.478244539038
 21
746.9686448059388
 31
0.0
  0
SOLID
  5
826D1
330
822C4
100
AcDbEntity
  8
Dim
 62
     1
100
AcDbTrace
 10
2903.278244539039
 20
747.7186448059389
 30
0.0
 11
2903.278244539039
 21
746.2186448059387
 31
0.0
 12
2898.778244539039
 22
746.9686448059388
 32
0.0
 13
2898.778244539039
 23
746.9686448059388
 33
0.0
  0
SOLID
  5
826D2
330
822C4
100
AcDbEntity
  8
Dim
 62
     1
100
AcDbTrace
 10
2909.478244539038
 20
747.7186448059389
 30
0.0
 11
2909.478244539038
 21
746.2186448059387
 31
0.0
 12
2913.978244539038
 22
746.9686448059388
 32
0.0
 13
2913.978244539038
 23
746.9686448059388
 33
0.0
  0
MTEXT
  5
826D3
330
822C4
100
AcDbEntity
  8
Dim
 62
     4
100
AcDbMText
 10
2906.378244539038
 20
749.9686448059389
 30
0.0
 40
5.0
 41
0.0
 46
0.0
 71
     5
 72
     1
  1
\A1;15.2
  7
Romans字体
 73
     1
 44
1.0
  0
POINT
  5
826D4
330
822C4
100
AcDbEntity
  8
Defpoints
 62
     0
100
AcDbPoint
 10
2898.778244539039
 20
738.4987859230948
 30
0.0
  0
POINT
  5
826D5
330
822C4
100
AcDbEntity
  8
Defpoints
 62
     0
100
AcDbPoint
 10
2913.978244539038
 20
738.4987859230948
 30
0.0
  0
POINT
  5
826D6
330
822C4
100
AcDbEntity
  8
Defpoints
 62
     0
100
AcDbPoint
 10
2913.978244539038
 20
746.9686448059388
 30
0.0
  0
ENDBLK
  5
822C6
330
822C4
100
AcDbEntity
  8
0
100
AcDbBlockEnd
  0
BLOCK
  5
822D2
330
822D1
100
AcDbEntity
  8
0
100
AcDbBlockBegin
  2
*D4
 70
     1
 10
0.0
 20
0.0
 30
0.0
  3
*D4
  1

  0
LINE
  5
82722
330
822D1
100
AcDbEntity
  8
Dim
 62
     1
370
    -2
100
AcDbLine
 10
3003.047833286555
 20
683.1754192747061
 30
0.0
 11
2981.510160238049
 21
696.5222181757267
 31
0.0
  0
MTEXT
  5
82723
330
822D1
100
AcDbEntity
  8
Dim
 62
     4
100
AcDbMText
 10
2999.421727485139
 20
688.9518352670782
 30
0.0
 40
5.0
 41
0.0
 46
0.0
 71
     5
 72
     1
  1
\A1;∅4.2
  7
Romans字体
 11
0.8500185907593957
 21
-0.5267526889949507
 31
0.0
 73
     1
 44
1.0
  0
SOLID
  5
82724
330
822D1
100
AcDbEntity
  8
Dim
 62
     1
100
AcDbTrace
 10
2981.905224754795
 20
697.1597321187962
 30
0.0
 11
2981.115095721303
 21
695.8847042326573
 31
0.0
 12
2977.685076579632
 22
698.8926052762041
 32
0.0
 13
2977.685076579632
 23
698.8926052762041
 33
0.0
  0
POINT
  5
82725
330
822D1
100
AcDbEntity
  8
Defpoints
 62
     0
100
AcDbPoint
 10
2977.685076579632
 20
698.8926052762041
 30
0.0
  0
POINT
  5
82726
330
822D1
100
AcDbEntity
  8
Defpoints
 62
     0
100
AcDbPoint
 10
2974.114998498443
 20
701.1049665699822
 30
0.0
  0
ENDBLK
  5
822D3
330
822D1
100
AcDbEntity
  8
0
100
AcDbBlockEnd
  0
BLOCK
  5
822DB
330
822DA
100
AcDbEntity
  8
0
100
AcDbBlockBegin
  2
*D5
 70
     1
 10
0.0
 20
0.0
 30
0.0
  3
*D5
  1

  0
LINE
  5
826F3
330
822DA
100
AcDbEntity
  8
Dim
 62
     6
370
    -2
100
AcDbLine
 10
2889.87824453904
 20
695.2987859230947
 30
0.0
 11
2889.87824453904
 21
688.4822959230947
 31
0.0
  0
LINE
  5
826F4
330
822DA
100
AcDbEntity
  8
Dim
 62
     6
370
    -2
100
AcDbLine
 10
2922.878244539039
 20
695.2987859230947
 30
0.0
 11
2922.878244539039
 21
688.4822959230947
 31
0.0
  0
LINE
  5
826F5
330
822DA
100
AcDbEntity
  8
Dim
 62
     1
370
    -2
100
AcDbLine
 10
2894.37824453904
 20
689.6822959230948
 30
0.0
 11
2918.378244539038
 21
689.6822959230948
 31
0.0
  0
SOLID
  5
826F6
330
822DA
100
AcDbEntity
  8
Dim
 62
     1
100
AcDbTrace
 10
2894.37824453904
 20
690.4322959230947
 30
0.0
 11
2894.37824453904
 21
688.9322959230947
 31
0.0
 12
2889.87824453904
 22
689.6822959230948
 32
0.0
 13
2889.87824453904
 23
689.6822959230948
 33
0.0
  0
SOLID
  5
826F7
330
822DA
100
AcDbEntity
  8
Dim
 62
     1
100
AcDbTrace
 10
2918.378244539038
 20
690.4322959230947
 30
0.0
 11
2918.378244539038
 21
688.9322959230947
 31
0.0
 12
2922.878244539039
 22
689.6822959230948
 32
0.0
 13
2922.878244539039
 23
689.6822959230948
 33
0.0
  0
MTEXT
  5
826F8
330
822DA
100
AcDbEntity
  8
Dim
 62
     4
100
AcDbMText
 10
2906.37824453904
 20
692.6822959230947
 30
0.0
 40
5.0
 41
0.0
 46
0.0
 71
     5
 72
     1
  1
\A1;33
  7
Romans字体
 73
     1
 44
1.0
  0
POINT
  5
826F9
330
822DA
100
AcDbEntity
  8
Defpoints
 62
     0
100
AcDbPoint
 10
2889.87824453904
 20
695.4987859230949
 30
0.0
  0
POINT
  5
826FA
330
822DA
100
AcDbEntity
  8
Defpoints
 62
     0
100
AcDbPoint
 10
2922.878244539039
 20
695.4987859230949
 30
0.0
  0
POINT
  5
826FB
330
822DA
100
AcDbEntity
  8
Defpoints
 62
     0
100
AcDbPoint
 10
2922.878244539039
 20
689.6822959230948
 30
0.0
  0
ENDBLK
  5
822DC
330
822DA
100
AcDbEntity
  8
0
100
AcDbBlockEnd
  0
BLOCK
  5
822E7
330
822E6
100
AcDbEntity
  8
0
100
AcDbBlockBegin
  2
*D6
 70
     1
 10
0.0
 20
0.0
 30
0.0
  3
*D6
  1

  0
LINE
  5
826FC
330
822E6
100
AcDbEntity
  8
Dim
 62
     6
370
    -2
100
AcDbLine
 10
2917.178244539038
 20
735.4987859230948
 30
0.0
 11
2927.589128539039
 21
735.4987859230948
 31
0.0
  0
LINE
  5
826FD
330
822E6
100
AcDbEntity
  8
Dim
 62
     6
370
    -2
100
AcDbLine
 10
2917.178244539038
 20
728.4987859230948
 30
0.0
 11
2927.589128539039
 21
728.4987859230948
 31
0.0
  0
LINE
  5
826FE
330
822E6
100
AcDbEntity
  8
Dim
 62
     1
370
    -2
100
AcDbLine
 10
2926.389128539039
 20
739.9987859230948
 30
0.0
 11
2926.389128539039
 21
744.4987859230948
 31
0.0
  0
LINE
  5
826FF
330
822E6
100
AcDbEntity
  8
Dim
 62
     1
370
    -2
100
AcDbLine
 10
2926.389128539039
 20
723.9987859230948
 30
0.0
 11
2926.389128539039
 21
719.4987859230948
 31
0.0
  0
SOLID
  5
82700
330
822E6
100
AcDbEntity
  8
Dim
 62
     1
100
AcDbTrace
 10
2925.639128539039
 20
739.9987859230948
 30
0.0
 11
2927.139128539039
 21
739.9987859230948
 31
0.0
 12
2926.389128539039
 22
735.4987859230948
 32
0.0
 13
2926.389128539039
 23
735.4987859230948
 33
0.0
  0
SOLID
  5
82701
330
822E6
100
AcDbEntity
  8
Dim
 62
     1
100
AcDbTrace
 10
2925.639128539039
 20
723.9987859230948
 30
0.0
 11
2927.139128539039
 21
723.9987859230948
 31
0.0
 12
2926.389128539039
 22
728.4987859230948
 32
0.0
 13
2926.389128539039
 23
728.4987859230948
 33
0.0
  0
MTEXT
  5
82702
330
822E6
100
AcDbEntity
  8
Dim
 62
     4
100
AcDbMText
 10
2923.389128539039
 20
731.9987859230953
 30
0.0
 40
5.0
 41
0.0
 46
0.0
 71
     5
 72
     1
  1
\A1;7
  7
Romans字体
 11
0.0000000000000001
 21
1.0
 31
0.0
 73
     1
 44
1.0
  0
POINT
  5
82703
330
822E6
100
AcDbEntity
  8
Defpoints
 62
     0
100
AcDbPoint
 10
2916.978244539039
 20
735.4987859230948
 30
0.0
  0
POINT
  5
82704
330
822E6
100
AcDbEntity
  8
Defpoints
 62
     0
100
AcDbPoint
 10
2916.978244539039
 20
728.4987859230948
 30
0.0
  0
POINT
  5
82705
330
822E6
100
AcDbEntity
  8
Defpoints
 62
     0
100
AcDbPoint
 10
2926.389128539039
 20
728.4987859230948
 30
0.0
  0
ENDBLK
  5
822E8
330
822E6
100
AcDbEntity
  8
0
100
AcDbBlockEnd
  0
BLOCK
  5
822F4
330
822F3
100
AcDbEntity
  8
0
100
AcDbBlockBegin
  2
*D7
 70
     1
 10
0.0
 20
0.0
 30
0.0
  3
*D7
  1

  0
LINE
  5
82706
330
822F3
100
AcDbEntity
  8
Dim
 62
     6
370
    -2
100
AcDbLine
 10
2915.078244539039
 20
738.9987859230946
 30
0.0
 11
2938.83817153904
 21
738.9987859230946
 31
0.0
  0
LINE
  5
82707
330
822F3
100
AcDbEntity
  8
Dim
 62
     6
370
    -2
100
AcDbLine
 10
2911.078244539039
 20
724.9987859230948
 30
0.0
 11
2938.83817153904
 21
724.9987859230948
 31
0.0
  0
LINE
  5
82708
330
822F3
100
AcDbEntity
  8
Dim
 62
     1
370
    -2
100
AcDbLine
 10
2937.63817153904
 20
734.4987859230946
 30
0.0
 11
2937.63817153904
 21
729.4987859230948
 31
0.0
  0
SOLID
  5
82709
330
822F3
100
AcDbEntity
  8
Dim
 62
     1
100
AcDbTrace
 10
2936.88817153904
 20
734.4987859230946
 30
0.0
 11
2938.38817153904
 21
734.4987859230946
 31
0.0
 12
2937.63817153904
 22
738.9987859230946
 32
0.0
 13
2937.63817153904
 23
738.9987859230946
 33
0.0
  0
SOLID
  5
8270A
330
822F3
100
AcDbEntity
  8
Dim
 62
     1
100
AcDbTrace
 10
2936.88817153904
 20
729.4987859230948
 30
0.0
 11
2938.38817153904
 21
729.4987859230948
 31
0.0
 12
2937.63817153904
 22
724.9987859230948
 32
0.0
 13
2937.63817153904
 23
724.9987859230948
 33
0.0
  0
MTEXT
  5
8270B
330
822F3
100
AcDbEntity
  8
Dim
 62
     4
100
AcDbMText
 10
2934.63817153904
 20
731.9987859230953
 30
0.0
 40
5.0
 41
0.0
 46
0.0
 71
     5
 72
     1
  1
\A1;14
  7
Romans字体
 11
0.0000000000000001
 21
1.0
 31
0.0
 73
     1
 44
1.0
  0
POINT
  5
8270C
330
822F3
100
AcDbEntity
  8
Defpoints
 62
     0
100
AcDbPoint
 10
2914.878244539039
 20
738.9987859230946
 30
0.0
  0
POINT
  5
8270D
330
822F3
100
AcDbEntity
  8
Defpoints
 62
     0
100
AcDbPoint
 10
2910.878244539039
 20
724.9987859230948
 30
0.0
  0
POINT
  5
8270E
330
822F3
100
AcDbEntity
  8
Defpoints
 62
     0
100
AcDbPoint
 10
2937.63817153904
 20
724.9987859230948
 30
0.0
  0
ENDBLK
  5
822F5
330
822F3
100
AcDbEntity
  8
0
100
AcDbBlockEnd
  0
BLOCK
  5
82301
330
82300
100
AcDbEntity
  8
0
100
AcDbBlockBegin
  2
*D8
 70
     1
 10
0.0
 20
0.0
 30
0.0
  3
*D8
  1

  0
LINE
  5
826E1
330
82300
100
AcDbEntity
  8
Dim
 62
     6
370
    -2
100
AcDbLine
 10
2916.37824453904
 20
735.1987859230947
 30
0.0
 11
2916.37824453904
 21
756.9123159230947
 31
0.0
  0
LINE
  5
826E2
330
82300
100
AcDbEntity
  8
Dim
 62
     6
370
    -2
100
AcDbLine
 10
2896.37824453904
 20
735.1987859230947
 30
0.0
 11
2896.37824453904
 21
756.9123159230947
 31
0.0
  0
LINE
  5
826E3
330
82300
100
AcDbEntity
  8
Dim
 62
     1
370
    -2
100
AcDbLine
 10
2911.87824453904
 20
755.7123159230948
 30
0.0
 11
2900.87824453904
 21
755.7123159230948
 31
0.0
  0
SOLID
  5
826E4
330
82300
100
AcDbEntity
  8
Dim
 62
     1
100
AcDbTrace
 10
2911.87824453904
 20
756.4623159230948
 30
0.0
 11
2911.87824453904
 21
754.9623159230947
 31
0.0
 12
2916.37824453904
 22
755.7123159230948
 32
0.0
 13
2916.37824453904
 23
755.7123159230948
 33
0.0
  0
SOLID
  5
826E5
330
82300
100
AcDbEntity
  8
Dim
 62
     1
100
AcDbTrace
 10
2900.87824453904
 20
756.4623159230948
 30
0.0
 11
2900.87824453904
 21
754.9623159230947
 31
0.0
 12
2896.37824453904
 22
755.7123159230948
 32
0.0
 13
2896.37824453904
 23
755.7123159230948
 33
0.0
  0
MTEXT
  5
826E6
330
82300
100
AcDbEntity
  8
Dim
 62
     4
100
AcDbMText
 10
2906.051422539039
 20
758.7123159230948
 30
0.0
 40
5.0
 41
0.0
 46
0.0
 71
     5
 72
     1
  1
\A1;20
  7
Romans字体
 73
     1
 44
1.0
  0
POINT
  5
826E7
330
82300
100
AcDbEntity
  8
Defpoints
 62
     0
100
AcDbPoint
 10
2916.37824453904
 20
734.9987859230948
 30
0.0
  0
POINT
  5
826E8
330
82300
100
AcDbEntity
  8
Defpoints
 62
     0
100
AcDbPoint
 10
2896.37824453904
 20
734.9987859230948
 30
0.0
  0
POINT
  5
826E9
330
82300
100
AcDbEntity
  8
Defpoints
 62
     0
100
AcDbPoint
 10
2896.37824453904
 20
755.7123159230948
 30
0.0
  0
ENDBLK
  5
82302
330
82300
100
AcDbEntity
  8
0
100
AcDbBlockEnd
  0
BLOCK
  5
8230D
330
8230C
100
AcDbEntity
  8
0
100
AcDbBlockBegin
  2
*D9
 70
     1
 10
0.0
 20
0.0
 30
0.0
  3
*D9
  1

  0
LINE
  5
826D7
330
8230C
100
AcDbEntity
  8
Dim
 62
     6
370
    -2
100
AcDbLine
 10
2898.578244539039
 20
736.9987859230948
 30
0.0
 11
2882.020992539039
 21
736.9987859230948
 31
0.0
  0
LINE
  5
826D8
330
8230C
100
AcDbEntity
  8
Dim
 62
     6
370
    -2
100
AcDbLine
 10
2898.578244539039
 20
733.9987859230948
 30
0.0
 11
2882.020992539039
 21
733.9987859230948
 31
0.0
  0
LINE
  5
826D9
330
8230C
100
AcDbEntity
  8
Dim
 62
     1
370
    -2
100
AcDbLine
 10
2883.220992539039
 20
729.4987859230948
 30
0.0
 11
2883.220992539039
 21
724.9987859230948
 31
0.0
  0
LINE
  5
826DA
330
8230C
100
AcDbEntity
  8
Dim
 62
     1
370
    -2
100
AcDbLine
 10
2883.220992539039
 20
741.4987859230948
 30
0.0
 11
2883.220992539039
 21
761.2880716373805
 31
0.0
  0
SOLID
  5
826DB
330
8230C
100
AcDbEntity
  8
Dim
 62
     1
100
AcDbTrace
 10
2882.470992539039
 20
729.4987859230948
 30
0.0
 11
2883.970992539039
 21
729.4987859230948
 31
0.0
 12
2883.220992539039
 22
733.9987859230948
 32
0.0
 13
2883.220992539039
 23
733.9987859230948
 33
0.0
  0
SOLID
  5
826DC
330
8230C
100
AcDbEntity
  8
Dim
 62
     1
100
AcDbTrace
 10
2882.470992539039
 20
741.4987859230948
 30
0.0
 11
2883.970992539039
 21
741.4987859230948
 31
0.0
 12
2883.220992539039
 22
736.9987859230948
 32
0.0
 13
2883.220992539039
 23
736.9987859230948
 33
0.0
  0
MTEXT
  5
826DD
330
8230C
100
AcDbEntity
  8
Dim
 62
     4
100
AcDbMText
 10
2880.220992539038
 20
757.4845002088095
 30
0.0
 40
5.0
 41
0.0
 46
0.0
 71
     5
 72
     1
  1
\A1;M3
  7
Romans字体
 11
0.0000000000000001
 21
1.0
 31
0.0
 73
     1
 44
1.0
  0
POINT
  5
826DE
330
8230C
100
AcDbEntity
  8
Defpoints
 62
     0
100
AcDbPoint
 10
2898.778244539039
 20
736.9987859230948
 30
0.0
  0
POINT
  5
826DF
330
8230C
100
AcDbEntity
  8
Defpoints
 62
     0
100
AcDbPoint
 10
2898.778244539039
 20
733.9987859230948
 30
0.0
  0
POINT
  5
826E0
330
8230C
100
AcDbEntity
  8
Defpoints
 62
     0
100
AcDbPoint
 10
2883.220992539039
 20
733.9987859230948
 30
0.0
  0
ENDBLK
  5
8230E
330
8230C
100
AcDbEntity
  8
0
100
AcDbBlockEnd
  0
BLOCK
  5
8231A
330
82319
100
AcDbEntity
  8
0
100
AcDbBlockBegin
  2
*D10
 70
     1
 10
0.0
 20
0.0
 30
0.0
  3
*D10
  1

  0
LINE
  5
826EA
330
82319
100
AcDbEntity
  8
Dim
 62
     6
370
    -2
100
AcDbLine
 10
2897.67824453904
 20
738.9987859230946
 30
0.0
 11
2873.191233403829
 21
738.9987859230946
 31
0.0
  0
LINE
  5
826EB
330
82319
100
AcDbEntity
  8
Dim
 62
     6
370
    -2
100
AcDbLine
 10
2887.67824453904
 20
695.4987859230948
 30
0.0
 11
2873.191233403829
 21
695.4987859230948
 31
0.0
  0
LINE
  5
826EC
330
82319
100
AcDbEntity
  8
Dim
 62
     1
370
    -2
100
AcDbLine
 10
2874.391233403829
 20
734.4987859230946
 30
0.0
 11
2874.391233403829
 21
699.9987859230948
 31
0.0
  0
SOLID
  5
826ED
330
82319
100
AcDbEntity
  8
Dim
 62
     1
100
AcDbTrace
 10
2873.641233403829
 20
734.4987859230946
 30
0.0
 11
2875.141233403829
 21
734.4987859230946
 31
0.0
 12
2874.391233403829
 22
738.9987859230946
 32
0.0
 13
2874.391233403829
 23
738.9987859230946
 33
0.0
  0
SOLID
  5
826EE
330
82319
100
AcDbEntity
  8
Dim
 62
     1
100
AcDbTrace
 10
2873.641233403829
 20
699.9987859230948
 30
0.0
 11
2875.141233403829
 21
699.9987859230948
 31
0.0
 12
2874.391233403829
 22
695.4987859230948
 32
0.0
 13
2874.391233403829
 23
695.4987859230948
 33
0.0
  0
MTEXT
  5
826EF
330
82319
100
AcDbEntity
  8
Dim
 62
     4
100
AcDbMText
 10
2871.391233403829
 20
714.5282659230949
 30
0.0
 40
5.0
 41
0.0
 46
0.0
 71
     5
 72
     1
  1
\A1;43.5
  7
Romans字体
 11
0.0000000000000001
 21
1.0
 31
0.0
 73
     1
 44
1.0
  0
POINT
  5
826F0
330
82319
100
AcDbEntity
  8
Defpoints
 62
     0
100
AcDbPoint
 10
2897.87824453904
 20
738.9987859230946
 30
0.0
  0
POINT
  5
826F1
330
82319
100
AcDbEntity
  8
Defpoints
 62
     0
100
AcDbPoint
 10
2887.87824453904
 20
695.4987859230948
 30
0.0
  0
POINT
  5
826F2
330
82319
100
AcDbEntity
  8
Defpoints
 62
     0
100
AcDbPoint
 10
2874.391233403829
 20
695.4987859230948
 30
0.0
  0
ENDBLK
  5
8231B
330
82319
100
AcDbEntity
  8
0
100
AcDbBlockEnd
  0
BLOCK
  5
82326
330
82325
100
AcDbEntity
  8
0
100
AcDbBlockBegin
  2
*D11
 70
     1
 10
0.0
 20
0.0
 30
0.0
  3
*D11
  1

  0
LINE
  5
826C4
330
82325
100
AcDbEntity
  8
Dim
 62
     6
370
    -2
100
AcDbLine
 10
2969.40003753904
 20
734.1987859230949
 30
0.0
 11
2969.40003753904
 21
747.4186448059389
 31
0.0
  0
LINE
  5
826C5
330
82325
100
AcDbEntity
  8
Dim
 62
     6
370
    -2
100
AcDbLine
 10
2975.90003753904
 20
721.573025923095
 30
0.0
 11
2975.90003753904
 21
747.4186448059389
 31
0.0
  0
LINE
  5
826C6
330
82325
100
AcDbEntity
  8
Dim
 62
     1
370
    -2
100
AcDbLine
 10
2964.90003753904
 20
746.2186448059387
 30
0.0
 11
2960.40003753904
 21
746.2186448059387
 31
0.0
  0
LINE
  5
826C7
330
82325
100
AcDbEntity
  8
Dim
 62
     1
370
    -2
100
AcDbLine
 10
2980.40003753904
 20
746.2186448059387
 30
0.0
 11
2993.578608967611
 21
746.2186448059387
 31
0.0
  0
SOLID
  5
826C8
330
82325
100
AcDbEntity
  8
Dim
 62
     1
100
AcDbTrace
 10
2964.90003753904
 20
746.9686448059388
 30
0.0
 11
2964.90003753904
 21
745.4686448059389
 31
0.0
 12
2969.40003753904
 22
746.2186448059387
 32
0.0
 13
2969.40003753904
 23
746.2186448059387
 33
0.0
  0
SOLID
  5
826C9
330
82325
100
AcDbEntity
  8
Dim
 62
     1
100
AcDbTrace
 10
2980.40003753904
 20
746.9686448059388
 30
0.0
 11
2980.40003753904
 21
745.4686448059389
 31
0.0
 12
2975.90003753904
 22
746.2186448059387
 32
0.0
 13
2975.90003753904
 23
746.2186448059387
 33
0.0
  0
MTEXT
  5
826CA
330
82325
100
AcDbEntity
  8
Dim
 62
     4
100
AcDbMText
 10
2989.239323253326
 20
749.2186448059388
 30
0.0
 40
5.0
 41
0.0
 46
0.0
 71
     5
 72
     1
  1
\A1;6.5
  7
Romans字体
 73
     1
 44
1.0
  0
POINT
  5
826CB
330
82325
100
AcDbEntity
  8
Defpoints
 62
     0
100
AcDbPoint
 10
2969.40003753904
 20
733.9987859230949
 30
0.0
  0
POINT
  5
826CC
330
82325
100
AcDbEntity
  8
Defpoints
 62
     0
100
AcDbPoint
 10
2975.90003753904
 20
721.3730259230949
 30
0.0
  0
POINT
  5
826CD
330
82325
100
AcDbEntity
  8
Defpoints
 62
     0
100
AcDbPoint
 10
2975.90003753904
 20
746.2186448059387
 30
0.0
  0
ENDBLK
  5
82327
330
82325
100
AcDbEntity
  8
0
100
AcDbBlockEnd
  0
BLOCK
  5
82333
330
82332
100
AcDbEntity
  8
0
100
AcDbBlockBegin
  2
*D12
 70
     1
 10
0.0
 20
0.0
 30
0.0
  3
*D12
  1

  0
LINE
  5
82727
330
82332
100
AcDbEntity
  8
Dim
 62
     6
370
    -2
100
AcDbLine
 10
2971.400037539039
 20
695.2987859230947
 30
0.0
 11
2971.400037539039
 21
682.5619478251723
 31
0.0
  0
LINE
  5
82728
330
82332
100
AcDbEntity
  8
Dim
 62
     6
370
    -2
100
AcDbLine
 10
2980.400037539038
 20
695.2987859230947
 30
0.0
 11
2980.400037539038
 21
682.5619478251723
 31
0.0
  0
LINE
  5
82729
330
82332
100
AcDbEntity
  8
Dim
 62
     1
370
    -2
100
AcDbLine
 10
2966.900037539038
 20
683.7619478251722
 30
0.0
 11
2962.400037539039
 21
683.7619478251722
 31
0.0
  0
LINE
  5
8272A
330
82332
100
AcDbEntity
  8
Dim
 62
     1
370
    -2
100
AcDbLine
 10
2984.900037539039
 20
683.7619478251722
 30
0.0
 11
2989.400037539038
 21
683.7619478251722
 31
0.0
  0
SOLID
  5
8272B
330
82332
100
AcDbEntity
  8
Dim
 62
     1
100
AcDbTrace
 10
2966.900037539038
 20
684.5119478251722
 30
0.0
 11
2966.900037539038
 21
683.0119478251722
 31
0.0
 12
2971.400037539039
 22
683.7619478251722
 32
0.0
 13
2971.400037539039
 23
683.7619478251722
 33
0.0
  0
SOLID
  5
8272C
330
82332
100
AcDbEntity
  8
Dim
 62
     1
100
AcDbTrace
 10
2984.900037539039
 20
684.5119478251722
 30
0.0
 11
2984.900037539039
 21
683.0119478251722
 31
0.0
 12
2980.400037539038
 22
683.7619478251722
 32
0.0
 13
2980.400037539038
 23
683.7619478251722
 33
0.0
  0
MTEXT
  5
8272D
330
82332
100
AcDbEntity
  8
Dim
 62
     4
100
AcDbMText
 10
2975.900037539038
 20
686.7619478251722
 30
0.0
 40
5.0
 41
0.0
 46
0.0
 71
     5
 72
     1
  1
\A1;9
  7
Romans字体
 73
     1
 44
1.0
  0
POINT
  5
8272E
330
82332
100
AcDbEntity
  8
Defpoints
 62
     0
100
AcDbPoint
 10
2971.400037539039
 20
695.4987859230949
 30
0.0
  0
POINT
  5
8272F
330
82332
100
AcDbEntity
  8
Defpoints
 62
     0
100
AcDbPoint
 10
2980.400037539038
 20
695.4987859230949
 30
0.0
  0
POINT
  5
82730
330
82332
100
AcDbEntity
  8
Defpoints
 62
     0
100
AcDbPoint
 10
2980.400037539038
 20
683.7619478251722
 30
0.0
  0
ENDBLK
  5
82334
330
82332
100
AcDbEntity
  8
0
100
AcDbBlockEnd
  0
BLOCK
  5
82340
330
8233F
100
AcDbEntity
  8
0
100
AcDbBlockBegin
  2
*D13
 70
     1
 10
0.0
 20
0.0
 30
0.0
  3
*D13
  1

  0
LINE
  5
82719
330
8233F
100
AcDbEntity
  8
Dim
 62
     6
370
    -2
100
AcDbLine
 10
2980.600037539038
 20
695.4987859230948
 30
0.0
 11
2992.767587539038
 21
695.4987859230948
 31
0.0
  0
LINE
  5
8271A
330
8233F
100
AcDbEntity
  8
Dim
 62
     6
370
    -2
100
AcDbLine
 10
2978.60003753904
 20
718.3987859230947
 30
0.0
 11
2992.767587539038
 21
718.3987859230947
 31
0.0
  0
LINE
  5
8271B
330
8233F
100
AcDbEntity
  8
Dim
 62
     1
370
    -2
100
AcDbLine
 10
2991.567587539039
 20
699.9987859230948
 30
0.0
 11
2991.567587539039
 21
713.8987859230947
 31
0.0
  0
SOLID
  5
8271C
330
8233F
100
AcDbEntity
  8
Dim
 62
     1
100
AcDbTrace
 10
2990.817587539039
 20
699.9987859230948
 30
0.0
 11
2992.317587539039
 21
699.9987859230948
 31
0.0
 12
2991.567587539039
 22
695.4987859230948
 32
0.0
 13
2991.567587539039
 23
695.4987859230948
 33
0.0
  0
SOLID
  5
8271D
330
8233F
100
AcDbEntity
  8
Dim
 62
     1
100
AcDbTrace
 10
2990.817587539039
 20
713.8987859230947
 30
0.0
 11
2992.317587539039
 21
713.8987859230947
 31
0.0
 12
2991.567587539039
 22
718.3987859230947
 32
0.0
 13
2991.567587539039
 23
718.3987859230947
 33
0.0
  0
MTEXT
  5
8271E
330
8233F
100
AcDbEntity
  8
Dim
 62
     4
100
AcDbMText
 10
2988.567587539038
 20
705.396965923095
 30
0.0
 40
5.0
 41
0.0
 46
0.0
 71
     5
 72
     1
  1
\A1;23
  7
Romans字体
 11
0.0000000000000001
 21
1.0
 31
0.0
 73
     1
 44
1.0
  0
POINT
  5
8271F
330
8233F
100
AcDbEntity
  8
Defpoints
 62
     0
100
AcDbPoint
 10
2980.400037539038
 20
695.4987859230948
 30
0.0
  0
POINT
  5
82720
330
8233F
100
AcDbEntity
  8
Defpoints
 62
     0
100
AcDbPoint
 10
2978.40003753904
 20
718.3987859230947
 30
0.0
  0
POINT
  5
82721
330
8233F
100
AcDbEntity
  8
Defpoints
 62
     0
100
AcDbPoint
 10
2991.567587539039
 20
718.3987859230947
 30
0.0
  0
ENDBLK
  5
82341
330
8233F
100
AcDbEntity
  8
0
100
AcDbBlockEnd
  0
BLOCK
  5
8234C
330
8234B
100
AcDbEntity
  8
0
100
AcDbBlockBegin
  2
*D14
 70
     1
 10
0.0
 20
0.0
 30
0.0
  3
*D14
  1

  0
LINE
  5
8270F
330
8234B
100
AcDbEntity
  8
Dim
 62
     6
370
    -2
100
AcDbLine
 10
2971.200037539039
 20
695.4987859230948
 30
0.0
 11
2960.391228417819
 21
695.4987859230948
 31
0.0
  0
LINE
  5
82710
330
8234B
100
AcDbEntity
  8
Dim
 62
     6
370
    -2
100
AcDbLine
 10
2972.700037539039
 20
699.9987859230948
 30
0.0
 11
2960.391228417819
 21
699.9987859230948
 31
0.0
  0
LINE
  5
82711
330
8234B
100
AcDbEntity
  8
Dim
 62
     1
370
    -2
100
AcDbLine
 10
2961.59122841782
 20
690.9987859230948
 30
0.0
 11
2961.59122841782
 21
686.4987859230948
 31
0.0
  0
LINE
  5
82712
330
8234B
100
AcDbEntity
  8
Dim
 62
     1
370
    -2
100
AcDbLine
 10
2961.59122841782
 20
704.4987859230948
 30
0.0
 11
2961.59122841782
 21
725.9130716373805
 31
0.0
  0
SOLID
  5
82713
330
8234B
100
AcDbEntity
  8
Dim
 62
     1
100
AcDbTrace
 10
2960.84122841782
 20
690.9987859230948
 30
0.0
 11
2962.34122841782
 21
690.9987859230948
 31
0.0
 12
2961.59122841782
 22
695.4987859230948
 32
0.0
 13
2961.59122841782
 23
695.4987859230948
 33
0.0
  0
SOLID
  5
82714
330
8234B
100
AcDbEntity
  8
Dim
 62
     1
100
AcDbTrace
 10
2960.84122841782
 20
704.4987859230948
 30
0.0
 11
2962.34122841782
 21
704.4987859230948
 31
0.0
 12
2961.59122841782
 22
699.9987859230948
 32
0.0
 13
2961.59122841782
 23
699.9987859230948
 33
0.0
  0
MTEXT
  5
82715
330
8234B
100
AcDbEntity
  8
Dim
 62
     4
100
AcDbMText
 10
2958.591228417819
 20
721.4845002088095
 30
0.0
 40
5.0
 41
0.0
 46
0.0
 71
     5
 72
     1
  1
\A1;4.5
  7
Romans字体
 11
0.0000000000000001
 21
1.0
 31
0.0
 73
     1
 44
1.0
  0
POINT
  5
82716
330
8234B
100
AcDbEntity
  8
Defpoints
 62
     0
100
AcDbPoint
 10
2971.400037539039
 20
695.4987859230948
 30
0.0
  0
POINT
  5
82717
330
8234B
100
AcDbEntity
  8
Defpoints
 62
     0
100
AcDbPoint
 10
2972.900037539039
 20
699.9987859230948
 30
0.0
  0
POINT
  5
82718
330
8234B
100
AcDbEntity
  8
Defpoints
 62
     0
100
AcDbPoint
 10
2961.59122841782
 20
699.9987859230948
 30
0.0
  0
ENDBLK
  5
8234D
330
8234B
100
AcDbEntity
  8
0
100
AcDbBlockEnd
  0
BLOCK
  5
82782
330
82781
100
AcDbEntity
  8
0
 48
2.0
100
AcDbBlockBegin
  2
*D15
 70
     1
 10
0.0
 20
0.0
 30
0.0
  3
*D15
  1

  0
LINE
  5
82783
330
82781
100
AcDbEntity
  8
Dim
 62
     6
 48
2.0
370
    -2
100
AcDbLine
 10
9378.19022759125
 20
-803.8409340723999
 30
0.0
 11
9378.19022759125
 21
-809.1966063049227
 31
0.0
  0
LINE
  5
82784
330
82781
100
AcDbEntity
  8
Dim
 62
     6
 48
2.0
370
    -2
100
AcDbLine
 10
9394.19022659125
 20
-803.9624470724001
 30
0.0
 11
9394.19022659125
 21
-809.1966063049227
 31
0.0
  0
LINE
  5
82785
330
82781
100
AcDbEntity
  8
Dim
 62
     1
 48
2.0
370
    -2
100
AcDbLine
 10
9379.190227591253
 20
-807.9966063049226
 30
0.0
 11
9384.391883047893
 21
-807.9966063049226
 31
0.0
  0
LINE
  5
82786
330
82781
100
AcDbEntity
  8
Dim
 62
     1
 48
2.0
370
    -2
100
AcDbLine
 10
9393.190226591253
 20
-807.9966063049226
 30
0.0
 11
9387.753787809796
 21
-807.9966063049226
 31
0.0
  0
SOLID
  5
82787
330
82781
100
AcDbEntity
  8
Dim
 62
     1
 48
2.0
100
AcDbTrace
 10
9379.190227591253
 20
-807.829939638256
 30
0.0
 11
9379.190227591253
 21
-808.1632729715892
 31
0.0
 12
9378.19022759125
 22
-807.9966063049226
 32
0.0
 13
9378.19022759125
 23
-807.9966063049226
 33
0.0
  0
SOLID
  5
82788
330
82781
100
AcDbEntity
  8
Dim
 62
     1
 48
2.0
100
AcDbTrace
 10
9393.190226591253
 20
-807.829939638256
 30
0.0
 11
9393.190226591253
 21
-808.1632729715892
 31
0.0
 12
9394.19022659125
 22
-807.9966063049226
 32
0.0
 13
9394.19022659125
 23
-807.9966063049226
 33
0.0
  0
MTEXT
  5
82789
330
82781
100
AcDbEntity
  8
Dim
 62
     4
 48
2.0
100
AcDbMText
 10
9386.072835428844
 20
-807.9966063049226
 30
0.0
 40
2.0
 41
0.0
 46
0.0
 71
     5
 72
     1
  1
\A1;16
 73
     1
 44
1.0
  0
POINT
  5
8278A
330
82781
100
AcDbEntity
  8
Defpoints
 62
     0
 48
2.0
100
AcDbPoint
 10
9378.19022759125
 20
-803.6409340723999
 30
0.0
  0
POINT
  5
8278B
330
82781
100
AcDbEntity
  8
Defpoints
 62
     0
 48
2.0
100
AcDbPoint
 10
9394.19022659125
 20
-803.7624470723999
 30
0.0
  0
POINT
  5
8278C
330
82781
100
AcDbEntity
  8
Defpoints
 62
     0
 48
2.0
100
AcDbPoint
 10
9394.19022659125
 20
-807.9966063049226
 30
0.0
  0
ENDBLK
  5
8278D
330
82781
100
AcDbEntity
  8
0
 48
2.0
100
AcDbBlockEnd
  0
BLOCK
  5
8278F
330
8278E
100
AcDbEntity
  8
0
 48
2.0
100
AcDbBlockBegin
  2
*D16
 70
     1
 10
0.0
 20
0.0
 30
0.0
  3
*D16
  1

  0
LINE
  5
82790
330
8278E
100
AcDbEntity
  8
Dim
 62
     6
 48
2.0
370
    -2
100
AcDbLine
 10
9374.090227591253
 20
-775.4514570723999
 30
0.0
 11
9374.090227591253
 21
-779.5845297014099
 31
0.0
  0
LINE
  5
82791
330
8278E
100
AcDbEntity
  8
Dim
 62
     6
 48
2.0
370
    -2
100
AcDbLine
 10
9398.290226591253
 20
-775.4514570723999
 30
0.0
 11
9398.290226591253
 21
-779.5845297014099
 31
0.0
  0
LINE
  5
82792
330
8278E
100
AcDbEntity
  8
Dim
 62
     1
 48
2.0
370
    -2
100
AcDbLine
 10
9375.090227591252
 20
-778.3845297014097
 30
0.0
 11
9383.125670020653
 21
-778.3845297014097
 31
0.0
  0
LINE
  5
82793
330
8278E
100
AcDbEntity
  8
Dim
 62
     1
 48
2.0
370
    -2
100
AcDbLine
 10
9397.290226591257
 20
-778.3845297014097
 30
0.0
 11
9389.078050973033
 21
-778.3845297014097
 31
0.0
  0
SOLID
  5
82794
330
8278E
100
AcDbEntity
  8
Dim
 62
     1
 48
2.0
100
AcDbTrace
 10
9375.090227591252
 20
-778.2178630347432
 30
0.0
 11
9375.090227591252
 21
-778.5511963680765
 31
0.0
 12
9374.090227591253
 22
-778.3845297014097
 32
0.0
 13
9374.090227591253
 23
-778.3845297014097
 33
0.0
  0
SOLID
  5
82795
330
8278E
100
AcDbEntity
  8
Dim
 62
     1
 48
2.0
100
AcDbTrace
 10
9397.290226591257
 20
-778.2178630347432
 30
0.0
 11
9397.290226591257
 21
-778.5511963680765
 31
0.0
 12
9398.290226591253
 22
-778.3845297014097
 32
0.0
 13
9398.290226591253
 23
-778.3845297014097
 33
0.0
  0
MTEXT
  5
82796
330
8278E
100
AcDbEntity
  8
Dim
 62
     4
 48
2.0
100
AcDbMText
 10
9386.10186049684
 20
-778.3845297014097
 30
0.0
 40
2.0
 41
0.0
 46
0.0
 71
     5
 72
     1
  1
\A1;24.2
 73
     1
 44
1.0
  0
POINT
  5
82797
330
8278E
100
AcDbEntity
  8
Defpoints
 62
     0
 48
2.0
100
AcDbPoint
 10
9374.090227591253
 20
-775.2514570723999
 30
0.0
  0
POINT
  5
82798
330
8278E
100
AcDbEntity
  8
Defpoints
 62
     0
 48
2.0
100
AcDbPoint
 10
9398.290226591253
 20
-775.2514570723999
 30
0.0
  0
POINT
  5
82799
330
8278E
100
AcDbEntity
  8
Defpoints
 62
     0
 48
2.0
100
AcDbPoint
 10
9398.290226591253
 20
-778.3845297014097
 30
0.0
  0
ENDBLK
  5
8279A
330
8278E
100
AcDbEntity
  8
0
 48
2.0
100
AcDbBlockEnd
  0
BLOCK
  5
8279C
330
8279B
100
AcDbEntity
  8
0
 48
2.0
100
AcDbBlockBegin
  2
*D17
 70
     1
 10
0.0
 20
0.0
 30
0.0
  3
*D17
  1

  0
LINE
  5
8279D
330
8279B
100
AcDbEntity
  8
Dim
 62
     6
 48
2.0
370
    -2
100
AcDbLine
 10
9398.490226591254
 20
-774.2514570723999
 30
0.0
 11
9403.640408026037
 21
-774.2514570723999
 31
0.0
  0
LINE
  5
8279E
330
8279B
100
AcDbEntity
  8
Dim
 62
     6
 48
2.0
370
    -2
100
AcDbLine
 10
9398.490226591254
 20
-775.2514570723999
 30
0.0
 11
9403.640408026037
 21
-775.2514570723999
 31
0.0
  0
LINE
  5
8279F
330
8279B
100
AcDbEntity
  8
Dim
 62
     1
 48
2.0
370
    -2
100
AcDbLine
 10
9402.440408026036
 20
-773.2514570723999
 30
0.0
 11
9402.440408026036
 21
-772.2514570723999
 31
0.0
  0
LINE
  5
827A0
330
8279B
100
AcDbEntity
  8
Dim
 62
     1
 48
2.0
370
    -2
100
AcDbLine
 10
9402.440408026036
 20
-776.2514570723999
 30
0.0
 11
9402.440408026036
 21
-777.6948372073055
 31
0.0
  0
SOLID
  5
827A1
330
8279B
100
AcDbEntity
  8
Dim
 62
     1
 48
2.0
100
AcDbTrace
 10
9402.273741359367
 20
-773.2514570723999
 30
0.0
 11
9402.607074692699
 21
-773.2514570723999
 31
0.0
 12
9402.440408026036
 22
-774.2514570723999
 32
0.0
 13
9402.440408026036
 23
-774.2514570723999
 33
0.0
  0
SOLID
  5
827A2
330
8279B
100
AcDbEntity
  8
Dim
 62
     1
 48
2.0
100
AcDbTrace
 10
9402.273741359367
 20
-776.2514570723999
 30
0.0
 11
9402.607074692699
 21
-776.2514570723999
 31
0.0
 12
9402.440408026036
 22
-775.2514570723999
 32
0.0
 13
9402.440408026036
 23
-775.2514570723999
 33
0.0
  0
MTEXT
  5
827A3
330
8279B
100
AcDbEntity
  8
Dim
 62
     4
 48
2.0
100
AcDbMText
 10
9402.440408026036
 20
-778.3853133977803
 30
0.0
 40
2.0
 41
0.0
 46
0.0
 71
     5
 72
     1
  1
\A1;1
 11
0.0000000000000001
 21
1.0
 31
0.0
 73
     1
 44
1.0
  0
POINT
  5
827A4
330
8279B
100
AcDbEntity
  8
Defpoints
 62
     0
 48
2.0
100
AcDbPoint
 10
9398.290226591253
 20
-774.2514570723999
 30
0.0
  0
POINT
  5
827A5
330
8279B
100
AcDbEntity
  8
Defpoints
 62
     0
 48
2.0
100
AcDbPoint
 10
9398.290226591253
 20
-775.2514570723999
 30
0.0
  0
POINT
  5
827A6
330
8279B
100
AcDbEntity
  8
Defpoints
 62
     0
 48
2.0
100
AcDbPoint
 10
9402.440408026036
 20
-775.2514570723999
 30
0.0
  0
ENDBLK
  5
827A7
330
8279B
100
AcDbEntity
  8
0
 48
2.0
100
AcDbBlockEnd
  0
BLOCK
  5
827A9
330
827A8
100
AcDbEntity
  8
0
 48
2.0
100
AcDbBlockBegin
  2
*D18
 70
     1
 10
0.0
 20
0.0
 30
0.0
  3
*D18
  1

  0
LINE
  5
827AA
330
827A8
100
AcDbEntity
  8
Dim
 62
     6
 48
2.0
370
    -2
100
AcDbLine
 10
9373.890227591253
 20
-798.3535790723999
 30
0.0
 11
9365.161887699667
 21
-798.3535790723999
 31
0.0
  0
LINE
  5
827AB
330
827A8
100
AcDbEntity
  8
Dim
 62
     6
 48
2.0
370
    -2
100
AcDbLine
 10
9373.890227591253
 20
-804.3535790724
 30
0.0
 11
9365.161887699667
 21
-804.3535790724
 31
0.0
  0
LINE
  5
827AC
330
827A8
100
AcDbEntity
  8
Dim
 62
     1
 48
2.0
370
    -2
100
AcDbLine
 10
9366.361887699667
 20
-797.3535790724
 30
0.0
 11
9366.361887699667
 21
-796.3535790723999
 31
0.0
  0
LINE
  5
827AD
330
827A8
100
AcDbEntity
  8
Dim
 62
     1
 48
2.0
370
    -2
100
AcDbLine
 10
9366.361887699667
 20
-805.3535790724
 30
0.0
 11
9366.361887699667
 21
-806.3535790723999
 31
0.0
  0
SOLID
  5
827AE
330
827A8
100
AcDbEntity
  8
Dim
 62
     1
 48
2.0
100
AcDbTrace
 10
9366.195221033004
 20
-797.3535790724
 30
0.0
 11
9366.528554366336
 21
-797.3535790724
 31
0.0
 12
9366.361887699667
 22
-798.3535790723999
 32
0.0
 13
9366.361887699667
 23
-798.3535790723999
 33
0.0
  0
SOLID
  5
827AF
330
827A8
100
AcDbEntity
  8
Dim
 62
     1
 48
2.0
100
AcDbTrace
 10
9366.195221033004
 20
-805.3535790724
 30
0.0
 11
9366.528554366336
 21
-805.3535790724
 31
0.0
 12
9366.361887699667
 22
-804.3535790724
 32
0.0
 13
9366.361887699667
 23
-804.3535790724
 33
0.0
  0
MTEXT
  5
827B0
330
827A8
100
AcDbEntity
  8
Dim
 62
     4
 48
2.0
100
AcDbMText
 10
9366.361887699667
 20
-801.3535790723999
 30
0.0
 40
2.0
 41
0.0
 46
0.0
 71
     5
 72
     1
  1
\A1;6.2
 11
0.0000000000000001
 21
1.0
 31
0.0
 73
     1
 44
1.0
  0
POINT
  5
827B1
330
827A8
100
AcDbEntity
  8
Defpoints
 62
     0
 48
2.0
100
AcDbPoint
 10
9374.090227591253
 20
-798.3535790723999
 30
0.0
  0
POINT
  5
827B2
330
827A8
100
AcDbEntity
  8
Defpoints
 62
     0
 48
2.0
100
AcDbPoint
 10
9374.090227591253
 20
-804.3535790724
 30
0.0
  0
POINT
  5
827B3
330
827A8
100
AcDbEntity
  8
Defpoints
 62
     0
 48
2.0
100
AcDbPoint
 10
9366.361887699667
 20
-804.3535790724
 30
0.0
  0
ENDBLK
  5
827B4
330
827A8
100
AcDbEntity
  8
0
 48
2.0
100
AcDbBlockEnd
  0
BLOCK
  5
827B6
330
827B5
100
AcDbEntity
  8
0
 48
2.0
100
AcDbBlockBegin
  2
*D19
 70
     1
 10
0.0
 20
0.0
 30
0.0
  3
*D19
  1

  0
LINE
  5
827B7
330
827B5
100
AcDbEntity
  8
Dim
 62
     6
 48
2.0
370
    -2
100
AcDbLine
 10
9376.790227525511
 20
-799.7535791217045
 30
0.0
 11
9369.55553732244
 21
-799.7535791217045
 31
0.0
  0
LINE
  5
827B8
330
827B5
100
AcDbEntity
  8
Dim
 62
     6
 48
2.0
370
    -2
100
AcDbLine
 10
9376.790227525511
 20
-802.9535790230951
 30
0.0
 11
9369.55553732244
 21
-802.9535790230951
 31
0.0
  0
LINE
  5
827B9
330
827B5
100
AcDbEntity
  8
Dim
 62
     1
 48
2.0
370
    -2
100
AcDbLine
 10
9370.755537322441
 20
-800.7535791217046
 30
0.0
 11
9370.755537322441
 21
-801.9535790230952
 31
0.0
  0
LINE
  5
827BA
330
827B5
100
AcDbEntity
  8
Dim
 62
     1
 48
2.0
370
    -2
100
AcDbLine
 10
9370.755537322441
 20
-802.9535790230951
 30
0.0
 11
9370.755537322441
 21
-805.3048307967943
 31
0.0
  0
SOLID
  5
827BB
330
827B5
100
AcDbEntity
  8
Dim
 62
     1
 48
2.0
100
AcDbTrace
 10
9370.588870655771
 20
-800.7535791217046
 30
0.0
 11
9370.922203989104
 21
-800.7535791217046
 31
0.0
 12
9370.755537322441
 22
-799.7535791217045
 32
0.0
 13
9370.755537322441
 23
-799.7535791217045
 33
0.0
  0
SOLID
  5
827BC
330
827B5
100
AcDbEntity
  8
Dim
 62
     1
 48
2.0
100
AcDbTrace
 10
9370.588870655771
 20
-801.9535790230952
 30
0.0
 11
9370.922203989104
 21
-801.9535790230952
 31
0.0
 12
9370.755537322441
 22
-802.9535790230951
 32
0.0
 13
9370.755537322441
 23
-802.9535790230951
 33
0.0
  0
MTEXT
  5
827BD
330
827B5
100
AcDbEntity
  8
Dim
 62
     4
 48
2.0
100
AcDbMText
 10
9370.755537322441
 20
-807.5191165110782
 30
0.0
 40
2.0
 41
0.0
 46
0.0
 71
     5
 72
     1
  1
\A1;3.2
 11
0.0000000000000001
 21
1.0
 31
0.0
 73
     1
 44
1.0
  0
POINT
  5
827BE
330
827B5
100
AcDbEntity
  8
Defpoints
 62
     0
 48
2.0
100
AcDbPoint
 10
9376.990227525512
 20
-799.7535791217045
 30
0.0
  0
POINT
  5
827BF
330
827B5
100
AcDbEntity
  8
Defpoints
 62
     0
 48
2.0
100
AcDbPoint
 10
9376.990227525512
 20
-802.9535790230951
 30
0.0
  0
POINT
  5
827C0
330
827B5
100
AcDbEntity
  8
Defpoints
 62
     0
 48
2.0
100
AcDbPoint
 10
9370.755537322441
 20
-802.9535790230951
 30
0.0
  0
ENDBLK
  5
827C1
330
827B5
100
AcDbEntity
  8
0
 48
2.0
100
AcDbBlockEnd
  0
BLOCK
  5
827C3
330
827C2
100
AcDbEntity
  8
0
 48
2.0
100
AcDbBlockBegin
  2
*D20
 70
     1
 10
0.0
 20
0.0
 30
0.0
  3
*D20
  1

  0
LINE
  5
827C4
330
827C2
100
AcDbEntity
  8
Dim
 62
     1
 48
2.0
370
    -2
100
AcDbLine
 10
9389.992591749393
 20
-767.0248673136286
 30
0.0
 11
9388.992591749396
 21
-767.0248673136286
 31
0.0
  0
LINE
  5
827C5
330
827C2
100
AcDbEntity
  8
Dim
 62
     1
 48
2.0
370
    -2
100
AcDbLine
 10
9388.992591749396
 20
-767.0248673136286
 30
0.0
 11
9387.626673366426
 21
-770.0598084917958
 31
0.0
  0
MTEXT
  5
827C6
330
827C2
100
AcDbEntity
  8
Dim
 62
     4
 48
2.0
100
AcDbMText
 10
9392.930686987483
 20
-767.0248673136297
 30
0.0
 40
2.0
 41
0.0
 46
0.0
 71
     5
 72
     1
  1
\A1;R2.5
 73
     1
 44
1.0
  0
SOLID
  5
827C7
330
827C2
100
AcDbEntity
  8
Dim
 62
     1
 48
2.0
100
AcDbTrace
 10
9387.474690100685
 20
-769.9914062644064
 30
0.0
 11
9387.778656632169
 21
-770.1282107191842
 31
0.0
 12
9387.216260002093
 22
-770.9717080862551
 32
0.0
 13
9387.216260002093
 23
-770.9717080862551
 33
0.0
  0
POINT
  5
827C8
330
827C2
100
AcDbEntity
  8
Defpoints
 62
     0
 48
2.0
100
AcDbPoint
 10
9387.216260002093
 20
-770.9717080862551
 30
0.0
  0
POINT
  5
827C9
330
827C2
100
AcDbEntity
  8
Defpoints
 62
     0
 48
2.0
100
AcDbPoint
 10
9386.190226591253
 20
-773.2514570724084
 30
0.0
  0
ENDBLK
  5
827CA
330
827C2
100
AcDbEntity
  8
0
 48
2.0
100
AcDbBlockEnd
  0
BLOCK
  5
827CC
330
827CB
100
AcDbEntity
  8
0
 48
2.0
100
AcDbBlockBegin
  2
*D21
 70
     1
 10
0.0
 20
0.0
 30
0.0
  3
*D21
  1

  0
LINE
  5
827CD
330
827CB
100
AcDbEntity
  8
Dim
 62
     6
 48
2.0
370
    -2
100
AcDbLine
 10
9385.99022659125
 20
-770.7514570723999
 30
0.0
 11
9369.616193300167
 21
-770.7514570723999
 31
0.0
  0
LINE
  5
827CE
330
827CB
100
AcDbEntity
  8
Dim
 62
     6
 48
2.0
370
    -2
100
AcDbLine
 10
9373.890227591253
 20
-775.2514570723999
 30
0.0
 11
9369.616193300167
 21
-775.2514570723999
 31
0.0
  0
LINE
  5
827CF
330
827CB
100
AcDbEntity
  8
Dim
 62
     1
 48
2.0
370
    -2
100
AcDbLine
 10
9370.816193300168
 20
-771.7514570724
 30
0.0
 11
9370.816193300168
 21
-774.2514570723999
 31
0.0
  0
LINE
  5
827D0
330
827CB
100
AcDbEntity
  8
Dim
 62
     1
 48
2.0
370
    -2
100
AcDbLine
 10
9370.816193300168
 20
-775.2514570723999
 30
0.0
 11
9370.816193300168
 21
-776.2514570723999
 31
0.0
  0
SOLID
  5
827D1
330
827CB
100
AcDbEntity
  8
Dim
 62
     1
 48
2.0
100
AcDbTrace
 10
9370.649526633505
 20
-771.7514570724
 30
0.0
 11
9370.982859966836
 21
-771.7514570724
 31
0.0
 12
9370.816193300168
 22
-770.7514570723999
 32
0.0
 13
9370.816193300168
 23
-770.7514570723999
 33
0.0
  0
SOLID
  5
827D2
330
827CB
100
AcDbEntity
  8
Dim
 62
     1
 48
2.0
100
AcDbTrace
 10
9370.649526633505
 20
-774.2514570723999
 30
0.0
 11
9370.982859966836
 21
-774.2514570723999
 31
0.0
 12
9370.816193300168
 22
-775.2514570723999
 32
0.0
 13
9370.816193300168
 23
-775.2514570723999
 33
0.0
  0
MTEXT
  5
827D3
330
827CB
100
AcDbEntity
  8
Dim
 62
     4
 48
2.0
100
AcDbMText
 10
9370.816193300168
 20
-778.4657427866841
 30
0.0
 40
2.0
 41
0.0
 46
0.0
 71
     5
 72
     1
  1
\A1;4.5
 11
0.0000000000000001
 21
1.0
 31
0.0
 73
     1
 44
1.0
  0
POINT
  5
827D4
330
827CB
100
AcDbEntity
  8
Defpoints
 62
     0
 48
2.0
100
AcDbPoint
 10
9386.190226591253
 20
-770.7514570723999
 30
0.0
  0
POINT
  5
827D5
330
827CB
100
AcDbEntity
  8
Defpoints
 62
     0
 48
2.0
100
AcDbPoint
 10
9374.090227591253
 20
-775.2514570723999
 30
0.0
  0
POINT
  5
827D6
330
827CB
100
AcDbEntity
  8
Defpoints
 62
     0
 48
2.0
100
AcDbPoint
 10
9370.816193300168
 20
-775.2514570723999
 30
0.0
  0
ENDBLK
  5
827D7
330
827CB
100
AcDbEntity
  8
0
 48
2.0
100
AcDbBlockEnd
  0
BLOCK
  5
827D9
330
827D8
100
AcDbEntity
  8
0
 48
2.0
100
AcDbBlockBegin
  2
*D22
 70
     1
 10
0.0
 20
0.0
 30
0.0
  3
*D22
  1

  0
LINE
  5
827DA
330
827D8
100
AcDbEntity
  8
Dim
 62
     1
 48
2.0
370
    -2
100
AcDbLine
 10
9395.506785030054
 20
-771.1301367288342
 30
0.0
 11
9392.811546934812
 21
-771.1301367288342
 31
0.0
  0
LINE
  5
827DB
330
827D8
100
AcDbEntity
  8
Dim
 62
     1
 48
2.0
370
    -2
100
AcDbLine
 10
9392.811546934812
 20
-771.1301367288342
 30
0.0
 11
9390.690226591248
 21
-773.2514570723997
 31
0.0
  0
MTEXT
  5
827DC
330
827D8
100
AcDbEntity
  8
Dim
 62
     4
 48
2.0
100
AcDbMText
 10
9398.787737411003
 20
-771.1301367288342
 30
0.0
 40
2.0
 41
0.0
 46
0.0
 71
     5
 72
     1
  1
\A1;2-R1
 73
     1
 44
1.0
  0
SOLID
  5
827DD
330
827D8
100
AcDbEntity
  8
Dim
 62
     1
 48
2.0
100
AcDbTrace
 10
9390.572375461053
 20
-773.1336059422017
 30
0.0
 11
9390.808077721448
 21
-773.3693082025975
 31
0.0
 12
9389.983119810064
 22
-773.9585638535872
 32
0.0
 13
9389.983119810064
 23
-773.9585638535872
 33
0.0
  0
POINT
  5
827DE
330
827D8
100
AcDbEntity
  8
Defpoints
 62
     0
 48
2.0
100
AcDbPoint
 10
9389.983119810064
 20
-773.9585638535872
 30
0.0
  0
POINT
  5
827DF
330
827D8
100
AcDbEntity
  8
Defpoints
 62
     0
 48
2.0
100
AcDbPoint
 10
9390.690226591248
 20
-773.2514570724014
 30
0.0
  0
ENDBLK
  5
827E0
330
827D8
100
AcDbEntity
  8
0
 48
2.0
100
AcDbBlockEnd
  0
BLOCK
  5
827E2
330
827E1
100
AcDbEntity
  8
0
 48
2.0
100
AcDbBlockBegin
  2
*D23
 70
     1
 10
0.0
 20
0.0
 30
0.0
  3
*D23
  1

  0
LINE
  5
827E3
330
827E1
100
AcDbEntity
  8
Dim
 62
     1
 48
2.0
370
    -2
100
AcDbLine
 10
9400.965416048531
 20
-797.5577660336263
 30
0.0
 11
9399.965416048534
 21
-797.5577660336257
 31
0.0
  0
LINE
  5
827E4
330
827E1
100
AcDbEntity
  8
Dim
 62
     1
 48
2.0
370
    -2
100
AcDbLine
 10
9399.965416048534
 20
-797.5577660336257
 30
0.0
 11
9396.697205845429
 21
-799.7058366716824
 31
0.0
  0
MTEXT
  5
827E5
330
827E1
100
AcDbEntity
  8
Dim
 62
     4
 48
2.0
100
AcDbMText
 10
9404.513035096153
 20
-797.5577660336263
 30
0.0
 40
2.0
 41
0.0
 46
0.0
 71
     5
 72
     1
  1
\A1;2-∅4
 73
     1
 44
1.0
  0
SOLID
  5
827E6
330
827E1
100
AcDbEntity
  8
Dim
 62
     1
 48
2.0
100
AcDbTrace
 10
9396.605664600944
 20
-799.5665600464494
 30
0.0
 11
9396.788747089912
 21
-799.8451132969144
 31
0.0
 12
9395.861546094037
 22
-800.2550841385886
 32
0.0
 13
9395.861546094037
 23
-800.2550841385886
 33
0.0
  0
POINT
  5
827E7
330
827E1
100
AcDbEntity
  8
Defpoints
 62
     0
 48
2.0
100
AcDbPoint
 10
9395.861546094037
 20
-800.2550841385886
 30
0.0
  0
POINT
  5
827E8
330
827E1
100
AcDbEntity
  8
Defpoints
 62
     0
 48
2.0
100
AcDbPoint
 10
9392.518907088469
 20
-802.452074006212
 30
0.0
  0
ENDBLK
  5
827E9
330
827E1
100
AcDbEntity
  8
0
 48
2.0
100
AcDbBlockEnd
  0
BLOCK
  5
827EB
330
827EA
100
AcDbEntity
  8
0
 48
2.0
100
AcDbBlockBegin
  2
*D24
 70
     1
 10
0.0
 20
0.0
 30
0.0
  3
*D24
  1

  0
LINE
  5
827EC
330
827EA
100
AcDbEntity
  8
Dim
 62
     6
 48
2.0
370
    -2
100
AcDbLine
 10
9385.99022659125
 20
-769.7514570723999
 30
0.0
 11
9365.283600553853
 21
-769.7514570723999
 31
0.0
  0
LINE
  5
827ED
330
827EA
100
AcDbEntity
  8
Dim
 62
     6
 48
2.0
370
    -2
100
AcDbLine
 10
9373.890227591253
 20
-775.2514570723999
 30
0.0
 11
9365.283600553853
 21
-775.2514570723999
 31
0.0
  0
LINE
  5
827EE
330
827EA
100
AcDbEntity
  8
Dim
 62
     1
 48
2.0
370
    -2
100
AcDbLine
 10
9366.483600553857
 20
-770.7514570723999
 30
0.0
 11
9366.483600553857
 21
-774.2514570723999
 31
0.0
  0
LINE
  5
827EF
330
827EA
100
AcDbEntity
  8
Dim
 62
     1
 48
2.0
370
    -2
100
AcDbLine
 10
9366.483600553857
 20
-775.2514570723999
 30
0.0
 11
9366.483600553857
 21
-776.2514570723999
 31
0.0
  0
SOLID
  5
827F0
330
827EA
100
AcDbEntity
  8
Dim
 62
     1
 48
2.0
100
AcDbTrace
 10
9366.316933887187
 20
-770.7514570723999
 30
0.0
 11
9366.650267220521
 21
-770.7514570723999
 31
0.0
 12
9366.483600553857
 22
-769.7514570723999
 32
0.0
 13
9366.483600553857
 23
-769.7514570723999
 33
0.0
  0
SOLID
  5
827F1
330
827EA
100
AcDbEntity
  8
Dim
 62
     1
 48
2.0
100
AcDbTrace
 10
9366.316933887187
 20
-774.2514570723999
 30
0.0
 11
9366.650267220521
 21
-774.2514570723999
 31
0.0
 12
9366.483600553857
 22
-775.2514570723999
 32
0.0
 13
9366.483600553857
 23
-775.2514570723999
 33
0.0
  0
MTEXT
  5
827F2
330
827EA
100
AcDbEntity
  8
Dim
 62
     4
 48
2.0
100
AcDbMText
 10
9366.483600553857
 20
-779.5324094533506
 30
0.0
 40
2.0
 41
0.0
 46
0.0
 71
     5
 72
     1
  1
\A1;(5.5)
 11
0.0000000000000001
 21
1.0
 31
0.0
 73
     1
 44
1.0
  0
POINT
  5
827F3
330
827EA
100
AcDbEntity
  8
Defpoints
 62
     0
 48
2.0
100
AcDbPoint
 10
9386.190226591253
 20
-769.7514570723999
 30
0.0
  0
POINT
  5
827F4
330
827EA
100
AcDbEntity
  8
Defpoints
 62
     0
 48
2.0
100
AcDbPoint
 10
9374.090227591253
 20
-775.2514570723999
 30
0.0
  0
POINT
  5
827F5
330
827EA
100
AcDbEntity
  8
Defpoints
 62
     0
 48
2.0
100
AcDbPoint
 10
9366.483600553857
 20
-775.2514570723999
 30
0.0
  0
ENDBLK
  5
827F6
330
827EA
100
AcDbEntity
  8
0
 48
2.0
100
AcDbBlockEnd
  0
BLOCK
  5
82A37
330
82A36
100
AcDbEntity
  8
0
100
AcDbBlockBegin
  2
*D25
 70
     1
 10
0.0
 20
0.0
 30
0.0
  3
*D25
  1

  0
LINE
  5
8312D
330
82A36
100
AcDbEntity
  8
Dim
 62
     6
 48
2.0
370
    -2
100
AcDbLine
 10
2946.161889079496
 20
697.618135299104
 30
0.0
 11
2946.161889079496
 21
690.1684920115431
 31
0.0
  0
LINE
  5
8312E
330
82A36
100
AcDbEntity
  8
Dim
 62
     6
 48
2.0
370
    -2
100
AcDbLine
 10
2962.161888079496
 20
697.4966222991037
 30
0.0
 11
2962.161888079496
 21
690.1684920115431
 31
0.0
  0
LINE
  5
8312F
330
82A36
100
AcDbEntity
  8
Dim
 62
     1
 48
2.0
370
    -2
100
AcDbLine
 10
2947.161889079496
 20
690.6684920115431
 30
0.0
 11
2961.161888079496
 21
690.6684920115431
 31
0.0
  0
SOLID
  5
83130
330
82A36
100
AcDbEntity
  8
Dim
 62
     1
 48
2.0
100
AcDbTrace
 10
2947.161889079496
 20
690.8351586782097
 30
0.0
 11
2947.161889079496
 21
690.5018253448766
 31
0.0
 12
2946.161889079496
 22
690.6684920115431
 32
0.0
 13
2946.161889079496
 23
690.6684920115431
 33
0.0
  0
SOLID
  5
83131
330
82A36
100
AcDbEntity
  8
Dim
 62
     1
 48
2.0
100
AcDbTrace
 10
2961.161888079496
 20
690.8351586782097
 30
0.0
 11
2961.161888079496
 21
690.5018253448766
 31
0.0
 12
2962.161888079496
 22
690.6684920115431
 32
0.0
 13
2962.161888079496
 23
690.6684920115431
 33
0.0
  0
MTEXT
  5
83132
330
82A36
100
AcDbEntity
  8
Dim
 62
     4
 48
2.0
100
AcDbMText
 10
2954.04449691709
 20
692.168492011543
 30
0.0
 40
2.0
 41
0.0
 46
0.0
 71
     5
 72
     1
  1
\A1;16
  7
Romans字体
 73
     1
 44
1.0
  0
POINT
  5
83133
330
82A36
100
AcDbEntity
  8
Defpoints
 62
     0
 48
2.0
100
AcDbPoint
 10
2946.161889079496
 20
697.818135299104
 30
0.0
  0
POINT
  5
83134
330
82A36
100
AcDbEntity
  8
Defpoints
 62
     0
 48
2.0
100
AcDbPoint
 10
2962.161888079496
 20
697.6966222991038
 30
0.0
  0
POINT
  5
83135
330
82A36
100
AcDbEntity
  8
Defpoints
 62
     0
 48
2.0
100
AcDbPoint
 10
2962.161888079496
 20
690.6684920115431
 30
0.0
  0
ENDBLK
  5
82A38
330
82A36
100
AcDbEntity
  8
0
100
AcDbBlockEnd
  0
BLOCK
  5
82A43
330
82A42
100
AcDbEntity
  8
0
100
AcDbBlockBegin
  2
*D26
 70
     1
 10
0.0
 20
0.0
 30
0.0
  3
*D26
  1

  0
LINE
  5
83136
330
82A42
100
AcDbEntity
  8
Dim
 62
     6
 48
2.0
370
    -2
100
AcDbLine
 10
2942.061889079498
 20
726.0076122991037
 30
0.0
 11
2942.061889079498
 21
722.5745396700936
 31
0.0
  0
LINE
  5
83137
330
82A42
100
AcDbEntity
  8
Dim
 62
     6
 48
2.0
370
    -2
100
AcDbLine
 10
2966.261888079499
 20
726.0076122991037
 30
0.0
 11
2966.261888079499
 21
722.5745396700936
 31
0.0
  0
LINE
  5
83138
330
82A42
100
AcDbEntity
  8
Dim
 62
     1
 48
2.0
370
    -2
100
AcDbLine
 10
2943.061889079498
 20
723.0745396700937
 30
0.0
 11
2965.261888079499
 21
723.0745396700937
 31
0.0
  0
SOLID
  5
83139
330
82A42
100
AcDbEntity
  8
Dim
 62
     1
 48
2.0
100
AcDbTrace
 10
2943.061889079498
 20
723.2412063367604
 30
0.0
 11
2943.061889079498
 21
722.9078730034273
 31
0.0
 12
2942.061889079498
 22
723.0745396700937
 32
0.0
 13
2942.061889079498
 23
723.0745396700937
 33
0.0
  0
SOLID
  5
8313A
330
82A42
100
AcDbEntity
  8
Dim
 62
     1
 48
2.0
100
AcDbTrace
 10
2965.261888079499
 20
723.2412063367604
 30
0.0
 11
2965.261888079499
 21
722.9078730034273
 31
0.0
 12
2966.261888079499
 22
723.0745396700937
 32
0.0
 13
2966.261888079499
 23
723.0745396700937
 33
0.0
  0
MTEXT
  5
8313B
330
82A42
100
AcDbEntity
  8
Dim
 62
     4
 48
2.0
100
AcDbMText
 10
2954.073521985087
 20
724.5745396700937
 30
0.0
 40
2.0
 41
0.0
 46
0.0
 71
     5
 72
     1
  1
\A1;24.2
  7
Romans字体
 73
     1
 44
1.0
  0
POINT
  5
8313C
330
82A42
100
AcDbEntity
  8
Defpoints
 62
     0
 48
2.0
100
AcDbPoint
 10
2942.061889079498
 20
726.2076122991039
 30
0.0
  0
POINT
  5
8313D
330
82A42
100
AcDbEntity
  8
Defpoints
 62
     0
 48
2.0
100
AcDbPoint
 10
2966.261888079499
 20
726.2076122991039
 30
0.0
  0
POINT
  5
8313E
330
82A42
100
AcDbEntity
  8
Defpoints
 62
     0
 48
2.0
100
AcDbPoint
 10
2966.261888079499
 20
723.0745396700937
 30
0.0
  0
ENDBLK
  5
82A44
330
82A42
100
AcDbEntity
  8
0
100
AcDbBlockEnd
  0
BLOCK
  5
82A4F
330
82A4E
100
AcDbEntity
  8
0
100
AcDbBlockBegin
  2
*D27
 70
     1
 10
0.0
 20
0.0
 30
0.0
  3
*D27
  1

  0
LINE
  5
8313F
330
82A4E
100
AcDbEntity
  8
Dim
 62
     6
 48
2.0
370
    -2
100
AcDbLine
 10
2966.461888079499
 20
727.2076122991038
 30
0.0
 11
2970.912069514281
 21
727.2076122991038
 31
0.0
  0
LINE
  5
83140
330
82A4E
100
AcDbEntity
  8
Dim
 62
     6
 48
2.0
370
    -2
100
AcDbLine
 10
2966.461888079499
 20
726.2076122991037
 30
0.0
 11
2970.912069514281
 21
726.2076122991037
 31
0.0
  0
LINE
  5
83141
330
82A4E
100
AcDbEntity
  8
Dim
 62
     1
 48
2.0
370
    -2
100
AcDbLine
 10
2970.412069514281
 20
728.2076122991037
 30
0.0
 11
2970.412069514281
 21
729.2076122991037
 31
0.0
  0
LINE
  5
83142
330
82A4E
100
AcDbEntity
  8
Dim
 62
     1
 48
2.0
370
    -2
100
AcDbLine
 10
2970.412069514281
 20
725.2076122991037
 30
0.0
 11
2970.412069514281
 21
722.3951845451515
 31
0.0
  0
SOLID
  5
83143
330
82A4E
100
AcDbEntity
  8
Dim
 62
     1
 48
2.0
100
AcDbTrace
 10
2970.245402847615
 20
728.2076122991037
 30
0.0
 11
2970.578736180948
 21
728.2076122991037
 31
0.0
 12
2970.412069514281
 22
727.2076122991038
 32
0.0
 13
2970.412069514281
 23
727.2076122991038
 33
0.0
  0
SOLID
  5
83144
330
82A4E
100
AcDbEntity
  8
Dim
 62
     1
 48
2.0
100
AcDbTrace
 10
2970.245402847615
 20
725.2076122991037
 30
0.0
 11
2970.578736180948
 21
725.2076122991037
 31
0.0
 12
2970.412069514281
 22
726.2076122991037
 32
0.0
 13
2970.412069514281
 23
726.2076122991037
 33
0.0
  0
MTEXT
  5
83145
330
82A4E
100
AcDbEntity
  8
Dim
 62
     4
 48
2.0
100
AcDbMText
 10
2968.912069514281
 20
723.0737559737234
 30
0.0
 40
2.0
 41
0.0
 46
0.0
 71
     5
 72
     1
  1
\A1;1
  7
Romans字体
 11
0.0000000000000001
 21
1.0
 31
0.0
 73
     1
 44
1.0
  0
POINT
  5
83146
330
82A4E
100
AcDbEntity
  8
Defpoints
 62
     0
 48
2.0
100
AcDbPoint
 10
2966.261888079499
 20
727.2076122991038
 30
0.0
  0
POINT
  5
83147
330
82A4E
100
AcDbEntity
  8
Defpoints
 62
     0
 48
2.0
100
AcDbPoint
 10
2966.261888079499
 20
726.2076122991037
 30
0.0
  0
POINT
  5
83148
330
82A4E
100
AcDbEntity
  8
Defpoints
 62
     0
 48
2.0
100
AcDbPoint
 10
2970.412069514281
 20
726.2076122991037
 30
0.0
  0
ENDBLK
  5
82A50
330
82A4E
100
AcDbEntity
  8
0
100
AcDbBlockEnd
  0
BLOCK
  5
82A5C
330
82A5B
100
AcDbEntity
  8
0
100
AcDbBlockBegin
  2
*D28
 70
     1
 10
0.0
 20
0.0
 30
0.0
  3
*D28
  1

  0
LINE
  5
8332B
330
82A5B
100
AcDbEntity
  8
Dim
 62
     6
 48
2.0
370
    -2
100
AcDbLine
 10
2941.861889079498
 20
703.1054902991036
 30
0.0
 11
2933.833549187915
 21
703.1054902991036
 31
0.0
  0
LINE
  5
8332C
330
82A5B
100
AcDbEntity
  8
Dim
 62
     6
 48
2.0
370
    -2
100
AcDbLine
 10
2941.861889079498
 20
697.1054902991036
 30
0.0
 11
2933.833549187915
 21
697.1054902991036
 31
0.0
  0
LINE
  5
8332D
330
82A5B
100
AcDbEntity
  8
Dim
 62
     1
 48
2.0
370
    -2
100
AcDbLine
 10
2934.333549187915
 20
702.1054902991036
 30
0.0
 11
2934.333549187915
 21
698.1054902991036
 31
0.0
  0
SOLID
  5
8332E
330
82A5B
100
AcDbEntity
  8
Dim
 62
     1
 48
2.0
100
AcDbTrace
 10
2934.166882521249
 20
702.1054902991036
 30
0.0
 11
2934.500215854582
 21
702.1054902991036
 31
0.0
 12
2934.333549187915
 22
703.1054902991036
 32
0.0
 13
2934.333549187915
 23
703.1054902991036
 33
0.0
  0
SOLID
  5
8332F
330
82A5B
100
AcDbEntity
  8
Dim
 62
     1
 48
2.0
100
AcDbTrace
 10
2934.166882521249
 20
698.1054902991036
 30
0.0
 11
2934.500215854582
 21
698.1054902991036
 31
0.0
 12
2934.333549187915
 22
697.1054902991036
 32
0.0
 13
2934.333549187915
 23
697.1054902991036
 33
0.0
  0
MTEXT
  5
83330
330
82A5B
100
AcDbEntity
  8
Dim
 62
     4
 48
2.0
100
AcDbMText
 10
2932.833549187916
 20
700.105490299104
 30
0.0
 40
2.0
 41
0.0
 46
0.0
 71
     5
 72
     1
  1
\A1;6
  7
Romans字体
 11
0.0000000000000001
 21
1.0
 31
0.0
 73
     1
 44
1.0
  0
POINT
  5
83331
330
82A5B
100
AcDbEntity
  8
Defpoints
 62
     0
 48
2.0
100
AcDbPoint
 10
2942.061889079498
 20
703.1054902991036
 30
0.0
  0
POINT
  5
83332
330
82A5B
100
AcDbEntity
  8
Defpoints
 62
     0
 48
2.0
100
AcDbPoint
 10
2942.061889079498
 20
697.1054902991036
 30
0.0
  0
POINT
  5
83333
330
82A5B
100
AcDbEntity
  8
Defpoints
 62
     0
 48
2.0
100
AcDbPoint
 10
2934.333549187915
 20
697.1054902991036
 30
0.0
  0
ENDBLK
  5
82A5D
330
82A5B
100
AcDbEntity
  8
0
100
AcDbBlockEnd
  0
BLOCK
  5
82A68
330
82A67
100
AcDbEntity
  8
0
100
AcDbBlockBegin
  2
*D29
 70
     1
 10
0.0
 20
0.0
 30
0.0
  3
*D29
  1

  0
LINE
  5
83152
330
82A67
100
AcDbEntity
  8
Dim
 62
     6
 48
2.0
370
    -2
100
AcDbLine
 10
2944.761889013757
 20
701.705490249799
 30
0.0
 11
2938.227198810684
 21
701.705490249799
 31
0.0
  0
LINE
  5
83153
330
82A67
100
AcDbEntity
  8
Dim
 62
     6
 48
2.0
370
    -2
100
AcDbLine
 10
2944.761889013757
 20
698.5054903484085
 30
0.0
 11
2938.227198810684
 21
698.5054903484085
 31
0.0
  0
LINE
  5
83154
330
82A67
100
AcDbEntity
  8
Dim
 62
     1
 48
2.0
370
    -2
100
AcDbLine
 10
2938.727198810684
 20
700.705490249799
 30
0.0
 11
2938.727198810684
 21
699.5054903484085
 31
0.0
  0
LINE
  5
83155
330
82A67
100
AcDbEntity
  8
Dim
 62
     1
 48
2.0
370
    -2
100
AcDbLine
 10
2938.727198810684
 20
698.5054903484085
 30
0.0
 11
2938.727198810684
 21
691.8685242889962
 31
0.0
  0
SOLID
  5
83156
330
82A67
100
AcDbEntity
  8
Dim
 62
     1
 48
2.0
100
AcDbTrace
 10
2938.560532144018
 20
700.705490249799
 30
0.0
 11
2938.893865477351
 21
700.705490249799
 31
0.0
 12
2938.727198810684
 22
701.705490249799
 32
0.0
 13
2938.727198810684
 23
701.705490249799
 33
0.0
  0
SOLID
  5
83157
330
82A67
100
AcDbEntity
  8
Dim
 62
     1
 48
2.0
100
AcDbTrace
 10
2938.560532144018
 20
699.5054903484085
 30
0.0
 11
2938.893865477351
 21
699.5054903484085
 31
0.0
 12
2938.727198810684
 22
698.5054903484085
 32
0.0
 13
2938.727198810684
 23
698.5054903484085
 33
0.0
  0
MTEXT
  5
83158
330
82A67
100
AcDbEntity
  8
Dim
 62
     4
 48
2.0
100
AcDbMText
 10
2937.227198810684
 20
693.9399528604252
 30
0.0
 40
2.0
 41
0.0
 46
0.0
 71
     5
 72
     1
  1
\A1;3.2
  7
Romans字体
 11
0.0000000000000001
 21
1.0
 31
0.0
 73
     1
 44
1.0
  0
POINT
  5
83159
330
82A67
100
AcDbEntity
  8
Defpoints
 62
     0
 48
2.0
100
AcDbPoint
 10
2944.961889013757
 20
701.705490249799
 30
0.0
  0
POINT
  5
8315A
330
82A67
100
AcDbEntity
  8
Defpoints
 62
     0
 48
2.0
100
AcDbPoint
 10
2944.961889013757
 20
698.5054903484085
 30
0.0
  0
POINT
  5
8315B
330
82A67
100
AcDbEntity
  8
Defpoints
 62
     0
 48
2.0
100
AcDbPoint
 10
2938.727198810684
 20
698.5054903484085
 30
0.0
  0
ENDBLK
  5
82A69
330
82A67
100
AcDbEntity
  8
0
100
AcDbBlockEnd
  0
BLOCK
  5
82A75
330
82A74
100
AcDbEntity
  8
0
100
AcDbBlockBegin
  2
*D30
 70
     1
 10
0.0
 20
0.0
 30
0.0
  3
*D30
  1

  0
LINE
  5
83127
330
82A74
100
AcDbEntity
  8
Dim
 62
     1
 48
2.0
370
    -2
100
AcDbLine
 10
2958.116634190016
 20
734.4342020578737
 30
0.0
 11
2956.964253237636
 21
734.434202057874
 31
0.0
  0
LINE
  5
83128
330
82A74
100
AcDbEntity
  8
Dim
 62
     1
 48
2.0
370
    -2
100
AcDbLine
 10
2956.964253237636
 20
734.434202057874
 30
0.0
 11
2955.598334854673
 21
731.3992608797081
 31
0.0
  0
MTEXT
  5
83129
330
82A74
100
AcDbEntity
  8
Dim
 62
     4
 48
2.0
100
AcDbMText
 10
2960.902348475728
 20
734.4342020578742
 30
0.0
 40
2.0
 41
0.0
 46
0.0
 71
     5
 72
     1
  1
\A1;R2.5
  7
Romans字体
 73
     1
 44
1.0
  0
SOLID
  5
8312A
330
82A74
100
AcDbEntity
  8
Dim
 62
     1
 48
2.0
100
AcDbTrace
 10
2955.446351588929
 20
731.4676631070973
 30
0.0
 11
2955.750318120416
 21
731.3308586523191
 31
0.0
 12
2955.187921490339
 22
730.4873612852485
 32
0.0
 13
2955.187921490339
 23
730.4873612852485
 33
0.0
  0
POINT
  5
8312B
330
82A74
100
AcDbEntity
  8
Defpoints
 62
     0
 48
2.0
100
AcDbPoint
 10
2955.187921490339
 20
730.4873612852485
 30
0.0
  0
POINT
  5
8312C
330
82A74
100
AcDbEntity
  8
Defpoints
 62
     0
 48
2.0
100
AcDbPoint
 10
2954.161888079499
 20
728.2076122990949
 30
0.0
  0
ENDBLK
  5
82A76
330
82A74
100
AcDbEntity
  8
0
100
AcDbBlockEnd
  0
BLOCK
  5
82A7E
330
82A7D
100
AcDbEntity
  8
0
100
AcDbBlockBegin
  2
*D31
 70
     1
 10
0.0
 20
0.0
 30
0.0
  3
*D31
  1

  0
LINE
  5
8315C
330
82A7D
100
AcDbEntity
  8
Dim
 62
     6
 48
2.0
370
    -2
100
AcDbLine
 10
2953.961888079496
 20
730.7076122991037
 30
0.0
 11
2938.287854788414
 21
730.7076122991037
 31
0.0
  0
LINE
  5
8315D
330
82A7D
100
AcDbEntity
  8
Dim
 62
     6
 48
2.0
370
    -2
100
AcDbLine
 10
2941.861889079498
 20
726.2076122991037
 30
0.0
 11
2938.287854788414
 21
726.2076122991037
 31
0.0
  0
LINE
  5
8315E
330
82A7D
100
AcDbEntity
  8
Dim
 62
     1
 48
2.0
370
    -2
100
AcDbLine
 10
2938.787854788414
 20
729.7076122991037
 30
0.0
 11
2938.787854788414
 21
727.2076122991038
 31
0.0
  0
LINE
  5
8315F
330
82A7D
100
AcDbEntity
  8
Dim
 62
     1
 48
2.0
370
    -2
100
AcDbLine
 10
2938.787854788414
 20
726.2076122991037
 30
0.0
 11
2938.787854788414
 21
720.9218980133908
 31
0.0
  0
SOLID
  5
83160
330
82A7D
100
AcDbEntity
  8
Dim
 62
     1
 48
2.0
100
AcDbTrace
 10
2938.621188121747
 20
729.7076122991037
 30
0.0
 11
2938.954521455082
 21
729.7076122991037
 31
0.0
 12
2938.787854788414
 22
730.7076122991037
 32
0.0
 13
2938.787854788414
 23
730.7076122991037
 33
0.0
  0
SOLID
  5
83161
330
82A7D
100
AcDbEntity
  8
Dim
 62
     1
 48
2.0
100
AcDbTrace
 10
2938.621188121747
 20
727.2076122991038
 30
0.0
 11
2938.954521455082
 21
727.2076122991038
 31
0.0
 12
2938.787854788414
 22
726.2076122991037
 32
0.0
 13
2938.787854788414
 23
726.2076122991037
 33
0.0
  0
MTEXT
  5
83162
330
82A7D
100
AcDbEntity
  8
Dim
 62
     4
 48
2.0
100
AcDbMText
 10
2937.287854788414
 20
722.9933265848197
 30
0.0
 40
2.0
 41
0.0
 46
0.0
 71
     5
 72
     1
  1
\A1;4.5
  7
Romans字体
 11
0.0000000000000001
 21
1.0
 31
0.0
 73
     1
 44
1.0
  0
POINT
  5
83163
330
82A7D
100
AcDbEntity
  8
Defpoints
 62
     0
 48
2.0
100
AcDbPoint
 10
2954.161888079496
 20
730.7076122991037
 30
0.0
  0
POINT
  5
83164
330
82A7D
100
AcDbEntity
  8
Defpoints
 62
     0
 48
2.0
100
AcDbPoint
 10
2942.061889079498
 20
726.2076122991037
 30
0.0
  0
POINT
  5
83165
330
82A7D
100
AcDbEntity
  8
Defpoints
 62
     0
 48
2.0
100
AcDbPoint
 10
2938.787854788414
 20
726.2076122991037
 30
0.0
  0
ENDBLK
  5
82A7F
330
82A7D
100
AcDbEntity
  8
0
100
AcDbBlockEnd
  0
BLOCK
  5
82A8B
330
82A8A
100
AcDbEntity
  8
0
100
AcDbBlockBegin
  2
*D32
 70
     1
 10
0.0
 20
0.0
 30
0.0
  3
*D32
  1

  0
LINE
  5
83121
330
82A8A
100
AcDbEntity
  8
Dim
 62
     1
 48
2.0
370
    -2
100
AcDbLine
 10
2963.580827470679
 20
730.3289326426699
 30
0.0
 11
2960.783208423058
 21
730.3289326426696
 31
0.0
  0
LINE
  5
83122
330
82A8A
100
AcDbEntity
  8
Dim
 62
     1
 48
2.0
370
    -2
100
AcDbLine
 10
2960.783208423058
 20
730.3289326426696
 30
0.0
 11
2958.661888079493
 21
728.207612299103
 31
0.0
  0
MTEXT
  5
83123
330
82A8A
100
AcDbEntity
  8
Dim
 62
     4
 48
2.0
100
AcDbMText
 10
2966.759398899251
 20
730.3289326426696
 30
0.0
 40
2.0
 41
0.0
 46
0.0
 71
     5
 72
     1
  1
\A1;2-R1
  7
Romans字体
 73
     1
 44
1.0
  0
SOLID
  5
83124
330
82A8A
100
AcDbEntity
  8
Dim
 62
     1
 48
2.0
100
AcDbTrace
 10
2958.544036949295
 20
728.3254634293008
 30
0.0
 11
2958.779739209691
 21
728.0897611689052
 31
0.0
 12
2957.954781298307
 22
727.5005055179164
 32
0.0
 13
2957.954781298307
 23
727.5005055179164
 33
0.0
  0
POINT
  5
83125
330
82A8A
100
AcDbEntity
  8
Defpoints
 62
     0
 48
2.0
100
AcDbPoint
 10
2957.954781298307
 20
727.5005055179164
 30
0.0
  0
POINT
  5
83126
330
82A8A
100
AcDbEntity
  8
Defpoints
 62
     0
 48
2.0
100
AcDbPoint
 10
2958.661888079492
 20
728.2076122991023
 30
0.0
  0
ENDBLK
  5
82A8C
330
82A8A
100
AcDbEntity
  8
0
100
AcDbBlockEnd
  0
BLOCK
  5
82A94
330
82A93
100
AcDbEntity
  8
0
100
AcDbBlockBegin
  2
*D33
 70
     1
 10
0.0
 20
0.0
 30
0.0
  3
*D33
  1

  0
LINE
  5
8311B
330
82A93
100
AcDbEntity
  8
Dim
 62
     1
 48
2.0
370
    -2
100
AcDbLine
 10
2969.127553727255
 20
703.9013033378783
 30
0.0
 11
2967.93707753678
 21
703.9013033378778
 31
0.0
  0
LINE
  5
8311C
330
82A93
100
AcDbEntity
  8
Dim
 62
     1
 48
2.0
370
    -2
100
AcDbLine
 10
2967.93707753678
 20
703.9013033378778
 30
0.0
 11
2964.668867333674
 21
701.7532326998207
 31
0.0
  0
MTEXT
  5
8311D
330
82A93
100
AcDbEntity
  8
Dim
 62
     4
 48
2.0
100
AcDbMText
 10
2972.484696584397
 20
703.9013033378778
 30
0.0
 40
2.0
 41
0.0
 46
0.0
 71
     5
 72
     1
  1
\A1;2-{\Fromans|c128;∅4}
  7
Romans字体
 73
     1
 44
1.0
  0
SOLID
  5
8311E
330
82A93
100
AcDbEntity
  8
Dim
 62
     1
 48
2.0
100
AcDbTrace
 10
2964.577326089189
 20
701.892509325053
 30
0.0
 11
2964.760408578158
 21
701.6139560745886
 31
0.0
 12
2963.833207582281
 22
701.2039852329147
 32
0.0
 13
2963.833207582281
 23
701.2039852329147
 33
0.0
  0
POINT
  5
8311F
330
82A93
100
AcDbEntity
  8
Defpoints
 62
     0
 48
2.0
100
AcDbPoint
 10
2963.833207582281
 20
701.2039852329147
 30
0.0
  0
POINT
  5
83120
330
82A93
100
AcDbEntity
  8
Defpoints
 62
     0
 48
2.0
100
AcDbPoint
 10
2960.490568576712
 20
699.0069953652915
 30
0.0
  0
ENDBLK
  5
82A95
330
82A93
100
AcDbEntity
  8
0
100
AcDbBlockEnd
  0
BLOCK
  5
82A9D
330
82A9C
100
AcDbEntity
  8
0
100
AcDbBlockBegin
  2
*D34
 70
     1
 10
0.0
 20
0.0
 30
0.0
  3
*D34
  1

  0
LINE
  5
83166
330
82A9C
100
AcDbEntity
  8
Dim
 62
     6
 48
2.0
370
    -2
100
AcDbLine
 10
2953.961888079496
 20
731.7076122991037
 30
0.0
 11
2933.955262042098
 21
731.7076122991037
 31
0.0
  0
LINE
  5
83167
330
82A9C
100
AcDbEntity
  8
Dim
 62
     6
 48
2.0
370
    -2
100
AcDbLine
 10
2941.861889079498
 20
726.2076122991037
 30
0.0
 11
2933.955262042098
 21
726.2076122991037
 31
0.0
  0
LINE
  5
83168
330
82A9C
100
AcDbEntity
  8
Dim
 62
     1
 48
2.0
370
    -2
100
AcDbLine
 10
2934.455262042098
 20
730.7076122991037
 30
0.0
 11
2934.455262042098
 21
727.2076122991038
 31
0.0
  0
LINE
  5
83169
330
82A9C
100
AcDbEntity
  8
Dim
 62
     1
 48
2.0
370
    -2
100
AcDbLine
 10
2934.455262042098
 20
726.2076122991037
 30
0.0
 11
2934.455262042098
 21
718.9266599181526
 31
0.0
  0
SOLID
  5
8316A
330
82A9C
100
AcDbEntity
  8
Dim
 62
     1
 48
2.0
100
AcDbTrace
 10
2934.288595375432
 20
730.7076122991037
 30
0.0
 11
2934.621928708764
 21
730.7076122991037
 31
0.0
 12
2934.455262042098
 22
731.7076122991037
 32
0.0
 13
2934.455262042098
 23
731.7076122991037
 33
0.0
  0
SOLID
  5
8316B
330
82A9C
100
AcDbEntity
  8
Dim
 62
     1
 48
2.0
100
AcDbTrace
 10
2934.288595375432
 20
727.2076122991038
 30
0.0
 11
2934.621928708764
 21
727.2076122991038
 31
0.0
 12
2934.455262042098
 22
726.2076122991037
 32
0.0
 13
2934.455262042098
 23
726.2076122991037
 33
0.0
  0
MTEXT
  5
8316C
330
82A9C
100
AcDbEntity
  8
Dim
 62
     4
 48
2.0
100
AcDbMText
 10
2932.431452518288
 20
721.926659918153
 30
0.0
 40
2.0
 41
0.0
 46
0.0
 71
     5
 72
     1
  1
\A1;(5.5)
  7
Romans字体
 11
0.0000000000000001
 21
1.0
 31
0.0
 73
     1
 44
1.0
  0
POINT
  5
8316D
330
82A9C
100
AcDbEntity
  8
Defpoints
 62
     0
 48
2.0
100
AcDbPoint
 10
2954.161888079496
 20
731.7076122991037
 30
0.0
  0
POINT
  5
8316E
330
82A9C
100
AcDbEntity
  8
Defpoints
 62
     0
 48
2.0
100
AcDbPoint
 10
2942.061889079498
 20
726.2076122991037
 30
0.0
  0
POINT
  5
8316F
330
82A9C
100
AcDbEntity
  8
Defpoints
 62
     0
 48
2.0
100
AcDbPoint
 10
2934.455262042098
 20
726.2076122991037
 30
0.0
  0
ENDBLK
  5
82A9E
330
82A9C
100
AcDbEntity
  8
0
100
AcDbBlockEnd
  0
ENDSEC
  0
SECTION
  2
ENTITIES
  0
POINT
  5
6C8F
330
1F
100
AcDbEntity
  8
0
 60
     1
100
AcDbPoint
 10
45143.05040943241
 20
-19004.18044894631
 30
0.0
1001
GENIUS_GENOBJ-N-TIT_13
1002
{
1000
OWNER
1000
GEN
1002
}
1001
GENIUS_GENOENT_13
1002
{
1000
MYREF
1005
6C8F
1002
}
1002
{
1000
GRP
1005
0
1002
}
1001
GENIUS_GENOLIS_13
1002
{
1000
ENT
1005
0
1005
0
1002
}
1001
GENIUS_GENTITLE_13
1002
{
1000
SCALE
1000
1:1
1002
}
1002
{
1000
BORDER
1000
GEN_A3
1002
}
1002
{
1000
TITLE
1000
GENTITLE
1002
}
1002
{
1000
UNCHG
1002
{
1000
GEN-TITLE-SCA
1000
GEN-TITLE-SIZ
1002
}
1002
}
1002
{
1000
HRA
1005
0
1002
}
1002
{
1000
HTIT
1005
0
1002
}
1002
{
1000
GENIUSID
1005
6C8F
1002
}
1001
GENIUS_GENODEF_13
1002
{
1000
HIER
1070
     1
1002
}
1002
{
1000
MANEDIT
1070
     0
1002
}
1002
{
1000
NOSEL
1070
     0
1002
}
1002
{
1000
BEHIND
1070
     0
1002
}
1002
{
1000
REACTOR
1002
}
  0
TEXT
  5
6C90
330
1F
100
AcDbEntity
  8
0
 60
     1
100
AcDbText
 10
45637.58773215241
 20
-18625.72255409374
 30
0.0
 40
2.0
  1
!GENTITLE-MAX
100
AcDbText
  0
TEXT
  5
6C91
330
1F
100
AcDbEntity
  8
0
 60
     1
100
AcDbText
 10
45627.5877321524
 20
-18635.72255409374
 30
0.0
 40
2.0
  1
!GENTITLE-RU
100
AcDbText
  0
TEXT
  5
6C92
330
1F
100
AcDbEntity
  8
0
 60
     1
100
AcDbText
 10
45627.5877321524
 20
-18917.72255409374
 30
0.0
 40
2.0
  1
!GENTITLE-INSERT
100
AcDbText
  0
TEXT
  5
6C93
330
1F
100
AcDbEntity
  8
0
 60
     1
100
AcDbText
 10
45227.5877321524
 20
-18912.72255409374
 30
0.0
 40
2.0
  1
!GENTITLE-LL
100
AcDbText
  0
POINT
  5
6C94
330
1F
100
AcDbEntity
  8
0
 60
     1
100
AcDbPoint
 10
44892.02967200544
 20
-18922.45331297959
 30
0.0
1001
GENIUS_GENOBJ-N-TIT_13
1002
{
1000
OWNER
1000
GEN
1002
}
1001
GENIUS_GENOENT_13
1002
{
1000
MYREF
1005
6C94
1002
}
1002
{
1000
GRP
1005
0
1002
}
1001
GENIUS_GENOLIS_13
1002
{
1000
ENT
1005
0
1005
0
1002
}
1001
GENIUS_GENTITLE_13
1002
{
1000
SCALE
1000
1:1
1002
}
1002
{
1000
BORDER
1000
GEN_A3
1002
}
1002
{
1000
TITLE
1000
GENTITLE
1002
}
1002
{
1000
UNCHG
1002
{
1000
GEN-TITLE-SCA
1000
GEN-TITLE-SIZ
1002
}
1002
}
1002
{
1000
HRA
1005
0
1002
}
1002
{
1000
HTIT
1005
0
1002
}
1002
{
1000
GENIUSID
1005
6C94
1002
}
1001
GENIUS_GENODEF_13
1002
{
1000
HIER
1070
     1
1002
}
1002
{
1000
MANEDIT
1070
     0
1002
}
1002
{
1000
NOSEL
1070
     0
1002
}
1002
{
1000
BEHIND
1070
     0
1002
}
1002
{
1000
REACTOR
1002
}
  0
TEXT
  5
6C95
330
1F
100
AcDbEntity
  8
0
 60
     1
100
AcDbText
 10
45386.56699472543
 20
-18543.99541812701
 30
0.0
 40
2.0
  1
!GENTITLE-MAX
100
AcDbText
  0
TEXT
  5
6C96
330
1F
100
AcDbEntity
  8
0
 60
     1
100
AcDbText
 10
45376.56699472543
 20
-18553.99541812701
 30
0.0
 40
2.0
  1
!GENTITLE-RU
100
AcDbText
  0
TEXT
  5
6C97
330
1F
100
AcDbEntity
  8
0
 60
     1
100
AcDbText
 10
45376.56699472543
 20
-18835.99541812701
 30
0.0
 40
2.0
  1
!GENTITLE-INSERT
100
AcDbText
  0
TEXT
  5
6C98
330
1F
100
AcDbEntity
  8
0
 60
     1
100
AcDbText
 10
44976.56699472543
 20
-18830.99541812701
 30
0.0
 40
2.0
  1
!GENTITLE-LL
100
AcDbText
  0
POINT
  5
6C99
330
1F
100
AcDbEntity
  8
0
 60
     1
100
AcDbPoint
 10
2841.073545212444
 20
724.9444851052893
 30
0.0
1001
GENIUS_GENOBJ-N-TIT_13
1002
{
1000
OWNER
1000
GEN
1002
}
1001
GENIUS_GENOENT_13
1002
{
1000
MYREF
1005
6C99
1002
}
1002
{
1000
GRP
1005
0
1002
}
1001
GENIUS_GENOLIS_13
1002
{
1000
ENT
1005
0
1005
0
1002
}
1001
GENIUS_GENTITLE_13
1002
{
1000
SCALE
1000
1:1
1002
}
1002
{
1000
BORDER
1000
GEN_A3
1002
}
1002
{
1000
TITLE
1000
GENTITLE
1002
}
1002
{
1000
UNCHG
1002
{
1000
GEN-TITLE-SCA
1000
GEN-TITLE-SIZ
1002
}
1002
}
1002
{
1000
HRA
1005
0
1002
}
1002
{
1000
HTIT
1005
0
1002
}
1002
{
1000
GENIUSID
1005
6C99
1002
}
1001
GENIUS_GENODEF_13
1002
{
1000
HIER
1070
     1
1002
}
1002
{
1000
MANEDIT
1070
     0
1002
}
1002
{
1000
NOSEL
1070
     0
1002
}
1002
{
1000
BEHIND
1070
     0
1002
}
1002
{
1000
REACTOR
1002
}
  0
TEXT
  5
6C9A
330
1F
100
AcDbEntity
  8
0
 60
     1
100
AcDbText
 10
3335.610867932429
 20
1103.402379957868
 30
0.0
 40
2.0
  1
!GENTITLE-MAX
100
AcDbText
  0
TEXT
  5
6C9B
330
1F
100
AcDbEntity
  8
0
 60
     1
100
AcDbText
 10
3325.61086793243
 20
1093.402379957868
 30
0.0
 40
2.0
  1
!GENTITLE-RU
100
AcDbText
  0
TEXT
  5
6C9C
330
1F
100
AcDbEntity
  8
0
 60
     1
100
AcDbText
 10
3325.61086793243
 20
811.4023799578674
 30
0.0
 40
2.0
  1
!GENTITLE-INSERT
100
AcDbText
  0
TEXT
  5
6C9D
330
1F
100
AcDbEntity
  8
0
 60
     1
100
AcDbText
 10
2925.610867932429
 20
816.4023799578677
 30
0.0
 40
2.0
  1
!GENTITLE-LL
100
AcDbText
  0
POINT
  5
6C9F
330
1F
100
AcDbEntity
  8
0
 60
     1
100
AcDbPoint
 10
44989.33493766866
 20
-19508.65683606648
 30
0.0
1001
GENIUS_GENOBJ-N-TIT_13
1002
{
1000
OWNER
1000
GEN
1002
}
1001
GENIUS_GENOENT_13
1002
{
1000
MYREF
1005
6C9F
1002
}
1002
{
1000
GRP
1005
0
1002
}
1001
GENIUS_GENOLIS_13
1002
{
1000
ENT
1005
0
1005
0
1002
}
1001
GENIUS_GENTITLE_13
1002
{
1000
SCALE
1000
1:1
1002
}
1002
{
1000
BORDER
1000
GEN_A3
1002
}
1002
{
1000
TITLE
1000
GENTITLE
1002
}
1002
{
1000
UNCHG
1002
{
1000
GEN-TITLE-SCA
1000
GEN-TITLE-SIZ
1002
}
1002
}
1002
{
1000
HRA
1005
0
1002
}
1002
{
1000
HTIT
1005
0
1002
}
1002
{
1000
GENIUSID
1005
6C9F
1002
}
1001
GENIUS_GENODEF_13
1002
{
1000
HIER
1070
     1
1002
}
1002
{
1000
MANEDIT
1070
     0
1002
}
1002
{
1000
NOSEL
1070
     0
1002
}
1002
{
1000
BEHIND
1070
     0
1002
}
1002
{
1000
REACTOR
1002
}
  0
TEXT
  5
6CA0
330
1F
100
AcDbEntity
  8
0
 60
     1
100
AcDbText
 10
45483.87226038866
 20
-19130.1989412139
 30
0.0
 40
2.0
  1
!GENTITLE-MAX
100
AcDbText
  0
TEXT
  5
6CA1
330
1F
100
AcDbEntity
  8
0
 60
     1
100
AcDbText
 10
45473.87226038866
 20
-19140.19894121389
 30
0.0
 40
2.0
  1
!GENTITLE-RU
100
AcDbText
  0
TEXT
  5
6CA2
330
1F
100
AcDbEntity
  8
0
 60
     1
100
AcDbText
 10
45473.87226038866
 20
-19422.19894121389
 30
0.0
 40
2.0
  1
!GENTITLE-INSERT
100
AcDbText
  0
TEXT
  5
6CA3
330
1F
100
AcDbEntity
  8
0
 60
     1
100
AcDbText
 10
45073.87226038866
 20
-19417.1989412139
 30
0.0
 40
2.0
  1
!GENTITLE-LL
100
AcDbText
  0
POINT
  5
6CA4
330
1F
100
AcDbEntity
  8
0
 60
     1
100
AcDbPoint
 10
46058.55120139381
 20
-19048.27380978762
 30
0.0
1001
GENIUS_GENOBJ-N-TIT_13
1002
{
1000
OWNER
1000
GEN
1002
}
1001
GENIUS_GENOENT_13
1002
{
1000
MYREF
1005
6CA4
1002
}
1002
{
1000
GRP
1005
0
1002
}
1001
GENIUS_GENOLIS_13
1002
{
1000
ENT
1005
0
1005
0
1002
}
1001
GENIUS_GENTITLE_13
1002
{
1000
SCALE
1000
1:1
1002
}
1002
{
1000
BORDER
1000
GEN_A3
1002
}
1002
{
1000
TITLE
1000
GENTITLE
1002
}
1002
{
1000
UNCHG
1002
{
1000
GEN-TITLE-SCA
1000
GEN-TITLE-SIZ
1002
}
1002
}
1002
{
1000
HRA
1005
0
1002
}
1002
{
1000
HTIT
1005
0
1002
}
1002
{
1000
GENIUSID
1005
6CA4
1002
}
1001
GENIUS_GENODEF_13
1002
{
1000
HIER
1070
     1
1002
}
1002
{
1000
MANEDIT
1070
     0
1002
}
1002
{
1000
NOSEL
1070
     0
1002
}
1002
{
1000
BEHIND
1070
     0
1002
}
1002
{
1000
REACTOR
1002
}
  0
TEXT
  5
6CA5
330
1F
100
AcDbEntity
  8
0
 60
     1
100
AcDbText
 10
46553.08852411378
 20
-18669.81591493504
 30
0.0
 40
2.0
  1
!GENTITLE-MAX
100
AcDbText
  0
TEXT
  5
6CA6
330
1F
100
AcDbEntity
  8
0
 60
     1
100
AcDbText
 10
46543.0885241138
 20
-18679.81591493504
 30
0.0
 40
2.0
  1
!GENTITLE-RU
100
AcDbText
  0
TEXT
  5
6CA7
330
1F
100
AcDbEntity
  8
0
 60
     1
100
AcDbText
 10
46543.0885241138
 20
-18961.81591493504
 30
0.0
 40
2.0
  1
!GENTITLE-INSERT
100
AcDbText
  0
TEXT
  5
6CA8
330
1F
100
AcDbEntity
  8
0
 60
     1
100
AcDbText
 10
46143.0885241138
 20
-18956.81591493504
 30
0.0
 40
2.0
  1
!GENTITLE-LL
100
AcDbText
  0
POINT
  5
6CA9
330
1F
100
AcDbEntity
  8
0
 60
     1
100
AcDbPoint
 10
45807.53046396681
 20
-18966.54667382089
 30
0.0
1001
GENIUS_GENOBJ-N-TIT_13
1002
{
1000
OWNER
1000
GEN
1002
}
1001
GENIUS_GENOENT_13
1002
{
1000
MYREF
1005
6CA9
1002
}
1002
{
1000
GRP
1005
0
1002
}
1001
GENIUS_GENOLIS_13
1002
{
1000
ENT
1005
0
1005
0
1002
}
1001
GENIUS_GENTITLE_13
1002
{
1000
SCALE
1000
1:1
1002
}
1002
{
1000
BORDER
1000
GEN_A3
1002
}
1002
{
1000
TITLE
1000
GENTITLE
1002
}
1002
{
1000
UNCHG
1002
{
1000
GEN-TITLE-SCA
1000
GEN-TITLE-SIZ
1002
}
1002
}
1002
{
1000
HRA
1005
0
1002
}
1002
{
1000
HTIT
1005
0
1002
}
1002
{
1000
GENIUSID
1005
6CA9
1002
}
1001
GENIUS_GENODEF_13
1002
{
1000
HIER
1070
     1
1002
}
1002
{
1000
MANEDIT
1070
     0
1002
}
1002
{
1000
NOSEL
1070
     0
1002
}
1002
{
1000
BEHIND
1070
     0
1002
}
1002
{
1000
REACTOR
1002
}
  0
TEXT
  5
6CAA
330
1F
100
AcDbEntity
  8
0
 60
     1
100
AcDbText
 10
46302.06778668681
 20
-18588.08877896832
 30
0.0
 40
2.0
  1
!GENTITLE-MAX
100
AcDbText
  0
TEXT
  5
6CAB
330
1F
100
AcDbEntity
  8
0
 60
     1
100
AcDbText
 10
46292.06778668681
 20
-18598.08877896832
 30
0.0
 40
2.0
  1
!GENTITLE-RU
100
AcDbText
  0
TEXT
  5
6CAC
330
1F
100
AcDbEntity
  8
0
 60
     1
100
AcDbText
 10
46292.06778668681
 20
-18880.08877896832
 30
0.0
 40
2.0
  1
!GENTITLE-INSERT
100
AcDbText
  0
TEXT
  5
6CAD
330
1F
100
AcDbEntity
  8
0
 60
     1
100
AcDbText
 10
45892.06778668681
 20
-18875.08877896832
 30
0.0
 40
2.0
  1
!GENTITLE-LL
100
AcDbText
  0
POINT
  5
6CAE
330
1F
100
AcDbEntity
  8
0
 60
     1
100
AcDbPoint
 10
3756.574337173829
 20
680.8511242639857
 30
0.0
1001
GENIUS_GENOBJ-N-TIT_13
1002
{
1000
OWNER
1000
GEN
1002
}
1001
GENIUS_GENOENT_13
1002
{
1000
MYREF
1005
6CAE
1002
}
1002
{
1000
GRP
1005
0
1002
}
1001
GENIUS_GENOLIS_13
1002
{
1000
ENT
1005
0
1005
0
1002
}
1001
GENIUS_GENTITLE_13
1002
{
1000
SCALE
1000
1:1
1002
}
1002
{
1000
BORDER
1000
GEN_A3
1002
}
1002
{
1000
TITLE
1000
GENTITLE
1002
}
1002
{
1000
UNCHG
1002
{
1000
GEN-TITLE-SCA
1000
GEN-TITLE-SIZ
1002
}
1002
}
1002
{
1000
HRA
1005
0
1002
}
1002
{
1000
HTIT
1005
0
1002
}
1002
{
1000
GENIUSID
1005
6CAE
1002
}
1001
GENIUS_GENODEF_13
1002
{
1000
HIER
1070
     1
1002
}
1002
{
1000
MANEDIT
1070
     0
1002
}
1002
{
1000
NOSEL
1070
     0
1002
}
1002
{
1000
BEHIND
1070
     0
1002
}
1002
{
1000
REACTOR
1002
}
  0
TEXT
  5
6CAF
330
1F
100
AcDbEntity
  8
0
 60
     1
100
AcDbText
 10
4251.111659893815
 20
1059.309019116564
 30
0.0
 40
2.0
  1
!GENTITLE-MAX
100
AcDbText
  0
TEXT
  5
6CB0
330
1F
100
AcDbEntity
  8
0
 60
     1
100
AcDbText
 10
4241.111659893814
 20
1049.309019116564
 30
0.0
 40
2.0
  1
!GENTITLE-RU
100
AcDbText
  0
TEXT
  5
6CB1
330
1F
100
AcDbEntity
  8
0
 60
     1
100
AcDbText
 10
4241.111659893814
 20
767.3090191165637
 30
0.0
 40
2.0
  1
!GENTITLE-INSERT
100
AcDbText
  0
TEXT
  5
6CB2
330
1F
100
AcDbEntity
  8
0
 60
     1
100
AcDbText
 10
3841.111659893814
 20
772.3090191165637
 30
0.0
 40
2.0
  1
!GENTITLE-LL
100
AcDbText
  0
POINT
  5
6CB4
330
1F
100
AcDbEntity
  8
0
 60
     1
100
AcDbPoint
 10
45904.83572963004
 20
-19552.75019690778
 30
0.0
1001
GENIUS_GENOBJ-N-TIT_13
1002
{
1000
OWNER
1000
GEN
1002
}
1001
GENIUS_GENOENT_13
1002
{
1000
MYREF
1005
6CB4
1002
}
1002
{
1000
GRP
1005
0
1002
}
1001
GENIUS_GENOLIS_13
1002
{
1000
ENT
1005
0
1005
0
1002
}
1001
GENIUS_GENTITLE_13
1002
{
1000
SCALE
1000
1:1
1002
}
1002
{
1000
BORDER
1000
GEN_A3
1002
}
1002
{
1000
TITLE
1000
GENTITLE
1002
}
1002
{
1000
UNCHG
1002
{
1000
GEN-TITLE-SCA
1000
GEN-TITLE-SIZ
1002
}
1002
}
1002
{
1000
HRA
1005
0
1002
}
1002
{
1000
HTIT
1005
0
1002
}
1002
{
1000
GENIUSID
1005
6CB4
1002
}
1001
GENIUS_GENODEF_13
1002
{
1000
HIER
1070
     1
1002
}
1002
{
1000
MANEDIT
1070
     0
1002
}
1002
{
1000
NOSEL
1070
     0
1002
}
1002
{
1000
BEHIND
1070
     0
1002
}
1002
{
1000
REACTOR
1002
}
  0
TEXT
  5
6CB5
330
1F
100
AcDbEntity
  8
0
 60
     1
100
AcDbText
 10
46399.37305235005
 20
-19174.29230205521
 30
0.0
 40
2.0
  1
!GENTITLE-MAX
100
AcDbText
  0
TEXT
  5
6CB6
330
1F
100
AcDbEntity
  8
0
 60
     1
100
AcDbText
 10
46389.37305235004
 20
-19184.29230205521
 30
0.0
 40
2.0
  1
!GENTITLE-RU
100
AcDbText
  0
TEXT
  5
6CB7
330
1F
100
AcDbEntity
  8
0
 60
     1
100
AcDbText
 10
46389.37305235004
 20
-19466.29230205521
 30
0.0
 40
2.0
  1
!GENTITLE-INSERT
100
AcDbText
  0
TEXT
  5
6CB8
330
1F
100
AcDbEntity
  8
0
 60
     1
100
AcDbText
 10
45989.37305235005
 20
-19461.29230205521
 30
0.0
 40
2.0
  1
!GENTITLE-LL
100
AcDbText
  0
INSERT
  5
8AE2
330
1F
100
AcDbEntity
  8
ASHADE
 62
     1
370
     0
100
AcDbBlockReference
  2
AVE_RENDER
 10
1581.033129310014
 20
668.2648064278827
 30
0.0
1001
AVE_RENDER
1002
{
1070
     7
1000
Pref
1070
    50
1070
    20
1070
     1
1070
     0
1000

1070
    10
1070
     1
1070
    10
1040
1.0
1070
     1
1040
0.7
1040
1.0
1040
0.0
1040
10.0
1010
-1.0
1020
-1.0
1030
-1.0
1040
0.3
1070
    49
1070
     0
1070
     0
1010
1.0
1020
1.0
1030
1.0
1040
45.0
1070
     1
1070
     0
1000
WCS
1040
0.0
1070
     0
1040
10.0
1002
}
  0
INSERT
  5
8AE3
330
1F
100
AcDbEntity
  8
ASHADE
 62
     3
370
     0
100
AcDbBlockReference
  2
AVE_RENDER
 10
1581.033129310014
 20
668.2648064278827
 30
0.0
1001
AVE_RENDER
1002
{
1070
     0
1000
Full Opt
1070
     0
1070
     1
1070
     1
1070
     1
1070
     0
1070
     0
1070
     0
1070
     1
1070
     1
1040
0.0001
1040
0.0001
1002
}
  0
INSERT
  5
8AE4
330
1F
100
AcDbEntity
  8
ASHADE
 62
     4
370
     0
100
AcDbBlockReference
  2
AVE_RENDER
 10
1581.033129310014
 20
668.2648064278827
 30
0.0
1001
AVE_RENDER
1002
{
1070
     0
1000
Quick Opt
1070
     0
1070
     1
1070
     1
1070
     1
1070
     0
1070
     0
1070
     1
1002
}
  0
INSERT
  5
8AE5
330
1F
100
AcDbEntity
  8
ASHADE
 62
     5
370
     0
100
AcDbBlockReference
  2
AVE_RENDER
 10
1581.033129310014
 20
668.2648064278827
 30
0.0
1001
AVE_RENDER
1002
{
1070
     1
1000
Scanl Opt
1070
     2
1070
     0
1070
     2
1040
2.0
1040
4.0
1070
     0
1070
     1
1070
     0
1040
0.03
1002
}
  0
INSERT
  5
8AE6
330
1F
100
AcDbEntity
  8
ASHADE
 62
     6
370
     0
100
AcDbBlockReference
  2
AVE_RENDER
 10
1581.033129310014
 20
668.2648064278827
 30
0.0
1001
AVE_RENDER
1002
{
1070
     2
1000
Raytr Opt
1070
     2
1070
     0
1070
     2
1040
2.0
1040
4.0
1070
     0
1070
     1
1070
     1
1040
0.03
1070
     3
1040
0.03
1002
}
  0
INSERT
  5
8AE7
330
1F
100
AcDbEntity
  8
ASHADE
 62
     7
370
     0
100
AcDbBlockReference
  2
AVE_RENDER
 10
1581.033129310014
 20
668.2648064278827
 30
0.0
1001
AVE_RENDER
1002
{
1070
     0
1000
RFile Opt
1070
     1
1070
   640
1070
   480
1070
 10000
1070
     1
1070
     8
1070
     8
1070
     0
1070
     0
1070
     0
1070
     0
1070
     0
1070
     0
1070
     0
1002
}
  0
INSERT
  5
8AE8
330
1F
100
AcDbEntity
  8
ASHADE
 62
     8
370
     0
100
AcDbBlockReference
  2
AVE_RENDER
 10
1581.033129310014
 20
668.2648064278827
 30
0.0
1001
AVE_RENDER
1002
{
1070
     0
1000
Fog Opt
1070
     0
1070
     0
1040
0.0
1040
1.0
1040
0.0
1040
1.0
1010
0.5
1020
0.5
1030
0.5
1002
}
  0
INSERT
  5
8AE9
330
1F
100
AcDbEntity
  8
ASHADE
 62
     9
370
     0
100
AcDbBlockReference
  2
AVE_RENDER
 10
1581.033129310014
 20
668.2648064278827
 30
0.0
1001
AVE_RENDER
1002
{
1070
     0
1000
BG Opt
1070
     0
1070
     1
1010
0.0
1020
0.0
1030
0.0
1010
1.0
1020
0.0
1030
0.0
1010
0.0
1020
1.0
1030
0.0
1010
0.0
1020
0.0
1030
1.0
1040
0.5
1040
0.33
1040
0.0
1000

1070
     1
1000

1070
     1
1070
     1
1040
1.0
1040
1.0
1040
0.0
1040
0.0
1070
     0
1002
}
  0
INSERT
  5
8AEA
330
1F
100
AcDbEntity
  8
ASHADE
 62
     1
370
     0
100
AcDbBlockReference
  2
AVE_GLOBAL
 10
1581.033129310014
 20
668.2648064278827
 30
0.0
1001
AVE_MATERIAL
1002
{
1000
*全局*
1000
2
1000
全局修饰。
1002
{
1002
}
1002
{
1070
    63
1002
{
1002
{
1010
-1.0
1020
-1.0
1030
-1.0
1002
}
1040
0.6999999880790711
1000

1040
0.0
1002
{
1002
}
1040
0.0
1002
{
1002
}
1040
0.0
1002
}
1002
{
1002
{
1010
-1.0
1020
-1.0
1030
-1.0
1002
}
1040
1.0
1000

1040
0.0
1002
{
1002
}
1040
0.0
1002
{
1002
}
1040
0.0
1002
}
1002
{
1002
{
1010
-1.0
1020
-1.0
1030
-1.0
1002
}
1040
0.2000000029802322
1000

1040
0.0
1002
{
1002
}
1040
0.0
1002
{
1002
}
1040
0.0
1002
}
1002
{
1070
     0
1002
{
1070
     1
1002
{
1040
1.0
1040
1.0
1000

1040
0.0
1002
{
1002
}
1040
0.0
1002
{
1002
}
1040
0.0
1002
}
1002
}
1040
1.0
1040
0.0
1040
0.0
1002
}
1002
{
1040
1.0
1040
1.0
1000

1040
0.0
1002
{
1002
}
1040
0.0
1002
{
1002
}
1040
0.0
1002
}
1002
{
1040
0.5
1040
1.0
1000

1040
0.0
1002
{
1002
}
1040
0.0
1002
{
1002
}
1040
0.0
1002
}
1002
{
1070
     0
1040
0.0
1002
{
1002
}
1040
1.0
1002
{
1002
}
1040
0.0
1002
}
1002
{
1040
0.0
1002
{
1002
{
1010
0.0
1020
0.0
1030
0.0
1002
}
1040
1.0
1000

1040
0.0
1002
{
1002
}
1040
0.0
1002
{
1002
}
1040
0.0
1002
}
1002
}
1002
{
1002
{
1070
     1
1002
{
1040
0.0
1040
1.0
1000

1040
0.0
1002
{
1002
}
1040
0.0
1002
{
1002
}
1040
0.0
1002
}
1002
}
1040
0.0
1002
{
1002
}
1010
1.0
1020
0.0
1030
0.0
1010
0.0
1020
1.0
1030
0.0
1010
0.0
1020
0.0
1030
1.0
1070
     0
1002
}
1002
{
1002
{
1040
1.0
1040
1.0
1002
{
1070
     1
1002
{
1040
1.0
1040
1.0
1000

1040
0.0
1002
{
1002
}
1040
0.0
1002
{
1002
}
1040
0.0
1002
}
1002
}
1002
}
1070
     0
1040
0.0
1002
{
1002
}
1002
}
1002
{
1002
}
1002
}
1002
{
1071
        3
1070
     3
1070
     0
1002
{
1070
     2
1070
     0
1070
     0
1040
0.0
1002
}
1070
     0
1070
     2
1002
{
1002
}
1002
}
1002
{
1040
8030.0
1040
190.3000030517578
1040
0.3050000071525574
1040
228.0
1040
545.0
1040
14.0
1040
17.39999961853027
1040
0.4560000002384186
1002
}
1000

1002
}
  0
POINT
  5
F4F6
330
1F
100
AcDbEntity
  8
0
 60
     1
100
AcDbPoint
 10
45069.99797304985
 20
-18959.85178738408
 30
0.0
1001
GENIUS_GENOBJ-N-TIT_13
1002
{
1000
OWNER
1000
GEN
1002
}
1001
GENIUS_GENOENT_13
1002
{
1000
MYREF
1005
F4F6
1002
}
1002
{
1000
GRP
1005
0
1002
}
1001
GENIUS_GENOLIS_13
1002
{
1000
ENT
1005
0
1005
0
1002
}
1001
GENIUS_GENTITLE_13
1002
{
1000
SCALE
1000
1:1
1002
}
1002
{
1000
BORDER
1000
GEN_A3
1002
}
1002
{
1000
TITLE
1000
GENTITLE
1002
}
1002
{
1000
UNCHG
1002
{
1000
GEN-TITLE-SCA
1000
GEN-TITLE-SIZ
1002
}
1002
}
1002
{
1000
HRA
1005
0
1002
}
1002
{
1000
HTIT
1005
0
1002
}
1002
{
1000
GENIUSID
1005
F4F6
1002
}
1001
GENIUS_GENODEF_13
1002
{
1000
HIER
1070
     1
1002
}
1002
{
1000
MANEDIT
1070
     0
1002
}
1002
{
1000
NOSEL
1070
     0
1002
}
1002
{
1000
BEHIND
1070
     0
1002
}
1002
{
1000
REACTOR
1002
}
  0
TEXT
  5
F4F7
330
1F
100
AcDbEntity
  8
0
 60
     1
100
AcDbText
 10
45564.53529576981
 20
-18581.39389253151
 30
0.0
 40
2.0
  1
!GENTITLE-MAX
100
AcDbText
  0
TEXT
  5
F4F8
330
1F
100
AcDbEntity
  8
0
 60
     1
100
AcDbText
 10
45554.53529576984
 20
-18591.39389253151
 30
0.0
 40
2.0
  1
!GENTITLE-RU
100
AcDbText
  0
TEXT
  5
F4F9
330
1F
100
AcDbEntity
  8
0
 60
     1
100
AcDbText
 10
45554.53529576984
 20
-18873.39389253151
 30
0.0
 40
2.0
  1
!GENTITLE-INSERT
100
AcDbText
  0
TEXT
  5
F4FA
330
1F
100
AcDbEntity
  8
0
 60
     1
100
AcDbText
 10
45154.53529576983
 20
-18868.39389253151
 30
0.0
 40
2.0
  1
!GENTITLE-LL
100
AcDbText
  0
POINT
  5
F4FB
330
1F
100
AcDbEntity
  8
0
 60
     1
100
AcDbPoint
 10
44818.97723562287
 20
-18878.12465141736
 30
0.0
1001
GENIUS_GENOBJ-N-TIT_13
1002
{
1000
OWNER
1000
GEN
1002
}
1001
GENIUS_GENOENT_13
1002
{
1000
MYREF
1005
F4FB
1002
}
1002
{
1000
GRP
1005
0
1002
}
1001
GENIUS_GENOLIS_13
1002
{
1000
ENT
1005
0
1005
0
1002
}
1001
GENIUS_GENTITLE_13
1002
{
1000
SCALE
1000
1:1
1002
}
1002
{
1000
BORDER
1000
GEN_A3
1002
}
1002
{
1000
TITLE
1000
GENTITLE
1002
}
1002
{
1000
UNCHG
1002
{
1000
GEN-TITLE-SCA
1000
GEN-TITLE-SIZ
1002
}
1002
}
1002
{
1000
HRA
1005
0
1002
}
1002
{
1000
HTIT
1005
0
1002
}
1002
{
1000
GENIUSID
1005
F4FB
1002
}
1001
GENIUS_GENODEF_13
1002
{
1000
HIER
1070
     1
1002
}
1002
{
1000
MANEDIT
1070
     0
1002
}
1002
{
1000
NOSEL
1070
     0
1002
}
1002
{
1000
BEHIND
1070
     0
1002
}
1002
{
1000
REACTOR
1002
}
  0
TEXT
  5
F4FC
330
1F
100
AcDbEntity
  8
0
 60
     1
100
AcDbText
 10
45313.51455834286
 20
-18499.66675656478
 30
0.0
 40
2.0
  1
!GENTITLE-MAX
100
AcDbText
  0
TEXT
  5
F4FD
330
1F
100
AcDbEntity
  8
0
 60
     1
100
AcDbText
 10
45303.51455834286
 20
-18509.66675656478
 30
0.0
 40
2.0
  1
!GENTITLE-RU
100
AcDbText
  0
TEXT
  5
F4FE
330
1F
100
AcDbEntity
  8
0
 60
     1
100
AcDbText
 10
45303.51455834286
 20
-18791.66675656478
 30
0.0
 40
2.0
  1
!GENTITLE-INSERT
100
AcDbText
  0
TEXT
  5
F4FF
330
1F
100
AcDbEntity
  8
0
 60
     1
100
AcDbText
 10
44903.51455834286
 20
-18786.66675656478
 30
0.0
 40
2.0
  1
!GENTITLE-LL
100
AcDbText
  0
POINT
  5
F500
330
1F
100
AcDbEntity
  8
0
 60
     1
100
AcDbPoint
 10
2768.021108829877
 20
769.2731466675221
 30
0.0
1001
GENIUS_GENOBJ-N-TIT_13
1002
{
1000
OWNER
1000
GEN
1002
}
1001
GENIUS_GENOENT_13
1002
{
1000
MYREF
1005
F500
1002
}
1002
{
1000
GRP
1005
0
1002
}
1001
GENIUS_GENOLIS_13
1002
{
1000
ENT
1005
0
1005
0
1002
}
1001
GENIUS_GENTITLE_13
1002
{
1000
SCALE
1000
1:1
1002
}
1002
{
1000
BORDER
1000
GEN_A3
1002
}
1002
{
1000
TITLE
1000
GENTITLE
1002
}
1002
{
1000
UNCHG
1002
{
1000
GEN-TITLE-SCA
1000
GEN-TITLE-SIZ
1002
}
1002
}
1002
{
1000
HRA
1005
0
1002
}
1002
{
1000
HTIT
1005
0
1002
}
1002
{
1000
GENIUSID
1005
F500
1002
}
1001
GENIUS_GENODEF_13
1002
{
1000
HIER
1070
     1
1002
}
1002
{
1000
MANEDIT
1070
     0
1002
}
1002
{
1000
NOSEL
1070
     0
1002
}
1002
{
1000
BEHIND
1070
     0
1002
}
1002
{
1000
REACTOR
1002
}
  0
TEXT
  5
F501
330
1F
100
AcDbEntity
  8
0
 60
     1
100
AcDbText
 10
3262.558431549862
 20
1147.7310415201
 30
0.0
 40
2.0
  1
!GENTITLE-MAX
100
AcDbText
  0
TEXT
  5
F502
330
1F
100
AcDbEntity
  8
0
 60
     1
100
AcDbText
 10
3252.558431549863
 20
1137.7310415201
 30
0.0
 40
2.0
  1
!GENTITLE-RU
100
AcDbText
  0
TEXT
  5
F503
330
1F
100
AcDbEntity
  8
0
 60
     1
100
AcDbText
 10
3252.558431549863
 20
855.7310415201005
 30
0.0
 40
2.0
  1
!GENTITLE-INSERT
100
AcDbText
  0
TEXT
  5
F504
330
1F
100
AcDbEntity
  8
0
 60
     1
100
AcDbText
 10
2852.558431549864
 20
860.7310415201004
 30
0.0
 40
2.0
  1
!GENTITLE-LL
100
AcDbText
  0
POINT
  5
F506
330
1F
100
AcDbEntity
  8
0
 60
     1
100
AcDbPoint
 10
44916.28250128608
 20
-19464.32817450425
 30
0.0
1001
GENIUS_GENOBJ-N-TIT_13
1002
{
1000
OWNER
1000
GEN
1002
}
1001
GENIUS_GENOENT_13
1002
{
1000
MYREF
1005
F506
1002
}
1002
{
1000
GRP
1005
0
1002
}
1001
GENIUS_GENOLIS_13
1002
{
1000
ENT
1005
0
1005
0
1002
}
1001
GENIUS_GENTITLE_13
1002
{
1000
SCALE
1000
1:1
1002
}
1002
{
1000
BORDER
1000
GEN_A3
1002
}
1002
{
1000
TITLE
1000
GENTITLE
1002
}
1002
{
1000
UNCHG
1002
{
1000
GEN-TITLE-SCA
1000
GEN-TITLE-SIZ
1002
}
1002
}
1002
{
1000
HRA
1005
0
1002
}
1002
{
1000
HTIT
1005
0
1002
}
1002
{
1000
GENIUSID
1005
F506
1002
}
1001
GENIUS_GENODEF_13
1002
{
1000
HIER
1070
     1
1002
}
1002
{
1000
MANEDIT
1070
     0
1002
}
1002
{
1000
NOSEL
1070
     0
1002
}
1002
{
1000
BEHIND
1070
     0
1002
}
1002
{
1000
REACTOR
1002
}
  0
TEXT
  5
F507
330
1F
100
AcDbEntity
  8
0
 60
     1
100
AcDbText
 10
45410.81982400608
 20
-19085.87027965167
 30
0.0
 40
2.0
  1
!GENTITLE-MAX
100
AcDbText
  0
TEXT
  5
F508
330
1F
100
AcDbEntity
  8
0
 60
     1
100
AcDbText
 10
45400.81982400608
 20
-19095.87027965167
 30
0.0
 40
2.0
  1
!GENTITLE-RU
100
AcDbText
  0
TEXT
  5
F509
330
1F
100
AcDbEntity
  8
0
 60
     1
100
AcDbText
 10
45400.81982400608
 20
-19377.87027965167
 30
0.0
 40
2.0
  1
!GENTITLE-INSERT
100
AcDbText
  0
TEXT
  5
F50A
330
1F
100
AcDbEntity
  8
0
 60
     1
100
AcDbText
 10
45000.81982400608
 20
-19372.87027965167
 30
0.0
 40
2.0
  1
!GENTITLE-LL
100
AcDbText
  0
POINT
  5
F50B
330
1F
100
AcDbEntity
  8
0
 60
     1
100
AcDbPoint
 10
45985.49876501124
 20
-19003.94514822539
 30
0.0
1001
GENIUS_GENOBJ-N-TIT_13
1002
{
1000
OWNER
1000
GEN
1002
}
1001
GENIUS_GENOENT_13
1002
{
1000
MYREF
1005
F50B
1002
}
1002
{
1000
GRP
1005
0
1002
}
1001
GENIUS_GENOLIS_13
1002
{
1000
ENT
1005
0
1005
0
1002
}
1001
GENIUS_GENTITLE_13
1002
{
1000
SCALE
1000
1:1
1002
}
1002
{
1000
BORDER
1000
GEN_A3
1002
}
1002
{
1000
TITLE
1000
GENTITLE
1002
}
1002
{
1000
UNCHG
1002
{
1000
GEN-TITLE-SCA
1000
GEN-TITLE-SIZ
1002
}
1002
}
1002
{
1000
HRA
1005
0
1002
}
1002
{
1000
HTIT
1005
0
1002
}
1002
{
1000
GENIUSID
1005
F50B
1002
}
1001
GENIUS_GENODEF_13
1002
{
1000
HIER
1070
     1
1002
}
1002
{
1000
MANEDIT
1070
     0
1002
}
1002
{
1000
NOSEL
1070
     0
1002
}
1002
{
1000
BEHIND
1070
     0
1002
}
1002
{
1000
REACTOR
1002
}
  0
TEXT
  5
F50C
330
1F
100
AcDbEntity
  8
0
 60
     1
100
AcDbText
 10
46480.03608773121
 20
-18625.48725337281
 30
0.0
 40
2.0
  1
!GENTITLE-MAX
100
AcDbText
  0
TEXT
  5
F50D
330
1F
100
AcDbEntity
  8
0
 60
     1
100
AcDbText
 10
46470.03608773123
 20
-18635.48725337281
 30
0.0
 40
2.0
  1
!GENTITLE-RU
100
AcDbText
  0
TEXT
  5
F50E
330
1F
100
AcDbEntity
  8
0
 60
     1
100
AcDbText
 10
46470.03608773123
 20
-18917.48725337281
 30
0.0
 40
2.0
  1
!GENTITLE-INSERT
100
AcDbText
  0
TEXT
  5
F50F
330
1F
100
AcDbEntity
  8
0
 60
     1
100
AcDbText
 10
46070.03608773123
 20
-18912.48725337281
 30
0.0
 40
2.0
  1
!GENTITLE-LL
100
AcDbText
  0
POINT
  5
F510
330
1F
100
AcDbEntity
  8
0
 60
     1
100
AcDbPoint
 10
45734.47802758423
 20
-18922.21801225866
 30
0.0
1001
GENIUS_GENOBJ-N-TIT_13
1002
{
1000
OWNER
1000
GEN
1002
}
1001
GENIUS_GENOENT_13
1002
{
1000
MYREF
1005
F510
1002
}
1002
{
1000
GRP
1005
0
1002
}
1001
GENIUS_GENOLIS_13
1002
{
1000
ENT
1005
0
1005
0
1002
}
1001
GENIUS_GENTITLE_13
1002
{
1000
SCALE
1000
1:1
1002
}
1002
{
1000
BORDER
1000
GEN_A3
1002
}
1002
{
1000
TITLE
1000
GENTITLE
1002
}
1002
{
1000
UNCHG
1002
{
1000
GEN-TITLE-SCA
1000
GEN-TITLE-SIZ
1002
}
1002
}
1002
{
1000
HRA
1005
0
1002
}
1002
{
1000
HTIT
1005
0
1002
}
1002
{
1000
GENIUSID
1005
F510
1002
}
1001
GENIUS_GENODEF_13
1002
{
1000
HIER
1070
     1
1002
}
1002
{
1000
MANEDIT
1070
     0
1002
}
1002
{
1000
NOSEL
1070
     0
1002
}
1002
{
1000
BEHIND
1070
     0
1002
}
1002
{
1000
REACTOR
1002
}
  0
TEXT
  5
F511
330
1F
100
AcDbEntity
  8
0
 60
     1
100
AcDbText
 10
46229.01535030425
 20
-18543.76011740608
 30
0.0
 40
2.0
  1
!GENTITLE-MAX
100
AcDbText
  0
TEXT
  5
F512
330
1F
100
AcDbEntity
  8
0
 60
     1
100
AcDbText
 10
46219.01535030422
 20
-18553.76011740609
 30
0.0
 40
2.0
  1
!GENTITLE-RU
100
AcDbText
  0
TEXT
  5
F513
330
1F
100
AcDbEntity
  8
0
 60
     1
100
AcDbText
 10
46219.01535030422
 20
-18835.76011740609
 30
0.0
 40
2.0
  1
!GENTITLE-INSERT
100
AcDbText
  0
TEXT
  5
F514
330
1F
100
AcDbEntity
  8
0
 60
     1
100
AcDbText
 10
45819.01535030423
 20
-18830.76011740609
 30
0.0
 40
2.0
  1
!GENTITLE-LL
100
AcDbText
  0
POINT
  5
F515
330
1F
100
AcDbEntity
  8
0
 60
     1
100
AcDbPoint
 10
3683.521900791263
 20
725.1797858262184
 30
0.0
1001
GENIUS_GENOBJ-N-TIT_13
1002
{
1000
OWNER
1000
GEN
1002
}
1001
GENIUS_GENOENT_13
1002
{
1000
MYREF
1005
F515
1002
}
1002
{
1000
GRP
1005
0
1002
}
1001
GENIUS_GENOLIS_13
1002
{
1000
ENT
1005
0
1005
0
1002
}
1001
GENIUS_GENTITLE_13
1002
{
1000
SCALE
1000
1:1
1002
}
1002
{
1000
BORDER
1000
GEN_A3
1002
}
1002
{
1000
TITLE
1000
GENTITLE
1002
}
1002
{
1000
UNCHG
1002
{
1000
GEN-TITLE-SCA
1000
GEN-TITLE-SIZ
1002
}
1002
}
1002
{
1000
HRA
1005
0
1002
}
1002
{
1000
HTIT
1005
0
1002
}
1002
{
1000
GENIUSID
1005
F515
1002
}
1001
GENIUS_GENODEF_13
1002
{
1000
HIER
1070
     1
1002
}
1002
{
1000
MANEDIT
1070
     0
1002
}
1002
{
1000
NOSEL
1070
     0
1002
}
1002
{
1000
BEHIND
1070
     0
1002
}
1002
{
1000
REACTOR
1002
}
  0
TEXT
  5
F516
330
1F
100
AcDbEntity
  8
0
 60
     1
100
AcDbText
 10
4178.059223511247
 20
1103.637680678797
 30
0.0
 40
2.0
  1
!GENTITLE-MAX
100
AcDbText
  0
TEXT
  5
F517
330
1F
100
AcDbEntity
  8
0
 60
     1
100
AcDbText
 10
4168.059223511247
 20
1093.637680678797
 30
0.0
 40
2.0
  1
!GENTITLE-RU
100
AcDbText
  0
TEXT
  5
F518
330
1F
100
AcDbEntity
  8
0
 60
     1
100
AcDbText
 10
4168.059223511247
 20
811.637680678797
 30
0.0
 40
2.0
  1
!GENTITLE-INSERT
100
AcDbText
  0
TEXT
  5
F519
330
1F
100
AcDbEntity
  8
0
 60
     1
100
AcDbText
 10
3768.059223511247
 20
816.6376806787971
 30
0.0
 40
2.0
  1
!GENTITLE-LL
100
AcDbText
  0
POINT
  5
F51B
330
1F
100
AcDbEntity
  8
0
 60
     1
100
AcDbPoint
 10
45831.78329324749
 20
-19508.42153534555
 30
0.0
1001
GENIUS_GENOBJ-N-TIT_13
1002
{
1000
OWNER
1000
GEN
1002
}
1001
GENIUS_GENOENT_13
1002
{
1000
MYREF
1005
F51B
1002
}
1002
{
1000
GRP
1005
0
1002
}
1001
GENIUS_GENOLIS_13
1002
{
1000
ENT
1005
0
1005
0
1002
}
1001
GENIUS_GENTITLE_13
1002
{
1000
SCALE
1000
1:1
1002
}
1002
{
1000
BORDER
1000
GEN_A3
1002
}
1002
{
1000
TITLE
1000
GENTITLE
1002
}
1002
{
1000
UNCHG
1002
{
1000
GEN-TITLE-SCA
1000
GEN-TITLE-SIZ
1002
}
1002
}
1002
{
1000
HRA
1005
0
1002
}
1002
{
1000
HTIT
1005
0
1002
}
1002
{
1000
GENIUSID
1005
F51B
1002
}
1001
GENIUS_GENODEF_13
1002
{
1000
HIER
1070
     1
1002
}
1002
{
1000
MANEDIT
1070
     0
1002
}
1002
{
1000
NOSEL
1070
     0
1002
}
1002
{
1000
BEHIND
1070
     0
1002
}
1002
{
1000
REACTOR
1002
}
  0
TEXT
  5
F51C
330
1F
100
AcDbEntity
  8
0
 60
     1
100
AcDbText
 10
46326.32061596748
 20
-19129.96364049297
 30
0.0
 40
2.0
  1
!GENTITLE-MAX
100
AcDbText
  0
TEXT
  5
F51D
330
1F
100
AcDbEntity
  8
0
 60
     1
100
AcDbText
 10
46316.32061596747
 20
-19139.96364049298
 30
0.0
 40
2.0
  1
!GENTITLE-RU
100
AcDbText
  0
TEXT
  5
F51E
330
1F
100
AcDbEntity
  8
0
 60
     1
100
AcDbText
 10
46316.32061596747
 20
-19421.96364049298
 30
0.0
 40
2.0
  1
!GENTITLE-INSERT
100
AcDbText
  0
TEXT
  5
F51F
330
1F
100
AcDbEntity
  8
0
 60
     1
100
AcDbText
 10
45916.32061596748
 20
-19416.96364049297
 30
0.0
 40
2.0
  1
!GENTITLE-LL
100
AcDbText
  0
MTEXT
  5
4BB83
330
1F
100
AcDbEntity
  8
图框
 62
     3
100
AcDbMText
 10
3032.508949339726
 20
670.8025492576543
 30
0.0
 40
1.492756787517073
 41
16.80619599621068
 46
4.343372752842931
 71
     5
 72
     5
  1
{\W0.65;CLP4.5-PE}
  7
Romans字体
 73
     1
 44
1.0
1001
ACAD
1000
ACAD_MTEXT_DEFINED_HEIGHT_BEGIN
1070
    46
1040
4.343372752842931
1000
ACAD_MTEXT_DEFINED_HEIGHT_END
  0
MTEXT
  5
4BB84
330
1F
100
AcDbEntity
  8
图框
 62
     3
100
AcDbMText
 10
3032.508949339726
 20
666.412823994241
 30
0.0
 40
1.492756787517073
 41
16.80619599621068
 46
4.43607777398305
 71
     5
 72
     5
  1
1980020030016
  7
Romans字体
 73
     1
 44
1.0
1001
ACAD
1000
ACAD_MTEXT_DEFINED_HEIGHT_BEGIN
1070
    46
1040
4.43607777398305
1000
ACAD_MTEXT_DEFINED_HEIGHT_END
  0
MTEXT
  5
4BB85
330
1F
100
AcDbEntity
  8
图框
 62
     3
100
AcDbMText
 10
2998.482116874435
 20
659.7590064548684
 30
0.0
 40
1.492756787517073
 41
5.414674217195235
 46
3.943047300605245
 71
     5
 72
     5
  1
2:1 
  7
Romans字体
 73
     1
 44
1.0
1001
ACAD
1000
ACAD_MTEXT_DEFINED_HEIGHT_BEGIN
1070
    46
1040
3.943047300605245
1000
ACAD_MTEXT_DEFINED_HEIGHT_END
  0
MTEXT
  5
4BB86
330
1F
100
AcDbEntity
  8
图框
 62
     3
100
AcDbMText
 10
3009.311465308825
 20
659.7590064548687
 30
0.0
 40
1.492756787517073
 41
5.414674217196085
 46
3.943047300605198
 71
     5
 72
     5
  1
1.2g 
  7
Romans字体
 73
     1
 44
1.0
1001
ACAD
1000
ACAD_MTEXT_DEFINED_HEIGHT_BEGIN
1070
    46
1040
3.943047300605198
1000
ACAD_MTEXT_DEFINED_HEIGHT_END
  0
INSERT
  5
4BB87
330
1F
100
AcDbEntity
  8
Dim
100
AcDbBlockReference
  2
A4图框-NEW
 10
2477.447796032651
 20
411.8381355052009
 30
0.0
 41
0.5
 42
0.5
 43
0.5
  0
ARC
  5
8291C
330
1F
100
AcDbEntity
  8
0
100
AcDbCircle
 10
2954.161888079496
 20
728.2076122991037
 30
0.0
 40
2.5
100
AcDbArc
 50
0.0
 51
180.0
  0
ARC
  5
8291D
330
1F
100
AcDbEntity
  8
0
100
AcDbCircle
 10
2949.661889079497
 20
728.2076122991037
 30
0.0
 40
2.0
100
AcDbArc
 50
270.0
 51
0.0
  0
LINE
  5
8291E
330
1F
100
AcDbEntity
  8
0
100
AcDbLine
 10
2942.061889079498
 20
727.2076122991038
 30
0.0
 11
2942.061889079498
 21
726.2076122991039
 31
0.0
  0
ARC
  5
8291F
330
1F
100
AcDbEntity
  8
0
100
AcDbCircle
 10
2949.661889079497
 20
728.2076122991037
 30
0.0
 40
1.0
100
AcDbArc
 50
270.0
 51
0.0
  0
ARC
  5
82920
330
1F
100
AcDbEntity
  8
0
100
AcDbCircle
 10
2954.161888079496
 20
728.2076122991037
 30
0.0
 40
3.5
100
AcDbArc
 50
0.0
 51
180.0
  0
ARC
  5
82921
330
1F
100
AcDbEntity
  8
0
100
AcDbCircle
 10
2958.661888079496
 20
728.2076122991037
 30
0.0
 40
1.0
100
AcDbArc
 50
180.0
 51
270.0
  0
LINE
  5
82922
330
1F
100
AcDbEntity
  8
0
100
AcDbLine
 10
2966.261888079499
 20
726.2076122991039
 30
0.0
 11
2966.261888079499
 21
727.2076122991038
 31
0.0
  0
ARC
  5
82923
330
1F
100
AcDbEntity
  8
0
100
AcDbCircle
 10
2958.661888079496
 20
728.2076122991037
 30
0.0
 40
2.0
100
AcDbArc
 50
180.0
 51
270.0
  0
LINE
  5
82924
330
1F
100
AcDbEntity
  8
0
100
AcDbLine
 10
2958.661888079496
 20
726.2076122991039
 30
0.0
 11
2966.261888079499
 21
726.2076122991039
 31
0.0
  0
LINE
  5
82925
330
1F
100
AcDbEntity
  8
0
100
AcDbLine
 10
2966.261888079499
 20
727.2076122991038
 30
0.0
 11
2958.661888079496
 21
727.2076122991038
 31
0.0
  0
LINE
  5
82926
330
1F
100
AcDbEntity
  8
0
100
AcDbLine
 10
2949.661889079497
 20
727.2076122991038
 30
0.0
 11
2942.061889079498
 21
727.2076122991038
 31
0.0
  0
LINE
  5
82927
330
1F
100
AcDbEntity
  8
0
100
AcDbLine
 10
2942.061889079498
 20
726.2076122991039
 30
0.0
 11
2949.661889079497
 21
726.2076122991039
 31
0.0
  0
LINE
  5
82928
330
1F
100
AcDbEntity
  8
0
100
AcDbLine
 10
2942.061889079498
 20
703.1054902991037
 30
0.0
 11
2942.061889079498
 21
697.1054902991037
 31
0.0
  0
LINE
  5
82929
330
1F
100
AcDbEntity
  8
0
100
AcDbLine
 10
2966.261888079499
 20
703.1054902991037
 30
0.0
 11
2966.261888079499
 21
697.1054902991037
 31
0.0
  0
LINE
  5
8292A
330
1F
100
AcDbEntity
  8
0
100
AcDbLine
 10
2966.261888079499
 20
697.1054902991037
 30
0.0
 11
2958.661888079496
 21
697.1054902991037
 31
0.0
  0
LINE
  5
8292B
330
1F
100
AcDbEntity
  8
0
100
AcDbLine
 10
2958.661888079496
 20
697.1054902991037
 30
0.0
 11
2957.661888079496
 21
697.1054902991037
 31
0.0
  0
LINE
  5
8292C
330
1F
100
AcDbEntity
  8
0
100
AcDbLine
 10
2957.661888079496
 20
697.1054902991037
 30
0.0
 11
2950.661889079496
 21
697.1054902991037
 31
0.0
  0
LINE
  5
8292D
330
1F
100
AcDbEntity
  8
0
100
AcDbLine
 10
2950.661889079496
 20
697.1054902991037
 30
0.0
 11
2949.661889079497
 21
697.1054902991037
 31
0.0
  0
LINE
  5
8292E
330
1F
100
AcDbEntity
  8
0
100
AcDbLine
 10
2949.661889079497
 20
697.1054902991037
 30
0.0
 11
2942.061889079498
 21
697.1054902991037
 31
0.0
  0
LINE
  5
8292F
330
1F
100
AcDbEntity
  8
0
100
AcDbLine
 10
2942.061889079498
 20
703.1054902991037
 30
0.0
 11
2949.661889079497
 21
703.1054902991037
 31
0.0
  0
LINE
  5
82930
330
1F
100
AcDbEntity
  8
0
100
AcDbLine
 10
2949.661889079497
 20
703.1054902991037
 30
0.0
 11
2950.661889079496
 21
703.1054902991037
 31
0.0
  0
LINE
  5
82931
330
1F
100
AcDbEntity
  8
0
100
AcDbLine
 10
2950.661889079496
 20
703.1054902991037
 30
0.0
 11
2957.661888079496
 21
703.1054902991037
 31
0.0
  0
LINE
  5
82932
330
1F
100
AcDbEntity
  8
0
100
AcDbLine
 10
2957.661888079496
 20
703.1054902991037
 30
0.0
 11
2958.661888079496
 21
703.1054902991037
 31
0.0
  0
LINE
  5
82933
330
1F
100
AcDbEntity
  8
0
100
AcDbLine
 10
2958.661888079496
 20
703.1054902991037
 30
0.0
 11
2966.261888079499
 21
703.1054902991037
 31
0.0
  0
LINE
  5
82934
330
1F
100
AcDbEntity
  8
0
100
AcDbLine
 10
2947.361889079497
 20
698.5054902991037
 30
0.0
 11
2944.961889079497
 21
698.5054902991037
 31
0.0
  0
ARC
  5
82935
330
1F
100
AcDbEntity
  8
0
100
AcDbCircle
 10
2946.161889079496
 20
700.105490299104
 30
0.0
 40
2.0
100
AcDbArc
 50
306.8698999999528
 51
53.13010000004718
  0
LINE
  5
82936
330
1F
100
AcDbEntity
  8
0
100
AcDbLine
 10
2944.961889079497
 20
701.705490299104
 30
0.0
 11
2947.361889079497
 21
701.705490299104
 31
0.0
  0
ARC
  5
82937
330
1F
100
AcDbEntity
  8
0
100
AcDbCircle
 10
2946.161889079496
 20
700.105490299104
 30
0.0
 40
2.0
100
AcDbArc
 50
126.8698999999527
 51
233.1301000000471
  0
LINE
  5
82938
330
1F
100
AcDbEntity
  8
0
100
AcDbLine
 10
2963.361888079497
 20
698.5054902991037
 30
0.0
 11
2960.961888079497
 21
698.5054902991037
 31
0.0
  0
ARC
  5
82939
330
1F
100
AcDbEntity
  8
0
100
AcDbCircle
 10
2962.161888079496
 20
700.105490299104
 30
0.0
 40
2.0
100
AcDbArc
 50
126.8698999999527
 51
233.1301000000471
  0
LINE
  5
8293A
330
1F
100
AcDbEntity
  8
0
100
AcDbLine
 10
2960.961888079497
 20
701.705490299104
 30
0.0
 11
2963.361888079497
 21
701.705490299104
 31
0.0
  0
ARC
  5
8293B
330
1F
100
AcDbEntity
  8
0
100
AcDbCircle
 10
2962.161888079496
 20
700.105490299104
 30
0.0
 40
2.0
100
AcDbArc
 50
306.8698999999528
 51
53.13010000004718
  0
LINE
  5
8293C
330
1F
100
AcDbEntity
  8
0
100
AcDbLine
 10
2950.661889079496
 20
703.1054902991037
 30
0.0
 11
2950.661889079496
 21
697.1054902991037
 31
0.0
  0
LINE
  5
8293D
330
1F
100
AcDbEntity
  8
0
100
AcDbLine
 10
2957.661888079496
 20
703.1054902991037
 30
0.0
 11
2957.661888079496
 21
697.1054902991037
 31
0.0
  0
POLYLINE
  5
8293E
330
1F
100
AcDbEntity
  8
0
100
AcDb2dPolyline
 66
     1
 10
0.0
 20
0.0
 30
0.0
 70
     2
  0
VERTEX
  5
8293F
330
8293E
100
AcDbEntity
  8
0
100
AcDbVertex
100
AcDb2dVertex
 10
2910.286188906372
 20
667.0582819025201
 30
0.0
  0
VERTEX
  5
82940
330
8293E
100
AcDbEntity
  8
0
100
AcDbVertex
100
AcDb2dVertex
 10
2910.303988906372
 20
667.34856690252
 30
0.0
 42
-0.038461762
 70
     1
  0
VERTEX
  5
82941
330
8293E
100
AcDbEntity
  8
0
100
AcDbVertex
100
AcDb2dVertex
 10
2910.364213906373
 20
667.61297690252
 30
0.0
 42
-0.043597288
  0
VERTEX
  5
82942
330
8293E
100
AcDbEntity
  8
0
100
AcDbVertex
100
AcDb2dVertex
 10
2910.468673906372
 20
667.85239190252
 30
0.0
 42
-0.048825073
 70
     1
  0
VERTEX
  5
82943
330
8293E
100
AcDbEntity
  8
0
100
AcDbVertex
100
AcDb2dVertex
 10
2910.615303906374
 20
668.0544519025199
 30
0.0
 42
-0.062141432
  0
VERTEX
  5
82944
330
8293E
100
AcDbEntity
  8
0
100
AcDbVertex
100
AcDb2dVertex
 10
2910.804208906372
 20
668.2022369025201
 30
0.0
 42
-0.071362627
 70
     1
  0
VERTEX
  5
82945
330
8293E
100
AcDbEntity
  8
0
100
AcDbVertex
100
AcDb2dVertex
 10
2911.026693906372
 20
668.29196690252
 30
0.0
 42
-0.070624606
  0
VERTEX
  5
82946
330
8293E
100
AcDbEntity
  8
0
100
AcDbVertex
100
AcDb2dVertex
 10
2911.274733906374
 20
668.31858190252
 30
0.0
 42
-0.062226931
 70
     1
  0
VERTEX
  5
82947
330
8293E
100
AcDbEntity
  8
0
100
AcDbVertex
100
AcDb2dVertex
 10
2911.534563906372
 20
668.28867690252
 30
0.0
 42
-0.051157484
  0
VERTEX
  5
82948
330
8293E
100
AcDbEntity
  8
0
100
AcDbVertex
100
AcDb2dVertex
 10
2911.794803906373
 20
668.2058869025198
 30
0.0
 42
-0.042746773
 70
     1
  0
VERTEX
  5
82949
330
8293E
100
AcDbEntity
  8
0
100
AcDbVertex
100
AcDb2dVertex
 10
2912.053958906371
 20
668.0789019025199
 30
0.0
 42
-0.032360404
  0
VERTEX
  5
8294A
330
8293E
100
AcDbEntity
  8
0
100
AcDbVertex
100
AcDb2dVertex
 10
2912.312883906373
 20
667.9096469025202
 30
0.0
 42
-0.030019178
 70
     1
  0
VERTEX
  5
8294B
330
8293E
100
AcDbEntity
  8
0
100
AcDbVertex
100
AcDb2dVertex
 10
2912.573348906372
 20
667.68893690252
 30
0.0
 42
-0.032212083
  0
VERTEX
  5
8294C
330
8293E
100
AcDbEntity
  8
0
100
AcDbVertex
100
AcDb2dVertex
 10
2912.834328906372
 20
667.40895190252
 30
0.0
 42
-0.022955946
 70
     1
  0
VERTEX
  5
8294D
330
8293E
100
AcDbEntity
  8
0
100
AcDbVertex
100
AcDb2dVertex
 10
2913.081223906372
 20
667.1057869025201
 30
0.0
 42
-0.012088588
  0
VERTEX
  5
8294E
330
8293E
100
AcDbEntity
  8
0
100
AcDbVertex
100
AcDb2dVertex
 10
2913.299093906372
 20
666.7975619025201
 30
0.0
 42
-0.029098592
 70
     1
  0
VERTEX
  5
8294F
330
8293E
100
AcDbEntity
  8
0
100
AcDbVertex
100
AcDb2dVertex
 10
2913.492613906373
 20
666.39323690252
 30
0.0
 42
-0.049175306
  0
VERTEX
  5
82950
330
8293E
100
AcDbEntity
  8
0
100
AcDbVertex
100
AcDb2dVertex
 10
2913.666838906372
 20
665.7927969025202
 30
0.0
 42
-0.029229044
 70
     1
  0
VERTEX
  5
82951
330
8293E
100
AcDbEntity
  8
0
100
AcDbVertex
100
AcDb2dVertex
 10
2913.821723906372
 20
665.0170419025202
 30
0.0
 42
-0.016321096
  0
SEQEND
  5
82952
330
8293E
100
AcDbEntity
  8
0
  0
LINE
  5
82953
330
1F
100
AcDbEntity
  8
0
100
AcDbLine
 10
2909.871973906372
 20
666.1427269025199
 30
0.0
 11
2912.564433906372
 21
667.69721690252
 31
0.0
  0
POLYLINE
  5
82954
330
1F
100
AcDbEntity
  8
0
100
AcDb2dPolyline
 66
     1
 10
0.0
 20
0.0
 30
0.0
 70
     2
  0
VERTEX
  5
82955
330
82954
100
AcDbEntity
  8
0
100
AcDbVertex
100
AcDb2dVertex
 10
2908.871973906372
 20
666.2417819025201
 30
0.0
  0
VERTEX
  5
82956
330
82954
100
AcDbEntity
  8
0
100
AcDbVertex
100
AcDb2dVertex
 10
2909.044053906372
 20
666.1540219025201
 30
0.0
 42
0.031906384
 70
     1
  0
VERTEX
  5
82957
330
82954
100
AcDbEntity
  8
0
100
AcDbVertex
100
AcDb2dVertex
 10
2909.217118906371
 20
666.0918919025199
 30
0.0
 42
0.032147072
  0
VERTEX
  5
82958
330
82954
100
AcDbEntity
  8
0
100
AcDbVertex
100
AcDb2dVertex
 10
2909.391913906372
 20
666.0553269025199
 30
0.0
 42
0.037817896
 70
     1
  0
VERTEX
  5
82959
330
82954
100
AcDbEntity
  8
0
100
AcDbVertex
100
AcDb2dVertex
 10
2909.563583906372
 20
666.05108190252
 30
0.0
 42
0.055154025
  0
VERTEX
  5
8295A
330
82954
100
AcDbEntity
  8
0
100
AcDbVertex
100
AcDb2dVertex
 10
2909.725658906372
 20
666.0858969025199
 30
0.0
 42
0.052786834
 70
     1
  0
VERTEX
  5
8295B
330
82954
100
AcDbEntity
  8
0
100
AcDbVertex
100
AcDb2dVertex
 10
2909.871978906372
 20
666.1427269025199
 30
0.0
 42
0.028478982
  0
VERTEX
  5
8295C
330
82954
100
AcDbEntity
  8
0
100
AcDbVertex
100
AcDb2dVertex
 10
2909.996963906372
 20
666.2162469025202
 30
0.0
 42
0.071602713
 70
     1
  0
VERTEX
  5
8295D
330
82954
100
AcDbEntity
  8
0
100
AcDbVertex
100
AcDb2dVertex
 10
2910.105538906373
 20
666.3639769025201
 30
0.0
 42
0.10842772
  0
VERTEX
  5
8295E
330
82954
100
AcDbEntity
  8
0
100
AcDbVertex
100
AcDb2dVertex
 10
2910.202013906374
 20
666.6491969025201
 30
0.0
 42
0.046236721
 70
     1
  0
VERTEX
  5
8295F
330
82954
100
AcDbEntity
  8
0
100
AcDbVertex
100
AcDb2dVertex
 10
2910.286188906372
 20
667.0582819025201
 30
0.0
 42
0.02171133
  0
SEQEND
  5
82960
330
82954
100
AcDbEntity
  8
0
  0
LINE
  5
82961
330
1F
100
AcDbEntity
  8
0
100
AcDbLine
 10
2903.497963906372
 20
670.16096690252
 30
0.0
 11
2903.497963906372
 21
669.3444719025201
 31
0.0
  0
LINE
  5
82962
330
1F
100
AcDbEntity
  8
0
100
AcDbLine
 10
2907.740603906374
 20
672.6104569025201
 30
0.0
 11
2903.497963906372
 21
670.16096690252
 31
0.0
  0
POLYLINE
  5
82963
330
1F
100
AcDbEntity
  8
0
100
AcDb2dPolyline
 66
     1
 10
0.0
 20
0.0
 30
0.0
 70
     2
  0
VERTEX
  5
82964
330
82963
100
AcDbEntity
  8
0
100
AcDbVertex
100
AcDb2dVertex
 10
2909.579083906371
 20
667.4665319025199
 30
0.0
  0
VERTEX
  5
82965
330
82963
100
AcDbEntity
  8
0
100
AcDbVertex
100
AcDb2dVertex
 10
2909.574068906374
 20
667.3700769025201
 30
0.0
 42
-0.031906373
 70
     1
  0
VERTEX
  5
82966
330
82963
100
AcDbEntity
  8
0
100
AcDbVertex
100
AcDb2dVertex
 10
2909.557703906374
 20
667.2796069025199
 30
0.0
 42
-0.032147061
  0
VERTEX
  5
82967
330
82963
100
AcDbEntity
  8
0
100
AcDbVertex
100
AcDb2dVertex
 10
2909.529833906371
 20
667.1947769025202
 30
0.0
 42
-0.037817886
 70
     1
  0
VERTEX
  5
82968
330
82963
100
AcDbEntity
  8
0
100
AcDbVertex
100
AcDb2dVertex
 10
2909.488758906372
 20
667.1193769025201
 30
0.0
 42
-0.055154016
  0
VERTEX
  5
82969
330
82963
100
AcDbEntity
  8
0
100
AcDbVertex
100
AcDb2dVertex
 10
2909.433163906372
 20
667.05790190252
 30
0.0
 42
-0.052786833
 70
     1
  0
VERTEX
  5
8296A
330
82963
100
AcDbEntity
  8
0
100
AcDbVertex
100
AcDb2dVertex
 10
2909.371973906373
 20
667.0087519025201
 30
0.0
 42
-0.028478985
  0
VERTEX
  5
8296B
330
82963
100
AcDbEntity
  8
0
100
AcDbVertex
100
AcDb2dVertex
 10
2909.308893906372
 20
666.9730119025199
 30
0.0
 42
-0.071602727
 70
     1
  0
VERTEX
  5
8296C
330
82963
100
AcDbEntity
  8
0
100
AcDbVertex
100
AcDb2dVertex
 10
2909.217778906374
 20
666.96293190252
 30
0.0
 42
-0.10842775
  0
VERTEX
  5
8296D
330
82963
100
AcDbEntity
  8
0
100
AcDbVertex
100
AcDb2dVertex
 10
2909.070158906374
 20
666.9924619025199
 30
0.0
 42
-0.046236735
 70
     1
  0
VERTEX
  5
8296E
330
82963
100
AcDbEntity
  8
0
100
AcDbVertex
100
AcDb2dVertex
 10
2908.871973906372
 20
667.0582819025201
 30
0.0
 42
-0.021711336
  0
SEQEND
  5
8296F
330
82963
100
AcDbEntity
  8
0
  0
POLYLINE
  5
82970
330
1F
100
AcDbEntity
  8
0
100
AcDb2dPolyline
 66
     1
 10
0.0
 20
0.0
 30
0.0
 70
     2
  0
VERTEX
  5
82971
330
82970
100
AcDbEntity
  8
0
100
AcDbVertex
100
AcDb2dVertex
 10
2914.546598906372
 20
671.5182419025198
 30
0.0
  0
VERTEX
  5
82972
330
82970
100
AcDbEntity
  8
0
100
AcDbVertex
100
AcDb2dVertex
 10
2914.779543906371
 20
671.61923190252
 30
0.0
 42
-0.048112675
 70
     1
  0
VERTEX
  5
82973
330
82970
100
AcDbEntity
  8
0
100
AcDbVertex
100
AcDb2dVertex
 10
2915.028133906373
 20
671.6733419025199
 30
0.0
 42
-0.049915795
  0
VERTEX
  5
82974
330
82970
100
AcDbEntity
  8
0
100
AcDbVertex
100
AcDb2dVertex
 10
2915.294073906372
 20
671.67820690252
 30
0.0
 42
-0.044475379
 70
     1
  0
VERTEX
  5
82975
330
82970
100
AcDbEntity
  8
0
100
AcDbVertex
100
AcDb2dVertex
 10
2915.569448906374
 20
671.6385769025199
 30
0.0
 42
-0.037929693
  0
VERTEX
  5
82976
330
82970
100
AcDbEntity
  8
0
100
AcDbVertex
100
AcDb2dVertex
 10
2915.846058906372
 20
671.5566519025201
 30
0.0
 42
-0.032497323
 70
     1
  0
VERTEX
  5
82977
330
82970
100
AcDbEntity
  8
0
100
AcDbVertex
100
AcDb2dVertex
 10
2916.119223906372
 20
671.43994690252
 30
0.0
 42
-0.026578917
  0
VERTEX
  5
82978
330
82970
100
AcDbEntity
  8
0
100
AcDbVertex
100
AcDb2dVertex
 10
2916.386728906372
 20
671.2914469025199
 30
0.0
 42
-0.024375056
 70
     1
  0
VERTEX
  5
82979
330
82970
100
AcDbEntity
  8
0
100
AcDbVertex
100
AcDb2dVertex
 10
2916.655253906371
 20
671.1076519025199
 30
0.0
 42
-0.022652572
  0
VERTEX
  5
8297A
330
82970
100
AcDbEntity
  8
0
100
AcDbVertex
100
AcDb2dVertex
 10
2916.930868906372
 20
670.88181690252
 30
0.0
 42
-0.01959054
 70
     1
  0
VERTEX
  5
8297B
330
82970
100
AcDbEntity
  8
0
100
AcDbVertex
100
AcDb2dVertex
 10
2917.207583906372
 20
670.61828190252
 30
0.0
 42
-0.018515273
  0
VERTEX
  5
8297C
330
82970
100
AcDbEntity
  8
0
100
AcDbVertex
100
AcDb2dVertex
 10
2917.477368906372
 20
670.3187919025199
 30
0.0
 42
-0.019223551
 70
     1
  0
VERTEX
  5
8297D
330
82970
100
AcDbEntity
  8
0
100
AcDbVertex
100
AcDb2dVertex
 10
2917.734768906373
 20
669.98252190252
 30
0.0
 42
-0.021295898
  0
VERTEX
  5
8297E
330
82970
100
AcDbEntity
  8
0
100
AcDbVertex
100
AcDb2dVertex
 10
2917.973228906372
 20
669.6116919025199
 30
0.0
 42
-0.016804283
 70
     1
  0
VERTEX
  5
8297F
330
82970
100
AcDbEntity
  8
0
100
AcDbVertex
100
AcDb2dVertex
 10
2918.185328906372
 20
669.24337690252
 30
0.0
 42
-0.0085341504
  0
VERTEX
  5
82980
330
82970
100
AcDbEntity
  8
0
100
AcDbVertex
100
AcDb2dVertex
 10
2918.363893906372
 20
668.89534190252
 30
0.0
 42
-0.021728583
 70
     1
  0
VERTEX
  5
82981
330
82970
100
AcDbEntity
  8
0
100
AcDbVertex
100
AcDb2dVertex
 10
2918.517488906372
 20
668.46594690252
 30
0.0
 42
-0.038327422
  0
VERTEX
  5
82982
330
82970
100
AcDbEntity
  8
0
100
AcDbVertex
100
AcDb2dVertex
 10
2918.653493906373
 20
667.84631190252
 30
0.0
 42
-0.022759349
 70
     1
  0
VERTEX
  5
82983
330
82970
100
AcDbEntity
  8
0
100
AcDbVertex
100
AcDb2dVertex
 10
2918.771468906371
 20
667.0582819025201
 30
0.0
 42
-0.013188883
  0
SEQEND
  5
82984
330
82970
100
AcDbEntity
  8
0
  0
LINE
  5
82985
330
1F
100
AcDbEntity
  8
0
100
AcDbLine
 10
2914.546598906372
 20
671.5182419025198
 30
0.0
 11
2910.303958906371
 21
669.0687469025199
 31
0.0
  0
POLYLINE
  5
82986
330
1F
100
AcDbEntity
  8
0
100
AcDb2dPolyline
 66
     1
 10
0.0
 20
0.0
 30
0.0
 70
     2
  0
VERTEX
  5
82987
330
82986
100
AcDbEntity
  8
0
100
AcDbVertex
100
AcDb2dVertex
 10
2914.528833906371
 20
664.6087919025201
 30
0.0
  0
VERTEX
  5
82988
330
82986
100
AcDbEntity
  8
0
100
AcDbVertex
100
AcDb2dVertex
 10
2914.503913906371
 20
665.0439619025201
 30
0.0
 42
0.033554461
 70
     1
  0
VERTEX
  5
82989
330
82986
100
AcDbEntity
  8
0
100
AcDbVertex
100
AcDb2dVertex
 10
2914.419598906371
 20
665.5114969025198
 30
0.0
 42
0.027855457
  0
VERTEX
  5
8298A
330
82986
100
AcDbEntity
  8
0
100
AcDbVertex
100
AcDb2dVertex
 10
2914.273353906371
 20
666.0155419025199
 30
0.0
 42
0.023713604
 70
     1
  0
VERTEX
  5
8298B
330
82986
100
AcDbEntity
  8
0
100
AcDbVertex
100
AcDb2dVertex
 10
2914.068073906373
 20
666.5354669025199
 30
0.0
 42
0.024294751
  0
VERTEX
  5
8298C
330
82986
100
AcDbEntity
  8
0
100
AcDbVertex
100
AcDb2dVertex
 10
2913.803603906371
 20
667.0477519025199
 30
0.0
 42
0.024207907
 70
     1
  0
VERTEX
  5
8298D
330
82986
100
AcDbEntity
  8
0
100
AcDbVertex
100
AcDb2dVertex
 10
2913.492128906372
 20
667.5330369025199
 30
0.0
 42
0.023957355
  0
VERTEX
  5
8298E
330
82986
100
AcDbEntity
  8
0
100
AcDbVertex
100
AcDb2dVertex
 10
2913.144868906373
 20
667.97127190252
 30
0.0
 42
0.02427688
 70
     1
  0
VERTEX
  5
8298F
330
82986
100
AcDbEntity
  8
0
100
AcDbVertex
100
AcDb2dVertex
 10
2912.781103906372
 20
668.3494469025199
 30
0.0
 42
0.024919675
  0
VERTEX
  5
82990
330
82986
100
AcDbEntity
  8
0
100
AcDbVertex
100
AcDb2dVertex
 10
2912.416768906372
 20
668.6542419025202
 30
0.0
 42
0.027705309
 70
     1
  0
VERTEX
  5
82991
330
82986
100
AcDbEntity
  8
0
100
AcDbVertex
100
AcDb2dVertex
 10
2912.053958906371
 20
668.89539690252
 30
0.0
 42
0.027836929
  0
VERTEX
  5
82992
330
82986
100
AcDbEntity
  8
0
100
AcDbVertex
100
AcDb2dVertex
 10
2911.691453906372
 20
669.0770219025202
 30
0.0
 42
0.034244121
 70
     1
  0
VERTEX
  5
82993
330
82986
100
AcDbEntity
  8
0
100
AcDbVertex
100
AcDb2dVertex
 10
2911.326808906372
 20
669.1890869025201
 30
0.0
 42
0.050530155
  0
VERTEX
  5
82994
330
82986
100
AcDbEntity
  8
0
100
AcDbVertex
100
AcDb2dVertex
 10
2910.961433906371
 20
669.2190019025201
 30
0.0
 42
0.049032303
 70
     1
  0
VERTEX
  5
82995
330
82986
100
AcDbEntity
  8
0
100
AcDbVertex
100
AcDb2dVertex
 10
2910.615788906372
 20
669.19369190252
 30
0.0
 42
0.030166168
  0
VERTEX
  5
82996
330
82986
100
AcDbEntity
  8
0
100
AcDbVertex
100
AcDb2dVertex
 10
2910.310763906372
 20
669.1143869025197
 30
0.0
 42
0.081811247
 70
     1
  0
VERTEX
  5
82997
330
82986
100
AcDbEntity
  8
0
100
AcDbVertex
100
AcDb2dVertex
 10
2910.039838906371
 20
668.86116690252
 30
0.0
 42
0.14152953
  0
VERTEX
  5
82998
330
82986
100
AcDbEntity
  8
0
100
AcDbVertex
100
AcDb2dVertex
 10
2909.795923906372
 20
668.30220690252
 30
0.0
 42
0.060621681
 70
     1
  0
VERTEX
  5
82999
330
82986
100
AcDbEntity
  8
0
100
AcDbVertex
100
AcDb2dVertex
 10
2909.579083906371
 20
667.4665319025199
 30
0.0
 42
0.02692582
  0
SEQEND
  5
8299A
330
82986
100
AcDbEntity
  8
0
  0
POLYLINE
  5
8299B
330
1F
100
AcDbEntity
  8
0
100
AcDb2dPolyline
 66
     1
 10
0.0
 20
0.0
 30
0.0
 70
     2
  0
VERTEX
  5
8299C
330
8299B
100
AcDbEntity
  8
0
100
AcDbVertex
100
AcDb2dVertex
 10
2918.771468906371
 20
667.0582819025201
 30
0.0
  0
VERTEX
  5
8299D
330
8299B
100
AcDbEntity
  8
0
100
AcDbVertex
100
AcDb2dVertex
 10
2918.776488906372
 20
666.9560369025199
 30
0.0
 42
0.028403851
 70
     1
  0
VERTEX
  5
8299E
330
8299B
100
AcDbEntity
  8
0
100
AcDbVertex
100
AcDb2dVertex
 10
2918.792853906372
 20
666.84666690252
 30
0.0
 42
0.022228022
  0
VERTEX
  5
8299F
330
8299B
100
AcDbEntity
  8
0
100
AcDbVertex
100
AcDb2dVertex
 10
2918.820718906371
 20
666.7296619025201
 30
0.0
 42
0.020848032
 70
     1
  0
VERTEX
  5
829A0
330
8299B
100
AcDbEntity
  8
0
100
AcDbVertex
100
AcDb2dVertex
 10
2918.861793906371
 20
666.6068319025201
 30
0.0
 42
0.02424424
  0
VERTEX
  5
829A1
330
8299B
100
AcDbEntity
  8
0
100
AcDbVertex
100
AcDb2dVertex
 10
2918.917388906372
 20
666.4811619025202
 30
0.0
 42
0.019203752
 70
     1
  0
VERTEX
  5
829A2
330
8299B
100
AcDbEntity
  8
0
100
AcDbVertex
100
AcDb2dVertex
 10
2918.978578906374
 20
666.3613569025201
 30
0.0
 42
0.0096919818
  0
VERTEX
  5
829A3
330
8299B
100
AcDbEntity
  8
0
100
AcDbVertex
100
AcDb2dVertex
 10
2919.041658906373
 20
666.2527769025199
 30
0.0
 42
0.023868968
 70
     1
  0
VERTEX
  5
829A4
330
8299B
100
AcDbEntity
  8
0
100
AcDbVertex
100
AcDb2dVertex
 10
2919.132773906373
 20
666.1374869025201
 30
0.0
 42
0.041875002
  0
VERTEX
  5
829A5
330
8299B
100
AcDbEntity
  8
0
100
AcDbVertex
100
AcDb2dVertex
 10
2919.280393906372
 20
665.9965619025199
 30
0.0
 42
0.025010779
 70
     1
  0
VERTEX
  5
829A6
330
8299B
100
AcDbEntity
  8
0
100
AcDbVertex
100
AcDb2dVertex
 10
2919.478578906374
 20
665.8335369025201
 30
0.0
 42
0.01434744
  0
SEQEND
  5
829A7
330
8299B
100
AcDbEntity
  8
0
  0
POLYLINE
  5
829A8
330
1F
100
AcDbEntity
  8
0
100
AcDb2dPolyline
 66
     1
 10
0.0
 20
0.0
 30
0.0
 70
     2
  0
VERTEX
  5
829A9
330
829A8
100
AcDbEntity
  8
0
100
AcDbVertex
100
AcDb2dVertex
 10
2915.235938906372
 20
663.38404690252
 30
0.0
  0
VERTEX
  5
829AA
330
829A8
100
AcDbEntity
  8
0
100
AcDbVertex
100
AcDb2dVertex
 10
2915.149898906372
 20
663.4395119025199
 30
0.0
 42
-0.028403881
 70
     1
  0
VERTEX
  5
829AB
330
829A8
100
AcDbEntity
  8
0
100
AcDbVertex
100
AcDb2dVertex
 10
2915.063368906372
 20
663.50836690252
 30
0.0
 42
-0.02222806
  0
VERTEX
  5
829AC
330
829A8
100
AcDbEntity
  8
0
100
AcDbVertex
100
AcDb2dVertex
 10
2914.975968906374
 20
663.5910069025201
 30
0.0
 42
-0.020848077
 70
     1
  0
VERTEX
  5
829AD
330
829A8
100
AcDbEntity
  8
0
100
AcDbVertex
100
AcDb2dVertex
 10
2914.890133906371
 20
663.6879969025201
 30
0.0
 42
-0.024244302
  0
VERTEX
  5
829AE
330
829A8
100
AcDbEntity
  8
0
100
AcDbVertex
100
AcDb2dVertex
 10
2914.809098906372
 20
663.7989769025199
 30
0.0
 42
-0.019203808
 70
     1
  0
VERTEX
  5
829AF
330
829A8
100
AcDbEntity
  8
0
100
AcDbVertex
100
AcDb2dVertex
 10
2914.735938906372
 20
663.9118669025199
 30
0.0
 42
-0.009692012
  0
VERTEX
  5
829B0
330
829A8
100
AcDbEntity
  8
0
100
AcDbVertex
100
AcDb2dVertex
 10
2914.673443906372
 20
664.0207919025201
 30
0.0
 42
-0.023869045
 70
     1
  0
VERTEX
  5
829B1
330
829A8
100
AcDbEntity
  8
0
100
AcDbVertex
100
AcDb2dVertex
 10
2914.619158906372
 20
664.1573419025201
 30
0.0
 42
-0.041875144
  0
VERTEX
  5
829B2
330
829A8
100
AcDbEntity
  8
0
100
AcDbVertex
100
AcDb2dVertex
 10
2914.570923906372
 20
664.35564690252
 30
0.0
 42
-0.025010861
 70
     1
  0
VERTEX
  5
829B3
330
829A8
100
AcDbEntity
  8
0
100
AcDbVertex
100
AcDb2dVertex
 10
2914.528833906371
 20
664.6087919025201
 30
0.0
 42
-0.014347485
  0
SEQEND
  5
829B4
330
829A8
100
AcDbEntity
  8
0
  0
LINE
  5
829B5
330
1F
100
AcDbEntity
  8
0
100
AcDbLine
 10
2924.852588906374
 20
662.7308469025201
 30
0.0
 11
2924.852588906374
 21
661.91435190252
 31
0.0
  0
LINE
  5
829B6
330
1F
100
AcDbEntity
  8
0
100
AcDbLine
 10
2924.852588906374
 20
662.7308469025201
 30
0.0
 11
2920.609948906372
 21
660.2813619025202
 31
0.0
  0
LINE
  5
829B7
330
1F
100
AcDbEntity
  8
0
100
AcDbLine
 10
2920.609948906372
 20
659.4648619025199
 30
0.0
 11
2920.609948906372
 21
660.2813619025202
 31
0.0
  0
LINE
  5
829B8
330
1F
100
AcDbEntity
  8
0
100
AcDbLine
 10
2924.852588906374
 20
661.91435190252
 30
0.0
 11
2920.609948906372
 21
659.4648619025199
 31
0.0
  0
POLYLINE
  5
829B9
330
1F
100
AcDbEntity
  8
0
100
AcDb2dPolyline
 66
     1
 10
0.0
 20
0.0
 30
0.0
 70
     2
  0
VERTEX
  5
829BA
330
829B9
100
AcDbEntity
  8
0
100
AcDbVertex
100
AcDb2dVertex
 10
2915.235938906372
 20
662.56754690252
 30
0.0
  0
VERTEX
  5
829BB
330
829B9
100
AcDbEntity
  8
0
100
AcDbVertex
100
AcDb2dVertex
 10
2915.063863906373
 20
662.6784819025199
 30
0.0
 42
-0.028403869
 70
     1
  0
VERTEX
  5
829BC
330
829B9
100
AcDbEntity
  8
0
100
AcDbVertex
100
AcDb2dVertex
 10
2914.890798906371
 20
662.81619690252
 30
0.0
 42
-0.022228036
  0
VERTEX
  5
829BD
330
829B9
100
AcDbEntity
  8
0
100
AcDbVertex
100
AcDb2dVertex
 10
2914.715998906372
 20
662.9814669025202
 30
0.0
 42
-0.020848045
 70
     1
  0
VERTEX
  5
829BE
330
829B9
100
AcDbEntity
  8
0
100
AcDbVertex
100
AcDb2dVertex
 10
2914.544328906373
 20
663.1754469025199
 30
0.0
 42
-0.024244254
  0
VERTEX
  5
829BF
330
829B9
100
AcDbEntity
  8
0
100
AcDbVertex
100
AcDb2dVertex
 10
2914.382253906372
 20
663.3974119025199
 30
0.0
 42
-0.019203762
 70
     1
  0
VERTEX
  5
829C0
330
829B9
100
AcDbEntity
  8
0
100
AcDbVertex
100
AcDb2dVertex
 10
2914.235938906372
 20
663.62319190252
 30
0.0
 42
-0.0096919866
  0
VERTEX
  5
829C1
330
829B9
100
AcDbEntity
  8
0
100
AcDbVertex
100
AcDb2dVertex
 10
2914.110948906372
 20
663.84103690252
 30
0.0
 42
-0.023868979
 70
     1
  0
VERTEX
  5
829C2
330
829B9
100
AcDbEntity
  8
0
100
AcDbVertex
100
AcDb2dVertex
 10
2914.002373906372
 20
664.11414190252
 30
0.0
 42
-0.041875015
  0
VERTEX
  5
829C3
330
829B9
100
AcDbEntity
  8
0
100
AcDbVertex
100
AcDb2dVertex
 10
2913.905903906373
 20
664.51075690252
 30
0.0
 42
-0.025010783
 70
     1
  0
VERTEX
  5
829C4
330
829B9
100
AcDbEntity
  8
0
100
AcDbVertex
100
AcDb2dVertex
 10
2913.821723906372
 20
665.0170419025202
 30
0.0
 42
-0.014347441
  0
SEQEND
  5
829C5
330
829B9
100
AcDbEntity
  8
0
  0
LINE
  5
829C6
330
1F
100
AcDbEntity
  8
0
100
AcDbLine
 10
2915.235938906372
 20
662.56754690252
 30
0.0
 11
2920.609948906372
 21
659.4648619025199
 31
0.0
  0
LINE
  5
829C7
330
1F
100
AcDbEntity
  8
0
100
AcDbLine
 10
2920.609948906372
 20
660.2813619025202
 30
0.0
 11
2915.235938906372
 21
663.38404690252
 31
0.0
  0
LINE
  5
829C8
330
1F
100
AcDbEntity
  8
0
100
AcDbLine
 10
2908.871973906372
 20
667.0582819025201
 30
0.0
 11
2903.497963906372
 21
670.16096690252
 31
0.0
  0
LINE
  5
829C9
330
1F
100
AcDbEntity
  8
0
100
AcDbLine
 10
2903.497963906372
 20
669.3444719025201
 30
0.0
 11
2908.871973906372
 21
666.2417819025201
 31
0.0
  0
LINE
  5
829CA
330
1F
100
AcDbEntity
  8
0
100
AcDbLine
 10
2907.740603906374
 20
672.6104569025201
 30
0.0
 11
2912.089488906372
 21
670.0996269025202
 31
0.0
  0
LINE
  5
829CB
330
1F
100
AcDbEntity
  8
0
100
AcDbLine
 10
2919.478578906374
 20
665.8335369025201
 30
0.0
 11
2924.852588906374
 21
662.7308469025201
 31
0.0
  0
LINE
  5
829CC
330
1F
100
AcDbEntity
  8
0
100
AcDbLine
 10
2908.235578906372
 20
668.5688019025199
 30
0.0
 11
2906.538523906372
 21
669.5485969025201
 31
0.0
  0
POLYLINE
  5
829CD
330
1F
100
AcDbEntity
  8
0
100
AcDb2dPolyline
 66
     1
 10
0.0
 20
0.0
 30
0.0
 70
     2
  0
VERTEX
  5
829CE
330
829CD
100
AcDbEntity
  8
0
100
AcDbVertex
100
AcDb2dVertex
 10
2910.498318906372
 20
669.8751919025201
 30
0.0
  0
VERTEX
  5
829CF
330
829CD
100
AcDbEntity
  8
0
100
AcDbVertex
100
AcDb2dVertex
 10
2910.520118906371
 20
669.7145369025199
 30
0.0
 42
-0.071558249
 70
     1
  0
VERTEX
  5
829D0
330
829CD
100
AcDbEntity
  8
0
100
AcDbVertex
100
AcDb2dVertex
 10
2910.498318906372
 20
669.5485969025201
 30
0.0
 42
-0.061245428
  0
VERTEX
  5
829D1
330
829CD
100
AcDbEntity
  8
0
100
AcDbVertex
100
AcDb2dVertex
 10
2910.432538906372
 20
669.3761469025202
 30
0.0
 42
-0.056589017
 70
     1
  0
VERTEX
  5
829D2
330
829CD
100
AcDbEntity
  8
0
100
AcDbVertex
100
AcDb2dVertex
 10
2910.314853906372
 20
669.2043419025201
 30
0.0
 42
-0.062314358
  0
VERTEX
  5
829D3
330
829CD
100
AcDbEntity
  8
0
100
AcDbVertex
100
AcDb2dVertex
 10
2910.138053906373
 20
669.04188690252
 30
0.0
 42
-0.043582858
 70
     1
  0
VERTEX
  5
829D4
330
829CD
100
AcDbEntity
  8
0
100
AcDbVertex
100
AcDb2dVertex
 10
2909.932633906371
 20
668.89539690252
 30
0.0
 42
-0.021751134
  0
VERTEX
  5
829D5
330
829CD
100
AcDbEntity
  8
0
100
AcDbVertex
100
AcDb2dVertex
 10
2909.712533906372
 20
668.7720019025199
 30
0.0
 42
-0.041519757
 70
     1
  0
VERTEX
  5
829D6
330
829CD
100
AcDbEntity
  8
0
100
AcDbVertex
100
AcDb2dVertex
 10
2909.397528906372
 20
668.6747219025201
 30
0.0
 42
-0.054948695
  0
VERTEX
  5
829D7
330
829CD
100
AcDbEntity
  8
0
100
AcDbVertex
100
AcDb2dVertex
 10
2908.898953906372
 20
668.6075169025199
 30
0.0
 42
-0.026989508
 70
     1
  0
VERTEX
  5
829D8
330
829CD
100
AcDbEntity
  8
0
100
AcDbVertex
100
AcDb2dVertex
 10
2908.235578906372
 20
668.5688019025199
 30
0.0
 42
-0.013983892
  0
SEQEND
  5
829D9
330
829CD
100
AcDbEntity
  8
0
  0
LINE
  5
829DA
330
1F
100
AcDbEntity
  8
0
100
AcDbLine
 10
2910.498323906372
 20
669.5485969025201
 30
0.0
 11
2910.498318906372
 21
669.8751919025201
 31
0.0
  0
LINE
  5
829DB
330
1F
100
AcDbEntity
  8
0
100
AcDbLine
 10
2908.801263906372
 20
670.8549919025199
 30
0.0
 11
2910.498318906372
 21
669.8751919025201
 31
0.0
  0
LINE
  5
829DC
330
1F
100
AcDbEntity
  8
0
100
AcDbLine
 10
2908.801263906372
 20
670.03849690252
 30
0.0
 11
2908.801263906372
 21
670.8549919025199
 31
0.0
  0
LINE
  5
829DD
330
1F
100
AcDbEntity
  8
0
100
AcDbLine
 10
2910.291758906372
 20
669.17795690252
 30
0.0
 11
2908.801263906372
 21
670.03849690252
 31
0.0
  0
POLYLINE
  5
829DE
330
1F
100
AcDbEntity
  8
0
100
AcDb2dPolyline
 66
     1
 10
0.0
 20
0.0
 30
0.0
 70
     2
  0
VERTEX
  5
829DF
330
829DE
100
AcDbEntity
  8
0
100
AcDbVertex
100
AcDb2dVertex
 10
2906.538523906372
 20
669.5485969025201
 30
0.0
  0
VERTEX
  5
829E0
330
829DE
100
AcDbEntity
  8
0
100
AcDbVertex
100
AcDb2dVertex
 10
2906.516728906374
 20
669.7092569025201
 30
0.0
 42
-0.071558281
 70
     1
  0
VERTEX
  5
829E1
330
829DE
100
AcDbEntity
  8
0
100
AcDbVertex
100
AcDb2dVertex
 10
2906.538523906372
 20
669.87519690252
 30
0.0
 42
-0.061245441
  0
VERTEX
  5
829E2
330
829DE
100
AcDbEntity
  8
0
100
AcDbVertex
100
AcDb2dVertex
 10
2906.604303906371
 20
670.04764690252
 30
0.0
 42
-0.056589015
 70
     1
  0
VERTEX
  5
829E3
330
829DE
100
AcDbEntity
  8
0
100
AcDbVertex
100
AcDb2dVertex
 10
2906.721988906372
 20
670.2194469025202
 30
0.0
 42
-0.06231434
  0
VERTEX
  5
829E4
330
829DE
100
AcDbEntity
  8
0
100
AcDbVertex
100
AcDb2dVertex
 10
2906.898793906371
 20
670.3819069025199
 30
0.0
 42
-0.043582838
 70
     1
  0
VERTEX
  5
829E5
330
829DE
100
AcDbEntity
  8
0
100
AcDbVertex
100
AcDb2dVertex
 10
2907.104208906372
 20
670.5283919025199
 30
0.0
 42
-0.021751122
  0
VERTEX
  5
829E6
330
829DE
100
AcDbEntity
  8
0
100
AcDbVertex
100
AcDb2dVertex
 10
2907.324313906372
 20
670.65178690252
 30
0.0
 42
-0.041519733
 70
     1
  0
VERTEX
  5
829E7
330
829DE
100
AcDbEntity
  8
0
100
AcDbVertex
100
AcDb2dVertex
 10
2907.639318906372
 20
670.7490669025201
 30
0.0
 42
-0.054948665
  0
VERTEX
  5
829E8
330
829DE
100
AcDbEntity
  8
0
100
AcDbVertex
100
AcDb2dVertex
 10
2908.137893906372
 20
670.81627190252
 30
0.0
 42
-0.026989496
 70
     1
  0
VERTEX
  5
829E9
330
829DE
100
AcDbEntity
  8
0
100
AcDbVertex
100
AcDb2dVertex
 10
2908.801263906372
 20
670.8549919025199
 30
0.0
 42
-0.013983886
  0
SEQEND
  5
829EA
330
829DE
100
AcDbEntity
  8
0
  0
POLYLINE
  5
829EB
330
1F
100
AcDbEntity
  8
0
100
AcDb2dPolyline
 66
     1
 10
0.0
 20
0.0
 30
0.0
 70
     2
  0
VERTEX
  5
829EC
330
829EB
100
AcDbEntity
  8
0
100
AcDbVertex
100
AcDb2dVertex
 10
2908.801263906372
 20
670.03849690252
 30
0.0
  0
VERTEX
  5
829ED
330
829EB
100
AcDbEntity
  8
0
100
AcDbVertex
100
AcDb2dVertex
 10
2908.623033906372
 20
670.04871190252
 30
0.0
 42
0.015272956
 70
     1
  0
VERTEX
  5
829EE
330
829EB
100
AcDbEntity
  8
0
100
AcDbVertex
100
AcDb2dVertex
 10
2908.438808906371
 20
670.0491869025197
 30
0.0
 42
0.012515802
  0
VERTEX
  5
829EF
330
829EB
100
AcDbEntity
  8
0
100
AcDbVertex
100
AcDb2dVertex
 10
2908.248328906372
 20
670.0399919025201
 30
0.0
 42
0.013423684
 70
     1
  0
VERTEX
  5
829F0
330
829EB
100
AcDbEntity
  8
0
100
AcDbVertex
100
AcDb2dVertex
 10
2908.051983906372
 20
670.0182569025201
 30
0.0
 42
0.017962569
  0
VERTEX
  5
829F1
330
829EB
100
AcDbEntity
  8
0
100
AcDbVertex
100
AcDb2dVertex
 10
2907.852168906372
 20
669.98156190252
 30
0.0
 42
0.01461129
 70
     1
  0
VERTEX
  5
829F2
330
829EB
100
AcDbEntity
  8
0
100
AcDbVertex
100
AcDb2dVertex
 10
2907.662313906371
 20
669.93896190252
 30
0.0
 42
0.0055108869
  0
VERTEX
  5
829F3
330
829EB
100
AcDbEntity
  8
0
100
AcDbVertex
100
AcDb2dVertex
 10
2907.489473906372
 20
669.8929919025199
 30
0.0
 42
0.022122848
 70
     1
  0
VERTEX
  5
829F4
330
829EB
100
AcDbEntity
  8
0
100
AcDbVertex
100
AcDb2dVertex
 10
2907.297003906372
 20
669.80975190252
 30
0.0
 42
0.045506402
  0
VERTEX
  5
829F5
330
829EB
100
AcDbEntity
  8
0
100
AcDbVertex
100
AcDb2dVertex
 10
2907.046403906371
 20
669.65264190252
 30
0.0
 42
0.026815249
 70
     1
  0
VERTEX
  5
829F6
330
829EB
100
AcDbEntity
  8
0
100
AcDbVertex
100
AcDb2dVertex
 10
2906.745083906372
 20
669.4293369025199
 30
0.0
 42
0.014818284
  0
SEQEND
  5
829F7
330
829EB
100
AcDbEntity
  8
0
  0
LINE
  5
829F8
330
1F
100
AcDbEntity
  8
0
100
AcDbLine
 10
2919.549288906374
 20
662.03682690252
 30
0.0
 11
2917.852233906372
 21
663.0166269025201
 31
0.0
  0
POLYLINE
  5
829F9
330
1F
100
AcDbEntity
  8
0
100
AcDb2dPolyline
 66
     1
 10
0.0
 20
0.0
 30
0.0
 70
     2
  0
VERTEX
  5
829FA
330
829F9
100
AcDbEntity
  8
0
100
AcDbVertex
100
AcDb2dVertex
 10
2917.852233906372
 20
663.0166269025201
 30
0.0
  0
VERTEX
  5
829FB
330
829F9
100
AcDbEntity
  8
0
100
AcDbVertex
100
AcDb2dVertex
 10
2917.830433906372
 20
663.17728690252
 30
0.0
 42
-0.071558311
 70
     1
  0
VERTEX
  5
829FC
330
829F9
100
AcDbEntity
  8
0
100
AcDbVertex
100
AcDb2dVertex
 10
2917.852233906372
 20
663.3432219025201
 30
0.0
 42
-0.061245443
  0
VERTEX
  5
829FD
330
829F9
100
AcDbEntity
  8
0
100
AcDbVertex
100
AcDb2dVertex
 10
2917.918013906374
 20
663.5156719025201
 30
0.0
 42
-0.056588996
 70
     1
  0
VERTEX
  5
829FE
330
829F9
100
AcDbEntity
  8
0
100
AcDbVertex
100
AcDb2dVertex
 10
2918.035698906372
 20
663.6874769025199
 30
0.0
 42
-0.062314302
  0
VERTEX
  5
829FF
330
829F9
100
AcDbEntity
  8
0
100
AcDbVertex
100
AcDb2dVertex
 10
2918.212503906371
 20
663.84993190252
 30
0.0
 42
-0.043582804
 70
     1
  0
VERTEX
  5
82A00
330
829F9
100
AcDbEntity
  8
0
100
AcDbVertex
100
AcDb2dVertex
 10
2918.417918906372
 20
663.9964219025199
 30
0.0
 42
-0.021751105
  0
VERTEX
  5
82A01
330
829F9
100
AcDbEntity
  8
0
100
AcDbVertex
100
AcDb2dVertex
 10
2918.638018906372
 20
664.11981690252
 30
0.0
 42
-0.041519702
 70
     1
  0
VERTEX
  5
82A02
330
829F9
100
AcDbEntity
  8
0
100
AcDbVertex
100
AcDb2dVertex
 10
2918.953023906373
 20
664.2170969025201
 30
0.0
 42
-0.054948631
  0
VERTEX
  5
82A03
330
829F9
100
AcDbEntity
  8
0
100
AcDbVertex
100
AcDb2dVertex
 10
2919.451598906372
 20
664.28430190252
 30
0.0
 42
-0.026989484
 70
     1
  0
VERTEX
  5
82A04
330
829F9
100
AcDbEntity
  8
0
100
AcDbVertex
100
AcDb2dVertex
 10
2920.114973906372
 20
664.3230219025199
 30
0.0
 42
-0.013983882
  0
SEQEND
  5
82A05
330
829F9
100
AcDbEntity
  8
0
  0
POLYLINE
  5
82A06
330
1F
100
AcDbEntity
  8
0
100
AcDb2dPolyline
 66
     1
 10
0.0
 20
0.0
 30
0.0
 70
     2
  0
VERTEX
  5
82A07
330
82A06
100
AcDbEntity
  8
0
100
AcDbVertex
100
AcDb2dVertex
 10
2920.114973906372
 20
663.50652190252
 30
0.0
  0
VERTEX
  5
82A08
330
82A06
100
AcDbEntity
  8
0
100
AcDbVertex
100
AcDb2dVertex
 10
2919.936738906371
 20
663.5167369025199
 30
0.0
 42
0.015272958
 70
     1
  0
VERTEX
  5
82A09
330
82A06
100
AcDbEntity
  8
0
100
AcDbVertex
100
AcDb2dVertex
 10
2919.752518906372
 20
663.5172119025201
 30
0.0
 42
0.012515802
  0
VERTEX
  5
82A0A
330
82A06
100
AcDbEntity
  8
0
100
AcDbVertex
100
AcDb2dVertex
 10
2919.562038906374
 20
663.50802190252
 30
0.0
 42
0.013423683
 70
     1
  0
VERTEX
  5
82A0B
330
82A06
100
AcDbEntity
  8
0
100
AcDbVertex
100
AcDb2dVertex
 10
2919.365693906372
 20
663.4862869025202
 30
0.0
 42
0.017962566
  0
VERTEX
  5
82A0C
330
82A06
100
AcDbEntity
  8
0
100
AcDbVertex
100
AcDb2dVertex
 10
2919.165878906373
 20
663.4495919025201
 30
0.0
 42
0.014611285
 70
     1
  0
VERTEX
  5
82A0D
330
82A06
100
AcDbEntity
  8
0
100
AcDbVertex
100
AcDb2dVertex
 10
2918.976023906372
 20
663.4069919025201
 30
0.0
 42
0.0055108846
  0
VERTEX
  5
82A0E
330
82A06
100
AcDbEntity
  8
0
100
AcDbVertex
100
AcDb2dVertex
 10
2918.803178906374
 20
663.3610219025199
 30
0.0
 42
0.022122837
 70
     1
  0
VERTEX
  5
82A0F
330
82A06
100
AcDbEntity
  8
0
100
AcDbVertex
100
AcDb2dVertex
 10
2918.610713906374
 20
663.27778190252
 30
0.0
 42
0.045506367
  0
VERTEX
  5
82A10
330
82A06
100
AcDbEntity
  8
0
100
AcDbVertex
100
AcDb2dVertex
 10
2918.360113906373
 20
663.12066690252
 30
0.0
 42
0.026815224
 70
     1
  0
VERTEX
  5
82A11
330
82A06
100
AcDbEntity
  8
0
100
AcDbVertex
100
AcDb2dVertex
 10
2918.058793906371
 20
662.8973669025199
 30
0.0
 42
0.014818269
  0
SEQEND
  5
82A12
330
82A06
100
AcDbEntity
  8
0
  0
LINE
  5
82A13
330
1F
100
AcDbEntity
  8
0
100
AcDbLine
 10
2920.114973906372
 20
663.50652190252
 30
0.0
 11
2920.114973906372
 21
664.3230219025199
 31
0.0
  0
LINE
  5
82A14
330
1F
100
AcDbEntity
  8
0
100
AcDbLine
 10
2920.114973906372
 20
664.3230219025199
 30
0.0
 11
2921.812028906371
 21
663.3432219025201
 31
0.0
  0
LINE
  5
82A15
330
1F
100
AcDbEntity
  8
0
100
AcDbLine
 10
2921.812028906371
 20
663.0166219025197
 30
0.0
 11
2921.812028906371
 21
663.3432219025201
 31
0.0
  0
LINE
  5
82A16
330
1F
100
AcDbEntity
  8
0
100
AcDbLine
 10
2921.605468906372
 20
662.64598190252
 30
0.0
 11
2920.114973906372
 21
663.50652190252
 31
0.0
  0
POLYLINE
  5
82A17
330
1F
100
AcDbEntity
  8
0
100
AcDb2dPolyline
 66
     1
 10
0.0
 20
0.0
 30
0.0
 70
     2
  0
VERTEX
  5
82A18
330
82A17
100
AcDbEntity
  8
0
100
AcDbVertex
100
AcDb2dVertex
 10
2921.812028906371
 20
663.3432219025201
 30
0.0
  0
VERTEX
  5
82A19
330
82A17
100
AcDbEntity
  8
0
100
AcDbVertex
100
AcDb2dVertex
 10
2921.833823906371
 20
663.18256190252
 30
0.0
 42
-0.071558219
 70
     1
  0
VERTEX
  5
82A1A
330
82A17
100
AcDbEntity
  8
0
100
AcDbVertex
100
AcDb2dVertex
 10
2921.812028906371
 20
663.0166219025197
 30
0.0
 42
-0.061245426
  0
VERTEX
  5
82A1B
330
82A17
100
AcDbEntity
  8
0
100
AcDbVertex
100
AcDb2dVertex
 10
2921.746248906372
 20
662.8441719025197
 30
0.0
 42
-0.056589035
 70
     1
  0
VERTEX
  5
82A1C
330
82A17
100
AcDbEntity
  8
0
100
AcDbVertex
100
AcDb2dVertex
 10
2921.628563906373
 20
662.6723719025201
 30
0.0
 42
-0.062314397
  0
VERTEX
  5
82A1D
330
82A17
100
AcDbEntity
  8
0
100
AcDbVertex
100
AcDb2dVertex
 10
2921.451758906372
 20
662.5099169025197
 30
0.0
 42
-0.043582892
 70
     1
  0
VERTEX
  5
82A1E
330
82A17
100
AcDbEntity
  8
0
100
AcDbVertex
100
AcDb2dVertex
 10
2921.246343906371
 20
662.36342690252
 30
0.0
 42
-0.021751151
  0
VERTEX
  5
82A1F
330
82A17
100
AcDbEntity
  8
0
100
AcDbVertex
100
AcDb2dVertex
 10
2921.026243906371
 20
662.2400319025199
 30
0.0
 42
-0.041519788
 70
     1
  0
VERTEX
  5
82A20
330
82A17
100
AcDbEntity
  8
0
100
AcDbVertex
100
AcDb2dVertex
 10
2920.711233906374
 20
662.1427519025201
 30
0.0
 42
-0.054948729
  0
VERTEX
  5
82A21
330
82A17
100
AcDbEntity
  8
0
100
AcDbVertex
100
AcDb2dVertex
 10
2920.212658906371
 20
662.07554690252
 30
0.0
 42
-0.026989519
 70
     1
  0
VERTEX
  5
82A22
330
82A17
100
AcDbEntity
  8
0
100
AcDbVertex
100
AcDb2dVertex
 10
2919.549288906374
 20
662.03682690252
 30
0.0
 42
-0.013983896
  0
SEQEND
  5
82A23
330
82A17
100
AcDbEntity
  8
0
  0
LINE
  5
82A24
330
1F
100
AcDbEntity
  8
CEN
  6
CENTER
 62
     1
 48
0.05
370
     0
100
AcDbLine
 10
2954.161888079496
 20
725.0369572991037
 30
0.0
 11
2954.161888079496
 21
732.2076122991037
 31
0.0
  0
LINE
  5
82A25
330
1F
100
AcDbEntity
  8
CEN
  6
CENTER
 62
     1
 48
0.05
370
     0
100
AcDbLine
 10
2962.161888079496
 20
725.0369572991037
 30
0.0
 11
2962.161888079496
 21
728.1666122991037
 31
0.0
  0
LINE
  5
82A26
330
1F
100
AcDbEntity
  8
CEN
  6
CENTER
 62
     1
 48
0.05
370
     0
100
AcDbLine
 10
2946.161889079496
 20
724.823462299104
 30
0.0
 11
2946.161889079496
 21
728.439312299104
 31
0.0
  0
LINE
  5
82A27
330
1F
100
AcDbEntity
  8
CEN
  6
CENTER
 62
     1
 48
0.4
370
     0
100
AcDbLine
 10
2954.161888079496
 20
704.1367922991037
 30
0.0
 11
2954.161888079496
 21
696.116958299104
 31
0.0
  0
LINE
  5
82A28
330
1F
100
AcDbEntity
  8
CEN
  6
CENTER
 62
     1
 48
0.4
370
     0
100
AcDbLine
 10
2962.161888079496
 20
702.253345299104
 30
0.0
 11
2962.161888079496
 21
697.6966222991038
 31
0.0
  0
LINE
  5
82A29
330
1F
100
AcDbEntity
  8
CEN
  6
CENTER
 62
     1
 48
0.4
370
     0
100
AcDbLine
 10
2946.161889079496
 20
702.496370299104
 30
0.0
 11
2946.161889079496
 21
697.818135299104
 31
0.0
  0
LINE
  5
82A2A
330
1F
100
AcDbEntity
  8
CEN
  6
CENTER
 62
     1
 48
0.4
370
     0
100
AcDbLine
 10
2940.293691579496
 20
700.105490299104
 30
0.0
 11
2967.461888079497
 21
700.105490299104
 31
0.0
  0
DIMENSION
  5
82A2B
330
1F
100
AcDbEntity
  8
Dim
 48
2.0
100
AcDbDimension
  2
*D25
 10
2962.161888079496
 20
690.6684920115431
 30
0.0
 11
2954.04449691709
 21
690.6684920115431
 31
0.0
 70
   160
 71
     5
 42
15.99999900000012
 73
     0
 74
     0
 75
     0
  3
01
100
AcDbAlignedDimension
 13
2946.161889079496
 23
697.818135299104
 33
0.0
 14
2962.161888079496
 24
697.6966222991038
 34
0.0
100
AcDbRotatedDimension
1001
ACAD
1000
DSTYLE
1002
{
1070
    41
1040
1.0
1070
   140
1040
2.0
1002
}
  0
DIMENSION
  5
82A2C
330
1F
100
AcDbEntity
  8
Dim
 48
2.0
100
AcDbDimension
  2
*D26
 10
2966.261888079499
 20
723.0745396700937
 30
0.0
 11
2954.073521985087
 21
723.0745396700937
 31
0.0
 70
   160
 71
     5
 42
24.19999900000084
 73
     0
 74
     0
 75
     0
  3
01
100
AcDbAlignedDimension
 13
2942.061889079498
 23
726.2076122991039
 33
0.0
 14
2966.261888079499
 24
726.2076122991039
 34
0.0
100
AcDbRotatedDimension
1001
ACAD
1000
DSTYLE
1002
{
1070
    41
1040
1.0
1070
   140
1040
2.0
1002
}
  0
DIMENSION
  5
82A2D
330
1F
100
AcDbEntity
  8
Dim
 48
2.0
100
AcDbDimension
  2
*D27
 10
2970.412069514281
 20
726.2076122991037
 30
0.0
 11
2970.412069514281
 21
723.0737559737234
 31
0.0
 70
   160
 71
     5
 42
0.9999999999998864
 73
     0
 74
     0
 75
     0
  3
01
100
AcDbAlignedDimension
 13
2966.261888079499
 23
727.2076122991038
 33
0.0
 14
2966.261888079499
 24
726.2076122991039
 34
0.0
 50
90.0
100
AcDbRotatedDimension
1001
ACAD
1000
DSTYLE
1002
{
1070
    41
1040
1.0
1070
   140
1040
2.0
1002
}
  0
DIMENSION
  5
82A2E
330
1F
100
AcDbEntity
  8
Dim
 48
2.0
100
AcDbDimension
  2
*D28
 10
2934.333549187915
 20
697.1054902991036
 30
0.0
 11
2934.333549187915
 21
700.105490299104
 31
0.0
 70
   160
  1
6
 71
     5
 42
6.0
 73
     0
 74
     0
 75
     0
  3
01
100
AcDbAlignedDimension
 13
2942.061889079498
 23
703.1054902991037
 33
0.0
 14
2942.061889079498
 24
697.1054902991037
 34
0.0
 50
90.0
100
AcDbRotatedDimension
1001
ACAD
1000
DSTYLE
1002
{
1070
    41
1040
1.0
1070
   140
1040
2.0
1002
}
  0
DIMENSION
  5
82A2F
330
1F
100
AcDbEntity
  8
Dim
 48
2.0
100
AcDbDimension
  2
*D29
 10
2938.727198810684
 20
698.5054903484085
 30
0.0
 11
2938.727198810684
 21
693.9399528604252
 31
0.0
 70
   160
 71
     5
 42
3.199999901390468
 73
     0
 74
     0
 75
     0
  3
01
100
AcDbAlignedDimension
 13
2944.961889013757
 23
701.7054902497991
 33
0.0
 14
2944.961889013757
 24
698.5054903484086
 34
0.0
 50
90.0
100
AcDbRotatedDimension
1001
ACAD
1000
DSTYLE
1002
{
1070
    41
1040
1.0
1070
   140
1040
2.0
1002
}
  0
DIMENSION
  5
82A30
330
1F
100
AcDbEntity
  8
Dim
 48
2.0
100
AcDbDimension
  2
*D30
 10
2954.161888079499
 20
728.2076122990949
 30
0.0
 11
2960.902348475728
 21
734.4342020578742
 31
0.0
 70
   164
 71
     5
 42
2.500000000005229
 73
     0
 74
     0
 75
     0
  3
01$4
100
AcDbRadialDimension
 15
2955.187921490339
 25
730.4873612852485
 35
0.0
 40
0.0
1001
ACAD_DSTYLE_DIMRADIAL_EXTENSION
1070
   387
1070
     1
1070
   388
1040
0.0
1070
   390
1040
3.141592653589792
1001
ACAD
1000
DSTYLE
1002
{
1070
   340
1005
474F8
1070
    41
1040
1.0
1070
   140
1040
2.0
1070
   288
1070
     1
1002
}
  0
DIMENSION
  5
82A31
330
1F
100
AcDbEntity
  8
Dim
 48
2.0
100
AcDbDimension
  2
*D31
 10
2938.787854788414
 20
726.2076122991037
 30
0.0
 11
2938.787854788414
 21
722.9933265848197
 31
0.0
 70
   160
 71
     5
 42
4.5
 73
     0
 74
     0
 75
     0
  3
01
100
AcDbAlignedDimension
 13
2954.161888079496
 23
730.7076122991039
 33
0.0
 14
2942.061889079498
 24
726.2076122991039
 34
0.0
 50
90.0
100
AcDbRotatedDimension
1001
ACAD
1000
DSTYLE
1002
{
1070
    41
1040
1.0
1070
   140
1040
2.0
1002
}
  0
DIMENSION
  5
82A32
330
1F
100
AcDbEntity
  8
Dim
 48
2.0
100
AcDbDimension
  2
*D32
 10
2958.661888079492
 20
728.2076122991023
 30
0.0
 11
2966.759398899251
 21
730.3289326426696
 31
0.0
 70
   164
  1
2-<>
 71
     5
 42
0.9999999999986355
 73
     0
 74
     0
 75
     0
  3
01$4
100
AcDbRadialDimension
 15
2957.954781298307
 25
727.5005055179164
 35
0.0
 40
0.0
1001
ACAD_DSTYLE_DIMRADIAL_EXTENSION
1070
   387
1070
     1
1070
   388
1040
3.141592653589792
1070
   390
1040
4.712388980384688
1001
ACAD
1000
DSTYLE
1002
{
1070
   340
1005
474F8
1070
    41
1040
1.0
1070
   140
1040
2.0
1070
   288
1070
     1
1002
}
  0
DIMENSION
  5
82A33
330
1F
100
AcDbEntity
  8
Dim
 48
2.0
100
AcDbDimension
  2
*D33
 10
2960.490568576712
 20
699.0069953652915
 30
0.0
 11
2972.484696584397
 21
703.9013033378778
 31
0.0
 70
   163
  1
2-{\Fromans|c128;<>}
 71
     5
 42
3.999999999998634
 73
     0
 74
     0
 75
     0
  3
01$3
100
AcDbDiametricDimension
 15
2963.833207582281
 25
701.2039852329147
 35
0.0
 40
0.0
1001
ACAD_DSTYLE_DIMRADIAL_EXTENSION
1070
   387
1070
     1
1070
   388
1040
5.355890130265207
1070
   390
1040
0.9272951769143793
1001
ACAD
1000
DSTYLE
1002
{
1070
   340
1005
474F8
1070
    41
1040
1.0
1070
   140
1040
2.0
1070
   288
1070
     1
1002
}
  0
DIMENSION
  5
82A34
330
1F
100
AcDbEntity
  8
Dim
 48
2.0
100
AcDbDimension
  2
*D34
 10
2934.455262042098
 20
726.2076122991037
 30
0.0
 11
2934.455262042098
 21
721.926659918153
 31
0.0
 70
   160
  1
(<>)
 71
     5
 42
5.499999999999886
 73
     0
 74
     0
 75
     0
  3
01
100
AcDbAlignedDimension
 13
2954.161888079496
 23
731.7076122991037
 33
0.0
 14
2942.061889079498
 24
726.2076122991039
 34
0.0
 50
90.0
100
AcDbRotatedDimension
1001
ACAD
1000
DSTYLE
1002
{
1070
    41
1040
1.0
1070
   140
1040
2.0
1002
}
  0
LINE
  5
82A35
330
1F
100
AcDbEntity
  8
CEN
  6
CENTER
 62
     1
 48
0.05
370
     0
100
AcDbLine
 10
2958.236815198052
 20
728.2076122991037
 30
0.0
 11
2949.992252652115
 21
728.2076122991037
 31
0.0
  0
MTEXT
  5
8327A
102
{ACAD_XDICTIONARY
360
83412
102
}
330
1F
100
AcDbEntity
  8
打标文字
 62
     3
100
AcDbMText
 10
3010.1216045306
 20
705.8238634850478
 30
0.0
 40
1.5
 41
133.4846454898445
 46
146.9811779965554
 71
     1
 72
     5
  3
\A1;{\f仿宋_GB2312|b0|i0|c134|p49;技术参数：}    \P- {\f仿宋_GB2312|b0|i0|c134|p49;材料}: {\f仿宋_GB2312|b0|i0|c134|p49;铁}\P- {\f仿宋_GB2312|b0|i0|c134|p49;表面处理}: {\f仿宋_GB2312|b0|i0|c134|p49;镀锌}\P{\A0;\f仿宋_GB2312|b0|i0|c134|p49;配套\Fromans|c134;2\f仿宋_GB2312|b0|i0|c1
  1
34|p49;个带弹垫固线板\A1;的}M3{\f仿宋_GB2312|b0|i0|c134|p49;螺丝}\P\PTechnical specification:\P- Material: Iron\P- Surface: Zinc plated\PMatching M3 screw with spring\Ppad fixed wire plate
  7
Romans字体
 73
     1
 44
1.0
1001
ACAD
1000
ACAD_MTEXT_DEFINED_HEIGHT_BEGIN
1070
    46
1040
146.9811779965554
1000
ACAD_MTEXT_DEFINED_HEIGHT_END
  0
ENDSEC
  0
SECTION
  2
OBJECTS
  0
DICTIONARY
  5
C
330
0
100
AcDbDictionary
281
     1
  3
ACAD_COLOR
350
3F2
  3
ACAD_GROUP
350
D
  3
ACAD_LAYOUT
350
1A
  3
ACAD_MATERIAL
350
3F1
  3
ACAD_MLEADERSTYLE
350
12D6D
  3
ACAD_MLINESTYLE
350
17
  3
ACAD_PLOTSETTINGS
350
19
  3
ACAD_PLOTSTYLENAME
350
E
  3
ACAD_SCALELIST
350
12D4B
  3
ACAD_TABLESTYLE
350
12D49
  3
ACAD_VBA
350
13F35
  3
ACAD_VISUALSTYLE
350
12D38
  3
ACDB_RECOMPOSE_DATA
350
12DCF
  3
AcDbVariableDictionary
350
125BE
  3
ASE_INDEX_DICTIONARY
350
4D011
  3
lxx_dict
350
E28
  0
DICTIONARY
  5
12DD3
330
8
100
AcDbDictionary
280
     1
281
     1
  0
DICTIONARY
  5
7EA
330
2
100
AcDbDictionary
280
     1
281
     1
  3
ACAD_LAYERFILTERS
360
47712
  3
ACAD_LAYERSTATES
360
7EB
  3
ACLYDICTIONARY
360
47711
  0
DICTIONARY
  5
12D81
330
10
100
AcDbDictionary
280
     1
281
     1
  3
ADSK_XREC_LAYER_RECONCILED
360
12D82
  0
DICTIONARY
  5
12D8B
330
876E
100
AcDbDictionary
280
     1
281
     1
  3
ADSK_XREC_LAYER_RECONCILED
360
12D8C
  0
DICTIONARY
  5
12D8D
330
F6EE
100
AcDbDictionary
280
     1
281
     1
  3
ADSK_XREC_LAYER_RECONCILED
360
12D8E
  0
DICTIONARY
  5
1E3C0
330
1E3BF
100
AcDbDictionary
280
     1
281
     1
  0
DICTIONARY
  5
833CE
330
47460
100
AcDbDictionary
280
     1
281
     1
  0
DICTIONARY
  5
83414
330
83339
100
AcDbDictionary
280
     1
281
     1
  3
ACAD_MTEXT_2008_RT
360
83415
  0
DICTIONARY
  5
83416
330
83341
100
AcDbDictionary
280
     1
281
     1
  3
ACAD_MTEXT_2008_RT
360
83417
  0
DICTIONARY
  5
83418
330
8337D
100
AcDbDictionary
280
     1
281
     1
  3
ACAD_MTEXT_2008_RT
360
83419
  0
DICTIONARY
  5
8341A
330
8337E
100
AcDbDictionary
280
     1
281
     1
  3
ACAD_MTEXT_2008_RT
360
8341B
  0
DICTIONARY
  5
8341C
330
833A3
100
AcDbDictionary
280
     1
281
     1
  3
ACAD_MTEXT_2008_RT
360
8341D
  0
DICTIONARY
  5
8341E
330
833A6
100
AcDbDictionary
280
     1
281
     1
  3
ACAD_MTEXT_2008_RT
360
8341F
  0
DICTIONARY
  5
83420
330
833A7
100
AcDbDictionary
280
     1
281
     1
  3
ACAD_MTEXT_2008_RT
360
83421
  0
DICTIONARY
  5
83422
330
833B1
100
AcDbDictionary
280
     1
281
     1
  3
ACAD_MTEXT_2008_RT
360
83423
  0
DICTIONARY
  5
83424
330
833B2
100
AcDbDictionary
280
     1
281
     1
  3
ACAD_MTEXT_2008_RT
360
83425
  0
DICTIONARY
  5
83426
330
833B3
100
AcDbDictionary
280
     1
281
     1
  3
ACAD_MTEXT_2008_RT
360
83427
  0
DICTIONARY
  5
83428
330
833C1
100
AcDbDictionary
280
     1
281
     1
  3
ACAD_MTEXT_2008_RT
360
83429
  0
DICTIONARY
  5
8342A
330
833C2
100
AcDbDictionary
280
     1
281
     1
  3
ACAD_MTEXT_2008_RT
360
8342B
  0
DICTIONARY
  5
8342C
330
833C3
100
AcDbDictionary
280
     1
281
     1
  3
ACAD_MTEXT_2008_RT
360
8342D
  0
DICTIONARY
  5
83412
330
8327A
100
AcDbDictionary
280
     1
281
     1
  3
ACAD_MTEXT_2008_RT
360
83413
  0
DICTIONARY
  5
3F2
102
{ACAD_REACTORS
330
C
102
}
330
C
100
AcDbDictionary
281
     1
  0
DICTIONARY
  5
D
102
{ACAD_REACTORS
330
C
102
}
330
C
100
AcDbDictionary
281
     1
  0
DICTIONARY
  5
1A
102
{ACAD_REACTORS
330
C
102
}
330
C
100
AcDbDictionary
281
     1
  3
Layout1
350
1E
  3
Model
350
22
  0
DICTIONARY
  5
3F1
102
{ACAD_REACTORS
330
C
102
}
330
C
100
AcDbDictionary
281
     1
  3
ByBlock
350
12D30
  3
ByLayer
350
12D28
  3
Global
350
6897
  0
DICTIONARY
  5
12D6D
102
{ACAD_REACTORS
330
C
102
}
330
C
100
AcDbDictionary
281
     1
  3
Standard
350
12D6E
  0
DICTIONARY
  5
17
102
{ACAD_REACTORS
330
C
102
}
330
C
100
AcDbDictionary
281
     1
  3
Standard
350
18
  0
DICTIONARY
  5
19
102
{ACAD_REACTORS
330
C
102
}
330
C
100
AcDbDictionary
281
     1
  3
ISO A4 标题栏 (纵向) - 无输出设备
350
176E
  0
ACDBDICTIONARYWDFLT
  5
E
102
{ACAD_REACTORS
330
C
102
}
330
C
100
AcDbDictionary
281
     1
  3
Normal
350
F
100
AcDbDictionaryWithDefault
340
F
  0
DICTIONARY
  5
12D4B
102
{ACAD_REACTORS
330
C
102
}
330
C
100
AcDbDictionary
281
     1
  3
A0
350
12D4C
  3
A1
350
12D4D
  3
A2
350
12D4E
  3
A3
350
12D4F
  3
A4
350
12D50
  3
A5
350
12D51
  3
A6
350
12D52
  3
A7
350
12D53
  3
A8
350
12D54
  3
A9
350
12D55
  3
B0
350
12D56
  3
B1
350
12D57
  3
B2
350
12D58
  3
B3
350
12D59
  3
B4
350
12D5A
  3
B5
350
12D5B
  3
B6
350
12D5C
  3
B7
350
12D5D
  3
B8
350
12D5E
  3
B9
350
12D5F
  3
C0
350
12D60
  3
C1
350
12D61
  3
C2
350
12D62
  3
C3
350
12D63
  3
C4
350
12D64
  3
C5
350
12D65
  3
C6
350
12D66
  3
C7
350
12D67
  3
C8
350
12D68
  3
C9
350
12D69
  3
D0
350
12D6A
  3
D1
350
12D6B
  3
D2
350
12D6C
  0
DICTIONARY
  5
12D49
102
{ACAD_REACTORS
330
C
102
}
330
C
100
AcDbDictionary
281
     1
  3
Standard
350
12D4A
  0
DICTIONARY
  5
13F35
102
{ACAD_REACTORS
330
C
102
}
330
C
100
AcDbDictionary
281
     1
  3
VBAProject
350
13F36
  0
DICTIONARY
  5
12D38
102
{ACAD_REACTORS
330
C
102
}
330
C
100
AcDbDictionary
281
     1
  3
2dWireframe
350
12D3E
  3
3D Hidden
350
12D40
  3
3dWireframe
350
12D3F
  3
Basic
350
12D3D
  3
Brighten
350
12D44
  3
ColorChange
350
12D48
  3
Conceptual
350
12D41
  3
Dim
350
12D43
  3
Facepattern
350
12D47
  3
Flat
350
12D39
  3
FlatWithEdges
350
12D3A
  3
Gouraud
350
12D3B
  3
GouraudWithEdges
350
12D3C
  3
Linepattern
350
12D46
  3
Realistic
350
12D42
  3
Thicken
350
12D45
  3
Wireframe
350
1E3C4
  0
XRECORD
  5
12DCF
102
{ACAD_REACTORS
330
C
102
}
330
C
100
AcDbXrecord
280
     1
 90
        1
330
12D4A
330
8327A
330
83339
330
83341
330
8337D
330
8337E
330
833A3
330
833A6
330
833A7
330
833B1
330
833B2
330
833B3
330
833C1
330
833C2
330
833C3
  0
DICTIONARY
  5
125BE
102
{ACAD_REACTORS
330
C
102
}
330
C
100
AcDbDictionary
281
     1
  3
CANNOSCALE
350
12DE7
  3
CMLEADERSTYLE
350
12DE6
  3
CTABLESTYLE
350
12DE5
  3
DIMASSOC
350
125BF
  3
INDEXCTL
350
13324
  3
LIGHTINGUNITS
350
12EB5
  3
MSLTSCALE
350
12EB4
  3
PROJECTNAME
350
125C0
  3
SORTENTS
350
13323
  0
DICTIONARY
  5
4D011
102
{ACAD_REACTORS
330
C
102
}
330
C
100
AcDbDictionary
281
     1
  3
ASEBlockHierarchyIndexRecord
350
4D012
1001
DCO15
1040
1903776529.214
  0
DICTIONARY
  5
E28
102
{ACAD_REACTORS
330
C
102
}
330
C
100
AcDbDictionary
281
     1
  3
lxx_dimth
350
E29
  0
DICTIONARY
  5
47712
102
{ACAD_REACTORS
330
7EA
102
}
330
7EA
100
AcDbDictionary
281
     1
  0
DICTIONARY
  5
7EB
102
{ACAD_REACTORS
330
7EA
102
}
330
7EA
100
AcDbDictionary
281
     1
  0
DICTIONARY
  5
47711
102
{ACAD_REACTORS
330
7EA
102
}
330
7EA
100
AcDbDictionary
281
     1
1001
ACAD
1000
<All
  0
XRECORD
  5
12D82
102
{ACAD_REACTORS
330
12D81
102
}
330
12D81
100
AcDbXrecord
280
     1
290
     1
  0
XRECORD
  5
12D8C
102
{ACAD_REACTORS
330
12D8B
102
}
330
12D8B
100
AcDbXrecord
280
     1
290
     1
  0
XRECORD
  5
12D8E
102
{ACAD_REACTORS
330
12D8D
102
}
330
12D8D
100
AcDbXrecord
280
     1
290
     1
  0
XRECORD
  5
83415
102
{ACAD_REACTORS
330
83414
102
}
330
83414
100
AcDbXrecord
280
     1
 40
1575.0
  1
\pxqc;YP ZHU
  0
XRECORD
  5
83417
102
{ACAD_REACTORS
330
83416
102
}
330
83416
100
AcDbXrecord
280
     1
 40
1013.0
  1
\pxqc;Q GAO
  0
XRECORD
  5
83419
102
{ACAD_REACTORS
330
83418
102
}
330
83418
100
AcDbXrecord
280
     1
 40
1262561.0
  1
\pxqc;档案员{\H0.7x;\P\Fromans|c134;Filing Clerk\fFangSong_GB2312|b0|i0|c134|p49; }
  0
XRECORD
  5
8341B
102
{ACAD_REACTORS
330
8341A
102
}
330
8341A
100
AcDbXrecord
280
     1
 40
650528.0
  1
\pxqc;日期{\Fromans|c134;/Date}
  0
XRECORD
  5
8341D
102
{ACAD_REACTORS
330
8341C
102
}
330
8341C
100
AcDbXrecord
280
     1
 40
2318748.0
  1
\pxsm0.7;{\f仿宋_GB2312|b0|i0|c134|p49;标准化}\PStand.
  0
XRECORD
  5
8341F
102
{ACAD_REACTORS
330
8341E
102
}
330
8341E
100
AcDbXrecord
280
     1
 40
118135.0
  1
\pxsm0.7;签名\P{\Fromans|c134;Signature} 
  0
XRECORD
  5
83421
102
{ACAD_REACTORS
330
83420
102
}
330
83420
100
AcDbXrecord
280
     1
 40
108939.0
  1
\pxsm0.7,qc;处数\P{\Fromans|c134;Number }
  0
XRECORD
  5
83423
102
{ACAD_REACTORS
330
83422
102
}
330
83422
100
AcDbXrecord
280
     1
 40
125762.0
  1
\pxsm0.7;标记\P{\Fromans|c134;Mark}
  0
XRECORD
  5
83425
102
{ACAD_REACTORS
330
83424
102
}
330
83424
100
AcDbXrecord
280
     1
 40
111973.0
  1
\pxsm0.7;审核\P{\Fromans|c134;Checked}
  0
XRECORD
  5
83427
102
{ACAD_REACTORS
330
83426
102
}
330
83426
100
AcDbXrecord
280
     1
 40
137968.0
  1
\pxsm0.7;绘图\P{\Fromans|c134;Drawn\Ftxt|c134; }
  0
XRECORD
  5
83429
102
{ACAD_REACTORS
330
83428
102
}
330
83428
100
AcDbXrecord
280
     1
 40
106320.0
  1
\pxsm0.7;批准\P{\Fromans|c134;Approved}
  0
XRECORD
  5
8342B
102
{ACAD_REACTORS
330
8342A
102
}
330
8342A
100
AcDbXrecord
280
     1
 40
127283.0
  1
\pxsm0.7;工艺\P{\Fromans|c134;Process}
  0
XRECORD
  5
8342D
102
{ACAD_REACTORS
330
8342C
102
}
330
8342C
100
AcDbXrecord
280
     1
 40
106220.0
  1
\pxsm0.7;日期\P{\Fromans|c134;Date}
  0
XRECORD
  5
83413
102
{ACAD_REACTORS
330
83412
102
}
330
83412
100
AcDbXrecord
280
     1
 40
183890096.0
  1
\A1;\pxql;{\f仿宋_GB2312|b0|i0|c134|p49;技术参数：}    \P- {\f仿宋_GB2312|b0|i0|c134|p49;材料}: {\f仿宋_GB2312|b0|i0|c134|p49;铁}\P- {\f仿宋_GB2312|b0|i0|c134|p49;表面处理}: {\f仿宋_GB2312|b0|i0|c134|p49;镀锌}\P{\A0;\f仿宋_GB2312|b0|i0|c134|p49;配套\Fromans|c134;2\f仿宋_GB2312|b0
  1
|i0|c134|p49;个带弹垫固线板\A1;的}M3{\f仿宋_GB2312|b0|i0|c134|p49;螺丝}\P\PTechnical specification:\P- Material: Iron\P- Surface: Zinc plated\PMatching M3 screw with spring\Ppad fixed wire plate
  0
LAYOUT
  5
1E
102
{ACAD_REACTORS
330
1A
102
}
330
1A
100
AcDbPlotSettings
  1

  2

  4

  6

 40
0.0
 41
0.0
 42
0.0
 43
0.0
 44
0.0
 45
0.0
 46
0.0
 47
0.0
 48
0.0
 49
0.0
140
0.0
141
0.0
142
1.0
143
1.0
 70
     0
 72
     0
 73
     0
 74
     0
  7

 75
     0
147
1.0
 76
     0
 77
     2
 78
   300
148
0.0
149
0.0
100
AcDbLayout
  1
Layout1
 70
     0
 71
     1
 10
0.0
 20
0.0
 11
12.0
 21
9.0
 12
0.0
 22
0.0
 32
0.0
 14
1.000000000000000E+20
 24
1.000000000000000E+20
 34
1.000000000000000E+20
 15
-1.000000000000000E+20
 25
-1.000000000000000E+20
 35
-1.000000000000000E+20
146
0.0
 13
0.0
 23
0.0
 33
0.0
 16
1.0
 26
0.0
 36
0.0
 17
0.0
 27
1.0
 37
0.0
 76
     0
330
1B
  0
LAYOUT
  5
22
102
{ACAD_REACTORS
330
1A
102
}
330
1A
100
AcDbPlotSettings
  1

  2
HP LaserJet P1007
  4
A4
  6

 40
4.519083499908447
 41
4.349743366241455
 42
4.561416625976558
 43
4.349761962890625
 44
210.0156707763672
 45
297.0106506347656
 46
0.9399999999999998
 47
0.0
 48
539.6520813660868
 49
389.7291651948218
140
673.7347763208747
141
583.9261819808298
142
1.0
143
0.6735674979895184
 70
 15028
 72
     1
 73
     0
 74
     4
  7
monochrome.ctb
 75
     0
147
1.484632205361489
 76
     1
 77
     2
 78
   300
148
-539.6520813660868
149
-389.7291651948218
100
AcDbLayout
  1
Model
 70
     0
 71
     0
 10
0.0
 20
0.0
 11
0.0
 21
0.0
 12
0.0
 22
0.0
 32
0.0
 14
0.0
 24
0.0
 34
0.0
 15
0.0
 25
0.0
 35
0.0
146
0.0
 13
0.0
 23
0.0
 33
0.0
 16
0.0
 26
0.0
 36
0.0
 17
0.0
 27
0.0
 37
0.0
 76
     0
330
1F
331
12D1D
  0
MATERIAL
  5
12D30
102
{ACAD_XDICTIONARY
360
12D31
102
}
102
{ACAD_REACTORS
330
3F1
102
}
330
3F1
100
AcDbMaterial
  1
ByBlock
 72
     0
 43
0.0008202099737533
 43
0.0
 43
0.0
 43
0.0
 43
0.0
 43
0.0008202099737533
 43
0.0
 43
0.0
 43
0.0
 43
0.0
 43
1.0
 43
0.0
 43
0.0
 43
0.0
 43
0.0
 43
1.0
 77
     0
 47
0.0008202099737533
 47
0.0
 47
0.0
 47
0.0
 47
0.0
 47
0.0008202099737533
 47
0.0
 47
0.0
 47
0.0
 47
0.0
 47
1.0
 47
0.0
 47
0.0
 47
0.0
 47
0.0
 47
1.0
171
     0
 49
0.0008202099737533
 49
0.0
 49
0.0
 49
0.0
 49
0.0
 49
0.0008202099737533
 49
0.0
 49
0.0
 49
0.0
 49
0.0
 49
1.0
 49
0.0
 49
0.0
 49
0.0
 49
0.0
 49
1.0
175
     0
142
0.0008202099737533
142
0.0
142
0.0
142
0.0
142
0.0
142
0.0008202099737533
142
0.0
142
0.0
142
0.0
142
0.0
142
1.0
142
0.0
142
0.0
142
0.0
142
0.0
142
1.0
179
     0
144
0.0008202099737533
144
0.0
144
0.0
144
0.0
144
0.0
144
0.0008202099737533
144
0.0
144
0.0
144
0.0
144
0.0
144
1.0
144
0.0
144
0.0
144
0.0
144
0.0
144
1.0
147
0.0008202099737533
147
0.0
147
0.0
147
0.0
147
0.0
147
0.0008202099737533
147
0.0
147
0.0
147
0.0
147
0.0
147
1.0
147
0.0
147
0.0
147
0.0
147
0.0
147
1.0
  0
MATERIAL
  5
12D28
102
{ACAD_XDICTIONARY
360
12D29
102
}
102
{ACAD_REACTORS
330
3F1
102
}
330
3F1
100
AcDbMaterial
  1
ByLayer
 72
     0
 43
0.0008202099737533
 43
0.0
 43
0.0
 43
0.0
 43
0.0
 43
0.0008202099737533
 43
0.0
 43
0.0
 43
0.0
 43
0.0
 43
1.0
 43
0.0
 43
0.0
 43
0.0
 43
0.0
 43
1.0
 77
     0
 47
0.0008202099737533
 47
0.0
 47
0.0
 47
0.0
 47
0.0
 47
0.0008202099737533
 47
0.0
 47
0.0
 47
0.0
 47
0.0
 47
1.0
 47
0.0
 47
0.0
 47
0.0
 47
0.0
 47
1.0
171
     0
 49
0.0008202099737533
 49
0.0
 49
0.0
 49
0.0
 49
0.0
 49
0.0008202099737533
 49
0.0
 49
0.0
 49
0.0
 49
0.0
 49
1.0
 49
0.0
 49
0.0
 49
0.0
 49
0.0
 49
1.0
175
     0
142
0.0008202099737533
142
0.0
142
0.0
142
0.0
142
0.0
142
0.0008202099737533
142
0.0
142
0.0
142
0.0
142
0.0
142
1.0
142
0.0
142
0.0
142
0.0
142
0.0
142
1.0
179
     0
144
0.0008202099737533
144
0.0
144
0.0
144
0.0
144
0.0
144
0.0008202099737533
144
0.0
144
0.0
144
0.0
144
0.0
144
1.0
144
0.0
144
0.0
144
0.0
144
0.0
144
1.0
147
0.0008202099737533
147
0.0
147
0.0
147
0.0
147
0.0
147
0.0008202099737533
147
0.0
147
0.0
147
0.0
147
0.0
147
1.0
147
0.0
147
0.0
147
0.0
147
0.0
147
1.0
  0
MATERIAL
  5
6897
102
{ACAD_XDICTIONARY
360
1E333
102
}
102
{ACAD_REACTORS
330
3F1
102
}
330
3F1
100
AcDbMaterial
  1
Global
 73
     1
 78
     1
172
     1
176
     1
270
     1
274
     1
  0
MLEADERSTYLE
  5
12D6E
102
{ACAD_REACTORS
330
12D6D
102
}
330
12D6D
100
AcDbMLeaderStyle
170
     2
171
     1
172
     0
 90
        2
 40
0.0
 41
0.0
173
     1
 91
-1056964608
340
14
 92
       -2
290
     1
 42
2.0
291
     1
 43
0.36
  3
Standard
 44
4.0
300

342
11
174
     1
178
     6
175
     1
176
     0
 93
-1056964608
 45
4.0
292
     0
297
     0
 46
4.0
 94
-1056964608
 47
1.0
 49
1.0
140
1.0
293
     1
141
0.0
294
     1
177
     0
142
1.0
295
     0
296
     0
143
0.125
1001
ACAD_MLEADERVER
1070
     2
  0
MLINESTYLE
  5
18
102
{ACAD_REACTORS
330
17
102
}
330
17
100
AcDbMlineStyle
  2
STANDARD
 70
     0
  3

 62
   256
 51
90.0
 52
90.0
 71
     2
 49
0.5
 62
   256
  6
BYLAYER
 49
-0.5
 62
   256
  6
BYLAYER
  0
PLOTSETTINGS
  5
176E
102
{ACAD_REACTORS
330
19
102
}
330
19
100
AcDbPlotSettings
  1
ISO A4 标题栏 (纵向) - 无输出设备
  2
None
  4
ISO_A4_(210.00_x_297.00_MM)
  6

 40
7.549999999999998
 41
20.05
 42
7.549999999999998
 43
20.05
 44
210.0
 45
297.0
 46
-7.559999999999996
 47
-20.06
 48
0.0
 49
0.0
140
0.0
141
0.0
142
1.0
143
1.0
 70
   692
 72
     1
 73
     0
 74
     1
  7

 75
    16
147
1.0
 76
     0
 77
     2
 78
   300
148
0.0128164049386896
149
0.0090630292066862
  0
ACDBPLACEHOLDER
  5
F
102
{ACAD_REACTORS
330
E
102
}
330
E
  0
SCALE
  5
12D4C
102
{ACAD_REACTORS
330
12D4B
102
}
330
12D4B
100
AcDbScale
 70
     0
300
1:1
140
1.0
141
1.0
290
     1
  0
SCALE
  5
12D4D
102
{ACAD_REACTORS
330
12D4B
102
}
330
12D4B
100
AcDbScale
 70
     0
300
1:2
140
1.0
141
2.0
290
     0
  0
SCALE
  5
12D4E
102
{ACAD_REACTORS
330
12D4B
102
}
330
12D4B
100
AcDbScale
 70
     0
300
1:4
140
1.0
141
4.0
290
     0
  0
SCALE
  5
12D4F
102
{ACAD_REACTORS
330
12D4B
102
}
330
12D4B
100
AcDbScale
 70
     0
300
1:5
140
1.0
141
5.0
290
     0
  0
SCALE
  5
12D50
102
{ACAD_REACTORS
330
12D4B
102
}
330
12D4B
100
AcDbScale
 70
     0
300
1:8
140
1.0
141
8.0
290
     0
  0
SCALE
  5
12D51
102
{ACAD_REACTORS
330
12D4B
102
}
330
12D4B
100
AcDbScale
 70
     0
300
1:10
140
1.0
141
10.0
290
     0
  0
SCALE
  5
12D52
102
{ACAD_REACTORS
330
12D4B
102
}
330
12D4B
100
AcDbScale
 70
     0
300
1:16
140
1.0
141
16.0
290
     0
  0
SCALE
  5
12D53
102
{ACAD_REACTORS
330
12D4B
102
}
330
12D4B
100
AcDbScale
 70
     0
300
1:20
140
1.0
141
20.0
290
     0
  0
SCALE
  5
12D54
102
{ACAD_REACTORS
330
12D4B
102
}
330
12D4B
100
AcDbScale
 70
     0
300
1:30
140
1.0
141
30.0
290
     0
  0
SCALE
  5
12D55
102
{ACAD_REACTORS
330
12D4B
102
}
330
12D4B
100
AcDbScale
 70
     0
300
1:40
140
1.0
141
40.0
290
     0
  0
SCALE
  5
12D56
102
{ACAD_REACTORS
330
12D4B
102
}
330
12D4B
100
AcDbScale
 70
     0
300
1:50
140
1.0
141
50.0
290
     0
  0
SCALE
  5
12D57
102
{ACAD_REACTORS
330
12D4B
102
}
330
12D4B
100
AcDbScale
 70
     0
300
1:100
140
1.0
141
100.0
290
     0
  0
SCALE
  5
12D58
102
{ACAD_REACTORS
330
12D4B
102
}
330
12D4B
100
AcDbScale
 70
     0
300
2:1
140
2.0
141
1.0
290
     0
  0
SCALE
  5
12D59
102
{ACAD_REACTORS
330
12D4B
102
}
330
12D4B
100
AcDbScale
 70
     0
300
4:1
140
4.0
141
1.0
290
     0
  0
SCALE
  5
12D5A
102
{ACAD_REACTORS
330
12D4B
102
}
330
12D4B
100
AcDbScale
 70
     0
300
8:1
140
8.0
141
1.0
290
     0
  0
SCALE
  5
12D5B
102
{ACAD_REACTORS
330
12D4B
102
}
330
12D4B
100
AcDbScale
 70
     0
300
10:1
140
10.0
141
1.0
290
     0
  0
SCALE
  5
12D5C
102
{ACAD_REACTORS
330
12D4B
102
}
330
12D4B
100
AcDbScale
 70
     0
300
100:1
140
100.0
141
1.0
290
     0
  0
SCALE
  5
12D5D
102
{ACAD_REACTORS
330
12D4B
102
}
330
12D4B
100
AcDbScale
 70
     0
300
1/128" = 1'-0"
140
0.0078125
141
12.0
290
     0
  0
SCALE
  5
12D5E
102
{ACAD_REACTORS
330
12D4B
102
}
330
12D4B
100
AcDbScale
 70
     0
300
1/64" = 1'-0"
140
0.015625
141
12.0
290
     0
  0
SCALE
  5
12D5F
102
{ACAD_REACTORS
330
12D4B
102
}
330
12D4B
100
AcDbScale
 70
     0
300
1/32" = 1'-0"
140
0.03125
141
12.0
290
     0
  0
SCALE
  5
12D60
102
{ACAD_REACTORS
330
12D4B
102
}
330
12D4B
100
AcDbScale
 70
     0
300
1/16" = 1'-0"
140
0.0625
141
12.0
290
     0
  0
SCALE
  5
12D61
102
{ACAD_REACTORS
330
12D4B
102
}
330
12D4B
100
AcDbScale
 70
     0
300
3/32" = 1'-0"
140
0.09375
141
12.0
290
     0
  0
SCALE
  5
12D62
102
{ACAD_REACTORS
330
12D4B
102
}
330
12D4B
100
AcDbScale
 70
     0
300
1/8" = 1'-0"
140
0.125
141
12.0
290
     0
  0
SCALE
  5
12D63
102
{ACAD_REACTORS
330
12D4B
102
}
330
12D4B
100
AcDbScale
 70
     0
300
3/16" = 1'-0"
140
0.1875
141
12.0
290
     0
  0
SCALE
  5
12D64
102
{ACAD_REACTORS
330
12D4B
102
}
330
12D4B
100
AcDbScale
 70
     0
300
1/4" = 1'-0"
140
0.25
141
12.0
290
     0
  0
SCALE
  5
12D65
102
{ACAD_REACTORS
330
12D4B
102
}
330
12D4B
100
AcDbScale
 70
     0
300
3/8" = 1'-0"
140
0.375
141
12.0
290
     0
  0
SCALE
  5
12D66
102
{ACAD_REACTORS
330
12D4B
102
}
330
12D4B
100
AcDbScale
 70
     0
300
1/2" = 1'-0"
140
0.5
141
12.0
290
     0
  0
SCALE
  5
12D67
102
{ACAD_REACTORS
330
12D4B
102
}
330
12D4B
100
AcDbScale
 70
     0
300
3/4" = 1'-0"
140
0.75
141
12.0
290
     0
  0
SCALE
  5
12D68
102
{ACAD_REACTORS
330
12D4B
102
}
330
12D4B
100
AcDbScale
 70
     0
300
1" = 1'-0"
140
1.0
141
12.0
290
     0
  0
SCALE
  5
12D69
102
{ACAD_REACTORS
330
12D4B
102
}
330
12D4B
100
AcDbScale
 70
     0
300
1-1/2" = 1'-0"
140
1.5
141
12.0
290
     0
  0
SCALE
  5
12D6A
102
{ACAD_REACTORS
330
12D4B
102
}
330
12D4B
100
AcDbScale
 70
     0
300
3" = 1'-0"
140
3.0
141
12.0
290
     0
  0
SCALE
  5
12D6B
102
{ACAD_REACTORS
330
12D4B
102
}
330
12D4B
100
AcDbScale
 70
     0
300
6" = 1'-0"
140
6.0
141
12.0
290
     0
  0
SCALE
  5
12D6C
102
{ACAD_REACTORS
330
12D4B
102
}
330
12D4B
100
AcDbScale
 70
     0
300
1'-0" = 1'-0"
140
12.0
141
12.0
290
     0
  0
TABLESTYLE
  5
12D4A
102
{ACAD_XDICTIONARY
360
12DCD
102
}
102
{ACAD_REACTORS
330
12D49
102
}
330
12D49
100
AcDbTableStyle
  3
Standard
 70
     0
 71
     0
 40
1.5
 41
1.5
280
     0
281
     0
  7
STANDARD
140
4.5
170
     2
 62
     0
 63
     7
283
     0
 90
      512
 91
        0
  1

274
    -2
284
     1
 64
     0
275
    -2
285
     1
 65
     0
276
    -2
286
     1
 66
     0
277
    -2
287
     1
 67
     0
278
    -2
288
     1
 68
     0
279
    -2
289
     1
 69
     0
  7
STANDARD
140
6.0
170
     5
 62
     0
 63
     7
283
     0
 90
      512
 91
        0
  1

274
    -2
284
     1
 64
     0
275
    -2
285
     1
 65
     0
276
    -2
286
     1
 66
     0
277
    -2
287
     1
 67
     0
278
    -2
288
     1
 68
     0
279
    -2
289
     1
 69
     0
  7
STANDARD
140
4.5
170
     5
 62
     0
 63
     7
283
     0
 90
      512
 91
        0
  1

274
    -2
284
     1
 64
     0
275
    -2
285
     1
 65
     0
276
    -2
286
     1
 66
     0
277
    -2
287
     1
 67
     0
278
    -2
288
     1
 68
     0
279
    -2
289
     1
 69
     0
  0
VBA_PROJECT
  5
13F36
102
{ACAD_REACTORS
330
13F35
102
}
330
13F35
100
AcDbVbaProject
 90
     7168
310
D0CF11E0A1B11AE1000000000000000000000000000000003E000300FEFF0900060000000000000000000000010000000100000000000000001000000200000001000000FEFFFFFF0000000000000000FFFFFFFFFFFFFFFFFFFFFFFFFFFFFFFFFFFFFFFFFFFFFFFFFFFFFFFFFFFFFFFFFFFFFFFFFFFFFFFFFFFFFFFFFFFFFF
310
FFFFFFFFFFFFFFFFFFFFFFFFFFFFFFFFFFFFFFFFFFFFFFFFFFFFFFFFFFFFFFFFFFFFFFFFFFFFFFFFFFFFFFFFFFFFFFFFFFFFFFFFFFFFFFFFFFFFFFFFFFFFFFFFFFFFFFFFFFFFFFFFFFFFFFFFFFFFFFFFFFFFFFFFFFFFFFFFFFFFFFFFFFFFFFFFFFFFFFFFFFFFFFFFFFFFFFFFFFFFFFFFFFFFFFFFFFFFFFFFFFFFFFFFFFFFFF
310
FFFFFFFFFFFFFFFFFFFFFFFFFFFFFFFFFFFFFFFFFFFFFFFFFFFFFFFFFFFFFFFFFFFFFFFFFFFFFFFFFFFFFFFFFFFFFFFFFFFFFFFFFFFFFFFFFFFFFFFFFFFFFFFFFFFFFFFFFFFFFFFFFFFFFFFFFFFFFFFFFFFFFFFFFFFFFFFFFFFFFFFFFFFFFFFFFFFFFFFFFFFFFFFFFFFFFFFFFFFFFFFFFFFFFFFFFFFFFFFFFFFFFFFFFFFFFF
310
FFFFFFFFFFFFFFFFFFFFFFFFFFFFFFFFFFFFFFFFFFFFFFFFFFFFFFFFFFFFFFFFFFFFFFFFFFFFFFFFFFFFFFFFFFFFFFFFFFFFFFFFFFFFFFFFFFFFFFFFFFFFFFFFFFFFFFFFFFFFFFFFFFFFFFFFFFFFFFFFFFFFFFFFFFFFFFFFFFFFFFFFFFFFFFFFFFFFFFFFFFFFFFFFFFFFFFFFFFFFFFFFFFFFFFFFFFFFFFFFFFFFFFFFFFFFFF
310
FFFFFFFFFDFFFFFF04000000FEFFFFFF050000000C000000060000000700000008000000090000000A0000000B000000FEFFFFFFFEFFFFFFFFFFFFFFFFFFFFFFFFFFFFFFFFFFFFFFFFFFFFFFFFFFFFFFFFFFFFFFFFFFFFFFFFFFFFFFFFFFFFFFFFFFFFFFFFFFFFFFFFFFFFFFFFFFFFFFFFFFFFFFFFFFFFFFFFFFFFFFFFFFFF
310
FFFFFFFFFFFFFFFFFFFFFFFFFFFFFFFFFFFFFFFFFFFFFFFFFFFFFFFFFFFFFFFFFFFFFFFFFFFFFFFFFFFFFFFFFFFFFFFFFFFFFFFFFFFFFFFFFFFFFFFFFFFFFFFFFFFFFFFFFFFFFFFFFFFFFFFFFFFFFFFFFFFFFFFFFFFFFFFFFFFFFFFFFFFFFFFFFFFFFFFFFFFFFFFFFFFFFFFFFFFFFFFFFFFFFFFFFFFFFFFFFFFFFFFFFFFFFF
310
FFFFFFFFFFFFFFFFFFFFFFFFFFFFFFFFFFFFFFFFFFFFFFFFFFFFFFFFFFFFFFFFFFFFFFFFFFFFFFFFFFFFFFFFFFFFFFFFFFFFFFFFFFFFFFFFFFFFFFFFFFFFFFFFFFFFFFFFFFFFFFFFFFFFFFFFFFFFFFFFFFFFFFFFFFFFFFFFFFFFFFFFFFFFFFFFFFFFFFFFFFFFFFFFFFFFFFFFFFFFFFFFFFFFFFFFFFFFFFFFFFFFFFFFFFFFFF
310
FFFFFFFFFFFFFFFFFFFFFFFFFFFFFFFFFFFFFFFFFFFFFFFFFFFFFFFFFFFFFFFFFFFFFFFFFFFFFFFFFFFFFFFFFFFFFFFFFFFFFFFFFFFFFFFFFFFFFFFFFFFFFFFFFFFFFFFFFFFFFFFFFFFFFFFFFFFFFFFFFFFFFFFFFFFFFFFFFFFFFFFFFFFFFFFFFFFFFFFFFFFFFFFFFFFFFFFFFFFFFFFFFFFFFFFFFFFFFFFFFFFFFFFFFFFFFF
310
FFFFFFFFFFFFFFFF52006F006F007400200045006E00740072007900000000000000000000000000000000000000000000000000000000000000000000000000000000000000000016000500FFFFFFFFFFFFFFFF010000000000000000000000000000000000000000000000000000000000000060489E689071D401030000
310
00800E0000000000005600420041005F00500072006F006A0065006300740000000000000000000000000000000000000000000000000000000000000000000000000000000000000018000101FFFFFFFF0800000006000000000000000000000000000000000000000000000060489E689071D40160489E689071D4010000
310
000000000000000000005600420041000000000000000000000000000000000000000000000000000000000000000000000000000000000000000000000000000000000000000000000008000100FFFFFFFFFFFFFFFF04000000000000000000000000000000000000000000000060489E689071D40160489E689071D40100
310
00000000000000000000006400690072000000000000000000000000000000000000000000000000000000000000000000000000000000000000000000000000000000000000000000000008000200FFFFFFFFFFFFFFFFFFFFFFFF000000000000000000000000000000000000000000000000000000000000000000000000
310
000000003C0100000000000001000000020000000300000004000000FEFFFFFF060000000700000008000000090000000A0000000B0000000C0000000D0000000E0000000F0000001000000011000000120000001300000014000000FEFFFFFF160000001700000018000000190000001A0000001B0000001C0000001D0000
310
001E0000001F000000200000002100000022000000230000002400000025000000260000002700000028000000290000002A0000002B0000002C0000002D0000002E0000002F0000003000000031000000FEFFFFFF3300000034000000350000003600000037000000FEFFFFFFFEFFFFFFFEFFFFFFFFFFFFFFFFFFFFFFFFFF
310
FFFFFFFFFFFFFFFFFFFFFFFFFFFFFFFFFFFFFFFFFFFFFFFFFFFFFFFFFFFFFFFFFFFFFFFFFFFFFFFFFFFFFFFFFFFFFFFFFFFFFFFFFFFFFFFFFFFFFFFFFFFFFFFFFFFFFFFFFFFFFFFFFFFFFFFFFFFFFFFFFFFFFFFFFFFFFFFFFFFFFFFFFFFFFFFFFFFFFFFFFFFFFFFFFFFFFFFFFFFFFFFFFFFFFFFFFFFFFFFFFFFFFFFFFFFFFF
310
FFFFFFFFFFFFFFFFFFFFFFFFFFFFFFFFFFFFFFFFFFFFFFFFFFFFFFFFFFFFFFFFFFFFFFFFFFFFFFFFFFFFFFFFFFFFFFFFFFFFFFFFFFFFFFFFFFFFFFFFFFFFFFFFFFFFFFFFFFFFFFFFFFFFFFFFFFFFFFFFFFFFFFFFFFFFFFFFFFFFFFFFFFFFFFFFFFFFFFFFFFFFFFFFFFFFFFFFFFFFFFFFFFFFFFFFFFFFFFFFFFFFFFFFFFFFFF
310
FFFFFFFFFFFFFFFFFFFFFFFFFFFFFFFF0138B1800100040000000100302A020290090070140648030082020064A80304000B001C004143414450726F6A10656374050038000040D5021406020A3D020A07027401140A080612090212AB6534582803000C024A3C020A16000101727374646F6C653E0102197300740064006F
310
00006C0065000D00680500255E00032A5C477B3000303032303433302D3B0008040443000A020E011230300034367D23322E3023003023433A5C57696E00646F77735C53797340574F5736345C036532002E746C62234F4C4500204175746F6D617458696F6E003000010F02740144001382035E6619027854006869734472
310
617769A06E67470016001354004A006900730044007200006100770069006E00A867001A0D163218161C002328000048820231828C25035800001E8204010A2C8240C654462282102B8202108202000000000116010000F0000000C4020000D400000000020000FFFFFFFFCB0200001F03000000000000010000005E66C646
310
0000FFFF2300000088000000B600FFFF010100000000FFFFFFFF00000000FFFFFFFFFFFF00000000000000000000000000000000000000000000000000000000000000000000000000000000000000000000000000000000000010000000030000000500000007000000FFFFFFFFFFFFFFFF010108000000FFFFFFFF780000
310
00080000000000000000000000000000000000005400680069007300440072006100770069006E006700000000000000000000000000000000000000000000000000000000000000000000000000000000000000180002010300000005000000FFFFFFFF000000000000000000000000000000000000000000000000000000
310
00000000000000000005000000E5030000000000005F005600420041005F00500052004F004A00450043005400000000000000000000000000000000000000000000000000000000000000000000000000000000001A000200FFFFFFFFFFFFFFFFFFFFFFFF0000000000000000000000000000000000000000000000000000
310
00000000000000000000150000002C07000000000000500052004F004A004500430054000000000000000000000000000000000000000000000000000000000000000000000000000000000000000000000000000000100002010200000007000000FFFFFFFF00000000000000000000000000000000000000000000000000
310
0000000000000000000000320000004501000000000000500052004F004A0045004300540077006D000000000000000000000000000000000000000000000000000000000000000000000000000000000000000000000014000200FFFFFFFFFFFFFFFFFFFFFFFF000000000000000000000000000000000000000000000000
310
0000000000000000000000003800000026000000000000000000000000000000000000000000FFFF000000004D450000FFFFFFFFFFFF00000000FFFF00000000FFFF010100000000DF00FFFF000000000C00FFFFFFFFFFFFFFFFFFFFFFFFFFFFFFFFFFFFFFFFFFFFFFFFFFFFFFFFFFFFFFFFFFFFFFFFFFFFFFFFFFFFFFFFFF
310
FFFFFFFFFFFFFFFFFFFFFFFFFFFFFFFFFFFFFFFFFFFFFFFFFFFFFFFFFFFFFFFFFFFFFFFFFFFFFFFFFFFFFFFFFFFFFFFFFFFFFFFFFFFFFFFFFFFFFFFFFFFFFFFFFFFFFFFFFFFFFFFFFFFFFFFFFFFFFFFFFFFFFF280000000200534CFFFFFFFF000001005310FFFFFFFF000001005394FFFFFFFF00000000023CFFFFFFFF0000
310
FFFF01010000000001004E0030007B00370041004100420042004200390035002D0037003900420045002D0034004300300046002D0038003000320034002D004500420036004100460032003700310032003300310043007D0000000000FFFFFFFF0101380000000280FEFFFFFFFFFF1000FFFF280000000201FFFF000000
310
0000000000FFFFFFFFFFFFFFFF000000001D00000025000000FFFFFFFF480000000000FFFF000001000000000000000000FFFFFFFFFFFFFFFFFFFFFFFF00000000FFFFFFFFFFFFFFFFFFFFFFFFFFFFFFFFFFFFFFFF00000000FFFFFFFFFFFFFFFFFFFFFFFFFFFFFFFFFFFFFFFF0000000000000000FFFFFFFFFFFFFFFF0000
310
0000FFFFFFFFFFFFFFFFFFFFFFFFFFFFFFFFFFFFFFFFFFFFFFFFFFFFFFFFFFFF000000000000DF000000000000000000000000000000000000000000000000000000000000000000000000000000000000000000000000000000000000000000000000FECA01000000FFFFFFFF010108000000FFFFFFFF78000000FFFFFFFF
310
000001BCB000417474726962757400652056425F4E616D0065203D2022546869007344726177696E6788220D0A0A88426173028800307B3741414242420039352D373942452D00344330462D38303200342D454236414632803731323331437D0D7C40476C6F62616C01CE5308706163019246616C7302650C644372656174
310
6104626C151F507265646548636C610006496400B0540472750D424578706F730265141C54656D706C61807465446572697602120192427573746F6D697A0304440332000000000000000000000000000000000000000000000000000000CC616D00000100FF0408000009040000A803010000000000000000000100030002
310
00FA002A005C0047007B00300030003000320030003400450046002D0030003000300030002D0030003000300030002D0043003000300030002D003000300030003000300030003000300030003000340036007D00230034002E00300023003900230043003A005C00500052004F004700520041007E0032005C0043004F00
310
4D004D004F004E007E0031005C004D004900430052004F0053007E0031005C005600420041005C0056004200410036005C0056004200450036002E0044004C004C002300560069007300750061006C00200042006100730069006300200046006F00720020004100700070006C00690063006100740069006F006E00730000
310
000000000000000000000016012A005C0047007B00380035003100410034003500360031002D0046003400450043002D0034003600330031002D0039004200300043002D004500370044004300340030003700350031003200430039007D00230031002E00300023003000230043003A005C00500072006F00670072006100
310
6D002000460069006C00650073002000280078003800360029005C0043006F006D006D006F006E002000460069006C00650073005C004100750074006F006400650073006B0020005300680061007200650064005C0061006300610078003100370065006E0075002E0074006C00620023004100750074006F004300410044
310
00200032003000300038002000540079007000650020004C00690062007200610072007900000000000000000000000000BC002A005C0047007B00300030003000320030003400330030002D0030003000300030002D0030003000300030002D0043003000300030002D003000300030003000300030003000300030003000
310
340036007D00230032002E00300023003000230043003A005C00570069006E0064006F00770073005C0053007900730057004F005700360034005C007300740064006F006C00650032002E0074006C00620023004F004C00450020004100750074006F006D006100740069006F006E00000000000000000000000000010002
310
0004000402000006020100080200000A0201000C02FFFFFFFFFFFF00000000FFFF0000AB6534580300FFFFFFFFFFFFFFFFFFFFFFFFFFFFFFFFFFFFFFFFFFFFFFFFFFFFFFFFFFFFFFFFFFFFFFFFFFFFFFFFFFFF0000FFFFFFFFFFFFFFFFFFFFFFFFFFFFFFFFFFFFFFFF01000000000000000000000000000000000000005E66
310
010016005400680069007300440072006100770069006E00670014003000310035006400620038003000330035003800FFFF110216005400680069007300440072006100770069006E006700FFFFC646000000000000000200000025030000FFFFFFFFFFFF010120020000FFFFFFFFFFFFFFFFFFFFFFFFFFFFFFFFFFFFFFFF
310
FFFFFFFFFFFFFFFFFFFFFFFFFFFFFFFFFFFFFFFFFFFFFFFFFFFFFFFFFFFFFFFFFFFFFFFFFFFFFFFFFFFFFFFFFFFFFFFFFFFFFFFFFFFFFFFFFFFFFFFFFFFFFFFFFFFFFFFFFFFFFFFFFFFFFFFFFFFFFFFFFFFFFFFFFFFFFFFFFFFFFFFFFFFFFFFFFFFFFFFFFFFFFFFFFFFFFFFFFFFFFFFFFFFFFFFFFFFFFFFFFFFFFFFFFFFFFF
310
FFFFFFFFFFFFFFFFFFFFFFFFFFFFFFFFFFFFFFFFFFFFFFFFFF00020000FFFFFFFFFFFFFFFFFFFFFFFFFFFFFFFFFFFFFFFFFFFFFFFFFFFFFFFFFFFFFFFFFFFFFFFFFFFFFFFFFFFFFFFFFFFFFFFFFFFFFFFFFFFFFFFFFFFFFFFFFFFFFFFFFFFFFFFFFFFFFFFFFFFFFFFFFFFFFFFFFFFFFFFFFFFFFFFFFFFFFFFFFFFFFFFFFFFF
310
FFFFFFFFFFFFFFFFFFFFFFFFFFFFFFFFFFFFFFFFFFFFFFFFFFFFFFFFFFFFFFFFFFFFFFFFFFFFFFFFFFFFFFFFFFFFFFFFFFFFFFFFFFFFFFFFFFFFFFFFFFFFFFFFFFFFFFFFFFFFFFFFFFFFFFFFFFFFFFFFFFFFFFFFFFFFFFFFFFFFFFFFFFFFFFFFFFFFFFFFFFFFFFFFFFFFFFFFFFFFFFFFFFFFFFFFFFFFFFFFFFFFFFFFFFFFFF
310
FFFFFFFFFFFFFFFFFFFFFFFFFFFFFFFFFFFFFFFFFFFFFFFFFFFFFFFFFFFFFFFFFFFFFFFFFFFFFFFFFFFFFFFFFFFFFFFFFFFFFFFFFFFFFFFFFFFFFFFFFFFFFFFFFFFFFFFFFFFFFFFFFFFFFFFFFFFFFFFFFFFFFFFFFFFFFFFFFFFFFFFFFFFFFFFFFFFFFFFFFFFFFFFFFFFFFFFFFFFFFFAD36B3F65E20D54FABF4588AB1CF7CDB
310
FFFFFFFF01000000FFFFFFFF600000008000000000000A010B00FF006025000007044175746F43414422F860000304564241F7E26000050457696E3136C17E6000050457696E3332077F600003044D6163B3B26000040456424136AD2360000B044143414450726F6A656374A6D4600006007374646F6C65936060000B0454
310
68697344726177696E67B935600009800000FF03FFFF5F4576616C7561746518D960000C0441636164446F63756D656E741B5A600002FFFF01013C000000FFFFFFFFFFFFFFFFFFFFFFFF0C02FFFFFFFF0E020200FFFF110200000400FFFFFFFFFFFF00020100FFFF02020000FFFFFFFFFFFFFFFFFFFFFFFFFFFF04000A0000
310
00010012000000000000000000000000000000000000000000000000000000000000000000000000000000000049443D227B38334446343830462D344546442D344335442D413545352D4138424330363634383235307D220D0A446F63756D656E743D5468697344726177696E672F264830303030303030300D0A4E616D65
310
3D224143414450726F6A656374220D0A48656C70436F6E7465787449443D2230220D0A56657273696F6E436F6D70617469626C6533323D22333933323232303030220D0A434D473D2238363834383537323846393238303936383039363830393638303936220D0A4450423D22374237393738383936433841364338413643
310
220D0A47433D2237303732373337343734373437343842220D0A0D0A5B486F737420457874656E64657220496E666F5D0D0A264830303030303030313D7B33383332443634302D434639302D313143462D384534332D3030413043393131303035417D3B5642453B264830303030303030300D0A0000000000000000000000
310
0000000000000000000000000000000000000000000000000000000000000000000000000000000000000000000000005468697344726177696E67005400680069007300440072006100770069006E006700000000000000000000000000000000000000000000000000000000000000100000000300000004000000610063
310
00000000000000000000000000000000000000000000000000000000000000000000000000000000000000000000000000000000000000000000000000000000000000000000000000000000000000000000000000000000000000000000000000000000000000000000000000000000000000000000000000000000000000
310
00000000000000000000000000000000000000000000000000000000000000000000000000000000000000000000000000000000000000000000000000000000000000000000000000000000000000000000000000000000000000000000000000000000000000000000000000000000000000000000000000000000000000
310
00000000000000000000000000000000000000000000000000000000000000000000000000000000000000000000000000000000000000000000000000000000000000000000000000000000000000000000000000000000000000000000000000000000000000000000000000000000000000000000000000000000000000
310
000000000000000000000000000000000000000000000000000000000000000000000000000000000000000000000000000000005600420041005F00500072006F006A006500630074005F00560065007200730069006F006E00000000000000000000000000000000000000000000000000000028000200FFFFFFFFFFFFFF
310
FFFFFFFFFF0000000000000000000000000000000000000000000000000000000000000000000000003900000010000000000000000000000000000000000000000000000000000000000000000000000000000000000000000000000000000000000000000000000000000000000000000000000000000000FFFFFFFFFFFF
310
FFFFFFFFFFFF0000000000000000000000000000000000000000000000000000000000000000000000000000000000000000000000000000000000000000000000000000000000000000000000000000000000000000000000000000000000000000000000000000000000000000000000000000000000000000FFFFFFFFFF
310
FFFFFFFFFFFFFF0000000000000000000000000000000000000000000000000000000000000000000000000000000000000000000000000000000000000000000000000000000000000000000000000000000000000000000000000000000000000000000000000000000000000000000000000000000000000000FFFFFFFF
310
FFFFFFFFFFFFFFFF000000000000000000000000000000000000000000000000000000000000000000000000000000000000000000000000
  0
VISUALSTYLE
  5
12D3E
102
{ACAD_REACTORS
330
12D38
102
}
330
12D38
100
AcDbVisualStyle
  2
2dWireframe
 70
     4
 71
     0
 72
     2
 73
     0
 90
        0
 40
-0.6
 41
-30.0
 62
     5
 63
     7
 74
     1
 91
        4
 64
     7
 65
   257
 75
     1
175
     1
 42
1.0
 92
        0
 66
   257
 43
1.0
 76
     1
 77
     6
 78
     2
 67
     7
 79
     5
170
     0
171
     0
290
     0
174
     0
 93
        1
 44
0.0
173
     0
291
     0
 45
0.0
1001
ACAD
1000
AcDbSavedByObjectVersion
1070
     0
1000
AcDbSavedByObjectVersion
1070
     0
1000
AcDbSavedByObjectVersion
1070
     0
1000
AcDbSavedByObjectVersion
1070
     0
1000
AcDbSavedByObjectVersion
1070
     0
1000
AcDbSavedByObjectVersion
1070
     0
1000
AcDbSavedByObjectVersion
1070
     0
1000
AcDbSavedByObjectVersion
1070
     0
1000
AcDbSavedByObjectVersion
1070
     0
1000
AcDbSavedByObjectVersion
1070
     0
1000
AcDbSavedByObjectVersion
1070
     0
1000
AcDbSavedByObjectVersion
1070
     0
1000
AcDbSavedByObjectVersion
1070
     0
1000
AcDbSavedByObjectVersion
1070
     0
1000
AcDbSavedByObjectVersion
1070
     0
1000
AcDbSavedByObjectVersion
1070
     0
1000
AcDbSavedByObjectVersion
1070
     0
1000
AcDbSavedByObjectVersion
1070
     0
1000
AcDbSavedByObjectVersion
1070
     0
1000
AcDbSavedByObjectVersion
1070
     0
1000
AcDbSavedByObjectVersion
1070
     0
1000
AcDbSavedByObjectVersion
1070
     0
1000
AcDbSavedByObjectVersion
1070
     0
  0
VISUALSTYLE
  5
12D40
102
{ACAD_REACTORS
330
12D38
102
}
330
12D38
100
AcDbVisualStyle
  2
3D Hidden
 70
     6
 71
     1
 72
     2
 73
     2
 90
        0
 40
-0.6
 41
-30.0
 62
     5
 63
     7
 74
     2
 91
        2
 64
     7
 65
   257
 75
     2
175
     1
 42
40.0
 92
        0
 66
   257
 43
1.0
 76
     1
 77
     6
 78
     2
 67
     7
 79
     3
170
     0
171
     0
290
     0
174
     0
 93
        1
 44
0.0
173
     0
291
     0
 45
0.0
1001
ACAD
1000
AcDbSavedByObjectVersion
1070
     0
1000
AcDbSavedByObjectVersion
1070
     0
1000
AcDbSavedByObjectVersion
1070
     0
1000
AcDbSavedByObjectVersion
1070
     0
1000
AcDbSavedByObjectVersion
1070
     0
1000
AcDbSavedByObjectVersion
1070
     0
1000
AcDbSavedByObjectVersion
1070
     0
1000
AcDbSavedByObjectVersion
1070
     0
1000
AcDbSavedByObjectVersion
1070
     0
1000
AcDbSavedByObjectVersion
1070
     0
1000
AcDbSavedByObjectVersion
1070
     0
1000
AcDbSavedByObjectVersion
1070
     0
1000
AcDbSavedByObjectVersion
1070
     0
1000
AcDbSavedByObjectVersion
1070
     0
1000
AcDbSavedByObjectVersion
1070
     0
1000
AcDbSavedByObjectVersion
1070
     0
1000
AcDbSavedByObjectVersion
1070
     0
1000
AcDbSavedByObjectVersion
1070
     0
1000
AcDbSavedByObjectVersion
1070
     0
1000
AcDbSavedByObjectVersion
1070
     0
1000
AcDbSavedByObjectVersion
1070
     0
1000
AcDbSavedByObjectVersion
1070
     0
1000
AcDbSavedByObjectVersion
1070
     0
  0
VISUALSTYLE
  5
12D3F
102
{ACAD_REACTORS
330
12D38
102
}
330
12D38
100
AcDbVisualStyle
  2
3dWireframe
 70
     5
 71
     0
 72
     2
 73
     0
 90
        0
 40
-0.6
 41
-30.0
 62
     5
 63
     7
 74
     1
 91
        4
 64
     7
 65
   257
 75
     1
175
     1
 42
1.0
 92
        0
 66
   257
 43
1.0
 76
     1
 77
     6
 78
     2
 67
     7
 79
     5
170
     0
171
     0
290
     0
174
     0
 93
        1
 44
0.0
173
     0
291
     0
 45
0.0
1001
ACAD
1000
AcDbSavedByObjectVersion
1070
     0
1000
AcDbSavedByObjectVersion
1070
     0
1000
AcDbSavedByObjectVersion
1070
     0
1000
AcDbSavedByObjectVersion
1070
     0
1000
AcDbSavedByObjectVersion
1070
     0
1000
AcDbSavedByObjectVersion
1070
     0
1000
AcDbSavedByObjectVersion
1070
     0
1000
AcDbSavedByObjectVersion
1070
     0
1000
AcDbSavedByObjectVersion
1070
     0
1000
AcDbSavedByObjectVersion
1070
     0
1000
AcDbSavedByObjectVersion
1070
     0
1000
AcDbSavedByObjectVersion
1070
     0
1000
AcDbSavedByObjectVersion
1070
     0
1000
AcDbSavedByObjectVersion
1070
     0
1000
AcDbSavedByObjectVersion
1070
     0
1000
AcDbSavedByObjectVersion
1070
     0
1000
AcDbSavedByObjectVersion
1070
     0
1000
AcDbSavedByObjectVersion
1070
     0
1000
AcDbSavedByObjectVersion
1070
     0
1000
AcDbSavedByObjectVersion
1070
     0
1000
AcDbSavedByObjectVersion
1070
     0
1000
AcDbSavedByObjectVersion
1070
     0
1000
AcDbSavedByObjectVersion
1070
     0
  0
VISUALSTYLE
  5
12D3D
102
{ACAD_REACTORS
330
12D38
102
}
330
12D38
100
AcDbVisualStyle
  2
Basic
 70
     7
 71
     1
 72
     0
 73
     1
 90
        0
 40
-0.6
 41
-30.0
 62
     5
 63
     7
 74
     0
 91
        4
 64
     7
 65
   257
 75
     1
175
     1
 42
1.0
 92
        8
 66
     7
 43
1.0
 76
     1
 77
     6
 78
     2
 67
     7
 79
     5
170
     0
171
     0
290
     0
174
     0
 93
        1
 44
0.0
173
     0
291
     1
 45
0.0
1001
ACAD
1000
AcDbSavedByObjectVersion
1070
     0
1000
AcDbSavedByObjectVersion
1070
     0
1000
AcDbSavedByObjectVersion
1070
     0
1000
AcDbSavedByObjectVersion
1070
     0
1000
AcDbSavedByObjectVersion
1070
     0
1000
AcDbSavedByObjectVersion
1070
     0
1000
AcDbSavedByObjectVersion
1070
     0
1000
AcDbSavedByObjectVersion
1070
     0
1000
AcDbSavedByObjectVersion
1070
     0
1000
AcDbSavedByObjectVersion
1070
     0
1000
AcDbSavedByObjectVersion
1070
     0
1000
AcDbSavedByObjectVersion
1070
     0
1000
AcDbSavedByObjectVersion
1070
     0
1000
AcDbSavedByObjectVersion
1070
     0
1000
AcDbSavedByObjectVersion
1070
     0
1000
AcDbSavedByObjectVersion
1070
     0
1000
AcDbSavedByObjectVersion
1070
     0
1000
AcDbSavedByObjectVersion
1070
     0
1000
AcDbSavedByObjectVersion
1070
     0
1000
AcDbSavedByObjectVersion
1070
     0
1000
AcDbSavedByObjectVersion
1070
     0
1000
AcDbSavedByObjectVersion
1070
     0
1000
AcDbSavedByObjectVersion
1070
     0
  0
VISUALSTYLE
  5
12D44
102
{ACAD_REACTORS
330
12D38
102
}
330
12D38
100
AcDbVisualStyle
  2
Brighten
 70
    12
 71
     2
 72
     2
 73
     0
 90
        0
 40
-0.6
 41
-30.0
 62
     5
 63
     7
 74
     1
 91
        4
 64
     7
 65
   257
 75
     1
175
     1
 42
1.0
 92
        8
 66
     7
 43
1.0
 76
     1
 77
     6
 78
     2
 67
     7
 79
     5
170
     0
171
     0
290
     0
174
     0
 93
        1
 44
50.0
173
     0
291
     1
 45
0.0
1001
ACAD
1000
AcDbSavedByObjectVersion
1070
     0
1000
AcDbSavedByObjectVersion
1070
     0
1000
AcDbSavedByObjectVersion
1070
     0
1000
AcDbSavedByObjectVersion
1070
     0
1000
AcDbSavedByObjectVersion
1070
     0
1000
AcDbSavedByObjectVersion
1070
     0
1000
AcDbSavedByObjectVersion
1070
     0
1000
AcDbSavedByObjectVersion
1070
     0
1000
AcDbSavedByObjectVersion
1070
     0
1000
AcDbSavedByObjectVersion
1070
     0
1000
AcDbSavedByObjectVersion
1070
     0
1000
AcDbSavedByObjectVersion
1070
     0
1000
AcDbSavedByObjectVersion
1070
     0
1000
AcDbSavedByObjectVersion
1070
     0
1000
AcDbSavedByObjectVersion
1070
     0
1000
AcDbSavedByObjectVersion
1070
     0
1000
AcDbSavedByObjectVersion
1070
     0
1000
AcDbSavedByObjectVersion
1070
     0
1000
AcDbSavedByObjectVersion
1070
     0
1000
AcDbSavedByObjectVersion
1070
     0
1000
AcDbSavedByObjectVersion
1070
     0
1000
AcDbSavedByObjectVersion
1070
     0
1000
AcDbSavedByObjectVersion
1070
     0
  0
VISUALSTYLE
  5
12D48
102
{ACAD_REACTORS
330
12D38
102
}
330
12D38
100
AcDbVisualStyle
  2
ColorChange
 70
    16
 71
     2
 72
     2
 73
     3
 90
        0
 40
-0.6
 41
-30.0
 62
     5
 63
     8
 74
     1
 91
        4
 64
     7
 65
   257
 75
     1
175
     1
 42
1.0
 92
        8
 66
     8
 43
1.0
 76
     1
 77
     6
 78
     2
 67
     7
 79
     5
170
     0
171
     0
290
     0
174
     0
 93
        1
 44
0.0
173
     0
291
     1
 45
0.0
1001
ACAD
1000
AcDbSavedByObjectVersion
1070
     0
1000
AcDbSavedByObjectVersion
1070
     0
1000
AcDbSavedByObjectVersion
1070
     0
1000
AcDbSavedByObjectVersion
1070
     0
1000
AcDbSavedByObjectVersion
1070
     0
1000
AcDbSavedByObjectVersion
1070
     0
1000
AcDbSavedByObjectVersion
1070
     0
1000
AcDbSavedByObjectVersion
1070
     0
1000
AcDbSavedByObjectVersion
1070
     0
1000
AcDbSavedByObjectVersion
1070
     0
1000
AcDbSavedByObjectVersion
1070
     0
1000
AcDbSavedByObjectVersion
1070
     0
1000
AcDbSavedByObjectVersion
1070
     0
1000
AcDbSavedByObjectVersion
1070
     0
1000
AcDbSavedByObjectVersion
1070
     0
1000
AcDbSavedByObjectVersion
1070
     0
1000
AcDbSavedByObjectVersion
1070
     0
1000
AcDbSavedByObjectVersion
1070
     0
1000
AcDbSavedByObjectVersion
1070
     0
1000
AcDbSavedByObjectVersion
1070
     0
1000
AcDbSavedByObjectVersion
1070
     0
1000
AcDbSavedByObjectVersion
1070
     0
1000
AcDbSavedByObjectVersion
1070
     0
  0
VISUALSTYLE
  5
12D41
102
{ACAD_REACTORS
330
12D38
102
}
330
12D38
100
AcDbVisualStyle
  2
Conceptual
 70
     9
 71
     3
 72
     2
 73
     0
 90
        0
 40
-0.6
 41
-30.0
 62
     5
 63
     7
 74
     2
 91
        2
 64
     7
 65
   257
 75
     1
175
     1
 42
40.0
 92
        8
 66
     7
 43
1.0
 76
     1
 77
     6
 78
     2
 67
     7
 79
     3
170
     0
171
     0
290
     0
174
     0
 93
        1
 44
0.0
173
     0
291
     0
 45
0.0
1001
ACAD
1000
AcDbSavedByObjectVersion
1070
     0
1000
AcDbSavedByObjectVersion
1070
     0
1000
AcDbSavedByObjectVersion
1070
     0
1000
AcDbSavedByObjectVersion
1070
     0
1000
AcDbSavedByObjectVersion
1070
     0
1000
AcDbSavedByObjectVersion
1070
     0
1000
AcDbSavedByObjectVersion
1070
     0
1000
AcDbSavedByObjectVersion
1070
     0
1000
AcDbSavedByObjectVersion
1070
     0
1000
AcDbSavedByObjectVersion
1070
     0
1000
AcDbSavedByObjectVersion
1070
     0
1000
AcDbSavedByObjectVersion
1070
     0
1000
AcDbSavedByObjectVersion
1070
     0
1000
AcDbSavedByObjectVersion
1070
     0
1000
AcDbSavedByObjectVersion
1070
     0
1000
AcDbSavedByObjectVersion
1070
     0
1000
AcDbSavedByObjectVersion
1070
     0
1000
AcDbSavedByObjectVersion
1070
     0
1000
AcDbSavedByObjectVersion
1070
     0
1000
AcDbSavedByObjectVersion
1070
     0
1000
AcDbSavedByObjectVersion
1070
     0
1000
AcDbSavedByObjectVersion
1070
     0
1000
AcDbSavedByObjectVersion
1070
     0
  0
VISUALSTYLE
  5
12D43
102
{ACAD_REACTORS
330
12D38
102
}
330
12D38
100
AcDbVisualStyle
  2
Dim
 70
    11
 71
     2
 72
     2
 73
     0
 90
        0
 40
-0.6
 41
-30.0
 62
     5
 63
     7
 74
     1
 91
        4
 64
     7
 65
   257
 75
     1
175
     1
 42
1.0
 92
        8
 66
     7
 43
1.0
 76
     1
 77
     6
 78
     2
 67
     7
 79
     5
170
     0
171
     0
290
     0
174
     0
 93
        1
 44
-50.0
173
     0
291
     1
 45
0.0
1001
ACAD
1000
AcDbSavedByObjectVersion
1070
     0
1000
AcDbSavedByObjectVersion
1070
     0
1000
AcDbSavedByObjectVersion
1070
     0
1000
AcDbSavedByObjectVersion
1070
     0
1000
AcDbSavedByObjectVersion
1070
     0
1000
AcDbSavedByObjectVersion
1070
     0
1000
AcDbSavedByObjectVersion
1070
     0
1000
AcDbSavedByObjectVersion
1070
     0
1000
AcDbSavedByObjectVersion
1070
     0
1000
AcDbSavedByObjectVersion
1070
     0
1000
AcDbSavedByObjectVersion
1070
     0
1000
AcDbSavedByObjectVersion
1070
     0
1000
AcDbSavedByObjectVersion
1070
     0
1000
AcDbSavedByObjectVersion
1070
     0
1000
AcDbSavedByObjectVersion
1070
     0
1000
AcDbSavedByObjectVersion
1070
     0
1000
AcDbSavedByObjectVersion
1070
     0
1000
AcDbSavedByObjectVersion
1070
     0
1000
AcDbSavedByObjectVersion
1070
     0
1000
AcDbSavedByObjectVersion
1070
     0
1000
AcDbSavedByObjectVersion
1070
     0
1000
AcDbSavedByObjectVersion
1070
     0
1000
AcDbSavedByObjectVersion
1070
     0
  0
VISUALSTYLE
  5
12D47
102
{ACAD_REACTORS
330
12D38
102
}
330
12D38
100
AcDbVisualStyle
  2
Facepattern
 70
    15
 71
     2
 72
     2
 73
     0
 90
        0
 40
-0.6
 41
-30.0
 62
     5
 63
     7
 74
     1
 91
        4
 64
     7
 65
   257
 75
     1
175
     1
 42
1.0
 92
        8
 66
     7
 43
1.0
 76
     1
 77
     6
 78
     2
 67
     7
 79
     5
170
     0
171
     0
290
     0
174
     0
 93
        1
 44
0.0
173
     0
291
     1
 45
0.0
1001
ACAD
1000
AcDbSavedByObjectVersion
1070
     0
1000
AcDbSavedByObjectVersion
1070
     0
1000
AcDbSavedByObjectVersion
1070
     0
1000
AcDbSavedByObjectVersion
1070
     0
1000
AcDbSavedByObjectVersion
1070
     0
1000
AcDbSavedByObjectVersion
1070
     0
1000
AcDbSavedByObjectVersion
1070
     0
1000
AcDbSavedByObjectVersion
1070
     0
1000
AcDbSavedByObjectVersion
1070
     0
1000
AcDbSavedByObjectVersion
1070
     0
1000
AcDbSavedByObjectVersion
1070
     0
1000
AcDbSavedByObjectVersion
1070
     0
1000
AcDbSavedByObjectVersion
1070
     0
1000
AcDbSavedByObjectVersion
1070
     0
1000
AcDbSavedByObjectVersion
1070
     0
1000
AcDbSavedByObjectVersion
1070
     0
1000
AcDbSavedByObjectVersion
1070
     0
1000
AcDbSavedByObjectVersion
1070
     0
1000
AcDbSavedByObjectVersion
1070
     0
1000
AcDbSavedByObjectVersion
1070
     0
1000
AcDbSavedByObjectVersion
1070
     0
1000
AcDbSavedByObjectVersion
1070
     0
1000
AcDbSavedByObjectVersion
1070
     0
  0
VISUALSTYLE
  5
12D39
102
{ACAD_REACTORS
330
12D38
102
}
330
12D38
100
AcDbVisualStyle
  2
Flat
 70
     0
 71
     2
 72
     1
 73
     1
 90
        2
 40
-0.6
 41
30.0
 62
     5
 63
     7
 74
     0
 91
        4
 64
     7
 65
   257
 75
     1
175
     1
 42
1.0
 92
        8
 66
     7
 43
1.0
 76
     1
 77
     6
 78
     2
 67
     7
 79
     5
170
     0
171
     0
290
     0
174
     0
 93
       13
 44
0.0
173
     0
291
     1
 45
0.0
1001
ACAD
1000
AcDbSavedByObjectVersion
1070
     0
1000
AcDbSavedByObjectVersion
1070
     0
1000
AcDbSavedByObjectVersion
1070
     0
1000
AcDbSavedByObjectVersion
1070
     0
1000
AcDbSavedByObjectVersion
1070
     0
1000
AcDbSavedByObjectVersion
1070
     0
1000
AcDbSavedByObjectVersion
1070
     0
1000
AcDbSavedByObjectVersion
1070
     0
1000
AcDbSavedByObjectVersion
1070
     0
1000
AcDbSavedByObjectVersion
1070
     0
1000
AcDbSavedByObjectVersion
1070
     0
1000
AcDbSavedByObjectVersion
1070
     0
1000
AcDbSavedByObjectVersion
1070
     0
1000
AcDbSavedByObjectVersion
1070
     0
1000
AcDbSavedByObjectVersion
1070
     0
1000
AcDbSavedByObjectVersion
1070
     0
1000
AcDbSavedByObjectVersion
1070
     0
1000
AcDbSavedByObjectVersion
1070
     0
1000
AcDbSavedByObjectVersion
1070
     0
1000
AcDbSavedByObjectVersion
1070
     0
1000
AcDbSavedByObjectVersion
1070
     0
1000
AcDbSavedByObjectVersion
1070
     0
1000
AcDbSavedByObjectVersion
1070
     0
  0
VISUALSTYLE
  5
12D3A
102
{ACAD_REACTORS
330
12D38
102
}
330
12D38
100
AcDbVisualStyle
  2
FlatWithEdges
 70
     1
 71
     2
 72
     1
 73
     1
 90
        2
 40
-0.6
 41
30.0
 62
     5
 63
     7
 74
     1
 91
        4
 64
     7
 65
   257
 75
     1
175
     1
 42
1.0
 92
        0
 66
   257
 43
1.0
 76
     1
 77
     6
 78
     2
 67
     7
 79
     5
170
     0
171
     0
290
     0
174
     0
 93
       13
 44
0.0
173
     0
291
     1
 45
0.0
1001
ACAD
1000
AcDbSavedByObjectVersion
1070
     0
1000
AcDbSavedByObjectVersion
1070
     0
1000
AcDbSavedByObjectVersion
1070
     0
1000
AcDbSavedByObjectVersion
1070
     0
1000
AcDbSavedByObjectVersion
1070
     0
1000
AcDbSavedByObjectVersion
1070
     0
1000
AcDbSavedByObjectVersion
1070
     0
1000
AcDbSavedByObjectVersion
1070
     0
1000
AcDbSavedByObjectVersion
1070
     0
1000
AcDbSavedByObjectVersion
1070
     0
1000
AcDbSavedByObjectVersion
1070
     0
1000
AcDbSavedByObjectVersion
1070
     0
1000
AcDbSavedByObjectVersion
1070
     0
1000
AcDbSavedByObjectVersion
1070
     0
1000
AcDbSavedByObjectVersion
1070
     0
1000
AcDbSavedByObjectVersion
1070
     0
1000
AcDbSavedByObjectVersion
1070
     0
1000
AcDbSavedByObjectVersion
1070
     0
1000
AcDbSavedByObjectVersion
1070
     0
1000
AcDbSavedByObjectVersion
1070
     0
1000
AcDbSavedByObjectVersion
1070
     0
1000
AcDbSavedByObjectVersion
1070
     0
1000
AcDbSavedByObjectVersion
1070
     0
  0
VISUALSTYLE
  5
12D3B
102
{ACAD_REACTORS
330
12D38
102
}
330
12D38
100
AcDbVisualStyle
  2
Gouraud
 70
     2
 71
     2
 72
     2
 73
     1
 90
        2
 40
-0.6
 41
30.0
 62
     5
 63
     7
 74
     0
 91
        4
 64
     7
 65
   257
 75
     1
175
     1
 42
1.0
 92
        0
 66
     7
 43
1.0
 76
     1
 77
     6
 78
     2
 67
     7
 79
     5
170
     0
171
     0
290
     0
174
     0
 93
       13
 44
0.0
173
     0
291
     1
 45
0.0
1001
ACAD
1000
AcDbSavedByObjectVersion
1070
     0
1000
AcDbSavedByObjectVersion
1070
     0
1000
AcDbSavedByObjectVersion
1070
     0
1000
AcDbSavedByObjectVersion
1070
     0
1000
AcDbSavedByObjectVersion
1070
     0
1000
AcDbSavedByObjectVersion
1070
     0
1000
AcDbSavedByObjectVersion
1070
     0
1000
AcDbSavedByObjectVersion
1070
     0
1000
AcDbSavedByObjectVersion
1070
     0
1000
AcDbSavedByObjectVersion
1070
     0
1000
AcDbSavedByObjectVersion
1070
     0
1000
AcDbSavedByObjectVersion
1070
     0
1000
AcDbSavedByObjectVersion
1070
     0
1000
AcDbSavedByObjectVersion
1070
     0
1000
AcDbSavedByObjectVersion
1070
     0
1000
AcDbSavedByObjectVersion
1070
     0
1000
AcDbSavedByObjectVersion
1070
     0
1000
AcDbSavedByObjectVersion
1070
     0
1000
AcDbSavedByObjectVersion
1070
     0
1000
AcDbSavedByObjectVersion
1070
     0
1000
AcDbSavedByObjectVersion
1070
     0
1000
AcDbSavedByObjectVersion
1070
     0
1000
AcDbSavedByObjectVersion
1070
     0
  0
VISUALSTYLE
  5
12D3C
102
{ACAD_REACTORS
330
12D38
102
}
330
12D38
100
AcDbVisualStyle
  2
GouraudWithEdges
 70
     3
 71
     2
 72
     2
 73
     1
 90
        2
 40
-0.6
 41
30.0
 62
     5
 63
     7
 74
     1
 91
        4
 64
     7
 65
   257
 75
     1
175
     1
 42
1.0
 92
        0
 66
   257
 43
1.0
 76
     1
 77
     6
 78
     2
 67
     7
 79
     5
170
     0
171
     0
290
     0
174
     0
 93
       13
 44
0.0
173
     0
291
     1
 45
0.0
1001
ACAD
1000
AcDbSavedByObjectVersion
1070
     0
1000
AcDbSavedByObjectVersion
1070
     0
1000
AcDbSavedByObjectVersion
1070
     0
1000
AcDbSavedByObjectVersion
1070
     0
1000
AcDbSavedByObjectVersion
1070
     0
1000
AcDbSavedByObjectVersion
1070
     0
1000
AcDbSavedByObjectVersion
1070
     0
1000
AcDbSavedByObjectVersion
1070
     0
1000
AcDbSavedByObjectVersion
1070
     0
1000
AcDbSavedByObjectVersion
1070
     0
1000
AcDbSavedByObjectVersion
1070
     0
1000
AcDbSavedByObjectVersion
1070
     0
1000
AcDbSavedByObjectVersion
1070
     0
1000
AcDbSavedByObjectVersion
1070
     0
1000
AcDbSavedByObjectVersion
1070
     0
1000
AcDbSavedByObjectVersion
1070
     0
1000
AcDbSavedByObjectVersion
1070
     0
1000
AcDbSavedByObjectVersion
1070
     0
1000
AcDbSavedByObjectVersion
1070
     0
1000
AcDbSavedByObjectVersion
1070
     0
1000
AcDbSavedByObjectVersion
1070
     0
1000
AcDbSavedByObjectVersion
1070
     0
1000
AcDbSavedByObjectVersion
1070
     0
  0
VISUALSTYLE
  5
12D46
102
{ACAD_REACTORS
330
12D38
102
}
330
12D38
100
AcDbVisualStyle
  2
Linepattern
 70
    14
 71
     2
 72
     2
 73
     0
 90
        0
 40
-0.6
 41
-30.0
 62
     5
 63
     7
 74
     1
 91
        4
 64
     7
 65
   257
 75
     7
175
     7
 42
1.0
 92
        8
 66
     7
 43
1.0
 76
     1
 77
     6
 78
     2
 67
     7
 79
     5
170
     0
171
     0
290
     0
174
     0
 93
        1
 44
0.0
173
     0
291
     1
 45
0.0
1001
ACAD
1000
AcDbSavedByObjectVersion
1070
     0
1000
AcDbSavedByObjectVersion
1070
     0
1000
AcDbSavedByObjectVersion
1070
     0
1000
AcDbSavedByObjectVersion
1070
     0
1000
AcDbSavedByObjectVersion
1070
     0
1000
AcDbSavedByObjectVersion
1070
     0
1000
AcDbSavedByObjectVersion
1070
     0
1000
AcDbSavedByObjectVersion
1070
     0
1000
AcDbSavedByObjectVersion
1070
     0
1000
AcDbSavedByObjectVersion
1070
     0
1000
AcDbSavedByObjectVersion
1070
     0
1000
AcDbSavedByObjectVersion
1070
     0
1000
AcDbSavedByObjectVersion
1070
     0
1000
AcDbSavedByObjectVersion
1070
     0
1000
AcDbSavedByObjectVersion
1070
     0
1000
AcDbSavedByObjectVersion
1070
     0
1000
AcDbSavedByObjectVersion
1070
     0
1000
AcDbSavedByObjectVersion
1070
     0
1000
AcDbSavedByObjectVersion
1070
     0
1000
AcDbSavedByObjectVersion
1070
     0
1000
AcDbSavedByObjectVersion
1070
     0
1000
AcDbSavedByObjectVersion
1070
     0
1000
AcDbSavedByObjectVersion
1070
     0
  0
VISUALSTYLE
  5
12D42
102
{ACAD_REACTORS
330
12D38
102
}
330
12D38
100
AcDbVisualStyle
  2
Realistic
 70
     8
 71
     2
 72
     2
 73
     0
 90
        0
 40
-0.6
 41
-30.0
 62
     5
 63
     7
 74
     1
 91
        0
 64
     7
 65
   257
 75
     1
175
     1
 42
1.0
 92
        8
 66
     8
 43
1.0
 76
     1
 77
     6
 78
     2
 67
     7
 79
     5
170
     0
171
     0
290
     0
174
     0
 93
       13
 44
0.0
173
     0
291
     0
 45
0.0
1001
ACAD
1000
AcDbSavedByObjectVersion
1070
     0
1000
AcDbSavedByObjectVersion
1070
     0
1000
AcDbSavedByObjectVersion
1070
     0
1000
AcDbSavedByObjectVersion
1070
     0
1000
AcDbSavedByObjectVersion
1070
     0
1000
AcDbSavedByObjectVersion
1070
     0
1000
AcDbSavedByObjectVersion
1070
     0
1000
AcDbSavedByObjectVersion
1070
     0
1000
AcDbSavedByObjectVersion
1070
     0
1000
AcDbSavedByObjectVersion
1070
     0
1000
AcDbSavedByObjectVersion
1070
     0
1000
AcDbSavedByObjectVersion
1070
     0
1000
AcDbSavedByObjectVersion
1070
     0
1000
AcDbSavedByObjectVersion
1070
     0
1000
AcDbSavedByObjectVersion
1070
     0
1000
AcDbSavedByObjectVersion
1070
     0
1000
AcDbSavedByObjectVersion
1070
     0
1000
AcDbSavedByObjectVersion
1070
     0
1000
AcDbSavedByObjectVersion
1070
     0
1000
AcDbSavedByObjectVersion
1070
     0
1000
AcDbSavedByObjectVersion
1070
     0
1000
AcDbSavedByObjectVersion
1070
     0
1000
AcDbSavedByObjectVersion
1070
     0
  0
VISUALSTYLE
  5
12D45
102
{ACAD_REACTORS
330
12D38
102
}
330
12D38
100
AcDbVisualStyle
  2
Thicken
 70
    13
 71
     2
 72
     2
 73
     0
 90
        0
 40
-0.6
 41
-30.0
 62
     5
 63
     7
 74
     1
 91
        4
 64
     7
 65
   257
 75
     1
175
     1
 42
1.0
 92
       12
 66
     7
 43
1.0
 76
     1
 77
     6
 78
     2
 67
     7
 79
     5
170
     0
171
     0
290
     0
174
     0
 93
        1
 44
0.0
173
     0
291
     1
 45
0.0
1001
ACAD
1000
AcDbSavedByObjectVersion
1070
     0
1000
AcDbSavedByObjectVersion
1070
     0
1000
AcDbSavedByObjectVersion
1070
     0
1000
AcDbSavedByObjectVersion
1070
     0
1000
AcDbSavedByObjectVersion
1070
     0
1000
AcDbSavedByObjectVersion
1070
     0
1000
AcDbSavedByObjectVersion
1070
     0
1000
AcDbSavedByObjectVersion
1070
     0
1000
AcDbSavedByObjectVersion
1070
     0
1000
AcDbSavedByObjectVersion
1070
     0
1000
AcDbSavedByObjectVersion
1070
     0
1000
AcDbSavedByObjectVersion
1070
     0
1000
AcDbSavedByObjectVersion
1070
     0
1000
AcDbSavedByObjectVersion
1070
     0
1000
AcDbSavedByObjectVersion
1070
     0
1000
AcDbSavedByObjectVersion
1070
     0
1000
AcDbSavedByObjectVersion
1070
     0
1000
AcDbSavedByObjectVersion
1070
     0
1000
AcDbSavedByObjectVersion
1070
     0
1000
AcDbSavedByObjectVersion
1070
     0
1000
AcDbSavedByObjectVersion
1070
     0
1000
AcDbSavedByObjectVersion
1070
     0
1000
AcDbSavedByObjectVersion
1070
     0
  0
VISUALSTYLE
  5
1E3C4
102
{ACAD_XDICTIONARY
360
1E3C5
102
}
102
{ACAD_REACTORS
330
12D38
102
}
330
12D38
100
AcDbVisualStyle
  2
Wireframe
 70
     5
 71
     0
 72
     2
 73
     0
 90
        0
 40
-0.6
 41
-30.0
 62
     5
 63
     7
 74
     1
 91
        4
 64
     7
 65
   257
 75
     1
175
     1
 42
1.0
 92
        0
 66
   257
 43
1.0
 76
     1
 77
     6
 78
     2
 67
     7
 79
     3
170
     0
171
     0
290
     0
174
     0
 93
        1
 44
0.0
173
     0
291
     0
 45
0.0
1001
ACAD
1000
AcDbSavedByObjectVersion
1070
     0
1000
AcDbSavedByObjectVersion
1070
     0
1000
AcDbSavedByObjectVersion
1070
     0
1000
AcDbSavedByObjectVersion
1070
     0
1000
AcDbSavedByObjectVersion
1070
     0
1000
AcDbSavedByObjectVersion
1070
     0
1000
AcDbSavedByObjectVersion
1070
     0
1000
AcDbSavedByObjectVersion
1070
     0
1000
AcDbSavedByObjectVersion
1070
     0
1000
AcDbSavedByObjectVersion
1070
     0
1000
AcDbSavedByObjectVersion
1070
     0
1000
AcDbSavedByObjectVersion
1070
     0
1000
AcDbSavedByObjectVersion
1070
     0
1000
AcDbSavedByObjectVersion
1070
     0
1000
AcDbSavedByObjectVersion
1070
     0
1000
AcDbSavedByObjectVersion
1070
     0
1000
AcDbSavedByObjectVersion
1070
     0
1000
AcDbSavedByObjectVersion
1070
     0
1000
AcDbSavedByObjectVersion
1070
     0
1000
AcDbSavedByObjectVersion
1070
     0
1000
AcDbSavedByObjectVersion
1070
     0
1000
AcDbSavedByObjectVersion
1070
     0
  0
DICTIONARYVAR
  5
12DE7
102
{ACAD_REACTORS
330
125BE
102
}
330
125BE
100
DictionaryVariables
280
     0
  1
1:1
  0
DICTIONARYVAR
  5
12DE6
102
{ACAD_REACTORS
330
125BE
102
}
330
125BE
100
DictionaryVariables
280
     0
  1
STANDARD
  0
DICTIONARYVAR
  5
12DE5
102
{ACAD_REACTORS
330
125BE
102
}
330
125BE
100
DictionaryVariables
280
     0
  1
STANDARD
  0
DICTIONARYVAR
  5
125BF
102
{ACAD_REACTORS
330
125BE
102
}
330
125BE
100
DictionaryVariables
280
     0
  1
2
  0
DICTIONARYVAR
  5
13324
102
{ACAD_REACTORS
330
125BE
102
}
330
125BE
100
DictionaryVariables
280
     0
  1
0
  0
DICTIONARYVAR
  5
12EB5
102
{ACAD_REACTORS
330
125BE
102
}
330
125BE
100
DictionaryVariables
280
     0
  1
0
  0
DICTIONARYVAR
  5
12EB4
102
{ACAD_REACTORS
330
125BE
102
}
330
125BE
100
DictionaryVariables
280
     0
  1
0
  0
DICTIONARYVAR
  5
125C0
102
{ACAD_REACTORS
330
125BE
102
}
330
125BE
100
DictionaryVariables
280
     0
  1

  0
DICTIONARYVAR
  5
13323
102
{ACAD_REACTORS
330
125BE
102
}
330
125BE
100
DictionaryVariables
280
     0
  1
127
  0
XRECORD
  5
4D012
102
{ACAD_REACTORS
330
4D011
102
}
330
4D011
100
AcDbXrecord
280
     1
330
8AE2
330
8AE3
330
8AE4
330
8AE5
330
8AE6
330
8AE7
330
8AE8
330
8AE9
330
8AEA
330
4BB87
  0
VLO-VL
  5
E29
102
{ACAD_REACTORS
330
E28
102
}
330
E28
100
vlo_VL
 90
   -64512
 91
       12
 92
        1
 40
2.5
300
(&VLO-R . 0)
  0
DICTIONARY
  5
12D31
330
12D30
100
AcDbDictionary
280
     1
281
     1
  3
ACAD_XREC_ROUNDTRIP
360
1E336
  3
BUMPTILE
360
12D33
  3
DIFFUSETILE
360
12D32
  3
OPACITYTILE
360
12D36
  3
REFLECTIONTILE
360
12D35
  3
REFRACTIONTILE
360
12D37
  3
SPECULARTILE
360
12D34
  0
DICTIONARY
  5
12D29
330
12D28
100
AcDbDictionary
280
     1
281
     1
  3
ACAD_XREC_ROUNDTRIP
360
1E335
  3
BUMPTILE
360
12D2B
  3
DIFFUSETILE
360
12D2A
  3
OPACITYTILE
360
12D2E
  3
REFLECTIONTILE
360
12D2D
  3
REFRACTIONTILE
360
12D2F
  3
SPECULARTILE
360
12D2C
  0
DICTIONARY
  5
1E333
330
6897
100
AcDbDictionary
280
     1
281
     1
  3
ACAD_XREC_ROUNDTRIP
360
1E334
  0
DICTIONARY
  5
12DCD
330
12D4A
100
AcDbDictionary
280
     1
281
     1
  3
ACAD_ROUNDTRIP_2008_TABLESTYLE_CELLSTYLEMAP
360
83411
  0
DICTIONARY
  5
1E3C5
330
1E3C4
100
AcDbDictionary
280
     1
281
     1
  3
ACAD_XREC_ROUNDTRIP
360
1E3C6
  0
XRECORD
  5
1E336
102
{ACAD_REACTORS
330
12D31
102
}
330
12D31
100
AcDbXrecord
280
     1
102
MATERIAL
148
0.0
149
0.0
149
0.0
 93
        0
 94
      127
282
     0
 72
     0
 77
     0
171
     0
175
     0
179
     0
273
     0
  0
XRECORD
  5
12D33
102
{ACAD_REACTORS
330
12D31
102
}
330
12D31
100
AcDbXrecord
280
     1
270
     1
271
     1
  0
XRECORD
  5
12D32
102
{ACAD_REACTORS
330
12D31
102
}
330
12D31
100
AcDbXrecord
280
     1
270
     1
271
     1
  0
XRECORD
  5
12D36
102
{ACAD_REACTORS
330
12D31
102
}
330
12D31
100
AcDbXrecord
280
     1
270
     1
271
     1
  0
XRECORD
  5
12D35
102
{ACAD_REACTORS
330
12D31
102
}
330
12D31
100
AcDbXrecord
280
     1
270
     1
271
     1
  0
XRECORD
  5
12D37
102
{ACAD_REACTORS
330
12D31
102
}
330
12D31
100
AcDbXrecord
280
     1
270
     1
271
     1
  0
XRECORD
  5
12D34
102
{ACAD_REACTORS
330
12D31
102
}
330
12D31
100
AcDbXrecord
280
     1
270
     1
271
     1
  0
XRECORD
  5
1E335
102
{ACAD_REACTORS
330
12D29
102
}
330
12D29
100
AcDbXrecord
280
     1
102
MATERIAL
148
0.0
149
0.0
149
0.0
 93
        0
 94
      127
282
     0
 72
     0
 77
     0
171
     0
175
     0
179
     0
273
     0
  0
XRECORD
  5
12D2B
102
{ACAD_REACTORS
330
12D29
102
}
330
12D29
100
AcDbXrecord
280
     1
270
     1
271
     1
  0
XRECORD
  5
12D2A
102
{ACAD_REACTORS
330
12D29
102
}
330
12D29
100
AcDbXrecord
280
     1
270
     1
271
     1
  0
XRECORD
  5
12D2E
102
{ACAD_REACTORS
330
12D29
102
}
330
12D29
100
AcDbXrecord
280
     1
270
     1
271
     1
  0
XRECORD
  5
12D2D
102
{ACAD_REACTORS
330
12D29
102
}
330
12D29
100
AcDbXrecord
280
     1
270
     1
271
     1
  0
XRECORD
  5
12D2F
102
{ACAD_REACTORS
330
12D29
102
}
330
12D29
100
AcDbXrecord
280
     1
270
     1
271
     1
  0
XRECORD
  5
12D2C
102
{ACAD_REACTORS
330
12D29
102
}
330
12D29
100
AcDbXrecord
280
     1
270
     1
271
     1
  0
XRECORD
  5
1E334
102
{ACAD_REACTORS
330
1E333
102
}
330
1E333
100
AcDbXrecord
280
     1
102
MATERIAL
148
0.0
149
0.0
149
0.0
 93
        0
 94
      127
282
     0
 72
     1
 77
     1
171
     1
175
     1
179
     1
273
     0
  0
CELLSTYLEMAP
  5
83411
102
{ACAD_REACTORS
330
12DCD
102
}
330
12DCD
100
AcDbCellStyleMap
 90
        3
300
CELLSTYLE
  1
TABLEFORMAT_BEGIN
 90
        5
170
     1
 91
        0
 92
    32768
 62
   257
 93
        1
300
CONTENTFORMAT
  1
CONTENTFORMAT_BEGIN
 90
        0
 91
        0
 92
      512
 93
        0
300

 40
0.0
140
1.0
 94
        5
 62
     0
340
11
144
6.0
309
CONTENTFORMAT_END
171
     1
301
MARGIN
  1
CELLMARGIN_BEGIN
 40
1.5
 40
1.5
 40
1.5
 40
1.5
 40
0.18
 40
0.18
309
CELLMARGIN_END
 94
        6
 95
        1
302
GRIDFORMAT
  1
GRIDFORMAT_BEGIN
 90
        0
 91
        1
 62
     0
 92
       -2
340
0
 93
        0
 40
1.125
309
GRIDFORMAT_END
 95
        2
302
GRIDFORMAT
  1
GRIDFORMAT_BEGIN
 90
        0
 91
        1
 62
     0
 92
       -2
340
0
 93
        0
 40
1.125
309
GRIDFORMAT_END
 95
        4
302
GRIDFORMAT
  1
GRIDFORMAT_BEGIN
 90
        0
 91
        1
 62
     0
 92
       -2
340
0
 93
        0
 40
1.125
309
GRIDFORMAT_END
 95
        8
302
GRIDFORMAT
  1
GRIDFORMAT_BEGIN
 90
        0
 91
        1
 62
     0
 92
       -2
340
0
 93
        0
 40
1.125
309
GRIDFORMAT_END
 95
       16
302
GRIDFORMAT
  1
GRIDFORMAT_BEGIN
 90
        0
 91
        1
 62
     0
 92
       -2
340
0
 93
        0
 40
1.125
309
GRIDFORMAT_END
 95
       32
302
GRIDFORMAT
  1
GRIDFORMAT_BEGIN
 90
        0
 91
        1
 62
     0
 92
       -2
340
0
 93
        0
 40
1.125
309
GRIDFORMAT_END
309
TABLEFORMAT_END
  1
CELLSTYLE_BEGIN
 90
        1
 91
        1
300
_TITLE
309
CELLSTYLE_END
300
CELLSTYLE
  1
TABLEFORMAT_BEGIN
 90
        5
170
     1
 91
        0
 92
        0
 62
   257
 93
        1
300
CONTENTFORMAT
  1
CONTENTFORMAT_BEGIN
 90
        0
 91
        0
 92
      512
 93
        0
300

 40
0.0
140
1.0
 94
        5
 62
     0
340
11
144
4.5
309
CONTENTFORMAT_END
171
     1
301
MARGIN
  1
CELLMARGIN_BEGIN
 40
1.5
 40
1.5
 40
1.5
 40
1.5
 40
0.18
 40
0.18
309
CELLMARGIN_END
 94
        6
 95
        1
302
GRIDFORMAT
  1
GRIDFORMAT_BEGIN
 90
        0
 91
        1
 62
     0
 92
       -2
340
0
 93
        0
 40
1.125
309
GRIDFORMAT_END
 95
        2
302
GRIDFORMAT
  1
GRIDFORMAT_BEGIN
 90
        0
 91
        1
 62
     0
 92
       -2
340
0
 93
        0
 40
1.125
309
GRIDFORMAT_END
 95
        4
302
GRIDFORMAT
  1
GRIDFORMAT_BEGIN
 90
        0
 91
        1
 62
     0
 92
       -2
340
0
 93
        0
 40
1.125
309
GRIDFORMAT_END
 95
        8
302
GRIDFORMAT
  1
GRIDFORMAT_BEGIN
 90
        0
 91
        1
 62
     0
 92
       -2
340
0
 93
        0
 40
1.125
309
GRIDFORMAT_END
 95
       16
302
GRIDFORMAT
  1
GRIDFORMAT_BEGIN
 90
        0
 91
        1
 62
     0
 92
       -2
340
0
 93
        0
 40
1.125
309
GRIDFORMAT_END
 95
       32
302
GRIDFORMAT
  1
GRIDFORMAT_BEGIN
 90
        0
 91
        1
 62
     0
 92
       -2
340
0
 93
        0
 40
1.125
309
GRIDFORMAT_END
309
TABLEFORMAT_END
  1
CELLSTYLE_BEGIN
 90
        2
 91
        1
300
_HEADER
309
CELLSTYLE_END
300
CELLSTYLE
  1
TABLEFORMAT_BEGIN
 90
        5
170
     1
 91
        0
 92
        0
 62
   257
 93
        1
300
CONTENTFORMAT
  1
CONTENTFORMAT_BEGIN
 90
        0
 91
        0
 92
      512
 93
        0
300

 40
0.0
140
1.0
 94
        2
 62
     0
340
11
144
4.5
309
CONTENTFORMAT_END
171
     1
301
MARGIN
  1
CELLMARGIN_BEGIN
 40
1.5
 40
1.5
 40
1.5
 40
1.5
 40
0.18
 40
0.18
309
CELLMARGIN_END
 94
        6
 95
        1
302
GRIDFORMAT
  1
GRIDFORMAT_BEGIN
 90
        0
 91
        1
 62
     0
 92
       -2
340
0
 93
        0
 40
1.125
309
GRIDFORMAT_END
 95
        2
302
GRIDFORMAT
  1
GRIDFORMAT_BEGIN
 90
        0
 91
        1
 62
     0
 92
       -2
340
0
 93
        0
 40
1.125
309
GRIDFORMAT_END
 95
        4
302
GRIDFORMAT
  1
GRIDFORMAT_BEGIN
 90
        0
 91
        1
 62
     0
 92
       -2
340
0
 93
        0
 40
1.125
309
GRIDFORMAT_END
 95
        8
302
GRIDFORMAT
  1
GRIDFORMAT_BEGIN
 90
        0
 91
        1
 62
     0
 92
       -2
340
0
 93
        0
 40
1.125
309
GRIDFORMAT_END
 95
       16
302
GRIDFORMAT
  1
GRIDFORMAT_BEGIN
 90
        0
 91
        1
 62
     0
 92
       -2
340
0
 93
        0
 40
1.125
309
GRIDFORMAT_END
 95
       32
302
GRIDFORMAT
  1
GRIDFORMAT_BEGIN
 90
        0
 91
        1
 62
     0
 92
       -2
340
0
 93
        0
 40
1.125
309
GRIDFORMAT_END
309
TABLEFORMAT_END
  1
CELLSTYLE_BEGIN
 90
        3
 91
        2
300
_DATA
309
CELLSTYLE_END
  0
XRECORD
  5
1E3C6
102
{ACAD_REACTORS
330
1E3C5
102
}
330
1E3C5
100
AcDbXrecord
280
     1
102
RTVSPropertyOp0
 70
     1
102
RTVSPropertyOp1
 70
     1
102
RTVSPropertyOp2
 70
     1
102
RTVSPropertyOp3
 70
     1
102
RTVSPropertyOp4
 70
     1
102
RTVSPropertyOp5
 70
     1
102
RTVSPropertyOp6
 70
     1
102
RTVSPropertyOp7
 70
     1
102
RTVSPropertyOp8
 70
     1
102
RTVSPropertyOp9
 70
     1
102
RTVSPropertyOp10
 70
     1
102
RTVSPropertyOp11
 70
     1
102
RTVSPropertyOp12
 70
     1
102
RTVSPropertyOp13
 70
     1
102
RTVSPropertyOp14
 70
     1
102
RTVSPropertyOp15
 70
     1
102
RTVSPropertyOp16
 70
     1
102
RTVSPropertyOp17
 70
     1
102
RTVSPropertyOp18
 70
     1
102
RTVSPropertyOp19
 70
     1
102
RTVSPropertyOp20
 70
     1
102
RTVSPropertyOp21
 70
     1
102
RTVSPropertyOp22
 70
     1
102
RTVSPropertyOp23
 70
     1
102
RTVSPropertyOp24
 70
     1
102
RTVSPropertyOp25
 70
     1
102
RTVSPropertyOp26
 70
     1
102
RTVSPropertyOp27
 70
     1
102
RTVSPropertyOp28
 70
     1
102
RTVSPropertyOp29
 70
     1
102
RTVSPropertyOp30
 70
     1
102
RTVSPropertyOp31
 70
     1
102
RTVSPropertyOp32
 70
     1
  0
ENDSEC
  0
EOF
