  0
SECTION
  2
HEADER
  9
$ACADVER
  1
AC1021
  9
$ACADMAINTVER
 70
    25
  9
$DWGCODEPAGE
  3
ANSI_936
  9
$LASTSAVEDBY
  1
yp.zhu
  9
$INSBASE
 10
0.0
 20
0.0
 30
0.0
  9
$EXTMIN
 10
2760.661510250395
 20
541.0223622628993
 30
-0.0000000349181977
  9
$EXTMAX
 10
3206.35559970513
 20
856.0897070991767
 30
0.0000000814935718
  9
$LIMMIN
 10
0.0
 20
0.0
  9
$LIMMAX
 10
1189.0
 20
841.0
  9
$ORTHOMODE
 70
     0
  9
$REGENMODE
 70
     1
  9
$FILLMODE
 70
     1
  9
$QTEXTMODE
 70
     0
  9
$MIRRTEXT
 70
     1
  9
$LTSCALE
 40
65.395
  9
$ATTMODE
 70
     1
  9
$TEXTSIZE
 40
0.2
  9
$TRACEWID
 40
0.05
  9
$TEXTSTYLE
  7
txt字体
  9
$CLAYER
  8
Dim
  9
$CELTYPE
  6
ByLayer
  9
$CECOLOR
 62
   256
  9
$CELTSCALE
 40
1.0
  9
$DISPSILH
 70
     0
  9
$DIMSCALE
 40
1.0
  9
$DIMASZ
 40
3.5
  9
$DIMEXO
 40
0.2
  9
$DIMDLI
 40
0.2
  9
$DIMRND
 40
0.0
  9
$DIMDLE
 40
0.0
  9
$DIMEXE
 40
1.199999999999999
  9
$DIMTP
 40
0.0
  9
$DIMTM
 40
0.0
  9
$DIMTXT
 40
4.0
  9
$DIMCEN
 40
0.0
  9
$DIMTSZ
 40
0.0
  9
$DIMTOL
 70
     0
  9
$DIMLIM
 70
     0
  9
$DIMTIH
 70
     0
  9
$DIMTOH
 70
     0
  9
$DIMSE1
 70
     0
  9
$DIMSE2
 70
     0
  9
$DIMTAD
 70
     1
  9
$DIMZIN
 70
     8
  9
$DIMBLK
  1

  9
$DIMASO
 70
     1
  9
$DIMSHO
 70
     1
  9
$DIMPOST
  1

  9
$DIMAPOST
  1

  9
$DIMALT
 70
     0
  9
$DIMALTD
 70
     2
  9
$DIMALTF
 40
25.4
  9
$DIMLFAC
 40
1.0
  9
$DIMTOFL
 70
     0
  9
$DIMTVP
 40
0.0
  9
$DIMTIX
 70
     0
  9
$DIMSOXD
 70
     0
  9
$DIMSAH
 70
     0
  9
$DIMBLK1
  1

  9
$DIMBLK2
  1

  9
$DIMSTYLE
  2
01
  9
$DIMCLRD
 70
     1
  9
$DIMCLRE
 70
     6
  9
$DIMCLRT
 70
     4
  9
$DIMTFAC
 40
1.0
  9
$DIMGAP
 40
0.5
  9
$DIMJUST
 70
     0
  9
$DIMSD1
 70
     0
  9
$DIMSD2
 70
     0
  9
$DIMTOLJ
 70
     1
  9
$DIMTZIN
 70
     0
  9
$DIMALTZ
 70
     0
  9
$DIMALTTZ
 70
     0
  9
$DIMUPT
 70
     0
  9
$DIMDEC
 70
     1
  9
$DIMTDEC
 70
     1
  9
$DIMALTU
 70
     2
  9
$DIMALTTD
 70
     2
  9
$DIMTXSTY
  7
Romans字体
  9
$DIMAUNIT
 70
     0
  9
$DIMADEC
 70
     2
  9
$DIMALTRND
 40
0.0
  9
$DIMAZIN
 70
     2
  9
$DIMDSEP
 70
    46
  9
$DIMATFIT
 70
     3
  9
$DIMFRAC
 70
     0
  9
$DIMLDRBLK
  1

  9
$DIMLUNIT
 70
     2
  9
$DIMLWD
 70
    -2
  9
$DIMLWE
 70
    -2
  9
$DIMTMOVE
 70
     0
  9
$DIMFXL
 40
1.0
  9
$DIMFXLON
 70
     0
  9
$DIMJOGANG
 40
0.7853981633974483
  9
$DIMTFILL
 70
     0
  9
$DIMTFILLCLR
 70
     0
  9
$DIMARCSYM
 70
     0
  9
$DIMLTYPE
  6

  9
$DIMLTEX1
  6

  9
$DIMLTEX2
  6

  9
$LUNITS
 70
     2
  9
$LUPREC
 70
     4
  9
$SKETCHINC
 40
0.1
  9
$FILLETRAD
 40
0.0
  9
$AUNITS
 70
     0
  9
$AUPREC
 70
     0
  9
$MENU
  1
acad
  9
$ELEVATION
 40
0.0
  9
$PELEVATION
 40
0.0
  9
$THICKNESS
 40
0.0
  9
$LIMCHECK
 70
     0
  9
$CHAMFERA
 40
0.0
  9
$CHAMFERB
 40
0.0
  9
$CHAMFERC
 40
0.0
  9
$CHAMFERD
 40
0.0
  9
$SKPOLY
 70
     0
  9
$TDCREATE
 40
2454351.702036852
  9
$TDUCREATE
 40
2454351.368703519
  9
$TDUPDATE
 40
2460299.460814456
  9
$TDUUPDATE
 40
2460299.127481123
  9
$TDINDWG
 40
1.3616997685
  9
$TDUSRTIMER
 40
1.3616951042
  9
$USRTIMER
 70
     1
  9
$ANGBASE
 50
0.0
  9
$ANGDIR
 70
     0
  9
$PDMODE
 70
     3
  9
$PDSIZE
 40
8.0
  9
$PLINEWID
 40
0.0
  9
$SPLFRAME
 70
     0
  9
$SPLINETYPE
 70
     6
  9
$SPLINESEGS
 70
     8
  9
$HANDSEED
  5
8596B
  9
$SURFTAB1
 70
     6
  9
$SURFTAB2
 70
     6
  9
$SURFTYPE
 70
     6
  9
$SURFU
 70
     6
  9
$SURFV
 70
     6
  9
$UCSBASE
  2

  9
$UCSNAME
  2

  9
$UCSORG
 10
0.0
 20
0.0
 30
0.0
  9
$UCSXDIR
 10
1.0
 20
0.0
 30
0.0
  9
$UCSYDIR
 10
0.0
 20
1.0
 30
0.0
  9
$UCSORTHOREF
  2

  9
$UCSORTHOVIEW
 70
     0
  9
$UCSORGTOP
 10
0.0
 20
0.0
 30
0.0
  9
$UCSORGBOTTOM
 10
0.0
 20
0.0
 30
0.0
  9
$UCSORGLEFT
 10
0.0
 20
0.0
 30
0.0
  9
$UCSORGRIGHT
 10
0.0
 20
0.0
 30
0.0
  9
$UCSORGFRONT
 10
0.0
 20
0.0
 30
0.0
  9
$UCSORGBACK
 10
0.0
 20
0.0
 30
0.0
  9
$PUCSBASE
  2

  9
$PUCSNAME
  2

  9
$PUCSORG
 10
0.0
 20
0.0
 30
0.0
  9
$PUCSXDIR
 10
1.0
 20
0.0
 30
0.0
  9
$PUCSYDIR
 10
0.0
 20
1.0
 30
0.0
  9
$PUCSORTHOREF
  2

  9
$PUCSORTHOVIEW
 70
     0
  9
$PUCSORGTOP
 10
0.0
 20
0.0
 30
0.0
  9
$PUCSORGBOTTOM
 10
0.0
 20
0.0
 30
0.0
  9
$PUCSORGLEFT
 10
0.0
 20
0.0
 30
0.0
  9
$PUCSORGRIGHT
 10
0.0
 20
0.0
 30
0.0
  9
$PUCSORGFRONT
 10
0.0
 20
0.0
 30
0.0
  9
$PUCSORGBACK
 10
0.0
 20
0.0
 30
0.0
  9
$USERI1
 70
     0
  9
$USERI2
 70
     0
  9
$USERI3
 70
     0
  9
$USERI4
 70
     0
  9
$USERI5
 70
     0
  9
$USERR1
 40
0.0
  9
$USERR2
 40
0.0
  9
$USERR3
 40
0.0
  9
$USERR4
 40
0.0
  9
$USERR5
 40
2.5
  9
$WORLDVIEW
 70
     1
  9
$SHADEDGE
 70
     3
  9
$SHADEDIF
 70
    70
  9
$TILEMODE
 70
     1
  9
$MAXACTVP
 70
    16
  9
$PINSBASE
 10
0.0
 20
0.0
 30
0.0
  9
$PLIMCHECK
 70
     0
  9
$PEXTMIN
 10
1.000000000000000E+20
 20
1.000000000000000E+20
 30
1.000000000000000E+20
  9
$PEXTMAX
 10
-1.000000000000000E+20
 20
-1.000000000000000E+20
 30
-1.000000000000000E+20
  9
$PLIMMIN
 10
0.0
 20
0.0
  9
$PLIMMAX
 10
12.0
 20
9.0
  9
$UNITMODE
 70
     0
  9
$VISRETAIN
 70
     0
  9
$PLINEGEN
 70
     1
  9
$PSLTSCALE
 70
     0
  9
$TREEDEPTH
 70
  3020
  9
$CMLSTYLE
  2
Standard
  9
$CMLJUST
 70
     0
  9
$CMLSCALE
 40
1.0
  9
$PROXYGRAPHICS
 70
     0
  9
$MEASUREMENT
 70
     1
  9
$CELWEIGHT
370
    -1
  9
$ENDCAPS
280
     0
  9
$JOINSTYLE
280
     0
  9
$LWDISPLAY
290
     0
  9
$INSUNITS
 70
     4
  9
$HYPERLINKBASE
  1

  9
$STYLESHEET
  1
monochrome.ctb
  9
$XEDIT
290
     1
  9
$CEPSNTYPE
380
     0
  9
$PSTYLEMODE
290
     1
  9
$FINGERPRINTGUID
  2

  9
$VERSIONGUID
  2
{9A013B07-B4BF-4679-979F-697867D8CBB5}
  9
$EXTNAMES
290
     1
  9
$PSVPSCALE
 40
0.0
  9
$OLESTARTUP
290
     0
  9
$SORTENTS
280
   127
  9
$INDEXCTL
280
     0
  9
$HIDETEXT
280
     0
  9
$XCLIPFRAME
290
     0
  9
$HALOGAP
280
     0
  9
$OBSCOLOR
 70
   257
  9
$OBSLTYPE
280
     0
  9
$INTERSECTIONDISPLAY
280
     0
  9
$INTERSECTIONCOLOR
 70
   257
  9
$DIMASSOC
280
     2
  9
$PROJECTNAME
  1

  9
$CAMERADISPLAY
290
     0
  9
$LENSLENGTH
 40
50.0
  9
$CAMERAHEIGHT
 40
0.0
  9
$STEPSPERSEC
 40
2.0
  9
$STEPSIZE
 40
6.0
  9
$3DDWFPREC
 40
2.0
  9
$PSOLWIDTH
 40
0.25
  9
$PSOLHEIGHT
 40
4.0
  9
$LOFTANG1
 40
1.570796326794896
  9
$LOFTANG2
 40
1.570796326794896
  9
$LOFTMAG1
 40
0.0
  9
$LOFTMAG2
 40
0.0
  9
$LOFTPARAM
 70
     7
  9
$LOFTNORMALS
280
     1
  9
$LATITUDE
 40
37.795
  9
$LONGITUDE
 40
-122.394
  9
$NORTHDIRECTION
 40
0.0
  9
$TIMEZONE
 70
 -8000
  9
$LIGHTGLYPHDISPLAY
280
     1
  9
$TILEMODELIGHTSYNCH
280
     1
  9
$CMATERIAL
347
12D28
  9
$SOLIDHIST
280
     1
  9
$SHOWHIST
280
     1
  9
$DWFFRAME
280
     2
  9
$DGNFRAME
280
     0
  9
$REALWORLDSCALE
290
     1
  9
$INTERFERECOLOR
 62
     1
  9
$INTERFEREOBJVS
345
12D42
  9
$INTERFEREVPVS
346
12D3F
  9
$CSHADOW
280
     0
  9
$SHADOWPLANELOCATION
 40
0.0
  0
ENDSEC
  0
SECTION
  2
CLASSES
  0
CLASS
  1
ACDBDICTIONARYWDFLT
  2
AcDbDictionaryWithDefault
  3
ObjectDBX Classes
 90
        0
 91
        1
280
     0
281
     0
  0
CLASS
  1
IMAGE
  2
AcDbRasterImage
  3
ISM
 90
     2175
 91
        0
280
     0
281
     1
  0
CLASS
  1
DICTIONARYVAR
  2
AcDbDictionaryVar
  3
ObjectDBX Classes
 90
        0
 91
        9
280
     0
281
     0
  0
CLASS
  1
RASTERVARIABLES
  2
AcDbRasterVariables
  3
ISM
 90
        0
 91
        0
280
     0
281
     0
  0
CLASS
  1
IMAGEDEF
  2
AcDbRasterImageDef
  3
ISM
 90
        0
 91
        0
280
     0
281
     0
  0
CLASS
  1
IMAGEDEF_REACTOR
  2
AcDbRasterImageDefReactor
  3
ISM
 90
        1
 91
        0
280
     0
281
     0
  0
CLASS
  1
IDBUFFER
  2
AcDbIdBuffer
  3
ObjectDBX Classes
 90
        0
 91
        0
280
     0
281
     0
  0
CLASS
  1
SPATIAL_FILTER
  2
AcDbSpatialFilter
  3
ObjectDBX Classes
 90
        0
 91
        0
280
     0
281
     0
  0
CLASS
  1
SORTENTSTABLE
  2
AcDbSortentsTable
  3
ObjectDBX Classes
 90
        0
 91
        2
280
     0
281
     0
  0
CLASS
  1
LAYER_INDEX
  2
AcDbLayerIndex
  3
ObjectDBX Classes
 90
        0
 91
        0
280
     0
281
     0
  0
CLASS
  1
SPATIAL_INDEX
  2
AcDbSpatialIndex
  3
ObjectDBX Classes
 90
        0
 91
        0
280
     0
281
     0
  0
CLASS
  1
OBJECT_PTR
  2
CAseDLPNTableRecord
  3
ASE-LPNTableRecord
 90
        1
 91
        0
280
     0
281
     0
  0
CLASS
  1
PLOTSETTINGS
  2
AcDbPlotSettings
  3
ObjectDBX Classes
 90
        0
 91
        1
280
     0
281
     0
  0
CLASS
  1
WIPEOUT
  2
AcDbWipeout
  3
"WipeOut|Product Desc: Object Enabler for WipeOut entity                        |Company: Autodesk, Inc.                        |WEB Address: www.autodesk.com"
 90
     2175
 91
        0
280
     0
281
     1
  0
CLASS
  1
WIPEOUTVARIABLES
  2
AcDbWipeoutVariables
  3
"WipeOut|Product Desc:     WipeOut Dbx Application|Company:          Autodesk, Inc.|WEB Address:      www.autodesk.com"
 90
        0
 91
        0
280
     0
281
     0
  0
CLASS
  1
RTEXT
  2
RText
  3
RText|AutoCAD Express Tool|expresstools@autodesk.com
 90
        0
 91
        0
280
     0
281
     1
  0
CLASS
  1
ARCALIGNEDTEXT
  2
AcDbArcAlignedText
  3
ATEXT|AutoCAD Express Tool|expresstools@autodesk.com
 90
        0
 91
        0
280
     0
281
     1
  0
CLASS
  1
VLO-VL
  2
vlo_VL
  3
VL|AutoLISP based application
 90
      129
 91
        4
280
     0
281
     0
  0
CLASS
  1
DIMASSOC
  2
AcDbDimAssoc
  3
"AcDbDimAssoc|Product Desc:     AcDim ARX App For Dimension|Company:          Autodesk, Inc.|WEB Address:      www.autodesk.com"
 90
        0
 91
        0
280
     0
281
     0
  0
CLASS
  1
ACAD_EVALUATION_GRAPH
  2
AcDbEvalGraph
  3
ObjectDBX Classes
 90
     1153
 91
        0
280
     0
281
     0
  0
CLASS
  1
ACDB_DYNAMICBLOCKPURGEPREVENTER_VERSION
  2
AcDbDynamicBlockPurgePreventer
  3
ObjectDBX Classes
 90
     1153
 91
        0
280
     0
281
     0
  0
CLASS
  1
MATERIAL
  2
AcDbMaterial
  3
ObjectDBX Classes
 90
     1153
 91
        3
280
     0
281
     0
  0
CLASS
  1
VISUALSTYLE
  2
AcDbVisualStyle
  3
ObjectDBX Classes
 90
     4095
 91
       17
280
     0
281
     0
  0
CLASS
  1
TABLESTYLE
  2
AcDbTableStyle
  3
ObjectDBX Classes
 90
     4095
 91
        1
280
     0
281
     0
  0
CLASS
  1
SCALE
  2
AcDbScale
  3
ObjectDBX Classes
 90
     1153
 91
       33
280
     0
281
     0
  0
CLASS
  1
MLEADERSTYLE
  2
AcDbMLeaderStyle
  3
ACDB_MLEADERSTYLE_CLASS
 90
     4095
 91
        1
280
     0
281
     0
  0
CLASS
  1
CELLSTYLEMAP
  2
AcDbCellStyleMap
  3
ObjectDBX Classes
 90
     1152
 91
        3
280
     0
281
     0
  0
CLASS
  1
ACAECUSTOBJ
  2
AcAeEditorObj
  3
AcAeEditorObj
 90
     1024
 91
        0
280
     0
281
     0
  0
CLASS
  1
MULTILEADER
  2
AcDbMLeader
  3
ACDB_MLEADER_CLASS
 90
     1025
 91
        0
280
     0
281
     1
  0
ENDSEC
  0
SECTION
  2
TABLES
  0
TABLE
  2
VPORT
  5
8
102
{ACAD_XDICTIONARY
360
12DD3
102
}
330
0
100
AcDbSymbolTable
 70
     1
  0
VPORT
  5
12D1D
330
8
100
AcDbSymbolTableRecord
100
AcDbViewportTableRecord
  2
*Active
 70
     0
 10
0.0
 20
0.0
 11
1.0
 21
1.0
 12
2983.508554977762
 22
698.5560346810379
 13
0.0
 23
0.0
 14
1.0
 24
1.0
 15
0.0
 25
0.0
 16
0.0
 26
0.0
 36
1.0
 17
0.0
 27
0.0
 37
0.0
 40
317.3532022353315
 41
2.203389830508474
 42
50.0
 43
0.0
 44
0.0
 50
0.0
 51
0.0
 71
     0
 72
   100
 73
     1
 74
     1
 75
     0
 76
     0
 77
     0
 78
     0
281
     0
 65
     0
110
0.0
120
0.0
130
0.0
111
1.0
121
0.0
131
0.0
112
0.0
122
1.0
132
0.0
 79
     0
146
0.0
348
12D3E
 60
     3
 61
     5
292
     1
282
     1
141
0.0
142
0.0
 63
   250
421
  3355443
  0
ENDTAB
  0
TABLE
  2
LTYPE
  5
5
330
0
100
AcDbSymbolTable
 70
     4
  0
LTYPE
  5
14
330
5
100
AcDbSymbolTableRecord
100
AcDbLinetypeTableRecord
  2
ByBlock
 70
     0
  3

 72
    65
 73
     0
 40
0.0
  0
LTYPE
  5
15
330
5
100
AcDbSymbolTableRecord
100
AcDbLinetypeTableRecord
  2
ByLayer
 70
     0
  3

 72
    65
 73
     0
 40
0.0
  0
LTYPE
  5
16
330
5
100
AcDbSymbolTableRecord
100
AcDbLinetypeTableRecord
  2
CONTINUOUS
 70
     0
  3
Solid line
 72
    65
 73
     0
 40
0.0
  0
LTYPE
  5
1D9F6
330
5
100
AcDbSymbolTableRecord
100
AcDbLinetypeTableRecord
  2
CENTER
 70
     0
  3
____ _ ____ _ ____ _ ____ _ ____ _ ____ _ ____
 72
    65
 73
     4
 40
0.6
 49
0.375
 74
     0
 49
-0.075
 74
     0
 49
0.075
 74
     0
 49
-0.075
 74
     0
  0
LTYPE
  5
847AF
330
5
100
AcDbSymbolTableRecord
100
AcDbLinetypeTableRecord
  2
CENTER2
 70
     0
  3
Center (.5x) ___ _ ___ _ ___ _ ___ _ ___ _ ___
 72
    65
 73
     4
 40
1.125
 49
0.75
 74
     0
 49
-0.125
 74
     0
 49
0.125
 74
     0
 49
-0.125
 74
     0
  0
LTYPE
  5
847B0
330
5
100
AcDbSymbolTableRecord
100
AcDbLinetypeTableRecord
  2
MITTEL1
 70
     0
  3
_
 72
    65
 73
     4
 40
6.2
 49
4.0
 74
     0
 49
-1.0
 74
     0
 49
0.2
 74
     0
 49
-1.0
 74
     0
  0
ENDTAB
  0
TABLE
  2
LAYER
  5
2
102
{ACAD_XDICTIONARY
360
7EA
102
}
330
0
100
AcDbSymbolTable
 70
     7
  0
LAYER
  5
10
102
{ACAD_XDICTIONARY
360
12D81
102
}
330
2
100
AcDbSymbolTableRecord
100
AcDbLayerTableRecord
  2
0
 70
     0
 62
     7
  6
CONTINUOUS
370
    30
390
F
347
6897
  0
LAYER
  5
7C8
330
2
100
AcDbSymbolTableRecord
100
AcDbLayerTableRecord
  2
Defpoints
 70
     0
 62
     7
  6
CONTINUOUS
290
     0
370
    -3
390
F
347
6897
  0
LAYER
  5
876E
102
{ACAD_XDICTIONARY
360
12D8B
102
}
330
2
100
AcDbSymbolTableRecord
100
AcDbLayerTableRecord
  2
ASHADE
 70
     0
 62
     7
  6
CONTINUOUS
370
    35
390
F
347
6897
  0
LAYER
  5
F6EE
102
{ACAD_XDICTIONARY
360
12D8D
102
}
330
2
100
AcDbSymbolTableRecord
100
AcDbLayerTableRecord
  2
图框
 70
     0
 62
     7
  6
CONTINUOUS
370
    20
390
F
347
6897
  0
LAYER
  5
1508C
330
2
100
AcDbSymbolTableRecord
100
AcDbLayerTableRecord
  2
打标文字
 70
     0
 62
     3
  6
CONTINUOUS
370
    20
390
F
347
6897
  0
LAYER
  5
1E3BF
102
{ACAD_XDICTIONARY
360
1E3C0
102
}
330
2
100
AcDbSymbolTableRecord
100
AcDbLayerTableRecord
  2
Dim
 70
     0
 62
     3
  6
CONTINUOUS
370
    15
390
F
347
6897
  0
LAYER
  5
81D77
330
2
100
AcDbSymbolTableRecord
100
AcDbLayerTableRecord
  2
CEN
 70
     0
 62
     1
  6
CENTER
370
    15
390
F
347
6897
1001
AcAecLayerStandard
1000

1000

  0
ENDTAB
  0
TABLE
  2
STYLE
  5
3
330
0
100
AcDbSymbolTable
 70
     6
  0
STYLE
  5
11
330
3
100
AcDbSymbolTableRecord
100
AcDbTextStyleTableRecord
  2
STANDARD
 70
     0
 40
0.0
 41
0.75
 50
0.0
 71
     0
 42
0.2
  3

  4

1001
ACAD
1000
仿宋_GB2312
1071
    34353
  0
STYLE
  5
46E5B
330
3
100
AcDbSymbolTableRecord
100
AcDbTextStyleTableRecord
  2
txt字体
 70
     0
 40
0.0
 41
0.7
 50
0.0
 71
     0
 42
0.2
  3
txt.shx
  4

  0
STYLE
  5
474F8
330
3
100
AcDbSymbolTableRecord
100
AcDbTextStyleTableRecord
  2
Romans字体
 70
     0
 40
0.0
 41
0.75
 50
0.0
 71
     0
 42
0.2
  3
romans.shx
  4

  0
STYLE
  5
474F9
330
3
100
AcDbSymbolTableRecord
100
AcDbTextStyleTableRecord
  2
工程字
 70
     0
 40
0.0
 41
1.0
 50
0.0
 71
     0
 42
3.5
  3
gbenor.shx
  4
gbcbig.shx
  0
STYLE
  5
474FA
330
3
100
AcDbSymbolTableRecord
100
AcDbTextStyleTableRecord
  2
Chinese
 70
     0
 40
0.0
 41
1.0
 50
0.0
 71
     0
 42
2.5
  3
PMingLiU.ttf
  4

1001
ACAD
1000
PMingLiU
1071
    34834
  0
ENDTAB
  0
TABLE
  2
VIEW
  5
6
330
0
100
AcDbSymbolTable
 70
     0
  0
ENDTAB
  0
TABLE
  2
UCS
  5
7
330
0
100
AcDbSymbolTable
 70
     0
  0
ENDTAB
  0
TABLE
  2
APPID
  5
9
330
0
100
AcDbSymbolTable
 70
    47
  0
APPID
  5
206
330
9
100
AcDbSymbolTableRecord
100
AcDbRegAppTableRecord
  2
ACAD
 70
     0
  0
APPID
  5
7E2
330
9
100
AcDbSymbolTableRecord
100
AcDbRegAppTableRecord
  2
DCO15
 70
     0
  0
APPID
  5
7E3
330
9
100
AcDbSymbolTableRecord
100
AcDbRegAppTableRecord
  2
ACAD_PSEXT
 70
     0
  0
APPID
  5
7E4
330
9
100
AcDbSymbolTableRecord
100
AcDbRegAppTableRecord
  2
AcAecLayerStandard
 70
     0
  0
APPID
  5
7E5
330
9
100
AcDbSymbolTableRecord
100
AcDbRegAppTableRecord
  2
ACAD_DSTYLE_DIMEXT_LENGTH
 70
     0
  0
APPID
  5
7E6
330
9
100
AcDbSymbolTableRecord
100
AcDbRegAppTableRecord
  2
ACAD_DSTYLE_DIMEXT_ENABLED
 70
     0
  0
APPID
  5
7E7
330
9
100
AcDbSymbolTableRecord
100
AcDbRegAppTableRecord
  2
ACAD_DSTYLE_DIMJOGGED_JOGANGLE_SYMBOL
 70
     0
  0
APPID
  5
7E8
330
9
100
AcDbSymbolTableRecord
100
AcDbRegAppTableRecord
  2
ACAD_DSTYLE_DIMARC_LENGTH_SYMBOL
 70
     0
  0
APPID
  5
7E9
330
9
100
AcDbSymbolTableRecord
100
AcDbRegAppTableRecord
  2
ACAD_DSTYLE_DIMTEXT_FILL
 70
     0
  0
APPID
  5
1765
330
9
100
AcDbSymbolTableRecord
100
AcDbRegAppTableRecord
  2
GENIUS_GENTRA_14
 70
     0
  0
APPID
  5
1766
330
9
100
AcDbSymbolTableRecord
100
AcDbRegAppTableRecord
  2
GENIUS_GENODEF_13
 70
     0
  0
APPID
  5
1767
330
9
100
AcDbSymbolTableRecord
100
AcDbRegAppTableRecord
  2
GENIUS_GENOBJ-N-TIT_13
 70
     0
  0
APPID
  5
1768
330
9
100
AcDbSymbolTableRecord
100
AcDbRegAppTableRecord
  2
GENIUS_GENTITLE_13
 70
     0
  0
APPID
  5
1769
330
9
100
AcDbSymbolTableRecord
100
AcDbRegAppTableRecord
  2
GENIUS_GENOENT_13
 70
     0
  0
APPID
  5
176A
330
9
100
AcDbSymbolTableRecord
100
AcDbRegAppTableRecord
  2
GENIUS_GENOREF_13
 70
     0
  0
APPID
  5
176B
330
9
100
AcDbSymbolTableRecord
100
AcDbRegAppTableRecord
  2
GENIUS_GENOLIS_13
 70
     0
  0
APPID
  5
176C
330
9
100
AcDbSymbolTableRecord
100
AcDbRegAppTableRecord
  2
GENIUS_GENOBJ-N-SDF_13
 70
     0
  0
APPID
  5
176D
330
9
100
AcDbSymbolTableRecord
100
AcDbRegAppTableRecord
  2
GENIUS_GENSCREG_13
 70
     0
  0
APPID
  5
688B
330
9
100
AcDbSymbolTableRecord
100
AcDbRegAppTableRecord
  2
ACAD_DSTYLE_DIM_LINETYPE
 70
     0
  0
APPID
  5
688C
330
9
100
AcDbSymbolTableRecord
100
AcDbRegAppTableRecord
  2
ACAD_DSTYLE_DIM_EXT1_LINETYPE
 70
     0
  0
APPID
  5
688D
330
9
100
AcDbSymbolTableRecord
100
AcDbRegAppTableRecord
  2
ACAD_DSTYLE_DIM_EXT2_LINETYPE
 70
     0
  0
APPID
  5
688E
330
9
100
AcDbSymbolTableRecord
100
AcDbRegAppTableRecord
  2
ACAD_EXEMPT_FROM_CAD_STANDARDS
 70
     0
  0
APPID
  5
688F
330
9
100
AcDbSymbolTableRecord
100
AcDbRegAppTableRecord
  2
CAXA
 70
     0
  0
APPID
  5
6890
330
9
100
AcDbSymbolTableRecord
100
AcDbRegAppTableRecord
  2
AcDbBlockRepETag
 70
     0
  0
APPID
  5
6891
330
9
100
AcDbSymbolTableRecord
100
AcDbRegAppTableRecord
  2
ACAUTHENVIRON
 70
     0
  0
APPID
  5
6892
330
9
100
AcDbSymbolTableRecord
100
AcDbRegAppTableRecord
  2
AcDbDynamicBlockTrueName
 70
     0
  0
APPID
  5
6893
330
9
100
AcDbSymbolTableRecord
100
AcDbRegAppTableRecord
  2
AcDbDynamicBlockGUID
 70
     0
  0
APPID
  5
6894
330
9
100
AcDbSymbolTableRecord
100
AcDbRegAppTableRecord
  2
STD
 70
     0
  0
APPID
  5
6895
330
9
100
AcDbSymbolTableRecord
100
AcDbRegAppTableRecord
  2
AcDbBlockRepBTag
 70
     0
  0
APPID
  5
6896
330
9
100
AcDbSymbolTableRecord
100
AcDbRegAppTableRecord
  2
RAK
 70
     0
  0
APPID
  5
8770
330
9
100
AcDbSymbolTableRecord
100
AcDbRegAppTableRecord
  2
AVE_RENDER
 70
     0
  0
APPID
  5
8771
330
9
100
AcDbSymbolTableRecord
100
AcDbRegAppTableRecord
  2
AVE_ENTITY_MATERIAL
 70
     0
  0
APPID
  5
8772
330
9
100
AcDbSymbolTableRecord
100
AcDbRegAppTableRecord
  2
AVE_FINISH
 70
     0
  0
APPID
  5
8773
330
9
100
AcDbSymbolTableRecord
100
AcDbRegAppTableRecord
  2
AVE_MATERIAL
 70
     0
  0
APPID
  5
8774
330
9
100
AcDbSymbolTableRecord
100
AcDbRegAppTableRecord
  2
AVE_GLOBAL
 70
     0
  0
APPID
  5
F4F3
330
9
100
AcDbSymbolTableRecord
100
AcDbRegAppTableRecord
  2
yx_bom1
 70
     0
  0
APPID
  5
F4F4
330
9
100
AcDbSymbolTableRecord
100
AcDbRegAppTableRecord
  2
yx_bom2
 70
     0
  0
APPID
  5
F4F5
330
9
100
AcDbSymbolTableRecord
100
AcDbRegAppTableRecord
  2
yx_bom3
 70
     0
  0
APPID
  5
12D6F
330
9
100
AcDbSymbolTableRecord
100
AcDbRegAppTableRecord
  2
ACAD_MLEADERVER
 70
     0
  0
APPID
  5
12DFC
330
9
100
AcDbSymbolTableRecord
100
AcDbRegAppTableRecord
  2
AcadAnnoPO
 70
     0
  0
APPID
  5
12FCD
330
9
100
AcDbSymbolTableRecord
100
AcDbRegAppTableRecord
  2
ACAD_DSTYLE_DIMJAG
 70
     0
  0
APPID
  5
12FCE
330
9
100
AcDbSymbolTableRecord
100
AcDbRegAppTableRecord
  2
ACAD_DSTYLE_DIMTALN
 70
     0
  0
APPID
  5
1A9DF
330
9
100
AcDbSymbolTableRecord
100
AcDbRegAppTableRecord
  2
AcadAnnotative
 70
     0
  0
APPID
  5
1E3C3
330
9
100
AcDbSymbolTableRecord
100
AcDbRegAppTableRecord
  2
ACAD_NAV_VCDISPLAY
 70
     0
  0
APPID
  5
463BD
330
9
100
AcDbSymbolTableRecord
100
AcDbRegAppTableRecord
  2
ACAD_DSTYLE_DIMBREAK
 70
     0
  0
APPID
  5
463BF
330
9
100
AcDbSymbolTableRecord
100
AcDbRegAppTableRecord
  2
ACAD_DSTYLE_DIMRADIAL_EXTENSION
 70
     0
  0
APPID
  5
847B6
330
9
100
AcDbSymbolTableRecord
100
AcDbRegAppTableRecord
  2
ACAD_DSTYLE_DIMINSPECT
 70
     0
  0
ENDTAB
  0
TABLE
  2
DIMSTYLE
  5
A
330
0
100
AcDbSymbolTable
 70
     5
100
AcDbDimStyleTable
 71
     2
340
F6EF
340
207
  0
DIMSTYLE
105
207
330
A
100
AcDbSymbolTableRecord
100
AcDbDimStyleTableRecord
  2
STANDARD
 70
     0
 41
3.5
 47
0.01
 48
0.01
 71
     1
 73
     0
 74
     0
 77
     1
 78
     8
140
3.5
271
     2
272
     2
284
     8
340
11
  0
DIMSTYLE
105
F6EF
102
{ACAD_REACTORS
330
8561F
330
85622
330
85623
330
85624
330
85625
330
85626
330
8562A
102
}
330
A
100
AcDbSymbolTableRecord
100
AcDbDimStyleTableRecord
  2
01
 70
     0
 41
3.5
 42
0.2
 43
0.2
 44
1.199999999999999
 73
     0
 74
     0
 77
     1
 78
     8
 79
     2
140
4.0
141
0.0
147
0.5
176
     1
177
     6
178
     4
179
     2
271
     1
272
     1
340
474F8
1001
ACAD_DSTYLE_DIMJAG
1070
   388
1040
1.5
1001
ACAD_DSTYLE_DIMTALN
1070
   392
1070
     0
  0
DIMSTYLE
105
81D79
330
A
100
AcDbSymbolTableRecord
100
AcDbDimStyleTableRecord
  2
01$3
 70
     0
 41
3.0
 42
0.2
 43
0.2
 44
2.0
 78
     8
 79
     2
140
3.5
141
0.0
147
0.5
176
     1
177
     6
178
     4
271
     2
272
     2
340
11
1001
ACAD_DSTYLE_DIMBREAK
1070
   391
1040
0.125
1001
ACAD_DSTYLE_DIMJAG
1070
   388
1040
1.5
1001
ACAD_DSTYLE_DIMTALN
1070
   392
1070
     0
  0
DIMSTYLE
105
854AE
330
A
100
AcDbSymbolTableRecord
100
AcDbDimStyleTableRecord
  2
DSTYLE2
 70
     0
 41
3.0
 42
0.0
 44
1.0
 45
0.1
 47
0.1
 73
     0
 74
     0
 78
    11
140
3.5
143
0.039370079
147
1.0
271
     3
272
     3
279
     2
340
11
1001
ACAD_DSTYLE_DIMJAG
1070
   388
1040
1.5
1001
ACAD_DSTYLE_DIMTALN
1070
   392
1070
     0
  0
ENDTAB
  0
TABLE
  2
BLOCK_RECORD
  5
1
330
0
100
AcDbSymbolTable
 70
    37
  0
BLOCK_RECORD
  5
1F
102
{ACAD_XDICTIONARY
360
85148
102
}
330
1
100
AcDbSymbolTableRecord
100
AcDbBlockTableRecord
  2
*MODEL_SPACE
340
22
 70
     0
280
     1
281
     0
  0
BLOCK_RECORD
  5
1B
330
1
100
AcDbSymbolTableRecord
100
AcDbBlockTableRecord
  2
*PAPER_SPACE
340
1E
 70
     0
280
     1
281
     0
  0
BLOCK_RECORD
  5
84E5
330
1
100
AcDbSymbolTableRecord
100
AcDbBlockTableRecord
  2
AVE_RENDER
340
0
102
{BLKREFS
331
8AE2
331
8AE3
331
8AE4
331
8AE5
331
8AE6
331
8AE7
331
8AE8
331
8AE9
102
}
 70
     0
280
     1
281
     0
  0
BLOCK_RECORD
  5
84E8
330
1
100
AcDbSymbolTableRecord
100
AcDbBlockTableRecord
  2
AVE_GLOBAL
340
0
102
{BLKREFS
331
8AEA
102
}
 70
     0
280
     1
281
     0
  0
BLOCK_RECORD
  5
47460
102
{ACAD_XDICTIONARY
360
858D5
102
}
330
1
100
AcDbSymbolTableRecord
100
AcDbBlockTableRecord
  2
A4图框-NEW
340
0
310
2800000020000000200000000100080000000000000400000000000000000000000000000000000000000000000080000080000000808000800000008000800080800000C0C0C000C0DCC000F0CAA6000020400000206000002080000020A0000020C0000020E00000400000004020000040400000406000004080000040A0
310
000040C0000040E00000600000006020000060400000606000006080000060A0000060C0000060E00000800000008020000080400000806000008080000080A0000080C0000080E00000A0000000A0200000A0400000A0600000A0800000A0A00000A0C00000A0E00000C0000000C0200000C0400000C0600000C0800000C0
310
A00000C0C00000C0E00000E0000000E0200000E0400000E0600000E0800000E0A00000E0C00000E0E00040000000400020004000400040006000400080004000A0004000C0004000E00040200000402020004020400040206000402080004020A0004020C0004020E000404000004040200040404000404060004040800040
310
40A0004040C0004040E00040600000406020004060400040606000406080004060A0004060C0004060E00040800000408020004080400040806000408080004080A0004080C0004080E00040A0000040A0200040A0400040A0600040A0800040A0A00040A0C00040A0E00040C0000040C0200040C0400040C0600040C08000
310
40C0A00040C0C00040C0E00040E0000040E0200040E0400040E0600040E0800040E0A00040E0C00040E0E00080000000800020008000400080006000800080008000A0008000C0008000E00080200000802020008020400080206000802080008020A0008020C0008020E00080400000804020008040400080406000804080
310
008040A0008040C0008040E00080600000806020008060400080606000806080008060A0008060C0008060E00080800000808020008080400080806000808080008080A0008080C0008080E00080A0000080A0200080A0400080A0600080A0800080A0A00080A0C00080A0E00080C0000080C0200080C0400080C0600080C0
310
800080C0A00080C0C00080C0E00080E0000080E0200080E0400080E0600080E0800080E0A00080E0C00080E0E000C0000000C0002000C0004000C0006000C0008000C000A000C000C000C000E000C0200000C0202000C0204000C0206000C0208000C020A000C020C000C020E000C0400000C0402000C0404000C0406000C0
310
408000C040A000C040C000C040E000C0600000C0602000C0604000C0606000C0608000C060A000C060C000C060E000C0800000C0802000C0804000C0806000C0808000C080A000C080C000C080E000C0A00000C0A02000C0A04000C0A06000C0A08000C0A0A000C0A0C000C0A0E000C0C00000C0C02000C0C04000C0C06000
310
C0C08000C0C0A000F0FBFF00A4A0A000808080000000FF0000FF000000FFFF00FF000000FF00FF00FFFF0000FFFFFF0000000000000000000000000000000000000000000000000000000000000000000000000000000000000000000000000000000000000000000000000000000000000000000000000000000000000000
310
000000000000000000000000000000000000000000000000000000000000000000000000000000000000000000000000000000000000000000000000000000000000000000000000000000000000000000000000000000000000000000000000000000000000000000000000000000000000F9F9F9F9F9F9F9F9F9F9F9F9F9
310
F9F9F9F9F9F9F9F9F9F9F9F9F9F9FF00000000F9FF000000000000000000FFFFFFFFFFFFFFFFFFFFFFFFF9FAFAFAFF00000000F9FF000000000000000000FFFFFFFFFFFFFFFFFFFFFFFFFFFFFFFFFF00000000F9FD000000000000000000FFFFFFFFFFFFFFFFFFFFFFFFFFFFFFFFFF00000000F9FF000000000000000000FF
310
FFFFFFFFFFFFFFFFFFFFFFFFFFFFFFFF00000000F9FD000000000000000000FFFFFFFFFFFFFFFFFFFFFFFFFFFFFFFFFF00000000F9FF00000000000000000000000000000000000000000000000000FF00000000F9FD00000000000000000000000000000000000000000000000000FF00000000F9FF000000000000000000
310
00000000000000000000000000000000FF00000000F9FD00000000000000000000000000000000000000000000000000FF00000000F9FF00000000000000000000000000000000000000000000000000FF00000000F9FD00000000000000000000000000000000000000000000000000FF00000000F9FD0000000000000000
310
0000000000000000000000000000000000FF00000000F9FF00000000000000000000000000000000000000000000000000FF00000000F9FD00000000000000000000000000000000000000000000000000FF00000000F9FF00000000000000000000000000000000000000000000000000FF00000000F9FD00000000000000
310
000000000000000000000000000000000000FF00000000F9FF00000000000000000000000000000000000000000000000000FF00000000F9FFFFFFFFFFFFFFFFFFFFFFFFFFFFFFFFFFFFFFFFFFFFFFFFFFFFFF00000000F9FFFFFFF9F9F9F9F9F9F9F9F9F9F9F9F9F9F9F9F9F9F9F9F9F9F9F9000000000000000000000000
310
00000000000000000000000000000000000000000000000000000000000000000000000000000000000000000000000000000000000000000000000000000000000000000000000000000000000000000000000000000000000000000000000000000000000000000000000000000000000000000000000000000000000000
310
0000000000000000000000000000000000000000000000000000000000000000000000000000000000000000000000000000000000000000
102
{BLKREFS
331
4BB87
102
}
 70
     4
280
     1
281
     0
1001
AcDbDynamicBlockGUID
1000
{D92E4423-24AA-46D9-BCF7-2F84508FF43E}
1001
AcDbBlockRepETag
1070
     1
1071
      148
  0
BLOCK_RECORD
  5
84E6B
330
1
100
AcDbSymbolTableRecord
100
AcDbBlockTableRecord
  2
*D3
340
0
 70
     0
280
     1
281
     0
  0
BLOCK_RECORD
  5
84E77
330
1
100
AcDbSymbolTableRecord
100
AcDbBlockTableRecord
  2
*D4
340
0
 70
     0
280
     1
281
     0
  0
BLOCK_RECORD
  5
84E84
330
1
100
AcDbSymbolTableRecord
100
AcDbBlockTableRecord
  2
*D5
340
0
 70
     0
280
     1
281
     0
  0
BLOCK_RECORD
  5
84E90
330
1
100
AcDbSymbolTableRecord
100
AcDbBlockTableRecord
  2
*D6
340
0
 70
     0
280
     1
281
     0
  0
BLOCK_RECORD
  5
84E99
330
1
100
AcDbSymbolTableRecord
100
AcDbBlockTableRecord
  2
*D7
340
0
 70
     0
280
     1
281
     0
  0
BLOCK_RECORD
  5
84EA2
330
1
100
AcDbSymbolTableRecord
100
AcDbBlockTableRecord
  2
*D8
340
0
 70
     0
280
     1
281
     0
  0
BLOCK_RECORD
  5
84EAD
330
1
100
AcDbSymbolTableRecord
100
AcDbBlockTableRecord
  2
*D9
340
0
 70
     0
280
     1
281
     0
  0
BLOCK_RECORD
  5
84EB9
330
1
100
AcDbSymbolTableRecord
100
AcDbBlockTableRecord
  2
*D10
340
0
 70
     0
280
     1
281
     0
  0
BLOCK_RECORD
  5
84EC5
330
1
100
AcDbSymbolTableRecord
100
AcDbBlockTableRecord
  2
*D11
340
0
 70
     0
280
     1
281
     0
  0
BLOCK_RECORD
  5
84ED2
330
1
100
AcDbSymbolTableRecord
100
AcDbBlockTableRecord
  2
*D12
340
0
 70
     0
280
     1
281
     0
  0
BLOCK_RECORD
  5
84EDE
330
1
100
AcDbSymbolTableRecord
100
AcDbBlockTableRecord
  2
*D13
340
0
 70
     0
280
     1
281
     0
  0
BLOCK_RECORD
  5
84EEB
330
1
100
AcDbSymbolTableRecord
100
AcDbBlockTableRecord
  2
*D14
340
0
 70
     0
280
     1
281
     0
  0
BLOCK_RECORD
  5
84EF8
330
1
100
AcDbSymbolTableRecord
100
AcDbBlockTableRecord
  2
*D15
340
0
 70
     0
280
     1
281
     0
  0
BLOCK_RECORD
  5
84F04
330
1
100
AcDbSymbolTableRecord
100
AcDbBlockTableRecord
  2
*D16
340
0
 70
     0
280
     1
281
     0
  0
BLOCK_RECORD
  5
84F10
330
1
100
AcDbSymbolTableRecord
100
AcDbBlockTableRecord
  2
*D17
340
0
 70
     0
280
     1
281
     0
  0
BLOCK_RECORD
  5
84F1D
330
1
100
AcDbSymbolTableRecord
100
AcDbBlockTableRecord
  2
*D18
340
0
 70
     0
280
     1
281
     0
  0
BLOCK_RECORD
  5
84F29
330
1
100
AcDbSymbolTableRecord
100
AcDbBlockTableRecord
  2
*D19
340
0
 70
     0
280
     1
281
     0
  0
BLOCK_RECORD
  5
84F35
330
1
100
AcDbSymbolTableRecord
100
AcDbBlockTableRecord
  2
*D20
340
0
 70
     0
280
     1
281
     0
  0
BLOCK_RECORD
  5
8544D
330
1
100
AcDbSymbolTableRecord
100
AcDbBlockTableRecord
  2
*D21
340
0
 70
     0
280
     1
281
     0
  0
BLOCK_RECORD
  5
8545A
330
1
100
AcDbSymbolTableRecord
100
AcDbBlockTableRecord
  2
*D22
340
0
 70
     0
280
     1
281
     0
  0
BLOCK_RECORD
  5
85468
330
1
100
AcDbSymbolTableRecord
100
AcDbBlockTableRecord
  2
*D23
340
0
 70
     0
280
     1
281
     0
  0
BLOCK_RECORD
  5
85475
330
1
100
AcDbSymbolTableRecord
100
AcDbBlockTableRecord
  2
*D24
340
0
 70
     0
280
     1
281
     0
  0
BLOCK_RECORD
  5
85484
330
1
100
AcDbSymbolTableRecord
100
AcDbBlockTableRecord
  2
*D25
340
0
 70
     0
280
     1
281
     0
  0
BLOCK_RECORD
  5
85491
330
1
100
AcDbSymbolTableRecord
100
AcDbBlockTableRecord
  2
*D26
340
0
 70
     0
280
     1
281
     0
  0
BLOCK_RECORD
  5
8549F
330
1
100
AcDbSymbolTableRecord
100
AcDbBlockTableRecord
  2
*D27
340
0
 70
     0
280
     1
281
     0
  0
BLOCK_RECORD
  5
85633
330
1
100
AcDbSymbolTableRecord
100
AcDbBlockTableRecord
  2
*D28
340
0
 70
     0
280
     1
281
     0
  0
BLOCK_RECORD
  5
8563F
330
1
100
AcDbSymbolTableRecord
100
AcDbBlockTableRecord
  2
*D29
340
0
 70
     0
280
     1
281
     0
  0
BLOCK_RECORD
  5
8564C
330
1
100
AcDbSymbolTableRecord
100
AcDbBlockTableRecord
  2
*D30
340
0
 70
     0
280
     1
281
     0
  0
BLOCK_RECORD
  5
85658
330
1
100
AcDbSymbolTableRecord
100
AcDbBlockTableRecord
  2
*D31
340
0
 70
     0
280
     1
281
     0
  0
BLOCK_RECORD
  5
85665
330
1
100
AcDbSymbolTableRecord
100
AcDbBlockTableRecord
  2
*D32
340
0
 70
     0
280
     1
281
     0
  0
BLOCK_RECORD
  5
85671
330
1
100
AcDbSymbolTableRecord
100
AcDbBlockTableRecord
  2
*D33
340
0
 70
     0
280
     1
281
     0
  0
BLOCK_RECORD
  5
8567E
330
1
100
AcDbSymbolTableRecord
100
AcDbBlockTableRecord
  2
*D34
340
0
 70
     0
280
     1
281
     0
  0
ENDTAB
  0
ENDSEC
  0
SECTION
  2
BLOCKS
  0
BLOCK
  5
20
330
1F
100
AcDbEntity
  8
0
100
AcDbBlockBegin
  2
*MODEL_SPACE
 70
     0
 10
0.0
 20
0.0
 30
0.0
  3
*MODEL_SPACE
  1

  0
ENDBLK
  5
21
330
1F
100
AcDbEntity
  8
0
100
AcDbBlockEnd
  0
BLOCK
  5
1C
330
1B
100
AcDbEntity
 67
     1
  8
0
100
AcDbBlockBegin
  2
*PAPER_SPACE
 70
     0
 10
0.0
 20
0.0
 30
0.0
  3
*PAPER_SPACE
  1

  0
ENDBLK
  5
1D
330
1B
100
AcDbEntity
 67
     1
  8
0
100
AcDbBlockEnd
  0
BLOCK
  5
84E6
330
84E5
100
AcDbEntity
  8
ASHADE
370
     0
100
AcDbBlockBegin
  2
AVE_RENDER
 70
     0
 10
0.0
 20
0.0
 30
0.0
  3
AVE_RENDER
  1
AVE_RENDER
  0
ENDBLK
  5
84E7
330
84E5
100
AcDbEntity
  8
0
370
     0
100
AcDbBlockEnd
  0
BLOCK
  5
84E9
330
84E8
100
AcDbEntity
  8
ASHADE
370
     0
100
AcDbBlockBegin
  2
AVE_GLOBAL
 70
     0
 10
0.0
 20
0.0
 30
0.0
  3
AVE_GLOBAL
  1
AVE_GLOBAL
  0
ENDBLK
  5
84EA
330
84E8
100
AcDbEntity
  8
0
370
     0
100
AcDbBlockEnd
  0
BLOCK
  5
47462
330
47460
100
AcDbEntity
  8
0
100
AcDbBlockBegin
  2
A4图框-NEW
 70
     0
 10
0.0
 20
0.0
 30
0.0
  3
A4图框-NEW
  1

  0
MTEXT
  5
85841
102
{ACAD_XDICTIONARY
360
85953
102
}
330
47460
100
AcDbEntity
  8
图框
 62
     3
100
AcDbMText
 10
967.6594956750133
 20
499.7664151964293
 30
0.0
 40
2.985513575034151
 41
15.50176341157864
 46
6.292658374511018
 71
     5
 72
     5
  1
HZ LAN
  7
Romans字体
 73
     1
 44
1.0
1001
AcDbBlockRepETag
1070
     1
1071
        0
1005
85841
1001
ACAD
1000
ACAD_MTEXT_DEFINED_HEIGHT_BEGIN
1070
    46
1040
6.292658374511018
1000
ACAD_MTEXT_DEFINED_HEIGHT_END
  0
MTEXT
  5
85842
330
47460
100
AcDbEntity
  8
图框
 62
     3
100
AcDbMText
 10
983.041569333247
 20
499.7664151964293
 30
0.0
 40
2.487927979195124
 41
15.26238390489062
 46
6.292658374511042
 71
     5
 72
     5
  1
{\W0.7;18.10.2016}
  7
Romans字体
 73
     1
 44
1.0
1001
AcDbBlockRepETag
1070
     1
1071
        1
1005
85842
1001
ACAD
1000
ACAD_MTEXT_DEFINED_HEIGHT_BEGIN
1070
    46
1040
6.292658374511042
1000
ACAD_MTEXT_DEFINED_HEIGHT_END
  0
MTEXT
  5
85843
330
47460
100
AcDbEntity
  8
图框
 62
     3
100
AcDbMText
 10
1012.477254728976
 20
487.1810984474071
 30
0.0
 40
2.985513575034151
 41
17.64876416884615
 46
6.292658374511455
 71
     5
 72
     5
  1
YY LUO
  7
Romans字体
 73
     1
 44
1.0
1001
AcDbBlockRepETag
1070
     1
1071
        2
1005
85843
1001
ACAD
1000
ACAD_MTEXT_DEFINED_HEIGHT_BEGIN
1070
    46
1040
6.292658374511455
1000
ACAD_MTEXT_DEFINED_HEIGHT_END
  0
MTEXT
  5
85844
330
47460
100
AcDbEntity
  8
图框
 62
     3
100
AcDbMText
 10
1028.977802139886
 20
487.1810984474071
 30
0.0
 40
2.487927979195124
 41
15.35233065297276
 46
6.292658374511495
 71
     5
 72
     5
  1
{\W0.7;18.10.2016}
  7
Romans字体
 73
     1
 44
1.0
1001
AcDbBlockRepETag
1070
     1
1071
        3
1005
85844
1001
ACAD
1000
ACAD_MTEXT_DEFINED_HEIGHT_BEGIN
1070
    46
1040
6.292658374511495
1000
ACAD_MTEXT_DEFINED_HEIGHT_END
  0
MTEXT
  5
85845
330
47460
100
AcDbEntity
  8
图框
 62
     3
100
AcDbMText
 10
1063.722665487208
 20
525.4145966538831
 30
0.0
 40
2.985513575034151
 41
32.4973914334545
 46
11.82914190181707
 71
     5
 72
     5
  1
-
  7
Romans字体
 73
     1
 44
1.0
1001
AcDbBlockRepETag
1070
     1
1071
        4
1005
85845
1001
ACAD
1000
ACAD_MTEXT_DEFINED_HEIGHT_BEGIN
1070
    46
1040
11.82914190181707
1000
ACAD_MTEXT_DEFINED_HEIGHT_END
  0
MTEXT
  5
85846
330
47460
100
AcDbEntity
  8
图框
 62
     3
100
AcDbMText
 10
1063.727338552349
 20
513.5854547520641
 30
0.0
 40
2.985513575034151
 41
32.48804530317308
 46
11.82914190182139
 71
     5
 72
     5
  1
-
  7
Romans字体
 73
     1
 44
1.0
1001
AcDbBlockRepETag
1070
     1
1071
        5
1005
85846
1001
ACAD
1000
ACAD_MTEXT_DEFINED_HEIGHT_BEGIN
1070
    46
1040
11.82914190182139
1000
ACAD_MTEXT_DEFINED_HEIGHT_END
  0
MTEXT
  5
85847
330
47460
100
AcDbEntity
  8
图框
 62
     3
100
AcDbMText
 10
1110.122306614152
 20
526.8006839312707
 30
0.0
 40
2.985513575034151
 41
33.61239199242139
 46
9.05696734704178
 71
     5
 72
     5
  1
-
  7
Romans字体
 73
     1
 44
1.0
1001
AcDbBlockRepETag
1070
     1
1071
        6
1005
85847
1001
ACAD
1000
ACAD_MTEXT_DEFINED_HEIGHT_BEGIN
1070
    46
1040
9.05696734704178
1000
ACAD_MTEXT_DEFINED_HEIGHT_END
  0
MTEXT
  5
85848
330
47460
100
AcDbEntity
  8
图框
 62
     3
100
AcDbMText
 10
1110.122306614152
 20
500.2775205517162
 30
0.0
 40
2.985513575034151
 41
33.61239199242139
 46
8.871557304763419
 71
     5
 72
     5
  1
-
  7
Romans字体
 73
     1
 44
1.0
1001
AcDbBlockRepETag
1070
     1
1071
        7
1005
85848
1001
ACAD
1000
ACAD_MTEXT_DEFINED_HEIGHT_BEGIN
1070
    46
1040
8.871557304763419
1000
ACAD_MTEXT_DEFINED_HEIGHT_END
  0
MTEXT
  5
85849
330
47460
100
AcDbEntity
  8
图框
 62
     3
100
AcDbMText
 10
967.6594956750133
 20
493.4737568219182
 30
0.0
 40
2.985513575034151
 41
15.50176341157864
 46
6.292658374510335
 71
     5
 72
     5
  1
ZW WU
  7
Romans字体
 73
     1
 44
1.0
1001
AcDbBlockRepETag
1070
     1
1071
        8
1005
85849
1001
ACAD
1000
ACAD_MTEXT_DEFINED_HEIGHT_BEGIN
1070
    46
1040
6.292658374510335
1000
ACAD_MTEXT_DEFINED_HEIGHT_END
  0
MTEXT
  5
8584A
330
47460
100
AcDbEntity
  8
图框
 62
     3
100
AcDbMText
 10
983.041569333247
 20
493.2441970450405
 30
0.0
 40
2.487927979195124
 41
15.26238390489051
 46
6.751777928266487
 71
     5
 72
     5
  1
{\W0.7;18.10.2016}
  7
Romans字体
 73
     1
 44
1.0
1001
AcDbBlockRepETag
1070
     1
1071
        9
1005
8584A
1001
ACAD
1000
ACAD_MTEXT_DEFINED_HEIGHT_BEGIN
1070
    46
1040
6.751777928266487
1000
ACAD_MTEXT_DEFINED_HEIGHT_END
  0
MTEXT
  5
8584B
330
47460
100
AcDbEntity
  8
图框
 62
     3
100
AcDbMText
 10
1012.477254728976
 20
499.7664151964291
 30
0.0
 40
2.985513575034151
 41
17.64876416884615
 46
6.292658374511397
 71
     5
 72
     5
  1
-
  7
Romans字体
 73
     1
 44
1.0
1001
AcDbBlockRepETag
1070
     1
1071
       10
1005
8584B
1001
ACAD
1000
ACAD_MTEXT_DEFINED_HEIGHT_BEGIN
1070
    46
1040
6.292658374511397
1000
ACAD_MTEXT_DEFINED_HEIGHT_END
  0
MTEXT
  5
8584C
330
47460
100
AcDbEntity
  8
图框
 62
     3
100
AcDbMText
 10
1028.977802139886
 20
499.7664151964289
 30
0.0
 40
2.487927979195124
 41
15.35233065297265
 46
6.292658374511382
 71
     5
 72
     5
  1
-
  7
Romans字体
 73
     1
 44
1.0
1001
AcDbBlockRepETag
1070
     1
1071
       11
1005
8584C
1001
ACAD
1000
ACAD_MTEXT_DEFINED_HEIGHT_BEGIN
1070
    46
1040
6.292658374511382
1000
ACAD_MTEXT_DEFINED_HEIGHT_END
  0
MTEXT
  5
8584D
330
47460
100
AcDbEntity
  8
图框
 62
     3
100
AcDbMText
 10
967.6594956750133
 20
487.1810984474071
 30
0.0
 40
2.985513575034151
 41
15.50176341157863
 46
6.292658374511478
 71
     5
 72
     5
  1
-
  7
Romans字体
 73
     1
 44
1.0
1001
AcDbBlockRepETag
1070
     1
1071
       12
1005
8584D
1001
ACAD
1000
ACAD_MTEXT_DEFINED_HEIGHT_BEGIN
1070
    46
1040
6.292658374511478
1000
ACAD_MTEXT_DEFINED_HEIGHT_END
  0
MTEXT
  5
8584E
330
47460
100
AcDbEntity
  8
图框
 62
     3
100
AcDbMText
 10
983.041569333247
 20
487.1810984474071
 30
0.0
 40
2.487927979195124
 41
15.26238390489062
 46
6.292658374511495
 71
     5
 72
     5
  1
-
  7
Romans字体
 73
     1
 44
1.0
1001
AcDbBlockRepETag
1070
     1
1071
       13
1005
8584E
1001
ACAD
1000
ACAD_MTEXT_DEFINED_HEIGHT_BEGIN
1070
    46
1040
6.292658374511495
1000
ACAD_MTEXT_DEFINED_HEIGHT_END
  0
MTEXT
  5
8584F
330
47460
100
AcDbEntity
  8
图框
 62
     3
100
AcDbMText
 10
1074.556686986741
 20
495.8417418993361
 30
0.0
 40
2.985513575034151
 41
10.82934843438978
 46
7.886094601210427
 71
     5
 72
     5
  1
-
  7
Romans字体
 73
     1
 44
1.0
1001
AcDbBlockRepETag
1070
     1
1071
       14
1005
8584F
1001
ACAD
1000
ACAD_MTEXT_DEFINED_HEIGHT_BEGIN
1070
    46
1040
7.886094601210427
1000
ACAD_MTEXT_DEFINED_HEIGHT_END
  0
LINE
  5
85850
330
47460
100
AcDbEntity
  8
图框
370
    -3
100
AcDbLine
 10
1036.653967466372
 20
499.7847891999413
 30
0.0
 11
1079.971361203936
 21
499.7847891999413
 31
0.0
1001
AcDbBlockRepETag
1070
     1
1071
       15
1005
85850
  0
MTEXT
  5
85851
330
47460
100
AcDbEntity
  8
图框
 62
     1
370
    20
100
AcDbMText
 10
1108.26336443907
 20
491.5162596080882
 30
0.0
 40
2.699054613030988
 41
82.30831305643079
 46
0.0
 71
     5
 72
     5
  1
{\fSimHei|b0|i0|c134|p2;厦门唯恩电气有限公司}
 73
     1
 44
1.0
1001
AcDbBlockRepETag
1070
     1
1071
       16
1005
85851
  0
MTEXT
  5
85852
330
47460
100
AcDbEntity
  8
图框
 62
     3
370
    20
100
AcDbMText
 10
1108.435451459908
 20
487.298967726064
 30
0.0
 40
1.652482416141417
 41
68.08558693693567
 46
0.0
 71
     5
 72
     5
  1
{\fArial Narrow|b0|i0|c0|p34;XIAMEN WAIN ELECTRICAL CO.LTD}
  7
工程字
 73
     1
 44
1.0
1001
AcDbBlockRepETag
1070
     1
1071
       17
1005
85852
  0
MTEXT
  5
85853
330
47460
100
AcDbEntity
  8
图框
 62
     1
370
    20
100
AcDbMText
 10
1085.711816899387
 20
491.0944802995856
 30
0.0
 40
2.005930044038334
 41
5.047240019334847
 46
0.0
 71
     1
 72
     5
  1
{\fArial|b0|i0|c0|p34;A}
  7
Chinese
 73
     1
 44
1.0
1001
AcDbBlockRepETag
1070
     1
1071
       18
1005
85853
  0
MTEXT
  5
85854
330
47460
100
AcDbEntity
  8
图框
 62
     1
370
    20
100
AcDbMText
 10
1088.213485935716
 20
491.0944802995856
 30
0.0
 40
2.005930044038334
 41
5.047240019334847
 46
0.0
 71
     1
 72
     5
  1
{\fArial|b0|i0|c0|p34;I}
  7
Chinese
 73
     1
 44
1.0
1001
AcDbBlockRepETag
1070
     1
1071
       19
1005
85854
  0
MTEXT
  5
85855
330
47460
100
AcDbEntity
  8
图框
 62
     1
370
    20
100
AcDbMText
 10
1089.142375222864
 20
491.0822866326808
 30
0.0
 40
2.005930044038334
 41
5.047240019334847
 46
0.0
 71
     1
 72
     5
  1
{\fArial|b0|i0|c0|p34;N}
  7
Chinese
 73
     1
 44
1.0
1001
AcDbBlockRepETag
1070
     1
1071
       20
1005
85855
  0
MTEXT
  5
85856
330
47460
100
AcDbEntity
  8
图框
100
AcDbMText
 10
1069.142012769545
 20
487.9667319294409
 30
0.0
 40
2.252848170144607
 41
21.65869686878327
 46
7.863925338579296
 71
     5
 72
     5
  1
{\W0.5;\C1;All Dimensions in mm\POriginal Size DIN A 4}
  7
Romans字体
 73
     1
 44
1.0
1001
AcDbBlockRepETag
1070
     1
1071
       21
1005
85856
1001
ACAD
1000
ACAD_MTEXT_DEFINED_HEIGHT_BEGIN
1070
    46
1040
7.863925338579296
1000
ACAD_MTEXT_DEFINED_HEIGHT_END
  0
MTEXT
  5
85857
330
47460
100
AcDbEntity
  8
图框
  6
ByBlock
 62
     6
370
    18
100
AcDbMText
 10
1127.40434942308
 20
508.7896535755975
 30
0.0
 40
2.651776162684904
 41
2.557913877927211
 46
0.0
 71
     1
 72
     5
  1
A
  7
Romans字体
 11
0.0000000000000001
 21
1.0
 31
0.0
 73
     1
 44
1.0
1001
AcDbBlockRepETag
1070
     1
1071
       22
1005
85857
  0
MTEXT
  5
85858
330
47460
100
AcDbEntity
  8
图框
 62
     6
100
AcDbMText
 10
1127.40434942308
 20
556.3746573232886
 30
0.0
 40
2.651776162684904
 41
2.557913877927211
 46
0.0
 71
     1
 72
     5
  1
B
  7
Romans字体
 11
0.0000000000000001
 21
1.0
 31
0.0
 73
     1
 44
1.0
1001
AcDbBlockRepETag
1070
     1
1071
       23
1005
85858
  0
MTEXT
  5
85859
330
47460
100
AcDbEntity
  8
图框
 62
     6
100
AcDbMText
 10
1127.40434942308
 20
607.5539372630998
 30
0.0
 40
2.651776162684904
 41
2.557913877927211
 46
0.0
 71
     1
 72
     5
  1
C
  7
Romans字体
 11
0.0000000000000001
 21
1.0
 31
0.0
 73
     1
 44
1.0
1001
AcDbBlockRepETag
1070
     1
1071
       24
1005
85859
  0
MTEXT
  5
8585A
330
47460
100
AcDbEntity
  8
图框
 62
     6
100
AcDbMText
 10
1127.40434942308
 20
658.7332172029115
 30
0.0
 40
2.651776162684904
 41
2.557913877927211
 46
0.0
 71
     1
 72
     5
  1
D
  7
Romans字体
 11
0.0000000000000001
 21
1.0
 31
0.0
 73
     1
 44
1.0
1001
AcDbBlockRepETag
1070
     1
1071
       25
1005
8585A
  0
LINE
  5
8585B
330
47460
100
AcDbEntity
  8
图框
 62
     6
100
AcDbLine
 10
1130.411601781241
 20
634.0726090796082
 30
0.0
 11
1126.928502610363
 21
634.0726090796082
 31
0.0
1001
AcDbBlockRepETag
1070
     1
1071
       26
1005
8585B
  0
LINE
  5
8585C
330
47460
100
AcDbEntity
  8
图框
 62
     6
100
AcDbLine
 10
1130.411601781241
 20
582.89332913979
 30
0.0
 11
1126.928502610363
 21
582.89332913979
 31
0.0
1001
AcDbBlockRepETag
1070
     1
1071
       27
1005
8585C
  0
MTEXT
  5
8585D
330
47460
100
AcDbEntity
  8
图框
 62
     6
100
AcDbMText
 10
1105.329704038389
 20
483.6164543011163
 30
0.0
 40
2.651776162684904
 41
2.557913877927211
 46
0.0
 71
     1
 72
     5
  1
6
  7
Romans字体
 73
     1
 44
1.0
1001
AcDbBlockRepETag
1070
     1
1071
       28
1005
8585D
  0
LINE
  5
8585E
330
47460
100
AcDbEntity
  8
图框
 62
     6
100
AcDbLine
 10
1081.088565155284
 20
484.0347692601515
 30
0.0
 11
1081.088565155284
 21
480.5347692601475
 31
0.0
1001
AcDbBlockRepETag
1070
     1
1071
       29
1005
8585E
  0
MTEXT
  5
8585F
330
47460
100
AcDbEntity
  8
图框
 62
     6
100
AcDbMText
 10
1055.900596365941
 20
483.520053108993
 30
0.0
 40
2.651776162684904
 41
2.557913877927211
 46
0.0
 71
     1
 72
     5
  1
5
  7
Romans字体
 73
     1
 44
1.0
1001
AcDbBlockRepETag
1070
     1
1071
       30
1005
8585F
  0
LINE
  5
85860
330
47460
100
AcDbEntity
  8
图框
 62
     6
100
AcDbLine
 10
1031.553386436349
 20
484.0347692601515
 30
0.0
 11
1031.553386436349
 21
480.5347692601475
 31
0.0
1001
AcDbBlockRepETag
1070
     1
1071
       31
1005
85860
  0
MTEXT
  5
85861
330
47460
100
AcDbEntity
  8
图框
 62
     6
100
AcDbMText
 10
1006.383180575197
 20
483.5687958215896
 30
0.0
 40
2.651776162684904
 41
2.557913877927211
 46
0.0
 71
     1
 72
     5
  1
4
  7
Romans字体
 73
     1
 44
1.0
1001
AcDbBlockRepETag
1070
     1
1071
       32
1005
85861
  0
LINE
  5
85862
330
47460
100
AcDbEntity
  8
图框
 62
     6
100
AcDbLine
 10
982.0182077173887
 20
484.0347692601515
 30
0.0
 11
982.0182077173887
 21
480.5347692601475
 31
0.0
1001
AcDbBlockRepETag
1070
     1
1071
       33
1005
85862
  0
MTEXT
  5
85863
330
47460
100
AcDbEntity
  8
图框
 62
     6
100
AcDbMText
 10
956.8302389280352
 20
483.5989680297948
 30
0.0
 40
2.651776162684904
 41
2.557913877927211
 46
0.0
 71
     1
 72
     5
  1
3
  7
Romans字体
 73
     1
 44
1.0
1001
AcDbBlockRepETag
1070
     1
1071
       34
1005
85863
  0
LINE
  5
85864
330
47460
100
AcDbEntity
  8
图框
 62
     6
100
AcDbLine
 10
932.4830289984245
 20
484.0347692601515
 30
0.0
 11
932.4830289984245
 21
480.5347692601475
 31
0.0
1001
AcDbBlockRepETag
1070
     1
1071
       35
1005
85864
  0
MTEXT
  5
85865
330
47460
100
AcDbEntity
  8
图框
 62
     6
100
AcDbMText
 10
906.0252349826365
 20
483.6475250013156
 30
0.0
 40
2.651776162684904
 41
2.557913877927211
 46
0.0
 71
     1
 72
     5
  1
2
  7
Romans字体
 73
     1
 44
1.0
1001
AcDbBlockRepETag
1070
     1
1071
       36
1005
85865
  0
LINE
  5
85866
330
47460
100
AcDbEntity
  8
图框
 62
     6
100
AcDbLine
 10
882.9478502794648
 20
484.0347692601515
 30
0.0
 11
882.9478502794648
 21
480.5347692601475
 31
0.0
1001
AcDbBlockRepETag
1070
     1
1071
       37
1005
85866
  0
MTEXT
  5
85867
330
47460
100
AcDbEntity
  8
图框
 62
     6
100
AcDbMText
 10
857.7598814901191
 20
483.651829494754
 30
0.0
 40
2.651776162684904
 41
2.557913877927211
 46
0.0
 71
     1
 72
     5
  1
1
  7
Romans字体
 73
     1
 44
1.0
1001
AcDbBlockRepETag
1070
     1
1071
       38
1005
85867
  0
LINE
  5
85868
330
47460
100
AcDbEntity
  8
图框
370
    50
100
AcDbLine
 10
836.8548209370597
 20
484.0347692601515
 30
0.0
 11
1126.928502610363
 21
484.0347692601515
 31
0.0
1001
AcDbBlockRepETag
1070
     1
1071
       39
1005
85868
  0
LINE
  5
85869
330
47460
100
AcDbEntity
  8
图框
370
    50
100
AcDbLine
 10
836.9128518455362
 20
484.0178684310246
 30
0.0
 11
836.9128518455394
 21
675.0207195125422
 31
0.0
1001
AcDbBlockRepETag
1070
     1
1071
       40
1005
85869
  0
MTEXT
  5
8586A
330
47460
100
AcDbEntity
  8
图框
 62
     6
100
AcDbMText
 10
833.8475685789031
 20
658.7332172029115
 30
0.0
 40
2.651776162684904
 41
2.557913877927211
 46
0.0
 71
     1
 72
     5
  1
D
  7
Romans字体
 11
0.0000000000000001
 21
1.0
 31
0.0
 73
     1
 44
1.0
1001
AcDbBlockRepETag
1070
     1
1071
       41
1005
8586A
  0
LINE
  5
8586B
330
47460
100
AcDbEntity
  8
图框
 62
     6
100
AcDbLine
 10
836.9128518455386
 20
634.0726090796082
 30
0.0
 11
833.4128518455365
 21
634.0726090796082
 31
0.0
1001
AcDbBlockRepETag
1070
     1
1071
       42
1005
8586B
  0
MTEXT
  5
8586C
330
47460
100
AcDbEntity
  8
图框
 62
     6
100
AcDbMText
 10
833.9039177480142
 20
607.5539372630998
 30
0.0
 40
2.651776162684904
 41
2.557913877927211
 46
0.0
 71
     1
 72
     5
  1
C
  7
Romans字体
 11
0.0000000000000001
 21
1.0
 31
0.0
 73
     1
 44
1.0
1001
AcDbBlockRepETag
1070
     1
1071
       43
1005
8586C
  0
LINE
  5
8586D
330
47460
100
AcDbEntity
  8
图框
 62
     6
100
AcDbLine
 10
836.9128518455378
 20
582.89332913979
 30
0.0
 11
833.4128518455365
 21
582.89332913979
 31
0.0
1001
AcDbBlockRepETag
1070
     1
1071
       44
1005
8586D
  0
MTEXT
  5
8586E
330
47460
100
AcDbEntity
  8
图框
 62
     6
100
AcDbMText
 10
833.9039177480142
 20
556.3746573232886
 30
0.0
 40
2.651776162684904
 41
2.557913877927211
 46
0.0
 71
     1
 72
     5
  1
B
  7
Romans字体
 11
0.0000000000000001
 21
1.0
 31
0.0
 73
     1
 44
1.0
1001
AcDbBlockRepETag
1070
     1
1071
       45
1005
8586E
  0
LINE
  5
8586F
330
47460
100
AcDbEntity
  8
图框
 62
     6
100
AcDbLine
 10
836.9128518455367
 20
531.714049199969
 30
0.0
 11
833.4128518455365
 21
531.714049199969
 31
0.0
1001
AcDbBlockRepETag
1070
     1
1071
       46
1005
8586F
  0
MTEXT
  5
85870
330
47460
100
AcDbEntity
  8
图框
 62
     6
100
AcDbMText
 10
833.9039177480142
 20
508.7896535755975
 30
0.0
 40
2.651776162684904
 41
2.557913877927211
 46
0.0
 71
     1
 72
     5
  1
A
  7
Romans字体
 11
0.0000000000000001
 21
1.0
 31
0.0
 73
     1
 44
1.0
1001
AcDbBlockRepETag
1070
     1
1071
       47
1005
85870
  0
LINE
  5
85871
330
47460
100
AcDbEntity
  8
图框
370
    -3
100
AcDbLine
 10
836.9128518455394
 20
675.0207195125422
 30
0.0
 11
836.9128518455394
 21
684.5021384922564
 31
0.0
1001
AcDbBlockRepETag
1070
     1
1071
       48
1005
85871
  0
LINE
  5
85872
330
47460
100
AcDbEntity
  8
图框
370
    -3
100
AcDbLine
 10
842.6237321475781
 20
675.5347692601515
 30
0.0
 11
842.6237321475781
 21
685.0161882398658
 31
0.0
1001
AcDbBlockRepETag
1070
     1
1071
       49
1005
85872
  0
LINE
  5
85873
330
47460
100
AcDbEntity
  8
图框
370
    -3
100
AcDbLine
 10
848.3346124496179
 20
675.5347692601515
 30
0.0
 11
848.3346124496179
 21
685.0161882398658
 31
0.0
1001
AcDbBlockRepETag
1070
     1
1071
       50
1005
85873
  0
LINE
  5
85874
330
47460
100
AcDbEntity
  8
图框
370
    -3
100
AcDbLine
 10
854.0454927516588
 20
675.5347692601515
 30
0.0
 11
854.0454927516588
 21
685.0161882398658
 31
0.0
1001
AcDbBlockRepETag
1070
     1
1071
       51
1005
85874
  0
LINE
  5
85875
330
47460
100
AcDbEntity
  8
图框
370
    -3
100
AcDbLine
 10
861.5351874539182
 20
675.5347692601515
 30
0.0
 11
861.5351874539182
 21
686.7901958362482
 31
0.0
1001
AcDbBlockRepETag
1070
     1
1071
       52
1005
85875
  0
MTEXT
  5
85876
330
47460
100
AcDbEntity
  8
图框
 62
     6
100
AcDbMText
 10
1105.329704038389
 20
678.859919059449
 30
0.0
 40
2.651776162684904
 41
2.557913877927211
 46
0.0
 71
     1
 72
     5
  1
6
  7
Romans字体
 73
     1
 44
1.0
1001
AcDbBlockRepETag
1070
     1
1071
       53
1005
85876
  0
LINE
  5
85877
330
47460
100
AcDbEntity
  8
图框
 62
     6
100
AcDbLine
 10
1081.088565155284
 20
679.0347692601516
 30
0.0
 11
1081.088565155284
 21
675.5347692601515
 31
0.0
1001
AcDbBlockRepETag
1070
     1
1071
       54
1005
85877
  0
MTEXT
  5
85878
330
47460
100
AcDbEntity
  8
图框
 62
     6
100
AcDbMText
 10
1055.900596365941
 20
678.859919059449
 30
0.0
 40
2.651776162684904
 41
2.557913877927211
 46
0.0
 71
     1
 72
     5
  1
5
  7
Romans字体
 73
     1
 44
1.0
1001
AcDbBlockRepETag
1070
     1
1071
       55
1005
85878
  0
LINE
  5
85879
330
47460
100
AcDbEntity
  8
图框
 62
     6
100
AcDbLine
 10
1031.553386436349
 20
679.0347692601516
 30
0.0
 11
1031.553386436349
 21
675.5347692601515
 31
0.0
1001
AcDbBlockRepETag
1070
     1
1071
       56
1005
85879
  0
MTEXT
  5
8587A
330
47460
100
AcDbEntity
  8
图框
 62
     6
100
AcDbMText
 10
1006.36541764698
 20
678.7312083656147
 30
0.0
 40
2.651776162684904
 41
2.557913877927211
 46
0.0
 71
     1
 72
     5
  1
4
  7
Romans字体
 73
     1
 44
1.0
1001
AcDbBlockRepETag
1070
     1
1071
       57
1005
8587A
  0
LINE
  5
8587B
330
47460
100
AcDbEntity
  8
图框
 62
     6
100
AcDbLine
 10
982.0182077173887
 20
679.0347692601516
 30
0.0
 11
982.0182077173887
 21
675.5347692601515
 31
0.0
1001
AcDbBlockRepETag
1070
     1
1071
       58
1005
8587B
  0
MTEXT
  5
8587C
330
47460
100
AcDbEntity
  8
图框
 62
     6
100
AcDbMText
 10
956.8302389280352
 20
678.859919059449
 30
0.0
 40
2.651776162684904
 41
2.557913877927211
 46
0.0
 71
     1
 72
     5
  1
3
  7
Romans字体
 73
     1
 44
1.0
1001
AcDbBlockRepETag
1070
     1
1071
       59
1005
8587C
  0
LINE
  5
8587D
330
47460
100
AcDbEntity
  8
图框
 62
     6
100
AcDbLine
 10
932.4830289984245
 20
679.0347692601516
 30
0.0
 11
932.4830289984245
 21
675.5347692601515
 31
0.0
1001
AcDbBlockRepETag
1070
     1
1071
       60
1005
8587D
  0
MTEXT
  5
8587E
330
47460
100
AcDbEntity
  8
图框
 62
     6
100
AcDbMText
 10
907.295060209082
 20
678.859919059449
 30
0.0
 40
2.651776162684904
 41
2.557913877927211
 46
0.0
 71
     1
 72
     5
  1
2
  7
Romans字体
 73
     1
 44
1.0
1001
AcDbBlockRepETag
1070
     1
1071
       61
1005
8587E
  0
LINE
  5
8587F
330
47460
100
AcDbEntity
  8
图框
 62
     6
100
AcDbLine
 10
882.9478502794648
 20
678.7962435131815
 30
0.0
 11
882.9478502794648
 21
675.5347692601515
 31
0.0
1001
AcDbBlockRepETag
1070
     1
1071
       62
1005
8587F
  0
MTEXT
  5
85880
330
47460
100
AcDbEntity
  8
图框
 62
     6
100
AcDbMText
 10
862.6286629643733
 20
678.859919059449
 30
0.0
 40
2.651776162684904
 41
2.557913877927211
 46
0.0
 71
     1
 72
     5
  1
1
  7
Romans字体
 73
     1
 44
1.0
1001
AcDbBlockRepETag
1070
     1
1071
       63
1005
85880
  0
LINE
  5
85881
330
47460
100
AcDbEntity
  8
图框
370
    -3
100
AcDbLine
 10
836.9128518455394
 20
675.0207195125422
 30
0.0
 11
836.9128518455394
 21
686.7901958362482
 31
0.0
1001
AcDbBlockRepETag
1070
     1
1071
       64
1005
85881
  0
LINE
  5
85882
330
47460
100
AcDbEntity
  8
图框
370
    50
100
AcDbLine
 10
836.9128518455394
 20
675.5347692601515
 30
0.0
 11
1126.928502610363
 21
675.5347692601515
 31
0.0
1001
AcDbBlockRepETag
1070
     1
1071
       65
1005
85882
  0
LINE
  5
85883
330
47460
100
AcDbEntity
  8
图框
370
    -3
100
AcDbLine
 10
842.6237321475781
 20
675.5347692601515
 30
0.0
 11
842.6237321475781
 21
686.7901958362482
 31
0.0
1001
AcDbBlockRepETag
1070
     1
1071
       66
1005
85883
  0
LINE
  5
85884
330
47460
100
AcDbEntity
  8
图框
370
    -3
100
AcDbLine
 10
848.3346124496179
 20
675.5347692601515
 30
0.0
 11
848.3346124496179
 21
686.7901958362482
 31
0.0
1001
AcDbBlockRepETag
1070
     1
1071
       67
1005
85884
  0
MTEXT
  5
85885
102
{ACAD_XDICTIONARY
360
85955
102
}
330
47460
100
AcDbEntity
  8
图框
100
AcDbMText
 10
857.7903401027889
 20
686.7901958362482
 30
0.0
 40
1.958998408821398
 41
11.25542657609672
 46
7.489694702258906
 71
     4
 72
     5
  1
\pi2.8203;档案员{\H0.7x;\P\pi1.4159;\Fromans|c134;Filing Clerk\fFangSong_GB2312|b0|i0|c134|p49; }
 11
-0.0000000000000002
 21
-1.0
 31
0.0
 73
     1
 44
1.0
1001
AcDbBlockRepETag
1070
     1
1071
       68
1005
85885
1001
ACAD
1000
ACAD_MTEXT_DEFINED_HEIGHT_BEGIN
1070
    46
1040
7.489694702258906
1000
ACAD_MTEXT_DEFINED_HEIGHT_END
  0
MTEXT
  5
85886
102
{ACAD_XDICTIONARY
360
85957
102
}
330
47460
100
AcDbEntity
  8
图框
100
AcDbMText
 10
845.479172298598
 20
686.7901958362482
 30
0.0
 40
1.958998408821398
 41
11.25542657609672
 46
5.710880302039671
 71
     4
 72
     5
  1
\pi0.7115;日期{\Fromans|c134;/Date}
 11
-0.0000000000000002
 21
-1.0
 31
0.0
 73
     1
 44
1.0
1001
AcDbBlockRepETag
1070
     1
1071
       69
1005
85886
1001
ACAD
1000
ACAD_MTEXT_DEFINED_HEIGHT_BEGIN
1070
    46
1040
5.710880302039671
1000
ACAD_MTEXT_DEFINED_HEIGHT_END
  0
LINE
  5
85887
330
47460
100
AcDbEntity
  8
图框
370
    -3
100
AcDbLine
 10
854.0454927516588
 20
675.5347692601515
 30
0.0
 11
854.0454927516588
 21
686.7901958362482
 31
0.0
1001
AcDbBlockRepETag
1070
     1
1071
       70
1005
85887
  0
LINE
  5
85888
330
47460
100
AcDbEntity
  8
图框
370
    -3
100
AcDbLine
 10
1036.653967466372
 20
531.3291676047914
 30
0.0
 11
1036.653967466372
 21
484.0126019753161
 31
0.0
1001
AcDbBlockRepETag
1070
     1
1071
       71
1005
85888
  0
LINE
  5
85889
330
47460
100
AcDbEntity
  8
图框
370
    -3
100
AcDbLine
 10
1047.483315900763
 20
507.6708838011533
 30
0.0
 11
1047.483315900763
 21
491.8986945987308
 31
0.0
1001
AcDbBlockRepETag
1070
     1
1071
       72
1005
85889
  0
LINE
  5
8588A
330
47460
100
AcDbEntity
  8
图框
370
    -3
100
AcDbLine
 10
1058.312664335153
 20
507.6708838011533
 30
0.0
 11
1058.312664335153
 21
484.0347692601515
 31
0.0
1001
AcDbBlockRepETag
1070
     1
1071
       73
1005
8588A
  0
LINE
  5
8588B
330
47460
100
AcDbEntity
  8
图框
370
    25
100
AcDbLine
 10
1048.474135214456
 20
488.1095628329926
 30
0.0
 11
1054.946420288459
 21
488.1095628329926
 31
0.0
1001
AcDbBlockRepETag
1070
     1
1071
       74
1005
8588B
  0
LINE
  5
8588C
330
47460
100
AcDbEntity
  8
图框
370
    25
100
AcDbLine
 10
1054.232527365989
 20
487.0761716842634
 30
0.0
 11
1049.156490914508
 21
486.4576273751
 31
0.0
1001
AcDbBlockRepETag
1070
     1
1071
       75
1005
8588C
  0
LINE
  5
8588D
330
47460
100
AcDbEntity
  8
图框
370
    25
100
AcDbLine
 10
1054.232527365989
 20
489.1429539817209
 30
0.0
 11
1049.156490914508
 21
489.7614982908846
 31
0.0
1001
AcDbBlockRepETag
1070
     1
1071
       76
1005
8588D
  0
LINE
  5
8588E
330
47460
100
AcDbEntity
  8
图框
370
    25
100
AcDbLine
 10
1049.156490914508
 20
489.7614982908846
 30
0.0
 11
1049.156490914508
 21
486.4576273751
 31
0.0
1001
AcDbBlockRepETag
1070
     1
1071
       77
1005
8588E
  0
LINE
  5
8588F
330
47460
100
AcDbEntity
  8
图框
370
    25
100
AcDbLine
 10
1054.232527365989
 20
489.1429539817209
 30
0.0
 11
1054.232527365989
 21
487.0761716842634
 31
0.0
1001
AcDbBlockRepETag
1070
     1
1071
       78
1005
8588F
  0
CIRCLE
  5
85890
330
47460
100
AcDbEntity
  8
图框
370
    25
100
AcDbCircle
 10
1042.502700458579
 20
488.1095628329926
 30
0.0
 40
1.651935457891863
1001
AcDbBlockRepETag
1070
     1
1071
       79
1005
85890
  0
CIRCLE
  5
85891
330
47460
100
AcDbEntity
  8
图框
370
    25
100
AcDbCircle
 10
1042.502700458579
 20
488.1095628329926
 30
0.0
 40
1.033391148728775
1001
AcDbBlockRepETag
1070
     1
1071
       80
1005
85891
  0
LINE
  5
85892
330
47460
100
AcDbEntity
  8
图框
370
    25
100
AcDbLine
 10
1040.136872078216
 20
488.1095628329926
 30
0.0
 11
1044.868528838943
 21
488.1095628329926
 31
0.0
1001
AcDbBlockRepETag
1070
     1
1071
       81
1005
85892
  0
LINE
  5
85893
330
47460
100
AcDbEntity
  8
图框
370
    25
100
AcDbLine
 10
1042.502700458579
 20
490.475391213355
 30
0.0
 11
1042.502700458579
 21
485.743734452629
 31
0.0
1001
AcDbBlockRepETag
1070
     1
1071
       82
1005
85893
  0
LINE
  5
85894
330
47460
100
AcDbEntity
  8
图框
370
    -3
100
AcDbLine
 10
1069.142012769546
 20
507.6708838011533
 30
0.0
 11
1069.142012769546
 21
491.8986945987308
 31
0.0
1001
AcDbBlockRepETag
1070
     1
1071
       83
1005
85894
  0
MTEXT
  5
85895
330
47460
100
AcDbEntity
  8
图框
100
AcDbMText
 10
1086.643735910939
 20
526.8006839312707
 30
0.0
 40
2.154898249703542
 41
13.34474941400573
 46
9.056967347041775
 71
     5
 72
     5
  1
图号{\Ftxt|c134;\P\Fromans|c134;\W0.65;Drawing No.}
 73
     1
 44
1.0
1001
AcDbBlockRepETag
1070
     1
1071
       84
1005
85895
1001
ACAD
1000
ACAD_MTEXT_DEFINED_HEIGHT_BEGIN
1070
    46
1040
9.056967347041775
1000
ACAD_MTEXT_DEFINED_HEIGHT_END
  0
LINE
  5
85896
330
47460
100
AcDbEntity
  8
图框
370
    -3
100
AcDbLine
 10
1093.316110617942
 20
531.3291676047914
 30
0.0
 11
1093.316110617942
 21
495.8417418993347
 31
0.0
1001
AcDbBlockRepETag
1070
     1
1071
       85
1005
85896
  0
LINE
  5
85897
330
47460
100
AcDbEntity
  8
图框
370
    -3
100
AcDbLine
 10
1047.473969770481
 20
531.3291676047914
 30
0.0
 11
1047.473969770481
 21
507.6708838011533
 31
0.0
1001
AcDbBlockRepETag
1070
     1
1071
       86
1005
85897
  0
MTEXT
  5
85898
330
47460
100
AcDbEntity
  8
图框
100
AcDbMText
 10
1063.72733855235
 20
503.7278365005473
 30
0.0
 40
2.252848170144607
 41
10.82934843439208
 46
7.886094601212128
 71
     5
 72
     5
  1
重量\P{\Fromans|c134;Weight}
 73
     1
 44
1.0
1001
AcDbBlockRepETag
1070
     1
1071
       87
1005
85898
1001
ACAD
1000
ACAD_MTEXT_DEFINED_HEIGHT_BEGIN
1070
    46
1040
7.886094601212128
1000
ACAD_MTEXT_DEFINED_HEIGHT_END
  0
LINE
  5
85899
330
47460
100
AcDbEntity
  8
图框
370
    -3
100
AcDbLine
 10
1036.653967466372
 20
519.5000257029746
 30
0.0
 11
1079.971361203936
 21
519.5000257029746
 31
0.0
1001
AcDbBlockRepETag
1070
     1
1071
       88
1005
85899
  0
MTEXT
  5
8589A
330
47460
100
AcDbEntity
  8
图框
100
AcDbMText
 10
1074.556686986741
 20
503.7278365005473
 30
0.0
 40
2.252848170144607
 41
10.82934843438984
 46
7.886094601212141
 71
     5
 72
     5
  1
数量\P{\Fromans|c134;Qty.}
 73
     1
 44
1.0
1001
AcDbBlockRepETag
1070
     1
1071
       89
1005
8589A
1001
ACAD
1000
ACAD_MTEXT_DEFINED_HEIGHT_BEGIN
1070
    46
1040
7.886094601212141
1000
ACAD_MTEXT_DEFINED_HEIGHT_END
  0
LINE
  5
8589B
330
47460
100
AcDbEntity
  8
图框
370
    -3
100
AcDbLine
 10
1079.971361203936
 20
495.8417418993347
 30
0.0
 11
1126.928502610363
 21
495.8417418993342
 31
0.0
1001
AcDbBlockRepETag
1070
     1
1071
       90
1005
8589B
  0
LINE
  5
8589C
330
47460
100
AcDbEntity
  8
图框
370
    -3
100
AcDbLine
 10
1079.971361203936
 20
504.7132992040975
 30
0.0
 11
1126.928502610363
 21
504.7132992040975
 31
0.0
1001
AcDbBlockRepETag
1070
     1
1071
       91
1005
8589C
  0
MTEXT
  5
8589D
330
47460
100
AcDbEntity
  8
图框
100
AcDbMText
 10
1052.893317052817
 20
503.7278365005473
 30
0.0
 40
2.252848170144607
 41
10.83869456467139
 46
7.886094601212101
 71
     5
 72
     5
  1
版本\P{\Fromans|c134;REV.}
 73
     1
 44
1.0
1001
AcDbBlockRepETag
1070
     1
1071
       92
1005
8589D
1001
ACAD
1000
ACAD_MTEXT_DEFINED_HEIGHT_BEGIN
1070
    46
1040
7.886094601212101
1000
ACAD_MTEXT_DEFINED_HEIGHT_END
  0
MTEXT
  5
8589E
330
47460
100
AcDbEntity
  8
图框
100
AcDbMText
 10
1042.068641683568
 20
503.7278365005473
 30
0.0
 40
2.252848170144607
 41
10.8293484343908
 46
7.886094601212136
 71
     5
 72
     5
  1
比例\P{\Fromans|c134;Scale}
 73
     1
 44
1.0
1001
AcDbBlockRepETag
1070
     1
1071
       93
1005
8589E
1001
ACAD
1000
ACAD_MTEXT_DEFINED_HEIGHT_BEGIN
1070
    46
1040
7.886094601212136
1000
ACAD_MTEXT_DEFINED_HEIGHT_END
  0
LINE
  5
8589F
330
47460
100
AcDbEntity
  8
图框
370
    -3
100
AcDbLine
 10
1036.653967466372
 20
507.6708838011533
 30
0.0
 11
1079.971361203936
 21
507.6708838011533
 31
0.0
1001
AcDbBlockRepETag
1070
     1
1071
       94
1005
8589F
  0
LINE
  5
858A0
330
47460
100
AcDbEntity
  8
图框
370
    -3
100
AcDbLine
 10
1036.653967466372
 20
491.8986945987308
 30
0.0
 11
1079.971361203936
 21
491.8986945987308
 31
0.0
1001
AcDbBlockRepETag
1070
     1
1071
       95
1005
858A0
  0
LINE
  5
858A1
330
47460
100
AcDbEntity
  8
图框
370
    -3
100
AcDbLine
 10
1079.971361203936
 20
531.3291676047914
 30
0.0
 11
1079.971361203936
 21
484.0125999975168
 31
0.0
1001
AcDbBlockRepETag
1070
     1
1071
       96
1005
858A1
  0
MTEXT
  5
858A2
330
47460
100
AcDbEntity
  8
图框
100
AcDbMText
 10
1042.063968618426
 20
525.4145966538832
 30
0.0
 40
2.252848170144607
 41
10.82000230410933
 46
11.82914190181708
 71
     5
 72
     5
  1
表面处理\P{\Fromans|c134;Finish}
 73
     1
 44
1.0
1001
AcDbBlockRepETag
1070
     1
1071
       97
1005
858A2
1001
ACAD
1000
ACAD_MTEXT_DEFINED_HEIGHT_BEGIN
1070
    46
1040
11.82914190181708
1000
ACAD_MTEXT_DEFINED_HEIGHT_END
  0
MTEXT
  5
858A3
330
47460
100
AcDbEntity
  8
图框
100
AcDbMText
 10
1042.063968618426
 20
513.5854547520639
 30
0.0
 40
2.252848170144607
 41
10.82000230410933
 46
11.8291419018212
 71
     5
 72
     5
  1
材料\P{\Fromans|c134;Material}
 73
     1
 44
1.0
1001
AcDbBlockRepETag
1070
     1
1071
       98
1005
858A3
1001
ACAD
1000
ACAD_MTEXT_DEFINED_HEIGHT_BEGIN
1070
    46
1040
11.8291419018212
1000
ACAD_MTEXT_DEFINED_HEIGHT_END
  0
LINE
  5
858A4
330
47460
100
AcDbEntity
  8
图框
370
    -3
100
AcDbLine
 10
1079.971361203936
 20
522.27220025775
 30
0.0
 11
1126.928502610363
 21
522.27220025775
 31
0.0
1001
AcDbBlockRepETag
1070
     1
1071
       99
1005
858A4
  0
LINE
  5
858A5
330
47460
100
AcDbEntity
  8
图框
370
    -3
100
AcDbLine
 10
1079.971361203936
 20
513.5854547520641
 30
0.0
 11
1126.928502610363
 21
513.5854547520639
 31
0.0
1001
AcDbBlockRepETag
1070
     1
1071
      100
1005
858A5
  0
MTEXT
  5
858A6
330
47460
100
AcDbEntity
  8
图框
100
AcDbMText
 10
1086.643735910939
 20
517.9288275049072
 30
0.0
 40
1.958998408821398
 41
13.34474941400573
 46
8.686745505685811
 71
     5
 72
     5
  1
产品代号\P{\Fromans|c134;Part Code}
 73
     1
 44
1.0
1001
AcDbBlockRepETag
1070
     1
1071
      101
1005
858A6
1001
ACAD
1000
ACAD_MTEXT_DEFINED_HEIGHT_BEGIN
1070
    46
1040
8.686745505685811
1000
ACAD_MTEXT_DEFINED_HEIGHT_END
  0
LINE
  5
858A7
330
47460
100
AcDbEntity
  8
图框
370
    -3
100
AcDbLine
 10
946.9285026103634
 20
525.7982263931411
 30
0.0
 11
1036.653967466372
 21
525.7982263931411
 31
0.0
1001
AcDbBlockRepETag
1070
     1
1071
      102
1005
858A7
  0
LINE
  5
858A8
330
47460
100
AcDbEntity
  8
图框
370
    -3
100
AcDbLine
 10
946.9285026103634
 20
520.2672851814959
 30
0.0
 11
1036.653967466372
 21
520.2672851814959
 31
0.0
1001
AcDbBlockRepETag
1070
     1
1071
      103
1005
858A8
  0
LINE
  5
858A9
330
47460
100
AcDbEntity
  8
图框
370
    35
100
AcDbLine
 10
946.9285026103634
 20
531.3291676047914
 30
0.0
 11
1126.928502610363
 21
531.3291676047914
 31
0.0
1001
AcDbBlockRepETag
1070
     1
1071
      104
1005
858A9
  0
LINE
  5
858AA
330
47460
100
AcDbEntity
  8
图框
370
    -3
100
AcDbLine
 10
990.6727612856927
 20
509.2054027581959
 30
0.0
 11
990.6727612856927
 21
484.0347692601515
 31
0.0
1001
AcDbBlockRepETag
1070
     1
1071
      105
1005
858AA
  0
MTEXT
  5
858AB
102
{ACAD_XDICTIONARY
360
85959
102
}
330
47460
100
AcDbEntity
  8
图框
100
AcDbMText
 10
997.1628169651232
 20
499.816589978722
 30
0.0
 40
2.252848170144607
 41
12.98011135886052
 46
6.19230880992475
 71
     5
 72
     5
  1
{\f仿宋_GB2312|b0|i0|c134|p49;标准化}\PStand.
  7
Romans字体
 73
     1
 44
1.0
1001
AcDbBlockRepETag
1070
     1
1071
      106
1005
858AB
1001
ACAD
1000
ACAD_MTEXT_DEFINED_HEIGHT_BEGIN
1070
    46
1040
6.19230880992475
1000
ACAD_MTEXT_DEFINED_HEIGHT_END
  0
LINE
  5
858AC
330
47460
100
AcDbEntity
  8
图框
370
    -3
100
AcDbLine
 10
975.4103773808022
 20
509.2054027581959
 30
0.0
 11
975.4103773808022
 21
484.0347692601515
 31
0.0
1001
AcDbBlockRepETag
1070
     1
1071
      107
1005
858AC
  0
MTEXT
  5
858AD
330
47460
100
AcDbEntity
  8
图框
100
AcDbMText
 10
984.5089229802068
 20
511.9708733640202
 30
0.0
 40
2.448748011026752
 41
38.287899328693
 46
5.530941211648832
 71
     5
 72
     5
  1
  变更描述{\Fromans|c134;/Description}
 73
     1
 44
1.0
1001
AcDbBlockRepETag
1070
     1
1071
      108
1005
858AD
1001
ACAD
1000
ACAD_MTEXT_DEFINED_HEIGHT_BEGIN
1070
    46
1040
5.530941211648832
1000
ACAD_MTEXT_DEFINED_HEIGHT_END
  0
MTEXT
  5
858AE
102
{ACAD_XDICTIONARY
360
8595B
102
}
330
47460
100
AcDbEntity
  8
图框
100
AcDbMText
 10
1012.466086049227
 20
511.9708733640202
 30
0.0
 40
1.958998408821398
 41
17.6264268093469
 46
5.530941211648825
 71
     5
 72
     5
  1
签名\P{\Fromans|c134;Signature} 
 73
     1
 44
1.0
1001
AcDbBlockRepETag
1070
     1
1071
      109
1005
858AE
1001
ACAD
1000
ACAD_MTEXT_DEFINED_HEIGHT_BEGIN
1070
    46
1040
5.530941211648825
1000
ACAD_MTEXT_DEFINED_HEIGHT_END
  0
MTEXT
  5
858AF
102
{ACAD_XDICTIONARY
360
8595D
102
}
330
47460
100
AcDbEntity
  8
图框
100
AcDbMText
 10
960.7558556394856
 20
511.9708733640202
 30
0.0
 40
1.958998408821398
 41
9.218235352749283
 46
5.530941211648841
 71
     5
 72
     5
  1
处数\P{\Fromans|c134;Number }
 73
     1
 44
1.0
1001
AcDbBlockRepETag
1070
     1
1071
      110
1005
858AF
1001
ACAD
1000
ACAD_MTEXT_DEFINED_HEIGHT_BEGIN
1070
    46
1040
5.530941211648841
1000
ACAD_MTEXT_DEFINED_HEIGHT_END
  0
LINE
  5
858B0
330
47460
100
AcDbEntity
  8
图框
370
    -3
100
AcDbLine
 10
946.9285026103634
 20
514.7363439698449
 30
0.0
 11
1036.653967466372
 21
514.7363439698449
 31
0.0
1001
AcDbBlockRepETag
1070
     1
1071
      111
1005
858B0
  0
LINE
  5
858B1
330
47460
100
AcDbEntity
  8
图框
370
    -3
100
AcDbLine
 10
946.9285026103634
 20
509.2054027581959
 30
0.0
 11
1036.653967466372
 21
509.2054027581959
 31
0.0
1001
AcDbBlockRepETag
1070
     1
1071
      112
1005
858B1
  0
LINE
  5
858B2
330
47460
100
AcDbEntity
  8
图框
370
    -3
100
AcDbLine
 10
946.9285026103634
 20
502.9127443836848
 30
0.0
 11
1036.653967466372
 21
502.9127443836848
 31
0.0
1001
AcDbBlockRepETag
1070
     1
1071
      113
1005
858B2
  0
LINE
  5
858B3
330
47460
100
AcDbEntity
  8
图框
370
    -3
100
AcDbLine
 10
946.9285026103634
 20
496.620086009173
 30
0.0
 11
1036.653967466372
 21
496.620086009173
 31
0.0
1001
AcDbBlockRepETag
1070
     1
1071
      114
1005
858B3
  0
LINE
  5
858B4
330
47460
100
AcDbEntity
  8
图框
370
    35
380
     1
100
AcDbLine
 10
946.9285026103634
 20
531.3291676047914
 30
0.0
 11
946.9285026103634
 21
484.0347692601515
 31
0.0
1001
AcDbBlockRepETag
1070
     1
1071
      115
1005
858B4
  0
LINE
  5
858B5
330
47460
100
AcDbEntity
  8
图框
370
    -3
100
AcDbLine
 10
1021.301636813399
 20
531.3291676047914
 30
0.0
 11
1021.301636813399
 21
484.0347692601515
 31
0.0
1001
AcDbBlockRepETag
1070
     1
1071
      116
1005
858B5
  0
LINE
  5
858B6
330
47460
100
AcDbEntity
  8
图框
370
    -3
100
AcDbLine
 10
1003.652872644553
 20
531.3291676047914
 30
0.0
 11
1003.652872644553
 21
484.0347692601515
 31
0.0
1001
AcDbBlockRepETag
1070
     1
1071
      117
1005
858B6
  0
LINE
  5
858B7
330
47460
100
AcDbEntity
  8
图框
370
    -3
100
AcDbLine
 10
965.3649733158603
 20
531.3291676047914
 30
0.0
 11
965.3649733158603
 21
509.2054027581959
 31
0.0
1001
AcDbBlockRepETag
1070
     1
1071
      118
1005
858B7
  0
LINE
  5
858B8
330
47460
100
AcDbEntity
  8
图框
370
    -3
100
AcDbLine
 10
956.1467379631109
 20
531.3291676047914
 30
0.0
 11
956.1467379631109
 21
509.2054027581959
 31
0.0
1001
AcDbBlockRepETag
1070
     1
1071
      119
1005
858B8
  0
MTEXT
  5
858B9
102
{ACAD_XDICTIONARY
360
8595F
102
}
330
47460
100
AcDbEntity
  8
图框
100
AcDbMText
 10
951.537620286737
 20
511.9708733640202
 30
0.0
 40
1.958998408821398
 41
9.218235352747692
 46
5.530941211648832
 71
     5
 72
     5
  1
标记\P{\Fromans|c134;Mark}
 73
     1
 44
1.0
1001
AcDbBlockRepETag
1070
     1
1071
      120
1005
858B9
1001
ACAD
1000
ACAD_MTEXT_DEFINED_HEIGHT_BEGIN
1070
    46
1040
5.530941211648832
1000
ACAD_MTEXT_DEFINED_HEIGHT_END
  0
MTEXT
  5
858BA
102
{ACAD_XDICTIONARY
360
85961
102
}
330
47460
100
AcDbEntity
  8
图框
100
AcDbMText
 10
953.4185582897936
 20
493.4737568219182
 30
0.0
 40
2.252848170144607
 41
12.98011135886041
 46
6.292658374510382
 71
     5
 72
     5
  1
审核\P{\Fromans|c134;Checked}
 73
     1
 44
1.0
1001
AcDbBlockRepETag
1070
     1
1071
      121
1005
858BA
1001
ACAD
1000
ACAD_MTEXT_DEFINED_HEIGHT_BEGIN
1070
    46
1040
6.292658374510382
1000
ACAD_MTEXT_DEFINED_HEIGHT_END
  0
MTEXT
  5
858BB
102
{ACAD_XDICTIONARY
360
85963
102
}
330
47460
100
AcDbEntity
  8
图框
100
AcDbMText
 10
953.4185582897936
 20
499.8775635376777
 30
0.0
 40
2.252848170144607
 41
12.98011135886041
 46
6.070361692014189
 71
     5
 72
     5
  1
绘图\P{\Fromans|c134;Drawn\Ftxt|c134; }
 73
     1
 44
1.0
1001
AcDbBlockRepETag
1070
     1
1071
      122
1005
858BB
1001
ACAD
1000
ACAD_MTEXT_DEFINED_HEIGHT_BEGIN
1070
    46
1040
6.070361692014189
1000
ACAD_MTEXT_DEFINED_HEIGHT_END
  0
ARC
  5
858BC
330
47460
100
AcDbEntity
  8
图框
 62
     4
370
    35
100
AcDbCircle
 10
1086.900627017421
 20
490.0179944151195
 30
0.0
 40
4.063310408393665
100
AcDbArc
 50
18.95237904564806
 51
161.0476209543519
1001
AcDbBlockRepETag
1070
     1
1071
      123
1005
858BC
  0
ARC
  5
858BD
330
47460
100
AcDbEntity
  8
图框
 62
     4
370
    35
100
AcDbCircle
 10
1086.900627017421
 20
490.0179944151195
 30
0.0
 40
4.063310408393665
100
AcDbArc
 50
198.952379045648
 51
341.0476209543519
1001
AcDbBlockRepETag
1070
     1
1071
      124
1005
858BD
  0
LINE
  5
858BE
330
47460
100
AcDbEntity
  8
图框
 62
     4
370
    35
100
AcDbLine
 10
1083.057593369548
 20
488.6983035966752
 30
0.0
 11
1090.74366066529
 21
488.6983035966752
 31
0.0
1001
AcDbBlockRepETag
1070
     1
1071
      125
1005
858BE
  0
LINE
  5
858BF
330
47460
100
AcDbEntity
  8
图框
 62
     4
370
    35
100
AcDbLine
 10
1083.057593369548
 20
491.3376852335652
 30
0.0
 11
1090.74366066529
 21
491.3376852335652
 31
0.0
1001
AcDbBlockRepETag
1070
     1
1071
      126
1005
858BF
  0
MTEXT
  5
858C0
330
47460
100
AcDbEntity
  8
图框
 62
     1
370
    20
100
AcDbMText
 10
1083.034582879669
 20
491.0506288081688
 30
0.0
 40
2.005930044038334
 41
5.047240019334847
 46
0.0
 71
     1
 72
     5
  1
{\fArial|b0|i0|c0|p34;W}
  7
Chinese
 73
     1
 44
1.0
1001
AcDbBlockRepETag
1070
     1
1071
      127
1005
858C0
  0
LINE
  5
858C1
330
47460
100
AcDbEntity
  8
图框
370
    -3
100
AcDbLine
 10
946.9285026103634
 20
490.327427634663
 30
0.0
 11
1036.653967466372
 21
490.327427634663
 31
0.0
1001
AcDbBlockRepETag
1070
     1
1071
      128
1005
858C1
  0
LINE
  5
858C2
330
47460
100
AcDbEntity
  8
图框
370
    -3
100
AcDbLine
 10
959.9086139692238
 20
509.2054027581959
 30
0.0
 11
959.9086139692238
 21
484.0347692601515
 31
0.0
1001
AcDbBlockRepETag
1070
     1
1071
      129
1005
858C2
  0
MTEXT
  5
858C3
330
47460
100
AcDbEntity
  8
图框
100
AcDbMText
 10
967.6594956750129
 20
506.0590735709403
 30
0.0
 40
2.252848170144607
 41
15.50176341157869
 46
6.292658374511246
 71
     5
 72
     5
  1
姓名{\Fromans|c134;/Name\Ftxt|c134; }
 73
     1
 44
1.0
1001
AcDbBlockRepETag
1070
     1
1071
      130
1005
858C3
1001
ACAD
1000
ACAD_MTEXT_DEFINED_HEIGHT_BEGIN
1070
    46
1040
6.292658374511246
1000
ACAD_MTEXT_DEFINED_HEIGHT_END
  0
MTEXT
  5
858C4
330
47460
100
AcDbEntity
  8
图框
100
AcDbMText
 10
983.0415693332477
 20
506.0590735709403
 30
0.0
 40
2.252848170144607
 41
15.26238390489042
 46
6.2926583745112
 71
     5
 72
     5
  1
日期{\Fromans|c134;/Date}
 73
     1
 44
1.0
1001
AcDbBlockRepETag
1070
     1
1071
      131
1005
858C4
1001
ACAD
1000
ACAD_MTEXT_DEFINED_HEIGHT_BEGIN
1070
    46
1040
6.2926583745112
1000
ACAD_MTEXT_DEFINED_HEIGHT_END
  0
LINE
  5
858C5
330
47460
100
AcDbEntity
  8
图框
370
    -3
100
AcDbLine
 10
946.9285026103634
 20
509.2054027581959
 30
0.0
 11
959.9086139692238
 21
502.9127443836848
 31
0.0
1001
AcDbBlockRepETag
1070
     1
1071
      132
1005
858C5
  0
MTEXT
  5
858C6
330
47460
100
AcDbEntity
  8
图框
100
AcDbMText
 10
1012.931405110086
 20
506.0185715840725
 30
0.0
 40
2.252848170144607
 41
16.93492221063566
 46
0.0
 71
     5
 72
     5
  1
姓名{\Fromans|c134;/Name}
 73
     1
 44
1.0
1001
AcDbBlockRepETag
1070
     1
1071
      133
1005
858C6
  0
MTEXT
  5
858C7
330
47460
100
AcDbEntity
  8
图框
100
AcDbMText
 10
1028.977802139886
 20
506.0590735709403
 30
0.0
 40
2.252848170144607
 41
15.35233065297283
 46
6.292658374511256
 71
     5
 72
     5
  1
日期{\Fromans|c134;/Date}
 73
     1
 44
1.0
1001
AcDbBlockRepETag
1070
     1
1071
      134
1005
858C7
1001
ACAD
1000
ACAD_MTEXT_DEFINED_HEIGHT_BEGIN
1070
    46
1040
6.292658374511256
1000
ACAD_MTEXT_DEFINED_HEIGHT_END
  0
LINE
  5
858C8
330
47460
100
AcDbEntity
  8
图框
370
    -3
100
AcDbLine
 10
1003.652872644553
 20
502.9127443836848
 30
0.0
 11
990.6727612856927
 21
509.2054027581959
 31
0.0
1001
AcDbBlockRepETag
1070
     1
1071
      135
1005
858C8
  0
MTEXT
  5
858C9
102
{ACAD_XDICTIONARY
360
85965
102
}
330
47460
100
AcDbEntity
  8
图框
100
AcDbMText
 10
997.1628169651232
 20
487.1810984474071
 30
0.0
 40
2.252848170144607
 41
12.98011135886052
 46
6.292658374511517
 71
     5
 72
     5
  1
批准\P{\Fromans|c134;Approved}
 73
     1
 44
1.0
1001
AcDbBlockRepETag
1070
     1
1071
      136
1005
858C9
1001
ACAD
1000
ACAD_MTEXT_DEFINED_HEIGHT_BEGIN
1070
    46
1040
6.292658374511517
1000
ACAD_MTEXT_DEFINED_HEIGHT_END
  0
MTEXT
  5
858CA
102
{ACAD_XDICTIONARY
360
85967
102
}
330
47460
100
AcDbEntity
  8
图框
100
AcDbMText
 10
953.4185582897936
 20
487.1810984474071
 30
0.0
 40
2.252848170144607
 41
12.98011135886041
 46
6.292658374511495
 71
     5
 72
     5
  1
工艺\P{\Fromans|c134;Process}
 73
     1
 44
1.0
1001
AcDbBlockRepETag
1070
     1
1071
      137
1005
858CA
1001
ACAD
1000
ACAD_MTEXT_DEFINED_HEIGHT_BEGIN
1070
    46
1040
6.292658374511495
1000
ACAD_MTEXT_DEFINED_HEIGHT_END
  0
MTEXT
  5
858CB
102
{ACAD_XDICTIONARY
360
85969
102
}
330
47460
100
AcDbEntity
  8
图框
100
AcDbMText
 10
1028.977802139886
 20
511.8287965307664
 30
0.0
 40
1.958998408821398
 41
15.3523306529728
 46
5.246787545140668
 71
     5
 72
     5
  1
日期\P{\Fromans|c134;Date}
 73
     1
 44
1.0
1001
AcDbBlockRepETag
1070
     1
1071
      138
1005
858CB
1001
ACAD
1000
ACAD_MTEXT_DEFINED_HEIGHT_BEGIN
1070
    46
1040
5.246787545140668
1000
ACAD_MTEXT_DEFINED_HEIGHT_END
  0
MTEXT
  5
858CC
330
47460
100
AcDbEntity
  8
图框
100
AcDbMText
 10
1086.643735910939
 20
509.1493769780809
 30
0.0
 40
2.154898249703542
 41
13.34474941400573
 46
8.87215554796615
 71
     5
 72
     5
  1
产品料号\P{\Fromans|c134;Part No.}
 73
     1
 44
1.0
1001
AcDbBlockRepETag
1070
     1
1071
      139
1005
858CC
1001
ACAD
1000
ACAD_MTEXT_DEFINED_HEIGHT_BEGIN
1070
    46
1040
8.87215554796615
1000
ACAD_MTEXT_DEFINED_HEIGHT_END
  0
MTEXT
  5
858CD
330
47460
100
AcDbEntity
  8
图框
100
AcDbMText
 10
1086.643735910939
 20
500.2775205517163
 30
0.0
 40
1.958998408821398
 41
13.34474941400573
 46
8.871557304763321
 71
     5
 72
     5
  1
产品名称\P{\Fromans|c134;Part Name}
 73
     1
 44
1.0
1001
AcDbBlockRepETag
1070
     1
1071
      140
1005
858CD
1001
ACAD
1000
ACAD_MTEXT_DEFINED_HEIGHT_BEGIN
1070
    46
1040
8.871557304763321
1000
ACAD_MTEXT_DEFINED_HEIGHT_END
  0
LINE
  5
858CE
330
47460
100
AcDbEntity
  8
图框
 62
     1
370
    18
100
AcDbLine
 10
833.4128518455365
 20
690.5347692601515
 30
0.0
 11
833.4128518455365
 21
480.5347692601515
 31
0.0
1001
AcDbBlockRepETag
1070
     1
1071
      141
1005
858CE
  0
LINE
  5
858CF
330
47460
100
AcDbEntity
  8
图框
 62
     1
370
    18
100
AcDbLine
 10
833.4128518455365
 20
480.5347692601515
 30
0.0
 11
1130.411601781236
 21
480.5347692601515
 31
0.0
1001
AcDbBlockRepETag
1070
     1
1071
      142
1005
858CF
  0
LINE
  5
858D0
330
47460
100
AcDbEntity
  8
图框
 62
     1
370
    18
100
AcDbLine
 10
833.4128518455365
 20
690.5347692601515
 30
0.0
 11
1130.411601781236
 21
690.5347692601515
 31
0.0
1001
AcDbBlockRepETag
1070
     1
1071
      143
1005
858D0
  0
LINE
  5
858D1
330
47460
100
AcDbEntity
  8
图框
 62
     1
370
    18
100
AcDbLine
 10
1130.411601781236
 20
480.5347692601515
 30
0.0
 11
1130.411601781236
 21
690.5347692601515
 31
0.0
1001
AcDbBlockRepETag
1070
     1
1071
      144
1005
858D1
  0
LINE
  5
858D2
330
47460
100
AcDbEntity
  8
图框
370
    18
100
AcDbLine
 10
836.9128518455394
 20
686.7901958362482
 30
0.0
 11
861.5351874539182
 21
686.7901958362482
 31
0.0
1001
AcDbBlockRepETag
1070
     1
1071
      145
1005
858D2
  0
LINE
  5
858D3
330
47460
100
AcDbEntity
  8
图框
370
    50
100
AcDbLine
 10
1126.928502610363
 20
484.3410054693078
 30
0.0
 11
1126.928502610363
 21
675.5347692601515
 31
0.0
1001
AcDbBlockRepETag
1070
     1
1071
      146
1005
858D3
  0
MTEXT
  5
858D4
330
47460
100
AcDbEntity
  8
图框
 62
     3
100
AcDbMText
 10
1052.897990117958
 20
495.8417418993364
 30
0.0
 40
2.985513575034151
 41
10.82934843439114
 46
7.886094601211307
 71
     5
 72
     5
  1
V1.0
  7
Romans字体
 73
     1
 44
1.0
1001
AcDbBlockRepETag
1070
     1
1071
      147
1005
858D4
1001
ACAD
1000
ACAD_MTEXT_DEFINED_HEIGHT_BEGIN
1070
    46
1040
7.886094601211307
1000
ACAD_MTEXT_DEFINED_HEIGHT_END
  0
ENDBLK
  5
474F7
330
47460
100
AcDbEntity
  8
0
100
AcDbBlockEnd
  0
BLOCK
  5
84E6C
330
84E6B
100
AcDbEntity
  8
0
100
AcDbBlockBegin
  2
*D3
 70
     1
 10
0.0
 20
0.0
 30
0.0
  3
*D3
  1

  0
LINE
  5
853C0
330
84E6B
100
AcDbEntity
  8
Dim
  6
ByBlock
 62
     6
370
    -2
100
AcDbLine
 10
2933.844386392959
 20
726.2077756819127
 30
0.0
 11
2953.970901566022
 21
726.2077756819127
 31
0.0
  0
LINE
  5
853C1
330
84E6B
100
AcDbEntity
  8
Dim
  6
ByBlock
 62
     6
370
    -2
100
AcDbLine
 10
2933.844386392959
 20
740.2077756819127
 30
0.0
 11
2953.970901566022
 21
740.2077756819127
 31
0.0
  0
LINE
  5
853C2
330
84E6B
100
AcDbEntity
  8
Dim
  6
ByBlock
 62
     1
370
    -2
100
AcDbLine
 10
2952.770901566022
 20
729.7077756819127
 30
0.0
 11
2952.770901566022
 21
736.7077756819127
 31
0.0
  0
SOLID
  5
853C3
330
84E6B
100
AcDbEntity
  8
Dim
  6
ByBlock
 62
     1
100
AcDbTrace
 10
2952.187568232689
 20
729.7077756819127
 30
0.0
 11
2953.354234899356
 21
729.7077756819127
 31
0.0
 12
2952.770901566022
 22
726.2077756819127
 32
0.0
 13
2952.770901566022
 23
726.2077756819127
 33
0.0
  0
SOLID
  5
853C4
330
84E6B
100
AcDbEntity
  8
Dim
  6
ByBlock
 62
     1
100
AcDbTrace
 10
2952.187568232689
 20
736.7077756819127
 30
0.0
 11
2953.354234899356
 21
736.7077756819127
 31
0.0
 12
2952.770901566022
 22
740.2077756819127
 32
0.0
 13
2952.770901566022
 23
740.2077756819127
 33
0.0
  0
MTEXT
  5
853C5
330
84E6B
100
AcDbEntity
  8
Dim
  6
ByBlock
 62
     4
370
    15
100
AcDbMText
 10
2950.270901566022
 20
733.2077756819132
 30
0.0
 40
4.0
 41
0.0
 46
0.0
 71
     5
 72
     1
  1
\A1;14
  7
Romans字体
 11
0.0000000000000001
 21
1.0
 31
0.0
 73
     1
 44
1.0
  0
POINT
  5
853C6
330
84E6B
100
AcDbEntity
  8
Defpoints
  6
ByBlock
 62
     0
100
AcDbPoint
 10
2933.644386392959
 20
726.2077756819127
 30
0.0
  0
POINT
  5
853C7
330
84E6B
100
AcDbEntity
  8
Defpoints
  6
ByBlock
 62
     0
100
AcDbPoint
 10
2933.644386392959
 20
740.2077756819127
 30
0.0
  0
POINT
  5
853C8
330
84E6B
100
AcDbEntity
  8
Defpoints
  6
ByBlock
 62
     0
100
AcDbPoint
 10
2952.770901566022
 20
740.2077756819127
 30
0.0
  0
ENDBLK
  5
84E6D
330
84E6B
100
AcDbEntity
  8
0
100
AcDbBlockEnd
  0
BLOCK
  5
84E78
330
84E77
100
AcDbEntity
  8
0
100
AcDbBlockBegin
  2
*D4
 70
     1
 10
0.0
 20
0.0
 30
0.0
  3
*D4
  1

  0
LINE
  5
853B6
330
84E77
100
AcDbEntity
  8
Dim
  6
ByBlock
 62
     6
370
    -2
100
AcDbLine
 10
2939.959951761113
 20
729.7077756819127
 30
0.0
 11
2949.876734424334
 21
729.7077756819127
 31
0.0
  0
LINE
  5
853B7
330
84E77
100
AcDbEntity
  8
Dim
  6
ByBlock
 62
     6
370
    -2
100
AcDbLine
 10
2939.959951761113
 20
736.7077756819127
 30
0.0
 11
2949.876734424334
 21
736.7077756819127
 31
0.0
  0
LINE
  5
853B8
330
84E77
100
AcDbEntity
  8
Dim
  6
ByBlock
 62
     1
370
    -2
100
AcDbLine
 10
2948.676734424334
 20
726.2077756819127
 30
0.0
 11
2948.676734424334
 21
722.7077756819127
 31
0.0
  0
LINE
  5
853B9
330
84E77
100
AcDbEntity
  8
Dim
  6
ByBlock
 62
     1
370
    -2
100
AcDbLine
 10
2948.676734424334
 20
740.2077756819127
 30
0.0
 11
2948.676734424334
 21
743.7077756819127
 31
0.0
  0
SOLID
  5
853BA
330
84E77
100
AcDbEntity
  8
Dim
  6
ByBlock
 62
     1
100
AcDbTrace
 10
2948.093401091001
 20
726.2077756819127
 30
0.0
 11
2949.260067757668
 21
726.2077756819127
 31
0.0
 12
2948.676734424334
 22
729.7077756819127
 32
0.0
 13
2948.676734424334
 23
729.7077756819127
 33
0.0
  0
SOLID
  5
853BB
330
84E77
100
AcDbEntity
  8
Dim
  6
ByBlock
 62
     1
100
AcDbTrace
 10
2948.093401091001
 20
740.2077756819127
 30
0.0
 11
2949.260067757668
 21
740.2077756819127
 31
0.0
 12
2948.676734424334
 22
736.7077756819127
 32
0.0
 13
2948.676734424334
 23
736.7077756819127
 33
0.0
  0
MTEXT
  5
853BC
330
84E77
100
AcDbEntity
  8
Dim
  6
ByBlock
 62
     4
370
    15
100
AcDbMText
 10
2946.176734424335
 20
733.2077756819132
 30
0.0
 40
4.0
 41
0.0
 46
0.0
 71
     5
 72
     1
  1
\A1;7
  7
Romans字体
 11
0.0000000000000001
 21
1.0
 31
0.0
 73
     1
 44
1.0
  0
POINT
  5
853BD
330
84E77
100
AcDbEntity
  8
Defpoints
  6
ByBlock
 62
     0
100
AcDbPoint
 10
2939.759951761113
 20
729.7077756819127
 30
0.0
  0
POINT
  5
853BE
330
84E77
100
AcDbEntity
  8
Defpoints
  6
ByBlock
 62
     0
100
AcDbPoint
 10
2939.759951761113
 20
736.7077756819127
 30
0.0
  0
POINT
  5
853BF
330
84E77
100
AcDbEntity
  8
Defpoints
  6
ByBlock
 62
     0
100
AcDbPoint
 10
2948.676734424334
 20
736.7077756819127
 30
0.0
  0
ENDBLK
  5
84E79
330
84E77
100
AcDbEntity
  8
0
100
AcDbBlockEnd
  0
BLOCK
  5
84E85
330
84E84
100
AcDbEntity
  8
0
100
AcDbBlockBegin
  2
*D5
 70
     1
 10
0.0
 20
0.0
 30
0.0
  3
*D5
  1

  0
LINE
  5
85120
330
84E84
100
AcDbEntity
  8
Dim
 62
     6
370
    -2
100
AcDbLine
 10
2861.144387392959
 20
739.2850158934156
 30
0.0
 11
2861.144387392959
 21
748.5400861961576
 31
0.0
  0
LINE
  5
85121
330
84E84
100
AcDbEntity
  8
Dim
 62
     6
370
    -2
100
AcDbLine
 10
2876.344387392959
 20
739.2850158934156
 30
0.0
 11
2876.344387392959
 21
748.5400861961576
 31
0.0
  0
LINE
  5
85122
330
84E84
100
AcDbEntity
  8
Dim
 62
     1
370
    -2
100
AcDbLine
 10
2864.644387392961
 20
747.3400861961577
 30
0.0
 11
2872.844387392959
 21
747.3400861961577
 31
0.0
  0
SOLID
  5
85123
330
84E84
100
AcDbEntity
  8
Dim
 62
     1
100
AcDbTrace
 10
2864.644387392961
 20
747.9234195294908
 30
0.0
 11
2864.644387392961
 21
746.7567528628242
 31
0.0
 12
2861.144387392959
 22
747.3400861961577
 32
0.0
 13
2861.144387392959
 23
747.3400861961577
 33
0.0
  0
SOLID
  5
85124
330
84E84
100
AcDbEntity
  8
Dim
 62
     1
100
AcDbTrace
 10
2872.844387392959
 20
747.9234195294908
 30
0.0
 11
2872.844387392959
 21
746.7567528628242
 31
0.0
 12
2876.344387392959
 22
747.3400861961577
 32
0.0
 13
2876.344387392959
 23
747.3400861961577
 33
0.0
  0
MTEXT
  5
85125
330
84E84
100
AcDbEntity
  8
Dim
 62
     4
100
AcDbMText
 10
2868.744387392959
 20
749.8400861961576
 30
0.0
 40
4.0
 41
0.0
 46
0.0
 71
     5
 72
     1
  1
\A1;15.2
  7
Romans字体
 73
     1
 44
1.0
  0
POINT
  5
85126
330
84E84
100
AcDbEntity
  8
Defpoints
 62
     0
100
AcDbPoint
 10
2861.144387392959
 20
739.0850158934156
 30
0.0
  0
POINT
  5
85127
330
84E84
100
AcDbEntity
  8
Defpoints
 62
     0
100
AcDbPoint
 10
2876.344387392959
 20
739.0850158934156
 30
0.0
  0
POINT
  5
85128
330
84E84
100
AcDbEntity
  8
Defpoints
 62
     0
100
AcDbPoint
 10
2876.344387392959
 20
747.3400861961577
 30
0.0
  0
ENDBLK
  5
84E86
330
84E84
100
AcDbEntity
  8
0
100
AcDbBlockEnd
  0
BLOCK
  5
84E91
330
84E90
100
AcDbEntity
  8
0
100
AcDbBlockBegin
  2
*D6
 70
     1
 10
0.0
 20
0.0
 30
0.0
  3
*D6
  1

  0
LINE
  5
85142
330
84E90
100
AcDbEntity
  8
Dim
 62
     1
370
    -2
100
AcDbLine
 10
2846.451920784346
 20
733.0874208142858
 30
0.0
 11
2856.289600546749
 21
735.5115128855985
 31
0.0
  0
MTEXT
  5
85143
330
84E90
100
AcDbEntity
  8
Dim
 62
     4
100
AcDbMText
 10
2848.905369689522
 20
736.2667508522179
 30
0.0
 40
4.0
 41
0.0
 46
0.0
 71
     5
 72
     1
  1
\A1;M3
  7
Romans字体
 11
0.9709573692424191
 21
0.2392525592628851
 31
0.0
 73
     1
 44
1.0
  0
SOLID
  5
85144
330
84E90
100
AcDbEntity
  8
Dim
 62
     1
100
AcDbTrace
 10
2856.150036553846
 20
736.0779046843235
 30
0.0
 11
2856.429164539652
 21
734.9451210868737
 31
0.0
 12
2859.687951339096
 22
736.3488968430186
 32
0.0
 13
2859.687951339096
 23
736.3488968430186
 33
0.0
  0
POINT
  5
85145
330
84E90
100
AcDbEntity
  8
Defpoints
 62
     0
100
AcDbPoint
 10
2859.687951339096
 20
736.3488968430186
 30
0.0
  0
POINT
  5
85146
330
84E90
100
AcDbEntity
  8
Defpoints
 62
     0
100
AcDbPoint
 10
2862.600823446823
 20
737.0666545208072
 30
0.0
  0
ENDBLK
  5
84E92
330
84E90
100
AcDbEntity
  8
0
100
AcDbBlockEnd
  0
BLOCK
  5
84E9A
330
84E99
100
AcDbEntity
  8
0
100
AcDbBlockBegin
  2
*D7
 70
     1
 10
0.0
 20
0.0
 30
0.0
  3
*D7
  1

  0
LINE
  5
85138
330
84E99
100
AcDbEntity
  8
Dim
 62
     1
370
    -2
100
AcDbLine
 10
2849.135282677662
 20
721.8768565093977
 30
0.0
 11
2859.75481018444
 21
729.8939241568088
 31
0.0
  0
MTEXT
  5
85139
330
84E99
100
AcDbEntity
  8
Dim
 62
     4
100
AcDbMText
 10
2850.194323859541
 20
725.8087853526176
 30
0.0
 40
4.0
 41
0.0
 46
0.0
 71
     5
 72
     1
  1
\A1;M4
  7
Romans字体
 11
0.7981049470036059
 21
0.6025184591100686
 31
0.0
 73
     1
 44
1.0
  0
SOLID
  5
8513A
330
84E99
100
AcDbEntity
  8
Dim
 62
     1
100
AcDbTrace
 10
2859.403341083293
 20
730.359485375894
 30
0.0
 11
2860.106279285588
 21
729.4283629377233
 31
0.0
 12
2862.548177498954
 22
732.0027387636939
 32
0.0
 13
2862.548177498954
 23
732.0027387636939
 33
0.0
  0
POINT
  5
8513B
330
84E99
100
AcDbEntity
  8
Defpoints
 62
     0
100
AcDbPoint
 10
2862.548177498954
 20
732.0027387636939
 30
0.0
  0
POINT
  5
8513C
330
84E99
100
AcDbEntity
  8
Defpoints
 62
     0
100
AcDbPoint
 10
2865.740597286966
 20
734.412812600133
 30
0.0
  0
ENDBLK
  5
84E9B
330
84E99
100
AcDbEntity
  8
0
100
AcDbBlockEnd
  0
BLOCK
  5
84EA3
330
84EA2
100
AcDbEntity
  8
0
100
AcDbBlockBegin
  2
*D8
 70
     1
 10
0.0
 20
0.0
 30
0.0
  3
*D8
  1

  0
LINE
  5
85133
330
84EA2
100
AcDbEntity
  8
Dim
 62
     1
370
    -2
100
AcDbLine
 10
2982.069931523202
 20
696.6827597281892
 30
0.0
 11
2995.185602113286
 21
699.8810694337013
 31
0.0
  0
MTEXT
  5
85134
330
84EA2
100
AcDbEntity
  8
Dim
 62
     4
100
AcDbMText
 10
2986.335307722212
 20
700.2961467654317
 30
0.0
 40
4.0
 41
0.0
 46
0.0
 71
     5
 72
     1
  1
\A1;∅4.2
  7
Romans字体
 11
0.9715311548211296
 21
0.2369118300379326
 31
0.0
 73
     1
 44
1.0
  0
SOLID
  5
85135
330
84EA2
100
AcDbEntity
  8
Dim
 62
     1
100
AcDbTrace
 10
2995.047403545764
 20
700.44779594068
 30
0.0
 11
2995.323800680809
 21
699.3143429267222
 31
0.0
 12
2998.58596115516
 22
700.7102608388341
 32
0.0
 13
2998.58596115516
 23
700.7102608388341
 33
0.0
  0
POINT
  5
85136
330
84EA2
100
AcDbEntity
  8
Defpoints
 62
     0
100
AcDbPoint
 10
2998.58596115516
 20
700.7102608388341
 30
0.0
  0
POINT
  5
85137
330
84EA2
100
AcDbEntity
  8
Defpoints
 62
     0
100
AcDbPoint
 10
3002.666392005408
 20
701.7052905249933
 30
0.0
  0
ENDBLK
  5
84EA4
330
84EA2
100
AcDbEntity
  8
0
100
AcDbBlockEnd
  0
BLOCK
  5
84EAE
330
84EAD
100
AcDbEntity
  8
0
100
AcDbBlockBegin
  2
*D9
 70
     1
 10
0.0
 20
0.0
 30
0.0
  3
*D9
  1

  0
LINE
  5
8509D
330
84EAD
100
AcDbEntity
  8
Dim
 62
     6
370
    -2
100
AcDbLine
 10
2855.644387392959
 20
735.4077756819131
 30
0.0
 11
2855.644387392959
 21
765.6111798409583
 31
0.0
  0
LINE
  5
8509E
330
84EAD
100
AcDbEntity
  8
Dim
 62
     6
370
    -2
100
AcDbLine
 10
2942.644386392959
 20
735.4077756819131
 30
0.0
 11
2942.644386392959
 21
765.6111798409583
 31
0.0
  0
LINE
  5
8509F
330
84EAD
100
AcDbEntity
  8
Dim
 62
     1
370
    -2
100
AcDbLine
 10
2859.14438739296
 20
764.4111798409582
 30
0.0
 11
2939.144386392959
 21
764.4111798409582
 31
0.0
  0
SOLID
  5
850A0
330
84EAD
100
AcDbEntity
  8
Dim
 62
     1
100
AcDbTrace
 10
2859.14438739296
 20
764.9945131742915
 30
0.0
 11
2859.14438739296
 21
763.8278465076248
 31
0.0
 12
2855.644387392959
 22
764.4111798409582
 32
0.0
 13
2855.644387392959
 23
764.4111798409582
 33
0.0
  0
SOLID
  5
850A1
330
84EAD
100
AcDbEntity
  8
Dim
 62
     1
100
AcDbTrace
 10
2939.144386392959
 20
764.9945131742915
 30
0.0
 11
2939.144386392959
 21
763.8278465076248
 31
0.0
 12
2942.644386392959
 22
764.4111798409582
 32
0.0
 13
2942.644386392959
 23
764.4111798409582
 33
0.0
  0
MTEXT
  5
850A2
330
84EAD
100
AcDbEntity
  8
Dim
 62
     4
100
AcDbMText
 10
2899.144386892959
 20
766.9111798409582
 30
0.0
 40
4.0
 41
0.0
 46
0.0
 71
     5
 72
     1
  1
\A1;87
  7
Romans字体
 73
     1
 44
1.0
  0
POINT
  5
850A3
330
84EAD
100
AcDbEntity
  8
Defpoints
 62
     0
100
AcDbPoint
 10
2855.644387392959
 20
735.2077756819127
 30
0.0
  0
POINT
  5
850A4
330
84EAD
100
AcDbEntity
  8
Defpoints
 62
     0
100
AcDbPoint
 10
2942.644386392959
 20
735.2077756819127
 30
0.0
  0
POINT
  5
850A5
330
84EAD
100
AcDbEntity
  8
Defpoints
 62
     0
100
AcDbPoint
 10
2942.644386392959
 20
764.4111798409582
 30
0.0
  0
ENDBLK
  5
84EAF
330
84EAD
100
AcDbEntity
  8
0
100
AcDbBlockEnd
  0
BLOCK
  5
84EBA
330
84EB9
100
AcDbEntity
  8
0
100
AcDbBlockBegin
  2
*D10
 70
     1
 10
0.0
 20
0.0
 30
0.0
  3
*D10
  1

  0
LINE
  5
853AD
330
84EB9
100
AcDbEntity
  8
Dim
  6
ByBlock
 62
     6
370
    -2
100
AcDbLine
 10
2994.326176580282
 20
740.2077756819127
 30
0.0
 11
3025.850796044977
 21
740.2077756819127
 31
0.0
  0
LINE
  5
853AE
330
84EB9
100
AcDbEntity
  8
Dim
  6
ByBlock
 62
     6
370
    -2
100
AcDbLine
 10
3005.326176580283
 20
696.7077756819127
 30
0.0
 11
3025.850796044977
 21
696.7077756819127
 31
0.0
  0
LINE
  5
853AF
330
84EB9
100
AcDbEntity
  8
Dim
  6
ByBlock
 62
     1
370
    -2
100
AcDbLine
 10
3024.650796044977
 20
736.7077756819127
 30
0.0
 11
3024.650796044977
 21
700.2077756819127
 31
0.0
  0
SOLID
  5
853B0
330
84EB9
100
AcDbEntity
  8
Dim
  6
ByBlock
 62
     1
100
AcDbTrace
 10
3024.067462711643
 20
736.7077756819127
 30
0.0
 11
3025.23412937831
 21
736.7077756819127
 31
0.0
 12
3024.650796044977
 22
740.2077756819127
 32
0.0
 13
3024.650796044977
 23
740.2077756819127
 33
0.0
  0
SOLID
  5
853B1
330
84EB9
100
AcDbEntity
  8
Dim
  6
ByBlock
 62
     1
100
AcDbTrace
 10
3024.067462711643
 20
700.2077756819127
 30
0.0
 11
3025.23412937831
 21
700.2077756819127
 31
0.0
 12
3024.650796044977
 22
696.7077756819127
 32
0.0
 13
3024.650796044977
 23
696.7077756819127
 33
0.0
  0
MTEXT
  5
853B2
330
84EB9
100
AcDbEntity
  8
Dim
  6
ByBlock
 62
     4
370
    15
100
AcDbMText
 10
3022.150796044977
 20
718.457775681913
 30
0.0
 40
4.0
 41
0.0
 46
0.0
 71
     5
 72
     1
  1
\A1;43.5
  7
Romans字体
 11
0.0000000000000001
 21
1.0
 31
0.0
 73
     1
 44
1.0
  0
POINT
  5
853B3
330
84EB9
100
AcDbEntity
  8
Defpoints
  6
ByBlock
 62
     0
100
AcDbPoint
 10
2994.126176580282
 20
740.2077756819127
 30
0.0
  0
POINT
  5
853B4
330
84EB9
100
AcDbEntity
  8
Defpoints
  6
ByBlock
 62
     0
100
AcDbPoint
 10
3005.126176580283
 20
696.7077756819127
 30
0.0
  0
POINT
  5
853B5
330
84EB9
100
AcDbEntity
  8
Defpoints
  6
ByBlock
 62
     0
100
AcDbPoint
 10
3024.650796044977
 20
696.7077756819127
 30
0.0
  0
ENDBLK
  5
84EBB
330
84EB9
100
AcDbEntity
  8
0
100
AcDbBlockEnd
  0
BLOCK
  5
84EC6
330
84EC5
100
AcDbEntity
  8
0
100
AcDbBlockBegin
  2
*D11
 70
     1
 10
0.0
 20
0.0
 30
0.0
  3
*D11
  1

  0
LINE
  5
85386
330
84EC5
100
AcDbEntity
  8
Dim
  6
ByBlock
 62
     6
370
    -2
100
AcDbLine
 10
3000.626176580282
 20
703.7850158934157
 30
0.0
 11
3000.626176580282
 21
755.8477090000035
 31
0.0
  0
LINE
  5
85387
330
84EC5
100
AcDbEntity
  8
Dim
  6
ByBlock
 62
     6
370
    -2
100
AcDbLine
 10
2994.126176580282
 20
740.407775681913
 30
0.0
 11
2994.126176580282
 21
755.8477090000035
 31
0.0
  0
LINE
  5
85388
330
84EC5
100
AcDbEntity
  8
Dim
  6
ByBlock
 62
     1
370
    -2
100
AcDbLine
 10
3004.126176580284
 20
754.6477090000035
 30
0.0
 11
3007.626176580282
 21
754.6477090000035
 31
0.0
  0
LINE
  5
85389
330
84EC5
100
AcDbEntity
  8
Dim
  6
ByBlock
 62
     1
370
    -2
100
AcDbLine
 10
2990.626176580283
 20
754.6477090000035
 30
0.0
 11
2979.983319437425
 21
754.6477090000035
 31
0.0
  0
SOLID
  5
8538A
330
84EC5
100
AcDbEntity
  8
Dim
  6
ByBlock
 62
     1
100
AcDbTrace
 10
3004.126176580284
 20
755.2310423333367
 30
0.0
 11
3004.126176580284
 21
754.0643756666701
 31
0.0
 12
3000.626176580282
 22
754.6477090000035
 32
0.0
 13
3000.626176580282
 23
754.6477090000035
 33
0.0
  0
SOLID
  5
8538B
330
84EC5
100
AcDbEntity
  8
Dim
  6
ByBlock
 62
     1
100
AcDbTrace
 10
2990.626176580283
 20
755.2310423333367
 30
0.0
 11
2990.626176580283
 21
754.0643756666701
 31
0.0
 12
2994.126176580282
 22
754.6477090000035
 32
0.0
 13
2994.126176580282
 23
754.6477090000035
 33
0.0
  0
MTEXT
  5
8538C
330
84EC5
100
AcDbEntity
  8
Dim
  6
ByBlock
 62
     4
370
    15
100
AcDbMText
 10
2983.554748008854
 20
757.1477090000032
 30
0.0
 40
4.0
 41
0.0
 46
0.0
 71
     5
 72
     1
  1
\A1;6.5
  7
Romans字体
 73
     1
 44
1.0
  0
POINT
  5
8538D
330
84EC5
100
AcDbEntity
  8
Defpoints
  6
ByBlock
 62
     0
100
AcDbPoint
 10
3000.626176580282
 20
703.5850158934159
 30
0.0
  0
POINT
  5
8538E
330
84EC5
100
AcDbEntity
  8
Defpoints
  6
ByBlock
 62
     0
100
AcDbPoint
 10
2994.126176580282
 20
740.2077756819132
 30
0.0
  0
POINT
  5
8538F
330
84EC5
100
AcDbEntity
  8
Defpoints
  6
ByBlock
 62
     0
100
AcDbPoint
 10
2994.126176580282
 20
754.6477090000035
 30
0.0
  0
ENDBLK
  5
84EC7
330
84EC5
100
AcDbEntity
  8
0
100
AcDbBlockEnd
  0
BLOCK
  5
84ED3
330
84ED2
100
AcDbEntity
  8
0
100
AcDbBlockBegin
  2
*D12
 70
     1
 10
0.0
 20
0.0
 30
0.0
  3
*D12
  1

  0
LINE
  5
853A4
330
84ED2
100
AcDbEntity
  8
Dim
  6
ByBlock
 62
     6
370
    -2
100
AcDbLine
 10
3003.326176580282
 20
719.607775681913
 30
0.0
 11
3017.316212711643
 21
719.607775681913
 31
0.0
  0
LINE
  5
853A5
330
84ED2
100
AcDbEntity
  8
Dim
  6
ByBlock
 62
     6
370
    -2
100
AcDbLine
 10
3005.326176580283
 20
696.7077756819127
 30
0.0
 11
3017.316212711643
 21
696.7077756819127
 31
0.0
  0
LINE
  5
853A6
330
84ED2
100
AcDbEntity
  8
Dim
  6
ByBlock
 62
     1
370
    -2
100
AcDbLine
 10
3016.116212711644
 20
716.107775681913
 30
0.0
 11
3016.116212711644
 21
700.2077756819127
 31
0.0
  0
SOLID
  5
853A7
330
84ED2
100
AcDbEntity
  8
Dim
  6
ByBlock
 62
     1
100
AcDbTrace
 10
3015.53287937831
 20
716.107775681913
 30
0.0
 11
3016.699546044977
 21
716.107775681913
 31
0.0
 12
3016.116212711644
 22
719.607775681913
 32
0.0
 13
3016.116212711644
 23
719.607775681913
 33
0.0
  0
SOLID
  5
853A8
330
84ED2
100
AcDbEntity
  8
Dim
  6
ByBlock
 62
     1
100
AcDbTrace
 10
3015.53287937831
 20
700.2077756819127
 30
0.0
 11
3016.699546044977
 21
700.2077756819127
 31
0.0
 12
3016.116212711644
 22
696.7077756819127
 32
0.0
 13
3016.116212711644
 23
696.7077756819127
 33
0.0
  0
MTEXT
  5
853A9
330
84ED2
100
AcDbEntity
  8
Dim
  6
ByBlock
 62
     4
370
    15
100
AcDbMText
 10
3013.616212711645
 20
708.1577756819133
 30
0.0
 40
4.0
 41
0.0
 46
0.0
 71
     5
 72
     1
  1
\A1;22.9
  7
Romans字体
 11
0.0000000000000001
 21
1.0
 31
0.0
 73
     1
 44
1.0
  0
POINT
  5
853AA
330
84ED2
100
AcDbEntity
  8
Defpoints
  6
ByBlock
 62
     0
100
AcDbPoint
 10
3003.126176580284
 20
719.607775681913
 30
0.0
  0
POINT
  5
853AB
330
84ED2
100
AcDbEntity
  8
Defpoints
  6
ByBlock
 62
     0
100
AcDbPoint
 10
3005.126176580283
 20
696.7077756819127
 30
0.0
  0
POINT
  5
853AC
330
84ED2
100
AcDbEntity
  8
Defpoints
  6
ByBlock
 62
     0
100
AcDbPoint
 10
3016.116212711644
 20
696.7077756819127
 30
0.0
  0
ENDBLK
  5
84ED4
330
84ED2
100
AcDbEntity
  8
0
100
AcDbBlockEnd
  0
BLOCK
  5
84EDF
330
84EDE
100
AcDbEntity
  8
0
100
AcDbBlockBegin
  2
*D13
 70
     1
 10
0.0
 20
0.0
 30
0.0
  3
*D13
  1

  0
LINE
  5
8539A
330
84EDE
100
AcDbEntity
  8
Dim
  6
ByBlock
 62
     6
370
    -2
100
AcDbLine
 10
3003.441741948436
 20
701.2077756819127
 30
0.0
 11
3012.321212711645
 21
701.2077756819127
 31
0.0
  0
LINE
  5
8539B
330
84EDE
100
AcDbEntity
  8
Dim
  6
ByBlock
 62
     6
370
    -2
100
AcDbLine
 10
3005.326176580283
 20
696.7077756819127
 30
0.0
 11
3012.321212711645
 21
696.7077756819127
 31
0.0
  0
LINE
  5
8539C
330
84EDE
100
AcDbEntity
  8
Dim
  6
ByBlock
 62
     1
370
    -2
100
AcDbLine
 10
3011.121212711645
 20
704.7077756819127
 30
0.0
 11
3011.121212711645
 21
708.2077756819127
 31
0.0
  0
LINE
  5
8539D
330
84EDE
100
AcDbEntity
  8
Dim
  6
ByBlock
 62
     1
370
    -2
100
AcDbLine
 10
3011.121212711645
 20
693.2077756819126
 30
0.0
 11
3011.121212711645
 21
682.4220613961986
 31
0.0
  0
SOLID
  5
8539E
330
84EDE
100
AcDbEntity
  8
Dim
  6
ByBlock
 62
     1
100
AcDbTrace
 10
3010.537879378311
 20
704.7077756819127
 30
0.0
 11
3011.704546044978
 21
704.7077756819127
 31
0.0
 12
3011.121212711645
 22
701.2077756819127
 32
0.0
 13
3011.121212711645
 23
701.2077756819127
 33
0.0
  0
SOLID
  5
8539F
330
84EDE
100
AcDbEntity
  8
Dim
  6
ByBlock
 62
     1
100
AcDbTrace
 10
3010.537879378311
 20
693.2077756819126
 30
0.0
 11
3011.704546044978
 21
693.2077756819126
 31
0.0
 12
3011.121212711645
 22
696.7077756819127
 32
0.0
 13
3011.121212711645
 23
696.7077756819127
 33
0.0
  0
MTEXT
  5
853A0
330
84EDE
100
AcDbEntity
  8
Dim
  6
ByBlock
 62
     4
370
    15
100
AcDbMText
 10
3008.621212711645
 20
686.0649185390562
 30
0.0
 40
4.0
 41
0.0
 46
0.0
 71
     5
 72
     1
  1
\A1;4.5
  7
Romans字体
 11
0.0000000000000001
 21
1.0
 31
0.0
 73
     1
 44
1.0
  0
POINT
  5
853A1
330
84EDE
100
AcDbEntity
  8
Defpoints
  6
ByBlock
 62
     0
100
AcDbPoint
 10
3003.241741948435
 20
701.2077756819127
 30
0.0
  0
POINT
  5
853A2
330
84EDE
100
AcDbEntity
  8
Defpoints
  6
ByBlock
 62
     0
100
AcDbPoint
 10
3005.126176580283
 20
696.7077756819127
 30
0.0
  0
POINT
  5
853A3
330
84EDE
100
AcDbEntity
  8
Defpoints
  6
ByBlock
 62
     0
100
AcDbPoint
 10
3011.121212711645
 20
696.7077756819127
 30
0.0
  0
ENDBLK
  5
84EE0
330
84EDE
100
AcDbEntity
  8
0
100
AcDbBlockEnd
  0
BLOCK
  5
84EEC
330
84EEB
100
AcDbEntity
  8
0
100
AcDbBlockBegin
  2
*D14
 70
     1
 10
0.0
 20
0.0
 30
0.0
  3
*D14
  1

  0
LINE
  5
85390
330
84EEB
100
AcDbEntity
  8
Dim
  6
ByBlock
 62
     6
370
    -2
100
AcDbLine
 10
2996.126176580284
 20
696.5077756819127
 30
0.0
 11
2996.126176580284
 21
689.0377090000034
 31
0.0
  0
LINE
  5
85391
330
84EEB
100
AcDbEntity
  8
Dim
  6
ByBlock
 62
     6
370
    -2
100
AcDbLine
 10
3005.126176580283
 20
696.5077756819127
 30
0.0
 11
3005.126176580283
 21
689.0377090000034
 31
0.0
  0
LINE
  5
85392
330
84EEB
100
AcDbEntity
  8
Dim
  6
ByBlock
 62
     1
370
    -2
100
AcDbLine
 10
3001.626176580284
 20
690.2377090000036
 30
0.0
 11
2999.626176580282
 21
690.2377090000036
 31
0.0
  0
LINE
  5
85393
330
84EEB
100
AcDbEntity
  8
Dim
  6
ByBlock
 62
     1
370
    -2
100
AcDbLine
 10
2996.126176580284
 20
690.2377090000036
 30
0.0
 11
2988.912641283075
 21
690.2377090000036
 31
0.0
  0
SOLID
  5
85394
330
84EEB
100
AcDbEntity
  8
Dim
  6
ByBlock
 62
     1
100
AcDbTrace
 10
3001.626176580284
 20
690.8210423333367
 30
0.0
 11
3001.626176580284
 21
689.6543756666702
 31
0.0
 12
3005.126176580283
 22
690.2377090000036
 32
0.0
 13
3005.126176580283
 23
690.2377090000036
 33
0.0
  0
SOLID
  5
85395
330
84EEB
100
AcDbEntity
  8
Dim
  6
ByBlock
 62
     1
100
AcDbTrace
 10
2999.626176580282
 20
690.8210423333367
 30
0.0
 11
2999.626176580282
 21
689.6543756666702
 31
0.0
 12
2996.126176580284
 22
690.2377090000036
 32
0.0
 13
2996.126176580284
 23
690.2377090000036
 33
0.0
  0
MTEXT
  5
85396
330
84EEB
100
AcDbEntity
  8
Dim
  6
ByBlock
 62
     4
370
    15
100
AcDbMText
 10
2990.341212711645
 20
692.7377090000036
 30
0.0
 40
4.0
 41
0.0
 46
0.0
 71
     5
 72
     1
  1
\A1;9
  7
Romans字体
 73
     1
 44
1.0
  0
POINT
  5
85397
330
84EEB
100
AcDbEntity
  8
Defpoints
  6
ByBlock
 62
     0
100
AcDbPoint
 10
2996.126176580284
 20
696.7077756819127
 30
0.0
  0
POINT
  5
85398
330
84EEB
100
AcDbEntity
  8
Defpoints
  6
ByBlock
 62
     0
100
AcDbPoint
 10
3005.126176580283
 20
696.7077756819127
 30
0.0
  0
POINT
  5
85399
330
84EEB
100
AcDbEntity
  8
Defpoints
  6
ByBlock
 62
     0
100
AcDbPoint
 10
3005.126176580283
 20
690.2377090000036
 30
0.0
  0
ENDBLK
  5
84EED
330
84EEB
100
AcDbEntity
  8
0
100
AcDbBlockEnd
  0
BLOCK
  5
84EF9
330
84EF8
100
AcDbEntity
  8
0
100
AcDbBlockBegin
  2
*D15
 70
     1
 10
0.0
 20
0.0
 30
0.0
  3
*D15
  1

  0
LINE
  5
85374
330
84EF8
100
AcDbEntity
  8
Dim
  6
ByBlock
 62
     6
370
    -2
100
AcDbLine
 10
2945.644386392959
 20
696.5077756819127
 30
0.0
 11
2945.644386392959
 21
687.2121311504058
 31
0.0
  0
LINE
  5
85375
330
84EF8
100
AcDbEntity
  8
Dim
  6
ByBlock
 62
     6
370
    -2
100
AcDbLine
 10
2852.644387392961
 20
696.5077756819127
 30
0.0
 11
2852.644387392961
 21
687.2121311504058
 31
0.0
  0
LINE
  5
85376
330
84EF8
100
AcDbEntity
  8
Dim
  6
ByBlock
 62
     1
370
    -2
100
AcDbLine
 10
2942.144386392959
 20
688.4121311504059
 30
0.0
 11
2856.144387392959
 21
688.4121311504059
 31
0.0
  0
SOLID
  5
85377
330
84EF8
100
AcDbEntity
  8
Dim
  6
ByBlock
 62
     1
100
AcDbTrace
 10
2942.144386392959
 20
688.995464483739
 30
0.0
 11
2942.144386392959
 21
687.8287978170724
 31
0.0
 12
2945.644386392959
 22
688.4121311504059
 32
0.0
 13
2945.644386392959
 23
688.4121311504059
 33
0.0
  0
SOLID
  5
85378
330
84EF8
100
AcDbEntity
  8
Dim
  6
ByBlock
 62
     1
100
AcDbTrace
 10
2856.144387392959
 20
688.995464483739
 30
0.0
 11
2856.144387392959
 21
687.8287978170724
 31
0.0
 12
2852.644387392961
 22
688.4121311504059
 32
0.0
 13
2852.644387392961
 23
688.4121311504059
 33
0.0
  0
MTEXT
  5
85379
330
84EF8
100
AcDbEntity
  8
Dim
  6
ByBlock
 62
     4
370
    15
100
AcDbMText
 10
2897.651363069102
 20
690.9121311504057
 30
0.0
 40
4.0
 41
0.0
 46
0.0
 71
     5
 72
     1
  1
\A1;93
  7
Romans字体
 73
     1
 44
1.0
  0
POINT
  5
8537A
330
84EF8
100
AcDbEntity
  8
Defpoints
  6
ByBlock
 62
     0
100
AcDbPoint
 10
2945.644386392959
 20
696.7077756819127
 30
0.0
  0
POINT
  5
8537B
330
84EF8
100
AcDbEntity
  8
Defpoints
  6
ByBlock
 62
     0
100
AcDbPoint
 10
2852.644387392961
 20
696.7077756819127
 30
0.0
  0
POINT
  5
8537C
330
84EF8
100
AcDbEntity
  8
Defpoints
  6
ByBlock
 62
     0
100
AcDbPoint
 10
2852.644387392961
 20
688.4121311504059
 30
0.0
  0
ENDBLK
  5
84EFA
330
84EF8
100
AcDbEntity
  8
0
100
AcDbBlockEnd
  0
BLOCK
  5
84F05
330
84F04
100
AcDbEntity
  8
0
100
AcDbBlockBegin
  2
*D16
 70
     1
 10
0.0
 20
0.0
 30
0.0
  3
*D16
  1

  0
LINE
  5
8536B
330
84F04
100
AcDbEntity
  8
Dim
 62
     6
370
    -2
100
AcDbLine
 10
2894.14438739296
 20
730.475015893415
 30
0.0
 11
2894.14438739296
 21
698.1677090000032
 31
0.0
  0
LINE
  5
8536C
330
84F04
100
AcDbEntity
  8
Dim
 62
     6
370
    -2
100
AcDbLine
 10
2904.144387392961
 20
730.475015893415
 30
0.0
 11
2904.144387392961
 21
698.1677090000032
 31
0.0
  0
LINE
  5
8536D
330
84F04
100
AcDbEntity
  8
Dim
 62
     1
370
    -2
100
AcDbLine
 10
2897.64438739296
 20
699.3677090000032
 30
0.0
 11
2900.644387392961
 21
699.3677090000032
 31
0.0
  0
SOLID
  5
8536E
330
84F04
100
AcDbEntity
  8
Dim
 62
     1
100
AcDbTrace
 10
2897.64438739296
 20
699.9510423333362
 30
0.0
 11
2897.64438739296
 21
698.7843756666697
 31
0.0
 12
2894.14438739296
 22
699.3677090000032
 32
0.0
 13
2894.14438739296
 23
699.3677090000032
 33
0.0
  0
SOLID
  5
8536F
330
84F04
100
AcDbEntity
  8
Dim
 62
     1
100
AcDbTrace
 10
2900.644387392961
 20
699.9510423333362
 30
0.0
 11
2900.644387392961
 21
698.7843756666697
 31
0.0
 12
2904.144387392961
 22
699.3677090000032
 32
0.0
 13
2904.144387392961
 23
699.3677090000032
 33
0.0
  0
MTEXT
  5
85370
330
84F04
100
AcDbEntity
  8
Dim
 62
     4
370
    15
100
AcDbMText
 10
2899.144387392961
 20
701.867709000003
 30
0.0
 40
4.0
 41
0.0
 46
0.0
 71
     5
 72
     1
  1
\A1;10
  7
Romans字体
 73
     1
 44
1.0
  0
POINT
  5
85371
330
84F04
100
AcDbEntity
  8
Defpoints
 62
     0
100
AcDbPoint
 10
2894.14438739296
 20
730.6750158934151
 30
0.0
  0
POINT
  5
85372
330
84F04
100
AcDbEntity
  8
Defpoints
 62
     0
100
AcDbPoint
 10
2904.144387392961
 20
730.6750158934151
 30
0.0
  0
POINT
  5
85373
330
84F04
100
AcDbEntity
  8
Defpoints
 62
     0
100
AcDbPoint
 10
2904.144387392961
 20
699.3677090000032
 30
0.0
  0
ENDBLK
  5
84F06
330
84F04
100
AcDbEntity
  8
0
100
AcDbBlockEnd
  0
BLOCK
  5
84F11
330
84F10
100
AcDbEntity
  8
0
100
AcDbBlockBegin
  2
*D17
 70
     1
 10
0.0
 20
0.0
 30
0.0
  3
*D17
  1

  0
LINE
  5
85361
330
84F10
100
AcDbEntity
  8
Dim
 62
     6
370
    -2
100
AcDbLine
 10
2882.89438739296
 20
730.475015893415
 30
0.0
 11
2882.89438739296
 21
705.9077090000035
 31
0.0
  0
LINE
  5
85362
330
84F10
100
AcDbEntity
  8
Dim
 62
     6
370
    -2
100
AcDbLine
 10
2915.394386392962
 20
730.4750158934273
 30
0.0
 11
2915.394386392962
 21
705.9077090000035
 31
0.0
  0
LINE
  5
85363
330
84F10
100
AcDbEntity
  8
Dim
 62
     1
370
    -2
100
AcDbLine
 10
2911.894386392962
 20
707.1077090000035
 30
0.0
 11
2886.39438739296
 21
707.1077090000035
 31
0.0
  0
LINE
  5
85364
330
84F10
100
AcDbEntity
  8
Dim
 62
     1
370
    -2
100
AcDbLine
 10
2882.89438739296
 20
707.1077090000035
 30
0.0
 11
2863.664625488199
 21
707.1077090000035
 31
0.0
  0
SOLID
  5
85365
330
84F10
100
AcDbEntity
  8
Dim
 62
     1
100
AcDbTrace
 10
2911.894386392962
 20
707.6910423333369
 30
0.0
 11
2911.894386392962
 21
706.52437566667
 31
0.0
 12
2915.394386392962
 22
707.1077090000035
 32
0.0
 13
2915.394386392962
 23
707.1077090000035
 33
0.0
  0
SOLID
  5
85366
330
84F10
100
AcDbEntity
  8
Dim
 62
     1
100
AcDbTrace
 10
2886.39438739296
 20
707.6910423333369
 30
0.0
 11
2886.39438739296
 21
706.52437566667
 31
0.0
 12
2882.89438739296
 22
707.1077090000035
 32
0.0
 13
2882.89438739296
 23
707.1077090000035
 33
0.0
  0
MTEXT
  5
85367
330
84F10
100
AcDbEntity
  8
Dim
 62
     4
370
    15
100
AcDbMText
 10
2868.736054059627
 20
709.6077090000035
 30
0.0
 40
4.0
 41
0.0
 46
0.0
 71
     5
 72
     1
  1
\A1;32.5
  7
Romans字体
 73
     1
 44
1.0
  0
POINT
  5
85368
330
84F10
100
AcDbEntity
  8
Defpoints
 62
     0
100
AcDbPoint
 10
2882.89438739296
 20
730.6750158934151
 30
0.0
  0
POINT
  5
85369
330
84F10
100
AcDbEntity
  8
Defpoints
 62
     0
100
AcDbPoint
 10
2915.394386392962
 20
730.6750158934271
 30
0.0
  0
POINT
  5
8536A
330
84F10
100
AcDbEntity
  8
Defpoints
 62
     0
100
AcDbPoint
 10
2915.394386392962
 20
707.1077090000035
 30
0.0
  0
ENDBLK
  5
84F12
330
84F10
100
AcDbEntity
  8
0
100
AcDbBlockEnd
  0
BLOCK
  5
84F1E
330
84F1D
100
AcDbEntity
  8
0
100
AcDbBlockBegin
  2
*D18
 70
     1
 10
0.0
 20
0.0
 30
0.0
  3
*D18
  1

  0
LINE
  5
85358
330
84F1D
100
AcDbEntity
  8
Dim
 62
     6
370
    -2
100
AcDbLine
 10
2864.14438739296
 20
730.475015893415
 30
0.0
 11
2864.14438739296
 21
717.0377090000036
 31
0.0
  0
LINE
  5
85359
330
84F1D
100
AcDbEntity
  8
Dim
 62
     6
370
    -2
100
AcDbLine
 10
2894.14438739296
 20
730.4750158934202
 30
0.0
 11
2894.14438739296
 21
717.0377090000036
 31
0.0
  0
LINE
  5
8535A
330
84F1D
100
AcDbEntity
  8
Dim
 62
     1
370
    -2
100
AcDbLine
 10
2867.64438739296
 20
718.2377090000036
 30
0.0
 11
2890.64438739296
 21
718.2377090000036
 31
0.0
  0
SOLID
  5
8535B
330
84F1D
100
AcDbEntity
  8
Dim
 62
     1
100
AcDbTrace
 10
2867.64438739296
 20
718.8210423333369
 30
0.0
 11
2867.64438739296
 21
717.6543756666703
 31
0.0
 12
2864.14438739296
 22
718.2377090000036
 32
0.0
 13
2864.14438739296
 23
718.2377090000036
 33
0.0
  0
SOLID
  5
8535C
330
84F1D
100
AcDbEntity
  8
Dim
 62
     1
100
AcDbTrace
 10
2890.64438739296
 20
718.8210423333369
 30
0.0
 11
2890.64438739296
 21
717.6543756666703
 31
0.0
 12
2894.14438739296
 22
718.2377090000036
 32
0.0
 13
2894.14438739296
 23
718.2377090000036
 33
0.0
  0
MTEXT
  5
8535D
330
84F1D
100
AcDbEntity
  8
Dim
 62
     4
370
    15
100
AcDbMText
 10
2879.14438739296
 20
720.7377090000036
 30
0.0
 40
4.0
 41
0.0
 46
0.0
 71
     5
 72
     1
  1
\A1;30
  7
Romans字体
 73
     1
 44
1.0
  0
POINT
  5
8535E
330
84F1D
100
AcDbEntity
  8
Defpoints
 62
     0
100
AcDbPoint
 10
2864.14438739296
 20
730.6750158934151
 30
0.0
  0
POINT
  5
8535F
330
84F1D
100
AcDbEntity
  8
Defpoints
 62
     0
100
AcDbPoint
 10
2894.14438739296
 20
730.6750158934205
 30
0.0
  0
POINT
  5
85360
330
84F1D
100
AcDbEntity
  8
Defpoints
 62
     0
100
AcDbPoint
 10
2894.14438739296
 20
718.2377090000036
 30
0.0
  0
ENDBLK
  5
84F1F
330
84F1D
100
AcDbEntity
  8
0
100
AcDbBlockEnd
  0
BLOCK
  5
84F2A
330
84F29
100
AcDbEntity
  8
0
100
AcDbBlockBegin
  2
*D19
 70
     1
 10
0.0
 20
0.0
 30
0.0
  3
*D19
  1

  0
LINE
  5
8534F
330
84F29
100
AcDbEntity
  8
Dim
 62
     6
370
    -2
100
AcDbLine
 10
2904.144387392961
 20
730.1750158934147
 30
0.0
 11
2904.144387392961
 21
713.147709000003
 31
0.0
  0
LINE
  5
85350
330
84F29
100
AcDbEntity
  8
Dim
 62
     6
370
    -2
100
AcDbLine
 10
2934.144386392961
 20
730.475015893415
 30
0.0
 11
2934.144386392961
 21
713.147709000003
 31
0.0
  0
LINE
  5
85351
330
84F29
100
AcDbEntity
  8
Dim
 62
     1
370
    -2
100
AcDbLine
 10
2907.644387392961
 20
714.3477090000032
 30
0.0
 11
2930.644386392962
 21
714.3477090000032
 31
0.0
  0
SOLID
  5
85352
330
84F29
100
AcDbEntity
  8
Dim
 62
     1
100
AcDbTrace
 10
2907.644387392961
 20
714.9310423333368
 30
0.0
 11
2907.644387392961
 21
713.7643756666699
 31
0.0
 12
2904.144387392961
 22
714.3477090000032
 32
0.0
 13
2904.144387392961
 23
714.3477090000032
 33
0.0
  0
SOLID
  5
85353
330
84F29
100
AcDbEntity
  8
Dim
 62
     1
100
AcDbTrace
 10
2930.644386392962
 20
714.9310423333368
 30
0.0
 11
2930.644386392962
 21
713.7643756666699
 31
0.0
 12
2934.144386392961
 22
714.3477090000032
 32
0.0
 13
2934.144386392961
 23
714.3477090000032
 33
0.0
  0
MTEXT
  5
85354
330
84F29
100
AcDbEntity
  8
Dim
 62
     4
370
    15
100
AcDbMText
 10
2919.144386892961
 20
716.847709000003
 30
0.0
 40
4.0
 41
0.0
 46
0.0
 71
     5
 72
     1
  1
\A1;30
  7
Romans字体
 73
     1
 44
1.0
  0
POINT
  5
85355
330
84F29
100
AcDbEntity
  8
Defpoints
 62
     0
100
AcDbPoint
 10
2904.144387392961
 20
730.3750158934149
 30
0.0
  0
POINT
  5
85356
330
84F29
100
AcDbEntity
  8
Defpoints
 62
     0
100
AcDbPoint
 10
2934.144386392961
 20
730.6750158934151
 30
0.0
  0
POINT
  5
85357
330
84F29
100
AcDbEntity
  8
Defpoints
 62
     0
100
AcDbPoint
 10
2934.144386392961
 20
714.3477090000032
 30
0.0
  0
ENDBLK
  5
84F2B
330
84F29
100
AcDbEntity
  8
0
100
AcDbBlockEnd
  0
BLOCK
  5
84F36
330
84F35
100
AcDbEntity
  8
0
100
AcDbBlockBegin
  2
*D20
 70
     1
 10
0.0
 20
0.0
 30
0.0
  3
*D20
  1

  0
LINE
  5
8537D
330
84F35
100
AcDbEntity
  8
Dim
 62
     6
370
    -2
100
AcDbLine
 10
2861.144387392959
 20
739.2850158934156
 30
0.0
 11
2861.144387392959
 21
755.6582037053027
 31
0.0
  0
LINE
  5
8537E
330
84F35
100
AcDbEntity
  8
Dim
 62
     6
370
    -2
100
AcDbLine
 10
2880.944387392961
 20
739.2850158934156
 30
0.0
 11
2880.944387392961
 21
755.6582037053027
 31
0.0
  0
LINE
  5
8537F
330
84F35
100
AcDbEntity
  8
Dim
 62
     1
370
    -2
100
AcDbLine
 10
2864.644387392961
 20
754.4582037053027
 30
0.0
 11
2877.44438739296
 21
754.4582037053027
 31
0.0
  0
SOLID
  5
85380
330
84F35
100
AcDbEntity
  8
Dim
 62
     1
100
AcDbTrace
 10
2864.644387392961
 20
755.0415370386359
 30
0.0
 11
2864.644387392961
 21
753.8748703719693
 31
0.0
 12
2861.144387392959
 22
754.4582037053027
 32
0.0
 13
2861.144387392959
 23
754.4582037053027
 33
0.0
  0
SOLID
  5
85381
330
84F35
100
AcDbEntity
  8
Dim
 62
     1
100
AcDbTrace
 10
2877.44438739296
 20
755.0415370386359
 30
0.0
 11
2877.44438739296
 21
753.8748703719693
 31
0.0
 12
2880.944387392961
 22
754.4582037053027
 32
0.0
 13
2880.944387392961
 23
754.4582037053027
 33
0.0
  0
MTEXT
  5
85382
330
84F35
100
AcDbEntity
  8
Dim
 62
     4
370
    15
100
AcDbMText
 10
2870.695944244219
 20
756.9582037053026
 30
0.0
 40
4.0
 41
0.0
 46
0.0
 71
     5
 72
     1
  1
\A1;19.8
  7
Romans字体
 73
     1
 44
1.0
  0
POINT
  5
85383
330
84F35
100
AcDbEntity
  8
Defpoints
 62
     0
100
AcDbPoint
 10
2861.144387392959
 20
739.0850158934156
 30
0.0
  0
POINT
  5
85384
330
84F35
100
AcDbEntity
  8
Defpoints
 62
     0
100
AcDbPoint
 10
2880.944387392961
 20
739.0850158934156
 30
0.0
  0
POINT
  5
85385
330
84F35
100
AcDbEntity
  8
Defpoints
 62
     0
100
AcDbPoint
 10
2880.944387392961
 20
754.4582037053027
 30
0.0
  0
ENDBLK
  5
84F37
330
84F35
100
AcDbEntity
  8
0
100
AcDbBlockEnd
  0
BLOCK
  5
8544E
330
8544D
100
AcDbEntity
  8
0
 62
     1
100
AcDbBlockBegin
  2
*D21
 70
     1
 10
0.0
 20
0.0
 30
0.0
  3
*D21
  1

  0
LINE
  5
8544F
330
8544D
100
AcDbEntity
  8
0
 62
     6
370
    -2
100
AcDbLine
 10
867.4297600639871
 20
66.52273958146593
 30
0.0
 11
867.4297600639871
 21
55.93170558146598
 31
0.0
  0
LINE
  5
85450
330
8544D
100
AcDbEntity
  8
0
 62
     6
370
    -2
100
AcDbLine
 10
818.9297600639871
 20
66.72273958146597
 30
0.0
 11
818.9297600639871
 21
55.93170558146598
 31
0.0
  0
LINE
  5
85451
330
8544D
100
AcDbEntity
  8
0
 62
     1
370
    -2
100
AcDbLine
 10
863.9297600639871
 20
56.53170558146598
 30
0.0
 11
848.6321410163681
 21
56.53170558146598
 31
0.0
  0
LINE
  5
85452
330
8544D
100
AcDbEntity
  8
0
 62
     1
370
    -2
100
AcDbLine
 10
822.4297600639872
 20
56.53170558146598
 30
0.0
 11
837.7273791116063
 21
56.53170558146598
 31
0.0
  0
SOLID
  5
85453
330
8544D
100
AcDbEntity
  8
0
 62
     1
100
AcDbTrace
 10
863.9297600639871
 20
57.11503891479932
 30
0.0
 11
863.9297600639871
 21
55.94837224813264
 31
0.0
 12
867.4297600639871
 22
56.53170558146598
 32
0.0
 13
867.4297600639871
 23
56.53170558146598
 33
0.0
  0
SOLID
  5
85454
330
8544D
100
AcDbEntity
  8
0
 62
     1
100
AcDbTrace
 10
822.4297600639872
 20
57.11503891479932
 30
0.0
 11
822.4297600639872
 21
55.94837224813264
 31
0.0
 12
818.9297600639871
 22
56.53170558146598
 32
0.0
 13
818.9297600639871
 23
56.53170558146598
 33
0.0
  0
MTEXT
  5
85455
330
8544D
100
AcDbEntity
  8
0
 62
     4
370
     0
100
AcDbMText
 10
843.1797600639871
 20
56.53170558146598
 30
0.0
 40
4.0
 41
0.0
 46
0.0
 71
     5
 72
     1
  1
48.5
 73
     1
 44
1.0
  0
POINT
  5
85456
330
8544D
100
AcDbEntity
  8
Defpoints
 62
     0
100
AcDbPoint
 10
867.4297600639871
 20
66.72273958146593
 30
0.0
  0
POINT
  5
85457
330
8544D
100
AcDbEntity
  8
Defpoints
 62
     0
100
AcDbPoint
 10
818.9297600639871
 20
66.92273958146597
 30
0.0
  0
POINT
  5
85458
330
8544D
100
AcDbEntity
  8
Defpoints
 62
     0
100
AcDbPoint
 10
818.9297600639871
 20
56.53170558146598
 30
0.0
  0
ENDBLK
  5
85459
330
8544D
100
AcDbEntity
  8
0
 62
     1
100
AcDbBlockEnd
  0
BLOCK
  5
8545B
330
8545A
100
AcDbEntity
  8
0
 62
     1
100
AcDbBlockBegin
  2
*D22
 70
     1
 10
0.0
 20
0.0
 30
0.0
  3
*D22
  1

  0
LINE
  5
8545C
330
8545A
100
AcDbEntity
  8
0
 62
     6
370
    -2
100
AcDbLine
 10
833.6621200639868
 20
126.6227395814659
 30
0.0
 11
814.586950063987
 21
126.6227395814659
 31
0.0
  0
LINE
  5
8545D
330
8545A
100
AcDbEntity
  8
0
 62
     6
370
    -2
100
AcDbLine
 10
833.3922300639867
 20
123.6227395814659
 30
0.0
 11
814.586950063987
 21
123.6227395814659
 31
0.0
  0
LINE
  5
8545E
330
8545A
100
AcDbEntity
  8
0
 62
     1
370
    -2
100
AcDbLine
 10
815.186950063987
 20
130.1227395814659
 30
0.0
 11
815.186950063987
 21
133.6227395814659
 31
0.0
  0
LINE
  5
8545F
330
8545A
100
AcDbEntity
  8
0
 62
     1
370
    -2
100
AcDbLine
 10
815.186950063987
 20
120.1227395814659
 30
0.0
 11
815.186950063987
 21
115.9465491052757
 31
0.0
  0
LINE
  5
85460
330
8545A
100
AcDbEntity
  8
0
 62
     1
370
    -2
100
AcDbLine
 10
815.186950063987
 20
126.6227395814659
 30
0.0
 11
815.186950063987
 21
123.6227395814659
 31
0.0
  0
SOLID
  5
85461
330
8545A
100
AcDbEntity
  8
0
 62
     1
100
AcDbTrace
 10
814.6036167306535
 20
130.1227395814659
 30
0.0
 11
815.7702833973202
 21
130.1227395814659
 31
0.0
 12
815.186950063987
 22
126.6227395814659
 32
0.0
 13
815.186950063987
 23
126.6227395814659
 33
0.0
  0
SOLID
  5
85462
330
8545A
100
AcDbEntity
  8
0
 62
     1
100
AcDbTrace
 10
814.6036167306535
 20
120.1227395814659
 30
0.0
 11
815.7702833973202
 21
120.1227395814659
 31
0.0
 12
815.186950063987
 22
123.6227395814659
 32
0.0
 13
815.186950063987
 23
123.6227395814659
 33
0.0
  0
MTEXT
  5
85463
330
8545A
100
AcDbEntity
  8
0
 62
     4
370
     0
100
AcDbMText
 10
815.186950063987
 20
112.6275014862282
 30
0.0
 40
4.0
 41
0.0
 46
0.0
 71
     5
 72
     1
  1
M3
 11
0.0000000000000001
 21
1.0
 31
0.0
 73
     1
 44
1.0
  0
POINT
  5
85464
330
8545A
100
AcDbEntity
  8
Defpoints
 62
     0
100
AcDbPoint
 10
833.8621200639869
 20
126.6227395814659
 30
0.0
  0
POINT
  5
85465
330
8545A
100
AcDbEntity
  8
Defpoints
 62
     0
100
AcDbPoint
 10
833.5922300639868
 20
123.6227395814659
 30
0.0
  0
POINT
  5
85466
330
8545A
100
AcDbEntity
  8
Defpoints
 62
     0
100
AcDbPoint
 10
815.186950063987
 20
123.6227395814659
 30
0.0
  0
ENDBLK
  5
85467
330
8545A
100
AcDbEntity
  8
0
 62
     1
100
AcDbBlockEnd
  0
BLOCK
  5
85469
330
85468
100
AcDbEntity
  8
0
 62
     1
100
AcDbBlockBegin
  2
*D23
 70
     1
 10
0.0
 20
0.0
 30
0.0
  3
*D23
  1

  0
LINE
  5
8546A
330
85468
100
AcDbEntity
  8
0
 62
     6
370
    -2
100
AcDbLine
 10
834.4797600639871
 20
128.6227395814659
 30
0.0
 11
807.4555300639872
 21
128.6227395814659
 31
0.0
  0
LINE
  5
8546B
330
85468
100
AcDbEntity
  8
0
 62
     6
370
    -2
100
AcDbLine
 10
820.729760063987
 20
64.92273958146597
 30
0.0
 11
807.4555300639872
 21
64.92273958146597
 31
0.0
  0
LINE
  5
8546C
330
85468
100
AcDbEntity
  8
0
 62
     1
370
    -2
100
AcDbLine
 10
808.0555300639872
 20
125.1227395814659
 30
0.0
 11
808.0555300639872
 21
102.1489300576562
 31
0.0
  0
LINE
  5
8546D
330
85468
100
AcDbEntity
  8
0
 62
     1
370
    -2
100
AcDbLine
 10
808.0555300639872
 20
68.42273958146598
 30
0.0
 11
808.0555300639872
 21
91.39654910527529
 31
0.0
  0
SOLID
  5
8546E
330
85468
100
AcDbEntity
  8
0
 62
     1
100
AcDbTrace
 10
807.4721967306539
 20
125.1227395814659
 30
0.0
 11
808.6388633973205
 21
125.1227395814659
 31
0.0
 12
808.0555300639872
 22
128.6227395814659
 32
0.0
 13
808.0555300639872
 23
128.6227395814659
 33
0.0
  0
SOLID
  5
8546F
330
85468
100
AcDbEntity
  8
0
 62
     1
100
AcDbTrace
 10
807.4721967306539
 20
68.42273958146598
 30
0.0
 11
808.6388633973205
 21
68.42273958146598
 31
0.0
 12
808.0555300639872
 22
64.92273958146597
 32
0.0
 13
808.0555300639872
 23
64.92273958146597
 33
0.0
  0
MTEXT
  5
85470
330
85468
100
AcDbEntity
  8
0
 62
     4
370
     0
100
AcDbMText
 10
808.0555300639872
 20
96.77273958146587
 30
0.0
 40
4.0
 41
0.0
 46
0.0
 71
     5
 72
     1
  1
63.7
 11
0.0000000000000001
 21
1.0
 31
0.0
 73
     1
 44
1.0
  0
POINT
  5
85471
330
85468
100
AcDbEntity
  8
Defpoints
 62
     0
100
AcDbPoint
 10
834.6797600639868
 20
128.6227395814659
 30
0.0
  0
POINT
  5
85472
330
85468
100
AcDbEntity
  8
Defpoints
 62
     0
100
AcDbPoint
 10
820.9297600639871
 20
64.92273958146597
 30
0.0
  0
POINT
  5
85473
330
85468
100
AcDbEntity
  8
Defpoints
 62
     0
100
AcDbPoint
 10
808.0555300639872
 20
64.92273958146597
 30
0.0
  0
ENDBLK
  5
85474
330
85468
100
AcDbEntity
  8
0
 62
     1
100
AcDbBlockEnd
  0
BLOCK
  5
85476
330
85475
100
AcDbEntity
  8
0
 62
     1
100
AcDbBlockBegin
  2
*D24
 70
     1
 10
0.0
 20
0.0
 30
0.0
  3
*D24
  1

  0
LINE
  5
85477
330
85475
100
AcDbEntity
  8
0
 62
     6
370
    -2
100
AcDbLine
 10
853.2297600639871
 20
125.1227395814659
 30
0.0
 11
866.9144400639872
 21
125.1227395814659
 31
0.0
  0
LINE
  5
85478
330
85475
100
AcDbEntity
  8
0
 62
     6
370
    -2
100
AcDbLine
 10
853.2297600639871
 20
118.1227395814659
 30
0.0
 11
866.9144400639872
 21
118.1227395814659
 31
0.0
  0
LINE
  5
85479
330
85475
100
AcDbEntity
  8
0
 62
     1
370
    -2
100
AcDbLine
 10
866.3144400639872
 20
128.6227395814659
 30
0.0
 11
866.3144400639872
 21
132.1227395814658
 31
0.0
  0
LINE
  5
8547A
330
85475
100
AcDbEntity
  8
0
 62
     1
370
    -2
100
AcDbLine
 10
866.3144400639872
 20
114.6227395814659
 30
0.0
 11
866.3144400639872
 21
111.1227395814659
 31
0.0
  0
LINE
  5
8547B
330
85475
100
AcDbEntity
  8
0
 62
     1
370
    -2
100
AcDbLine
 10
866.3144400639872
 20
125.1227395814659
 30
0.0
 11
866.3144400639872
 21
123.1894062481325
 31
0.0
  0
LINE
  5
8547C
330
85475
100
AcDbEntity
  8
0
 62
     1
370
    -2
100
AcDbLine
 10
866.3144400639872
 20
118.1227395814659
 30
0.0
 11
866.3144400639872
 21
120.0560729147992
 31
0.0
  0
SOLID
  5
8547D
330
85475
100
AcDbEntity
  8
0
 62
     1
100
AcDbTrace
 10
865.7311067306537
 20
128.6227395814659
 30
0.0
 11
866.8977733973205
 21
128.6227395814659
 31
0.0
 12
866.3144400639872
 22
125.1227395814659
 32
0.0
 13
866.3144400639872
 23
125.1227395814659
 33
0.0
  0
SOLID
  5
8547E
330
85475
100
AcDbEntity
  8
0
 62
     1
100
AcDbTrace
 10
865.7311067306537
 20
114.6227395814659
 30
0.0
 11
866.8977733973205
 21
114.6227395814659
 31
0.0
 12
866.3144400639872
 22
118.1227395814659
 32
0.0
 13
866.3144400639872
 23
118.1227395814659
 33
0.0
  0
MTEXT
  5
8547F
330
85475
100
AcDbEntity
  8
0
 62
     4
370
     0
100
AcDbMText
 10
866.3144400639872
 20
121.622739581466
 30
0.0
 40
4.0
 41
0.0
 46
0.0
 71
     5
 72
     1
  1
7
 11
0.0000000000000001
 21
1.0
 31
0.0
 73
     1
 44
1.0
  0
POINT
  5
85480
330
85475
100
AcDbEntity
  8
Defpoints
 62
     0
100
AcDbPoint
 10
853.0297600639871
 20
125.1227395814659
 30
0.0
  0
POINT
  5
85481
330
85475
100
AcDbEntity
  8
Defpoints
 62
     0
100
AcDbPoint
 10
853.0297600639871
 20
118.1227395814659
 30
0.0
  0
POINT
  5
85482
330
85475
100
AcDbEntity
  8
Defpoints
 62
     0
100
AcDbPoint
 10
866.3144400639872
 20
118.1227395814659
 30
0.0
  0
ENDBLK
  5
85483
330
85475
100
AcDbEntity
  8
0
 62
     1
100
AcDbBlockEnd
  0
BLOCK
  5
85485
330
85484
100
AcDbEntity
  8
0
 62
     1
100
AcDbBlockBegin
  2
*D25
 70
     1
 10
0.0
 20
0.0
 30
0.0
  3
*D25
  1

  0
LINE
  5
85486
330
85484
100
AcDbEntity
  8
0
 62
     6
370
    -2
100
AcDbLine
 10
851.8797600639871
 20
128.6227395814659
 30
0.0
 11
875.1663000639871
 21
128.6227395814659
 31
0.0
  0
LINE
  5
85487
330
85484
100
AcDbEntity
  8
0
 62
     6
370
    -2
100
AcDbLine
 10
847.463870063987
 20
114.6227395814659
 30
0.0
 11
875.1663000639871
 21
114.6227395814659
 31
0.0
  0
LINE
  5
85488
330
85484
100
AcDbEntity
  8
0
 62
     1
370
    -2
100
AcDbLine
 10
874.566300063987
 20
125.1227395814659
 30
0.0
 11
874.566300063987
 21
124.560834819561
 31
0.0
  0
LINE
  5
85489
330
85484
100
AcDbEntity
  8
0
 62
     1
370
    -2
100
AcDbLine
 10
874.566300063987
 20
118.1227395814659
 30
0.0
 11
874.566300063987
 21
118.6846443433705
 31
0.0
  0
SOLID
  5
8548A
330
85484
100
AcDbEntity
  8
0
 62
     1
100
AcDbTrace
 10
873.9829667306537
 20
125.1227395814659
 30
0.0
 11
875.1496333973205
 21
125.1227395814659
 31
0.0
 12
874.566300063987
 22
128.6227395814659
 32
0.0
 13
874.566300063987
 23
128.6227395814659
 33
0.0
  0
SOLID
  5
8548B
330
85484
100
AcDbEntity
  8
0
 62
     1
100
AcDbTrace
 10
873.9829667306537
 20
118.1227395814659
 30
0.0
 11
875.1496333973205
 21
118.1227395814659
 31
0.0
 12
874.566300063987
 22
114.6227395814659
 32
0.0
 13
874.566300063987
 23
114.6227395814659
 33
0.0
  0
MTEXT
  5
8548C
330
85484
100
AcDbEntity
  8
0
 62
     4
370
     0
100
AcDbMText
 10
874.566300063987
 20
121.6227395814659
 30
0.0
 40
4.0
 41
0.0
 46
0.0
 71
     5
 72
     1
  1
14
 11
0.0000000000000001
 21
1.0
 31
0.0
 73
     1
 44
1.0
  0
POINT
  5
8548D
330
85484
100
AcDbEntity
  8
Defpoints
 62
     0
100
AcDbPoint
 10
851.6797600639872
 20
128.6227395814659
 30
0.0
  0
POINT
  5
8548E
330
85484
100
AcDbEntity
  8
Defpoints
 62
     0
100
AcDbPoint
 10
847.2638700639867
 20
114.6227395814659
 30
0.0
  0
POINT
  5
8548F
330
85484
100
AcDbEntity
  8
Defpoints
 62
     0
100
AcDbPoint
 10
874.566300063987
 20
114.6227395814659
 30
0.0
  0
ENDBLK
  5
85490
330
85484
100
AcDbEntity
  8
0
 62
     1
100
AcDbBlockEnd
  0
BLOCK
  5
85492
330
85491
100
AcDbEntity
  8
0
 62
     1
100
AcDbBlockBegin
  2
*D26
 70
     1
 10
0.0
 20
0.0
 30
0.0
  3
*D26
  1

  0
LINE
  5
85493
330
85491
100
AcDbEntity
  8
0
 62
     6
370
    -2
100
AcDbLine
 10
904.1507537175782
 20
66.72273958146597
 30
0.0
 11
904.1507537175782
 21
56.33412558146588
 31
0.0
  0
LINE
  5
85494
330
85491
100
AcDbEntity
  8
0
 62
     6
370
    -2
100
AcDbLine
 10
906.150753717578
 20
66.72273958146597
 30
0.0
 11
906.150753717578
 21
56.33412558146588
 31
0.0
  0
LINE
  5
85495
330
85491
100
AcDbEntity
  8
0
 62
     1
370
    -2
100
AcDbLine
 10
900.6507537175782
 20
56.93412558146587
 30
0.0
 11
897.1507537175781
 21
56.93412558146587
 31
0.0
  0
LINE
  5
85496
330
85491
100
AcDbEntity
  8
0
 62
     1
370
    -2
100
AcDbLine
 10
909.650753717578
 20
56.93412558146587
 30
0.0
 11
913.7174203842446
 21
56.93412558146587
 31
0.0
  0
LINE
  5
85497
330
85491
100
AcDbEntity
  8
0
 62
     1
370
    -2
100
AcDbLine
 10
904.1507537175782
 20
56.93412558146587
 30
0.0
 11
906.150753717578
 21
56.93412558146587
 31
0.0
  0
SOLID
  5
85498
330
85491
100
AcDbEntity
  8
0
 62
     1
100
AcDbTrace
 10
900.6507537175782
 20
57.5174589147992
 30
0.0
 11
900.6507537175782
 21
56.35079224813254
 31
0.0
 12
904.1507537175782
 22
56.93412558146587
 32
0.0
 13
904.1507537175782
 23
56.93412558146587
 33
0.0
  0
SOLID
  5
85499
330
85491
100
AcDbEntity
  8
0
 62
     1
100
AcDbTrace
 10
909.650753717578
 20
57.5174589147992
 30
0.0
 11
909.650753717578
 21
56.35079224813254
 31
0.0
 12
906.150753717578
 22
56.93412558146587
 32
0.0
 13
906.150753717578
 23
56.93412558146587
 33
0.0
  0
MTEXT
  5
8549A
330
85491
100
AcDbEntity
  8
0
 62
     4
370
     0
100
AcDbMText
 10
915.2840870509113
 20
56.93412558146587
 30
0.0
 40
4.0
 41
0.0
 46
0.0
 71
     5
 72
     1
  1
2
 73
     1
 44
1.0
  0
POINT
  5
8549B
330
85491
100
AcDbEntity
  8
Defpoints
 62
     0
100
AcDbPoint
 10
904.1507537175782
 20
66.92273958146597
 30
0.0
  0
POINT
  5
8549C
330
85491
100
AcDbEntity
  8
Defpoints
 62
     0
100
AcDbPoint
 10
906.150753717578
 20
66.92273958146597
 30
0.0
  0
POINT
  5
8549D
330
85491
100
AcDbEntity
  8
Defpoints
 62
     0
100
AcDbPoint
 10
906.150753717578
 20
56.93412558146587
 30
0.0
  0
ENDBLK
  5
8549E
330
85491
100
AcDbEntity
  8
0
 62
     1
100
AcDbBlockEnd
  0
BLOCK
  5
854A0
330
8549F
100
AcDbEntity
  8
0
 62
     1
100
AcDbBlockBegin
  2
*D27
 70
     1
 10
0.0
 20
0.0
 30
0.0
  3
*D27
  1

  0
LINE
  5
854A1
330
8549F
100
AcDbEntity
  8
0
 62
     6
370
    -2
100
AcDbLine
 10
850.779760063987
 20
127.5727395814659
 30
0.0
 11
850.779760063987
 21
139.0840195814659
 31
0.0
  0
LINE
  5
854A2
330
8549F
100
AcDbEntity
  8
0
 62
     6
370
    -2
100
AcDbLine
 10
835.5797600639872
 20
127.5727395814659
 30
0.0
 11
835.5797600639872
 21
139.0840195814659
 31
0.0
  0
LINE
  5
854A3
330
8549F
100
AcDbEntity
  8
0
 62
     1
370
    -2
100
AcDbLine
 10
854.2797600639868
 20
138.4840195814659
 30
0.0
 11
857.7797600639868
 21
138.4840195814659
 31
0.0
  0
LINE
  5
854A4
330
8549F
100
AcDbEntity
  8
0
 62
     1
370
    -2
100
AcDbLine
 10
832.0797600639872
 20
138.4840195814659
 30
0.0
 11
828.5797600639872
 21
138.4840195814659
 31
0.0
  0
LINE
  5
854A5
330
8549F
100
AcDbEntity
  8
0
 62
     1
370
    -2
100
AcDbLine
 10
850.779760063987
 20
138.4840195814659
 30
0.0
 11
848.4035695877969
 21
138.4840195814659
 31
0.0
  0
LINE
  5
854A6
330
8549F
100
AcDbEntity
  8
0
 62
     1
370
    -2
100
AcDbLine
 10
835.5797600639872
 20
138.4840195814659
 30
0.0
 11
837.9559505401774
 21
138.4840195814659
 31
0.0
  0
SOLID
  5
854A7
330
8549F
100
AcDbEntity
  8
0
 62
     1
100
AcDbTrace
 10
854.2797600639868
 20
139.0673529147992
 30
0.0
 11
854.2797600639868
 21
137.9006862481325
 31
0.0
 12
850.779760063987
 22
138.4840195814659
 32
0.0
 13
850.779760063987
 23
138.4840195814659
 33
0.0
  0
SOLID
  5
854A8
330
8549F
100
AcDbEntity
  8
0
 62
     1
100
AcDbTrace
 10
832.0797600639872
 20
139.0673529147992
 30
0.0
 11
832.0797600639872
 21
137.9006862481325
 31
0.0
 12
835.5797600639872
 22
138.4840195814659
 32
0.0
 13
835.5797600639872
 23
138.4840195814659
 33
0.0
  0
MTEXT
  5
854A9
330
8549F
100
AcDbEntity
  8
0
 62
     4
370
     0
100
AcDbMText
 10
843.1797600639871
 20
138.4840195814659
 30
0.0
 40
4.0
 41
0.0
 46
0.0
 71
     5
 72
     1
  1
15.2
 73
     1
 44
1.0
  0
POINT
  5
854AA
330
8549F
100
AcDbEntity
  8
Defpoints
 62
     0
100
AcDbPoint
 10
850.779760063987
 20
127.3727395814659
 30
0.0
  0
POINT
  5
854AB
330
8549F
100
AcDbEntity
  8
Defpoints
 62
     0
100
AcDbPoint
 10
835.5797600639872
 20
127.3727395814659
 30
0.0
  0
POINT
  5
854AC
330
8549F
100
AcDbEntity
  8
Defpoints
 62
     0
100
AcDbPoint
 10
835.5797600639872
 20
138.4840195814659
 30
0.0
  0
ENDBLK
  5
854AD
330
8549F
100
AcDbEntity
  8
0
 62
     1
100
AcDbBlockEnd
  0
BLOCK
  5
85634
330
85633
100
AcDbEntity
  8
0
100
AcDbBlockBegin
  2
*D28
 70
     1
 10
0.0
 20
0.0
 30
0.0
  3
*D28
  1

  0
LINE
  5
8577B
330
85633
100
AcDbEntity
  8
Dim
 62
     6
370
    -2
100
AcDbLine
 10
2946.506235622639
 20
691.2326646502847
 30
0.0
 11
2946.506235622639
 21
680.041630650285
 31
0.0
  0
LINE
  5
8577C
330
85633
100
AcDbEntity
  8
Dim
 62
     6
370
    -2
100
AcDbLine
 10
2898.006235622639
 20
691.432664650285
 30
0.0
 11
2898.006235622639
 21
680.041630650285
 31
0.0
  0
LINE
  5
8577D
330
85633
100
AcDbEntity
  8
Dim
 62
     1
370
    -2
100
AcDbLine
 10
2943.006235622639
 20
681.2416306502846
 30
0.0
 11
2901.506235622639
 21
681.2416306502846
 31
0.0
  0
SOLID
  5
8577E
330
85633
100
AcDbEntity
  8
Dim
 62
     1
100
AcDbTrace
 10
2943.006235622639
 20
681.8249639836184
 30
0.0
 11
2943.006235622639
 21
680.6582973169517
 31
0.0
 12
2946.506235622639
 22
681.2416306502846
 32
0.0
 13
2946.506235622639
 23
681.2416306502846
 33
0.0
  0
SOLID
  5
8577F
330
85633
100
AcDbEntity
  8
Dim
 62
     1
100
AcDbTrace
 10
2901.506235622639
 20
681.8249639836184
 30
0.0
 11
2901.506235622639
 21
680.6582973169517
 31
0.0
 12
2898.006235622639
 22
681.2416306502846
 32
0.0
 13
2898.006235622639
 23
681.2416306502846
 33
0.0
  0
MTEXT
  5
85780
330
85633
100
AcDbEntity
  8
Dim
 62
     4
100
AcDbMText
 10
2922.256235622639
 20
683.7416306502847
 30
0.0
 40
4.0
 41
0.0
 46
0.0
 71
     5
 72
     1
  1
\A1;48.5
  7
Romans字体
 73
     1
 44
1.0
  0
POINT
  5
85781
330
85633
100
AcDbEntity
  8
Defpoints
 62
     0
100
AcDbPoint
 10
2946.506235622639
 20
691.432664650285
 30
0.0
  0
POINT
  5
85782
330
85633
100
AcDbEntity
  8
Defpoints
 62
     0
100
AcDbPoint
 10
2898.006235622639
 20
691.6326646502851
 30
0.0
  0
POINT
  5
85783
330
85633
100
AcDbEntity
  8
Defpoints
 62
     0
100
AcDbPoint
 10
2898.006235622639
 20
681.2416306502846
 30
0.0
  0
ENDBLK
  5
85635
330
85633
100
AcDbEntity
  8
0
100
AcDbBlockEnd
  0
BLOCK
  5
85640
330
8563F
100
AcDbEntity
  8
0
100
AcDbBlockBegin
  2
*D29
 70
     1
 10
0.0
 20
0.0
 30
0.0
  3
*D29
  1

  0
LINE
  5
85784
330
8563F
100
AcDbEntity
  8
Dim
 62
     6
370
    -2
100
AcDbLine
 10
2912.738595622639
 20
751.3326646502847
 30
0.0
 11
2893.063425622639
 21
751.3326646502847
 31
0.0
  0
LINE
  5
85785
330
8563F
100
AcDbEntity
  8
Dim
 62
     6
370
    -2
100
AcDbLine
 10
2912.468705622639
 20
748.3326646502847
 30
0.0
 11
2893.063425622639
 21
748.3326646502847
 31
0.0
  0
LINE
  5
85786
330
8563F
100
AcDbEntity
  8
Dim
 62
     1
370
    -2
100
AcDbLine
 10
2894.263425622638
 20
754.8326646502848
 30
0.0
 11
2894.263425622638
 21
758.3326646502849
 31
0.0
  0
LINE
  5
85787
330
8563F
100
AcDbEntity
  8
Dim
 62
     1
370
    -2
100
AcDbLine
 10
2894.263425622638
 20
744.8326646502849
 30
0.0
 11
2894.263425622638
 21
734.1945694121895
 31
0.0
  0
SOLID
  5
85788
330
8563F
100
AcDbEntity
  8
Dim
 62
     1
100
AcDbTrace
 10
2893.680092289305
 20
754.8326646502848
 30
0.0
 11
2894.846758955972
 21
754.8326646502848
 31
0.0
 12
2894.263425622638
 22
751.3326646502847
 32
0.0
 13
2894.263425622638
 23
751.3326646502847
 33
0.0
  0
SOLID
  5
85789
330
8563F
100
AcDbEntity
  8
Dim
 62
     1
100
AcDbTrace
 10
2893.680092289305
 20
744.8326646502849
 30
0.0
 11
2894.846758955972
 21
744.8326646502849
 31
0.0
 12
2894.263425622638
 22
748.3326646502847
 32
0.0
 13
2894.263425622638
 23
748.3326646502847
 33
0.0
  0
MTEXT
  5
8578A
330
8563F
100
AcDbEntity
  8
Dim
 62
     4
100
AcDbMText
 10
2891.763425622638
 20
737.3374265550473
 30
0.0
 40
4.0
 41
0.0
 46
0.0
 71
     5
 72
     1
  1
\A1;M3
  7
Romans字体
 11
0.0000000000000001
 21
1.0
 31
0.0
 73
     1
 44
1.0
  0
POINT
  5
8578B
330
8563F
100
AcDbEntity
  8
Defpoints
 62
     0
100
AcDbPoint
 10
2912.93859562264
 20
751.3326646502847
 30
0.0
  0
POINT
  5
8578C
330
8563F
100
AcDbEntity
  8
Defpoints
 62
     0
100
AcDbPoint
 10
2912.668705622639
 20
748.3326646502847
 30
0.0
  0
POINT
  5
8578D
330
8563F
100
AcDbEntity
  8
Defpoints
 62
     0
100
AcDbPoint
 10
2894.263425622638
 20
748.3326646502847
 30
0.0
  0
ENDBLK
  5
85641
330
8563F
100
AcDbEntity
  8
0
100
AcDbBlockEnd
  0
BLOCK
  5
8564D
330
8564C
100
AcDbEntity
  8
0
100
AcDbBlockBegin
  2
*D30
 70
     1
 10
0.0
 20
0.0
 30
0.0
  3
*D30
  1

  0
LINE
  5
8578E
330
8564C
100
AcDbEntity
  8
Dim
 62
     6
370
    -2
100
AcDbLine
 10
2913.556235622639
 20
753.3326646502849
 30
0.0
 11
2885.93200562264
 21
753.3326646502849
 31
0.0
  0
LINE
  5
8578F
330
8564C
100
AcDbEntity
  8
Dim
 62
     6
370
    -2
100
AcDbLine
 10
2899.806235622639
 20
689.6326646502849
 30
0.0
 11
2885.93200562264
 21
689.6326646502849
 31
0.0
  0
LINE
  5
85790
330
8564C
100
AcDbEntity
  8
Dim
 62
     1
370
    -2
100
AcDbLine
 10
2887.132005622639
 20
749.8326646502849
 30
0.0
 11
2887.132005622639
 21
693.1326646502849
 31
0.0
  0
SOLID
  5
85791
330
8564C
100
AcDbEntity
  8
Dim
 62
     1
100
AcDbTrace
 10
2886.548672289305
 20
749.8326646502849
 30
0.0
 11
2887.715338955972
 21
749.8326646502849
 31
0.0
 12
2887.132005622639
 22
753.3326646502849
 32
0.0
 13
2887.132005622639
 23
753.3326646502849
 33
0.0
  0
SOLID
  5
85792
330
8564C
100
AcDbEntity
  8
Dim
 62
     1
100
AcDbTrace
 10
2886.548672289305
 20
693.1326646502849
 30
0.0
 11
2887.715338955972
 21
693.1326646502849
 31
0.0
 12
2887.132005622639
 22
689.6326646502849
 32
0.0
 13
2887.132005622639
 23
689.6326646502849
 33
0.0
  0
MTEXT
  5
85793
330
8564C
100
AcDbEntity
  8
Dim
 62
     4
100
AcDbMText
 10
2884.632005622639
 20
721.4826646502847
 30
0.0
 40
4.0
 41
0.0
 46
0.0
 71
     5
 72
     1
  1
\A1;63.7
  7
Romans字体
 11
0.0000000000000001
 21
1.0
 31
0.0
 73
     1
 44
1.0
  0
POINT
  5
85794
330
8564C
100
AcDbEntity
  8
Defpoints
 62
     0
100
AcDbPoint
 10
2913.756235622639
 20
753.3326646502849
 30
0.0
  0
POINT
  5
85795
330
8564C
100
AcDbEntity
  8
Defpoints
 62
     0
100
AcDbPoint
 10
2900.006235622639
 20
689.6326646502849
 30
0.0
  0
POINT
  5
85796
330
8564C
100
AcDbEntity
  8
Defpoints
 62
     0
100
AcDbPoint
 10
2887.132005622639
 20
689.6326646502849
 30
0.0
  0
ENDBLK
  5
8564E
330
8564C
100
AcDbEntity
  8
0
100
AcDbBlockEnd
  0
BLOCK
  5
85659
330
85658
100
AcDbEntity
  8
0
100
AcDbBlockBegin
  2
*D31
 70
     1
 10
0.0
 20
0.0
 30
0.0
  3
*D31
  1

  0
LINE
  5
85797
330
85658
100
AcDbEntity
  8
Dim
 62
     6
370
    -2
100
AcDbLine
 10
2932.306235622638
 20
749.8326646502849
 30
0.0
 11
2946.590915622639
 21
749.8326646502849
 31
0.0
  0
LINE
  5
85798
330
85658
100
AcDbEntity
  8
Dim
 62
     6
370
    -2
100
AcDbLine
 10
2932.306235622638
 20
742.8326646502847
 30
0.0
 11
2946.590915622639
 21
742.8326646502847
 31
0.0
  0
LINE
  5
85799
330
85658
100
AcDbEntity
  8
Dim
 62
     1
370
    -2
100
AcDbLine
 10
2945.390915622639
 20
753.3326646502849
 30
0.0
 11
2945.390915622639
 21
756.8326646502847
 31
0.0
  0
LINE
  5
8579A
330
85658
100
AcDbEntity
  8
Dim
 62
     1
370
    -2
100
AcDbLine
 10
2945.390915622639
 20
739.3326646502847
 30
0.0
 11
2945.390915622639
 21
735.8326646502847
 31
0.0
  0
SOLID
  5
8579B
330
85658
100
AcDbEntity
  8
Dim
 62
     1
100
AcDbTrace
 10
2944.807582289306
 20
753.3326646502849
 30
0.0
 11
2945.974248955973
 21
753.3326646502849
 31
0.0
 12
2945.390915622639
 22
749.8326646502849
 32
0.0
 13
2945.390915622639
 23
749.8326646502849
 33
0.0
  0
SOLID
  5
8579C
330
85658
100
AcDbEntity
  8
Dim
 62
     1
100
AcDbTrace
 10
2944.807582289306
 20
739.3326646502847
 30
0.0
 11
2945.974248955973
 21
739.3326646502847
 31
0.0
 12
2945.390915622639
 22
742.8326646502847
 32
0.0
 13
2945.390915622639
 23
742.8326646502847
 33
0.0
  0
MTEXT
  5
8579D
330
85658
100
AcDbEntity
  8
Dim
 62
     4
100
AcDbMText
 10
2942.890915622639
 20
746.3326646502852
 30
0.0
 40
4.0
 41
0.0
 46
0.0
 71
     5
 72
     1
  1
\A1;7
  7
Romans字体
 11
0.0000000000000001
 21
1.0
 31
0.0
 73
     1
 44
1.0
  0
POINT
  5
8579E
330
85658
100
AcDbEntity
  8
Defpoints
 62
     0
100
AcDbPoint
 10
2932.10623562264
 20
749.8326646502849
 30
0.0
  0
POINT
  5
8579F
330
85658
100
AcDbEntity
  8
Defpoints
 62
     0
100
AcDbPoint
 10
2932.10623562264
 20
742.8326646502847
 30
0.0
  0
POINT
  5
857A0
330
85658
100
AcDbEntity
  8
Defpoints
 62
     0
100
AcDbPoint
 10
2945.390915622639
 20
742.8326646502847
 30
0.0
  0
ENDBLK
  5
8565A
330
85658
100
AcDbEntity
  8
0
100
AcDbBlockEnd
  0
BLOCK
  5
85666
330
85665
100
AcDbEntity
  8
0
100
AcDbBlockBegin
  2
*D32
 70
     1
 10
0.0
 20
0.0
 30
0.0
  3
*D32
  1

  0
LINE
  5
857A1
330
85665
100
AcDbEntity
  8
Dim
 62
     6
370
    -2
100
AcDbLine
 10
2930.956235622639
 20
753.3326646502849
 30
0.0
 11
2954.84277562264
 21
753.3326646502849
 31
0.0
  0
LINE
  5
857A2
330
85665
100
AcDbEntity
  8
Dim
 62
     6
370
    -2
100
AcDbLine
 10
2926.540345622639
 20
739.3326646502847
 30
0.0
 11
2954.84277562264
 21
739.3326646502847
 31
0.0
  0
LINE
  5
857A3
330
85665
100
AcDbEntity
  8
Dim
 62
     1
370
    -2
100
AcDbLine
 10
2953.642775622639
 20
749.8326646502849
 30
0.0
 11
2953.642775622639
 21
742.8326646502847
 31
0.0
  0
SOLID
  5
857A4
330
85665
100
AcDbEntity
  8
Dim
 62
     1
100
AcDbTrace
 10
2953.059442289305
 20
749.8326646502849
 30
0.0
 11
2954.226108955972
 21
749.8326646502849
 31
0.0
 12
2953.642775622639
 22
753.3326646502849
 32
0.0
 13
2953.642775622639
 23
753.3326646502849
 33
0.0
  0
SOLID
  5
857A5
330
85665
100
AcDbEntity
  8
Dim
 62
     1
100
AcDbTrace
 10
2953.059442289305
 20
742.8326646502847
 30
0.0
 11
2954.226108955972
 21
742.8326646502847
 31
0.0
 12
2953.642775622639
 22
739.3326646502847
 32
0.0
 13
2953.642775622639
 23
739.3326646502847
 33
0.0
  0
MTEXT
  5
857A6
330
85665
100
AcDbEntity
  8
Dim
 62
     4
100
AcDbMText
 10
2951.142775622639
 20
746.3326646502848
 30
0.0
 40
4.0
 41
0.0
 46
0.0
 71
     5
 72
     1
  1
\A1;14
  7
Romans字体
 11
0.0000000000000001
 21
1.0
 31
0.0
 73
     1
 44
1.0
  0
POINT
  5
857A7
330
85665
100
AcDbEntity
  8
Defpoints
 62
     0
100
AcDbPoint
 10
2930.756235622639
 20
753.3326646502849
 30
0.0
  0
POINT
  5
857A8
330
85665
100
AcDbEntity
  8
Defpoints
 62
     0
100
AcDbPoint
 10
2926.34034562264
 20
739.3326646502847
 30
0.0
  0
POINT
  5
857A9
330
85665
100
AcDbEntity
  8
Defpoints
 62
     0
100
AcDbPoint
 10
2953.642775622639
 20
739.3326646502847
 30
0.0
  0
ENDBLK
  5
85667
330
85665
100
AcDbEntity
  8
0
100
AcDbBlockEnd
  0
BLOCK
  5
85672
330
85671
100
AcDbEntity
  8
0
100
AcDbBlockBegin
  2
*D33
 70
     1
 10
0.0
 20
0.0
 30
0.0
  3
*D33
  1

  0
LINE
  5
857AA
330
85671
100
AcDbEntity
  8
Dim
 62
     6
370
    -2
100
AcDbLine
 10
2983.22722927623
 20
691.432664650285
 30
0.0
 11
2983.22722927623
 21
680.4440506502849
 31
0.0
  0
LINE
  5
857AB
330
85671
100
AcDbEntity
  8
Dim
 62
     6
370
    -2
100
AcDbLine
 10
2985.22722927623
 20
691.432664650285
 30
0.0
 11
2985.22722927623
 21
680.4440506502849
 31
0.0
  0
LINE
  5
857AC
330
85671
100
AcDbEntity
  8
Dim
 62
     1
370
    -2
100
AcDbLine
 10
2979.72722927623
 20
681.6440506502847
 30
0.0
 11
2976.22722927623
 21
681.6440506502847
 31
0.0
  0
LINE
  5
857AD
330
85671
100
AcDbEntity
  8
Dim
 62
     1
370
    -2
100
AcDbLine
 10
2988.72722927623
 20
681.6440506502847
 30
0.0
 11
2995.860562609563
 21
681.6440506502847
 31
0.0
  0
SOLID
  5
857AE
330
85671
100
AcDbEntity
  8
Dim
 62
     1
100
AcDbTrace
 10
2979.72722927623
 20
682.2273839836181
 30
0.0
 11
2979.72722927623
 21
681.0607173169516
 31
0.0
 12
2983.22722927623
 22
681.6440506502847
 32
0.0
 13
2983.22722927623
 23
681.6440506502847
 33
0.0
  0
SOLID
  5
857AF
330
85671
100
AcDbEntity
  8
Dim
 62
     1
100
AcDbTrace
 10
2988.72722927623
 20
682.2273839836181
 30
0.0
 11
2988.72722927623
 21
681.0607173169516
 31
0.0
 12
2985.22722927623
 22
681.6440506502847
 32
0.0
 13
2985.22722927623
 23
681.6440506502847
 33
0.0
  0
MTEXT
  5
857B0
330
85671
100
AcDbEntity
  8
Dim
 62
     4
100
AcDbMText
 10
2994.360562609563
 20
684.1440506502847
 30
0.0
 40
4.0
 41
0.0
 46
0.0
 71
     5
 72
     1
  1
\A1;2
  7
Romans字体
 73
     1
 44
1.0
  0
POINT
  5
857B1
330
85671
100
AcDbEntity
  8
Defpoints
 62
     0
100
AcDbPoint
 10
2983.22722927623
 20
691.6326646502851
 30
0.0
  0
POINT
  5
857B2
330
85671
100
AcDbEntity
  8
Defpoints
 62
     0
100
AcDbPoint
 10
2985.22722927623
 20
691.6326646502851
 30
0.0
  0
POINT
  5
857B3
330
85671
100
AcDbEntity
  8
Defpoints
 62
     0
100
AcDbPoint
 10
2985.22722927623
 20
681.6440506502847
 30
0.0
  0
ENDBLK
  5
85673
330
85671
100
AcDbEntity
  8
0
100
AcDbBlockEnd
  0
BLOCK
  5
8567F
330
8567E
100
AcDbEntity
  8
0
100
AcDbBlockBegin
  2
*D34
 70
     1
 10
0.0
 20
0.0
 30
0.0
  3
*D34
  1

  0
LINE
  5
857B4
330
8567E
100
AcDbEntity
  8
Dim
 62
     6
370
    -2
100
AcDbLine
 10
2929.85623562264
 20
752.282664650285
 30
0.0
 11
2929.85623562264
 21
764.393944650285
 31
0.0
  0
LINE
  5
857B5
330
8567E
100
AcDbEntity
  8
Dim
 62
     6
370
    -2
100
AcDbLine
 10
2914.656235622639
 20
752.282664650285
 30
0.0
 11
2914.656235622639
 21
764.393944650285
 31
0.0
  0
LINE
  5
857B6
330
8567E
100
AcDbEntity
  8
Dim
 62
     1
370
    -2
100
AcDbLine
 10
2926.356235622638
 20
763.1939446502847
 30
0.0
 11
2918.156235622639
 21
763.1939446502847
 31
0.0
  0
SOLID
  5
857B7
330
8567E
100
AcDbEntity
  8
Dim
 62
     1
100
AcDbTrace
 10
2926.356235622638
 20
763.7772779836183
 30
0.0
 11
2926.356235622638
 21
762.6106113169514
 31
0.0
 12
2929.85623562264
 22
763.1939446502847
 32
0.0
 13
2929.85623562264
 23
763.1939446502847
 33
0.0
  0
SOLID
  5
857B8
330
8567E
100
AcDbEntity
  8
Dim
 62
     1
100
AcDbTrace
 10
2918.156235622639
 20
763.7772779836183
 30
0.0
 11
2918.156235622639
 21
762.6106113169514
 31
0.0
 12
2914.656235622639
 22
763.1939446502847
 32
0.0
 13
2914.656235622639
 23
763.1939446502847
 33
0.0
  0
MTEXT
  5
857B9
330
8567E
100
AcDbEntity
  8
Dim
 62
     4
100
AcDbMText
 10
2922.256235622639
 20
765.6939446502847
 30
0.0
 40
4.0
 41
0.0
 46
0.0
 71
     5
 72
     1
  1
\A1;15.2
  7
Romans字体
 73
     1
 44
1.0
  0
POINT
  5
857BA
330
8567E
100
AcDbEntity
  8
Defpoints
 62
     0
100
AcDbPoint
 10
2929.85623562264
 20
752.0826646502849
 30
0.0
  0
POINT
  5
857BB
330
8567E
100
AcDbEntity
  8
Defpoints
 62
     0
100
AcDbPoint
 10
2914.656235622639
 20
752.0826646502849
 30
0.0
  0
POINT
  5
857BC
330
8567E
100
AcDbEntity
  8
Defpoints
 62
     0
100
AcDbPoint
 10
2914.656235622639
 20
763.1939446502847
 30
0.0
  0
ENDBLK
  5
85680
330
8567E
100
AcDbEntity
  8
0
100
AcDbBlockEnd
  0
ENDSEC
  0
SECTION
  2
ENTITIES
  0
POINT
  5
6C8F
330
1F
100
AcDbEntity
  8
0
 60
     1
100
AcDbPoint
 10
45143.05040943241
 20
-19004.18044894631
 30
0.0
1001
GENIUS_GENOBJ-N-TIT_13
1002
{
1000
OWNER
1000
GEN
1002
}
1001
GENIUS_GENOENT_13
1002
{
1000
MYREF
1005
6C8F
1002
}
1002
{
1000
GRP
1005
0
1002
}
1001
GENIUS_GENOLIS_13
1002
{
1000
ENT
1005
0
1005
0
1002
}
1001
GENIUS_GENTITLE_13
1002
{
1000
SCALE
1000
1:1
1002
}
1002
{
1000
BORDER
1000
GEN_A3
1002
}
1002
{
1000
TITLE
1000
GENTITLE
1002
}
1002
{
1000
UNCHG
1002
{
1000
GEN-TITLE-SCA
1000
GEN-TITLE-SIZ
1002
}
1002
}
1002
{
1000
HRA
1005
0
1002
}
1002
{
1000
HTIT
1005
0
1002
}
1002
{
1000
GENIUSID
1005
6C8F
1002
}
1001
GENIUS_GENODEF_13
1002
{
1000
HIER
1070
     1
1002
}
1002
{
1000
MANEDIT
1070
     0
1002
}
1002
{
1000
NOSEL
1070
     0
1002
}
1002
{
1000
BEHIND
1070
     0
1002
}
1002
{
1000
REACTOR
1002
}
  0
TEXT
  5
6C90
330
1F
100
AcDbEntity
  8
0
 60
     1
100
AcDbText
 10
45637.58773215241
 20
-18625.72255409374
 30
0.0
 40
2.0
  1
!GENTITLE-MAX
100
AcDbText
  0
TEXT
  5
6C91
330
1F
100
AcDbEntity
  8
0
 60
     1
100
AcDbText
 10
45627.5877321524
 20
-18635.72255409374
 30
0.0
 40
2.0
  1
!GENTITLE-RU
100
AcDbText
  0
TEXT
  5
6C92
330
1F
100
AcDbEntity
  8
0
 60
     1
100
AcDbText
 10
45627.5877321524
 20
-18917.72255409374
 30
0.0
 40
2.0
  1
!GENTITLE-INSERT
100
AcDbText
  0
TEXT
  5
6C93
330
1F
100
AcDbEntity
  8
0
 60
     1
100
AcDbText
 10
45227.5877321524
 20
-18912.72255409374
 30
0.0
 40
2.0
  1
!GENTITLE-LL
100
AcDbText
  0
POINT
  5
6C94
330
1F
100
AcDbEntity
  8
0
 60
     1
100
AcDbPoint
 10
44892.02967200544
 20
-18922.45331297959
 30
0.0
1001
GENIUS_GENOBJ-N-TIT_13
1002
{
1000
OWNER
1000
GEN
1002
}
1001
GENIUS_GENOENT_13
1002
{
1000
MYREF
1005
6C94
1002
}
1002
{
1000
GRP
1005
0
1002
}
1001
GENIUS_GENOLIS_13
1002
{
1000
ENT
1005
0
1005
0
1002
}
1001
GENIUS_GENTITLE_13
1002
{
1000
SCALE
1000
1:1
1002
}
1002
{
1000
BORDER
1000
GEN_A3
1002
}
1002
{
1000
TITLE
1000
GENTITLE
1002
}
1002
{
1000
UNCHG
1002
{
1000
GEN-TITLE-SCA
1000
GEN-TITLE-SIZ
1002
}
1002
}
1002
{
1000
HRA
1005
0
1002
}
1002
{
1000
HTIT
1005
0
1002
}
1002
{
1000
GENIUSID
1005
6C94
1002
}
1001
GENIUS_GENODEF_13
1002
{
1000
HIER
1070
     1
1002
}
1002
{
1000
MANEDIT
1070
     0
1002
}
1002
{
1000
NOSEL
1070
     0
1002
}
1002
{
1000
BEHIND
1070
     0
1002
}
1002
{
1000
REACTOR
1002
}
  0
TEXT
  5
6C95
330
1F
100
AcDbEntity
  8
0
 60
     1
100
AcDbText
 10
45386.56699472543
 20
-18543.99541812701
 30
0.0
 40
2.0
  1
!GENTITLE-MAX
100
AcDbText
  0
TEXT
  5
6C96
330
1F
100
AcDbEntity
  8
0
 60
     1
100
AcDbText
 10
45376.56699472543
 20
-18553.99541812701
 30
0.0
 40
2.0
  1
!GENTITLE-RU
100
AcDbText
  0
TEXT
  5
6C97
330
1F
100
AcDbEntity
  8
0
 60
     1
100
AcDbText
 10
45376.56699472543
 20
-18835.99541812701
 30
0.0
 40
2.0
  1
!GENTITLE-INSERT
100
AcDbText
  0
TEXT
  5
6C98
330
1F
100
AcDbEntity
  8
0
 60
     1
100
AcDbText
 10
44976.56699472543
 20
-18830.99541812701
 30
0.0
 40
2.0
  1
!GENTITLE-LL
100
AcDbText
  0
POINT
  5
6C99
330
1F
100
AcDbEntity
  8
0
 60
     1
100
AcDbPoint
 10
2841.073545212444
 20
724.9444851052893
 30
0.0
1001
GENIUS_GENOBJ-N-TIT_13
1002
{
1000
OWNER
1000
GEN
1002
}
1001
GENIUS_GENOENT_13
1002
{
1000
MYREF
1005
6C99
1002
}
1002
{
1000
GRP
1005
0
1002
}
1001
GENIUS_GENOLIS_13
1002
{
1000
ENT
1005
0
1005
0
1002
}
1001
GENIUS_GENTITLE_13
1002
{
1000
SCALE
1000
1:1
1002
}
1002
{
1000
BORDER
1000
GEN_A3
1002
}
1002
{
1000
TITLE
1000
GENTITLE
1002
}
1002
{
1000
UNCHG
1002
{
1000
GEN-TITLE-SCA
1000
GEN-TITLE-SIZ
1002
}
1002
}
1002
{
1000
HRA
1005
0
1002
}
1002
{
1000
HTIT
1005
0
1002
}
1002
{
1000
GENIUSID
1005
6C99
1002
}
1001
GENIUS_GENODEF_13
1002
{
1000
HIER
1070
     1
1002
}
1002
{
1000
MANEDIT
1070
     0
1002
}
1002
{
1000
NOSEL
1070
     0
1002
}
1002
{
1000
BEHIND
1070
     0
1002
}
1002
{
1000
REACTOR
1002
}
  0
TEXT
  5
6C9A
330
1F
100
AcDbEntity
  8
0
 60
     1
100
AcDbText
 10
3335.610867932429
 20
1103.402379957868
 30
0.0
 40
2.0
  1
!GENTITLE-MAX
100
AcDbText
  0
TEXT
  5
6C9B
330
1F
100
AcDbEntity
  8
0
 60
     1
100
AcDbText
 10
3325.61086793243
 20
1093.402379957868
 30
0.0
 40
2.0
  1
!GENTITLE-RU
100
AcDbText
  0
TEXT
  5
6C9C
330
1F
100
AcDbEntity
  8
0
 60
     1
100
AcDbText
 10
3325.61086793243
 20
811.4023799578674
 30
0.0
 40
2.0
  1
!GENTITLE-INSERT
100
AcDbText
  0
TEXT
  5
6C9D
330
1F
100
AcDbEntity
  8
0
 60
     1
100
AcDbText
 10
2925.610867932429
 20
816.4023799578677
 30
0.0
 40
2.0
  1
!GENTITLE-LL
100
AcDbText
  0
POINT
  5
6C9F
330
1F
100
AcDbEntity
  8
0
 60
     1
100
AcDbPoint
 10
44989.33493766866
 20
-19508.65683606648
 30
0.0
1001
GENIUS_GENOBJ-N-TIT_13
1002
{
1000
OWNER
1000
GEN
1002
}
1001
GENIUS_GENOENT_13
1002
{
1000
MYREF
1005
6C9F
1002
}
1002
{
1000
GRP
1005
0
1002
}
1001
GENIUS_GENOLIS_13
1002
{
1000
ENT
1005
0
1005
0
1002
}
1001
GENIUS_GENTITLE_13
1002
{
1000
SCALE
1000
1:1
1002
}
1002
{
1000
BORDER
1000
GEN_A3
1002
}
1002
{
1000
TITLE
1000
GENTITLE
1002
}
1002
{
1000
UNCHG
1002
{
1000
GEN-TITLE-SCA
1000
GEN-TITLE-SIZ
1002
}
1002
}
1002
{
1000
HRA
1005
0
1002
}
1002
{
1000
HTIT
1005
0
1002
}
1002
{
1000
GENIUSID
1005
6C9F
1002
}
1001
GENIUS_GENODEF_13
1002
{
1000
HIER
1070
     1
1002
}
1002
{
1000
MANEDIT
1070
     0
1002
}
1002
{
1000
NOSEL
1070
     0
1002
}
1002
{
1000
BEHIND
1070
     0
1002
}
1002
{
1000
REACTOR
1002
}
  0
TEXT
  5
6CA0
330
1F
100
AcDbEntity
  8
0
 60
     1
100
AcDbText
 10
45483.87226038866
 20
-19130.1989412139
 30
0.0
 40
2.0
  1
!GENTITLE-MAX
100
AcDbText
  0
TEXT
  5
6CA1
330
1F
100
AcDbEntity
  8
0
 60
     1
100
AcDbText
 10
45473.87226038866
 20
-19140.19894121389
 30
0.0
 40
2.0
  1
!GENTITLE-RU
100
AcDbText
  0
TEXT
  5
6CA2
330
1F
100
AcDbEntity
  8
0
 60
     1
100
AcDbText
 10
45473.87226038866
 20
-19422.19894121389
 30
0.0
 40
2.0
  1
!GENTITLE-INSERT
100
AcDbText
  0
TEXT
  5
6CA3
330
1F
100
AcDbEntity
  8
0
 60
     1
100
AcDbText
 10
45073.87226038866
 20
-19417.1989412139
 30
0.0
 40
2.0
  1
!GENTITLE-LL
100
AcDbText
  0
POINT
  5
6CA4
330
1F
100
AcDbEntity
  8
0
 60
     1
100
AcDbPoint
 10
46058.55120139381
 20
-19048.27380978762
 30
0.0
1001
GENIUS_GENOBJ-N-TIT_13
1002
{
1000
OWNER
1000
GEN
1002
}
1001
GENIUS_GENOENT_13
1002
{
1000
MYREF
1005
6CA4
1002
}
1002
{
1000
GRP
1005
0
1002
}
1001
GENIUS_GENOLIS_13
1002
{
1000
ENT
1005
0
1005
0
1002
}
1001
GENIUS_GENTITLE_13
1002
{
1000
SCALE
1000
1:1
1002
}
1002
{
1000
BORDER
1000
GEN_A3
1002
}
1002
{
1000
TITLE
1000
GENTITLE
1002
}
1002
{
1000
UNCHG
1002
{
1000
GEN-TITLE-SCA
1000
GEN-TITLE-SIZ
1002
}
1002
}
1002
{
1000
HRA
1005
0
1002
}
1002
{
1000
HTIT
1005
0
1002
}
1002
{
1000
GENIUSID
1005
6CA4
1002
}
1001
GENIUS_GENODEF_13
1002
{
1000
HIER
1070
     1
1002
}
1002
{
1000
MANEDIT
1070
     0
1002
}
1002
{
1000
NOSEL
1070
     0
1002
}
1002
{
1000
BEHIND
1070
     0
1002
}
1002
{
1000
REACTOR
1002
}
  0
TEXT
  5
6CA5
330
1F
100
AcDbEntity
  8
0
 60
     1
100
AcDbText
 10
46553.08852411378
 20
-18669.81591493504
 30
0.0
 40
2.0
  1
!GENTITLE-MAX
100
AcDbText
  0
TEXT
  5
6CA6
330
1F
100
AcDbEntity
  8
0
 60
     1
100
AcDbText
 10
46543.0885241138
 20
-18679.81591493504
 30
0.0
 40
2.0
  1
!GENTITLE-RU
100
AcDbText
  0
TEXT
  5
6CA7
330
1F
100
AcDbEntity
  8
0
 60
     1
100
AcDbText
 10
46543.0885241138
 20
-18961.81591493504
 30
0.0
 40
2.0
  1
!GENTITLE-INSERT
100
AcDbText
  0
TEXT
  5
6CA8
330
1F
100
AcDbEntity
  8
0
 60
     1
100
AcDbText
 10
46143.0885241138
 20
-18956.81591493504
 30
0.0
 40
2.0
  1
!GENTITLE-LL
100
AcDbText
  0
POINT
  5
6CA9
330
1F
100
AcDbEntity
  8
0
 60
     1
100
AcDbPoint
 10
45807.53046396681
 20
-18966.54667382089
 30
0.0
1001
GENIUS_GENOBJ-N-TIT_13
1002
{
1000
OWNER
1000
GEN
1002
}
1001
GENIUS_GENOENT_13
1002
{
1000
MYREF
1005
6CA9
1002
}
1002
{
1000
GRP
1005
0
1002
}
1001
GENIUS_GENOLIS_13
1002
{
1000
ENT
1005
0
1005
0
1002
}
1001
GENIUS_GENTITLE_13
1002
{
1000
SCALE
1000
1:1
1002
}
1002
{
1000
BORDER
1000
GEN_A3
1002
}
1002
{
1000
TITLE
1000
GENTITLE
1002
}
1002
{
1000
UNCHG
1002
{
1000
GEN-TITLE-SCA
1000
GEN-TITLE-SIZ
1002
}
1002
}
1002
{
1000
HRA
1005
0
1002
}
1002
{
1000
HTIT
1005
0
1002
}
1002
{
1000
GENIUSID
1005
6CA9
1002
}
1001
GENIUS_GENODEF_13
1002
{
1000
HIER
1070
     1
1002
}
1002
{
1000
MANEDIT
1070
     0
1002
}
1002
{
1000
NOSEL
1070
     0
1002
}
1002
{
1000
BEHIND
1070
     0
1002
}
1002
{
1000
REACTOR
1002
}
  0
TEXT
  5
6CAA
330
1F
100
AcDbEntity
  8
0
 60
     1
100
AcDbText
 10
46302.06778668681
 20
-18588.08877896832
 30
0.0
 40
2.0
  1
!GENTITLE-MAX
100
AcDbText
  0
TEXT
  5
6CAB
330
1F
100
AcDbEntity
  8
0
 60
     1
100
AcDbText
 10
46292.06778668681
 20
-18598.08877896832
 30
0.0
 40
2.0
  1
!GENTITLE-RU
100
AcDbText
  0
TEXT
  5
6CAC
330
1F
100
AcDbEntity
  8
0
 60
     1
100
AcDbText
 10
46292.06778668681
 20
-18880.08877896832
 30
0.0
 40
2.0
  1
!GENTITLE-INSERT
100
AcDbText
  0
TEXT
  5
6CAD
330
1F
100
AcDbEntity
  8
0
 60
     1
100
AcDbText
 10
45892.06778668681
 20
-18875.08877896832
 30
0.0
 40
2.0
  1
!GENTITLE-LL
100
AcDbText
  0
POINT
  5
6CAE
330
1F
100
AcDbEntity
  8
0
 60
     1
100
AcDbPoint
 10
3756.574337173829
 20
680.8511242639857
 30
0.0
1001
GENIUS_GENOBJ-N-TIT_13
1002
{
1000
OWNER
1000
GEN
1002
}
1001
GENIUS_GENOENT_13
1002
{
1000
MYREF
1005
6CAE
1002
}
1002
{
1000
GRP
1005
0
1002
}
1001
GENIUS_GENOLIS_13
1002
{
1000
ENT
1005
0
1005
0
1002
}
1001
GENIUS_GENTITLE_13
1002
{
1000
SCALE
1000
1:1
1002
}
1002
{
1000
BORDER
1000
GEN_A3
1002
}
1002
{
1000
TITLE
1000
GENTITLE
1002
}
1002
{
1000
UNCHG
1002
{
1000
GEN-TITLE-SCA
1000
GEN-TITLE-SIZ
1002
}
1002
}
1002
{
1000
HRA
1005
0
1002
}
1002
{
1000
HTIT
1005
0
1002
}
1002
{
1000
GENIUSID
1005
6CAE
1002
}
1001
GENIUS_GENODEF_13
1002
{
1000
HIER
1070
     1
1002
}
1002
{
1000
MANEDIT
1070
     0
1002
}
1002
{
1000
NOSEL
1070
     0
1002
}
1002
{
1000
BEHIND
1070
     0
1002
}
1002
{
1000
REACTOR
1002
}
  0
TEXT
  5
6CAF
330
1F
100
AcDbEntity
  8
0
 60
     1
100
AcDbText
 10
4251.111659893815
 20
1059.309019116564
 30
0.0
 40
2.0
  1
!GENTITLE-MAX
100
AcDbText
  0
TEXT
  5
6CB0
330
1F
100
AcDbEntity
  8
0
 60
     1
100
AcDbText
 10
4241.111659893814
 20
1049.309019116564
 30
0.0
 40
2.0
  1
!GENTITLE-RU
100
AcDbText
  0
TEXT
  5
6CB1
330
1F
100
AcDbEntity
  8
0
 60
     1
100
AcDbText
 10
4241.111659893814
 20
767.3090191165637
 30
0.0
 40
2.0
  1
!GENTITLE-INSERT
100
AcDbText
  0
TEXT
  5
6CB2
330
1F
100
AcDbEntity
  8
0
 60
     1
100
AcDbText
 10
3841.111659893814
 20
772.3090191165637
 30
0.0
 40
2.0
  1
!GENTITLE-LL
100
AcDbText
  0
POINT
  5
6CB4
330
1F
100
AcDbEntity
  8
0
 60
     1
100
AcDbPoint
 10
45904.83572963004
 20
-19552.75019690778
 30
0.0
1001
GENIUS_GENOBJ-N-TIT_13
1002
{
1000
OWNER
1000
GEN
1002
}
1001
GENIUS_GENOENT_13
1002
{
1000
MYREF
1005
6CB4
1002
}
1002
{
1000
GRP
1005
0
1002
}
1001
GENIUS_GENOLIS_13
1002
{
1000
ENT
1005
0
1005
0
1002
}
1001
GENIUS_GENTITLE_13
1002
{
1000
SCALE
1000
1:1
1002
}
1002
{
1000
BORDER
1000
GEN_A3
1002
}
1002
{
1000
TITLE
1000
GENTITLE
1002
}
1002
{
1000
UNCHG
1002
{
1000
GEN-TITLE-SCA
1000
GEN-TITLE-SIZ
1002
}
1002
}
1002
{
1000
HRA
1005
0
1002
}
1002
{
1000
HTIT
1005
0
1002
}
1002
{
1000
GENIUSID
1005
6CB4
1002
}
1001
GENIUS_GENODEF_13
1002
{
1000
HIER
1070
     1
1002
}
1002
{
1000
MANEDIT
1070
     0
1002
}
1002
{
1000
NOSEL
1070
     0
1002
}
1002
{
1000
BEHIND
1070
     0
1002
}
1002
{
1000
REACTOR
1002
}
  0
TEXT
  5
6CB5
330
1F
100
AcDbEntity
  8
0
 60
     1
100
AcDbText
 10
46399.37305235005
 20
-19174.29230205521
 30
0.0
 40
2.0
  1
!GENTITLE-MAX
100
AcDbText
  0
TEXT
  5
6CB6
330
1F
100
AcDbEntity
  8
0
 60
     1
100
AcDbText
 10
46389.37305235004
 20
-19184.29230205521
 30
0.0
 40
2.0
  1
!GENTITLE-RU
100
AcDbText
  0
TEXT
  5
6CB7
330
1F
100
AcDbEntity
  8
0
 60
     1
100
AcDbText
 10
46389.37305235004
 20
-19466.29230205521
 30
0.0
 40
2.0
  1
!GENTITLE-INSERT
100
AcDbText
  0
TEXT
  5
6CB8
330
1F
100
AcDbEntity
  8
0
 60
     1
100
AcDbText
 10
45989.37305235005
 20
-19461.29230205521
 30
0.0
 40
2.0
  1
!GENTITLE-LL
100
AcDbText
  0
INSERT
  5
8AE2
330
1F
100
AcDbEntity
  8
ASHADE
 62
     1
370
     0
100
AcDbBlockReference
  2
AVE_RENDER
 10
1581.033129310014
 20
668.2648064278827
 30
0.0
1001
AVE_RENDER
1002
{
1070
     7
1000
Pref
1070
    50
1070
    20
1070
     1
1070
     0
1000

1070
    10
1070
     1
1070
    10
1040
1.0
1070
     1
1040
0.7
1040
1.0
1040
0.0
1040
10.0
1010
-1.0
1020
-1.0
1030
-1.0
1040
0.3
1070
    49
1070
     0
1070
     0
1010
1.0
1020
1.0
1030
1.0
1040
45.0
1070
     1
1070
     0
1000
WCS
1040
0.0
1070
     0
1040
10.0
1002
}
  0
INSERT
  5
8AE3
330
1F
100
AcDbEntity
  8
ASHADE
 62
     3
370
     0
100
AcDbBlockReference
  2
AVE_RENDER
 10
1581.033129310014
 20
668.2648064278827
 30
0.0
1001
AVE_RENDER
1002
{
1070
     0
1000
Full Opt
1070
     0
1070
     1
1070
     1
1070
     1
1070
     0
1070
     0
1070
     0
1070
     1
1070
     1
1040
0.0001
1040
0.0001
1002
}
  0
INSERT
  5
8AE4
330
1F
100
AcDbEntity
  8
ASHADE
 62
     4
370
     0
100
AcDbBlockReference
  2
AVE_RENDER
 10
1581.033129310014
 20
668.2648064278827
 30
0.0
1001
AVE_RENDER
1002
{
1070
     0
1000
Quick Opt
1070
     0
1070
     1
1070
     1
1070
     1
1070
     0
1070
     0
1070
     1
1002
}
  0
INSERT
  5
8AE5
330
1F
100
AcDbEntity
  8
ASHADE
 62
     5
370
     0
100
AcDbBlockReference
  2
AVE_RENDER
 10
1581.033129310014
 20
668.2648064278827
 30
0.0
1001
AVE_RENDER
1002
{
1070
     1
1000
Scanl Opt
1070
     2
1070
     0
1070
     2
1040
2.0
1040
4.0
1070
     0
1070
     1
1070
     0
1040
0.03
1002
}
  0
INSERT
  5
8AE6
330
1F
100
AcDbEntity
  8
ASHADE
 62
     6
370
     0
100
AcDbBlockReference
  2
AVE_RENDER
 10
1581.033129310014
 20
668.2648064278827
 30
0.0
1001
AVE_RENDER
1002
{
1070
     2
1000
Raytr Opt
1070
     2
1070
     0
1070
     2
1040
2.0
1040
4.0
1070
     0
1070
     1
1070
     1
1040
0.03
1070
     3
1040
0.03
1002
}
  0
INSERT
  5
8AE7
330
1F
100
AcDbEntity
  8
ASHADE
 62
     7
370
     0
100
AcDbBlockReference
  2
AVE_RENDER
 10
1581.033129310014
 20
668.2648064278827
 30
0.0
1001
AVE_RENDER
1002
{
1070
     0
1000
RFile Opt
1070
     1
1070
   640
1070
   480
1070
 10000
1070
     1
1070
     8
1070
     8
1070
     0
1070
     0
1070
     0
1070
     0
1070
     0
1070
     0
1070
     0
1002
}
  0
INSERT
  5
8AE8
330
1F
100
AcDbEntity
  8
ASHADE
 62
     8
370
     0
100
AcDbBlockReference
  2
AVE_RENDER
 10
1581.033129310014
 20
668.2648064278827
 30
0.0
1001
AVE_RENDER
1002
{
1070
     0
1000
Fog Opt
1070
     0
1070
     0
1040
0.0
1040
1.0
1040
0.0
1040
1.0
1010
0.5
1020
0.5
1030
0.5
1002
}
  0
INSERT
  5
8AE9
330
1F
100
AcDbEntity
  8
ASHADE
 62
     9
370
     0
100
AcDbBlockReference
  2
AVE_RENDER
 10
1581.033129310014
 20
668.2648064278827
 30
0.0
1001
AVE_RENDER
1002
{
1070
     0
1000
BG Opt
1070
     0
1070
     1
1010
0.0
1020
0.0
1030
0.0
1010
1.0
1020
0.0
1030
0.0
1010
0.0
1020
1.0
1030
0.0
1010
0.0
1020
0.0
1030
1.0
1040
0.5
1040
0.33
1040
0.0
1000

1070
     1
1000

1070
     1
1070
     1
1040
1.0
1040
1.0
1040
0.0
1040
0.0
1070
     0
1002
}
  0
INSERT
  5
8AEA
330
1F
100
AcDbEntity
  8
ASHADE
 62
     1
370
     0
100
AcDbBlockReference
  2
AVE_GLOBAL
 10
1581.033129310014
 20
668.2648064278827
 30
0.0
1001
AVE_MATERIAL
1002
{
1000
*全局*
1000
2
1000
全局修饰。
1002
{
1002
}
1002
{
1070
    63
1002
{
1002
{
1010
-1.0
1020
-1.0
1030
-1.0
1002
}
1040
0.6999999880790711
1000

1040
0.0
1002
{
1002
}
1040
0.0
1002
{
1002
}
1040
0.0
1002
}
1002
{
1002
{
1010
-1.0
1020
-1.0
1030
-1.0
1002
}
1040
1.0
1000

1040
0.0
1002
{
1002
}
1040
0.0
1002
{
1002
}
1040
0.0
1002
}
1002
{
1002
{
1010
-1.0
1020
-1.0
1030
-1.0
1002
}
1040
0.2000000029802322
1000

1040
0.0
1002
{
1002
}
1040
0.0
1002
{
1002
}
1040
0.0
1002
}
1002
{
1070
     0
1002
{
1070
     1
1002
{
1040
1.0
1040
1.0
1000

1040
0.0
1002
{
1002
}
1040
0.0
1002
{
1002
}
1040
0.0
1002
}
1002
}
1040
1.0
1040
0.0
1040
0.0
1002
}
1002
{
1040
1.0
1040
1.0
1000

1040
0.0
1002
{
1002
}
1040
0.0
1002
{
1002
}
1040
0.0
1002
}
1002
{
1040
0.5
1040
1.0
1000

1040
0.0
1002
{
1002
}
1040
0.0
1002
{
1002
}
1040
0.0
1002
}
1002
{
1070
     0
1040
0.0
1002
{
1002
}
1040
1.0
1002
{
1002
}
1040
0.0
1002
}
1002
{
1040
0.0
1002
{
1002
{
1010
0.0
1020
0.0
1030
0.0
1002
}
1040
1.0
1000

1040
0.0
1002
{
1002
}
1040
0.0
1002
{
1002
}
1040
0.0
1002
}
1002
}
1002
{
1002
{
1070
     1
1002
{
1040
0.0
1040
1.0
1000

1040
0.0
1002
{
1002
}
1040
0.0
1002
{
1002
}
1040
0.0
1002
}
1002
}
1040
0.0
1002
{
1002
}
1010
1.0
1020
0.0
1030
0.0
1010
0.0
1020
1.0
1030
0.0
1010
0.0
1020
0.0
1030
1.0
1070
     0
1002
}
1002
{
1002
{
1040
1.0
1040
1.0
1002
{
1070
     1
1002
{
1040
1.0
1040
1.0
1000

1040
0.0
1002
{
1002
}
1040
0.0
1002
{
1002
}
1040
0.0
1002
}
1002
}
1002
}
1070
     0
1040
0.0
1002
{
1002
}
1002
}
1002
{
1002
}
1002
}
1002
{
1071
        3
1070
     3
1070
     0
1002
{
1070
     2
1070
     0
1070
     0
1040
0.0
1002
}
1070
     0
1070
     2
1002
{
1002
}
1002
}
1002
{
1040
8030.0
1040
190.3000030517578
1040
0.3050000071525574
1040
228.0
1040
545.0
1040
14.0
1040
17.39999961853027
1040
0.4560000002384186
1002
}
1000

1002
}
  0
POINT
  5
F4F6
330
1F
100
AcDbEntity
  8
0
 60
     1
100
AcDbPoint
 10
45069.99797304985
 20
-18959.85178738408
 30
0.0
1001
GENIUS_GENOBJ-N-TIT_13
1002
{
1000
OWNER
1000
GEN
1002
}
1001
GENIUS_GENOENT_13
1002
{
1000
MYREF
1005
F4F6
1002
}
1002
{
1000
GRP
1005
0
1002
}
1001
GENIUS_GENOLIS_13
1002
{
1000
ENT
1005
0
1005
0
1002
}
1001
GENIUS_GENTITLE_13
1002
{
1000
SCALE
1000
1:1
1002
}
1002
{
1000
BORDER
1000
GEN_A3
1002
}
1002
{
1000
TITLE
1000
GENTITLE
1002
}
1002
{
1000
UNCHG
1002
{
1000
GEN-TITLE-SCA
1000
GEN-TITLE-SIZ
1002
}
1002
}
1002
{
1000
HRA
1005
0
1002
}
1002
{
1000
HTIT
1005
0
1002
}
1002
{
1000
GENIUSID
1005
F4F6
1002
}
1001
GENIUS_GENODEF_13
1002
{
1000
HIER
1070
     1
1002
}
1002
{
1000
MANEDIT
1070
     0
1002
}
1002
{
1000
NOSEL
1070
     0
1002
}
1002
{
1000
BEHIND
1070
     0
1002
}
1002
{
1000
REACTOR
1002
}
  0
TEXT
  5
F4F7
330
1F
100
AcDbEntity
  8
0
 60
     1
100
AcDbText
 10
45564.53529576981
 20
-18581.39389253151
 30
0.0
 40
2.0
  1
!GENTITLE-MAX
100
AcDbText
  0
TEXT
  5
F4F8
330
1F
100
AcDbEntity
  8
0
 60
     1
100
AcDbText
 10
45554.53529576984
 20
-18591.39389253151
 30
0.0
 40
2.0
  1
!GENTITLE-RU
100
AcDbText
  0
TEXT
  5
F4F9
330
1F
100
AcDbEntity
  8
0
 60
     1
100
AcDbText
 10
45554.53529576984
 20
-18873.39389253151
 30
0.0
 40
2.0
  1
!GENTITLE-INSERT
100
AcDbText
  0
TEXT
  5
F4FA
330
1F
100
AcDbEntity
  8
0
 60
     1
100
AcDbText
 10
45154.53529576983
 20
-18868.39389253151
 30
0.0
 40
2.0
  1
!GENTITLE-LL
100
AcDbText
  0
POINT
  5
F4FB
330
1F
100
AcDbEntity
  8
0
 60
     1
100
AcDbPoint
 10
44818.97723562287
 20
-18878.12465141736
 30
0.0
1001
GENIUS_GENOBJ-N-TIT_13
1002
{
1000
OWNER
1000
GEN
1002
}
1001
GENIUS_GENOENT_13
1002
{
1000
MYREF
1005
F4FB
1002
}
1002
{
1000
GRP
1005
0
1002
}
1001
GENIUS_GENOLIS_13
1002
{
1000
ENT
1005
0
1005
0
1002
}
1001
GENIUS_GENTITLE_13
1002
{
1000
SCALE
1000
1:1
1002
}
1002
{
1000
BORDER
1000
GEN_A3
1002
}
1002
{
1000
TITLE
1000
GENTITLE
1002
}
1002
{
1000
UNCHG
1002
{
1000
GEN-TITLE-SCA
1000
GEN-TITLE-SIZ
1002
}
1002
}
1002
{
1000
HRA
1005
0
1002
}
1002
{
1000
HTIT
1005
0
1002
}
1002
{
1000
GENIUSID
1005
F4FB
1002
}
1001
GENIUS_GENODEF_13
1002
{
1000
HIER
1070
     1
1002
}
1002
{
1000
MANEDIT
1070
     0
1002
}
1002
{
1000
NOSEL
1070
     0
1002
}
1002
{
1000
BEHIND
1070
     0
1002
}
1002
{
1000
REACTOR
1002
}
  0
TEXT
  5
F4FC
330
1F
100
AcDbEntity
  8
0
 60
     1
100
AcDbText
 10
45313.51455834286
 20
-18499.66675656478
 30
0.0
 40
2.0
  1
!GENTITLE-MAX
100
AcDbText
  0
TEXT
  5
F4FD
330
1F
100
AcDbEntity
  8
0
 60
     1
100
AcDbText
 10
45303.51455834286
 20
-18509.66675656478
 30
0.0
 40
2.0
  1
!GENTITLE-RU
100
AcDbText
  0
TEXT
  5
F4FE
330
1F
100
AcDbEntity
  8
0
 60
     1
100
AcDbText
 10
45303.51455834286
 20
-18791.66675656478
 30
0.0
 40
2.0
  1
!GENTITLE-INSERT
100
AcDbText
  0
TEXT
  5
F4FF
330
1F
100
AcDbEntity
  8
0
 60
     1
100
AcDbText
 10
44903.51455834286
 20
-18786.66675656478
 30
0.0
 40
2.0
  1
!GENTITLE-LL
100
AcDbText
  0
POINT
  5
F500
330
1F
100
AcDbEntity
  8
0
 60
     1
100
AcDbPoint
 10
2768.021108829877
 20
769.2731466675221
 30
0.0
1001
GENIUS_GENOBJ-N-TIT_13
1002
{
1000
OWNER
1000
GEN
1002
}
1001
GENIUS_GENOENT_13
1002
{
1000
MYREF
1005
F500
1002
}
1002
{
1000
GRP
1005
0
1002
}
1001
GENIUS_GENOLIS_13
1002
{
1000
ENT
1005
0
1005
0
1002
}
1001
GENIUS_GENTITLE_13
1002
{
1000
SCALE
1000
1:1
1002
}
1002
{
1000
BORDER
1000
GEN_A3
1002
}
1002
{
1000
TITLE
1000
GENTITLE
1002
}
1002
{
1000
UNCHG
1002
{
1000
GEN-TITLE-SCA
1000
GEN-TITLE-SIZ
1002
}
1002
}
1002
{
1000
HRA
1005
0
1002
}
1002
{
1000
HTIT
1005
0
1002
}
1002
{
1000
GENIUSID
1005
F500
1002
}
1001
GENIUS_GENODEF_13
1002
{
1000
HIER
1070
     1
1002
}
1002
{
1000
MANEDIT
1070
     0
1002
}
1002
{
1000
NOSEL
1070
     0
1002
}
1002
{
1000
BEHIND
1070
     0
1002
}
1002
{
1000
REACTOR
1002
}
  0
TEXT
  5
F501
330
1F
100
AcDbEntity
  8
0
 60
     1
100
AcDbText
 10
3262.558431549862
 20
1147.7310415201
 30
0.0
 40
2.0
  1
!GENTITLE-MAX
100
AcDbText
  0
TEXT
  5
F502
330
1F
100
AcDbEntity
  8
0
 60
     1
100
AcDbText
 10
3252.558431549863
 20
1137.7310415201
 30
0.0
 40
2.0
  1
!GENTITLE-RU
100
AcDbText
  0
TEXT
  5
F503
330
1F
100
AcDbEntity
  8
0
 60
     1
100
AcDbText
 10
3252.558431549863
 20
855.7310415201005
 30
0.0
 40
2.0
  1
!GENTITLE-INSERT
100
AcDbText
  0
TEXT
  5
F504
330
1F
100
AcDbEntity
  8
0
 60
     1
100
AcDbText
 10
2852.558431549864
 20
860.7310415201004
 30
0.0
 40
2.0
  1
!GENTITLE-LL
100
AcDbText
  0
POINT
  5
F506
330
1F
100
AcDbEntity
  8
0
 60
     1
100
AcDbPoint
 10
44916.28250128608
 20
-19464.32817450425
 30
0.0
1001
GENIUS_GENOBJ-N-TIT_13
1002
{
1000
OWNER
1000
GEN
1002
}
1001
GENIUS_GENOENT_13
1002
{
1000
MYREF
1005
F506
1002
}
1002
{
1000
GRP
1005
0
1002
}
1001
GENIUS_GENOLIS_13
1002
{
1000
ENT
1005
0
1005
0
1002
}
1001
GENIUS_GENTITLE_13
1002
{
1000
SCALE
1000
1:1
1002
}
1002
{
1000
BORDER
1000
GEN_A3
1002
}
1002
{
1000
TITLE
1000
GENTITLE
1002
}
1002
{
1000
UNCHG
1002
{
1000
GEN-TITLE-SCA
1000
GEN-TITLE-SIZ
1002
}
1002
}
1002
{
1000
HRA
1005
0
1002
}
1002
{
1000
HTIT
1005
0
1002
}
1002
{
1000
GENIUSID
1005
F506
1002
}
1001
GENIUS_GENODEF_13
1002
{
1000
HIER
1070
     1
1002
}
1002
{
1000
MANEDIT
1070
     0
1002
}
1002
{
1000
NOSEL
1070
     0
1002
}
1002
{
1000
BEHIND
1070
     0
1002
}
1002
{
1000
REACTOR
1002
}
  0
TEXT
  5
F507
330
1F
100
AcDbEntity
  8
0
 60
     1
100
AcDbText
 10
45410.81982400608
 20
-19085.87027965167
 30
0.0
 40
2.0
  1
!GENTITLE-MAX
100
AcDbText
  0
TEXT
  5
F508
330
1F
100
AcDbEntity
  8
0
 60
     1
100
AcDbText
 10
45400.81982400608
 20
-19095.87027965167
 30
0.0
 40
2.0
  1
!GENTITLE-RU
100
AcDbText
  0
TEXT
  5
F509
330
1F
100
AcDbEntity
  8
0
 60
     1
100
AcDbText
 10
45400.81982400608
 20
-19377.87027965167
 30
0.0
 40
2.0
  1
!GENTITLE-INSERT
100
AcDbText
  0
TEXT
  5
F50A
330
1F
100
AcDbEntity
  8
0
 60
     1
100
AcDbText
 10
45000.81982400608
 20
-19372.87027965167
 30
0.0
 40
2.0
  1
!GENTITLE-LL
100
AcDbText
  0
POINT
  5
F50B
330
1F
100
AcDbEntity
  8
0
 60
     1
100
AcDbPoint
 10
45985.49876501124
 20
-19003.94514822539
 30
0.0
1001
GENIUS_GENOBJ-N-TIT_13
1002
{
1000
OWNER
1000
GEN
1002
}
1001
GENIUS_GENOENT_13
1002
{
1000
MYREF
1005
F50B
1002
}
1002
{
1000
GRP
1005
0
1002
}
1001
GENIUS_GENOLIS_13
1002
{
1000
ENT
1005
0
1005
0
1002
}
1001
GENIUS_GENTITLE_13
1002
{
1000
SCALE
1000
1:1
1002
}
1002
{
1000
BORDER
1000
GEN_A3
1002
}
1002
{
1000
TITLE
1000
GENTITLE
1002
}
1002
{
1000
UNCHG
1002
{
1000
GEN-TITLE-SCA
1000
GEN-TITLE-SIZ
1002
}
1002
}
1002
{
1000
HRA
1005
0
1002
}
1002
{
1000
HTIT
1005
0
1002
}
1002
{
1000
GENIUSID
1005
F50B
1002
}
1001
GENIUS_GENODEF_13
1002
{
1000
HIER
1070
     1
1002
}
1002
{
1000
MANEDIT
1070
     0
1002
}
1002
{
1000
NOSEL
1070
     0
1002
}
1002
{
1000
BEHIND
1070
     0
1002
}
1002
{
1000
REACTOR
1002
}
  0
TEXT
  5
F50C
330
1F
100
AcDbEntity
  8
0
 60
     1
100
AcDbText
 10
46480.03608773121
 20
-18625.48725337281
 30
0.0
 40
2.0
  1
!GENTITLE-MAX
100
AcDbText
  0
TEXT
  5
F50D
330
1F
100
AcDbEntity
  8
0
 60
     1
100
AcDbText
 10
46470.03608773123
 20
-18635.48725337281
 30
0.0
 40
2.0
  1
!GENTITLE-RU
100
AcDbText
  0
TEXT
  5
F50E
330
1F
100
AcDbEntity
  8
0
 60
     1
100
AcDbText
 10
46470.03608773123
 20
-18917.48725337281
 30
0.0
 40
2.0
  1
!GENTITLE-INSERT
100
AcDbText
  0
TEXT
  5
F50F
330
1F
100
AcDbEntity
  8
0
 60
     1
100
AcDbText
 10
46070.03608773123
 20
-18912.48725337281
 30
0.0
 40
2.0
  1
!GENTITLE-LL
100
AcDbText
  0
POINT
  5
F510
330
1F
100
AcDbEntity
  8
0
 60
     1
100
AcDbPoint
 10
45734.47802758423
 20
-18922.21801225866
 30
0.0
1001
GENIUS_GENOBJ-N-TIT_13
1002
{
1000
OWNER
1000
GEN
1002
}
1001
GENIUS_GENOENT_13
1002
{
1000
MYREF
1005
F510
1002
}
1002
{
1000
GRP
1005
0
1002
}
1001
GENIUS_GENOLIS_13
1002
{
1000
ENT
1005
0
1005
0
1002
}
1001
GENIUS_GENTITLE_13
1002
{
1000
SCALE
1000
1:1
1002
}
1002
{
1000
BORDER
1000
GEN_A3
1002
}
1002
{
1000
TITLE
1000
GENTITLE
1002
}
1002
{
1000
UNCHG
1002
{
1000
GEN-TITLE-SCA
1000
GEN-TITLE-SIZ
1002
}
1002
}
1002
{
1000
HRA
1005
0
1002
}
1002
{
1000
HTIT
1005
0
1002
}
1002
{
1000
GENIUSID
1005
F510
1002
}
1001
GENIUS_GENODEF_13
1002
{
1000
HIER
1070
     1
1002
}
1002
{
1000
MANEDIT
1070
     0
1002
}
1002
{
1000
NOSEL
1070
     0
1002
}
1002
{
1000
BEHIND
1070
     0
1002
}
1002
{
1000
REACTOR
1002
}
  0
TEXT
  5
F511
330
1F
100
AcDbEntity
  8
0
 60
     1
100
AcDbText
 10
46229.01535030425
 20
-18543.76011740608
 30
0.0
 40
2.0
  1
!GENTITLE-MAX
100
AcDbText
  0
TEXT
  5
F512
330
1F
100
AcDbEntity
  8
0
 60
     1
100
AcDbText
 10
46219.01535030422
 20
-18553.76011740609
 30
0.0
 40
2.0
  1
!GENTITLE-RU
100
AcDbText
  0
TEXT
  5
F513
330
1F
100
AcDbEntity
  8
0
 60
     1
100
AcDbText
 10
46219.01535030422
 20
-18835.76011740609
 30
0.0
 40
2.0
  1
!GENTITLE-INSERT
100
AcDbText
  0
TEXT
  5
F514
330
1F
100
AcDbEntity
  8
0
 60
     1
100
AcDbText
 10
45819.01535030423
 20
-18830.76011740609
 30
0.0
 40
2.0
  1
!GENTITLE-LL
100
AcDbText
  0
POINT
  5
F515
330
1F
100
AcDbEntity
  8
0
 60
     1
100
AcDbPoint
 10
3683.521900791263
 20
725.1797858262184
 30
0.0
1001
GENIUS_GENOBJ-N-TIT_13
1002
{
1000
OWNER
1000
GEN
1002
}
1001
GENIUS_GENOENT_13
1002
{
1000
MYREF
1005
F515
1002
}
1002
{
1000
GRP
1005
0
1002
}
1001
GENIUS_GENOLIS_13
1002
{
1000
ENT
1005
0
1005
0
1002
}
1001
GENIUS_GENTITLE_13
1002
{
1000
SCALE
1000
1:1
1002
}
1002
{
1000
BORDER
1000
GEN_A3
1002
}
1002
{
1000
TITLE
1000
GENTITLE
1002
}
1002
{
1000
UNCHG
1002
{
1000
GEN-TITLE-SCA
1000
GEN-TITLE-SIZ
1002
}
1002
}
1002
{
1000
HRA
1005
0
1002
}
1002
{
1000
HTIT
1005
0
1002
}
1002
{
1000
GENIUSID
1005
F515
1002
}
1001
GENIUS_GENODEF_13
1002
{
1000
HIER
1070
     1
1002
}
1002
{
1000
MANEDIT
1070
     0
1002
}
1002
{
1000
NOSEL
1070
     0
1002
}
1002
{
1000
BEHIND
1070
     0
1002
}
1002
{
1000
REACTOR
1002
}
  0
TEXT
  5
F516
330
1F
100
AcDbEntity
  8
0
 60
     1
100
AcDbText
 10
4178.059223511247
 20
1103.637680678797
 30
0.0
 40
2.0
  1
!GENTITLE-MAX
100
AcDbText
  0
TEXT
  5
F517
330
1F
100
AcDbEntity
  8
0
 60
     1
100
AcDbText
 10
4168.059223511247
 20
1093.637680678797
 30
0.0
 40
2.0
  1
!GENTITLE-RU
100
AcDbText
  0
TEXT
  5
F518
330
1F
100
AcDbEntity
  8
0
 60
     1
100
AcDbText
 10
4168.059223511247
 20
811.637680678797
 30
0.0
 40
2.0
  1
!GENTITLE-INSERT
100
AcDbText
  0
TEXT
  5
F519
330
1F
100
AcDbEntity
  8
0
 60
     1
100
AcDbText
 10
3768.059223511247
 20
816.6376806787971
 30
0.0
 40
2.0
  1
!GENTITLE-LL
100
AcDbText
  0
POINT
  5
F51B
330
1F
100
AcDbEntity
  8
0
 60
     1
100
AcDbPoint
 10
45831.78329324749
 20
-19508.42153534555
 30
0.0
1001
GENIUS_GENOBJ-N-TIT_13
1002
{
1000
OWNER
1000
GEN
1002
}
1001
GENIUS_GENOENT_13
1002
{
1000
MYREF
1005
F51B
1002
}
1002
{
1000
GRP
1005
0
1002
}
1001
GENIUS_GENOLIS_13
1002
{
1000
ENT
1005
0
1005
0
1002
}
1001
GENIUS_GENTITLE_13
1002
{
1000
SCALE
1000
1:1
1002
}
1002
{
1000
BORDER
1000
GEN_A3
1002
}
1002
{
1000
TITLE
1000
GENTITLE
1002
}
1002
{
1000
UNCHG
1002
{
1000
GEN-TITLE-SCA
1000
GEN-TITLE-SIZ
1002
}
1002
}
1002
{
1000
HRA
1005
0
1002
}
1002
{
1000
HTIT
1005
0
1002
}
1002
{
1000
GENIUSID
1005
F51B
1002
}
1001
GENIUS_GENODEF_13
1002
{
1000
HIER
1070
     1
1002
}
1002
{
1000
MANEDIT
1070
     0
1002
}
1002
{
1000
NOSEL
1070
     0
1002
}
1002
{
1000
BEHIND
1070
     0
1002
}
1002
{
1000
REACTOR
1002
}
  0
TEXT
  5
F51C
330
1F
100
AcDbEntity
  8
0
 60
     1
100
AcDbText
 10
46326.32061596748
 20
-19129.96364049297
 30
0.0
 40
2.0
  1
!GENTITLE-MAX
100
AcDbText
  0
TEXT
  5
F51D
330
1F
100
AcDbEntity
  8
0
 60
     1
100
AcDbText
 10
46316.32061596747
 20
-19139.96364049298
 30
0.0
 40
2.0
  1
!GENTITLE-RU
100
AcDbText
  0
TEXT
  5
F51E
330
1F
100
AcDbEntity
  8
0
 60
     1
100
AcDbText
 10
46316.32061596747
 20
-19421.96364049298
 30
0.0
 40
2.0
  1
!GENTITLE-INSERT
100
AcDbText
  0
TEXT
  5
F51F
330
1F
100
AcDbEntity
  8
0
 60
     1
100
AcDbText
 10
45916.32061596748
 20
-19416.96364049297
 30
0.0
 40
2.0
  1
!GENTITLE-LL
100
AcDbText
  0
MTEXT
  5
4BB83
330
1F
100
AcDbEntity
  8
图框
 62
     3
100
AcDbMText
 10
3175.72595056795
 20
597.1285413028883
 30
0.0
 40
4.478270362551222
 41
50.41858798863206
 46
13.03011825852879
 71
     5
 72
     5
  1
{\W0.65;M6B-PE}
  7
Romans字体
 73
     1
 44
1.0
1001
ACAD
1000
ACAD_MTEXT_DEFINED_HEIGHT_BEGIN
1070
    46
1040
13.03011825852879
1000
ACAD_MTEXT_DEFINED_HEIGHT_END
  0
MTEXT
  5
4BB84
330
1F
100
AcDbEntity
  8
图框
 62
     3
100
AcDbMText
 10
3175.72595056795
 20
583.9593655126487
 30
0.0
 40
4.478270362551222
 41
50.41858798863206
 46
13.30823332194916
 71
     5
 72
     5
  1
1980020030008
  7
Romans字体
 73
     1
 44
1.0
1001
ACAD
1000
ACAD_MTEXT_DEFINED_HEIGHT_BEGIN
1070
    46
1040
13.30823332194916
1000
ACAD_MTEXT_DEFINED_HEIGHT_END
  0
MTEXT
  5
4BB85
330
1F
100
AcDbEntity
  8
图框
 62
     3
100
AcDbMText
 10
3073.645453172073
 20
563.997912894531
 30
0.0
 40
4.478270362551222
 41
16.24402265158571
 46
11.82914190181574
 71
     5
 72
     5
  1
2:3 
  7
Romans字体
 73
     1
 44
1.0
1001
ACAD
1000
ACAD_MTEXT_DEFINED_HEIGHT_BEGIN
1070
    46
1040
11.82914190181574
1000
ACAD_MTEXT_DEFINED_HEIGHT_END
  0
MTEXT
  5
4BB86
330
1F
100
AcDbEntity
  8
图框
 62
     3
100
AcDbMText
 10
3106.133498475247
 20
563.9979128945317
 30
0.0
 40
4.478270362551222
 41
16.24402265158825
 46
11.82914190181559
 71
     5
 72
     5
  1
12g 
  7
Romans字体
 73
     1
 44
1.0
1001
ACAD
1000
ACAD_MTEXT_DEFINED_HEIGHT_BEGIN
1070
    46
1040
11.82914190181559
1000
ACAD_MTEXT_DEFINED_HEIGHT_END
  0
INSERT
  5
4BB87
330
1F
100
AcDbEntity
  8
Dim
100
AcDbBlockReference
  2
A4图框-NEW
 10
1510.54249064672
 20
-179.7646999544718
 30
0.0
 41
1.5
 42
1.5
 43
1.5
  0
MTEXT
  5
81C01
102
{ACAD_XDICTIONARY
360
85951
102
}
330
1F
100
AcDbEntity
  8
打标文字
 62
     3
100
AcDbMText
 10
3066.859543301511
 20
695.4698421125666
 30
0.0
 40
3.532234518568606
 41
160.281930752179
 46
220.4717669948331
 71
     1
 72
     5
  3
\A1;{\H1.274x;技术参数：\P- 规格: \Fromans|c134;6B\fFangSong_GB2312|b0|i0|c134|p49;     \P- \f仿宋_GB2312|b0|i0|c134|p49;材料\fFangSong_GB2312|b0|i0|c134|p49;: \f仿宋_GB2312|b0|i0|c134|p49;铁\fFangSong_GB2312|b0|i0|c134|p49;\P\f仿宋_GB2312|b0|i0|c134|p49;装配在\fFangSo
  1
ng_GB2312|b0|i0|c134|p49;HM\f仿宋_GB2312|b0|i0|c134|p49;模块框架用于不封底下壳\fFangSong_GB2312|b0|i0|c134|p49;\P\P\Fromans|c134;Technical specification:\P- Size: 6B\P- Material: Iron\PFor HM frames in housings bulkhead mounting \H0.78494x;\P}  
 73
     1
 44
1.0
1001
ACAD
1000
ACAD_MTEXT_DEFINED_HEIGHT_BEGIN
1070
    46
1040
220.4717669948331
1000
ACAD_MTEXT_DEFINED_HEIGHT_END
  0
ARC
  5
85574
330
1F
100
AcDbEntity
  8
0
100
AcDbCircle
 10
2929.85623562264
 20
749.8326646502849
 30
0.0
 40
1.5
100
AcDbArc
 50
57.83524499999406
 51
325.4698199999915
  0
ARC
  5
85575
330
1F
100
AcDbEntity
  8
0
100
AcDbCircle
 10
2929.85623562264
 20
742.8326646502847
 30
0.0
 40
1.5
100
AcDbArc
 50
53.71060699998357
 51
322.8158199999914
  0
ARC
  5
85576
330
1F
100
AcDbEntity
  8
0
100
AcDbCircle
 10
2914.656235622639
 20
749.8326646502849
 30
0.0
 40
1.5
100
AcDbArc
 50
54.99517700000267
 51
334.4081899999906
  0
ARC
  5
85577
330
1F
100
AcDbEntity
  8
0
100
AcDbCircle
 10
2914.656235622639
 20
742.8326646502847
 30
0.0
 40
1.5
100
AcDbArc
 50
57.19764600001042
 51
329.2033000000129
  0
LINE
  5
85578
330
1F
100
AcDbEntity
  8
0
100
AcDbLine
 10
2898.006235622639
 20
691.6326646502851
 30
0.0
 11
2898.006235622639
 21
695.932664650285
 31
0.0
  0
LINE
  5
85579
330
1F
100
AcDbEntity
  8
0
100
AcDbLine
 10
2904.256235622639
 20
704.6306346502847
 30
0.0
 11
2904.256235622639
 21
691.6326646502851
 31
0.0
  0
LINE
  5
8557A
330
1F
100
AcDbEntity
  8
0
100
AcDbLine
 10
2900.006235622639
 20
689.632664650285
 30
0.0
 11
2902.256235622639
 21
689.632664650285
 31
0.0
  0
LINE
  5
8557B
330
1F
100
AcDbEntity
  8
0
100
AcDbLine
 10
2915.33555562264
 20
737.309364650285
 30
0.0
 11
2904.419675622639
 21
705.607334650285
 31
0.0
  0
ARC
  5
8557C
330
1F
100
AcDbEntity
  8
0
100
AcDbCircle
 10
2907.256235622639
 20
704.6306346502847
 30
0.0
 40
3.0
100
AcDbArc
 50
160.9999999999958
 51
180.0
  0
LINE
  5
8557D
330
1F
100
AcDbEntity
  8
0
100
AcDbLine
 10
2898.006235622639
 20
695.932664650285
 30
0.0
 11
2901.506235622639
 21
695.932664650285
 31
0.0
  0
LINE
  5
8557E
330
1F
100
AcDbEntity
  8
0
100
AcDbLine
 10
2901.506235622639
 20
695.932664650285
 30
0.0
 11
2901.506235622639
 21
706.7592346502847
 31
0.0
  0
ARC
  5
8557F
330
1F
100
AcDbEntity
  8
0
100
AcDbCircle
 10
2911.506235622639
 20
706.7592346502847
 30
0.0
 40
10.0
100
AcDbArc
 50
160.9999999999958
 51
180.0
  0
LINE
  5
85580
330
1F
100
AcDbEntity
  8
0
100
AcDbLine
 10
2902.05104562264
 20
710.0149146502849
 30
0.0
 11
2904.694855622639
 21
717.6930846502847
 31
0.0
  0
ARC
  5
85581
330
1F
100
AcDbEntity
  8
0
100
AcDbCircle
 10
2885.784480622639
 20
724.204444650285
 30
0.0
 40
20.0
100
AcDbArc
 50
340.9999999999958
 51
351.5117599999981
  0
LINE
  5
85582
330
1F
100
AcDbEntity
  8
0
100
AcDbLine
 10
2905.565405622639
 20
721.252324650285
 30
0.0
 11
2908.646695622639
 21
741.898694650285
 31
0.0
  0
ARC
  5
85583
330
1F
100
AcDbEntity
  8
0
100
AcDbCircle
 10
2898.756235622639
 20
743.374754650285
 30
0.0
 40
10.0
100
AcDbArc
 50
351.5117599999981
 51
0.0
  0
LINE
  5
85584
330
1F
100
AcDbEntity
  8
0
100
AcDbLine
 10
2908.756235622639
 20
743.374754650285
 30
0.0
 11
2908.756235622639
 21
748.332664650285
 31
0.0
  0
ARC
  5
85585
330
1F
100
AcDbEntity
  8
0
100
AcDbCircle
 10
2913.756235622639
 20
748.332664650285
 30
0.0
 40
5.0
100
AcDbArc
 50
90.0
 51
180.0
  0
ARC
  5
85586
330
1F
100
AcDbEntity
  8
0
100
AcDbCircle
 10
2918.172115622639
 20
736.332664650285
 30
0.0
 40
3.0
100
AcDbArc
 50
90.0
 51
160.9999999999958
  0
LINE
  5
85587
330
1F
100
AcDbEntity
  8
0
100
AcDbLine
 10
2929.176905622639
 20
737.309364650285
 30
0.0
 11
2940.092785622639
 21
705.607334650285
 31
0.0
  0
ARC
  5
85588
330
1F
100
AcDbEntity
  8
0
100
AcDbCircle
 10
2937.256235622639
 20
704.6306346502847
 30
0.0
 40
3.0
100
AcDbArc
 50
0.0
 51
19.00000000000419
  0
LINE
  5
85589
330
1F
100
AcDbEntity
  8
0
100
AcDbLine
 10
2940.256235622639
 20
689.4326646502848
 30
0.0
 11
2944.506235622639
 21
689.4326646502848
 31
0.0
  0
LINE
  5
8558A
330
1F
100
AcDbEntity
  8
0
100
AcDbLine
 10
2946.506235622639
 20
691.432664650285
 30
0.0
 11
2946.506235622639
 21
695.932664650285
 31
0.0
  0
LINE
  5
8558B
330
1F
100
AcDbEntity
  8
0
100
AcDbLine
 10
2946.506235622639
 20
695.932664650285
 30
0.0
 11
2943.006235622639
 21
695.932664650285
 31
0.0
  0
LINE
  5
8558C
330
1F
100
AcDbEntity
  8
0
100
AcDbLine
 10
2943.006235622639
 20
695.932664650285
 30
0.0
 11
2943.006235622639
 21
706.7592346502847
 31
0.0
  0
ARC
  5
8558D
330
1F
100
AcDbEntity
  8
0
100
AcDbCircle
 10
2933.006235622639
 20
706.7592346502847
 30
0.0
 40
10.0
100
AcDbArc
 50
0.0
 51
19.00000000000419
  0
LINE
  5
8558E
330
1F
100
AcDbEntity
  8
0
100
AcDbLine
 10
2942.46141562264
 20
710.0149146502849
 30
0.0
 11
2939.817615622639
 21
717.6930846502847
 31
0.0
  0
ARC
  5
8558F
330
1F
100
AcDbEntity
  8
0
100
AcDbCircle
 10
2958.727985622639
 20
724.204444650285
 30
0.0
 40
20.0
100
AcDbArc
 50
188.4882400000018
 51
199.0000000000041
  0
LINE
  5
85590
330
1F
100
AcDbEntity
  8
0
100
AcDbLine
 10
2938.94705562264
 20
721.252324650285
 30
0.0
 11
2935.865765622639
 21
741.898694650285
 31
0.0
  0
ARC
  5
85591
330
1F
100
AcDbEntity
  8
0
100
AcDbCircle
 10
2945.756235622639
 20
743.374754650285
 30
0.0
 40
10.0
100
AcDbArc
 50
180.0
 51
188.4882400000018
  0
LINE
  5
85592
330
1F
100
AcDbEntity
  8
0
100
AcDbLine
 10
2935.756235622639
 20
743.374754650285
 30
0.0
 11
2935.756235622639
 21
748.332664650285
 31
0.0
  0
ARC
  5
85593
330
1F
100
AcDbEntity
  8
0
100
AcDbCircle
 10
2930.756235622639
 20
748.332664650285
 30
0.0
 40
5.0
100
AcDbArc
 50
0.0
 51
90.0
  0
ARC
  5
85594
330
1F
100
AcDbEntity
  8
0
100
AcDbCircle
 10
2926.34034562264
 20
736.332664650285
 30
0.0
 40
3.0
100
AcDbArc
 50
19.00000000000419
 51
90.0
  0
LINE
  5
85595
330
1F
100
AcDbEntity
  8
0
100
AcDbLine
 10
2926.34034562264
 20
739.3326646502847
 30
0.0
 11
2918.172115622639
 21
739.3326646502847
 31
0.0
  0
LINE
  5
85596
330
1F
100
AcDbEntity
  8
0
100
AcDbLine
 10
2913.756235622639
 20
753.332664650285
 30
0.0
 11
2930.756235622639
 21
753.332664650285
 31
0.0
  0
CIRCLE
  5
85597
330
1F
100
AcDbEntity
  8
0
100
AcDbCircle
 10
2929.85623562264
 20
749.8326646502849
 30
0.0
 40
1.25
  0
CIRCLE
  5
85598
330
1F
100
AcDbEntity
  8
0
100
AcDbCircle
 10
2929.85623562264
 20
742.8326646502847
 30
0.0
 40
1.25
  0
CIRCLE
  5
85599
330
1F
100
AcDbEntity
  8
0
100
AcDbCircle
 10
2914.656235622639
 20
742.8326646502847
 30
0.0
 40
1.25
  0
CIRCLE
  5
8559A
330
1F
100
AcDbEntity
  8
0
100
AcDbCircle
 10
2914.656235622639
 20
749.8326646502849
 30
0.0
 40
1.25
  0
CIRCLE
  5
8559B
330
1F
100
AcDbEntity
  8
0
100
AcDbCircle
 10
2901.756235622639
 20
692.432664650285
 30
0.0
 40
1.6
  0
LINE
  5
8559C
330
1F
100
AcDbEntity
  8
0
100
AcDbLine
 10
2941.286535622638
 20
690.932664650285
 30
0.0
 11
2940.256235622639
 21
690.932664650285
 31
0.0
  0
ARC
  5
8559D
330
1F
100
AcDbEntity
  8
0
100
AcDbCircle
 10
2942.756235622639
 20
692.432664650285
 30
0.0
 40
2.1
100
AcDbArc
 50
225.5846900000091
 51
134.4153099999908
  0
LINE
  5
8559E
330
1F
100
AcDbEntity
  8
0
100
AcDbLine
 10
2940.256235622639
 20
693.9326646502848
 30
0.0
 11
2941.286535622638
 21
693.9326646502848
 31
0.0
  0
LINE
  5
8559F
330
1F
100
AcDbEntity
  8
0
100
AcDbLine
 10
2940.256235622639
 20
704.6306346502847
 30
0.0
 11
2940.256235622639
 21
693.9326646502848
 31
0.0
  0
LINE
  5
855A0
330
1F
100
AcDbEntity
  8
0
100
AcDbLine
 10
2940.256235622639
 20
690.932664650285
 30
0.0
 11
2940.256235622639
 21
689.4326646502848
 31
0.0
  0
ARC
  5
855A1
330
1F
100
AcDbEntity
  8
0
100
AcDbCircle
 10
2900.006235622639
 20
691.6326646502851
 30
0.0
 40
2.0
100
AcDbArc
 50
180.0
 51
270.0
  0
ARC
  5
855A2
330
1F
100
AcDbEntity
  8
0
100
AcDbCircle
 10
2902.256235622639
 20
691.6326646502851
 30
0.0
 40
2.0
100
AcDbArc
 50
270.0
 51
0.0
  0
ARC
  5
855A3
330
1F
100
AcDbEntity
  8
0
100
AcDbCircle
 10
2944.506235622639
 20
691.432664650285
 30
0.0
 40
2.0
100
AcDbArc
 50
270.0
 51
0.0
  0
LINE
  5
855A4
330
1F
100
AcDbEntity
  8
0
100
AcDbLine
 10
2983.22722927623
 20
689.632664650285
 30
0.0
 11
2985.22722927623
 21
689.632664650285
 31
0.0
  0
LINE
  5
855A5
330
1F
100
AcDbEntity
  8
0
100
AcDbLine
 10
2983.22722927623
 20
695.932664650285
 30
0.0
 11
2985.22722927623
 21
695.932664650285
 31
0.0
  0
LINE
  5
855A6
330
1F
100
AcDbEntity
  8
0
100
AcDbLine
 10
2985.22722927623
 20
689.4326646502848
 30
0.0
 11
2983.22722927623
 21
689.4326646502848
 31
0.0
  0
LINE
  5
855A7
330
1F
100
AcDbEntity
  8
0
100
AcDbLine
 10
2983.22722927623
 20
753.332664650285
 30
0.0
 11
2985.22722927623
 21
753.332664650285
 31
0.0
  0
LINE
  5
855A8
330
1F
100
AcDbEntity
  8
0
100
AcDbLine
 10
2983.22722927623
 20
689.432654650285
 30
0.0
 11
2983.22722927623
 21
689.632664650285
 31
0.0
  0
LINE
  5
855A9
330
1F
100
AcDbEntity
  8
0
100
AcDbLine
 10
2983.22722927623
 20
689.632664650285
 30
0.0
 11
2983.22722927623
 21
691.6326646502851
 31
0.0
  0
LINE
  5
855AA
330
1F
100
AcDbEntity
  8
0
100
AcDbLine
 10
2983.22722927623
 20
695.932664650285
 30
0.0
 11
2983.22722927623
 21
691.6326646502851
 31
0.0
  0
LINE
  5
855AB
330
1F
100
AcDbEntity
  8
0
100
AcDbLine
 10
2983.22722927623
 20
706.7592346502847
 30
0.0
 11
2983.22722927623
 21
695.932664650285
 31
0.0
  0
LINE
  5
855AC
330
1F
100
AcDbEntity
  8
0
100
AcDbLine
 10
2983.22722927623
 20
706.7592346502847
 30
0.0
 11
2983.22722927623
 21
710.0149146502849
 31
0.0
  0
LINE
  5
855AD
330
1F
100
AcDbEntity
  8
0
100
AcDbLine
 10
2983.22722927623
 20
717.6930846502847
 30
0.0
 11
2983.22722927623
 21
710.0149146502849
 31
0.0
  0
LINE
  5
855AE
330
1F
100
AcDbEntity
  8
0
100
AcDbLine
 10
2983.22722927623
 20
721.252324650285
 30
0.0
 11
2983.22722927623
 21
717.6930846502847
 31
0.0
  0
LINE
  5
855AF
330
1F
100
AcDbEntity
  8
0
100
AcDbLine
 10
2983.22722927623
 20
741.898694650285
 30
0.0
 11
2983.22722927623
 21
721.252324650285
 31
0.0
  0
LINE
  5
855B0
330
1F
100
AcDbEntity
  8
0
100
AcDbLine
 10
2983.22722927623
 20
743.374754650285
 30
0.0
 11
2983.22722927623
 21
741.898694650285
 31
0.0
  0
LINE
  5
855B1
330
1F
100
AcDbEntity
  8
0
100
AcDbLine
 10
2983.22722927623
 20
748.332664650285
 30
0.0
 11
2983.22722927623
 21
743.374754650285
 31
0.0
  0
LINE
  5
855B2
330
1F
100
AcDbEntity
  8
0
100
AcDbLine
 10
2983.22722927623
 20
753.332664650285
 30
0.0
 11
2983.22722927623
 21
748.332664650285
 31
0.0
  0
LINE
  5
855B3
330
1F
100
AcDbEntity
  8
0
100
AcDbLine
 10
2985.22722927623
 20
748.332664650285
 30
0.0
 11
2985.22722927623
 21
753.332664650285
 31
0.0
  0
LINE
  5
855B4
330
1F
100
AcDbEntity
  8
0
100
AcDbLine
 10
2985.22722927623
 20
743.374754650285
 30
0.0
 11
2985.22722927623
 21
748.332664650285
 31
0.0
  0
LINE
  5
855B5
330
1F
100
AcDbEntity
  8
0
100
AcDbLine
 10
2985.22722927623
 20
741.898694650285
 30
0.0
 11
2985.22722927623
 21
743.374754650285
 31
0.0
  0
LINE
  5
855B6
330
1F
100
AcDbEntity
  8
0
100
AcDbLine
 10
2985.22722927623
 20
721.252324650285
 30
0.0
 11
2985.22722927623
 21
741.898694650285
 31
0.0
  0
LINE
  5
855B7
330
1F
100
AcDbEntity
  8
0
100
AcDbLine
 10
2985.22722927623
 20
717.6930846502847
 30
0.0
 11
2985.22722927623
 21
721.252324650285
 31
0.0
  0
LINE
  5
855B8
330
1F
100
AcDbEntity
  8
0
100
AcDbLine
 10
2985.22722927623
 20
710.0149146502849
 30
0.0
 11
2985.22722927623
 21
717.6930846502847
 31
0.0
  0
LINE
  5
855B9
330
1F
100
AcDbEntity
  8
0
100
AcDbLine
 10
2985.22722927623
 20
710.0149146502849
 30
0.0
 11
2985.22722927623
 21
706.7592346502847
 31
0.0
  0
LINE
  5
855BA
330
1F
100
AcDbEntity
  8
0
100
AcDbLine
 10
2985.22722927623
 20
695.932664650285
 30
0.0
 11
2985.22722927623
 21
706.7592346502847
 31
0.0
  0
LINE
  5
855BB
330
1F
100
AcDbEntity
  8
0
100
AcDbLine
 10
2985.22722927623
 20
691.6326646502851
 30
0.0
 11
2985.22722927623
 21
695.932664650285
 31
0.0
  0
LINE
  5
855BC
330
1F
100
AcDbEntity
  8
0
100
AcDbLine
 10
2985.22722927623
 20
691.6326646502851
 30
0.0
 11
2985.22722927623
 21
689.632664650285
 31
0.0
  0
LINE
  5
855BD
330
1F
100
AcDbEntity
  8
0
100
AcDbLine
 10
2985.227219276231
 20
689.632664650285
 30
0.0
 11
2985.227219276231
 21
689.432654650285
 31
0.0
  0
LINE
  5
855BE
330
1F
100
AcDbEntity
  8
0
100
AcDbLine
 10
2798.659286905937
 20
588.7433893726035
 30
0.0
 11
2798.659286905937
 21
592.2543323726032
 31
0.0
  0
LINE
  5
855BF
330
1F
100
AcDbEntity
  8
0
100
AcDbLine
 10
2800.073486905937
 20
593.0708193726034
 30
0.0
 11
2798.659286905937
 21
592.2543323726032
 31
0.0
  0
LINE
  5
855C0
330
1F
100
AcDbEntity
  8
0
100
AcDbLine
 10
2803.078704905936
 20
586.1918513726034
 30
0.0
 11
2804.492905905937
 21
587.0083383726035
 31
0.0
  0
LINE
  5
855C1
330
1F
100
AcDbEntity
  8
0
100
AcDbLine
 10
2804.492905905937
 20
587.0083383726035
 30
0.0
 11
2804.492905905937
 21
597.6211353726035
 31
0.0
  0
LINE
  5
855C2
330
1F
100
AcDbEntity
  8
0
100
AcDbLine
 10
2804.492905905937
 20
597.6211353726035
 30
0.0
 11
2803.078704905936
 21
596.8046483726034
 31
0.0
  0
LINE
  5
855C3
330
1F
100
AcDbEntity
  8
0
100
AcDbLine
 10
2803.078704905936
 20
596.8046483726034
 30
0.0
 11
2803.078704905936
 21
586.1918513726034
 31
0.0
  0
LINE
  5
855C4
330
1F
100
AcDbEntity
  8
0
100
AcDbLine
 10
2800.073486905937
 20
586.2939123726032
 30
0.0
 11
2801.664487905938
 21
585.3753473726034
 31
0.0
  0
LINE
  5
855C5
330
1F
100
AcDbEntity
  8
0
100
AcDbLine
 10
2804.608485905937
 20
598.3518943726034
 30
0.0
 11
2812.301220905937
 21
619.7080313726035
 31
0.0
  0
LINE
  5
855C6
330
1F
100
AcDbEntity
  8
0
100
AcDbLine
 10
2812.228079905938
 20
619.7228803726035
 30
0.0
 11
2810.912966905936
 21
618.9635933726032
 31
0.0
  0
LINE
  5
855C7
330
1F
100
AcDbEntity
  8
0
100
AcDbLine
 10
2810.912966905936
 20
618.9635933726032
 30
0.0
 11
2803.194268905937
 21
597.5353913726035
 31
0.0
  0
LINE
  5
855C8
330
1F
100
AcDbEntity
  8
0
100
AcDbLine
 10
2803.194268905937
 20
597.5353913726035
 30
0.0
 11
2804.608485905937
 21
598.3518943726034
 31
0.0
  0
LWPOLYLINE
  5
855C9
330
1F
100
AcDbEntity
  8
0
100
AcDbPolyline
 90
       29
 70
     0
 43
0.0
 10
2804.608485905937
 20
598.3518943726034
 10
2804.601006905936
 20
598.3306663726032
 42
0.0034154267
 10
2804.593761905937
 20
598.3091933726034
 42
0.0033658403
 10
2804.586760905936
 20
598.2874643726034
 42
0.003320225
 10
2804.579996905937
 20
598.2654943726035
 42
0.00328537
 10
2804.573480905936
 20
598.2432763726034
 42
0.0032459707
 10
2804.567204905936
 20
598.2208253726033
 42
0.0032072147
 10
2804.561180905936
 20
598.1981333726032
 42
0.003166689
 10
2804.555399905936
 20
598.1752143726033
 42
0.003129334
 10
2804.549872905937
 20
598.1520643726033
 42
0.0030901463
 10
2804.544592905937
 20
598.1286943726034
 42
0.0030535274
 10
2804.539568905937
 20
598.1051003726035
 42
0.0030142181
 10
2804.534792905937
 20
598.0812953726032
 42
0.0029763632
 10
2804.530276905937
 20
598.0572763726033
 42
0.0029406556
 10
2804.526010905937
 20
598.0330533726035
 42
0.0029100321
 10
2804.522005905936
 20
598.0086203726032
 42
0.0028659776
 10
2804.518252905936
 20
597.9840003726032
 42
0.0028141228
 10
2804.514761905937
 20
597.9591943726034
 42
0.0028024209
 10
2804.511523905937
 20
597.9341753726035
 42
0.0028232948
 10
2804.508549905937
 20
597.9089283726032
 42
0.0027088454
 10
2804.505829905937
 20
597.8836143726034
 42
0.0025014534
 10
2804.503375905937
 20
597.8582813726034
 42
0.0027250898
 10
2804.501171905936
 20
597.8323543726034
 42
0.0031999978
 10
2804.499225905936
 20
597.8056283726032
 42
0.0023999438
 10
2804.497550905936
 20
597.7804363726034
 42
0.0008292368
 10
2804.496164905937
 20
597.7575793726032
 42
0.003326907
 10
2804.494968905936
 20
597.7279003726032
 42
0.0055902833
 10
2804.493878905937
 20
597.6817803726035
 42
0.0026860298
 10
2804.492905905937
 20
597.6211353726035
 42
0.0014130507
  0
LWPOLYLINE
  5
855CA
330
1F
100
AcDbEntity
  8
0
100
AcDbPolyline
 90
       29
 70
     0
 43
0.0
 10
2803.078704905936
 20
596.8046483726034
 10
2803.078835905937
 20
596.8315383726034
 42
-0.002392831
 10
2803.079218905936
 20
596.8582983726035
 42
-0.0024136487
 10
2803.079864905937
 20
596.8849223726031
 42
-0.00243968
 10
2803.080764905937
 20
596.9114113726034
 42
-0.0024716353
 10
2803.081927905937
 20
596.9377523726034
 42
-0.0025031177
 10
2803.083345905936
 20
596.9639463726032
 42
-0.00253298
 10
2803.085027905936
 20
596.9899823726032
 42
-0.0025642508
 10
2803.086964905936
 20
597.0158623726034
 42
-0.0025958107
 10
2803.089165905937
 20
597.0415743726032
 42
-0.0026287283
 10
2803.091620905937
 20
597.0671203726034
 42
-0.0026614293
 10
2803.094340905937
 20
597.0924893726035
 42
-0.0026946656
 10
2803.097314905937
 20
597.1176813726032
 42
-0.0027265558
 10
2803.100551905937
 20
597.1426853726032
 42
-0.0027633182
 10
2803.104041905937
 20
597.1675053726035
 42
-0.0028024046
 10
2803.107795905936
 20
597.1921303726034
 42
-0.0028314346
 10
2803.111798905936
 20
597.2165563726036
 42
-0.002848946
 10
2803.116060905937
 20
597.2407673726035
 42
-0.0029101139
 10
2803.120580905936
 20
597.2647983726034
 42
-0.0030053758
 10
2803.125370905937
 20
597.2886453726032
 42
-0.002959067
 10
2803.130378905936
 20
597.3121953726034
 42
-0.0027972734
 10
2803.135599905937
 20
597.3353943726031
 42
-0.0031218274
 10
2803.141184905936
 20
597.3587153726032
 42
-0.0037676026
 10
2803.147197905937
 20
597.3823063726032
 42
-0.0029077966
 10
2803.152989905937
 20
597.4043243726034
 42
-0.0010198146
 10
2803.158348905936
 20
597.4241183726034
 42
-0.0041480686
 10
2803.165780905937
 20
597.4489923726032
 42
-0.0073084257
 10
2803.177931905937
 20
597.4865873726034
 42
-0.0036601321
 10
2803.194268905937
 20
597.5353913726035
 42
-0.0019622361
  0
LINE
  5
855CB
330
1F
100
AcDbEntity
  8
0
100
AcDbLine
 10
2801.134154905937
 20
592.4584543726032
 30
0.0
 11
2800.073486905937
 21
593.0708193726034
 31
0.0
  0
LINE
  5
855CC
330
1F
100
AcDbEntity
  8
0
100
AcDbLine
 10
2798.659286905937
 20
592.2543323726032
 30
0.0
 11
2801.134153905938
 21
590.8254643726032
 31
0.0
  0
LINE
  5
855CD
330
1F
100
AcDbEntity
  8
0
100
AcDbLine
 10
2801.134153905938
 20
590.8254643726032
 30
0.0
 11
2801.134153905938
 21
599.6653163726032
 31
0.0
  0
LWPOLYLINE
  5
855CE
330
1F
100
AcDbEntity
  8
0
100
AcDbPolyline
 90
       29
 70
     0
 43
0.0
 10
2801.519404905937
 20
602.1011583726032
 10
2801.494473905937
 20
602.0303983726035
 42
0.0034156622
 10
2801.470323905936
 20
601.9588223726032
 42
0.0033660731
 10
2801.446988905937
 20
601.8863943726032
 42
0.0033204553
 10
2801.424440905936
 20
601.8131603726032
 42
0.0032855982
 10
2801.402720905937
 20
601.7391023726035
 42
0.0032461964
 10
2801.381801905936
 20
601.6642643726035
 42
0.0032074379
 10
2801.361720905936
 20
601.5886253726034
 42
0.0031669093
 10
2801.342450905937
 20
601.5122313726034
 42
0.0031295517
 10
2801.324029905937
 20
601.4350633726032
 42
0.0030903609
 10
2801.306426905937
 20
601.3571643726034
 42
0.003053739
 10
2801.289681905937
 20
601.2785183726032
 42
0.0030144264
 10
2801.273763905937
 20
601.1991713726033
 42
0.0029765682
 10
2801.258710905937
 20
601.1191073726035
 42
0.0029408572
 10
2801.244489905937
 20
601.0383633726035
 42
0.002910231
 10
2801.231140905936
 20
600.9569223726032
 42
0.0028661723
 10
2801.218629905936
 20
600.8748583726034
 42
0.002814313
 10
2801.206995905936
 20
600.7921703726032
 42
0.0028026093
 10
2801.196202905936
 20
600.7087743726032
 42
0.0028234833
 10
2801.186288905936
 20
600.6246173726032
 42
0.0027090251
 10
2801.177222905937
 20
600.5402373726034
 42
0.0025016182
 10
2801.169043905936
 20
600.4557973726035
 42
0.002725268
 10
2801.161697905937
 20
600.3693753726032
 42
0.0032002052
 10
2801.155214905937
 20
600.2802873726034
 42
0.0024000979
 10
2801.149632905937
 20
600.1963163726034
 42
0.0008292897
 10
2801.145012905936
 20
600.1201273726032
 42
0.0033271184
 10
2801.141024905937
 20
600.0211963726034
 42
0.0055906321
 10
2801.137396905937
 20
599.8674623726034
 42
0.0026861943
 10
2801.134153905938
 20
599.6653163726032
 42
0.0014131366
  0
LINE
  5
855CF
330
1F
100
AcDbEntity
  8
0
100
AcDbLine
 10
2801.519404905937
 20
602.1011583726032
 30
0.0
 11
2803.388849905936
 21
607.2910273726034
 31
0.0
  0
LWPOLYLINE
  5
855D0
330
1F
100
AcDbEntity
  8
0
100
AcDbPolyline
 90
       29
 70
     0
 43
0.0
 10
2803.388849905936
 20
607.2910273726034
 10
2803.416717905936
 20
607.3693463726032
 42
0.001895873
 10
2803.444100905937
 20
607.4481553726034
 42
0.0018816569
 10
2803.470980905936
 20
607.5274763726032
 42
0.0018678557
 10
2803.497373905937
 20
607.6072833726034
 42
0.0018561423
 10
2803.523257905936
 20
607.6875923726035
 42
0.0018434226
 10
2803.548652905937
 20
607.7683783726032
 42
0.0018310499
 10
2803.573535905937
 20
607.8496583726034
 42
0.0018180926
 10
2803.597924905937
 20
607.9314073726034
 42
0.0018058832
 10
2803.621799905937
 20
608.0136403726035
 42
0.00179323
 10
2803.645177905937
 20
608.0963343726032
 42
0.0017813578
 10
2803.668037905937
 20
608.1795033726032
 42
0.0017683349
 10
2803.690397905937
 20
608.2631233726032
 42
0.001755407
 10
2803.712237905937
 20
608.3472063726034
 42
0.0017441138
 10
2803.733575905936
 20
608.4317383726035
 42
0.0017352271
 10
2803.754391905938
 20
608.5167353726034
 42
0.0017185062
 10
2803.774700905937
 20
608.6021423726032
 42
0.001696334
 10
2803.794477905937
 20
608.6879603726035
 42
0.0016987427
 10
2803.813762905936
 20
608.7742963726034
 42
0.0017208973
 10
2803.832539905938
 20
608.8612053726034
 42
0.00165996
 10
2803.850754905937
 20
608.9481613726034
 42
0.0015399703
 10
2803.868359905937
 20
609.0350003726032
 42
0.0016874497
 10
2803.885667905936
 20
609.1236973726035
 42
0.0019948474
 10
2803.902756905937
 20
609.2149503726034
 42
0.0015028666
 10
2803.918497905937
 20
609.3008643726034
 42
0.0005160526
 10
2803.932471905937
 20
609.3787373726033
 42
0.0021002673
 10
2803.949236905937
 20
609.4796203726032
 42
0.0035641162
 10
2803.973530905937
 20
609.6361173726035
 42
0.0017232699
 10
2804.004428905936
 20
609.8417333726033
 42
0.0009087332
  0
LINE
  5
855D1
330
1F
100
AcDbEntity
  8
0
100
AcDbLine
 10
2804.004428905936
 20
609.8417333726033
 30
0.0
 11
2806.183219905936
 21
625.4414943726035
 31
0.0
  0
LWPOLYLINE
  5
855D2
330
1F
100
AcDbEntity
  8
0
100
AcDbPolyline
 90
       29
 70
     0
 43
0.0
 10
2806.183219905936
 20
625.4414943726035
 10
2806.188283905937
 20
625.4784323726035
 42
0.0012419784
 10
2806.193180905937
 20
625.5154993726034
 42
0.001234729
 10
2806.197904905936
 20
625.5527013726032
 42
0.0012276349
 10
2806.202461905936
 20
625.5900323726032
 42
0.001221509
 10
2806.206844905937
 20
625.6274943726032
 42
0.0012149372
 10
2806.211061905937
 20
625.6650813726032
 42
0.0012085864
 10
2806.215103905937
 20
625.7027973726035
 42
0.0012019549
 10
2806.218977905936
 20
625.7406373726032
 42
0.001195699
 10
2806.222677905936
 20
625.7786023726032
 42
0.0011892741
 10
2806.226209905937
 20
625.8166873726032
 42
0.0011832829
 10
2806.229566905936
 20
625.8548973726034
 42
0.0011766332
 10
2806.232755905937
 20
625.8932233726035
 42
0.0011699527
 10
2806.235769905936
 20
625.9316693726032
 42
0.0011644632
 10
2806.238614905936
 20
625.9702323726035
 42
0.0011605033
 10
2806.241284905937
 20
626.0089173726035
 42
0.0011513861
 10
2806.243785905937
 20
626.0477033726032
 42
0.0011384999
 10
2806.246110905937
 20
626.0865893726035
 42
0.0011422167
 10
2806.248266905936
 20
626.1256253726035
 42
0.0011592364
 10
2806.250247905937
 20
626.1648343726035
 42
0.0011202798
 10
2806.252058905937
 20
626.2039863726035
 42
0.0010410518
 10
2806.253693905937
 20
626.2430083726035
 42
0.0011429457
 10
2806.255161905936
 20
626.2827753726035
 42
0.0013541627
 10
2806.256457905937
 20
626.3235953726032
 42
0.0010222114
 10
2806.257573905936
 20
626.3619813726035
 42
0.000350904
 10
2806.258498905937
 20
626.3967353726034
 42
0.0014322013
 10
2806.259296905937
 20
626.4415903726034
 42
0.0024396369
 10
2806.260022905938
 20
626.5109603726032
 42
0.001183157
 10
2806.260672905937
 20
626.6019743726035
 42
0.0006247473
  0
LINE
  5
855D3
330
1F
100
AcDbEntity
  8
0
100
AcDbLine
 10
2806.260672905937
 20
626.6019743726035
 30
0.0
 11
2806.260672905937
 21
630.6500773726035
 31
0.0
  0
LWPOLYLINE
  5
855D4
330
1F
100
AcDbEntity
  8
0
100
AcDbPolyline
 90
       29
 70
     0
 43
0.0
 10
2811.210424905936
 20
633.5078153726034
 10
2811.126660905936
 20
633.5550343726032
 42
0.0053876621
 10
2811.042210905937
 20
633.6003113726035
 42
0.0053613089
 10
2810.957035905937
 20
633.6435803726032
 42
0.0054597142
 10
2810.871237905937
 20
633.6848153726032
 42
0.0057229701
 10
2810.784879905936
 20
633.7238023726032
 42
0.0059424003
 10
2810.698057905936
 20
633.7605353726035
 42
0.006150225
 10
2810.610825905936
 20
633.7948313726034
 42
0.0063616878
 10
2810.523280905937
 20
633.8266933726036
 42
0.0066095182
 10
2810.435497905937
 20
633.8559243726032
 42
0.0068498348
 10
2810.347571905937
 20
633.8825413726032
 42
0.0071131347
 10
2810.259588905936
 20
633.9063463726033
 42
0.0073695802
 10
2810.171644905937
 20
633.9273713726035
 42
0.0076474042
 10
2810.083839905936
 20
633.9454183726035
 42
0.007930016
 10
2809.996258905937
 20
633.9605313726032
 42
0.0082428652
 10
2809.909011905937
 20
633.9725123726034
 42
0.0085127119
 10
2809.822208905937
 20
633.9814373726035
 42
0.0087630686
 10
2809.735981905936
 20
633.9871213726032
 42
0.009140963
 10
2809.650312905936
 20
633.9895883726035
 42
0.0096520509
 10
2809.565298905937
 20
633.9886403726032
 42
0.0096703657
 10
2809.481405905936
 20
633.9845743726032
 42
0.0092854472
 10
2809.398911905937
 20
633.9772883726034
 42
0.010549555
 10
2809.316325905936
 20
633.9660913726035
 42
0.012981616
 10
2809.233260905936
 20
633.9505473726035
 42
0.010084584
 10
2809.155901905937
 20
633.9339473726035
 42
0.0034552686
 10
2809.086515905936
 20
633.9172343726032
 42
0.014635811
 10
2809.000938905937
 20
633.8880703726032
 42
0.026026762
 10
2808.873919905936
 20
633.8332323726032
 42
0.012915437
 10
2808.710432905936
 20
633.7554583726032
 42
0.0068363883
  0
LINE
  5
855D5
330
1F
100
AcDbEntity
  8
0
100
AcDbLine
 10
2808.710432905936
 20
633.7554583726032
 30
0.0
 11
2807.296215905937
 21
632.9389713726034
 31
0.0
  0
LWPOLYLINE
  5
855D6
330
1F
100
AcDbEntity
  8
0
100
AcDbPolyline
 90
       29
 70
     0
 43
0.0
 10
2806.260672905937
 20
630.6500773726035
 10
2806.264591905937
 20
630.8423523726035
 42
-0.011351801
 10
2806.276981905936
 20
631.0323233726035
 42
-0.011346511
 10
2806.298134905937
 20
631.2200363726034
 42
-0.011788911
 10
2806.328091905937
 20
631.4046023726032
 42
-0.012967331
 10
2806.367671905936
 20
631.5846653726032
 42
-0.014021322
 10
2806.416721905936
 20
631.7594673726032
 42
-0.015042301
 10
2806.475805905936
 20
631.9278563726035
 42
-0.016114122
 10
2806.544617905936
 20
632.0891233726032
 42
-0.017349721
 10
2806.623611905938
 20
632.2419713726035
 42
-0.018553398
 10
2806.712302905936
 20
632.3858373726034
 42
-0.01977836
 10
2806.810952905936
 20
632.5194443726035
 42
-0.020909314
 10
2806.918899905937
 20
632.6424213726035
 42
-0.021951997
 10
2807.036198905936
 20
632.7535593726032
 42
-0.022810659
 10
2807.162053905936
 20
632.8527143726033
 42
-0.023460473
 10
2807.296312905937
 20
632.9388163726036
 42
-0.02373435
 10
2807.437985905937
 20
633.0120243726033
 42
-0.023624195
 10
2807.586695905937
 20
633.0714793726031
 42
-0.023462577
 10
2807.741680905937
 20
633.1174553726031
 42
-0.023199994
 10
2807.902496905937
 20
633.1492763726035
 42
-0.021833469
 10
2808.067185905936
 20
633.1680833726034
 42
-0.019709044
 10
2808.234772905936
 20
633.1736603726034
 42
-0.020201344
 10
2808.407989905937
 20
633.1649463726034
 42
-0.021889079
 10
2808.587383905936
 20
633.1411403726032
 42
-0.016125749
 10
2808.757426905937
 20
633.1108803726031
 42
-0.0067559787
 10
2808.912312905937
 20
633.0768713726032
 42
-0.019544412
 10
2809.109063905936
 20
633.0102033726034
 42
-0.029325952
 10
2809.407673905937
 20
632.8794853726034
 42
-0.013653328
 10
2809.796207905937
 20
632.6913283726034
 42
-0.0071810271
  0
LINE
  5
855D7
330
1F
100
AcDbEntity
  8
0
100
AcDbLine
 10
2811.210424905936
 20
633.5078153726034
 30
0.0
 11
2809.796207905937
 21
632.6913283726034
 31
0.0
  0
LWPOLYLINE
  5
855D8
330
1F
100
AcDbEntity
  8
0
100
AcDbPolyline
 90
       29
 70
     0
 43
0.0
 10
2810.912966905936
 20
618.9635933726032
 10
2810.941401905937
 20
619.0368553726032
 42
-0.013010201
 10
2810.973182905937
 20
619.1076763726035
 42
-0.013165533
 10
2811.008446905936
 20
619.1759953726032
 42
-0.013609669
 10
2811.047073905937
 20
619.2416363726032
 42
-0.014533779
 10
2811.089219905937
 20
619.3041483726032
 42
-0.015302895
 10
2811.134724905937
 20
619.3634203726035
 42
-0.015956056
 10
2811.183694905937
 20
619.4190893726035
 42
-0.016550827
 10
2811.235934905937
 20
619.4710753726035
 42
-0.017149724
 10
2811.291510905936
 20
619.5189983726034
 42
-0.017609193
 10
2811.350195905936
 20
619.5628273726032
 42
-0.017979183
 10
2811.412008905937
 20
619.6022053726035
 42
-0.018181232
 10
2811.476690905937
 20
619.6371583726032
 42
-0.018269679
 10
2811.544212905936
 20
619.6673553726034
 42
-0.018199231
 10
2811.614304905937
 20
619.6928753726032
 42
-0.018027524
 10
2811.686892905937
 20
619.7134273726035
 42
-0.017635345
 10
2811.761655905937
 20
619.7291673726032
 42
-0.01709943
 10
2811.838465905936
 20
619.7398593726035
 42
-0.016664868
 10
2811.917140905936
 20
619.7456383726033
 42
-0.016317473
 10
2811.997566905938
 20
619.7462953726035
 42
-0.015237902
 10
2812.078989905936
 20
619.7423243726034
 42
-0.013719065
 10
2812.161066905936
 20
619.7336783726032
 42
-0.014246558
 10
2812.245337905937
 20
619.7196853726035
 42
-0.015768808
 10
2812.332222905936
 20
619.6999353726035
 42
-0.0115981
 10
2812.414289905937
 20
619.6785693726035
 42
-0.0045378558
 10
2812.488844905937
 20
619.6568763726035
 42
-0.014702408
 10
2812.583985905937
 20
619.6201683726035
 42
-0.022787083
 10
2812.729234905937
 20
619.5526493726036
 42
-0.010632923
 10
2812.918720905936
 20
619.4575973726032
 42
-0.00556637
  0
LINE
  5
855D9
330
1F
100
AcDbEntity
  8
0
100
AcDbLine
 10
2820.700269905936
 20
613.3129013726033
 30
0.0
 11
2828.418967905936
 21
582.9719063726034
 31
0.0
  0
LWPOLYLINE
  5
855DA
330
1F
100
AcDbEntity
  8
0
100
AcDbPolyline
 90
       29
 70
     0
 43
0.0
 10
2828.418967905936
 20
582.9719063726034
 10
2828.426447905936
 20
582.9420413726031
 42
-0.001825432
 10
2828.433691905936
 20
582.9122033726036
 42
-0.0018334867
 10
2828.440692905937
 20
582.8823913726035
 42
-0.001845149
 10
2828.447457905937
 20
582.8526113726034
 42
-0.0018615322
 10
2828.453972905937
 20
582.8228693726035
 42
-0.0018771424
 10
2828.460248905937
 20
582.7931723726034
 42
-0.0018917854
 10
2828.466272905937
 20
582.7635243726032
 42
-0.0019070994
 10
2828.472054905936
 20
582.7339313726032
 42
-0.0019228883
 10
2828.477580905936
 20
582.7043993726032
 42
-0.0019393133
 10
2828.482861905937
 20
582.6749323726033
 42
-0.0019558472
 10
2828.487885905937
 20
582.6455383726035
 42
-0.001972428
 10
2828.492660905936
 20
582.6162193726035
 42
-0.0019883163
 10
2828.497176905936
 20
582.5869863726031
 42
-0.0020074356
 10
2828.501443905937
 20
582.5578373726032
 42
-0.0020285138
 10
2828.505447905937
 20
582.5287803726032
 42
-0.0020420241
 10
2828.509201905936
 20
582.4998273726032
 42
-0.0020476399
 10
2828.512691905936
 20
582.4709913726032
 42
-0.0020843666
 10
2828.515929905937
 20
582.4422333726032
 42
-0.0021455318
 10
2828.518904905937
 20
582.4135523726035
 42
-0.002105456
 10
2828.521624905937
 20
582.3850973726035
 42
-0.0019845324
 10
2828.524078905937
 20
582.3569323726034
 42
-0.0022083468
 10
2828.526282905936
 20
582.3284613726031
 42
-0.0026567089
 10
2828.528227905936
 20
582.2994883726035
 42
-0.0020439223
 10
2828.529902905937
 20
582.2723643726034
 42
-0.0007157016
 10
2828.531288905937
 20
582.2479063726031
 42
-0.0029069587
 10
2828.532485905937
 20
582.2168463726034
 42
-0.0050982537
 10
2828.533574905936
 20
582.1694693726034
 42
-0.0025441352
 10
2828.534547905936
 20
582.1077013726034
 42
-0.0013619118
  0
LINE
  5
855DB
330
1F
100
AcDbEntity
  8
0
100
AcDbLine
 10
2828.534547905936
 20
569.6986163726034
 30
0.0
 11
2831.539749905937
 21
567.9635650726035
 31
0.0
  0
LINE
  5
855DC
330
1F
100
AcDbEntity
  8
0
100
AcDbLine
 10
2834.368166905937
 20
569.5965555726034
 30
0.0
 11
2832.953966905936
 21
568.7800519726032
 31
0.0
  0
LINE
  5
855DD
330
1F
100
AcDbEntity
  8
0
100
AcDbLine
 10
2832.953966905936
 20
568.7800519726032
 30
0.0
 11
2832.953966905936
 21
572.4542928726032
 31
0.0
  0
LINE
  5
855DE
330
1F
100
AcDbEntity
  8
0
100
AcDbLine
 10
2834.368166905937
 20
573.2707793726032
 30
0.0
 11
2832.953966905936
 21
572.4542928726032
 31
0.0
  0
LINE
  5
855DF
330
1F
100
AcDbEntity
  8
0
100
AcDbLine
 10
2834.368166905937
 20
573.2707793726032
 30
0.0
 11
2834.368166905937
 21
569.5965555726034
 31
0.0
  0
LINE
  5
855E0
330
1F
100
AcDbEntity
  8
0
100
AcDbLine
 10
2831.893299905937
 20
574.6996483726034
 30
0.0
 11
2834.368166905937
 21
573.2707793726032
 31
0.0
  0
LINE
  5
855E1
330
1F
100
AcDbEntity
  8
0
100
AcDbLine
 10
2832.953966905936
 20
572.4542928726032
 30
0.0
 11
2830.479081905937
 21
573.8831613726032
 31
0.0
  0
LINE
  5
855E2
330
1F
100
AcDbEntity
  8
0
100
AcDbLine
 10
2831.893299905937
 20
574.6996483726034
 30
0.0
 11
2830.479081905937
 21
573.8831613726032
 31
0.0
  0
LINE
  5
855E3
330
1F
100
AcDbEntity
  8
0
100
AcDbLine
 10
2831.893299905937
 20
583.5395173726034
 30
0.0
 11
2831.893299905937
 21
574.6996483726034
 31
0.0
  0
LINE
  5
855E4
330
1F
100
AcDbEntity
  8
0
100
AcDbLine
 10
2830.479081905937
 20
573.8831613726032
 30
0.0
 11
2830.479081905937
 21
582.7230143726032
 31
0.0
  0
LINE
  5
855E5
330
1F
100
AcDbEntity
  8
0
100
AcDbLine
 10
2830.479081905937
 20
582.7230143726032
 30
0.0
 11
2831.893299905937
 21
583.5395173726034
 31
0.0
  0
LWPOLYLINE
  5
855E6
330
1F
100
AcDbEntity
  8
0
100
AcDbPolyline
 90
       29
 70
     0
 43
0.0
 10
2831.508065905937
 20
586.4201813726032
 10
2831.532995905936
 20
586.3206343726034
 42
-0.0018254652
 10
2831.557143905937
 20
586.2211743726032
 42
-0.0018335206
 10
2831.580478905936
 20
586.1218013726035
 42
-0.0018451838
 10
2831.603025905937
 20
586.0225323726032
 42
-0.0018615679
 10
2831.624744905937
 20
585.9233953726032
 42
-0.001877179
 10
2831.645662905936
 20
585.8244033726032
 42
-0.001891823
 10
2831.665742905937
 20
585.7255793726034
 42
-0.0019071379
 10
2831.685011905936
 20
585.6269343726035
 42
-0.0019229277
 10
2831.703432905937
 20
585.5284953726034
 42
-0.0019393537
 10
2831.721034905937
 20
585.4302723726032
 42
-0.0019558884
 10
2831.737778905937
 20
585.3322923726034
 42
-0.00197247
 10
2831.753696905936
 20
585.2345653726032
 42
-0.0019883596
 10
2831.768748905937
 20
585.1371203726032
 42
-0.0020074798
 10
2831.782968905937
 20
585.0399573726035
 42
-0.002028559
 10
2831.796317905937
 20
584.9431023726032
 42
-0.0020420703
 10
2831.808827905936
 20
584.8465933726035
 42
-0.0020476867
 10
2831.820461905937
 20
584.7504713726031
 42
-0.002084415
 10
2831.831253905937
 20
584.6546143726034
 42
-0.0021455821
 10
2831.841167905936
 20
584.5590103726031
 42
-0.002105506
 10
2831.850233905937
 20
584.4641623726032
 42
-0.0019845801
 10
2831.858411905937
 20
584.3702793726032
 42
-0.0022084004
 10
2831.865757905937
 20
584.2753753726034
 42
-0.0026567742
 10
2831.872240905937
 20
584.1788013726032
 42
-0.0020439732
 10
2831.877822905937
 20
584.0883863726032
 42
-0.0007157196
 10
2831.882441905936
 20
584.0068633726032
 42
-0.002907032
 10
2831.886428905936
 20
583.9033293726035
 42
-0.0050983847
 10
2831.890056905937
 20
583.7454063726035
 42
-0.0025442017
 10
2831.893299905937
 20
583.5395173726034
 42
-0.0013619476
  0
LWPOLYLINE
  5
855E7
330
1F
100
AcDbEntity
  8
0
100
AcDbPolyline
 90
       29
 70
     0
 43
0.0
 10
2830.479081905937
 20
582.7230143726032
 10
2830.478645905937
 20
582.8131523726032
 42
0.002366065
 10
2830.477367905937
 20
582.9038283726032
 42
0.0023356096
 10
2830.475211905937
 20
582.9950663726032
 42
0.002308356
 10
2830.472212905937
 20
583.0868273726032
 42
0.002288677
 10
2830.468332905937
 20
583.1791123726032
 42
0.0022662916
 10
2830.463605905936
 20
583.2718853726032
 42
0.0022443736
 10
2830.457997905937
 20
583.3651523726032
 42
0.0022216368
 10
2830.451541905937
 20
583.4588753726034
 42
0.0022010726
 10
2830.444202905936
 20
583.5530573726035
 42
0.0021796184
 10
2830.436017905936
 20
583.6476643726032
 42
0.0021598654
 10
2830.426950905937
 20
583.7426963726032
 42
0.0021385841
 10
2830.417037905937
 20
583.8381173726032
 42
0.0021181602
 10
2830.406247905936
 20
583.9339253726034
 42
0.002099619
 10
2830.394611905937
 20
584.0300963726035
 42
0.00208452
 10
2830.382098905936
 20
584.1266313726032
 42
0.0020601312
 10
2830.368753905937
 20
584.2234623726034
 42
0.0020297848
 10
2830.354546905936
 20
584.3205723726032
 42
0.002028726
 10
2830.339480905937
 20
584.4180713726031
 42
0.0020512907
 10
2830.323513905937
 20
584.5160013726032
 42
0.0019757926
 10
2830.306818905937
 20
584.6137793726032
 42
0.001831088
 10
2830.289412905937
 20
584.7112083726032
 42
0.0020023337
 10
2830.270796905936
 20
584.8104423726034
 42
0.0023615696
 10
2830.250752905937
 20
584.9122253726034
 42
0.0017794252
 10
2830.231446905936
 20
585.0079123726032
 42
0.0006163534
 10
2830.213581905936
 20
585.0945243726036
 42
0.0024784943
 10
2830.188809905937
 20
585.2060433726034
 42
0.0041985122
 10
2830.148304905937
 20
585.3781313726034
 42
0.0020320948
 10
2830.093848905937
 20
585.6036943726032
 42
0.0010726716
  0
LINE
  5
855E8
330
1F
100
AcDbEntity
  8
0
100
AcDbLine
 10
2831.508065905937
 20
586.4201813726032
 30
0.0
 11
2830.093848905937
 21
585.6036943726032
 31
0.0
  0
LINE
  5
855E9
330
1F
100
AcDbEntity
  8
0
100
AcDbLine
 10
2829.638603905937
 20
593.7687123726034
 30
0.0
 11
2831.508065905937
 21
586.4201813726032
 31
0.0
  0
LINE
  5
855EA
330
1F
100
AcDbEntity
  8
0
100
AcDbLine
 10
2830.093848905937
 20
585.6036943726032
 30
0.0
 11
2828.224386905936
 21
592.9522263726035
 31
0.0
  0
LINE
  5
855EB
330
1F
100
AcDbEntity
  8
0
100
AcDbLine
 10
2829.638603905937
 20
593.7687123726034
 30
0.0
 11
2828.224386905936
 21
592.9522263726035
 31
0.0
  0
LWPOLYLINE
  5
855EC
330
1F
100
AcDbEntity
  8
0
100
AcDbPolyline
 90
       29
 70
     0
 43
0.0
 10
2829.023024905937
 20
597.0302153726033
 10
2829.036041905937
 20
596.9240973726035
 42
0.0011461493
 10
2829.049571905937
 20
596.8177543726034
 42
0.0011396968
 10
2829.063637905937
 20
596.7111753726034
 42
0.001133625
 10
2829.078216905936
 20
596.6043763726035
 42
0.0011287691
 10
2829.093330905937
 20
596.4973553726032
 42
0.0011234364
 10
2829.108956905936
 20
596.3901273726032
 42
0.0011182546
 10
2829.125115905936
 20
596.2826883726034
 42
0.0011128482
 10
2829.141785905936
 20
596.1750533726034
 42
0.0011078296
 10
2829.158987905936
 20
596.0672213726032
 42
0.0011026708
 10
2829.176699905937
 20
595.9592043726035
 42
0.0010979147
 10
2829.194941905937
 20
595.8510003726035
 42
0.0010925806
 10
2829.213691905936
 20
595.7426263726032
 42
0.0010872159
 10
2829.232968905937
 20
595.6340813726034
 42
0.001082994
 10
2829.252753905936
 20
595.5253683726032
 42
0.0010801837
 10
2829.273067905937
 20
595.4164833726032
 42
0.0010726246
 10
2829.293878905937
 20
595.3074783726032
 42
0.0010615247
 10
2829.315201905937
 20
595.1983673726032
 42
0.0010659391
 10
2829.337055905936
 20
595.0890063726034
 42
0.0010827688
 10
2829.359472905937
 20
594.9793423726032
 42
0.0010474287
 10
2829.382276905937
 20
594.8700013726035
 42
0.0009742832
 10
2829.405433905936
 20
594.7611963726034
 42
0.0010705394
 10
2829.429528905937
 20
594.6505123726034
 42
0.0012695926
 10
2829.454789905937
 20
594.5371173726035
 42
0.0009597296
 10
2829.478800905936
 20
594.4305893726031
 42
0.0003301396
 10
2829.500757905936
 20
594.3342263726032
 42
0.001345851
 10
2829.530080905937
 20
594.2102813726034
 42
0.0022973134
 10
2829.576691905937
 20
594.0191513726032
 42
0.0011166362
 10
2829.638603905937
 20
593.7687123726034
 42
0.0005902803
  0
LWPOLYLINE
  5
855ED
330
1F
100
AcDbEntity
  8
0
100
AcDbPolyline
 90
       29
 70
     0
 43
0.0
 10
2828.224386905936
 20
592.9522263726035
 10
2828.196518905937
 20
593.0627233726035
 42
-0.0010088899
 10
2828.169135905937
 20
593.1731513726032
 42
-0.0010118837
 10
2828.142256905937
 20
593.2835093726033
 42
-0.0010155558
 10
2828.115863905936
 20
593.3937923726032
 42
-0.0010199519
 10
2828.089979905937
 20
593.5039903726034
 42
-0.0010242868
 10
2828.064585905937
 20
593.6140993726032
 42
-0.0010283918
 10
2828.039703905937
 20
593.7241103726035
 42
-0.001032656
 10
2828.015314905937
 20
593.8340213726035
 42
-0.001036908
 10
2827.991440905936
 20
593.9438223726035
 42
-0.0010414003
 10
2827.968062905936
 20
594.0535103726032
 42
-0.0010459019
 10
2827.945203905937
 20
594.1630753726034
 42
-0.0010502266
 10
2827.922842905937
 20
594.2725153726033
 42
-0.0010541344
 10
2827.901004905937
 20
594.3818153726032
 42
-0.0010595293
 10
2827.879666905936
 20
594.4909863726032
 42
-0.001065961
 10
2827.858850905937
 20
594.6000193726034
 42
-0.0010680848
 10
2827.838542905937
 20
594.7088763726034
 42
-0.0010661723
 10
2827.818765905937
 20
594.8175313726034
 42
-0.0010802412
 10
2827.799481905937
 20
594.9261343726034
 42
-0.0011069383
 10
2827.780705905936
 20
595.0347253726032
 42
-0.0010806359
 10
2827.762491905937
 20
595.1427133726032
 42
-0.0010135354
 10
2827.744886905937
 20
595.2498813726032
 42
-0.0011232426
 10
2827.727578905936
 20
595.3585633726032
 42
-0.0013451337
 10
2827.710490905937
 20
595.4695483726034
 42
-0.0010272946
 10
2827.694750905937
 20
595.5736373726032
 42
-0.0003552687
 10
2827.680777905936
 20
595.6676463726035
 42
-0.0014554202
 10
2827.664012905937
 20
595.7878873726031
 42
-0.002527306
 10
2827.639720905937
 20
595.9724353726032
 42
-0.0012471349
 10
2827.608824905937
 20
596.2137283726032
 42
-0.000663852
  0
LINE
  5
855EE
330
1F
100
AcDbEntity
  8
0
100
AcDbLine
 10
2829.023024905937
 20
597.0302153726033
 30
0.0
 11
2827.608824905937
 21
596.2137283726032
 31
0.0
  0
LINE
  5
855EF
330
1F
100
AcDbEntity
  8
0
100
AcDbLine
 10
2826.844233905936
 20
615.1458513726034
 30
0.0
 11
2829.023024905937
 21
597.0302153726033
 31
0.0
  0
LINE
  5
855F0
330
1F
100
AcDbEntity
  8
0
100
AcDbLine
 10
2827.608824905937
 20
596.2137283726032
 30
0.0
 11
2825.430016905937
 21
614.3293473726035
 31
0.0
  0
LINE
  5
855F1
330
1F
100
AcDbEntity
  8
0
100
AcDbLine
 10
2826.844233905936
 20
615.1458513726034
 30
0.0
 11
2825.430016905937
 21
614.3293473726035
 31
0.0
  0
LWPOLYLINE
  5
855F2
330
1F
100
AcDbEntity
  8
0
100
AcDbPolyline
 90
       29
 70
     0
 43
0.0
 10
2826.766780905936
 20
616.3957723726032
 10
2826.766868905937
 20
616.3554323726032
 42
0.001060933
 10
2826.767124905936
 20
616.3149913726035
 42
0.0010553657
 10
2826.767556905936
 20
616.2744443726035
 42
0.0010499608
 10
2826.768157905938
 20
616.2337963726034
 42
0.0010453614
 10
2826.768933905937
 20
616.1930443726035
 42
0.001040411
 10
2826.769879905937
 20
616.1521963726035
 42
0.001035626
 10
2826.771001905937
 20
616.1112473726034
 42
0.0010306307
 10
2826.772292905936
 20
616.0702043726034
 42
0.0010259324
 10
2826.773758905937
 20
616.0290643726032
 42
0.0010211191
 10
2826.775394905937
 20
615.9878323726035
 42
0.0010166523
 10
2826.777206905936
 20
615.9465053726035
 42
0.0010116499
 10
2826.779186905936
 20
615.9050913726034
 42
0.0010065928
 10
2826.781343905937
 20
615.8635863726032
 42
0.0010025904
 10
2826.783668905937
 20
615.8219933726035
 42
0.0009998798
 10
2826.786170905937
 20
615.7803083726035
 42
0.000992755
 10
2826.788839905936
 20
615.7385513726035
 42
0.0009823418
 10
2826.791681905937
 20
615.6967263726035
 42
0.0009862849
 10
2826.794697905937
 20
615.6547773726035
 42
0.0010017183
 10
2826.797896905937
 20
615.6126823726032
 42
0.0009688067
 10
2826.801243905936
 20
615.5706833726035
 42
0.0009009307
 10
2826.804736905936
 20
615.5288613726034
 42
0.0009898421
 10
2826.808475905936
 20
615.4862813726032
 42
0.0011737621
 10
2826.812507905937
 20
615.4426203726035
 42
0.0008868321
 10
2826.816392905937
 20
615.4015853726032
 42
0.0003045749
 10
2826.819988905937
 20
615.3644503726034
 42
0.0012436539
 10
2826.824992905936
 20
615.3166063726033
 42
0.002121731
 10
2826.833194905936
 20
615.2427233726032
 42
0.0010304008
 10
2826.844233905936
 20
615.1458513726034
 42
0.000544434
  0
LWPOLYLINE
  5
855F3
330
1F
100
AcDbEntity
  8
0
100
AcDbPolyline
 90
       29
 70
     0
 43
0.0
 10
2825.430016905937
 20
614.3293473726035
 10
2825.424953905937
 20
614.3721323726032
 42
-0.0009299886
 10
2825.420056905938
 20
614.4148543726035
 42
-0.0009333556
 10
2825.415332905937
 20
614.4575113726032
 42
-0.0009371996
 10
2825.410775905937
 20
614.5001043726032
 42
-0.0009414188
 10
2825.406392905936
 20
614.5426273726034
 42
-0.0009456744
 10
2825.402176905936
 20
614.5850833726032
 42
-0.0009497337
 10
2825.398134905936
 20
614.6274673726034
 42
-0.0009539509
 10
2825.394259905936
 20
614.6697813726031
 42
-0.0009580913
 10
2825.390560905936
 20
614.7120183726031
 42
-0.00096248
 10
2825.387028905936
 20
614.7541833726035
 42
-0.0009668433
 10
2825.383671905937
 20
614.7962683726031
 42
-0.0009710551
 10
2825.380482905937
 20
614.8382773726032
 42
-0.0009748463
 10
2825.377468905937
 20
614.8802033726034
 42
-0.0009800214
 10
2825.374623905937
 20
614.9220513726035
 42
-0.0009861317
 10
2825.371954905937
 20
614.9638193726032
 42
-0.0009882496
 10
2825.369453905937
 20
615.0054933726035
 42
-0.0009866072
 10
2825.367127905937
 20
615.0470643726032
 42
-0.0009997641
 10
2825.364971905937
 20
615.0885913726032
 42
-0.0010246132
 10
2825.362990905937
 20
615.1300873726035
 42
-0.0010003307
 10
2825.361179905936
 20
615.1713313726035
 42
-0.000938231
 10
2825.359544905936
 20
615.2122403726032
 42
-0.0010399639
 10
2825.358076905937
 20
615.2537033726034
 42
-0.0012456502
 10
2825.356780905937
 20
615.2960203726035
 42
-0.000951136
 10
2825.355663905937
 20
615.3356953726032
 42
-0.0003284581
 10
2825.354739905937
 20
615.3715163726034
 42
-0.0013479794
 10
2825.353940905936
 20
615.4172943726035
 42
-0.0023407553
 10
2825.353213905937
 20
615.4875023726035
 42
-0.0011546281
 10
2825.352563905937
 20
615.5792683726032
 42
-0.000614449
  0
LINE
  5
855F4
330
1F
100
AcDbEntity
  8
0
100
AcDbLine
 10
2826.766780905936
 20
616.3957723726032
 30
0.0
 11
2825.352563905937
 21
615.5792683726032
 31
0.0
  0
LINE
  5
855F5
330
1F
100
AcDbEntity
  8
0
100
AcDbLine
 10
2826.766780905936
 20
620.4438753726034
 30
0.0
 11
2826.766780905936
 21
616.3957723726032
 31
0.0
  0
LINE
  5
855F6
330
1F
100
AcDbEntity
  8
0
100
AcDbLine
 10
2825.352563905937
 20
615.5792683726032
 30
0.0
 11
2825.352563905937
 21
619.6273713726034
 31
0.0
  0
LINE
  5
855F7
330
1F
100
AcDbEntity
  8
0
100
AcDbLine
 10
2826.766780905936
 20
620.4438753726034
 30
0.0
 11
2825.352563905937
 21
619.6273713726034
 31
0.0
  0
LWPOLYLINE
  5
855F8
330
1F
100
AcDbEntity
  8
0
100
AcDbPolyline
 90
       29
 70
     0
 43
0.0
 10
2823.231245905936
 20
626.5675933726035
 10
2823.399719905936
 20
626.4657993726032
 42
-0.010836909
 10
2823.570433905936
 20
626.3529333726035
 42
-0.0098195537
 10
2823.743574905936
 20
626.2285443726032
 42
-0.0092564898
 10
2823.918390905936
 20
626.0930243726035
 42
-0.009266821
 10
2824.094119905937
 20
625.9458633726035
 42
-0.0090717449
 10
2824.270026905937
 20
625.7876663726031
 42
-0.0088590728
 10
2824.445396905936
 20
625.6181923726034
 42
-0.0086283083
 10
2824.619463905936
 20
625.4382383726031
 42
-0.0085091377
 10
2824.791331905937
 20
625.2477963726033
 42
-0.0083462357
 10
2824.960267905937
 20
625.0478493726034
 42
-0.0082450597
 10
2825.125299905937
 20
624.8386573726035
 42
-0.0081233741
 10
2825.285773905937
 20
624.6213623726036
 42
-0.0080551484
 10
2825.440670905936
 20
624.3964863726032
 42
-0.0079879873
 10
2825.589468905937
 20
624.1652543726035
 42
-0.0079653497
 10
2825.731164905936
 20
623.9284173726034
 42
-0.0079267812
 10
2825.865400905937
 20
623.6873273726033
 42
-0.0078899928
 10
2825.991244905937
 20
623.4429543726035
 42
-0.0079651759
 10
2826.108553905937
 20
623.1962653726034
 42
-0.0081255846
 10
2826.216519905937
 20
622.9482383726032
 42
-0.0080186103
 10
2826.315150905937
 20
622.7011263726032
 42
-0.0076497422
 10
2826.403774905937
 20
622.4564473726035
 42
-0.0083870343
 10
2826.482836905936
 20
622.2107863726034
 42
-0.0098847801
 10
2826.551916905937
 20
621.9637563726035
 42
-0.0080267221
 10
2826.610732905936
 20
621.7334513726032
 42
-0.0035679372
 10
2826.658722905937
 20
621.5268963726032
 42
-0.010927817
 10
2826.699362905937
 20
621.2762453726035
 42
-0.019527984
 10
2826.735461905937
 20
620.9105983726034
 42
-0.010721042
 10
2826.766780905936
 20
620.4438753726034
 42
-0.0061113654
  0
LWPOLYLINE
  5
855F9
330
1F
100
AcDbEntity
  8
0
100
AcDbPolyline
 90
       29
 70
     0
 43
0.0
 10
2825.352563905937
 20
619.6273713726034
 10
2825.348644905937
 20
619.8241723726034
 42
0.010836874
 10
2825.336255905936
 20
620.0284483726035
 42
0.009819523
 10
2825.315101905937
 20
620.2405873726035
 42
0.0092564619
 10
2825.285145905936
 20
620.4597433726035
 42
0.0092667941
 10
2825.245565905937
 20
620.6855103726032
 42
0.0090717199
 10
2825.196515905937
 20
620.9169493726034
 42
0.0088590498
 10
2825.137432905937
 20
621.1535623726032
 42
0.0086282872
 10
2825.068620905936
 20
621.3942863726032
 42
0.0085091182
 10
2824.989626905936
 20
621.6383493726032
 42
0.008346218
 10
2824.900935905937
 20
621.8846273726035
 42
0.0082450439
 10
2824.802284905937
 20
622.1321453726034
 42
0.0081233601
 10
2824.694338905937
 20
622.3797683726035
 42
0.008055136
 10
2824.577039905936
 20
622.6263513726035
 42
0.0079879767
 10
2824.451184905937
 20
622.8708303726032
 42
0.0079653406
 10
2824.316925905936
 20
623.1119613726032
 42
0.007926774
 10
2824.175252905936
 20
623.3487593726032
 42
0.007889987
 10
2824.026542905937
 20
623.5799303726032
 42
0.0079651718
 10
2823.871557905937
 20
623.8048683726032
 42
0.0081255821
 10
2823.710741905936
 20
624.0223833726035
 42
0.0080186098
 10
2823.546051905937
 20
624.2313573726034
 42
0.0076497433
 10
2823.378465905936
 20
624.4304463726032
 42
0.0083870373
 10
2823.205247905936
 20
624.6217473726034
 42
0.009884786
 10
2823.025853905936
 20
624.8050873726032
 42
0.008026729
 10
2822.855810905937
 20
624.9711763726033
 42
0.0035679408
 10
2822.700924905936
 20
625.1160143726032
 42
0.010927829
 10
2822.504173905937
 20
625.2765353726032
 42
0.019528015
 10
2822.205563905937
 20
625.4906223726035
 42
0.010721062
 10
2821.817028905937
 20
625.7511063726034
 42
0.0061113782
  0
LINE
  5
855FA
330
1F
100
AcDbEntity
  8
0
100
AcDbLine
 10
2821.817028905937
 20
625.7511063726034
 30
0.0
 11
2823.231245905936
 21
626.5675933726035
 31
0.0
  0
LWPOLYLINE
  5
855FB
330
1F
100
AcDbEntity
  8
0
100
AcDbPolyline
 90
       29
 70
     0
 43
0.0
 10
2818.694532905937
 20
616.1229213726035
 10
2818.777222905937
 20
616.0733323726034
 42
-0.0086429978
 10
2818.860585905937
 20
616.0195353726034
 42
-0.0080595749
 10
2818.944679905937
 20
615.9613533726035
 42
-0.0076934871
 10
2819.029264905936
 20
615.8989763726032
 42
-0.0076328064
 10
2819.114098905938
 20
615.8322583726035
 42
-0.007467696
 10
2819.198959905937
 20
615.7614313726035
 42
-0.0072924228
 10
2819.283636905936
 20
615.6864073726035
 42
-0.007108605
 10
2819.367909905936
 20
615.6074613726032
 42
-0.0069858744
 10
2819.451517905937
 20
615.5245613726032
 42
-0.0068407232
 10
2819.534256905936
 20
615.4380213726034
 42
-0.006728876
 10
2819.615846905937
 20
615.3478673726032
 42
-0.0066054658
 10
2819.696104905937
 20
615.2544493726034
 42
-0.0065106971
 10
2819.774735905936
 20
615.1578553726034
 42
-0.0064183439
 10
2819.851587905937
 20
615.0584423726034
 42
-0.0063528614
 10
2819.926364905936
 20
614.9563543726034
 42
-0.0062676964
 10
2819.998937905937
 20
614.8520063726031
 42
-0.006178229
 10
2820.069010905937
 20
614.7456093726032
 42
-0.0061747083
 10
2820.136550905937
 20
614.6373883726035
 42
-0.006239819
 10
2820.201293905936
 20
614.5275313726032
 42
-0.0060619258
 10
2820.263044905937
 20
614.4169953726034
 42
-0.0056869394
 10
2820.321487905937
 20
614.3062553726032
 42
-0.0061888682
 10
2820.377304905937
 20
614.1933083726033
 42
-0.0072486511
 10
2820.430494905937
 20
614.0776403726032
 42
-0.0056809907
 10
2820.478513905936
 20
613.9687873726034
 42
-0.0023058003
 10
2820.520270905936
 20
613.8702323726032
 42
-0.0077359551
 10
2820.566163905937
 20
613.7457943726034
 42
-0.013424215
 10
2820.626831905936
 20
613.5575073726035
 42
-0.0069604748
 10
2820.700269905936
 20
613.3129013726033
 42
-0.0038332437
  0
LINE
  5
855FC
330
1F
100
AcDbEntity
  8
0
100
AcDbLine
 10
2818.694532905937
 20
616.1229213726035
 30
0.0
 11
2812.918720905936
 21
619.4575973726032
 31
0.0
  0
LINE
  5
855FD
330
1F
100
AcDbEntity
  8
0
100
AcDbLine
 10
2823.231245905936
 20
626.5675933726035
 30
0.0
 11
2811.210424905936
 21
633.5078153726034
 31
0.0
  0
LINE
  5
855FE
330
1F
100
AcDbEntity
  8
0
100
AcDbLine
 10
2809.796207905937
 20
632.6913283726034
 30
0.0
 11
2821.817028905937
 21
625.7511063726034
 31
0.0
  0
LWPOLYLINE
  5
855FF
330
1F
100
AcDbEntity
  8
0
100
AcDbPolyline
 90
       29
 70
     0
 43
0.0
 10
2834.368166905937
 20
569.5965555726034
 10
2834.367771905937
 20
569.5580945726034
 42
-0.0053875917
 10
2834.366565905937
 20
569.5197845726035
 42
-0.0053612348
 10
2834.364520905936
 20
569.4816251726035
 42
-0.0054596349
 10
2834.361645905937
 20
569.4436563726034
 42
-0.005722883
 10
2834.357879905937
 20
569.4059435726034
 42
-0.0059423056
 10
2834.353239905937
 20
569.3685203726032
 42
-0.0061501227
 10
2834.347674905937
 20
569.3314427726034
 42
-0.0063615776
 10
2834.341202905937
 20
569.2947434726034
 42
-0.0066093994
 10
2834.333772905937
 20
569.2584877726034
 42
-0.0068497072
 10
2834.325407905937
 20
569.2227055726032
 42
-0.0071129981
 10
2834.316057905936
 20
569.1874658726034
 42
-0.0073694347
 10
2834.305752905937
 20
569.1527957726032
 42
-0.0076472493
 10
2834.294443905936
 20
569.1187693726034
 42
-0.0079298519
 10
2834.282162905938
 20
569.0854073726034
 42
-0.0082426914
 10
2834.268864905936
 20
569.0527869726032
 42
-0.0085125299
 10
2834.254595905937
 20
569.0209320726035
 42
-0.0087628794
 10
2834.239319905937
 20
568.9899250726035
 42
-0.0091407649
 10
2834.223040905937
 20
568.9597541726034
 42
-0.0096518418
 10
2834.205709905937
 20
568.9304933726032
 42
-0.0096701576
 10
2834.187522905937
 20
568.9022446726035
 42
-0.0092852499
 10
2834.168500905936
 20
568.8751246726034
 42
-0.010549335
 10
2834.148104905936
 20
568.8487546726035
 42
-0.012981354
 10
2834.126107905936
 20
568.8230880726035
 42
-0.010084389
 10
2834.104885905937
 20
568.7996094726035
 42
-0.0034552038
 10
2834.085218905937
 20
568.7789155726034
 42
-0.014635545
 10
2834.058001905937
 20
568.7551025726032
 42
-0.026026351
 10
2834.013601905937
 20
568.7220684726034
 42
-0.012915266
 10
2833.953962905936
 20
568.6809880726031
 42
-0.006836307
  0
LINE
  5
85600
330
1F
100
AcDbEntity
  8
0
100
AcDbLine
 10
2829.948748905936
 20
571.7398502726032
 30
0.0
 11
2830.677293905937
 21
571.3192362726032
 31
0.0
  0
LWPOLYLINE
  5
85601
330
1F
100
AcDbEntity
  8
0
100
AcDbPolyline
 90
       49
 70
     0
 43
0.0
 10
2830.677293905937
 20
571.3192362726032
 10
2830.696887905936
 20
571.2861705726034
 42
0.0025611942
 10
2830.716700905937
 20
571.2534985726032
 42
0.0026116139
 10
2830.736744905936
 20
571.2212351726034
 42
0.0026239289
 10
2830.756994905937
 20
571.1893751726035
 42
0.0025942747
 10
2830.777440905936
 20
571.1579489726032
 42
0.0025831003
 10
2830.798060905936
 20
571.1269478726034
 42
0.0025745113
 10
2830.818849905937
 20
571.0963977726033
 42
0.0025710622
 10
2830.839786905936
 20
571.0662881726031
 42
0.002558922
 10
2830.860864905937
 20
571.0366451726032
 42
0.0025555471
 10
2830.882063905936
 20
571.0074565726032
 42
0.0025457222
 10
2830.903376905937
 20
570.9787473726033
 42
0.002544163
 10
2830.924784905936
 20
570.9505034726032
 42
0.0025351517
 10
2830.946279905936
 20
570.9227492726035
 42
0.0025348931
 10
2830.967846905937
 20
570.8954690726034
 42
0.002526979
 10
2830.989475905937
 20
570.8686863726032
 42
0.0025280461
 10
2831.011151905937
 20
570.8423839726032
 42
0.002521071
 10
2831.032865905937
 20
570.8165844726035
 42
0.0025233853
 10
2831.054604905936
 20
570.7912693726032
 42
0.0025173544
 10
2831.076358905937
 20
570.7664603726034
 42
0.0025207889
 10
2831.098116905937
 20
570.7421379726032
 42
0.002515485
 10
2831.119867905937
 20
570.7183228726035
 42
0.0025201902
 10
2831.141603905936
 20
570.6949941726032
 42
0.0025160626
 10
2831.163311905937
 20
570.6721714726032
 42
0.0025212423
 10
2831.184984905938
 20
570.6498344726034
 42
0.0025166778
 10
2831.206610905937
 20
570.6280022726032
 42
0.002524604
 10
2831.228186905937
 20
570.6066488726035
 42
0.002523897
 10
2831.249703905937
 20
570.5857907726032
 42
0.0025275762
 10
2831.271140905936
 20
570.5654204726035
 42
0.0025209863
 10
2831.292479905937
 20
570.5455599726034
 42
0.0025382236
 10
2831.313782905937
 20
570.5261268726034
 42
0.0025327452
 10
2831.335133905937
 20
570.5070531726033
 42
0.0025631888
 10
2831.356660905937
 20
570.4882145726034
 42
0.0026098727
 10
2831.378486905936
 20
570.4695245726034
 42
0.0026379063
 10
2831.400590905936
 20
570.4509959726031
 42
0.002710676
 10
2831.422953905937
 20
570.4326752726034
 42
0.0027606336
 10
2831.445552905937
 20
570.4145700726034
 42
0.002796042
 10
2831.468398905936
 20
570.3966981726035
 42
0.002874756
 10
2831.491511905936
 20
570.3790450726033
 42
0.0030090709
 10
2831.514908905937
 20
570.3616298726034
 42
0.0029718714
 10
2831.538430905936
 20
570.3445330726032
 42
0.0028156617
 10
2831.562035905936
 20
570.3278063726034
 42
0.0032027302
 10
2831.586264905936
 20
570.3111493726034
 42
0.0039638599
 10
2831.611313905937
 20
570.2944849726032
 42
0.0030157658
 10
2831.634962905936
 20
570.2790124726034
 42
0.0009172669
 10
2831.656451905936
 20
570.2651726726034
 42
0.0044864812
 10
2831.684465905937
 20
570.2482428726032
 42
0.0080798652
 10
2831.728130905937
 20
570.2232947726034
 42
0.0039915424
 10
2831.785624905937
 20
570.1912967726031
 42
0.0021007769
  0
LWPOLYLINE
  5
85602
330
1F
100
AcDbEntity
  8
0
100
AcDbPolyline
 90
       29
 70
     0
 43
0.0
 10
2804.492905905937
 20
587.0083383726035
 10
2804.492509905937
 20
586.9698773726033
 42
-0.005387651
 10
2804.491304905937
 20
586.9315683726036
 42
-0.0053612976
 10
2804.489258905936
 20
586.8934093726034
 42
-0.0054597027
 10
2804.486383905937
 20
586.8554403726034
 42
-0.005722958
 10
2804.482617905937
 20
586.8177283726033
 42
-0.0059423878
 10
2804.477978905936
 20
586.7803053726032
 42
-0.006150212
 10
2804.472412905937
 20
586.7432283726034
 42
-0.0063616743
 10
2804.465941905937
 20
586.7065293726034
 42
-0.0066095043
 10
2804.458510905937
 20
586.6702743726031
 42
-0.0068498204
 10
2804.450146905937
 20
586.6344923726034
 42
-0.00711312
 10
2804.440796905936
 20
586.5992533726036
 42
-0.0073695653
 10
2804.430490905937
 20
586.5645843726032
 42
-0.007647389
 10
2804.419182905936
 20
586.5305583726032
 42
-0.0079300008
 10
2804.406901905937
 20
586.4971963726032
 42
-0.0082428498
 10
2804.393602905936
 20
586.4645773726032
 42
-0.0085126964
 10
2804.379334905937
 20
586.4327223726034
 42
-0.0087630534
 10
2804.364057905936
 20
586.4017163726032
 42
-0.009140948
 10
2804.347778905937
 20
586.3715453726032
 42
-0.0096520361
 10
2804.330447905937
 20
586.3422853726032
 42
-0.009670352
 10
2804.312261905936
 20
586.3140373726032
 42
-0.0092854353
 10
2804.293238905937
 20
586.2869183726034
 42
-0.010549543
 10
2804.272843905937
 20
586.2605483726032
 42
-0.012981604
 10
2804.250845905936
 20
586.2348823726032
 42
-0.010084576
 10
2804.229623905936
 20
586.2114043726034
 42
-0.0034552661
 10
2804.209957905936
 20
586.1907113726032
 42
-0.014635803
 10
2804.182739905936
 20
586.1668993726032
 42
-0.026026757
 10
2804.138339905937
 20
586.1338663726034
 42
-0.012915439
 10
2804.078701905937
 20
586.0927873726032
 42
-0.0068363903
  0
LINE
  5
85604
330
1F
100
AcDbEntity
  8
0
100
AcDbLine
 10
2829.263075905936
 20
570.5027327726034
 30
0.0
 11
2830.677293905937
 21
571.3192362726032
 31
0.0
  0
LINE
  5
85605
330
1F
100
AcDbEntity
  8
0
100
AcDbLine
 10
2829.263075905936
 20
570.5027327726034
 30
0.0
 11
2828.534547905936
 21
570.9233633726035
 31
0.0
  0
LINE
  5
85606
330
1F
100
AcDbEntity
  8
0
100
AcDbLine
 10
2829.948748905936
 20
571.7398502726032
 30
0.0
 11
2828.534547905936
 21
570.9233633726035
 31
0.0
  0
LWPOLYLINE
  5
85607
330
1F
100
AcDbEntity
  8
0
100
AcDbPolyline
 90
       69
 70
     0
 43
0.0
 10
2829.263075905936
 20
572.9522263726035
 10
2829.329940905937
 20
572.9849183726035
 42
-0.02885884
 10
2829.401924905936
 20
573.0107993726034
 42
-0.026673404
 10
2829.479273905936
 20
573.0296783726035
 42
-0.02531008
 10
2829.561545905936
 20
573.0412163726032
 42
-0.025475964
 10
2829.648625905936
 20
573.0443773726034
 42
-0.024549793
 10
2829.739933905936
 20
573.0390883726035
 42
-0.023269592
 10
2829.835189905937
 20
573.0246713726034
 42
-0.021731426
 10
2829.933676905937
 20
573.0012793726031
 42
-0.020452284
 10
2830.034898905936
 20
572.9683893726035
 42
-0.0189815
 10
2830.138057905937
 20
572.9264323726035
 42
-0.017698589
 10
2830.242488905936
 20
572.8751753726034
 42
-0.01640511
 10
2830.347380905937
 20
572.8153123726031
 42
-0.015304796
 10
2830.451953905936
 20
572.7469035726032
 42
-0.014262312
 10
2830.555463905937
 20
572.6708639726032
 42
-0.01335424
 10
2830.657092905937
 20
572.5875386726035
 42
-0.012553581
 10
2830.756239905937
 20
572.4979680726034
 42
-0.011836863
 10
2830.852127905937
 20
572.4027210726034
 42
-0.011225014
 10
2830.944326905936
 20
572.3029104726032
 42
-0.010633237
 10
2831.032159905937
 20
572.1992643726032
 42
-0.010224365
 10
2831.115471905937
 20
572.0926988726033
 42
-0.0098325156
 10
2831.193752905937
 20
571.9839549726032
 42
-0.009430304
 10
2831.266792905937
 20
571.8743599726034
 42
-0.0089305592
 10
2831.334228905937
 20
571.7646785726034
 42
-0.0090056016
 10
2831.397479905937
 20
571.6531148726033
 42
-0.0089079656
 10
2831.457601905936
 20
571.5375462726032
 42
-0.0088046353
 10
2831.514491905936
 20
571.4179914726035
 42
-0.0092575764
 10
2831.567447905937
 20
571.2946306726035
 42
-0.009560726
 10
2831.616029905936
 20
571.1682863726032
 42
-0.0099610349
 10
2831.659438905937
 20
571.0396248726032
 42
-0.010359819
 10
2831.697346905936
 20
570.9095601726033
 42
-0.010898427
 10
2831.729000905937
 20
570.7789235726034
 42
-0.011450553
 10
2831.754235905937
 20
570.6486770726034
 42
-0.012129927
 10
2831.772397905937
 20
570.5198366726031
 42
-0.012873691
 10
2831.783530905937
 20
570.3933150726034
 42
-0.013727758
 10
2831.787152905936
 20
570.2702068726035
 42
-0.014700858
 10
2831.783530905937
 20
570.1512809726032
 42
-0.015752394
 10
2831.772397905937
 20
570.0376138726034
 42
-0.016978142
 10
2831.754235905937
 20
569.9297462726032
 42
-0.018216888
 10
2831.729000905937
 20
569.8286375726032
 42
-0.019662118
 10
2831.697346905936
 20
569.7345521726032
 42
-0.020998387
 10
2831.659438905937
 20
569.6482594726034
 42
-0.022520474
 10
2831.616029905936
 20
569.5697227726034
 42
-0.023725271
 10
2831.567447905937
 20
569.4994767726034
 42
-0.025023702
 10
2831.514491905936
 20
569.4372642726031
 42
-0.025817401
 10
2831.457601905936
 20
569.3834003726034
 42
-0.02644203
 10
2831.397479905937
 20
569.3372541726033
 42
-0.026014213
 10
2831.334228905937
 20
569.2987262726034
 42
-0.02671077
 10
2831.266792905937
 20
569.2669129726032
 42
-0.026852129
 10
2831.193753905937
 20
569.2416569726032
 42
-0.025938124
 10
2831.115471905937
 20
569.2233046726035
 42
-0.026194054
 10
2831.032158905936
 20
569.2129411726035
 42
-0.025526583
 10
2830.944326905936
 20
569.2107145726033
 42
-0.02443969
 10
2830.852129905936
 20
569.2173625726034
 42
-0.022981757
 10
2830.756239905937
 20
569.2328408726032
 42
-0.021767912
 10
2830.657083905936
 20
569.2577683726032
 42
-0.020213622
 10
2830.555463905937
 20
569.2917803726031
 42
-0.018787547
 10
2830.451989905937
 20
569.3352074726034
 42
-0.017509063
 10
2830.347380905937
 20
569.3876052726034
 42
-0.016553801
 10
2830.242348905936
 20
569.4490798726034
 42
-0.015037835
 10
2830.138057905937
 20
569.5181887726032
 42
-0.013349496
 10
2830.035451905937
 20
569.5944825726034
 42
-0.013502439
 10
2829.933676905937
 20
569.6793412726032
 42
-0.014588379
 10
2829.833008905937
 20
569.7730954726035
 42
-0.010959182
 10
2829.739933905936
 20
569.8652461726034
 42
-0.0048428546
 10
2829.657231905937
 20
569.9518796726032
 42
-0.013450492
 10
2829.561545905936
 20
570.0691017726032
 42
-0.021216495
 10
2829.428595905937
 20
570.2553089726034
 42
-0.010634424
 10
2829.263075905936
 20
570.5027327726034
 42
-0.005802843
  0
LINE
  5
85608
330
1F
100
AcDbEntity
  8
0
100
AcDbLine
 10
2828.534547905936
 20
573.3728403726034
 30
0.0
 11
2829.263075905936
 21
572.9522263726035
 31
0.0
  0
LINE
  5
85609
330
1F
100
AcDbEntity
  8
0
100
AcDbLine
 10
2828.534547905936
 20
582.1077013726034
 30
0.0
 11
2828.534547905936
 21
573.3728403726034
 31
0.0
  0
LINE
  5
8560A
330
1F
100
AcDbEntity
  8
0
100
AcDbLine
 10
2828.534547905936
 20
570.9233633726035
 30
0.0
 11
2828.534547905936
 21
569.6986163726034
 31
0.0
  0
LWPOLYLINE
  5
8560B
330
1F
100
AcDbEntity
  8
0
100
AcDbPolyline
 90
       29
 70
     0
 43
0.0
 10
2831.539749905937
 20
567.9635650726035
 10
2831.607138905937
 20
567.9264673726033
 42
0.011351793
 10
2831.675423905937
 20
567.8927645726035
 42
0.011346507
 10
2831.744680905936
 20
567.8625492726032
 42
0.01178891
 10
2831.814606905936
 20
567.8360129726033
 42
0.012967334
 10
2831.884898905937
 20
567.8137110726034
 42
0.014021331
 10
2831.955261905937
 20
567.7957412726032
 42
0.015042317
 10
2832.025409905936
 20
567.7825304726034
 42
0.016114145
 10
2832.095036905937
 20
567.7741137726034
 42
0.017349753
 10
2832.163783905937
 20
567.7709079726033
 42
0.01855344
 10
2832.231357905937
 20
567.7728579726032
 42
0.019778412
 10
2832.297370905937
 20
567.7803095726034
 42
0.020909376
 10
2832.361560905937
 20
567.7931077726034
 42
0.021952068
 10
2832.423519905936
 20
567.8115133726032
 42
0.022810737
 10
2832.483038905937
 20
567.8352793726032
 42
0.023460555
 10
2832.539716905936
 20
567.8645674726034
 42
0.023734431
 10
2832.593411905936
 20
567.8990023726035
 42
0.023624272
 10
2832.643749905936
 20
567.9386258726032
 42
0.023462647
 10
2832.690673905937
 20
567.9831185726034
 42
0.023200053
 10
2832.733859905936
 20
568.0324623726034
 42
0.021833515
 10
2832.773312905937
 20
568.0857510726032
 42
0.019709076
 10
2832.808761905937
 20
568.1426891726032
 42
0.020201366
 10
2832.840386905936
 20
568.2044359726034
 42
0.021889091
 10
2832.868019905936
 20
568.2713410726035
 42
0.016125748
 10
2832.891545905937
 20
568.3362974726032
 42
0.0067559762
 10
2832.910741905937
 20
568.3967533726034
 42
0.0195444
 10
2832.926998905936
 20
568.4782431726032
 42
0.029325912
 10
2832.941438905936
 20
568.6078283726032
 42
0.013653302
 10
2832.953966905936
 20
568.7800519726032
 42
0.007181012
  0
LWPOLYLINE
  5
8560C
330
1F
100
AcDbEntity
  8
0
100
AcDbPolyline
 90
       29
 70
     0
 43
0.0
 10
2798.659286905937
 20
588.7433893726035
 10
2798.660853905937
 20
588.6646693726032
 42
0.010836903
 10
2798.665808905937
 20
588.5829593726032
 42
0.0098195537
 10
2798.674269905937
 20
588.4981043726034
 42
0.0092564951
 10
2798.686252905937
 20
588.4104423726035
 42
0.0092668313
 10
2798.702083905936
 20
588.3201363726034
 42
0.00907176
 10
2798.721703905937
 20
588.2275613726034
 42
0.0088590922
 10
2798.745336905936
 20
588.1329163726034
 42
0.0086283317
 10
2798.772860905936
 20
588.0366273726032
 42
0.0085091647
 10
2798.804457905937
 20
587.9390023726032
 42
0.008346266
 10
2798.839933905937
 20
587.8404923726034
 42
0.008245093
 10
2798.879393905937
 20
587.7414853726032
 42
0.0081234104
 10
2798.922571905936
 20
587.6424373726035
 42
0.0080551874
 10
2798.969490905937
 20
587.5438043726034
 42
0.007988029
 10
2799.019831905936
 20
587.4460133726032
 42
0.0079653938
 10
2799.073535905936
 20
587.3495613726032
 42
0.0079268278
 10
2799.130203905936
 20
587.2548433726034
 42
0.0078900412
 10
2799.189687905936
 20
587.1623753726034
 42
0.007965227
 10
2799.251680905937
 20
587.0724013726032
 42
0.0081256387
 10
2799.316006905936
 20
586.9853953726034
 42
0.0080186654
 10
2799.381881905937
 20
586.9018063726032
 42
0.0076497961
 10
2799.448916905937
 20
586.8221713726032
 42
0.0083870948
 10
2799.518202905937
 20
586.7456513726032
 42
0.0098848527
 10
2799.589959905937
 20
586.6723163726032
 42
0.008026782
 10
2799.657976905937
 20
586.6058813726032
 42
0.003567964
 10
2799.719930905937
 20
586.5479463726034
 42
0.010927899
 10
2799.798630905937
 20
586.4837383726031
 42
0.019528131
 10
2799.918073905936
 20
586.3981043726035
 42
0.010721121
 10
2800.073486905937
 20
586.2939123726032
 42
0.0061114099
  0
LWPOLYLINE
  5
8560D
330
1F
100
AcDbEntity
  8
0
100
AcDbPolyline
 90
       29
 70
     0
 43
0.0
 10
2801.664487905938
 20
585.3753473726034
 10
2801.731877905937
 20
585.3382503726034
 42
0.011351909
 10
2801.800162905936
 20
585.3045473726032
 42
0.011346622
 10
2801.869418905936
 20
585.2743333726031
 42
0.011789029
 10
2801.939345905936
 20
585.2477973726035
 42
0.012967463
 10
2802.009636905936
 20
585.2254953726034
 42
0.014021465
 10
2802.079999905937
 20
585.2075263726034
 42
0.015042454
 10
2802.150147905937
 20
585.1943163726032
 42
0.016114281
 10
2802.219774905937
 20
585.1858993726032
 42
0.017349885
 10
2802.288521905937
 20
585.1826943726035
 42
0.018553562
 10
2802.356096905938
 20
585.1846453726034
 42
0.019778518
 10
2802.422109905937
 20
585.1920973726032
 42
0.020909456
 10
2802.486298905936
 20
585.2048963726032
 42
0.021952116
 10
2802.548257905937
 20
585.2233023726035
 42
0.022810744
 10
2802.607776905936
 20
585.2470693726034
 42
0.023460519
 10
2802.664455905937
 20
585.2763573726035
 42
0.023734349
 10
2802.718149905937
 20
585.3107933726032
 42
0.02362415
 10
2802.768487905937
 20
585.3504173726035
 42
0.023462488
 10
2802.815411905937
 20
585.3949103726034
 42
0.023199867
 10
2802.858598905936
 20
585.4442553726035
 42
0.021833317
 10
2802.898050905936
 20
585.4975443726032
 42
0.019708885
 10
2802.933500905937
 20
585.5544833726034
 42
0.020201163
 10
2802.965125905937
 20
585.6162303726032
 42
0.021888868
 10
2802.992757905936
 20
585.6831363726032
 42
0.016125587
 10
2803.016284905937
 20
585.7480933726034
 42
0.0067559099
 10
2803.035480905936
 20
585.8085493726036
 42
0.019544212
 10
2803.051736905937
 20
585.8900403726035
 42
0.029325659
 10
2803.066176905937
 20
586.0196263726034
 42
0.013653199
 10
2803.078704905936
 20
586.1918513726034
 42
0.0071809619
  0
LINE
  5
8560E
330
1F
100
AcDbEntity
  8
0
100
AcDbLine
 10
2802.664484905936
 20
585.2762833726034
 30
0.0
 11
2804.078701905937
 21
586.0927873726032
 31
0.0
  0
LINE
  5
8560F
330
1F
100
AcDbEntity
  8
0
100
AcDbLine
 10
2832.539745905937
 20
567.8645011726032
 30
0.0
 11
2833.953962905936
 21
568.6809880726031
 31
0.0
  0
LINE
  5
85610
330
1F
100
AcDbEntity
  8
CEN
 48
0.001
100
AcDbLine
 10
2927.332975622639
 20
742.8326646502847
 30
0.0
 11
2932.10623562264
 21
742.8326646502847
 31
0.0
  0
LINE
  5
85611
330
1F
100
AcDbEntity
  8
CEN
 48
0.001
100
AcDbLine
 10
2929.85623562264
 20
740.4502846502849
 30
0.0
 11
2929.85623562264
 21
745.0826646502847
 31
0.0
  0
LINE
  5
85612
330
1F
100
AcDbEntity
  8
CEN
 48
0.001
100
AcDbLine
 10
2929.85623562264
 20
749.8326646502849
 30
0.0
 11
2929.85623562264
 21
749.8326646502849
 31
0.0
  0
LINE
  5
85613
330
1F
100
AcDbEntity
  8
CEN
 48
0.001
100
AcDbLine
 10
2929.85623562264
 20
749.8326646502849
 30
0.0
 11
2929.85623562264
 21
749.8326646502849
 31
0.0
  0
LINE
  5
85614
330
1F
100
AcDbEntity
  8
CEN
 48
0.001
100
AcDbLine
 10
2927.505965622639
 20
749.8326646502849
 30
0.0
 11
2932.10623562264
 21
749.8326646502849
 31
0.0
  0
LINE
  5
85615
330
1F
100
AcDbEntity
  8
CEN
 48
0.001
100
AcDbLine
 10
2929.85623562264
 20
747.335124650285
 30
0.0
 11
2929.85623562264
 21
752.0826646502849
 31
0.0
  0
LINE
  5
85616
330
1F
100
AcDbEntity
  8
CEN
 48
0.001
100
AcDbLine
 10
2914.656235622639
 20
747.4043146502847
 30
0.0
 11
2914.656235622639
 21
752.0826646502849
 31
0.0
  0
LINE
  5
85617
330
1F
100
AcDbEntity
  8
CEN
 48
0.001
100
AcDbLine
 10
2916.57324562264
 20
749.8326646502849
 30
0.0
 11
2912.406235622639
 21
749.8326646502849
 31
0.0
  0
LINE
  5
85618
330
1F
100
AcDbEntity
  8
CEN
 48
0.001
100
AcDbLine
 10
2914.656235622639
 20
740.5540746502849
 30
0.0
 11
2914.656235622639
 21
745.0826646502847
 31
0.0
  0
LINE
  5
85619
330
1F
100
AcDbEntity
  8
CEN
 48
0.001
100
AcDbLine
 10
2916.642445622639
 20
742.8326646502847
 30
0.0
 11
2912.406235622639
 21
742.8326646502847
 31
0.0
  0
LINE
  5
8561A
330
1F
100
AcDbEntity
  8
CEN
 48
0.001
100
AcDbLine
 10
2904.365335622639
 20
692.432664650285
 30
0.0
 11
2899.156235622639
 21
692.432664650285
 31
0.0
  0
LINE
  5
8561B
330
1F
100
AcDbEntity
  8
CEN
 48
0.001
100
AcDbLine
 10
2901.756235622639
 20
695.251974650285
 30
0.0
 11
2901.756235622639
 21
689.832664650285
 31
0.0
  0
LINE
  5
8561C
330
1F
100
AcDbEntity
  8
CEN
 48
0.001
100
AcDbLine
 10
2945.818645622639
 20
692.432664650285
 30
0.0
 11
2939.656235622639
 21
692.432664650285
 31
0.0
  0
LINE
  5
8561D
330
1F
100
AcDbEntity
  8
CEN
 48
0.001
100
AcDbLine
 10
2942.756235622639
 20
695.656734650285
 30
0.0
 11
2942.756235622639
 21
689.3326646502847
 31
0.0
  0
LINE
  5
8561E
330
1F
100
AcDbEntity
  8
CEN
  6
CENTER
 62
     1
 48
0.4
370
     0
100
AcDbLine
 10
2922.256235622639
 20
737.346654650285
 30
0.0
 11
2922.256235622639
 21
756.0955046502847
 31
0.0
  0
DIMENSION
  5
8561F
330
1F
100
AcDbEntity
  8
Dim
100
AcDbDimension
  2
*D28
 10
2898.006235622639
 20
681.2416306502846
 30
0.0
 11
2922.256235622639
 21
681.2416306502846
 31
0.0
 70
   160
 71
     5
 42
48.5
 73
     0
 74
     0
 75
     0
  3
01
100
AcDbAlignedDimension
 13
2946.506235622639
 23
691.432664650285
 33
0.0
 14
2898.006235622639
 24
691.6326646502851
 34
0.0
 50
180.0
100
AcDbRotatedDimension
1001
ACAD
1000
DSTYLE
1002
{
1070
    41
1040
3.5
1070
   140
1040
4.0
1002
}
  0
LINE
  5
85620
330
1F
100
AcDbEntity
  8
CEN
 48
0.001
100
AcDbLine
 10
2914.656235622639
 20
751.3326646502847
 30
0.0
 11
2912.93859562264
 21
751.3326646502847
 31
0.0
  0
LINE
  5
85621
330
1F
100
AcDbEntity
  8
CEN
 48
0.001
100
AcDbLine
 10
2914.656235622639
 20
748.332664650285
 30
0.0
 11
2912.668705622639
 21
748.332664650285
 31
0.0
  0
DIMENSION
  5
85622
330
1F
100
AcDbEntity
  8
Dim
100
AcDbDimension
  2
*D29
 10
2894.263425622638
 20
748.3326646502847
 30
0.0
 11
2894.263425622638
 21
737.3374265550473
 31
0.0
 70
   160
  1
M<>
 71
     5
 42
3.0
 73
     0
 74
     0
 75
     0
  3
01
100
AcDbAlignedDimension
 13
2912.93859562264
 23
751.3326646502847
 33
0.0
 14
2912.668705622639
 24
748.332664650285
 34
0.0
 50
90.0
100
AcDbRotatedDimension
1001
ACAD
1000
DSTYLE
1002
{
1070
    41
1040
3.5
1070
   140
1040
4.0
1002
}
  0
DIMENSION
  5
85623
330
1F
100
AcDbEntity
  8
Dim
100
AcDbDimension
  2
*D30
 10
2887.132005622639
 20
689.6326646502849
 30
0.0
 11
2887.132005622639
 21
721.4826646502847
 31
0.0
 70
   160
 71
     5
 42
63.69999999999993
 73
     0
 74
     0
 75
     0
  3
01
100
AcDbAlignedDimension
 13
2913.756235622639
 23
753.332664650285
 33
0.0
 14
2900.006235622639
 24
689.632664650285
 34
0.0
 50
90.0
100
AcDbRotatedDimension
1001
ACAD
1000
DSTYLE
1002
{
1070
    41
1040
3.5
1070
   140
1040
4.0
1002
}
  0
DIMENSION
  5
85624
330
1F
100
AcDbEntity
  8
Dim
100
AcDbDimension
  2
*D31
 10
2945.390915622639
 20
742.8326646502847
 30
0.0
 11
2945.390915622639
 21
746.3326646502852
 31
0.0
 70
   160
 71
     5
 42
7.0
 73
     0
 74
     0
 75
     0
  3
01
100
AcDbAlignedDimension
 13
2932.10623562264
 23
749.8326646502849
 33
0.0
 14
2932.10623562264
 24
742.8326646502847
 34
0.0
 50
90.0
100
AcDbRotatedDimension
1001
ACAD
1000
DSTYLE
1002
{
1070
    41
1040
3.5
1070
   140
1040
4.0
1002
}
  0
DIMENSION
  5
85625
330
1F
100
AcDbEntity
  8
Dim
100
AcDbDimension
  2
*D32
 10
2953.642775622639
 20
739.3326646502847
 30
0.0
 11
2953.642775622639
 21
746.3326646502848
 31
0.0
 70
   160
 71
     5
 42
14.0
 73
     0
 74
     0
 75
     0
  3
01
100
AcDbAlignedDimension
 13
2930.756235622639
 23
753.332664650285
 33
0.0
 14
2926.34034562264
 24
739.3326646502847
 34
0.0
 50
90.0
100
AcDbRotatedDimension
1001
ACAD
1000
DSTYLE
1002
{
1070
    41
1040
3.5
1070
   140
1040
4.0
1002
}
  0
DIMENSION
  5
85626
330
1F
100
AcDbEntity
  8
Dim
100
AcDbDimension
  2
*D33
 10
2985.22722927623
 20
681.6440506502847
 30
0.0
 11
2994.360562609563
 21
681.6440506502847
 31
0.0
 70
   160
 71
     5
 42
2.0
 73
     0
 74
     0
 75
     0
  3
01
100
AcDbAlignedDimension
 13
2983.22722927623
 23
691.6326646502851
 33
0.0
 14
2985.22722927623
 24
691.6326646502851
 34
0.0
100
AcDbRotatedDimension
1001
ACAD
1000
DSTYLE
1002
{
1070
    41
1040
3.5
1070
   140
1040
4.0
1002
}
  0
LINE
  5
85627
330
1F
100
AcDbEntity
  8
CEN
  6
CENTER
 62
     1
 48
0.4
370
     0
100
AcDbLine
 10
2981.82617927623
 20
749.8326646502849
 30
0.0
 11
2986.81963927623
 21
749.8326646502849
 31
0.0
  0
LINE
  5
85628
330
1F
100
AcDbEntity
  8
CEN
  6
CENTER
 62
     1
 48
0.4
370
     0
100
AcDbLine
 10
2981.66334927623
 20
742.8326646502847
 30
0.0
 11
2986.87391927623
 21
742.8326646502847
 31
0.0
  0
LINE
  5
85629
330
1F
100
AcDbEntity
  8
CEN
 48
0.001
100
AcDbLine
 10
2986.13283927623
 20
692.432664650285
 30
0.0
 11
2982.15815927623
 21
692.432664650285
 31
0.0
  0
DIMENSION
  5
8562A
330
1F
100
AcDbEntity
  8
Dim
100
AcDbDimension
  2
*D34
 10
2914.656235622639
 20
763.1939446502847
 30
0.0
 11
2922.256235622639
 21
763.1939446502847
 31
0.0
 70
   160
 71
     5
 42
15.19999999999982
 73
     0
 74
     0
 75
     0
  3
01
100
AcDbAlignedDimension
 13
2929.85623562264
 23
752.0826646502849
 33
0.0
 14
2914.656235622639
 24
752.0826646502849
 34
0.0
100
AcDbRotatedDimension
1001
ACAD
1000
DSTYLE
1002
{
1070
    41
1040
3.5
1070
   140
1040
4.0
1002
}
  0
LWPOLYLINE
  5
8562B
330
1F
100
AcDbEntity
  8
0
100
AcDbPolyline
 90
       69
 70
     0
 43
0.0
 10
2811.202828776178
 20
628.138181870735
 10
2811.236261276177
 20
628.154527870735
 42
-0.02885884
 10
2811.272253276177
 20
628.167468370735
 42
-0.026673404
 10
2811.310927776177
 20
628.176907870735
 42
-0.02531008
 10
2811.352063776177
 20
628.1826768707349
 42
-0.025475964
 10
2811.395603776177
 20
628.1842573707351
 42
-0.024549793
 10
2811.441257776178
 20
628.1816128707347
 42
-0.023269592
 10
2811.488885776178
 20
628.174404370735
 42
-0.021731426
 10
2811.538129276177
 20
628.1627083707348
 42
-0.020452284
 10
2811.588740276177
 20
628.146263370735
 42
-0.0189815
 10
2811.640319776177
 20
628.125284870735
 42
-0.017698589
 10
2811.692535276177
 20
628.099656370735
 42
-0.01640511
 10
2811.744981276178
 20
628.0697248707348
 42
-0.015304796
 10
2811.797267776177
 20
628.035520470735
 42
-0.014262312
 10
2811.849022776177
 20
627.997500670735
 42
-0.01335424
 10
2811.899837276178
 20
627.9558380207348
 42
-0.012553581
 10
2811.949410776177
 20
627.911052720735
 42
-0.011836863
 10
2811.997354776177
 20
627.863429220735
 42
-0.011225014
 10
2812.043454276178
 20
627.8135239207348
 42
-0.010633237
 10
2812.087370776177
 20
627.761700870735
 42
-0.010224365
 10
2812.129026776178
 20
627.7084181207349
 42
-0.0098325156
 10
2812.168167276178
 20
627.6540461707351
 42
-0.009430304
 10
2812.204687276177
 20
627.599248670735
 42
-0.0089305592
 10
2812.238405276177
 20
627.544407970735
 42
-0.0090056016
 10
2812.270030776178
 20
627.488626120735
 42
-0.0089079656
 10
2812.300091776177
 20
627.430841820735
 42
-0.0088046353
 10
2812.328536776177
 20
627.371064420735
 42
-0.0092575764
 10
2812.355014776178
 20
627.309384020735
 42
-0.009560726
 10
2812.379305776179
 20
627.246211870735
 42
-0.0099610349
 10
2812.401010276178
 20
627.181881120735
 42
-0.010359819
 10
2812.419964276177
 20
627.116848770735
 42
-0.010898427
 10
2812.435791276178
 20
627.0515304707351
 42
-0.011450553
 10
2812.448408776177
 20
626.986407220735
 42
-0.012129927
 10
2812.457489776178
 20
626.9219870207351
 42
-0.012873691
 10
2812.463056276177
 20
626.8587262207351
 42
-0.013727758
 10
2812.464867276177
 20
626.797172120735
 42
-0.014700858
 10
2812.463056276177
 20
626.7377091707349
 42
-0.015752394
 10
2812.457489776178
 20
626.680875620735
 42
-0.016978142
 10
2812.448408776177
 20
626.626941820735
 42
-0.018216888
 10
2812.435791276178
 20
626.5763874707347
 42
-0.019662118
 10
2812.419964276177
 20
626.529344770735
 42
-0.020998387
 10
2812.401010276178
 20
626.486198420735
 42
-0.022520474
 10
2812.379305776179
 20
626.4469300707351
 42
-0.023725271
 10
2812.355014776178
 20
626.411807070735
 42
-0.025023702
 10
2812.328536776177
 20
626.3807008207351
 42
-0.025817401
 10
2812.300091776177
 20
626.3537688707351
 42
-0.02644203
 10
2812.270030776178
 20
626.3306957707349
 42
-0.026014213
 10
2812.238405276177
 20
626.311431820735
 42
-0.02671077
 10
2812.204687276177
 20
626.2955251707349
 42
-0.026852129
 10
2812.168167776177
 20
626.282897170735
 42
-0.025938124
 10
2812.129026776178
 20
626.273721020735
 42
-0.026194054
 10
2812.087370276177
 20
626.268539270735
 42
-0.025526583
 10
2812.043454276178
 20
626.2674259707351
 42
-0.02443969
 10
2811.997355776179
 20
626.2707499707349
 42
-0.022981757
 10
2811.949410776177
 20
626.278489120735
 42
-0.021767912
 10
2811.899832776177
 20
626.290952870735
 42
-0.020213622
 10
2811.849022776177
 20
626.3079588707348
 42
-0.018787547
 10
2811.797285776178
 20
626.329672420735
 42
-0.017509063
 10
2811.744981276178
 20
626.3558713207351
 42
-0.016553801
 10
2811.692465276177
 20
626.386608620735
 42
-0.015037835
 10
2811.640319776177
 20
626.421163070735
 42
-0.013349496
 10
2811.589016776177
 20
626.459309970735
 42
-0.013502439
 10
2811.538129276177
 20
626.501739320735
 42
-0.014588379
 10
2811.487795276177
 20
626.548616420735
 42
-0.010959182
 10
2811.441257776178
 20
626.594691770735
 42
-0.0048428546
 10
2811.399906776177
 20
626.6380085207351
 42
-0.013450492
 10
2811.352063776177
 20
626.696619570735
 42
-0.021216495
 10
2811.285588776178
 20
626.7897231707351
 42
-0.010634424
 10
2811.202828776178
 20
626.9134350707351
 42
-0.005802843
  0
ARC
  5
8562C
330
1F
100
AcDbEntity
  8
0
370
     0
100
AcDbCircle
 10
2812.469867916893
 20
627.525808470735
 30
0.0
 40
1.407263076021586
100
AcDbArc
 50
154.2050311124148
 51
205.7949688875852
  0
LWPOLYLINE
  5
8562D
330
1F
100
AcDbEntity
  8
0
100
AcDbPolyline
 90
       69
 70
     0
 43
0.0
 10
2811.198909776178
 20
624.4599560609001
 10
2811.232342276177
 20
624.4763020609001
 42
-0.02885884
 10
2811.268334276177
 20
624.4892425609001
 42
-0.026673404
 10
2811.307008776178
 20
624.4986820609001
 42
-0.02531008
 10
2811.348144776177
 20
624.5044510609001
 42
-0.025475964
 10
2811.391684776177
 20
624.5060315608999
 42
-0.024549793
 10
2811.437338776177
 20
624.5033870609002
 42
-0.023269592
 10
2811.484966776178
 20
624.4961785609001
 42
-0.021731426
 10
2811.534210276178
 20
624.4844825609001
 42
-0.020452284
 10
2811.584821276177
 20
624.4680375609001
 42
-0.0189815
 10
2811.636400776178
 20
624.4470590609003
 42
-0.017698589
 10
2811.688616276177
 20
624.4214305609001
 42
-0.01640511
 10
2811.741062276178
 20
624.3914990609003
 42
-0.015304796
 10
2811.793348776177
 20
624.3572946609001
 42
-0.014262312
 10
2811.845103776178
 20
624.3192748609001
 42
-0.01335424
 10
2811.895918276178
 20
624.2776122109003
 42
-0.012553581
 10
2811.945491776179
 20
624.2328269109001
 42
-0.011836863
 10
2811.993435776177
 20
624.1852034108999
 42
-0.011225014
 10
2812.039535276178
 20
624.1352981109002
 42
-0.010633237
 10
2812.083451776179
 20
624.0834750609001
 42
-0.010224365
 10
2812.125107776178
 20
624.0301923109001
 42
-0.0098325156
 10
2812.164248276178
 20
623.9758203609
 42
-0.009430304
 10
2812.200768276178
 20
623.9210228608999
 42
-0.0089305592
 10
2812.234486276177
 20
623.8661821608999
 42
-0.0090056016
 10
2812.266111776178
 20
623.8104003109001
 42
-0.0089079656
 10
2812.296172776177
 20
623.7526160108999
 42
-0.0088046353
 10
2812.324617776177
 20
623.6928386109001
 42
-0.0092575764
 10
2812.351095776179
 20
623.6311582109001
 42
-0.009560726
 10
2812.375386776178
 20
623.5679860609001
 42
-0.0099610349
 10
2812.397091276177
 20
623.5036553109003
 42
-0.010359819
 10
2812.416045276178
 20
623.4386229609001
 42
-0.010898427
 10
2812.431872276178
 20
623.3733046609001
 42
-0.011450553
 10
2812.444489776178
 20
623.3081814109001
 42
-0.012129927
 10
2812.453570776177
 20
623.2437612108998
 42
-0.012873691
 10
2812.459137276178
 20
623.1805004108998
 42
-0.013727758
 10
2812.460948276178
 20
623.1189463109001
 42
-0.014700858
 10
2812.459137276178
 20
623.0594833609001
 42
-0.015752394
 10
2812.453570776177
 20
623.0026498109001
 42
-0.016978142
 10
2812.444489776178
 20
622.9487160109003
 42
-0.018216888
 10
2812.431872276178
 20
622.8981616609003
 42
-0.019662118
 10
2812.416045276178
 20
622.8511189608998
 42
-0.020998387
 10
2812.397091276177
 20
622.8079726109001
 42
-0.022520474
 10
2812.375386776178
 20
622.7687042609001
 42
-0.023725271
 10
2812.351095776179
 20
622.7335812609001
 42
-0.025023702
 10
2812.324617776177
 20
622.7024750109001
 42
-0.025817401
 10
2812.296172776177
 20
622.6755430608999
 42
-0.02644203
 10
2812.266111776178
 20
622.6524699609001
 42
-0.026014213
 10
2812.234486276177
 20
622.6332060109001
 42
-0.02671077
 10
2812.200768276178
 20
622.6172993609001
 42
-0.026852129
 10
2812.164248776177
 20
622.6046713608999
 42
-0.025938124
 10
2812.125107776178
 20
622.5954952109001
 42
-0.026194054
 10
2812.083451276177
 20
622.5903134609001
 42
-0.025526583
 10
2812.039535276178
 20
622.5892001609
 42
-0.02443969
 10
2811.993436776178
 20
622.5925241609001
 42
-0.022981757
 10
2811.945491776179
 20
622.6002633109001
 42
-0.021767912
 10
2811.895913776177
 20
622.6127270608999
 42
-0.020213622
 10
2811.845103776178
 20
622.6297330609001
 42
-0.018787547
 10
2811.793366776178
 20
622.6514466109001
 42
-0.017509063
 10
2811.741062276178
 20
622.6776455109001
 42
-0.016553801
 10
2811.688546276177
 20
622.7083828109003
 42
-0.015037835
 10
2811.636400776178
 20
622.7429372609001
 42
-0.013349496
 10
2811.585097776177
 20
622.7810841609001
 42
-0.013502439
 10
2811.534210276178
 20
622.8235135109001
 42
-0.014588379
 10
2811.483876276177
 20
622.8703906109001
 42
-0.010959182
 10
2811.437338776177
 20
622.9164659609002
 42
-0.0048428546
 10
2811.395987776178
 20
622.9597827109
 42
-0.013450492
 10
2811.348144776177
 20
623.0183937609001
 42
-0.021216495
 10
2811.281669776178
 20
623.1114973609001
 42
-0.010634424
 10
2811.198909776178
 20
623.2352092609001
 42
-0.005802843
  0
ARC
  5
8562E
330
1F
100
AcDbEntity
  8
0
370
     0
100
AcDbCircle
 10
2812.465948916893
 20
623.8475826609001
 30
0.0
 40
1.407263076021586
100
AcDbArc
 50
154.2050311124148
 51
205.7949688875852
  0
LWPOLYLINE
  5
8562F
330
1F
100
AcDbEntity
  8
0
100
AcDbPolyline
 90
       69
 70
     0
 43
0.0
 10
2817.824481654473
 20
624.3151700329987
 10
2817.857914154472
 20
624.3315160329987
 42
-0.02885884
 10
2817.893906154472
 20
624.3444565329987
 42
-0.026673404
 10
2817.932580654474
 20
624.3538960329987
 42
-0.02531008
 10
2817.973716654472
 20
624.3596650329987
 42
-0.025475964
 10
2818.017256654472
 20
624.3612455329987
 42
-0.024549793
 10
2818.062910654473
 20
624.3586010329988
 42
-0.023269592
 10
2818.110538654473
 20
624.3513925329986
 42
-0.021731426
 10
2818.159782154474
 20
624.3396965329987
 42
-0.020452284
 10
2818.210393154472
 20
624.3232515329987
 42
-0.0189815
 10
2818.261972654472
 20
624.3022730329989
 42
-0.017698589
 10
2818.314188154472
 20
624.2766445329987
 42
-0.01640511
 10
2818.366634154473
 20
624.2467130329989
 42
-0.015304796
 10
2818.418920654472
 20
624.2125086329987
 42
-0.014262312
 10
2818.470675654474
 20
624.1744888329987
 42
-0.01335424
 10
2818.521490154473
 20
624.1328261829989
 42
-0.012553581
 10
2818.571063654472
 20
624.0880408829987
 42
-0.011836863
 10
2818.619007654473
 20
624.0404173829987
 42
-0.011225014
 10
2818.665107154473
 20
623.9905120829988
 42
-0.010633237
 10
2818.709023654472
 20
623.9386890329987
 42
-0.010224365
 10
2818.750679654473
 20
623.8854062829987
 42
-0.0098325156
 10
2818.789820154473
 20
623.8310343329989
 42
-0.009430304
 10
2818.826340154473
 20
623.7762368329987
 42
-0.0089305592
 10
2818.860058154472
 20
623.7213961329987
 42
-0.0090056016
 10
2818.891683654473
 20
623.6656142829986
 42
-0.0089079656
 10
2818.921744654472
 20
623.6078299829987
 42
-0.0088046353
 10
2818.950189654472
 20
623.5480525829987
 42
-0.0092575764
 10
2818.976667654474
 20
623.4863721829987
 42
-0.009560726
 10
2819.000958654473
 20
623.4232000329987
 42
-0.0099610349
 10
2819.022663154473
 20
623.3588692829989
 42
-0.010359819
 10
2819.041617154474
 20
623.2938369329986
 42
-0.010898427
 10
2819.057444154474
 20
623.2285186329987
 42
-0.011450553
 10
2819.070061654473
 20
623.1633953829986
 42
-0.012129927
 10
2819.079142654473
 20
623.0989751829987
 42
-0.012873691
 10
2819.084709154473
 20
623.0357143829989
 42
-0.013727758
 10
2819.086520154474
 20
622.9741602829987
 42
-0.014700858
 10
2819.084709154473
 20
622.9146973329987
 42
-0.015752394
 10
2819.079142654473
 20
622.8578637829987
 42
-0.016978142
 10
2819.070061654473
 20
622.8039299829987
 42
-0.018216888
 10
2819.057444154474
 20
622.7533756329989
 42
-0.019662118
 10
2819.041617154474
 20
622.7063329329987
 42
-0.020998387
 10
2819.022663154473
 20
622.6631865829987
 42
-0.022520474
 10
2819.000958654473
 20
622.6239182329988
 42
-0.023725271
 10
2818.976667654474
 20
622.5887952329989
 42
-0.025023702
 10
2818.950189654472
 20
622.5576889829989
 42
-0.025817401
 10
2818.921744654472
 20
622.5307570329987
 42
-0.02644203
 10
2818.891683654473
 20
622.5076839329987
 42
-0.026014213
 10
2818.860058154472
 20
622.4884199829987
 42
-0.02671077
 10
2818.826340154473
 20
622.4725133329987
 42
-0.026852129
 10
2818.789820654472
 20
622.4598853329987
 42
-0.025938124
 10
2818.750679654473
 20
622.4507091829987
 42
-0.026194054
 10
2818.709023154472
 20
622.4455274329987
 42
-0.025526583
 10
2818.665107154473
 20
622.4444141329987
 42
-0.02443969
 10
2818.619008654474
 20
622.4477381329989
 42
-0.022981757
 10
2818.571063654472
 20
622.4554772829987
 42
-0.021767912
 10
2818.521485654472
 20
622.4679410329987
 42
-0.020213622
 10
2818.470675654474
 20
622.4849470329989
 42
-0.018787547
 10
2818.418938654473
 20
622.5066605829987
 42
-0.017509063
 10
2818.366634154473
 20
622.5328594829989
 42
-0.016553801
 10
2818.314118154472
 20
622.5635967829987
 42
-0.015037835
 10
2818.261972654472
 20
622.5981512329987
 42
-0.013349496
 10
2818.210669654472
 20
622.6362981329987
 42
-0.013502439
 10
2818.159782154474
 20
622.6787274829987
 42
-0.014588379
 10
2818.109448154472
 20
622.7256045829987
 42
-0.010959182
 10
2818.062910654473
 20
622.7716799329987
 42
-0.0048428546
 10
2818.021559654473
 20
622.8149966829987
 42
-0.013450492
 10
2817.973716654472
 20
622.8736077329987
 42
-0.021216495
 10
2817.907241654473
 20
622.9667113329989
 42
-0.010634424
 10
2817.824481654473
 20
623.0904232329987
 42
-0.005802843
  0
ARC
  5
85630
330
1F
100
AcDbEntity
  8
0
370
     0
100
AcDbCircle
 10
2819.091520795188
 20
623.7027966329987
 30
0.0
 40
1.407263076021586
100
AcDbArc
 50
154.2050311124148
 51
205.7949688875852
  0
LWPOLYLINE
  5
85631
330
1F
100
AcDbEntity
  8
0
100
AcDbPolyline
 90
       69
 70
     0
 43
0.0
 10
2817.820562654473
 20
620.6369442231639
 10
2817.853995154472
 20
620.6532902231639
 42
-0.02885884
 10
2817.889987154472
 20
620.6662307231639
 42
-0.026673404
 10
2817.928661654474
 20
620.6756702231639
 42
-0.02531008
 10
2817.969797654473
 20
620.6814392231639
 42
-0.025475964
 10
2818.013337654472
 20
620.6830197231639
 42
-0.024549793
 10
2818.058991654473
 20
620.680375223164
 42
-0.023269592
 10
2818.106619654474
 20
620.6731667231639
 42
-0.021731426
 10
2818.155863154473
 20
620.6614707231639
 42
-0.020452284
 10
2818.206474154473
 20
620.6450257231639
 42
-0.0189815
 10
2818.258053654473
 20
620.6240472231637
 42
-0.017698589
 10
2818.310269154472
 20
620.5984187231639
 42
-0.01640511
 10
2818.362715154473
 20
620.5684872231637
 42
-0.015304796
 10
2818.415001654472
 20
620.5342828231639
 42
-0.014262312
 10
2818.466756654473
 20
620.4962630231639
 42
-0.01335424
 10
2818.517571154474
 20
620.454600373164
 42
-0.012553581
 10
2818.567144654473
 20
620.4098150731639
 42
-0.011836863
 10
2818.615088654472
 20
620.3621915731639
 42
-0.011225014
 10
2818.661188154473
 20
620.3122862731637
 42
-0.010633237
 10
2818.705104654473
 20
620.2604632231639
 42
-0.010224365
 10
2818.746760654474
 20
620.2071804731639
 42
-0.0098325156
 10
2818.785901154473
 20
620.1528085231639
 42
-0.009430304
 10
2818.822421154473
 20
620.098011023164
 42
-0.0089305592
 10
2818.856139154473
 20
620.043170323164
 42
-0.0090056016
 10
2818.887764654474
 20
619.9873884731639
 42
-0.0089079656
 10
2818.917825654474
 20
619.9296041731637
 42
-0.0088046353
 10
2818.946270654473
 20
619.8698267731639
 42
-0.0092575764
 10
2818.972748654474
 20
619.8081463731639
 42
-0.009560726
 10
2818.997039654473
 20
619.7449742231639
 42
-0.0099610349
 10
2819.018744154473
 20
619.6806434731637
 42
-0.010359819
 10
2819.037698154474
 20
619.6156111231639
 42
-0.010898427
 10
2819.053525154473
 20
619.5502928231639
 42
-0.011450553
 10
2819.066142654472
 20
619.4851695731639
 42
-0.012129927
 10
2819.075223654473
 20
619.420749373164
 42
-0.012873691
 10
2819.080790154473
 20
619.3574885731639
 42
-0.013727758
 10
2819.082601154474
 20
619.2959344731639
 42
-0.014700858
 10
2819.080790154473
 20
619.2364715231639
 42
-0.015752394
 10
2819.075223654473
 20
619.1796379731639
 42
-0.016978142
 10
2819.066142654472
 20
619.1257041731637
 42
-0.018216888
 10
2819.053525154473
 20
619.075149823164
 42
-0.019662118
 10
2819.037698154474
 20
619.0281071231638
 42
-0.020998387
 10
2819.018744154473
 20
618.9849607731639
 42
-0.022520474
 10
2818.997039654473
 20
618.9456924231639
 42
-0.023725271
 10
2818.972748654474
 20
618.9105694231638
 42
-0.025023702
 10
2818.946270654473
 20
618.8794631731639
 42
-0.025817401
 10
2818.917825654474
 20
618.8525312231639
 42
-0.02644203
 10
2818.887764654474
 20
618.8294581231639
 42
-0.026014213
 10
2818.856139154473
 20
618.8101941731639
 42
-0.02671077
 10
2818.822421154473
 20
618.7942875231639
 42
-0.026852129
 10
2818.785901654472
 20
618.7816595231637
 42
-0.025938124
 10
2818.746760654474
 20
618.7724833731639
 42
-0.026194054
 10
2818.705104154473
 20
618.7673016231639
 42
-0.025526583
 10
2818.661188154473
 20
618.766188323164
 42
-0.02443969
 10
2818.615089654473
 20
618.7695123231637
 42
-0.022981757
 10
2818.567144654473
 20
618.7772514731639
 42
-0.021767912
 10
2818.517566654473
 20
618.789715223164
 42
-0.020213622
 10
2818.466756654473
 20
618.8067212231637
 42
-0.018787547
 10
2818.415019654473
 20
618.8284347731637
 42
-0.017509063
 10
2818.362715154473
 20
618.8546336731639
 42
-0.016553801
 10
2818.310199154472
 20
618.8853709731637
 42
-0.015037835
 10
2818.258053654473
 20
618.9199254231639
 42
-0.013349496
 10
2818.206750654472
 20
618.9580723231639
 42
-0.013502439
 10
2818.155863154473
 20
619.0005016731637
 42
-0.014588379
 10
2818.105529154472
 20
619.0473787731639
 42
-0.010959182
 10
2818.058991654473
 20
619.0934541231639
 42
-0.0048428546
 10
2818.017640654474
 20
619.136770873164
 42
-0.013450492
 10
2817.969797654473
 20
619.1953819231639
 42
-0.021216495
 10
2817.903322654474
 20
619.2884855231639
 42
-0.010634424
 10
2817.820562654473
 20
619.4121974231639
 42
-0.005802843
  0
ARC
  5
85632
330
1F
100
AcDbEntity
  8
0
370
     0
100
AcDbCircle
 10
2819.087601795188
 20
620.0245708231639
 30
0.0
 40
1.407263076021586
100
AcDbArc
 50
154.2050311124148
 51
205.7949688875852
  0
LWPOLYLINE
  5
8592B
330
1F
100
AcDbEntity
  8
0
100
AcDbPolyline
 90
       69
 70
     0
 43
0.0
 10
2800.409068085322
 20
589.3028539876126
 10
2800.442500585321
 20
589.3191999876125
 42
-0.02885884
 10
2800.478492585321
 20
589.3321404876125
 42
-0.026673404
 10
2800.517167085323
 20
589.3415799876126
 42
-0.02531008
 10
2800.558303085322
 20
589.3473489876125
 42
-0.025475964
 10
2800.601843085321
 20
589.3489294876125
 42
-0.024549793
 10
2800.647497085322
 20
589.3462849876126
 42
-0.023269592
 10
2800.695125085323
 20
589.3390764876126
 42
-0.021731426
 10
2800.744368585322
 20
589.3273804876125
 42
-0.020452284
 10
2800.794979585322
 20
589.3109354876125
 42
-0.0189815
 10
2800.846559085322
 20
589.2899569876123
 42
-0.017698589
 10
2800.898774585321
 20
589.2643284876125
 42
-0.01640511
 10
2800.951220585322
 20
589.2343969876123
 42
-0.015304796
 10
2801.003507085321
 20
589.2001925876126
 42
-0.014262312
 10
2801.055262085322
 20
589.1621727876126
 42
-0.01335424
 10
2801.106076585323
 20
589.1205101376126
 42
-0.012553581
 10
2801.155650085322
 20
589.0757248376125
 42
-0.011836863
 10
2801.203594085321
 20
589.0281013376125
 42
-0.011225014
 10
2801.249693585322
 20
588.9781960376124
 42
-0.010633237
 10
2801.293610085322
 20
588.9263729876126
 42
-0.010224365
 10
2801.335266085323
 20
588.8730902376125
 42
-0.0098325156
 10
2801.374406585322
 20
588.8187182876126
 42
-0.009430304
 10
2801.410926585322
 20
588.7639207876126
 42
-0.0089305592
 10
2801.444644585322
 20
588.7090800876126
 42
-0.0090056016
 10
2801.476270085323
 20
588.6532982376126
 42
-0.0089079656
 10
2801.506331085322
 20
588.5955139376124
 42
-0.0088046353
 10
2801.534776085322
 20
588.5357365376125
 42
-0.0092575764
 10
2801.561254085323
 20
588.4740561376125
 42
-0.009560726
 10
2801.585545085322
 20
588.4108839876126
 42
-0.0099610349
 10
2801.607249585322
 20
588.3465532376123
 42
-0.010359819
 10
2801.626203585322
 20
588.2815208876126
 42
-0.010898427
 10
2801.642030585322
 20
588.2162025876125
 42
-0.011450553
 10
2801.654648085321
 20
588.1510793376126
 42
-0.012129927
 10
2801.663729085322
 20
588.0866591376125
 42
-0.012873691
 10
2801.669295585322
 20
588.0233983376125
 42
-0.013727758
 10
2801.671106585323
 20
587.9618442376125
 42
-0.014700858
 10
2801.669295585322
 20
587.9023812876125
 42
-0.015752394
 10
2801.663729085322
 20
587.8455477376125
 42
-0.016978142
 10
2801.654648085321
 20
587.7916139376123
 42
-0.018216888
 10
2801.642030585322
 20
587.7410595876126
 42
-0.019662118
 10
2801.626203585322
 20
587.6940168876124
 42
-0.020998387
 10
2801.607249585322
 20
587.6508705376125
 42
-0.022520474
 10
2801.585545085322
 20
587.6116021876125
 42
-0.023725271
 10
2801.561254085323
 20
587.5764791876124
 42
-0.025023702
 10
2801.534776085322
 20
587.5453729376125
 42
-0.025817401
 10
2801.506331085322
 20
587.5184409876125
 42
-0.02644203
 10
2801.476270085323
 20
587.4953678876125
 42
-0.026014213
 10
2801.444644585322
 20
587.4761039376125
 42
-0.02671077
 10
2801.410926585322
 20
587.4601972876125
 42
-0.026852129
 10
2801.374407085321
 20
587.4475692876123
 42
-0.025938124
 10
2801.335266085323
 20
587.4383931376126
 42
-0.026194054
 10
2801.293609585322
 20
587.4332113876126
 42
-0.025526583
 10
2801.249693585322
 20
587.4320980876126
 42
-0.02443969
 10
2801.203595085322
 20
587.4354220876124
 42
-0.022981757
 10
2801.155650085322
 20
587.4431612376126
 42
-0.021767912
 10
2801.106072085322
 20
587.4556249876126
 42
-0.020213622
 10
2801.055262085322
 20
587.4726309876124
 42
-0.018787547
 10
2801.003525085322
 20
587.4943445376124
 42
-0.017509063
 10
2800.951220585322
 20
587.5205434376125
 42
-0.016553801
 10
2800.898704585321
 20
587.5512807376123
 42
-0.015037835
 10
2800.846559085322
 20
587.5858351876125
 42
-0.013349496
 10
2800.795256085321
 20
587.6239820876126
 42
-0.013502439
 10
2800.744368585322
 20
587.6664114376124
 42
-0.014588379
 10
2800.694034585321
 20
587.7132885376125
 42
-0.010959182
 10
2800.647497085322
 20
587.7593638876126
 42
-0.0048428546
 10
2800.606146085323
 20
587.8026806376126
 42
-0.013450492
 10
2800.558303085322
 20
587.8612916876126
 42
-0.021216495
 10
2800.491828085323
 20
587.9543952876125
 42
-0.010634424
 10
2800.409068085322
 20
588.0781071876125
 42
-0.005802843
  0
ARC
  5
8592C
330
1F
100
AcDbEntity
  8
0
370
     0
100
AcDbCircle
 10
2801.676107226036
 20
588.6904805876126
 30
0.0
 40
1.407263076021586
100
AcDbArc
 50
154.2050311124148
 51
205.7949688875852
  0
ENDSEC
  0
SECTION
  2
OBJECTS
  0
DICTIONARY
  5
C
330
0
100
AcDbDictionary
281
     1
  3
ACAD_COLOR
350
3F2
  3
ACAD_GROUP
350
D
  3
ACAD_LAYOUT
350
1A
  3
ACAD_MATERIAL
350
3F1
  3
ACAD_MLEADERSTYLE
350
12D6D
  3
ACAD_MLINESTYLE
350
17
  3
ACAD_PLOTSETTINGS
350
19
  3
ACAD_PLOTSTYLENAME
350
E
  3
ACAD_SCALELIST
350
12D4B
  3
ACAD_TABLESTYLE
350
12D49
  3
ACAD_VBA
350
13F35
  3
ACAD_VISUALSTYLE
350
12D38
  3
ACDB_RECOMPOSE_DATA
350
12DCF
  3
AcDbVariableDictionary
350
125BE
  3
ASE_INDEX_DICTIONARY
350
4D011
  3
lxx_dict
350
E28
  0
DICTIONARY
  5
12DD3
330
8
100
AcDbDictionary
280
     1
281
     1
  0
DICTIONARY
  5
7EA
330
2
100
AcDbDictionary
280
     1
281
     1
  3
ACAD_LAYERFILTERS
360
47712
  3
ACAD_LAYERSTATES
360
7EB
  3
ACLYDICTIONARY
360
47711
  0
DICTIONARY
  5
12D81
330
10
100
AcDbDictionary
280
     1
281
     1
  3
ADSK_XREC_LAYER_RECONCILED
360
12D82
  0
DICTIONARY
  5
12D8B
330
876E
100
AcDbDictionary
280
     1
281
     1
  3
ADSK_XREC_LAYER_RECONCILED
360
12D8C
  0
DICTIONARY
  5
12D8D
330
F6EE
100
AcDbDictionary
280
     1
281
     1
  3
ADSK_XREC_LAYER_RECONCILED
360
12D8E
  0
DICTIONARY
  5
1E3C0
330
1E3BF
100
AcDbDictionary
280
     1
281
     1
  0
DICTIONARY
  5
85148
330
1F
100
AcDbDictionary
280
     1
281
     1
  3
ACAD_SORTENTS
360
85149
  0
DICTIONARY
  5
858D5
330
47460
100
AcDbDictionary
280
     1
281
     1
  0
DICTIONARY
  5
85953
330
85841
100
AcDbDictionary
280
     1
281
     1
  3
ACAD_MTEXT_2008_RT
360
85954
  0
DICTIONARY
  5
85955
330
85885
100
AcDbDictionary
280
     1
281
     1
  3
ACAD_MTEXT_2008_RT
360
85956
  0
DICTIONARY
  5
85957
330
85886
100
AcDbDictionary
280
     1
281
     1
  3
ACAD_MTEXT_2008_RT
360
85958
  0
DICTIONARY
  5
85959
330
858AB
100
AcDbDictionary
280
     1
281
     1
  3
ACAD_MTEXT_2008_RT
360
8595A
  0
DICTIONARY
  5
8595B
330
858AE
100
AcDbDictionary
280
     1
281
     1
  3
ACAD_MTEXT_2008_RT
360
8595C
  0
DICTIONARY
  5
8595D
330
858AF
100
AcDbDictionary
280
     1
281
     1
  3
ACAD_MTEXT_2008_RT
360
8595E
  0
DICTIONARY
  5
8595F
330
858B9
100
AcDbDictionary
280
     1
281
     1
  3
ACAD_MTEXT_2008_RT
360
85960
  0
DICTIONARY
  5
85961
330
858BA
100
AcDbDictionary
280
     1
281
     1
  3
ACAD_MTEXT_2008_RT
360
85962
  0
DICTIONARY
  5
85963
330
858BB
100
AcDbDictionary
280
     1
281
     1
  3
ACAD_MTEXT_2008_RT
360
85964
  0
DICTIONARY
  5
85965
330
858C9
100
AcDbDictionary
280
     1
281
     1
  3
ACAD_MTEXT_2008_RT
360
85966
  0
DICTIONARY
  5
85967
330
858CA
100
AcDbDictionary
280
     1
281
     1
  3
ACAD_MTEXT_2008_RT
360
85968
  0
DICTIONARY
  5
85969
330
858CB
100
AcDbDictionary
280
     1
281
     1
  3
ACAD_MTEXT_2008_RT
360
8596A
  0
DICTIONARY
  5
85951
330
81C01
100
AcDbDictionary
280
     1
281
     1
  3
ACAD_MTEXT_2008_RT
360
85952
  0
DICTIONARY
  5
3F2
102
{ACAD_REACTORS
330
C
102
}
330
C
100
AcDbDictionary
281
     1
  0
DICTIONARY
  5
D
102
{ACAD_REACTORS
330
C
102
}
330
C
100
AcDbDictionary
281
     1
  0
DICTIONARY
  5
1A
102
{ACAD_REACTORS
330
C
102
}
330
C
100
AcDbDictionary
281
     1
  3
Layout1
350
1E
  3
Model
350
22
  0
DICTIONARY
  5
3F1
102
{ACAD_REACTORS
330
C
102
}
330
C
100
AcDbDictionary
281
     1
  3
ByBlock
350
12D30
  3
ByLayer
350
12D28
  3
Global
350
6897
  0
DICTIONARY
  5
12D6D
102
{ACAD_REACTORS
330
C
102
}
330
C
100
AcDbDictionary
281
     1
  3
Standard
350
12D6E
  0
DICTIONARY
  5
17
102
{ACAD_REACTORS
330
C
102
}
330
C
100
AcDbDictionary
281
     1
  3
Standard
350
18
  0
DICTIONARY
  5
19
102
{ACAD_REACTORS
330
C
102
}
330
C
100
AcDbDictionary
281
     1
  3
ISO A4 标题栏 (纵向) - 无输出设备
350
176E
  0
ACDBDICTIONARYWDFLT
  5
E
102
{ACAD_REACTORS
330
C
102
}
330
C
100
AcDbDictionary
281
     1
  3
Normal
350
F
100
AcDbDictionaryWithDefault
340
F
  0
DICTIONARY
  5
12D4B
102
{ACAD_REACTORS
330
C
102
}
330
C
100
AcDbDictionary
281
     1
  3
A0
350
12D4C
  3
A1
350
12D4D
  3
A2
350
12D4E
  3
A3
350
12D4F
  3
A4
350
12D50
  3
A5
350
12D51
  3
A6
350
12D52
  3
A7
350
12D53
  3
A8
350
12D54
  3
A9
350
12D55
  3
B0
350
12D56
  3
B1
350
12D57
  3
B2
350
12D58
  3
B3
350
12D59
  3
B4
350
12D5A
  3
B5
350
12D5B
  3
B6
350
12D5C
  3
B7
350
12D5D
  3
B8
350
12D5E
  3
B9
350
12D5F
  3
C0
350
12D60
  3
C1
350
12D61
  3
C2
350
12D62
  3
C3
350
12D63
  3
C4
350
12D64
  3
C5
350
12D65
  3
C6
350
12D66
  3
C7
350
12D67
  3
C8
350
12D68
  3
C9
350
12D69
  3
D0
350
12D6A
  3
D1
350
12D6B
  3
D2
350
12D6C
  0
DICTIONARY
  5
12D49
102
{ACAD_REACTORS
330
C
102
}
330
C
100
AcDbDictionary
281
     1
  3
Standard
350
12D4A
  0
DICTIONARY
  5
13F35
102
{ACAD_REACTORS
330
C
102
}
330
C
100
AcDbDictionary
281
     1
  3
VBAProject
350
13F36
  0
DICTIONARY
  5
12D38
102
{ACAD_REACTORS
330
C
102
}
330
C
100
AcDbDictionary
281
     1
  3
2dWireframe
350
12D3E
  3
3D Hidden
350
12D40
  3
3dWireframe
350
12D3F
  3
Basic
350
12D3D
  3
Brighten
350
12D44
  3
ColorChange
350
12D48
  3
Conceptual
350
12D41
  3
Dim
350
12D43
  3
Facepattern
350
12D47
  3
Flat
350
12D39
  3
FlatWithEdges
350
12D3A
  3
Gouraud
350
12D3B
  3
GouraudWithEdges
350
12D3C
  3
Linepattern
350
12D46
  3
Realistic
350
12D42
  3
Thicken
350
12D45
  3
Wireframe
350
1E3C4
  0
XRECORD
  5
12DCF
102
{ACAD_REACTORS
330
C
102
}
330
C
100
AcDbXrecord
280
     1
 90
        1
330
12D4A
330
81C01
330
85841
330
85885
330
85886
330
858AB
330
858AE
330
858AF
330
858B9
330
858BA
330
858BB
330
858C9
330
858CA
330
858CB
  0
DICTIONARY
  5
125BE
102
{ACAD_REACTORS
330
C
102
}
330
C
100
AcDbDictionary
281
     1
  3
CANNOSCALE
350
12DE7
  3
CMLEADERSTYLE
350
12DE6
  3
CTABLESTYLE
350
12DE5
  3
DIMASSOC
350
125BF
  3
INDEXCTL
350
13324
  3
LIGHTINGUNITS
350
12EB5
  3
MSLTSCALE
350
12EB4
  3
PROJECTNAME
350
125C0
  3
SORTENTS
350
13323
  0
DICTIONARY
  5
4D011
102
{ACAD_REACTORS
330
C
102
}
330
C
100
AcDbDictionary
281
     1
  3
ASEBlockHierarchyIndexRecord
350
4D012
1001
DCO15
1040
1903776529.214
  0
DICTIONARY
  5
E28
102
{ACAD_REACTORS
330
C
102
}
330
C
100
AcDbDictionary
281
     1
  3
lxx_dimth
350
E29
  0
DICTIONARY
  5
47712
102
{ACAD_REACTORS
330
7EA
102
}
330
7EA
100
AcDbDictionary
281
     1
  0
DICTIONARY
  5
7EB
102
{ACAD_REACTORS
330
7EA
102
}
330
7EA
100
AcDbDictionary
281
     1
  0
DICTIONARY
  5
47711
102
{ACAD_REACTORS
330
7EA
102
}
330
7EA
100
AcDbDictionary
281
     1
1001
ACAD
1000
<All
  0
XRECORD
  5
12D82
102
{ACAD_REACTORS
330
12D81
102
}
330
12D81
100
AcDbXrecord
280
     1
290
     1
  0
XRECORD
  5
12D8C
102
{ACAD_REACTORS
330
12D8B
102
}
330
12D8B
100
AcDbXrecord
280
     1
290
     1
  0
XRECORD
  5
12D8E
102
{ACAD_REACTORS
330
12D8D
102
}
330
12D8D
100
AcDbXrecord
280
     1
290
     1
  0
SORTENTSTABLE
  5
85149
102
{ACAD_REACTORS
330
85148
102
}
330
85148
100
AcDbSortentsTable
330
1F
331
6C94
  5
6C94
331
F503
  5
F503
331
8AE6
  5
8AE6
331
6CA5
  5
6CA5
331
4BB84
  5
4BB84
331
F513
  5
F513
331
6CB5
  5
6CB5
331
6C8F
  5
6C8F
331
F4FE
  5
F4FE
331
6CA0
  5
6CA0
331
F50E
  5
F50E
331
6CB0
  5
6CB0
331
F4F9
  5
F4F9
331
F51E
  5
F51E
331
6C9B
  5
6C9B
331
F509
  5
F509
331
6CAB
  5
6CAB
331
F519
  5
F519
331
6C95
  5
6C95
331
F504
  5
F504
331
8AE7
  5
8AE7
331
6CA6
  5
6CA6
331
F514
  5
F514
331
4BB85
  5
4BB85
331
6CB6
  5
6CB6
331
6C90
  5
6C90
331
F4FF
  5
F4FF
331
F4F6
  5
F4F6
331
8AE2
  5
8AE2
331
6CA1
  5
6CA1
331
F50F
  5
F50F
331
6CB1
  5
6CB1
331
F4FA
  5
F4FA
331
F51F
  5
F51F
331
6C9C
  5
6C9C
331
F50A
  5
F50A
331
6CAC
  5
6CAC
331
6C96
  5
6C96
331
8AE8
  5
8AE8
331
6CA7
  5
6CA7
331
F515
  5
F515
331
4BB86
  5
4BB86
331
6CB8
  5
6CB8
331
6CB7
  5
6CB7
331
6C91
  5
6C91
331
F500
  5
F500
331
6CA2
  5
6CA2
331
F4F7
  5
F4F7
331
8AE3
  5
8AE3
331
F510
  5
F510
331
6CB2
  5
6CB2
331
F4FB
  5
F4FB
331
6C9D
  5
6C9D
331
F50B
  5
F50B
331
6CAD
  5
6CAD
331
F51B
  5
F51B
331
81C01
  5
81C01
331
6C98
  5
6C98
331
6C97
  5
6C97
331
F506
  5
F506
331
8AE9
  5
8AE9
331
6CA8
  5
6CA8
331
F516
  5
F516
331
4BB87
  5
4BB87
331
6C92
  5
6C92
331
F501
  5
F501
331
8AE4
  5
8AE4
331
6CA3
  5
6CA3
331
F511
  5
F511
331
F4FC
  5
F4FC
331
F50C
  5
F50C
331
6CAE
  5
6CAE
331
F51C
  5
F51C
331
6C99
  5
6C99
331
F507
  5
F507
331
8AEA
  5
8AEA
331
6CA9
  5
6CA9
331
F517
  5
F517
331
6C93
  5
6C93
331
F502
  5
F502
331
8AE5
  5
8AE5
331
6CA4
  5
6CA4
331
F512
  5
F512
331
4BB83
  5
4BB83
331
6CB4
  5
6CB4
331
F4FD
  5
F4FD
331
6C9F
  5
6C9F
331
F50D
  5
F50D
331
6CAF
  5
6CAF
331
F51D
  5
F51D
331
F4F8
  5
F4F8
331
6C9A
  5
6C9A
331
F508
  5
F508
331
6CAA
  5
6CAA
331
F518
  5
F518
  0
XRECORD
  5
85954
102
{ACAD_REACTORS
330
85953
102
}
330
85953
100
AcDbXrecord
280
     1
 40
1445.0
  1
\pxqc;HZ LAN
  0
XRECORD
  5
85956
102
{ACAD_REACTORS
330
85955
102
}
330
85955
100
AcDbXrecord
280
     1
 40
1262561.0
  1
\pxqc;档案员{\H0.7x;\P\Fromans|c134;Filing Clerk\fFangSong_GB2312|b0|i0|c134|p49; }
  0
XRECORD
  5
85958
102
{ACAD_REACTORS
330
85957
102
}
330
85957
100
AcDbXrecord
280
     1
 40
650528.0
  1
\pxqc;日期{\Fromans|c134;/Date}
  0
XRECORD
  5
8595A
102
{ACAD_REACTORS
330
85959
102
}
330
85959
100
AcDbXrecord
280
     1
 40
2318748.0
  1
\pxsm0.7;{\f仿宋_GB2312|b0|i0|c134|p49;标准化}\PStand.
  0
XRECORD
  5
8595C
102
{ACAD_REACTORS
330
8595B
102
}
330
8595B
100
AcDbXrecord
280
     1
 40
118135.0
  1
\pxsm0.7;签名\P{\Fromans|c134;Signature} 
  0
XRECORD
  5
8595E
102
{ACAD_REACTORS
330
8595D
102
}
330
8595D
100
AcDbXrecord
280
     1
 40
108939.0
  1
\pxsm0.7,qc;处数\P{\Fromans|c134;Number }
  0
XRECORD
  5
85960
102
{ACAD_REACTORS
330
8595F
102
}
330
8595F
100
AcDbXrecord
280
     1
 40
125762.0
  1
\pxsm0.7;标记\P{\Fromans|c134;Mark}
  0
XRECORD
  5
85962
102
{ACAD_REACTORS
330
85961
102
}
330
85961
100
AcDbXrecord
280
     1
 40
111973.0
  1
\pxsm0.7;审核\P{\Fromans|c134;Checked}
  0
XRECORD
  5
85964
102
{ACAD_REACTORS
330
85963
102
}
330
85963
100
AcDbXrecord
280
     1
 40
137968.0
  1
\pxsm0.7;绘图\P{\Fromans|c134;Drawn\Ftxt|c134; }
  0
XRECORD
  5
85966
102
{ACAD_REACTORS
330
85965
102
}
330
85965
100
AcDbXrecord
280
     1
 40
106320.0
  1
\pxsm0.7;批准\P{\Fromans|c134;Approved}
  0
XRECORD
  5
85968
102
{ACAD_REACTORS
330
85967
102
}
330
85967
100
AcDbXrecord
280
     1
 40
127283.0
  1
\pxsm0.7;工艺\P{\Fromans|c134;Process}
  0
XRECORD
  5
8596A
102
{ACAD_REACTORS
330
85969
102
}
330
85969
100
AcDbXrecord
280
     1
 40
106220.0
  1
\pxsm0.7;日期\P{\Fromans|c134;Date}
  0
XRECORD
  5
85952
102
{ACAD_REACTORS
330
85951
102
}
330
85951
100
AcDbXrecord
280
     1
 40
162863476.0
  1
\A1;\pxql;{\H1.274x;技术参数：\P- 规格: \Fromans|c134;6B\fFangSong_GB2312|b0|i0|c134|p49;     \P- \f仿宋_GB2312|b0|i0|c134|p49;材料\fFangSong_GB2312|b0|i0|c134|p49;: \f仿宋_GB2312|b0|i0|c134|p49;铁\fFangSong_GB2312|b0|i0|c134|p49;\P\f仿宋_GB2312|b0|i0|c134|p49;装配在\f
  1
FangSong_GB2312|b0|i0|c134|p49;HM\f仿宋_GB2312|b0|i0|c134|p49;模块框架用于不封底下壳\fFangSong_GB2312|b0|i0|c134|p49;\P\P\Fromans|c134;Technical specification:\P- Size: 6B\P- Material: Iron\PFor HM frames in housings bulkhead mounting \H0.78494x;\P}  
  0
LAYOUT
  5
1E
102
{ACAD_REACTORS
330
1A
102
}
330
1A
100
AcDbPlotSettings
  1

  2

  4

  6

 40
0.0
 41
0.0
 42
0.0
 43
0.0
 44
0.0
 45
0.0
 46
0.0
 47
0.0
 48
0.0
 49
0.0
140
0.0
141
0.0
142
1.0
143
1.0
 70
     0
 72
     0
 73
     0
 74
     0
  7

 75
     0
147
1.0
 76
     0
 77
     2
 78
   300
148
0.0
149
0.0
100
AcDbLayout
  1
Layout1
 70
     0
 71
     1
 10
0.0
 20
0.0
 11
12.0
 21
9.0
 12
0.0
 22
0.0
 32
0.0
 14
1.000000000000000E+20
 24
1.000000000000000E+20
 34
1.000000000000000E+20
 15
-1.000000000000000E+20
 25
-1.000000000000000E+20
 35
-1.000000000000000E+20
146
0.0
 13
0.0
 23
0.0
 33
0.0
 16
1.0
 26
0.0
 36
0.0
 17
0.0
 27
1.0
 37
0.0
 76
     0
330
1B
  0
LAYOUT
  5
22
102
{ACAD_REACTORS
330
1A
102
}
330
1A
100
AcDbPlotSettings
  1

  2
HP LaserJet P1007
  4
A4
  6

 40
4.519083499908447
 41
4.349743366241455
 42
4.561416625976558
 43
4.349761962890625
 44
210.0156707763672
 45
297.0106506347656
 46
0.9399999999999998
 47
0.0
 48
539.6520813660868
 49
389.7291651948218
140
673.7347763208747
141
583.9261819808298
142
1.0
143
0.6735674979895184
 70
 15028
 72
     1
 73
     0
 74
     4
  7
monochrome.ctb
 75
     0
147
1.484632205361489
 76
     1
 77
     2
 78
   300
148
-539.6520813660868
149
-389.7291651948218
100
AcDbLayout
  1
Model
 70
     0
 71
     0
 10
0.0
 20
0.0
 11
0.0
 21
0.0
 12
0.0
 22
0.0
 32
0.0
 14
0.0
 24
0.0
 34
0.0
 15
0.0
 25
0.0
 35
0.0
146
0.0
 13
0.0
 23
0.0
 33
0.0
 16
0.0
 26
0.0
 36
0.0
 17
0.0
 27
0.0
 37
0.0
 76
     0
330
1F
331
12D1D
  0
MATERIAL
  5
12D30
102
{ACAD_XDICTIONARY
360
12D31
102
}
102
{ACAD_REACTORS
330
3F1
102
}
330
3F1
100
AcDbMaterial
  1
ByBlock
 72
     0
 43
0.0008202099737533
 43
0.0
 43
0.0
 43
0.0
 43
0.0
 43
0.0008202099737533
 43
0.0
 43
0.0
 43
0.0
 43
0.0
 43
1.0
 43
0.0
 43
0.0
 43
0.0
 43
0.0
 43
1.0
 77
     0
 47
0.0008202099737533
 47
0.0
 47
0.0
 47
0.0
 47
0.0
 47
0.0008202099737533
 47
0.0
 47
0.0
 47
0.0
 47
0.0
 47
1.0
 47
0.0
 47
0.0
 47
0.0
 47
0.0
 47
1.0
171
     0
 49
0.0008202099737533
 49
0.0
 49
0.0
 49
0.0
 49
0.0
 49
0.0008202099737533
 49
0.0
 49
0.0
 49
0.0
 49
0.0
 49
1.0
 49
0.0
 49
0.0
 49
0.0
 49
0.0
 49
1.0
175
     0
142
0.0008202099737533
142
0.0
142
0.0
142
0.0
142
0.0
142
0.0008202099737533
142
0.0
142
0.0
142
0.0
142
0.0
142
1.0
142
0.0
142
0.0
142
0.0
142
0.0
142
1.0
179
     0
144
0.0008202099737533
144
0.0
144
0.0
144
0.0
144
0.0
144
0.0008202099737533
144
0.0
144
0.0
144
0.0
144
0.0
144
1.0
144
0.0
144
0.0
144
0.0
144
0.0
144
1.0
147
0.0008202099737533
147
0.0
147
0.0
147
0.0
147
0.0
147
0.0008202099737533
147
0.0
147
0.0
147
0.0
147
0.0
147
1.0
147
0.0
147
0.0
147
0.0
147
0.0
147
1.0
  0
MATERIAL
  5
12D28
102
{ACAD_XDICTIONARY
360
12D29
102
}
102
{ACAD_REACTORS
330
3F1
102
}
330
3F1
100
AcDbMaterial
  1
ByLayer
 72
     0
 43
0.0008202099737533
 43
0.0
 43
0.0
 43
0.0
 43
0.0
 43
0.0008202099737533
 43
0.0
 43
0.0
 43
0.0
 43
0.0
 43
1.0
 43
0.0
 43
0.0
 43
0.0
 43
0.0
 43
1.0
 77
     0
 47
0.0008202099737533
 47
0.0
 47
0.0
 47
0.0
 47
0.0
 47
0.0008202099737533
 47
0.0
 47
0.0
 47
0.0
 47
0.0
 47
1.0
 47
0.0
 47
0.0
 47
0.0
 47
0.0
 47
1.0
171
     0
 49
0.0008202099737533
 49
0.0
 49
0.0
 49
0.0
 49
0.0
 49
0.0008202099737533
 49
0.0
 49
0.0
 49
0.0
 49
0.0
 49
1.0
 49
0.0
 49
0.0
 49
0.0
 49
0.0
 49
1.0
175
     0
142
0.0008202099737533
142
0.0
142
0.0
142
0.0
142
0.0
142
0.0008202099737533
142
0.0
142
0.0
142
0.0
142
0.0
142
1.0
142
0.0
142
0.0
142
0.0
142
0.0
142
1.0
179
     0
144
0.0008202099737533
144
0.0
144
0.0
144
0.0
144
0.0
144
0.0008202099737533
144
0.0
144
0.0
144
0.0
144
0.0
144
1.0
144
0.0
144
0.0
144
0.0
144
0.0
144
1.0
147
0.0008202099737533
147
0.0
147
0.0
147
0.0
147
0.0
147
0.0008202099737533
147
0.0
147
0.0
147
0.0
147
0.0
147
1.0
147
0.0
147
0.0
147
0.0
147
0.0
147
1.0
  0
MATERIAL
  5
6897
102
{ACAD_XDICTIONARY
360
1E333
102
}
102
{ACAD_REACTORS
330
3F1
102
}
330
3F1
100
AcDbMaterial
  1
Global
 73
     1
 78
     1
172
     1
176
     1
270
     1
274
     1
  0
MLEADERSTYLE
  5
12D6E
102
{ACAD_REACTORS
330
12D6D
102
}
330
12D6D
100
AcDbMLeaderStyle
170
     2
171
     1
172
     0
 90
        2
 40
0.0
 41
0.0
173
     1
 91
-1056964608
340
14
 92
       -2
290
     1
 42
2.0
291
     1
 43
0.36
  3
Standard
 44
4.0
300

342
11
174
     1
178
     6
175
     1
176
     0
 93
-1056964608
 45
4.0
292
     0
297
     0
 46
4.0
 94
-1056964608
 47
1.0
 49
1.0
140
1.0
293
     1
141
0.0
294
     1
177
     0
142
1.0
295
     0
296
     0
143
0.125
1001
ACAD_MLEADERVER
1070
     2
  0
MLINESTYLE
  5
18
102
{ACAD_REACTORS
330
17
102
}
330
17
100
AcDbMlineStyle
  2
STANDARD
 70
     0
  3

 62
   256
 51
90.0
 52
90.0
 71
     2
 49
0.5
 62
   256
  6
BYLAYER
 49
-0.5
 62
   256
  6
BYLAYER
  0
PLOTSETTINGS
  5
176E
102
{ACAD_REACTORS
330
19
102
}
330
19
100
AcDbPlotSettings
  1
ISO A4 标题栏 (纵向) - 无输出设备
  2
None
  4
ISO_A4_(210.00_x_297.00_MM)
  6

 40
7.549999999999998
 41
20.05
 42
7.549999999999998
 43
20.05
 44
210.0
 45
297.0
 46
-7.559999999999996
 47
-20.06
 48
0.0
 49
0.0
140
0.0
141
0.0
142
1.0
143
1.0
 70
   692
 72
     1
 73
     0
 74
     1
  7

 75
    16
147
1.0
 76
     0
 77
     2
 78
   300
148
0.0128164049386896
149
0.0090630292066862
  0
ACDBPLACEHOLDER
  5
F
102
{ACAD_REACTORS
330
E
102
}
330
E
  0
SCALE
  5
12D4C
102
{ACAD_REACTORS
330
12D4B
102
}
330
12D4B
100
AcDbScale
 70
     0
300
1:1
140
1.0
141
1.0
290
     1
  0
SCALE
  5
12D4D
102
{ACAD_REACTORS
330
12D4B
102
}
330
12D4B
100
AcDbScale
 70
     0
300
1:2
140
1.0
141
2.0
290
     0
  0
SCALE
  5
12D4E
102
{ACAD_REACTORS
330
12D4B
102
}
330
12D4B
100
AcDbScale
 70
     0
300
1:4
140
1.0
141
4.0
290
     0
  0
SCALE
  5
12D4F
102
{ACAD_REACTORS
330
12D4B
102
}
330
12D4B
100
AcDbScale
 70
     0
300
1:5
140
1.0
141
5.0
290
     0
  0
SCALE
  5
12D50
102
{ACAD_REACTORS
330
12D4B
102
}
330
12D4B
100
AcDbScale
 70
     0
300
1:8
140
1.0
141
8.0
290
     0
  0
SCALE
  5
12D51
102
{ACAD_REACTORS
330
12D4B
102
}
330
12D4B
100
AcDbScale
 70
     0
300
1:10
140
1.0
141
10.0
290
     0
  0
SCALE
  5
12D52
102
{ACAD_REACTORS
330
12D4B
102
}
330
12D4B
100
AcDbScale
 70
     0
300
1:16
140
1.0
141
16.0
290
     0
  0
SCALE
  5
12D53
102
{ACAD_REACTORS
330
12D4B
102
}
330
12D4B
100
AcDbScale
 70
     0
300
1:20
140
1.0
141
20.0
290
     0
  0
SCALE
  5
12D54
102
{ACAD_REACTORS
330
12D4B
102
}
330
12D4B
100
AcDbScale
 70
     0
300
1:30
140
1.0
141
30.0
290
     0
  0
SCALE
  5
12D55
102
{ACAD_REACTORS
330
12D4B
102
}
330
12D4B
100
AcDbScale
 70
     0
300
1:40
140
1.0
141
40.0
290
     0
  0
SCALE
  5
12D56
102
{ACAD_REACTORS
330
12D4B
102
}
330
12D4B
100
AcDbScale
 70
     0
300
1:50
140
1.0
141
50.0
290
     0
  0
SCALE
  5
12D57
102
{ACAD_REACTORS
330
12D4B
102
}
330
12D4B
100
AcDbScale
 70
     0
300
1:100
140
1.0
141
100.0
290
     0
  0
SCALE
  5
12D58
102
{ACAD_REACTORS
330
12D4B
102
}
330
12D4B
100
AcDbScale
 70
     0
300
2:1
140
2.0
141
1.0
290
     0
  0
SCALE
  5
12D59
102
{ACAD_REACTORS
330
12D4B
102
}
330
12D4B
100
AcDbScale
 70
     0
300
4:1
140
4.0
141
1.0
290
     0
  0
SCALE
  5
12D5A
102
{ACAD_REACTORS
330
12D4B
102
}
330
12D4B
100
AcDbScale
 70
     0
300
8:1
140
8.0
141
1.0
290
     0
  0
SCALE
  5
12D5B
102
{ACAD_REACTORS
330
12D4B
102
}
330
12D4B
100
AcDbScale
 70
     0
300
10:1
140
10.0
141
1.0
290
     0
  0
SCALE
  5
12D5C
102
{ACAD_REACTORS
330
12D4B
102
}
330
12D4B
100
AcDbScale
 70
     0
300
100:1
140
100.0
141
1.0
290
     0
  0
SCALE
  5
12D5D
102
{ACAD_REACTORS
330
12D4B
102
}
330
12D4B
100
AcDbScale
 70
     0
300
1/128" = 1'-0"
140
0.0078125
141
12.0
290
     0
  0
SCALE
  5
12D5E
102
{ACAD_REACTORS
330
12D4B
102
}
330
12D4B
100
AcDbScale
 70
     0
300
1/64" = 1'-0"
140
0.015625
141
12.0
290
     0
  0
SCALE
  5
12D5F
102
{ACAD_REACTORS
330
12D4B
102
}
330
12D4B
100
AcDbScale
 70
     0
300
1/32" = 1'-0"
140
0.03125
141
12.0
290
     0
  0
SCALE
  5
12D60
102
{ACAD_REACTORS
330
12D4B
102
}
330
12D4B
100
AcDbScale
 70
     0
300
1/16" = 1'-0"
140
0.0625
141
12.0
290
     0
  0
SCALE
  5
12D61
102
{ACAD_REACTORS
330
12D4B
102
}
330
12D4B
100
AcDbScale
 70
     0
300
3/32" = 1'-0"
140
0.09375
141
12.0
290
     0
  0
SCALE
  5
12D62
102
{ACAD_REACTORS
330
12D4B
102
}
330
12D4B
100
AcDbScale
 70
     0
300
1/8" = 1'-0"
140
0.125
141
12.0
290
     0
  0
SCALE
  5
12D63
102
{ACAD_REACTORS
330
12D4B
102
}
330
12D4B
100
AcDbScale
 70
     0
300
3/16" = 1'-0"
140
0.1875
141
12.0
290
     0
  0
SCALE
  5
12D64
102
{ACAD_REACTORS
330
12D4B
102
}
330
12D4B
100
AcDbScale
 70
     0
300
1/4" = 1'-0"
140
0.25
141
12.0
290
     0
  0
SCALE
  5
12D65
102
{ACAD_REACTORS
330
12D4B
102
}
330
12D4B
100
AcDbScale
 70
     0
300
3/8" = 1'-0"
140
0.375
141
12.0
290
     0
  0
SCALE
  5
12D66
102
{ACAD_REACTORS
330
12D4B
102
}
330
12D4B
100
AcDbScale
 70
     0
300
1/2" = 1'-0"
140
0.5
141
12.0
290
     0
  0
SCALE
  5
12D67
102
{ACAD_REACTORS
330
12D4B
102
}
330
12D4B
100
AcDbScale
 70
     0
300
3/4" = 1'-0"
140
0.75
141
12.0
290
     0
  0
SCALE
  5
12D68
102
{ACAD_REACTORS
330
12D4B
102
}
330
12D4B
100
AcDbScale
 70
     0
300
1" = 1'-0"
140
1.0
141
12.0
290
     0
  0
SCALE
  5
12D69
102
{ACAD_REACTORS
330
12D4B
102
}
330
12D4B
100
AcDbScale
 70
     0
300
1-1/2" = 1'-0"
140
1.5
141
12.0
290
     0
  0
SCALE
  5
12D6A
102
{ACAD_REACTORS
330
12D4B
102
}
330
12D4B
100
AcDbScale
 70
     0
300
3" = 1'-0"
140
3.0
141
12.0
290
     0
  0
SCALE
  5
12D6B
102
{ACAD_REACTORS
330
12D4B
102
}
330
12D4B
100
AcDbScale
 70
     0
300
6" = 1'-0"
140
6.0
141
12.0
290
     0
  0
SCALE
  5
12D6C
102
{ACAD_REACTORS
330
12D4B
102
}
330
12D4B
100
AcDbScale
 70
     0
300
1'-0" = 1'-0"
140
12.0
141
12.0
290
     0
  0
TABLESTYLE
  5
12D4A
102
{ACAD_XDICTIONARY
360
12DCD
102
}
102
{ACAD_REACTORS
330
12D49
102
}
330
12D49
100
AcDbTableStyle
  3
Standard
 70
     0
 71
     0
 40
1.5
 41
1.5
280
     0
281
     0
  7
STANDARD
140
4.5
170
     2
 62
     0
 63
     7
283
     0
 90
      512
 91
        0
  1

274
    -2
284
     1
 64
     0
275
    -2
285
     1
 65
     0
276
    -2
286
     1
 66
     0
277
    -2
287
     1
 67
     0
278
    -2
288
     1
 68
     0
279
    -2
289
     1
 69
     0
  7
STANDARD
140
6.0
170
     5
 62
     0
 63
     7
283
     0
 90
      512
 91
        0
  1

274
    -2
284
     1
 64
     0
275
    -2
285
     1
 65
     0
276
    -2
286
     1
 66
     0
277
    -2
287
     1
 67
     0
278
    -2
288
     1
 68
     0
279
    -2
289
     1
 69
     0
  7
STANDARD
140
4.5
170
     5
 62
     0
 63
     7
283
     0
 90
      512
 91
        0
  1

274
    -2
284
     1
 64
     0
275
    -2
285
     1
 65
     0
276
    -2
286
     1
 66
     0
277
    -2
287
     1
 67
     0
278
    -2
288
     1
 68
     0
279
    -2
289
     1
 69
     0
  0
VBA_PROJECT
  5
13F36
102
{ACAD_REACTORS
330
13F35
102
}
330
13F35
100
AcDbVbaProject
 90
     7168
310
D0CF11E0A1B11AE1000000000000000000000000000000003E000300FEFF0900060000000000000000000000010000000100000000000000001000000200000001000000FEFFFFFF0000000000000000FFFFFFFFFFFFFFFFFFFFFFFFFFFFFFFFFFFFFFFFFFFFFFFFFFFFFFFFFFFFFFFFFFFFFFFFFFFFFFFFFFFFFFFFFFFFFF
310
FFFFFFFFFFFFFFFFFFFFFFFFFFFFFFFFFFFFFFFFFFFFFFFFFFFFFFFFFFFFFFFFFFFFFFFFFFFFFFFFFFFFFFFFFFFFFFFFFFFFFFFFFFFFFFFFFFFFFFFFFFFFFFFFFFFFFFFFFFFFFFFFFFFFFFFFFFFFFFFFFFFFFFFFFFFFFFFFFFFFFFFFFFFFFFFFFFFFFFFFFFFFFFFFFFFFFFFFFFFFFFFFFFFFFFFFFFFFFFFFFFFFFFFFFFFFFF
310
FFFFFFFFFFFFFFFFFFFFFFFFFFFFFFFFFFFFFFFFFFFFFFFFFFFFFFFFFFFFFFFFFFFFFFFFFFFFFFFFFFFFFFFFFFFFFFFFFFFFFFFFFFFFFFFFFFFFFFFFFFFFFFFFFFFFFFFFFFFFFFFFFFFFFFFFFFFFFFFFFFFFFFFFFFFFFFFFFFFFFFFFFFFFFFFFFFFFFFFFFFFFFFFFFFFFFFFFFFFFFFFFFFFFFFFFFFFFFFFFFFFFFFFFFFFFFF
310
FFFFFFFFFFFFFFFFFFFFFFFFFFFFFFFFFFFFFFFFFFFFFFFFFFFFFFFFFFFFFFFFFFFFFFFFFFFFFFFFFFFFFFFFFFFFFFFFFFFFFFFFFFFFFFFFFFFFFFFFFFFFFFFFFFFFFFFFFFFFFFFFFFFFFFFFFFFFFFFFFFFFFFFFFFFFFFFFFFFFFFFFFFFFFFFFFFFFFFFFFFFFFFFFFFFFFFFFFFFFFFFFFFFFFFFFFFFFFFFFFFFFFFFFFFFFFF
310
FFFFFFFFFDFFFFFF04000000FEFFFFFF050000000C000000060000000700000008000000090000000A0000000B000000FEFFFFFFFEFFFFFFFFFFFFFFFFFFFFFFFFFFFFFFFFFFFFFFFFFFFFFFFFFFFFFFFFFFFFFFFFFFFFFFFFFFFFFFFFFFFFFFFFFFFFFFFFFFFFFFFFFFFFFFFFFFFFFFFFFFFFFFFFFFFFFFFFFFFFFFFFFFFF
310
FFFFFFFFFFFFFFFFFFFFFFFFFFFFFFFFFFFFFFFFFFFFFFFFFFFFFFFFFFFFFFFFFFFFFFFFFFFFFFFFFFFFFFFFFFFFFFFFFFFFFFFFFFFFFFFFFFFFFFFFFFFFFFFFFFFFFFFFFFFFFFFFFFFFFFFFFFFFFFFFFFFFFFFFFFFFFFFFFFFFFFFFFFFFFFFFFFFFFFFFFFFFFFFFFFFFFFFFFFFFFFFFFFFFFFFFFFFFFFFFFFFFFFFFFFFFFF
310
FFFFFFFFFFFFFFFFFFFFFFFFFFFFFFFFFFFFFFFFFFFFFFFFFFFFFFFFFFFFFFFFFFFFFFFFFFFFFFFFFFFFFFFFFFFFFFFFFFFFFFFFFFFFFFFFFFFFFFFFFFFFFFFFFFFFFFFFFFFFFFFFFFFFFFFFFFFFFFFFFFFFFFFFFFFFFFFFFFFFFFFFFFFFFFFFFFFFFFFFFFFFFFFFFFFFFFFFFFFFFFFFFFFFFFFFFFFFFFFFFFFFFFFFFFFFFF
310
FFFFFFFFFFFFFFFFFFFFFFFFFFFFFFFFFFFFFFFFFFFFFFFFFFFFFFFFFFFFFFFFFFFFFFFFFFFFFFFFFFFFFFFFFFFFFFFFFFFFFFFFFFFFFFFFFFFFFFFFFFFFFFFFFFFFFFFFFFFFFFFFFFFFFFFFFFFFFFFFFFFFFFFFFFFFFFFFFFFFFFFFFFFFFFFFFFFFFFFFFFFFFFFFFFFFFFFFFFFFFFFFFFFFFFFFFFFFFFFFFFFFFFFFFFFFFF
310
FFFFFFFFFFFFFFFF52006F006F007400200045006E00740072007900000000000000000000000000000000000000000000000000000000000000000000000000000000000000000016000500FFFFFFFFFFFFFFFF0100000000000000000000000000000000000000000000000000000000000000D0CDEB766646D301030000
310
00800E0000000000005600420041005F00500072006F006A0065006300740000000000000000000000000000000000000000000000000000000000000000000000000000000000000018000101FFFFFFFF08000000060000000000000000000000000000000000000000000000D0CDEB766646D301D0CDEB766646D3010000
310
000000000000000000005600420041000000000000000000000000000000000000000000000000000000000000000000000000000000000000000000000000000000000000000000000008000100FFFFFFFFFFFFFFFF040000000000000000000000000000000000000000000000D0CDEB766646D301D0CDEB766646D30100
310
00000000000000000000006400690072000000000000000000000000000000000000000000000000000000000000000000000000000000000000000000000000000000000000000000000008000200FFFFFFFFFFFFFFFFFFFFFFFF000000000000000000000000000000000000000000000000000000000000000000000000
310
000000003C0100000000000001000000020000000300000004000000FEFFFFFF060000000700000008000000090000000A0000000B0000000C0000000D0000000E0000000F0000001000000011000000120000001300000014000000FEFFFFFF160000001700000018000000190000001A0000001B0000001C0000001D0000
310
001E0000001F000000200000002100000022000000230000002400000025000000260000002700000028000000290000002A0000002B0000002C0000002D0000002E0000002F0000003000000031000000FEFFFFFF3300000034000000350000003600000037000000FEFFFFFFFEFFFFFFFEFFFFFFFFFFFFFFFFFFFFFFFFFF
310
FFFFFFFFFFFFFFFFFFFFFFFFFFFFFFFFFFFFFFFFFFFFFFFFFFFFFFFFFFFFFFFFFFFFFFFFFFFFFFFFFFFFFFFFFFFFFFFFFFFFFFFFFFFFFFFFFFFFFFFFFFFFFFFFFFFFFFFFFFFFFFFFFFFFFFFFFFFFFFFFFFFFFFFFFFFFFFFFFFFFFFFFFFFFFFFFFFFFFFFFFFFFFFFFFFFFFFFFFFFFFFFFFFFFFFFFFFFFFFFFFFFFFFFFFFFFFF
310
FFFFFFFFFFFFFFFFFFFFFFFFFFFFFFFFFFFFFFFFFFFFFFFFFFFFFFFFFFFFFFFFFFFFFFFFFFFFFFFFFFFFFFFFFFFFFFFFFFFFFFFFFFFFFFFFFFFFFFFFFFFFFFFFFFFFFFFFFFFFFFFFFFFFFFFFFFFFFFFFFFFFFFFFFFFFFFFFFFFFFFFFFFFFFFFFFFFFFFFFFFFFFFFFFFFFFFFFFFFFFFFFFFFFFFFFFFFFFFFFFFFFFFFFFFFFFF
310
FFFFFFFFFFFFFFFFFFFFFFFFFFFFFFFF0138B1800100040000000100302A020290090070140648030082020064A80304000B001C004143414450726F6A10656374050038000040D5021406020A3D020A07027401140A080612090212AB6534582803000C024A3C020A16000101727374646F6C653E0102197300740064006F
310
00006C0065000D00680500255E00032A5C477B3000303032303433302D3B0008040443000A020E011230300034367D23322E3023003023433A5C57696E00646F77735C53797340574F5736345C036532002E746C62234F4C4500204175746F6D617458696F6E003000010F02740144001382035E6619027854006869734472
310
617769A06E67470016001354004A006900730044007200006100770069006E00A867001A0D163218161C002328000048820231828C25035800001E8204010A2C8240C654462282102B8202108202000000000116010000F0000000C4020000D400000000020000FFFFFFFFCB0200001F03000000000000010000005E66C646
310
0000FFFF2300000088000000B600FFFF010100000000FFFFFFFF00000000FFFFFFFFFFFF00000000000000000000000000000000000000000000000000000000000000000000000000000000000000000000000000000000000010000000030000000500000007000000FFFFFFFFFFFFFFFF010108000000FFFFFFFF780000
310
00080000000000000000000000000000000000005400680069007300440072006100770069006E006700000000000000000000000000000000000000000000000000000000000000000000000000000000000000180002010300000005000000FFFFFFFF000000000000000000000000000000000000000000000000000000
310
00000000000000000005000000E5030000000000005F005600420041005F00500052004F004A00450043005400000000000000000000000000000000000000000000000000000000000000000000000000000000001A000200FFFFFFFFFFFFFFFFFFFFFFFF0000000000000000000000000000000000000000000000000000
310
00000000000000000000150000002C07000000000000500052004F004A004500430054000000000000000000000000000000000000000000000000000000000000000000000000000000000000000000000000000000100002010200000007000000FFFFFFFF00000000000000000000000000000000000000000000000000
310
0000000000000000000000320000004501000000000000500052004F004A0045004300540077006D000000000000000000000000000000000000000000000000000000000000000000000000000000000000000000000014000200FFFFFFFFFFFFFFFFFFFFFFFF000000000000000000000000000000000000000000000000
310
0000000000000000000000003800000026000000000000000000000000000000000000000000FFFF000000004D450000FFFFFFFFFFFF00000000FFFF00000000FFFF010100000000DF00FFFF000000000C00FFFFFFFFFFFFFFFFFFFFFFFFFFFFFFFFFFFFFFFFFFFFFFFFFFFFFFFFFFFFFFFFFFFFFFFFFFFFFFFFFFFFFFFFFF
310
FFFFFFFFFFFFFFFFFFFFFFFFFFFFFFFFFFFFFFFFFFFFFFFFFFFFFFFFFFFFFFFFFFFFFFFFFFFFFFFFFFFFFFFFFFFFFFFFFFFFFFFFFFFFFFFFFFFFFFFFFFFFFFFFFFFFFFFFFFFFFFFFFFFFFFFFFFFFFFFFFFFFFF280000000200534CFFFFFFFF000001005310FFFFFFFF000001005394FFFFFFFF00000000023CFFFFFFFF0000
310
FFFF01010000000001004E0030007B00370041004100420042004200390035002D0037003900420045002D0034004300300046002D0038003000320034002D004500420036004100460032003700310032003300310043007D0000000000FFFFFFFF0101380000000280FEFFFFFFFFFF1000FFFF280000000201FFFF000000
310
0000000000FFFFFFFFFFFFFFFF000000001D00000025000000FFFFFFFF480000000000FFFF000001000000000000000000FFFFFFFFFFFFFFFFFFFFFFFF00000000FFFFFFFFFFFFFFFFFFFFFFFFFFFFFFFFFFFFFFFF00000000FFFFFFFFFFFFFFFFFFFFFFFFFFFFFFFFFFFFFFFF0000000001000000FFFFFFFFFFFFFFFF0000
310
0000FFFFFFFFFFFFFFFFFFFFFFFFFFFFFFFFFFFFFFFFFFFFFFFFFFFFFFFFFFFF000000000000DF000000000000000000000000000000000000000000000000000000000000000000000000000000000000000000000000000000000000000000000000FECA01000000FFFFFFFF010108000000FFFFFFFF78000000FFFFFFFF
310
000001BCB000417474726962757400652056425F4E616D0065203D2022546869007344726177696E6788220D0A0A88426173028800307B3741414242420039352D373942452D00344330462D38303200342D454236414632803731323331437D0D7C40476C6F62616C01CE5308706163019246616C7302650C644372656174
310
6104626C151F507265646548636C610006496400B0540472750D424578706F730265141C54656D706C61807465446572697602120192427573746F6D697A0304440332000000000000000000000000000000000000000000000000000000CC616D00000100FF0408000009040000A803010000000000000000000100030002
310
00FA002A005C0047007B00300030003000320030003400450046002D0030003000300030002D0030003000300030002D0043003000300030002D003000300030003000300030003000300030003000340036007D00230034002E00300023003900230043003A005C00500052004F004700520041007E0032005C0043004F00
310
4D004D004F004E007E0031005C004D004900430052004F0053007E0031005C005600420041005C0056004200410036005C0056004200450036002E0044004C004C002300560069007300750061006C00200042006100730069006300200046006F00720020004100700070006C00690063006100740069006F006E00730000
310
000000000000000000000016012A005C0047007B00380035003100410034003500360031002D0046003400450043002D0034003600330031002D0039004200300043002D004500370044004300340030003700350031003200430039007D00230031002E00300023003000230043003A005C00500072006F00670072006100
310
6D002000460069006C00650073002000280078003800360029005C0043006F006D006D006F006E002000460069006C00650073005C004100750074006F006400650073006B0020005300680061007200650064005C0061006300610078003100370065006E0075002E0074006C00620023004100750074006F004300410044
310
00200032003000300038002000540079007000650020004C00690062007200610072007900000000000000000000000000BC002A005C0047007B00300030003000320030003400330030002D0030003000300030002D0030003000300030002D0043003000300030002D003000300030003000300030003000300030003000
310
340036007D00230032002E00300023003000230043003A005C00570069006E0064006F00770073005C0053007900730057004F005700360034005C007300740064006F006C00650032002E0074006C00620023004F004C00450020004100750074006F006D006100740069006F006E00000000000000000000000000010002
310
0004000402000006020100080200000A0201000C02FFFFFFFFFFFF00000000FFFF0000AB6534580300FFFFFFFFFFFFFFFFFFFFFFFFFFFFFFFFFFFFFFFFFFFFFFFFFFFF0000FFFFFFFFFFFFFFFFFFFFFFFFFFFFFFFFFFFFFFFFFFFFFFFFFFFFFFFFFFFFFFFFFFFFFFFF01000000000000000000000000000000000000005E66
310
010016005400680069007300440072006100770069006E006700140030003F0035006200620038006600390039003800FFFF110216005400680069007300440072006100770069006E006700FFFFC646000000000000000200000025030000FFFFFFFFFFFF010120020000FFFFFFFFFFFFFFFFFFFFFFFFFFFFFFFFFFFFFFFF
310
FFFFFFFFFFFFFFFFFFFFFFFFFFFFFFFFFFFFFFFFFFFFFFFFFFFFFFFFFFFFFFFFFFFFFFFFFFFFFFFFFFFFFFFFFFFFFFFFFFFFFFFFFFFFFFFFFFFFFFFFFFFFFFFFFFFFFFFFFFFFFFFFFFFFFFFFFFFFFFFFFFFFFFFFFFFFFFFFFFFFFFFFFFFFFFFFFFFFFFFFFFFFFFFFFFFFFFFFFFFFFFFFFFFFFFFFFFFFFFFFFFFFFFFFFFFFFF
310
FFFFFFFFFFFFFFFFFFFFFFFFFF00020000FFFFFFFFFFFFFFFFFFFFFFFFFFFFFFFFFFFFFFFFFFFFFFFFFFFFFFFFFFFFFFFFFFFFFFFFFFFFFFFFFFFFFFFFFFFFFFFFFFFFFFFFFFFFFFFFFFFFFFFFFFFFFFFFFFFFFFFFFFFFFFFFFFFFFFFFFFFFFFFFFFFFFFFFFFFFFFFFFFFFFFFFFFFFFFFFFFFFFFFFFFFFFFFFFFFFFFFFFFFF
310
FFFFFFFFFFFFFFFFFFFFFFFFFFFFFFFFFFFFFFFFFFFFFFFFFFFFFFFFFFFFFFFFFFFFFFFFFFFFFFFFFFFFFFFFFFFFFFFFFFFFFFFFFFFFFFFFFFFFFFFFFFFFFFFFFFFFFFFFFFFFFFFFFFFFFFFFFFFFFFFFFFFFFFFFFFFFFFFFFFFFFFFFFFFFFFFFFFFFFFFFFFFFFFFFFFFFFFFFFFFFFFFFFFFFFFFFFFFFFFFFFFFFFFFFFFFFFF
310
FFFFFFFFFFFFFFFFFFFFFFFFFFFFFFFFFFFFFFFFFFFFFFFFFFFFFFFFFFFFFFFFFFFFFFFFFFFFFFFFFFFFFFFFFFFFFFFFFFFFFFFFFFFFFFFFFFFFFFFFFFFFFFFFFFFFFFFFFFFFFFFFFFFFFFFFFFFFFFFFFFFFFFFFFFFFFFFFFFFFFFFFFFFFFFFFFFFFFFFFFFFFFFFFFFFFFFFFFFFFFF2C5099CE20A3DA4BBAB37D8A00562086
310
FFFFFFFF01000000FFFFFFFF600000008000000000000A010B00FF006025000007044175746F43414422F860000304564241F7E26000050457696E3136C17E6000050457696E3332077F600003044D6163B3B26000040456424136AD2360000B044143414450726F6A656374A6D4600006007374646F6C65936060000B0454
310
68697344726177696E67B935600009800000FF03FFFF5F4576616C7561746518D960000C0441636164446F63756D656E741B5A600002FFFF01013C000000FFFFFFFFFFFFFFFFFFFFFFFF0C02FFFFFFFF0E020200FFFF110200000400FFFFFFFFFFFF00020100FFFF02020000FFFFFFFFFFFFFFFFFFFFFFFFFFFF04000A0000
310
00010012000000000000000000000000000000000000000000000000000000000000000000000000000000000049443D227B38334446343830462D344546442D344335442D413545352D4138424330363634383235307D220D0A446F63756D656E743D5468697344726177696E672F264830303030303030300D0A4E616D65
310
3D224143414450726F6A656374220D0A48656C70436F6E7465787449443D2230220D0A56657273696F6E436F6D70617469626C6533323D22333933323232303030220D0A434D473D22393239303931423542334239423342394233423942334239220D0A4450423D2242384241424242434243424342434243220D0A47433D
310
2244454443444446393235333934413341344133414235220D0A0D0A5B486F737420457874656E64657220496E666F5D0D0A264830303030303030313D7B33383332443634302D434639302D313143462D384534332D3030413043393131303035417D3B5642453B264830303030303030300D0A0000000000000000000000
310
0000000000000000000000000000000000000000000000000000000000000000000000000000000000000000000000005468697344726177696E67005400680069007300440072006100770069006E006700000000000000000000000000000000000000000000000000000000000000100000000300000004000000610063
310
00000000000000000000000000000000000000000000000000000000000000000000000000000000000000000000000000000000000000000000000000000000000000000000000000000000000000000000000000000000000000000000000000000000000000000000000000000000000000000000000000000000000000
310
00000000000000000000000000000000000000000000000000000000000000000000000000000000000000000000000000000000000000000000000000000000000000000000000000000000000000000000000000000000000000000000000000000000000000000000000000000000000000000000000000000000000000
310
00000000000000000000000000000000000000000000000000000000000000000000000000000000000000000000000000000000000000000000000000000000000000000000000000000000000000000000000000000000000000000000000000000000000000000000000000000000000000000000000000000000000000
310
000000000000000000000000000000000000000000000000000000000000000000000000000000000000000000000000000000005600420041005F00500072006F006A006500630074005F00560065007200730069006F006E00000000000000000000000000000000000000000000000000000028000200FFFFFFFFFFFFFF
310
FFFFFFFFFF0000000000000000000000000000000000000000000000000000000000000000000000003900000010000000000000000000000000000000000000000000000000000000000000000000000000000000000000000000000000000000000000000000000000000000000000000000000000000000FFFFFFFFFFFF
310
FFFFFFFFFFFF0000000000000000000000000000000000000000000000000000000000000000000000000000000000000000000000000000000000000000000000000000000000000000000000000000000000000000000000000000000000000000000000000000000000000000000000000000000000000000FFFFFFFFFF
310
FFFFFFFFFFFFFF0000000000000000000000000000000000000000000000000000000000000000000000000000000000000000000000000000000000000000000000000000000000000000000000000000000000000000000000000000000000000000000000000000000000000000000000000000000000000000FFFFFFFF
310
FFFFFFFFFFFFFFFF000000000000000000000000000000000000000000000000000000000000000000000000000000000000000000000000
  0
VISUALSTYLE
  5
12D3E
102
{ACAD_REACTORS
330
12D38
102
}
330
12D38
100
AcDbVisualStyle
  2
2dWireframe
 70
     4
 71
     0
 72
     2
 73
     0
 90
        0
 40
-0.6
 41
-30.0
 62
     5
 63
     7
 74
     1
 91
        4
 64
     7
 65
   257
 75
     1
175
     1
 42
1.0
 92
        0
 66
   257
 43
1.0
 76
     1
 77
     6
 78
     2
 67
     7
 79
     5
170
     0
171
     0
290
     0
174
     0
 93
        1
 44
0.0
173
     0
291
     0
 45
0.0
1001
ACAD
1000
AcDbSavedByObjectVersion
1070
     0
1000
AcDbSavedByObjectVersion
1070
     0
1000
AcDbSavedByObjectVersion
1070
     0
1000
AcDbSavedByObjectVersion
1070
     0
1000
AcDbSavedByObjectVersion
1070
     0
1000
AcDbSavedByObjectVersion
1070
     0
1000
AcDbSavedByObjectVersion
1070
     0
1000
AcDbSavedByObjectVersion
1070
     0
1000
AcDbSavedByObjectVersion
1070
     0
1000
AcDbSavedByObjectVersion
1070
     0
1000
AcDbSavedByObjectVersion
1070
     0
1000
AcDbSavedByObjectVersion
1070
     0
1000
AcDbSavedByObjectVersion
1070
     0
1000
AcDbSavedByObjectVersion
1070
     0
1000
AcDbSavedByObjectVersion
1070
     0
1000
AcDbSavedByObjectVersion
1070
     0
1000
AcDbSavedByObjectVersion
1070
     0
1000
AcDbSavedByObjectVersion
1070
     0
1000
AcDbSavedByObjectVersion
1070
     0
1000
AcDbSavedByObjectVersion
1070
     0
1000
AcDbSavedByObjectVersion
1070
     0
1000
AcDbSavedByObjectVersion
1070
     0
1000
AcDbSavedByObjectVersion
1070
     0
1000
AcDbSavedByObjectVersion
1070
     0
  0
VISUALSTYLE
  5
12D40
102
{ACAD_REACTORS
330
12D38
102
}
330
12D38
100
AcDbVisualStyle
  2
3D Hidden
 70
     6
 71
     1
 72
     2
 73
     2
 90
        0
 40
-0.6
 41
-30.0
 62
     5
 63
     7
 74
     2
 91
        2
 64
     7
 65
   257
 75
     2
175
     1
 42
40.0
 92
        0
 66
   257
 43
1.0
 76
     1
 77
     6
 78
     2
 67
     7
 79
     3
170
     0
171
     0
290
     0
174
     0
 93
        1
 44
0.0
173
     0
291
     0
 45
0.0
1001
ACAD
1000
AcDbSavedByObjectVersion
1070
     0
1000
AcDbSavedByObjectVersion
1070
     0
1000
AcDbSavedByObjectVersion
1070
     0
1000
AcDbSavedByObjectVersion
1070
     0
1000
AcDbSavedByObjectVersion
1070
     0
1000
AcDbSavedByObjectVersion
1070
     0
1000
AcDbSavedByObjectVersion
1070
     0
1000
AcDbSavedByObjectVersion
1070
     0
1000
AcDbSavedByObjectVersion
1070
     0
1000
AcDbSavedByObjectVersion
1070
     0
1000
AcDbSavedByObjectVersion
1070
     0
1000
AcDbSavedByObjectVersion
1070
     0
1000
AcDbSavedByObjectVersion
1070
     0
1000
AcDbSavedByObjectVersion
1070
     0
1000
AcDbSavedByObjectVersion
1070
     0
1000
AcDbSavedByObjectVersion
1070
     0
1000
AcDbSavedByObjectVersion
1070
     0
1000
AcDbSavedByObjectVersion
1070
     0
1000
AcDbSavedByObjectVersion
1070
     0
1000
AcDbSavedByObjectVersion
1070
     0
1000
AcDbSavedByObjectVersion
1070
     0
1000
AcDbSavedByObjectVersion
1070
     0
1000
AcDbSavedByObjectVersion
1070
     0
1000
AcDbSavedByObjectVersion
1070
     0
  0
VISUALSTYLE
  5
12D3F
102
{ACAD_REACTORS
330
12D38
102
}
330
12D38
100
AcDbVisualStyle
  2
3dWireframe
 70
     5
 71
     0
 72
     2
 73
     0
 90
        0
 40
-0.6
 41
-30.0
 62
     5
 63
     7
 74
     1
 91
        4
 64
     7
 65
   257
 75
     1
175
     1
 42
1.0
 92
        0
 66
   257
 43
1.0
 76
     1
 77
     6
 78
     2
 67
     7
 79
     5
170
     0
171
     0
290
     0
174
     0
 93
        1
 44
0.0
173
     0
291
     0
 45
0.0
1001
ACAD
1000
AcDbSavedByObjectVersion
1070
     0
1000
AcDbSavedByObjectVersion
1070
     0
1000
AcDbSavedByObjectVersion
1070
     0
1000
AcDbSavedByObjectVersion
1070
     0
1000
AcDbSavedByObjectVersion
1070
     0
1000
AcDbSavedByObjectVersion
1070
     0
1000
AcDbSavedByObjectVersion
1070
     0
1000
AcDbSavedByObjectVersion
1070
     0
1000
AcDbSavedByObjectVersion
1070
     0
1000
AcDbSavedByObjectVersion
1070
     0
1000
AcDbSavedByObjectVersion
1070
     0
1000
AcDbSavedByObjectVersion
1070
     0
1000
AcDbSavedByObjectVersion
1070
     0
1000
AcDbSavedByObjectVersion
1070
     0
1000
AcDbSavedByObjectVersion
1070
     0
1000
AcDbSavedByObjectVersion
1070
     0
1000
AcDbSavedByObjectVersion
1070
     0
1000
AcDbSavedByObjectVersion
1070
     0
1000
AcDbSavedByObjectVersion
1070
     0
1000
AcDbSavedByObjectVersion
1070
     0
1000
AcDbSavedByObjectVersion
1070
     0
1000
AcDbSavedByObjectVersion
1070
     0
1000
AcDbSavedByObjectVersion
1070
     0
1000
AcDbSavedByObjectVersion
1070
     0
  0
VISUALSTYLE
  5
12D3D
102
{ACAD_REACTORS
330
12D38
102
}
330
12D38
100
AcDbVisualStyle
  2
Basic
 70
     7
 71
     1
 72
     0
 73
     1
 90
        0
 40
-0.6
 41
-30.0
 62
     5
 63
     7
 74
     0
 91
        4
 64
     7
 65
   257
 75
     1
175
     1
 42
1.0
 92
        8
 66
     7
 43
1.0
 76
     1
 77
     6
 78
     2
 67
     7
 79
     5
170
     0
171
     0
290
     0
174
     0
 93
        1
 44
0.0
173
     0
291
     1
 45
0.0
1001
ACAD
1000
AcDbSavedByObjectVersion
1070
     0
1000
AcDbSavedByObjectVersion
1070
     0
1000
AcDbSavedByObjectVersion
1070
     0
1000
AcDbSavedByObjectVersion
1070
     0
1000
AcDbSavedByObjectVersion
1070
     0
1000
AcDbSavedByObjectVersion
1070
     0
1000
AcDbSavedByObjectVersion
1070
     0
1000
AcDbSavedByObjectVersion
1070
     0
1000
AcDbSavedByObjectVersion
1070
     0
1000
AcDbSavedByObjectVersion
1070
     0
1000
AcDbSavedByObjectVersion
1070
     0
1000
AcDbSavedByObjectVersion
1070
     0
1000
AcDbSavedByObjectVersion
1070
     0
1000
AcDbSavedByObjectVersion
1070
     0
1000
AcDbSavedByObjectVersion
1070
     0
1000
AcDbSavedByObjectVersion
1070
     0
1000
AcDbSavedByObjectVersion
1070
     0
1000
AcDbSavedByObjectVersion
1070
     0
1000
AcDbSavedByObjectVersion
1070
     0
1000
AcDbSavedByObjectVersion
1070
     0
1000
AcDbSavedByObjectVersion
1070
     0
1000
AcDbSavedByObjectVersion
1070
     0
1000
AcDbSavedByObjectVersion
1070
     0
1000
AcDbSavedByObjectVersion
1070
     0
  0
VISUALSTYLE
  5
12D44
102
{ACAD_REACTORS
330
12D38
102
}
330
12D38
100
AcDbVisualStyle
  2
Brighten
 70
    12
 71
     2
 72
     2
 73
     0
 90
        0
 40
-0.6
 41
-30.0
 62
     5
 63
     7
 74
     1
 91
        4
 64
     7
 65
   257
 75
     1
175
     1
 42
1.0
 92
        8
 66
     7
 43
1.0
 76
     1
 77
     6
 78
     2
 67
     7
 79
     5
170
     0
171
     0
290
     0
174
     0
 93
        1
 44
50.0
173
     0
291
     1
 45
0.0
1001
ACAD
1000
AcDbSavedByObjectVersion
1070
     0
1000
AcDbSavedByObjectVersion
1070
     0
1000
AcDbSavedByObjectVersion
1070
     0
1000
AcDbSavedByObjectVersion
1070
     0
1000
AcDbSavedByObjectVersion
1070
     0
1000
AcDbSavedByObjectVersion
1070
     0
1000
AcDbSavedByObjectVersion
1070
     0
1000
AcDbSavedByObjectVersion
1070
     0
1000
AcDbSavedByObjectVersion
1070
     0
1000
AcDbSavedByObjectVersion
1070
     0
1000
AcDbSavedByObjectVersion
1070
     0
1000
AcDbSavedByObjectVersion
1070
     0
1000
AcDbSavedByObjectVersion
1070
     0
1000
AcDbSavedByObjectVersion
1070
     0
1000
AcDbSavedByObjectVersion
1070
     0
1000
AcDbSavedByObjectVersion
1070
     0
1000
AcDbSavedByObjectVersion
1070
     0
1000
AcDbSavedByObjectVersion
1070
     0
1000
AcDbSavedByObjectVersion
1070
     0
1000
AcDbSavedByObjectVersion
1070
     0
1000
AcDbSavedByObjectVersion
1070
     0
1000
AcDbSavedByObjectVersion
1070
     0
1000
AcDbSavedByObjectVersion
1070
     0
1000
AcDbSavedByObjectVersion
1070
     0
  0
VISUALSTYLE
  5
12D48
102
{ACAD_REACTORS
330
12D38
102
}
330
12D38
100
AcDbVisualStyle
  2
ColorChange
 70
    16
 71
     2
 72
     2
 73
     3
 90
        0
 40
-0.6
 41
-30.0
 62
     5
 63
     8
 74
     1
 91
        4
 64
     7
 65
   257
 75
     1
175
     1
 42
1.0
 92
        8
 66
     8
 43
1.0
 76
     1
 77
     6
 78
     2
 67
     7
 79
     5
170
     0
171
     0
290
     0
174
     0
 93
        1
 44
0.0
173
     0
291
     1
 45
0.0
1001
ACAD
1000
AcDbSavedByObjectVersion
1070
     0
1000
AcDbSavedByObjectVersion
1070
     0
1000
AcDbSavedByObjectVersion
1070
     0
1000
AcDbSavedByObjectVersion
1070
     0
1000
AcDbSavedByObjectVersion
1070
     0
1000
AcDbSavedByObjectVersion
1070
     0
1000
AcDbSavedByObjectVersion
1070
     0
1000
AcDbSavedByObjectVersion
1070
     0
1000
AcDbSavedByObjectVersion
1070
     0
1000
AcDbSavedByObjectVersion
1070
     0
1000
AcDbSavedByObjectVersion
1070
     0
1000
AcDbSavedByObjectVersion
1070
     0
1000
AcDbSavedByObjectVersion
1070
     0
1000
AcDbSavedByObjectVersion
1070
     0
1000
AcDbSavedByObjectVersion
1070
     0
1000
AcDbSavedByObjectVersion
1070
     0
1000
AcDbSavedByObjectVersion
1070
     0
1000
AcDbSavedByObjectVersion
1070
     0
1000
AcDbSavedByObjectVersion
1070
     0
1000
AcDbSavedByObjectVersion
1070
     0
1000
AcDbSavedByObjectVersion
1070
     0
1000
AcDbSavedByObjectVersion
1070
     0
1000
AcDbSavedByObjectVersion
1070
     0
1000
AcDbSavedByObjectVersion
1070
     0
  0
VISUALSTYLE
  5
12D41
102
{ACAD_REACTORS
330
12D38
102
}
330
12D38
100
AcDbVisualStyle
  2
Conceptual
 70
     9
 71
     3
 72
     2
 73
     0
 90
        0
 40
-0.6
 41
-30.0
 62
     5
 63
     7
 74
     2
 91
        2
 64
     7
 65
   257
 75
     1
175
     1
 42
40.0
 92
        8
 66
     7
 43
1.0
 76
     1
 77
     6
 78
     2
 67
     7
 79
     3
170
     0
171
     0
290
     0
174
     0
 93
        1
 44
0.0
173
     0
291
     0
 45
0.0
1001
ACAD
1000
AcDbSavedByObjectVersion
1070
     0
1000
AcDbSavedByObjectVersion
1070
     0
1000
AcDbSavedByObjectVersion
1070
     0
1000
AcDbSavedByObjectVersion
1070
     0
1000
AcDbSavedByObjectVersion
1070
     0
1000
AcDbSavedByObjectVersion
1070
     0
1000
AcDbSavedByObjectVersion
1070
     0
1000
AcDbSavedByObjectVersion
1070
     0
1000
AcDbSavedByObjectVersion
1070
     0
1000
AcDbSavedByObjectVersion
1070
     0
1000
AcDbSavedByObjectVersion
1070
     0
1000
AcDbSavedByObjectVersion
1070
     0
1000
AcDbSavedByObjectVersion
1070
     0
1000
AcDbSavedByObjectVersion
1070
     0
1000
AcDbSavedByObjectVersion
1070
     0
1000
AcDbSavedByObjectVersion
1070
     0
1000
AcDbSavedByObjectVersion
1070
     0
1000
AcDbSavedByObjectVersion
1070
     0
1000
AcDbSavedByObjectVersion
1070
     0
1000
AcDbSavedByObjectVersion
1070
     0
1000
AcDbSavedByObjectVersion
1070
     0
1000
AcDbSavedByObjectVersion
1070
     0
1000
AcDbSavedByObjectVersion
1070
     0
1000
AcDbSavedByObjectVersion
1070
     0
  0
VISUALSTYLE
  5
12D43
102
{ACAD_REACTORS
330
12D38
102
}
330
12D38
100
AcDbVisualStyle
  2
Dim
 70
    11
 71
     2
 72
     2
 73
     0
 90
        0
 40
-0.6
 41
-30.0
 62
     5
 63
     7
 74
     1
 91
        4
 64
     7
 65
   257
 75
     1
175
     1
 42
1.0
 92
        8
 66
     7
 43
1.0
 76
     1
 77
     6
 78
     2
 67
     7
 79
     5
170
     0
171
     0
290
     0
174
     0
 93
        1
 44
-50.0
173
     0
291
     1
 45
0.0
1001
ACAD
1000
AcDbSavedByObjectVersion
1070
     0
1000
AcDbSavedByObjectVersion
1070
     0
1000
AcDbSavedByObjectVersion
1070
     0
1000
AcDbSavedByObjectVersion
1070
     0
1000
AcDbSavedByObjectVersion
1070
     0
1000
AcDbSavedByObjectVersion
1070
     0
1000
AcDbSavedByObjectVersion
1070
     0
1000
AcDbSavedByObjectVersion
1070
     0
1000
AcDbSavedByObjectVersion
1070
     0
1000
AcDbSavedByObjectVersion
1070
     0
1000
AcDbSavedByObjectVersion
1070
     0
1000
AcDbSavedByObjectVersion
1070
     0
1000
AcDbSavedByObjectVersion
1070
     0
1000
AcDbSavedByObjectVersion
1070
     0
1000
AcDbSavedByObjectVersion
1070
     0
1000
AcDbSavedByObjectVersion
1070
     0
1000
AcDbSavedByObjectVersion
1070
     0
1000
AcDbSavedByObjectVersion
1070
     0
1000
AcDbSavedByObjectVersion
1070
     0
1000
AcDbSavedByObjectVersion
1070
     0
1000
AcDbSavedByObjectVersion
1070
     0
1000
AcDbSavedByObjectVersion
1070
     0
1000
AcDbSavedByObjectVersion
1070
     0
1000
AcDbSavedByObjectVersion
1070
     0
  0
VISUALSTYLE
  5
12D47
102
{ACAD_REACTORS
330
12D38
102
}
330
12D38
100
AcDbVisualStyle
  2
Facepattern
 70
    15
 71
     2
 72
     2
 73
     0
 90
        0
 40
-0.6
 41
-30.0
 62
     5
 63
     7
 74
     1
 91
        4
 64
     7
 65
   257
 75
     1
175
     1
 42
1.0
 92
        8
 66
     7
 43
1.0
 76
     1
 77
     6
 78
     2
 67
     7
 79
     5
170
     0
171
     0
290
     0
174
     0
 93
        1
 44
0.0
173
     0
291
     1
 45
0.0
1001
ACAD
1000
AcDbSavedByObjectVersion
1070
     0
1000
AcDbSavedByObjectVersion
1070
     0
1000
AcDbSavedByObjectVersion
1070
     0
1000
AcDbSavedByObjectVersion
1070
     0
1000
AcDbSavedByObjectVersion
1070
     0
1000
AcDbSavedByObjectVersion
1070
     0
1000
AcDbSavedByObjectVersion
1070
     0
1000
AcDbSavedByObjectVersion
1070
     0
1000
AcDbSavedByObjectVersion
1070
     0
1000
AcDbSavedByObjectVersion
1070
     0
1000
AcDbSavedByObjectVersion
1070
     0
1000
AcDbSavedByObjectVersion
1070
     0
1000
AcDbSavedByObjectVersion
1070
     0
1000
AcDbSavedByObjectVersion
1070
     0
1000
AcDbSavedByObjectVersion
1070
     0
1000
AcDbSavedByObjectVersion
1070
     0
1000
AcDbSavedByObjectVersion
1070
     0
1000
AcDbSavedByObjectVersion
1070
     0
1000
AcDbSavedByObjectVersion
1070
     0
1000
AcDbSavedByObjectVersion
1070
     0
1000
AcDbSavedByObjectVersion
1070
     0
1000
AcDbSavedByObjectVersion
1070
     0
1000
AcDbSavedByObjectVersion
1070
     0
1000
AcDbSavedByObjectVersion
1070
     0
  0
VISUALSTYLE
  5
12D39
102
{ACAD_REACTORS
330
12D38
102
}
330
12D38
100
AcDbVisualStyle
  2
Flat
 70
     0
 71
     2
 72
     1
 73
     1
 90
        2
 40
-0.6
 41
30.0
 62
     5
 63
     7
 74
     0
 91
        4
 64
     7
 65
   257
 75
     1
175
     1
 42
1.0
 92
        8
 66
     7
 43
1.0
 76
     1
 77
     6
 78
     2
 67
     7
 79
     5
170
     0
171
     0
290
     0
174
     0
 93
       13
 44
0.0
173
     0
291
     1
 45
0.0
1001
ACAD
1000
AcDbSavedByObjectVersion
1070
     0
1000
AcDbSavedByObjectVersion
1070
     0
1000
AcDbSavedByObjectVersion
1070
     0
1000
AcDbSavedByObjectVersion
1070
     0
1000
AcDbSavedByObjectVersion
1070
     0
1000
AcDbSavedByObjectVersion
1070
     0
1000
AcDbSavedByObjectVersion
1070
     0
1000
AcDbSavedByObjectVersion
1070
     0
1000
AcDbSavedByObjectVersion
1070
     0
1000
AcDbSavedByObjectVersion
1070
     0
1000
AcDbSavedByObjectVersion
1070
     0
1000
AcDbSavedByObjectVersion
1070
     0
1000
AcDbSavedByObjectVersion
1070
     0
1000
AcDbSavedByObjectVersion
1070
     0
1000
AcDbSavedByObjectVersion
1070
     0
1000
AcDbSavedByObjectVersion
1070
     0
1000
AcDbSavedByObjectVersion
1070
     0
1000
AcDbSavedByObjectVersion
1070
     0
1000
AcDbSavedByObjectVersion
1070
     0
1000
AcDbSavedByObjectVersion
1070
     0
1000
AcDbSavedByObjectVersion
1070
     0
1000
AcDbSavedByObjectVersion
1070
     0
1000
AcDbSavedByObjectVersion
1070
     0
1000
AcDbSavedByObjectVersion
1070
     0
  0
VISUALSTYLE
  5
12D3A
102
{ACAD_REACTORS
330
12D38
102
}
330
12D38
100
AcDbVisualStyle
  2
FlatWithEdges
 70
     1
 71
     2
 72
     1
 73
     1
 90
        2
 40
-0.6
 41
30.0
 62
     5
 63
     7
 74
     1
 91
        4
 64
     7
 65
   257
 75
     1
175
     1
 42
1.0
 92
        0
 66
   257
 43
1.0
 76
     1
 77
     6
 78
     2
 67
     7
 79
     5
170
     0
171
     0
290
     0
174
     0
 93
       13
 44
0.0
173
     0
291
     1
 45
0.0
1001
ACAD
1000
AcDbSavedByObjectVersion
1070
     0
1000
AcDbSavedByObjectVersion
1070
     0
1000
AcDbSavedByObjectVersion
1070
     0
1000
AcDbSavedByObjectVersion
1070
     0
1000
AcDbSavedByObjectVersion
1070
     0
1000
AcDbSavedByObjectVersion
1070
     0
1000
AcDbSavedByObjectVersion
1070
     0
1000
AcDbSavedByObjectVersion
1070
     0
1000
AcDbSavedByObjectVersion
1070
     0
1000
AcDbSavedByObjectVersion
1070
     0
1000
AcDbSavedByObjectVersion
1070
     0
1000
AcDbSavedByObjectVersion
1070
     0
1000
AcDbSavedByObjectVersion
1070
     0
1000
AcDbSavedByObjectVersion
1070
     0
1000
AcDbSavedByObjectVersion
1070
     0
1000
AcDbSavedByObjectVersion
1070
     0
1000
AcDbSavedByObjectVersion
1070
     0
1000
AcDbSavedByObjectVersion
1070
     0
1000
AcDbSavedByObjectVersion
1070
     0
1000
AcDbSavedByObjectVersion
1070
     0
1000
AcDbSavedByObjectVersion
1070
     0
1000
AcDbSavedByObjectVersion
1070
     0
1000
AcDbSavedByObjectVersion
1070
     0
1000
AcDbSavedByObjectVersion
1070
     0
  0
VISUALSTYLE
  5
12D3B
102
{ACAD_REACTORS
330
12D38
102
}
330
12D38
100
AcDbVisualStyle
  2
Gouraud
 70
     2
 71
     2
 72
     2
 73
     1
 90
        2
 40
-0.6
 41
30.0
 62
     5
 63
     7
 74
     0
 91
        4
 64
     7
 65
   257
 75
     1
175
     1
 42
1.0
 92
        0
 66
     7
 43
1.0
 76
     1
 77
     6
 78
     2
 67
     7
 79
     5
170
     0
171
     0
290
     0
174
     0
 93
       13
 44
0.0
173
     0
291
     1
 45
0.0
1001
ACAD
1000
AcDbSavedByObjectVersion
1070
     0
1000
AcDbSavedByObjectVersion
1070
     0
1000
AcDbSavedByObjectVersion
1070
     0
1000
AcDbSavedByObjectVersion
1070
     0
1000
AcDbSavedByObjectVersion
1070
     0
1000
AcDbSavedByObjectVersion
1070
     0
1000
AcDbSavedByObjectVersion
1070
     0
1000
AcDbSavedByObjectVersion
1070
     0
1000
AcDbSavedByObjectVersion
1070
     0
1000
AcDbSavedByObjectVersion
1070
     0
1000
AcDbSavedByObjectVersion
1070
     0
1000
AcDbSavedByObjectVersion
1070
     0
1000
AcDbSavedByObjectVersion
1070
     0
1000
AcDbSavedByObjectVersion
1070
     0
1000
AcDbSavedByObjectVersion
1070
     0
1000
AcDbSavedByObjectVersion
1070
     0
1000
AcDbSavedByObjectVersion
1070
     0
1000
AcDbSavedByObjectVersion
1070
     0
1000
AcDbSavedByObjectVersion
1070
     0
1000
AcDbSavedByObjectVersion
1070
     0
1000
AcDbSavedByObjectVersion
1070
     0
1000
AcDbSavedByObjectVersion
1070
     0
1000
AcDbSavedByObjectVersion
1070
     0
1000
AcDbSavedByObjectVersion
1070
     0
  0
VISUALSTYLE
  5
12D3C
102
{ACAD_REACTORS
330
12D38
102
}
330
12D38
100
AcDbVisualStyle
  2
GouraudWithEdges
 70
     3
 71
     2
 72
     2
 73
     1
 90
        2
 40
-0.6
 41
30.0
 62
     5
 63
     7
 74
     1
 91
        4
 64
     7
 65
   257
 75
     1
175
     1
 42
1.0
 92
        0
 66
   257
 43
1.0
 76
     1
 77
     6
 78
     2
 67
     7
 79
     5
170
     0
171
     0
290
     0
174
     0
 93
       13
 44
0.0
173
     0
291
     1
 45
0.0
1001
ACAD
1000
AcDbSavedByObjectVersion
1070
     0
1000
AcDbSavedByObjectVersion
1070
     0
1000
AcDbSavedByObjectVersion
1070
     0
1000
AcDbSavedByObjectVersion
1070
     0
1000
AcDbSavedByObjectVersion
1070
     0
1000
AcDbSavedByObjectVersion
1070
     0
1000
AcDbSavedByObjectVersion
1070
     0
1000
AcDbSavedByObjectVersion
1070
     0
1000
AcDbSavedByObjectVersion
1070
     0
1000
AcDbSavedByObjectVersion
1070
     0
1000
AcDbSavedByObjectVersion
1070
     0
1000
AcDbSavedByObjectVersion
1070
     0
1000
AcDbSavedByObjectVersion
1070
     0
1000
AcDbSavedByObjectVersion
1070
     0
1000
AcDbSavedByObjectVersion
1070
     0
1000
AcDbSavedByObjectVersion
1070
     0
1000
AcDbSavedByObjectVersion
1070
     0
1000
AcDbSavedByObjectVersion
1070
     0
1000
AcDbSavedByObjectVersion
1070
     0
1000
AcDbSavedByObjectVersion
1070
     0
1000
AcDbSavedByObjectVersion
1070
     0
1000
AcDbSavedByObjectVersion
1070
     0
1000
AcDbSavedByObjectVersion
1070
     0
1000
AcDbSavedByObjectVersion
1070
     0
  0
VISUALSTYLE
  5
12D46
102
{ACAD_REACTORS
330
12D38
102
}
330
12D38
100
AcDbVisualStyle
  2
Linepattern
 70
    14
 71
     2
 72
     2
 73
     0
 90
        0
 40
-0.6
 41
-30.0
 62
     5
 63
     7
 74
     1
 91
        4
 64
     7
 65
   257
 75
     7
175
     7
 42
1.0
 92
        8
 66
     7
 43
1.0
 76
     1
 77
     6
 78
     2
 67
     7
 79
     5
170
     0
171
     0
290
     0
174
     0
 93
        1
 44
0.0
173
     0
291
     1
 45
0.0
1001
ACAD
1000
AcDbSavedByObjectVersion
1070
     0
1000
AcDbSavedByObjectVersion
1070
     0
1000
AcDbSavedByObjectVersion
1070
     0
1000
AcDbSavedByObjectVersion
1070
     0
1000
AcDbSavedByObjectVersion
1070
     0
1000
AcDbSavedByObjectVersion
1070
     0
1000
AcDbSavedByObjectVersion
1070
     0
1000
AcDbSavedByObjectVersion
1070
     0
1000
AcDbSavedByObjectVersion
1070
     0
1000
AcDbSavedByObjectVersion
1070
     0
1000
AcDbSavedByObjectVersion
1070
     0
1000
AcDbSavedByObjectVersion
1070
     0
1000
AcDbSavedByObjectVersion
1070
     0
1000
AcDbSavedByObjectVersion
1070
     0
1000
AcDbSavedByObjectVersion
1070
     0
1000
AcDbSavedByObjectVersion
1070
     0
1000
AcDbSavedByObjectVersion
1070
     0
1000
AcDbSavedByObjectVersion
1070
     0
1000
AcDbSavedByObjectVersion
1070
     0
1000
AcDbSavedByObjectVersion
1070
     0
1000
AcDbSavedByObjectVersion
1070
     0
1000
AcDbSavedByObjectVersion
1070
     0
1000
AcDbSavedByObjectVersion
1070
     0
1000
AcDbSavedByObjectVersion
1070
     0
  0
VISUALSTYLE
  5
12D42
102
{ACAD_REACTORS
330
12D38
102
}
330
12D38
100
AcDbVisualStyle
  2
Realistic
 70
     8
 71
     2
 72
     2
 73
     0
 90
        0
 40
-0.6
 41
-30.0
 62
     5
 63
     7
 74
     1
 91
        0
 64
     7
 65
   257
 75
     1
175
     1
 42
1.0
 92
        8
 66
     8
 43
1.0
 76
     1
 77
     6
 78
     2
 67
     7
 79
     5
170
     0
171
     0
290
     0
174
     0
 93
       13
 44
0.0
173
     0
291
     0
 45
0.0
1001
ACAD
1000
AcDbSavedByObjectVersion
1070
     0
1000
AcDbSavedByObjectVersion
1070
     0
1000
AcDbSavedByObjectVersion
1070
     0
1000
AcDbSavedByObjectVersion
1070
     0
1000
AcDbSavedByObjectVersion
1070
     0
1000
AcDbSavedByObjectVersion
1070
     0
1000
AcDbSavedByObjectVersion
1070
     0
1000
AcDbSavedByObjectVersion
1070
     0
1000
AcDbSavedByObjectVersion
1070
     0
1000
AcDbSavedByObjectVersion
1070
     0
1000
AcDbSavedByObjectVersion
1070
     0
1000
AcDbSavedByObjectVersion
1070
     0
1000
AcDbSavedByObjectVersion
1070
     0
1000
AcDbSavedByObjectVersion
1070
     0
1000
AcDbSavedByObjectVersion
1070
     0
1000
AcDbSavedByObjectVersion
1070
     0
1000
AcDbSavedByObjectVersion
1070
     0
1000
AcDbSavedByObjectVersion
1070
     0
1000
AcDbSavedByObjectVersion
1070
     0
1000
AcDbSavedByObjectVersion
1070
     0
1000
AcDbSavedByObjectVersion
1070
     0
1000
AcDbSavedByObjectVersion
1070
     0
1000
AcDbSavedByObjectVersion
1070
     0
1000
AcDbSavedByObjectVersion
1070
     0
  0
VISUALSTYLE
  5
12D45
102
{ACAD_REACTORS
330
12D38
102
}
330
12D38
100
AcDbVisualStyle
  2
Thicken
 70
    13
 71
     2
 72
     2
 73
     0
 90
        0
 40
-0.6
 41
-30.0
 62
     5
 63
     7
 74
     1
 91
        4
 64
     7
 65
   257
 75
     1
175
     1
 42
1.0
 92
       12
 66
     7
 43
1.0
 76
     1
 77
     6
 78
     2
 67
     7
 79
     5
170
     0
171
     0
290
     0
174
     0
 93
        1
 44
0.0
173
     0
291
     1
 45
0.0
1001
ACAD
1000
AcDbSavedByObjectVersion
1070
     0
1000
AcDbSavedByObjectVersion
1070
     0
1000
AcDbSavedByObjectVersion
1070
     0
1000
AcDbSavedByObjectVersion
1070
     0
1000
AcDbSavedByObjectVersion
1070
     0
1000
AcDbSavedByObjectVersion
1070
     0
1000
AcDbSavedByObjectVersion
1070
     0
1000
AcDbSavedByObjectVersion
1070
     0
1000
AcDbSavedByObjectVersion
1070
     0
1000
AcDbSavedByObjectVersion
1070
     0
1000
AcDbSavedByObjectVersion
1070
     0
1000
AcDbSavedByObjectVersion
1070
     0
1000
AcDbSavedByObjectVersion
1070
     0
1000
AcDbSavedByObjectVersion
1070
     0
1000
AcDbSavedByObjectVersion
1070
     0
1000
AcDbSavedByObjectVersion
1070
     0
1000
AcDbSavedByObjectVersion
1070
     0
1000
AcDbSavedByObjectVersion
1070
     0
1000
AcDbSavedByObjectVersion
1070
     0
1000
AcDbSavedByObjectVersion
1070
     0
1000
AcDbSavedByObjectVersion
1070
     0
1000
AcDbSavedByObjectVersion
1070
     0
1000
AcDbSavedByObjectVersion
1070
     0
1000
AcDbSavedByObjectVersion
1070
     0
  0
VISUALSTYLE
  5
1E3C4
102
{ACAD_XDICTIONARY
360
1E3C5
102
}
102
{ACAD_REACTORS
330
12D38
102
}
330
12D38
100
AcDbVisualStyle
  2
Wireframe
 70
     5
 71
     0
 72
     2
 73
     0
 90
        0
 40
-0.6
 41
-30.0
 62
     5
 63
     7
 74
     1
 91
        4
 64
     7
 65
   257
 75
     1
175
     1
 42
1.0
 92
        0
 66
   257
 43
1.0
 76
     1
 77
     6
 78
     2
 67
     7
 79
     3
170
     0
171
     0
290
     0
174
     0
 93
        1
 44
0.0
173
     0
291
     0
 45
0.0
1001
ACAD
1000
AcDbSavedByObjectVersion
1070
     0
1000
AcDbSavedByObjectVersion
1070
     0
1000
AcDbSavedByObjectVersion
1070
     0
1000
AcDbSavedByObjectVersion
1070
     0
1000
AcDbSavedByObjectVersion
1070
     0
1000
AcDbSavedByObjectVersion
1070
     0
1000
AcDbSavedByObjectVersion
1070
     0
1000
AcDbSavedByObjectVersion
1070
     0
1000
AcDbSavedByObjectVersion
1070
     0
1000
AcDbSavedByObjectVersion
1070
     0
1000
AcDbSavedByObjectVersion
1070
     0
1000
AcDbSavedByObjectVersion
1070
     0
1000
AcDbSavedByObjectVersion
1070
     0
1000
AcDbSavedByObjectVersion
1070
     0
1000
AcDbSavedByObjectVersion
1070
     0
1000
AcDbSavedByObjectVersion
1070
     0
1000
AcDbSavedByObjectVersion
1070
     0
1000
AcDbSavedByObjectVersion
1070
     0
1000
AcDbSavedByObjectVersion
1070
     0
1000
AcDbSavedByObjectVersion
1070
     0
1000
AcDbSavedByObjectVersion
1070
     0
1000
AcDbSavedByObjectVersion
1070
     0
1000
AcDbSavedByObjectVersion
1070
     0
  0
DICTIONARYVAR
  5
12DE7
102
{ACAD_REACTORS
330
125BE
102
}
330
125BE
100
DictionaryVariables
280
     0
  1
1:1
  0
DICTIONARYVAR
  5
12DE6
102
{ACAD_REACTORS
330
125BE
102
}
330
125BE
100
DictionaryVariables
280
     0
  1
STANDARD
  0
DICTIONARYVAR
  5
12DE5
102
{ACAD_REACTORS
330
125BE
102
}
330
125BE
100
DictionaryVariables
280
     0
  1
STANDARD
  0
DICTIONARYVAR
  5
125BF
102
{ACAD_REACTORS
330
125BE
102
}
330
125BE
100
DictionaryVariables
280
     0
  1
2
  0
DICTIONARYVAR
  5
13324
102
{ACAD_REACTORS
330
125BE
102
}
330
125BE
100
DictionaryVariables
280
     0
  1
0
  0
DICTIONARYVAR
  5
12EB5
102
{ACAD_REACTORS
330
125BE
102
}
330
125BE
100
DictionaryVariables
280
     0
  1
0
  0
DICTIONARYVAR
  5
12EB4
102
{ACAD_REACTORS
330
125BE
102
}
330
125BE
100
DictionaryVariables
280
     0
  1
0
  0
DICTIONARYVAR
  5
125C0
102
{ACAD_REACTORS
330
125BE
102
}
330
125BE
100
DictionaryVariables
280
     0
  1

  0
DICTIONARYVAR
  5
13323
102
{ACAD_REACTORS
330
125BE
102
}
330
125BE
100
DictionaryVariables
280
     0
  1
127
  0
XRECORD
  5
4D012
102
{ACAD_REACTORS
330
4D011
102
}
330
4D011
100
AcDbXrecord
280
     1
330
8AE2
330
8AE3
330
8AE4
330
8AE5
330
8AE6
330
8AE7
330
8AE8
330
8AE9
330
8AEA
330
4BB87
  0
VLO-VL
  5
E29
102
{ACAD_REACTORS
330
E28
102
}
330
E28
100
vlo_VL
 90
   -64512
 91
       12
 92
        1
 40
2.5
300
(&VLO-R . 0)
  0
DICTIONARY
  5
12D31
330
12D30
100
AcDbDictionary
280
     1
281
     1
  3
ACAD_XREC_ROUNDTRIP
360
1E336
  3
BUMPTILE
360
12D33
  3
DIFFUSETILE
360
12D32
  3
OPACITYTILE
360
12D36
  3
REFLECTIONTILE
360
12D35
  3
REFRACTIONTILE
360
12D37
  3
SPECULARTILE
360
12D34
  0
DICTIONARY
  5
12D29
330
12D28
100
AcDbDictionary
280
     1
281
     1
  3
ACAD_XREC_ROUNDTRIP
360
1E335
  3
BUMPTILE
360
12D2B
  3
DIFFUSETILE
360
12D2A
  3
OPACITYTILE
360
12D2E
  3
REFLECTIONTILE
360
12D2D
  3
REFRACTIONTILE
360
12D2F
  3
SPECULARTILE
360
12D2C
  0
DICTIONARY
  5
1E333
330
6897
100
AcDbDictionary
280
     1
281
     1
  3
ACAD_XREC_ROUNDTRIP
360
1E334
  0
DICTIONARY
  5
12DCD
330
12D4A
100
AcDbDictionary
280
     1
281
     1
  3
ACAD_ROUNDTRIP_2008_TABLESTYLE_CELLSTYLEMAP
360
85950
  0
DICTIONARY
  5
1E3C5
330
1E3C4
100
AcDbDictionary
280
     1
281
     1
  3
ACAD_XREC_ROUNDTRIP
360
1E3C6
  0
XRECORD
  5
1E336
102
{ACAD_REACTORS
330
12D31
102
}
330
12D31
100
AcDbXrecord
280
     1
102
MATERIAL
148
0.0
149
0.0
149
0.0
 93
        0
 94
      127
282
     0
 72
     0
 77
     0
171
     0
175
     0
179
     0
273
     0
  0
XRECORD
  5
12D33
102
{ACAD_REACTORS
330
12D31
102
}
330
12D31
100
AcDbXrecord
280
     1
270
     1
271
     1
  0
XRECORD
  5
12D32
102
{ACAD_REACTORS
330
12D31
102
}
330
12D31
100
AcDbXrecord
280
     1
270
     1
271
     1
  0
XRECORD
  5
12D36
102
{ACAD_REACTORS
330
12D31
102
}
330
12D31
100
AcDbXrecord
280
     1
270
     1
271
     1
  0
XRECORD
  5
12D35
102
{ACAD_REACTORS
330
12D31
102
}
330
12D31
100
AcDbXrecord
280
     1
270
     1
271
     1
  0
XRECORD
  5
12D37
102
{ACAD_REACTORS
330
12D31
102
}
330
12D31
100
AcDbXrecord
280
     1
270
     1
271
     1
  0
XRECORD
  5
12D34
102
{ACAD_REACTORS
330
12D31
102
}
330
12D31
100
AcDbXrecord
280
     1
270
     1
271
     1
  0
XRECORD
  5
1E335
102
{ACAD_REACTORS
330
12D29
102
}
330
12D29
100
AcDbXrecord
280
     1
102
MATERIAL
148
0.0
149
0.0
149
0.0
 93
        0
 94
      127
282
     0
 72
     0
 77
     0
171
     0
175
     0
179
     0
273
     0
  0
XRECORD
  5
12D2B
102
{ACAD_REACTORS
330
12D29
102
}
330
12D29
100
AcDbXrecord
280
     1
270
     1
271
     1
  0
XRECORD
  5
12D2A
102
{ACAD_REACTORS
330
12D29
102
}
330
12D29
100
AcDbXrecord
280
     1
270
     1
271
     1
  0
XRECORD
  5
12D2E
102
{ACAD_REACTORS
330
12D29
102
}
330
12D29
100
AcDbXrecord
280
     1
270
     1
271
     1
  0
XRECORD
  5
12D2D
102
{ACAD_REACTORS
330
12D29
102
}
330
12D29
100
AcDbXrecord
280
     1
270
     1
271
     1
  0
XRECORD
  5
12D2F
102
{ACAD_REACTORS
330
12D29
102
}
330
12D29
100
AcDbXrecord
280
     1
270
     1
271
     1
  0
XRECORD
  5
12D2C
102
{ACAD_REACTORS
330
12D29
102
}
330
12D29
100
AcDbXrecord
280
     1
270
     1
271
     1
  0
XRECORD
  5
1E334
102
{ACAD_REACTORS
330
1E333
102
}
330
1E333
100
AcDbXrecord
280
     1
102
MATERIAL
148
0.0
149
0.0
149
0.0
 93
        0
 94
      127
282
     0
 72
     1
 77
     1
171
     1
175
     1
179
     1
273
     0
  0
CELLSTYLEMAP
  5
85950
102
{ACAD_REACTORS
330
12DCD
102
}
330
12DCD
100
AcDbCellStyleMap
 90
        3
300
CELLSTYLE
  1
TABLEFORMAT_BEGIN
 90
        5
170
     1
 91
        0
 92
    32768
 62
   257
 93
        1
300
CONTENTFORMAT
  1
CONTENTFORMAT_BEGIN
 90
        0
 91
        0
 92
      512
 93
        0
300

 40
0.0
140
1.0
 94
        5
 62
     0
340
11
144
6.0
309
CONTENTFORMAT_END
171
     1
301
MARGIN
  1
CELLMARGIN_BEGIN
 40
1.5
 40
1.5
 40
1.5
 40
1.5
 40
0.18
 40
0.18
309
CELLMARGIN_END
 94
        6
 95
        1
302
GRIDFORMAT
  1
GRIDFORMAT_BEGIN
 90
        0
 91
        1
 62
     0
 92
       -2
340
0
 93
        0
 40
1.125
309
GRIDFORMAT_END
 95
        2
302
GRIDFORMAT
  1
GRIDFORMAT_BEGIN
 90
        0
 91
        1
 62
     0
 92
       -2
340
0
 93
        0
 40
1.125
309
GRIDFORMAT_END
 95
        4
302
GRIDFORMAT
  1
GRIDFORMAT_BEGIN
 90
        0
 91
        1
 62
     0
 92
       -2
340
0
 93
        0
 40
1.125
309
GRIDFORMAT_END
 95
        8
302
GRIDFORMAT
  1
GRIDFORMAT_BEGIN
 90
        0
 91
        1
 62
     0
 92
       -2
340
0
 93
        0
 40
1.125
309
GRIDFORMAT_END
 95
       16
302
GRIDFORMAT
  1
GRIDFORMAT_BEGIN
 90
        0
 91
        1
 62
     0
 92
       -2
340
0
 93
        0
 40
1.125
309
GRIDFORMAT_END
 95
       32
302
GRIDFORMAT
  1
GRIDFORMAT_BEGIN
 90
        0
 91
        1
 62
     0
 92
       -2
340
0
 93
        0
 40
1.125
309
GRIDFORMAT_END
309
TABLEFORMAT_END
  1
CELLSTYLE_BEGIN
 90
        1
 91
        1
300
_TITLE
309
CELLSTYLE_END
300
CELLSTYLE
  1
TABLEFORMAT_BEGIN
 90
        5
170
     1
 91
        0
 92
        0
 62
   257
 93
        1
300
CONTENTFORMAT
  1
CONTENTFORMAT_BEGIN
 90
        0
 91
        0
 92
      512
 93
        0
300

 40
0.0
140
1.0
 94
        5
 62
     0
340
11
144
4.5
309
CONTENTFORMAT_END
171
     1
301
MARGIN
  1
CELLMARGIN_BEGIN
 40
1.5
 40
1.5
 40
1.5
 40
1.5
 40
0.18
 40
0.18
309
CELLMARGIN_END
 94
        6
 95
        1
302
GRIDFORMAT
  1
GRIDFORMAT_BEGIN
 90
        0
 91
        1
 62
     0
 92
       -2
340
0
 93
        0
 40
1.125
309
GRIDFORMAT_END
 95
        2
302
GRIDFORMAT
  1
GRIDFORMAT_BEGIN
 90
        0
 91
        1
 62
     0
 92
       -2
340
0
 93
        0
 40
1.125
309
GRIDFORMAT_END
 95
        4
302
GRIDFORMAT
  1
GRIDFORMAT_BEGIN
 90
        0
 91
        1
 62
     0
 92
       -2
340
0
 93
        0
 40
1.125
309
GRIDFORMAT_END
 95
        8
302
GRIDFORMAT
  1
GRIDFORMAT_BEGIN
 90
        0
 91
        1
 62
     0
 92
       -2
340
0
 93
        0
 40
1.125
309
GRIDFORMAT_END
 95
       16
302
GRIDFORMAT
  1
GRIDFORMAT_BEGIN
 90
        0
 91
        1
 62
     0
 92
       -2
340
0
 93
        0
 40
1.125
309
GRIDFORMAT_END
 95
       32
302
GRIDFORMAT
  1
GRIDFORMAT_BEGIN
 90
        0
 91
        1
 62
     0
 92
       -2
340
0
 93
        0
 40
1.125
309
GRIDFORMAT_END
309
TABLEFORMAT_END
  1
CELLSTYLE_BEGIN
 90
        2
 91
        1
300
_HEADER
309
CELLSTYLE_END
300
CELLSTYLE
  1
TABLEFORMAT_BEGIN
 90
        5
170
     1
 91
        0
 92
        0
 62
   257
 93
        1
300
CONTENTFORMAT
  1
CONTENTFORMAT_BEGIN
 90
        0
 91
        0
 92
      512
 93
        0
300

 40
0.0
140
1.0
 94
        2
 62
     0
340
11
144
4.5
309
CONTENTFORMAT_END
171
     1
301
MARGIN
  1
CELLMARGIN_BEGIN
 40
1.5
 40
1.5
 40
1.5
 40
1.5
 40
0.18
 40
0.18
309
CELLMARGIN_END
 94
        6
 95
        1
302
GRIDFORMAT
  1
GRIDFORMAT_BEGIN
 90
        0
 91
        1
 62
     0
 92
       -2
340
0
 93
        0
 40
1.125
309
GRIDFORMAT_END
 95
        2
302
GRIDFORMAT
  1
GRIDFORMAT_BEGIN
 90
        0
 91
        1
 62
     0
 92
       -2
340
0
 93
        0
 40
1.125
309
GRIDFORMAT_END
 95
        4
302
GRIDFORMAT
  1
GRIDFORMAT_BEGIN
 90
        0
 91
        1
 62
     0
 92
       -2
340
0
 93
        0
 40
1.125
309
GRIDFORMAT_END
 95
        8
302
GRIDFORMAT
  1
GRIDFORMAT_BEGIN
 90
        0
 91
        1
 62
     0
 92
       -2
340
0
 93
        0
 40
1.125
309
GRIDFORMAT_END
 95
       16
302
GRIDFORMAT
  1
GRIDFORMAT_BEGIN
 90
        0
 91
        1
 62
     0
 92
       -2
340
0
 93
        0
 40
1.125
309
GRIDFORMAT_END
 95
       32
302
GRIDFORMAT
  1
GRIDFORMAT_BEGIN
 90
        0
 91
        1
 62
     0
 92
       -2
340
0
 93
        0
 40
1.125
309
GRIDFORMAT_END
309
TABLEFORMAT_END
  1
CELLSTYLE_BEGIN
 90
        3
 91
        2
300
_DATA
309
CELLSTYLE_END
  0
XRECORD
  5
1E3C6
102
{ACAD_REACTORS
330
1E3C5
102
}
330
1E3C5
100
AcDbXrecord
280
     1
102
RTVSPropertyOp0
 70
     1
102
RTVSPropertyOp1
 70
     1
102
RTVSPropertyOp2
 70
     1
102
RTVSPropertyOp3
 70
     1
102
RTVSPropertyOp4
 70
     1
102
RTVSPropertyOp5
 70
     1
102
RTVSPropertyOp6
 70
     1
102
RTVSPropertyOp7
 70
     1
102
RTVSPropertyOp8
 70
     1
102
RTVSPropertyOp9
 70
     1
102
RTVSPropertyOp10
 70
     1
102
RTVSPropertyOp11
 70
     1
102
RTVSPropertyOp12
 70
     1
102
RTVSPropertyOp13
 70
     1
102
RTVSPropertyOp14
 70
     1
102
RTVSPropertyOp15
 70
     1
102
RTVSPropertyOp16
 70
     1
102
RTVSPropertyOp17
 70
     1
102
RTVSPropertyOp18
 70
     1
102
RTVSPropertyOp19
 70
     1
102
RTVSPropertyOp20
 70
     1
102
RTVSPropertyOp21
 70
     1
102
RTVSPropertyOp22
 70
     1
102
RTVSPropertyOp23
 70
     1
102
RTVSPropertyOp24
 70
     1
102
RTVSPropertyOp25
 70
     1
102
RTVSPropertyOp26
 70
     1
102
RTVSPropertyOp27
 70
     1
102
RTVSPropertyOp28
 70
     1
102
RTVSPropertyOp29
 70
     1
102
RTVSPropertyOp30
 70
     1
102
RTVSPropertyOp31
 70
     1
102
RTVSPropertyOp32
 70
     1
  0
ENDSEC
  0
EOF
