  0
SECTION
  2
HEADER
  9
$ACADVER
  1
AC1015
  9
$ACADMAINTVER
 70
    20
  9
$DWGCODEPAGE
  3
ANSI_936
  9
$INSBASE
 10
0.0
 20
0.0
 30
0.0
  9
$EXTMIN
 10
375.5562134814872
 20
184.529655967694
 30
-0.0015258207003583
  9
$EXTMAX
 10
672.6652799046124
 20
394.5792560126008
 30
0.0000000349246037
  9
$LIMMIN
 10
0.0
 20
0.0
  9
$LIMMAX
 10
12.0
 20
9.0
  9
$ORTHOMODE
 70
     1
  9
$REGENMODE
 70
     1
  9
$FILLMODE
 70
     1
  9
$QTEXTMODE
 70
     0
  9
$MIRRTEXT
 70
     1
  9
$LTSCALE
 40
1.0
  9
$ATTMODE
 70
     1
  9
$TEXTSIZE
 40
0.2
  9
$TRACEWID
 40
0.05
  9
$TEXTSTYLE
  7
Standard
  9
$CLAYER
  8
DIM
  9
$CELTYPE
  6
ByLayer
  9
$CECOLOR
 62
   256
  9
$CELTSCALE
 40
1.0
  9
$DISPSILH
 70
     0
  9
$DIMSCALE
 40
1.0
  9
$DIMASZ
 40
3.0
  9
$DIMEXO
 40
0.2
  9
$DIMDLI
 40
0.2
  9
$DIMRND
 40
0.0
  9
$DIMDLE
 40
0.0
  9
$DIMEXE
 40
1.199999999999999
  9
$DIMTP
 40
0.0
  9
$DIMTM
 40
0.0
  9
$DIMTXT
 40
3.5
  9
$DIMCEN
 40
0.0
  9
$DIMTSZ
 40
0.0
  9
$DIMTOL
 70
     0
  9
$DIMLIM
 70
     0
  9
$DIMTIH
 70
     0
  9
$DIMTOH
 70
     0
  9
$DIMSE1
 70
     0
  9
$DIMSE2
 70
     0
  9
$DIMTAD
 70
     1
  9
$DIMZIN
 70
     8
  9
$DIMBLK
  1

  9
$DIMASO
 70
     1
  9
$DIMSHO
 70
     1
  9
$DIMPOST
  1

  9
$DIMAPOST
  1

  9
$DIMALT
 70
     0
  9
$DIMALTD
 70
     2
  9
$DIMALTF
 40
25.4
  9
$DIMLFAC
 40
1.0
  9
$DIMTOFL
 70
     0
  9
$DIMTVP
 40
0.0
  9
$DIMTIX
 70
     0
  9
$DIMSOXD
 70
     0
  9
$DIMSAH
 70
     0
  9
$DIMBLK1
  1

  9
$DIMBLK2
  1

  9
$DIMSTYLE
  2
01
  9
$DIMCLRD
 70
     1
  9
$DIMCLRE
 70
     6
  9
$DIMCLRT
 70
     4
  9
$DIMTFAC
 40
1.0
  9
$DIMGAP
 40
0.8
  9
$DIMJUST
 70
     0
  9
$DIMSD1
 70
     0
  9
$DIMSD2
 70
     0
  9
$DIMTOLJ
 70
     1
  9
$DIMTZIN
 70
     0
  9
$DIMALTZ
 70
     0
  9
$DIMALTTZ
 70
     0
  9
$DIMUPT
 70
     0
  9
$DIMDEC
 70
     1
  9
$DIMTDEC
 70
     1
  9
$DIMALTU
 70
     2
  9
$DIMALTTD
 70
     2
  9
$DIMTXSTY
  7
Romans字体
  9
$DIMAUNIT
 70
     0
  9
$DIMADEC
 70
     2
  9
$DIMALTRND
 40
0.0
  9
$DIMAZIN
 70
     2
  9
$DIMDSEP
 70
    46
  9
$DIMATFIT
 70
     3
  9
$DIMFRAC
 70
     0
  9
$DIMLDRBLK
  1

  9
$DIMLUNIT
 70
     2
  9
$DIMLWD
 70
    -2
  9
$DIMLWE
 70
    -2
  9
$DIMTMOVE
 70
     0
  9
$LUNITS
 70
     2
  9
$LUPREC
 70
     4
  9
$SKETCHINC
 40
0.1
  9
$FILLETRAD
 40
0.5
  9
$AUNITS
 70
     0
  9
$AUPREC
 70
     0
  9
$MENU
  1
.
  9
$ELEVATION
 40
0.0
  9
$PELEVATION
 40
0.0
  9
$THICKNESS
 40
0.0
  9
$LIMCHECK
 70
     0
  9
$CHAMFERA
 40
0.5
  9
$CHAMFERB
 40
0.5
  9
$CHAMFERC
 40
1.0
  9
$CHAMFERD
 40
0.0
  9
$SKPOLY
 70
     0
  9
$TDCREATE
 40
2456524.383632987
  9
$TDUCREATE
 40
2456524.050299653
  9
$TDUPDATE
 40
2460316.695001285
  9
$TDUUPDATE
 40
2460316.361667952
  9
$TDINDWG
 40
1.0135792824
  9
$TDUSRTIMER
 40
1.0135605440
  9
$USRTIMER
 70
     1
  9
$ANGBASE
 50
0.0
  9
$ANGDIR
 70
     0
  9
$PDMODE
 70
     0
  9
$PDSIZE
 40
0.0
  9
$PLINEWID
 40
0.0
  9
$SPLFRAME
 70
     0
  9
$SPLINETYPE
 70
     6
  9
$SPLINESEGS
 70
     8
  9
$HANDSEED
  5
189B6
  9
$SURFTAB1
 70
     6
  9
$SURFTAB2
 70
     6
  9
$SURFTYPE
 70
     6
  9
$SURFU
 70
     6
  9
$SURFV
 70
     6
  9
$UCSBASE
  2

  9
$UCSNAME
  2

  9
$UCSORG
 10
0.0
 20
0.0
 30
0.0
  9
$UCSXDIR
 10
1.0
 20
0.0
 30
0.0
  9
$UCSYDIR
 10
0.0
 20
1.0
 30
0.0
  9
$UCSORTHOREF
  2

  9
$UCSORTHOVIEW
 70
     0
  9
$UCSORGTOP
 10
0.0
 20
0.0
 30
0.0
  9
$UCSORGBOTTOM
 10
0.0
 20
0.0
 30
0.0
  9
$UCSORGLEFT
 10
0.0
 20
0.0
 30
0.0
  9
$UCSORGRIGHT
 10
0.0
 20
0.0
 30
0.0
  9
$UCSORGFRONT
 10
0.0
 20
0.0
 30
0.0
  9
$UCSORGBACK
 10
0.0
 20
0.0
 30
0.0
  9
$PUCSBASE
  2

  9
$PUCSNAME
  2

  9
$PUCSORG
 10
0.0
 20
0.0
 30
0.0
  9
$PUCSXDIR
 10
1.0
 20
0.0
 30
0.0
  9
$PUCSYDIR
 10
0.0
 20
1.0
 30
0.0
  9
$PUCSORTHOREF
  2

  9
$PUCSORTHOVIEW
 70
     0
  9
$PUCSORGTOP
 10
0.0
 20
0.0
 30
0.0
  9
$PUCSORGBOTTOM
 10
0.0
 20
0.0
 30
0.0
  9
$PUCSORGLEFT
 10
0.0
 20
0.0
 30
0.0
  9
$PUCSORGRIGHT
 10
0.0
 20
0.0
 30
0.0
  9
$PUCSORGFRONT
 10
0.0
 20
0.0
 30
0.0
  9
$PUCSORGBACK
 10
0.0
 20
0.0
 30
0.0
  9
$USERI1
 70
     0
  9
$USERI2
 70
     0
  9
$USERI3
 70
     0
  9
$USERI4
 70
     0
  9
$USERI5
 70
     0
  9
$USERR1
 40
0.0
  9
$USERR2
 40
0.0
  9
$USERR3
 40
0.0
  9
$USERR4
 40
0.0
  9
$USERR5
 40
0.0
  9
$WORLDVIEW
 70
     1
  9
$SHADEDGE
 70
     3
  9
$SHADEDIF
 70
    70
  9
$TILEMODE
 70
     1
  9
$MAXACTVP
 70
    64
  9
$PINSBASE
 10
0.0
 20
0.0
 30
0.0
  9
$PLIMCHECK
 70
     0
  9
$PEXTMIN
 10
1.000000000000000E+20
 20
1.000000000000000E+20
 30
1.000000000000000E+20
  9
$PEXTMAX
 10
-1.000000000000000E+20
 20
-1.000000000000000E+20
 30
-1.000000000000000E+20
  9
$PLIMMIN
 10
0.0
 20
0.0
  9
$PLIMMAX
 10
12.0
 20
9.0
  9
$UNITMODE
 70
     0
  9
$VISRETAIN
 70
     1
  9
$PLINEGEN
 70
     0
  9
$PSLTSCALE
 70
     1
  9
$TREEDEPTH
 70
  3020
  9
$CMLSTYLE
  2
Standard
  9
$CMLJUST
 70
     0
  9
$CMLSCALE
 40
1.0
  9
$PROXYGRAPHICS
 70
     1
  9
$MEASUREMENT
 70
     0
  9
$CELWEIGHT
370
    -1
  9
$ENDCAPS
280
     0
  9
$JOINSTYLE
280
     0
  9
$LWDISPLAY
290
     0
  9
$INSUNITS
 70
     4
  9
$HYPERLINKBASE
  1

  9
$STYLESHEET
  1
monochrome.ctb
  9
$XEDIT
290
     1
  9
$CEPSNTYPE
380
     0
  9
$PSTYLEMODE
290
     1
  9
$FINGERPRINTGUID
  2
{4A02065B-8BB3-4A96-9036-502DC906C165}
  9
$VERSIONGUID
  2
{B2A937F1-75B2-43B4-87D3-5A94032EFB1D}
  9
$EXTNAMES
290
     1
  9
$PSVPSCALE
 40
0.0
  9
$OLESTARTUP
290
     0
  0
ENDSEC
  0
SECTION
  2
CLASSES
  0
CLASS
  1
ACDBDICTIONARYWDFLT
  2
AcDbDictionaryWithDefault
  3
ObjectDBX Classes
 90
        0
280
     0
281
     0
  0
CLASS
  1
VISUALSTYLE
  2
AcDbVisualStyle
  3
ObjectDBX Classes
 90
     4095
280
     0
281
     0
  0
CLASS
  1
MATERIAL
  2
AcDbMaterial
  3
ObjectDBX Classes
 90
     1153
280
     0
281
     0
  0
CLASS
  1
TABLESTYLE
  2
AcDbTableStyle
  3
ObjectDBX Classes
 90
     4095
280
     0
281
     0
  0
CLASS
  1
SCALE
  2
AcDbScale
  3
ObjectDBX Classes
 90
     1153
280
     0
281
     0
  0
CLASS
  1
MLEADERSTYLE
  2
AcDbMLeaderStyle
  3
ACDB_MLEADERSTYLE_CLASS
 90
     4095
280
     0
281
     0
  0
CLASS
  1
CELLSTYLEMAP
  2
AcDbCellStyleMap
  3
ObjectDBX Classes
 90
     1152
280
     0
281
     0
  0
CLASS
  1
DICTIONARYVAR
  2
AcDbDictionaryVar
  3
ObjectDBX Classes
 90
        0
280
     0
281
     0
  0
CLASS
  1
SORTENTSTABLE
  2
AcDbSortentsTable
  3
ObjectDBX Classes
 90
        0
280
     0
281
     0
  0
CLASS
  1
ACAD_EVALUATION_GRAPH
  2
AcDbEvalGraph
  3
ObjectDBX Classes
 90
     1153
280
     0
281
     0
  0
CLASS
  1
ACAECUSTOBJ
  2
AcAeEditorObj
  3
AcAeEditorObj
 90
     1024
280
     0
281
     0
  0
CLASS
  1
ACDB_DYNAMICBLOCKPURGEPREVENTER_VERSION
  2
AcDbDynamicBlockPurgePreventer
  3
ObjectDBX Classes
 90
     1153
280
     0
281
     0
  0
CLASS
  1
MENTALRAYRENDERSETTINGS
  2
AcDbMentalRayRenderSettings
  3
SCENEOE
 90
     1024
280
     0
281
     0
  0
CLASS
  1
ACDB_BLOCKREPRESENTATION_DATA
  2
AcDbBlockRepresentationData
  3
ObjectDBX Classes
 90
    33921
280
     0
281
     0
  0
CLASS
  1
DIMASSOC
  2
AcDbDimAssoc
  3
"AcDbDimAssoc|Product Desc:     AcDim ARX App For Dimension|Company:          Autodesk, Inc.|WEB Address:      www.autodesk.com"
 90
    32768
280
     0
281
     0
  0
CLASS
  1
ACDBPLACEHOLDER
  2
AcDbPlaceHolder
  3
ObjectDBX Classes
 90
        0
280
     0
281
     0
  0
CLASS
  1
LAYOUT
  2
AcDbLayout
  3
ObjectDBX Classes
 90
        0
280
     0
281
     0
  0
ENDSEC
  0
SECTION
  2
TABLES
  0
TABLE
  2
VPORT
  5
8
102
{ACAD_XDICTIONARY
360
50EE
102
}
330
0
100
AcDbSymbolTable
 70
     1
  0
VPORT
  5
29
330
8
100
AcDbSymbolTableRecord
100
AcDbViewportTableRecord
  2
*Active
 70
     0
 10
0.0
 20
0.0
 11
1.0
 21
1.0
 12
408.3071282710775
 22
143.9335637775608
 13
0.0
 23
0.0
 14
0.5
 24
0.5
 15
0.5
 25
0.5
 16
0.0
 26
0.0
 36
1.0
 17
104.9654968719086
 27
148.5022307685978
 37
0.0
 40
263.5091724684683
 41
2.087847730600292
 42
50.0
 43
0.0
 44
0.0
 50
0.0
 51
0.0
 71
     0
 72
   100
 73
     1
 74
     3
 75
     0
 76
     0
 77
     0
 78
     0
281
     0
 65
     1
110
0.0
120
0.0
130
0.0
111
1.0
121
0.0
131
0.0
112
0.0
122
1.0
132
0.0
 79
     0
146
0.0
  0
ENDTAB
  0
TABLE
  2
LTYPE
  5
5
330
0
100
AcDbSymbolTable
 70
     2
  0
LTYPE
  5
14
330
5
100
AcDbSymbolTableRecord
100
AcDbLinetypeTableRecord
  2
ByBlock
 70
     0
  3

 72
    65
 73
     0
 40
0.0
  0
LTYPE
  5
15
330
5
100
AcDbSymbolTableRecord
100
AcDbLinetypeTableRecord
  2
ByLayer
 70
     0
  3

 72
    65
 73
     0
 40
0.0
  0
LTYPE
  5
16
330
5
100
AcDbSymbolTableRecord
100
AcDbLinetypeTableRecord
  2
Continuous
 70
     0
  3
Solid line
 72
    65
 73
     0
 40
0.0
  0
LTYPE
  5
180F9
330
5
100
AcDbSymbolTableRecord
100
AcDbLinetypeTableRecord
  2
CENTER2
 70
     0
  3
Center (.5x) ___ _ ___ _ ___ _ ___ _ ___ _ ___
 72
    65
 73
     4
 40
1.125
 49
0.75
 74
     0
 49
-0.125
 74
     0
 49
0.125
 74
     0
 49
-0.125
 74
     0
  0
ENDTAB
  0
TABLE
  2
LAYER
  5
2
102
{ACAD_XDICTIONARY
360
50B8
102
}
330
0
100
AcDbSymbolTable
 70
     7
  0
LAYER
  5
10
102
{ACAD_XDICTIONARY
360
50D0
102
}
330
2
100
AcDbSymbolTableRecord
100
AcDbLayerTableRecord
  2
0
 70
     0
 62
     7
  6
Continuous
370
    30
390
F
  0
LAYER
  5
3B
102
{ACAD_XDICTIONARY
360
50D2
102
}
330
2
100
AcDbSymbolTableRecord
100
AcDbLayerTableRecord
  2
图层 1
 70
     0
 62
     7
  6
Continuous
370
    -3
390
F
  0
LAYER
  5
50AE
102
{ACAD_XDICTIONARY
360
50AF
102
}
330
2
100
AcDbSymbolTableRecord
100
AcDbLayerTableRecord
  2
图框
 70
     0
 62
     7
  6
Continuous
370
    20
390
F
  0
LAYER
  5
5141
330
2
100
AcDbSymbolTableRecord
100
AcDbLayerTableRecord
  2
Defpoints
 70
     0
 62
     7
  6
Continuous
290
     0
370
    -3
390
F
  0
LAYER
  5
5144
330
2
100
AcDbSymbolTableRecord
100
AcDbLayerTableRecord
  2
DIM
 70
     0
 62
     3
  6
Continuous
370
    15
390
F
1001
AcAecLayerStandard
1000

1000

  0
LAYER
  5
52F3
330
2
100
AcDbSymbolTableRecord
100
AcDbLayerTableRecord
  2
打标文字
 70
     0
 62
     3
  6
Continuous
370
    20
390
F
  0
LAYER
  5
180FC
102
{ACAD_XDICTIONARY
360
180FD
102
}
330
2
100
AcDbSymbolTableRecord
100
AcDbLayerTableRecord
  2
Cen
 70
     0
 62
     1
  6
CENTER2
370
    13
390
F
  0
ENDTAB
  0
TABLE
  2
STYLE
  5
3
330
0
100
AcDbSymbolTable
 70
     6
  0
STYLE
  5
11
330
3
100
AcDbSymbolTableRecord
100
AcDbTextStyleTableRecord
  2
Standard
 70
     0
 40
0.0
 41
0.75
 50
0.0
 71
     0
 42
0.2
  3

  4

1001
ACAD
1000
仿宋_GB2312
1071
    34353
  0
STYLE
  5
FD48
330
3
100
AcDbSymbolTableRecord
100
AcDbTextStyleTableRecord
  2
Romans字体
 70
     0
 40
0.0
 41
0.75
 50
0.0
 71
     0
 42
0.2
  3
romans.shx
  4

  0
STYLE
  5
11080
330
3
100
AcDbSymbolTableRecord
100
AcDbTextStyleTableRecord
  2
工程字
 70
     0
 40
0.0
 41
1.0
 50
0.0
 71
     0
 42
3.5
  3
gbenor.shx
  4
gbcbig.shx
  0
STYLE
  5
11081
330
3
100
AcDbSymbolTableRecord
100
AcDbTextStyleTableRecord
  2
Chinese
 70
     0
 40
0.0
 41
1.0
 50
0.0
 71
     0
 42
2.5
  3
PMingLiU.ttf
  4

1001
ACAD
1000
PMingLiU
1071
    34834
  0
STYLE
  5
180FF
330
3
100
AcDbSymbolTableRecord
100
AcDbTextStyleTableRecord
  2
数字
 70
     0
 40
2.5
 41
0.75
 50
0.0
 71
     0
 42
0.2
  3
romans.shx
  4

  0
ENDTAB
  0
TABLE
  2
VIEW
  5
6
330
0
100
AcDbSymbolTable
 70
     0
  0
ENDTAB
  0
TABLE
  2
UCS
  5
7
330
0
100
AcDbSymbolTable
 70
     0
  0
ENDTAB
  0
TABLE
  2
APPID
  5
9
330
0
100
AcDbSymbolTable
 70
    17
  0
APPID
  5
12
330
9
100
AcDbSymbolTableRecord
100
AcDbRegAppTableRecord
  2
ACAD
 70
     0
  0
APPID
  5
5024
330
9
100
AcDbSymbolTableRecord
100
AcDbRegAppTableRecord
  2
ACAD_MLEADERVER
 70
     0
  0
APPID
  5
50B5
330
9
100
AcDbSymbolTableRecord
100
AcDbRegAppTableRecord
  2
AcDbDynamicBlockGUID
 70
     0
  0
APPID
  5
50B6
330
9
100
AcDbSymbolTableRecord
100
AcDbRegAppTableRecord
  2
AcDbBlockRepETag
 70
     0
  0
APPID
  5
50B7
330
9
100
AcDbSymbolTableRecord
100
AcDbRegAppTableRecord
  2
ACAD_PSEXT
 70
     0
  0
APPID
  5
50CF
330
9
100
AcDbSymbolTableRecord
100
AcDbRegAppTableRecord
  2
AcadAnnoPO
 70
     0
  0
APPID
  5
5146
330
9
100
AcDbSymbolTableRecord
100
AcDbRegAppTableRecord
  2
AcAecLayerStandard
 70
     0
  0
APPID
  5
5147
330
9
100
AcDbSymbolTableRecord
100
AcDbRegAppTableRecord
  2
ACAD_DSTYLE_DIMJAG
 70
     0
  0
APPID
  5
5148
330
9
100
AcDbSymbolTableRecord
100
AcDbRegAppTableRecord
  2
ACAD_DSTYLE_DIMTALN
 70
     0
  0
APPID
  5
52AD
330
9
100
AcDbSymbolTableRecord
100
AcDbRegAppTableRecord
  2
ACAUTHENVIRON
 70
     0
  0
APPID
  5
52B0
330
9
100
AcDbSymbolTableRecord
100
AcDbRegAppTableRecord
  2
AcDbDynamicBlockTrueName
 70
     0
  0
APPID
  5
67C6
330
9
100
AcDbSymbolTableRecord
100
AcDbRegAppTableRecord
  2
ACAD_EXEMPT_FROM_CAD_STANDARDS
 70
     0
  0
APPID
  5
6838
330
9
100
AcDbSymbolTableRecord
100
AcDbRegAppTableRecord
  2
ACAD_NAV_VCDISPLAY
 70
     0
  0
APPID
  5
70A9
330
9
100
AcDbSymbolTableRecord
100
AcDbRegAppTableRecord
  2
DCO15
 70
     0
  0
APPID
  5
8725
330
9
100
AcDbSymbolTableRecord
100
AcDbRegAppTableRecord
  2
AcDbBlockRepBTag
 70
     0
  0
APPID
  5
FE64
330
9
100
AcDbSymbolTableRecord
100
AcDbRegAppTableRecord
  2
ACAD_DSTYLE_DIMRADIAL_EXTENSION
 70
     0
  0
APPID
  5
FF93
330
9
100
AcDbSymbolTableRecord
100
AcDbRegAppTableRecord
  2
ACAD_DSTYLE_DIMBREAK
 70
     0
  0
ENDTAB
  0
TABLE
  2
DIMSTYLE
  5
A
330
0
100
AcDbSymbolTable
 70
     3
100
AcDbDimStyleTable
 71
     2
340
5145
340
27
  0
DIMSTYLE
105
27
330
A
100
AcDbSymbolTableRecord
100
AcDbDimStyleTableRecord
  2
Standard
 70
     0
340
11
  0
DIMSTYLE
105
5145
102
{ACAD_REACTORS
330
186B1
330
186B2
330
186B3
102
}
330
A
100
AcDbSymbolTableRecord
100
AcDbDimStyleTableRecord
  2
01
 70
     0
 41
3.0
 42
0.2
 43
0.2
 44
1.199999999999999
 73
     0
 74
     0
 77
     1
 78
     8
 79
     2
140
3.5
141
0.0
147
0.8
176
     1
177
     6
178
     4
179
     2
271
     1
272
     1
340
FD48
1001
ACAD_DSTYLE_DIMJAG
1070
   388
1040
1.5
1001
ACAD_DSTYLE_DIMTALN
1070
   392
1070
     0
  0
ENDTAB
  0
TABLE
  2
BLOCK_RECORD
  5
1
330
0
100
AcDbSymbolTable
 70
     7
  0
BLOCK_RECORD
  5
1F
102
{ACAD_XDICTIONARY
360
67C0
102
}
330
1
100
AcDbSymbolTableRecord
100
AcDbBlockTableRecord
  2
*Model_Space
340
22
  0
BLOCK_RECORD
  5
1B
330
1
100
AcDbSymbolTableRecord
100
AcDbBlockTableRecord
  2
*Paper_Space
340
1E
  0
BLOCK_RECORD
  5
23
330
1
100
AcDbSymbolTableRecord
100
AcDbBlockTableRecord
  2
*Paper_Space0
340
26
  0
BLOCK_RECORD
  5
10FE8
102
{ACAD_XDICTIONARY
360
18962
102
}
330
1
100
AcDbSymbolTableRecord
100
AcDbBlockTableRecord
  2
A4图框-NEW
340
0
310
2800000020000000200000000100080000000000000400000000000000000000000000000000000000000000000080000080000000808000800000008000800080800000C0C0C000C0DCC000F0CAA6000020400000206000002080000020A0000020C0000020E00000400000004020000040400000406000004080000040A0
310
000040C0000040E00000600000006020000060400000606000006080000060A0000060C0000060E00000800000008020000080400000806000008080000080A0000080C0000080E00000A0000000A0200000A0400000A0600000A0800000A0A00000A0C00000A0E00000C0000000C0200000C0400000C0600000C0800000C0
310
A00000C0C00000C0E00000E0000000E0200000E0400000E0600000E0800000E0A00000E0C00000E0E00040000000400020004000400040006000400080004000A0004000C0004000E00040200000402020004020400040206000402080004020A0004020C0004020E000404000004040200040404000404060004040800040
310
40A0004040C0004040E00040600000406020004060400040606000406080004060A0004060C0004060E00040800000408020004080400040806000408080004080A0004080C0004080E00040A0000040A0200040A0400040A0600040A0800040A0A00040A0C00040A0E00040C0000040C0200040C0400040C0600040C08000
310
40C0A00040C0C00040C0E00040E0000040E0200040E0400040E0600040E0800040E0A00040E0C00040E0E00080000000800020008000400080006000800080008000A0008000C0008000E00080200000802020008020400080206000802080008020A0008020C0008020E00080400000804020008040400080406000804080
310
008040A0008040C0008040E00080600000806020008060400080606000806080008060A0008060C0008060E00080800000808020008080400080806000808080008080A0008080C0008080E00080A0000080A0200080A0400080A0600080A0800080A0A00080A0C00080A0E00080C0000080C0200080C0400080C0600080C0
310
800080C0A00080C0C00080C0E00080E0000080E0200080E0400080E0600080E0800080E0A00080E0C00080E0E000C0000000C0002000C0004000C0006000C0008000C000A000C000C000C000E000C0200000C0202000C0204000C0206000C0208000C020A000C020C000C020E000C0400000C0402000C0404000C0406000C0
310
408000C040A000C040C000C040E000C0600000C0602000C0604000C0606000C0608000C060A000C060C000C060E000C0800000C0802000C0804000C0806000C0808000C080A000C080C000C080E000C0A00000C0A02000C0A04000C0A06000C0A08000C0A0A000C0A0C000C0A0E000C0C00000C0C02000C0C04000C0C06000
310
C0C08000C0C0A000F0FBFF00A4A0A000808080000000FF0000FF000000FFFF00FF000000FF00FF00FFFF0000FFFFFF0000000000000000000000000000000000000000000000000000000000000000000000000000000000000000000000000000000000000000000000000000000000000000000000000000000000000000
310
000000000000000000000000000000000000000000000000000000000000000000000000000000000000000000000000000000000000000000000000000000000000000000000000000000000000000000000000000000000000000000000000000000000000000000000000000000000000F9F9F9F9F9F9F9F9F9F9F9F9F9
310
F9F9F9F9F9F9F9F9F9F9F9F9F9F9FF00000000F9FF000000000000000000FFFFFFFFFFFFFFFFFFFFFFFFF9FAFAFAFF00000000F9FF000000000000000000FFFFFFFFFFFFFFFFFFFFFFFFFFFFFFFFFF00000000F9FD000000000000000000FFFFFFFFFFFFFFFFFFFFFFFFFFFFFFFFFF00000000F9FF000000000000000000FF
310
FFFFFFFFFFFFFFFFFFFFFFFFFFFFFFFF00000000F9FD000000000000000000FFFFFFFFFFFFFFFFFFFFFFFFFFFFFFFFFF00000000F9FF00000000000000000000000000000000000000000000000000FF00000000F9FD00000000000000000000000000000000000000000000000000FF00000000F9FF000000000000000000
310
00000000000000000000000000000000FF00000000F9FD00000000000000000000000000000000000000000000000000FF00000000F9FF00000000000000000000000000000000000000000000000000FF00000000F9FD00000000000000000000000000000000000000000000000000FF00000000F9FD0000000000000000
310
0000000000000000000000000000000000FF00000000F9FF00000000000000000000000000000000000000000000000000FF00000000F9FD00000000000000000000000000000000000000000000000000FF00000000F9FF00000000000000000000000000000000000000000000000000FF00000000F9FD00000000000000
310
000000000000000000000000000000000000FF00000000F9FF00000000000000000000000000000000000000000000000000FF00000000F9FFFFFFFFFFFFFFFFFFFFFFFFFFFFFFFFFFFFFFFFFFFFFFFFFFFFFF00000000F9FFFFFFF9F9F9F9F9F9F9F9F9F9F9F9F9F9F9F9F9F9F9F9F9F9F9F9000000000000000000000000
310
00000000000000000000000000000000000000000000000000000000000000000000000000000000000000000000000000000000000000000000000000000000000000000000000000000000000000000000000000000000000000000000000000000000000000000000000000000000000000000000000000000000000000
310
0000000000000000000000000000000000000000000000000000000000000000000000000000000000000000000000000000000000000000
102
{BLKREFS
331
11089
102
}
1001
AcDbDynamicBlockGUID
1000
{228D7CDE-5F12-490C-8307-06F6DBCC825B}
1001
AcDbBlockRepETag
1070
     1
1071
      148
1001
ACAD
1000
DesignCenter Data
1002
{
1070
     1
1070
     4
1002
}
  0
BLOCK_RECORD
  5
1870A
330
1
100
AcDbSymbolTableRecord
100
AcDbBlockTableRecord
  2
*D2
340
0
  0
BLOCK_RECORD
  5
18716
330
1
100
AcDbSymbolTableRecord
100
AcDbBlockTableRecord
  2
*D3
340
0
  0
BLOCK_RECORD
  5
18722
330
1
100
AcDbSymbolTableRecord
100
AcDbBlockTableRecord
  2
*D4
340
0
  0
ENDTAB
  0
ENDSEC
  0
SECTION
  2
BLOCKS
  0
BLOCK
  5
20
330
1F
100
AcDbEntity
  8
0
100
AcDbBlockBegin
  2
*Model_Space
 70
     0
 10
0.0
 20
0.0
 30
0.0
  3
*Model_Space
  1

  0
ENDBLK
  5
21
330
1F
100
AcDbEntity
  8
0
100
AcDbBlockEnd
  0
BLOCK
  5
1C
330
1B
100
AcDbEntity
 67
     1
  8
0
100
AcDbBlockBegin
  2
*Paper_Space
 70
     0
 10
0.0
 20
0.0
 30
0.0
  3
*Paper_Space
  1

  0
ENDBLK
  5
1D
330
1B
100
AcDbEntity
 67
     1
  8
0
100
AcDbBlockEnd
  0
BLOCK
  5
24
330
23
100
AcDbEntity
 67
     1
  8
0
100
AcDbBlockBegin
  2
*Paper_Space0
 70
     0
 10
0.0
 20
0.0
 30
0.0
  3
*Paper_Space0
  1

  0
ENDBLK
  5
25
330
23
100
AcDbEntity
 67
     1
  8
0
100
AcDbBlockEnd
  0
BLOCK
  5
10FEA
330
10FE8
100
AcDbEntity
  8
0
100
AcDbBlockBegin
  2
A4图框-NEW
 70
     0
 10
0.0
 20
0.0
 30
0.0
  3
A4图框-NEW
  1

  0
MTEXT
  5
188CE
102
{ACAD_XDICTIONARY
360
18971
102
}
330
10FE8
100
AcDbEntity
  8
图框
 62
     3
100
AcDbMText
 10
967.6594956750133
 20
499.7664151964293
 30
0.0
 40
2.985513575034151
 41
15.50176341157864
 71
     5
 72
     5
  1
BQ LUO
  7
Romans字体
 73
     1
 44
1.0
1001
AcDbBlockRepETag
1070
     1
1071
        0
1005
188CE
1001
ACAD
1000
MTEXTBEGIN
1070
    73
1070
     1
1070
    44
1040
1.0
1070
    74
1070
     0
1000
MTEXTEND
1000
ACAD_MTEXT_DEFINED_HEIGHT_BEGIN
1070
    46
1040
6.292658374511018
1000
ACAD_MTEXT_DEFINED_HEIGHT_END
  0
MTEXT
  5
188CF
330
10FE8
100
AcDbEntity
  8
图框
 62
     3
100
AcDbMText
 10
983.041569333247
 20
499.7664151964293
 30
0.0
 40
2.487927979195124
 41
15.26238390489051
 71
     5
 72
     5
  1
{\W0.7;18.10.2010}
  7
Romans字体
 73
     1
 44
1.0
1001
AcDbBlockRepETag
1070
     1
1071
        1
1005
188CF
1001
ACAD
1000
MTEXTBEGIN
1070
    73
1070
     1
1070
    44
1040
1.0
1070
    74
1070
     0
1000
MTEXTEND
1000
ACAD_MTEXT_DEFINED_HEIGHT_BEGIN
1070
    46
1040
6.292658374511042
1000
ACAD_MTEXT_DEFINED_HEIGHT_END
  0
MTEXT
  5
188D0
330
10FE8
100
AcDbEntity
  8
图框
 62
     3
100
AcDbMText
 10
1012.477254728976
 20
487.1810984474071
 30
0.0
 40
2.985513575034151
 41
17.64876416884615
 71
     5
 72
     5
  1
YY LIN
  7
Romans字体
 73
     1
 44
1.0
1001
AcDbBlockRepETag
1070
     1
1071
        2
1005
188D0
1001
ACAD
1000
MTEXTBEGIN
1070
    73
1070
     1
1070
    44
1040
1.0
1070
    74
1070
     0
1000
MTEXTEND
1000
ACAD_MTEXT_DEFINED_HEIGHT_BEGIN
1070
    46
1040
6.292658374511455
1000
ACAD_MTEXT_DEFINED_HEIGHT_END
  0
MTEXT
  5
188D1
330
10FE8
100
AcDbEntity
  8
图框
 62
     3
100
AcDbMText
 10
1028.977802139886
 20
487.1810984474071
 30
0.0
 40
2.487927979195124
 41
15.35233065297276
 71
     5
 72
     5
  1
{\W0.7;18.10.2010}
  7
Romans字体
 73
     1
 44
1.0
1001
AcDbBlockRepETag
1070
     1
1071
        3
1005
188D1
1001
ACAD
1000
MTEXTBEGIN
1070
    73
1070
     1
1070
    44
1040
1.0
1070
    74
1070
     0
1000
MTEXTEND
1000
ACAD_MTEXT_DEFINED_HEIGHT_BEGIN
1070
    46
1040
6.292658374511495
1000
ACAD_MTEXT_DEFINED_HEIGHT_END
  0
MTEXT
  5
188D2
330
10FE8
100
AcDbEntity
  8
图框
 62
     3
100
AcDbMText
 10
1063.722665487208
 20
525.4145966538831
 30
0.0
 40
2.985513575034151
 41
32.4973914334545
 71
     5
 72
     5
  1
-
  7
Romans字体
 73
     1
 44
1.0
1001
AcDbBlockRepETag
1070
     1
1071
        4
1005
188D2
1001
ACAD
1000
MTEXTBEGIN
1070
    73
1070
     1
1070
    44
1040
1.0
1070
    74
1070
     0
1000
MTEXTEND
1000
ACAD_MTEXT_DEFINED_HEIGHT_BEGIN
1070
    46
1040
11.82914190181707
1000
ACAD_MTEXT_DEFINED_HEIGHT_END
  0
MTEXT
  5
188D3
330
10FE8
100
AcDbEntity
  8
图框
 62
     3
100
AcDbMText
 10
1063.727338552349
 20
513.5854547520641
 30
0.0
 40
2.985513575034151
 41
32.48804530317308
 71
     5
 72
     5
  1
-
  7
Romans字体
 73
     1
 44
1.0
1001
AcDbBlockRepETag
1070
     1
1071
        5
1005
188D3
1001
ACAD
1000
MTEXTBEGIN
1070
    73
1070
     1
1070
    44
1040
1.0
1070
    74
1070
     0
1000
MTEXTEND
1000
ACAD_MTEXT_DEFINED_HEIGHT_BEGIN
1070
    46
1040
11.82914190182139
1000
ACAD_MTEXT_DEFINED_HEIGHT_END
  0
MTEXT
  5
188D4
330
10FE8
100
AcDbEntity
  8
图框
 62
     3
100
AcDbMText
 10
1110.122306614152
 20
526.8006839312707
 30
0.0
 40
2.985513575034151
 41
33.61239199242139
 71
     5
 72
     5
  1
-
  7
Romans字体
 73
     1
 44
1.0
1001
AcDbBlockRepETag
1070
     1
1071
        6
1005
188D4
1001
ACAD
1000
MTEXTBEGIN
1070
    73
1070
     1
1070
    44
1040
1.0
1070
    74
1070
     0
1000
MTEXTEND
1000
ACAD_MTEXT_DEFINED_HEIGHT_BEGIN
1070
    46
1040
9.05696734704178
1000
ACAD_MTEXT_DEFINED_HEIGHT_END
  0
MTEXT
  5
188D5
330
10FE8
100
AcDbEntity
  8
图框
 62
     3
100
AcDbMText
 10
1110.122306614152
 20
500.2775205517162
 30
0.0
 40
2.985513575034151
 41
33.61239199242139
 71
     5
 72
     5
  1
-
  7
Romans字体
 73
     1
 44
1.0
1001
AcDbBlockRepETag
1070
     1
1071
        7
1005
188D5
1001
ACAD
1000
MTEXTBEGIN
1070
    73
1070
     1
1070
    44
1040
1.0
1070
    74
1070
     0
1000
MTEXTEND
1000
ACAD_MTEXT_DEFINED_HEIGHT_BEGIN
1070
    46
1040
8.871557304763419
1000
ACAD_MTEXT_DEFINED_HEIGHT_END
  0
MTEXT
  5
188D6
330
10FE8
100
AcDbEntity
  8
图框
 62
     3
100
AcDbMText
 10
967.6594956750133
 20
493.4737568219182
 30
0.0
 40
2.985513575034151
 41
15.50176341157864
 71
     5
 72
     5
  1
P RAO
  7
Romans字体
 73
     1
 44
1.0
1001
AcDbBlockRepETag
1070
     1
1071
        8
1005
188D6
1001
ACAD
1000
MTEXTBEGIN
1070
    73
1070
     1
1070
    44
1040
1.0
1070
    74
1070
     0
1000
MTEXTEND
1000
ACAD_MTEXT_DEFINED_HEIGHT_BEGIN
1070
    46
1040
6.292658374510335
1000
ACAD_MTEXT_DEFINED_HEIGHT_END
  0
MTEXT
  5
188D7
330
10FE8
100
AcDbEntity
  8
图框
 62
     3
100
AcDbMText
 10
983.041569333247
 20
493.2441970450405
 30
0.0
 40
2.487927979195124
 41
15.26238390489051
 71
     5
 72
     5
  1
{\W0.7;18.10.2010}
  7
Romans字体
 73
     1
 44
1.0
1001
AcDbBlockRepETag
1070
     1
1071
        9
1005
188D7
1001
ACAD
1000
MTEXTBEGIN
1070
    73
1070
     1
1070
    44
1040
1.0
1070
    74
1070
     0
1000
MTEXTEND
1000
ACAD_MTEXT_DEFINED_HEIGHT_BEGIN
1070
    46
1040
6.751777928266487
1000
ACAD_MTEXT_DEFINED_HEIGHT_END
  0
MTEXT
  5
188D8
330
10FE8
100
AcDbEntity
  8
图框
 62
     3
100
AcDbMText
 10
1012.477254728976
 20
499.7664151964291
 30
0.0
 40
2.985513575034151
 41
17.64876416884615
 71
     5
 72
     5
  1
-
  7
Romans字体
 73
     1
 44
1.0
1001
AcDbBlockRepETag
1070
     1
1071
       10
1005
188D8
1001
ACAD
1000
MTEXTBEGIN
1070
    73
1070
     1
1070
    44
1040
1.0
1070
    74
1070
     0
1000
MTEXTEND
1000
ACAD_MTEXT_DEFINED_HEIGHT_BEGIN
1070
    46
1040
6.292658374511397
1000
ACAD_MTEXT_DEFINED_HEIGHT_END
  0
MTEXT
  5
188D9
330
10FE8
100
AcDbEntity
  8
图框
 62
     3
100
AcDbMText
 10
1028.977802139886
 20
499.7664151964289
 30
0.0
 40
2.487927979195124
 41
15.35233065297265
 71
     5
 72
     5
  1
-
  7
Romans字体
 73
     1
 44
1.0
1001
AcDbBlockRepETag
1070
     1
1071
       11
1005
188D9
1001
ACAD
1000
MTEXTBEGIN
1070
    73
1070
     1
1070
    44
1040
1.0
1070
    74
1070
     0
1000
MTEXTEND
1000
ACAD_MTEXT_DEFINED_HEIGHT_BEGIN
1070
    46
1040
6.292658374511382
1000
ACAD_MTEXT_DEFINED_HEIGHT_END
  0
MTEXT
  5
188DA
330
10FE8
100
AcDbEntity
  8
图框
 62
     3
100
AcDbMText
 10
967.6594956750133
 20
487.1810984474071
 30
0.0
 40
2.985513575034151
 41
15.50176341157863
 71
     5
 72
     5
  1
-
  7
Romans字体
 73
     1
 44
1.0
1001
AcDbBlockRepETag
1070
     1
1071
       12
1005
188DA
1001
ACAD
1000
MTEXTBEGIN
1070
    73
1070
     1
1070
    44
1040
1.0
1070
    74
1070
     0
1000
MTEXTEND
1000
ACAD_MTEXT_DEFINED_HEIGHT_BEGIN
1070
    46
1040
6.292658374511478
1000
ACAD_MTEXT_DEFINED_HEIGHT_END
  0
MTEXT
  5
188DB
330
10FE8
100
AcDbEntity
  8
图框
 62
     3
100
AcDbMText
 10
983.041569333247
 20
487.1810984474071
 30
0.0
 40
2.487927979195124
 41
15.26238390489062
 71
     5
 72
     5
  1
-
  7
Romans字体
 73
     1
 44
1.0
1001
AcDbBlockRepETag
1070
     1
1071
       13
1005
188DB
1001
ACAD
1000
MTEXTBEGIN
1070
    73
1070
     1
1070
    44
1040
1.0
1070
    74
1070
     0
1000
MTEXTEND
1000
ACAD_MTEXT_DEFINED_HEIGHT_BEGIN
1070
    46
1040
6.292658374511495
1000
ACAD_MTEXT_DEFINED_HEIGHT_END
  0
MTEXT
  5
188DC
330
10FE8
100
AcDbEntity
  8
图框
 62
     3
100
AcDbMText
 10
1074.556686986741
 20
495.8417418993361
 30
0.0
 40
2.985513575034151
 41
10.82934843438978
 71
     5
 72
     5
  1
-
  7
Romans字体
 73
     1
 44
1.0
1001
AcDbBlockRepETag
1070
     1
1071
       14
1005
188DC
1001
ACAD
1000
MTEXTBEGIN
1070
    73
1070
     1
1070
    44
1040
1.0
1070
    74
1070
     0
1000
MTEXTEND
1000
ACAD_MTEXT_DEFINED_HEIGHT_BEGIN
1070
    46
1040
7.886094601210427
1000
ACAD_MTEXT_DEFINED_HEIGHT_END
  0
LINE
  5
188DD
330
10FE8
100
AcDbEntity
  8
图框
370
    -3
100
AcDbLine
 10
1036.653967466372
 20
499.7847891999413
 30
0.0
 11
1079.971361203936
 21
499.7847891999413
 31
0.0
1001
AcDbBlockRepETag
1070
     1
1071
       15
1005
188DD
  0
MTEXT
  5
188DE
330
10FE8
100
AcDbEntity
  8
图框
 62
     1
370
    20
100
AcDbMText
 10
1108.26336443907
 20
491.5162596080882
 30
0.0
 40
2.699054613030988
 41
82.30831305643079
 71
     5
 72
     5
  1
{\fSimHei|b0|i0|c134|p2;厦门唯恩电气有限公司}
 73
     1
 44
1.0
1001
AcDbBlockRepETag
1070
     1
1071
       16
1005
188DE
1001
ACAD
1000
MTEXTBEGIN
1070
    73
1070
     1
1070
    44
1040
1.0
1070
    74
1070
     0
1000
MTEXTEND
  0
MTEXT
  5
188DF
330
10FE8
100
AcDbEntity
  8
图框
 62
     3
370
    20
100
AcDbMText
 10
1108.435451459908
 20
487.298967726064
 30
0.0
 40
1.652482416141417
 41
68.08558693693567
 71
     5
 72
     5
  1
{\fArial Narrow|b0|i0|c0|p34;XIAMEN WAIN ELECTRICAL CO.LTD}
  7
工程字
 73
     1
 44
1.0
1001
AcDbBlockRepETag
1070
     1
1071
       17
1005
188DF
1001
ACAD
1000
MTEXTBEGIN
1070
    73
1070
     1
1070
    44
1040
1.0
1070
    74
1070
     0
1000
MTEXTEND
  0
MTEXT
  5
188E0
330
10FE8
100
AcDbEntity
  8
图框
 62
     1
370
    20
100
AcDbMText
 10
1085.711816899387
 20
491.0944802995856
 30
0.0
 40
2.005930044038334
 41
5.047240019334847
 71
     1
 72
     5
  1
{\fArial|b0|i0|c0|p34;A}
  7
Chinese
 73
     1
 44
1.0
1001
AcDbBlockRepETag
1070
     1
1071
       18
1005
188E0
1001
ACAD
1000
MTEXTBEGIN
1070
    73
1070
     1
1070
    44
1040
1.0
1070
    74
1070
     0
1000
MTEXTEND
  0
MTEXT
  5
188E1
330
10FE8
100
AcDbEntity
  8
图框
 62
     1
370
    20
100
AcDbMText
 10
1088.213485935716
 20
491.0944802995856
 30
0.0
 40
2.005930044038334
 41
5.047240019334847
 71
     1
 72
     5
  1
{\fArial|b0|i0|c0|p34;I}
  7
Chinese
 73
     1
 44
1.0
1001
AcDbBlockRepETag
1070
     1
1071
       19
1005
188E1
1001
ACAD
1000
MTEXTBEGIN
1070
    73
1070
     1
1070
    44
1040
1.0
1070
    74
1070
     0
1000
MTEXTEND
  0
MTEXT
  5
188E2
330
10FE8
100
AcDbEntity
  8
图框
 62
     1
370
    20
100
AcDbMText
 10
1089.142375222864
 20
491.0822866326808
 30
0.0
 40
2.005930044038334
 41
5.047240019334847
 71
     1
 72
     5
  1
{\fArial|b0|i0|c0|p34;N}
  7
Chinese
 73
     1
 44
1.0
1001
AcDbBlockRepETag
1070
     1
1071
       20
1005
188E2
1001
ACAD
1000
MTEXTBEGIN
1070
    73
1070
     1
1070
    44
1040
1.0
1070
    74
1070
     0
1000
MTEXTEND
  0
MTEXT
  5
188E3
330
10FE8
100
AcDbEntity
  8
图框
100
AcDbMText
 10
1069.142012769545
 20
487.9667319294409
 30
0.0
 40
2.252848170144607
 41
21.65869686878327
 71
     5
 72
     5
  1
{\W0.5;\C1;All Dimensions in mm\POriginal Size DIN A 4}
  7
Romans字体
 73
     1
 44
1.0
1001
AcDbBlockRepETag
1070
     1
1071
       21
1005
188E3
1001
ACAD
1000
MTEXTBEGIN
1070
    73
1070
     1
1070
    44
1040
1.0
1070
    74
1070
     0
1000
MTEXTEND
1000
ACAD_MTEXT_DEFINED_HEIGHT_BEGIN
1070
    46
1040
7.863925338579296
1000
ACAD_MTEXT_DEFINED_HEIGHT_END
  0
MTEXT
  5
188E4
330
10FE8
100
AcDbEntity
  8
图框
  6
ByBlock
 62
     6
370
    18
100
AcDbMText
 10
1127.40434942308
 20
508.7896535755975
 30
0.0
 40
2.651776162684904
 41
2.557913877927211
 71
     1
 72
     5
  1
A
  7
Romans字体
 11
0.0000000000000001
 21
1.0
 31
0.0
 73
     1
 44
1.0
1001
AcDbBlockRepETag
1070
     1
1071
       22
1005
188E4
1001
ACAD
1000
MTEXTBEGIN
1070
    73
1070
     1
1070
    44
1040
1.0
1070
    74
1070
     0
1000
MTEXTEND
  0
MTEXT
  5
188E5
330
10FE8
100
AcDbEntity
  8
图框
 62
     6
100
AcDbMText
 10
1127.40434942308
 20
556.3746573232886
 30
0.0
 40
2.651776162684904
 41
2.557913877927211
 71
     1
 72
     5
  1
B
  7
Romans字体
 11
0.0000000000000001
 21
1.0
 31
0.0
 73
     1
 44
1.0
1001
AcDbBlockRepETag
1070
     1
1071
       23
1005
188E5
1001
ACAD
1000
MTEXTBEGIN
1070
    73
1070
     1
1070
    44
1040
1.0
1070
    74
1070
     0
1000
MTEXTEND
  0
MTEXT
  5
188E6
330
10FE8
100
AcDbEntity
  8
图框
 62
     6
100
AcDbMText
 10
1127.40434942308
 20
607.5539372630998
 30
0.0
 40
2.651776162684904
 41
2.557913877927211
 71
     1
 72
     5
  1
C
  7
Romans字体
 11
0.0000000000000001
 21
1.0
 31
0.0
 73
     1
 44
1.0
1001
AcDbBlockRepETag
1070
     1
1071
       24
1005
188E6
1001
ACAD
1000
MTEXTBEGIN
1070
    73
1070
     1
1070
    44
1040
1.0
1070
    74
1070
     0
1000
MTEXTEND
  0
MTEXT
  5
188E7
330
10FE8
100
AcDbEntity
  8
图框
 62
     6
100
AcDbMText
 10
1127.40434942308
 20
658.7332172029115
 30
0.0
 40
2.651776162684904
 41
2.557913877927211
 71
     1
 72
     5
  1
D
  7
Romans字体
 11
0.0000000000000001
 21
1.0
 31
0.0
 73
     1
 44
1.0
1001
AcDbBlockRepETag
1070
     1
1071
       25
1005
188E7
1001
ACAD
1000
MTEXTBEGIN
1070
    73
1070
     1
1070
    44
1040
1.0
1070
    74
1070
     0
1000
MTEXTEND
  0
LINE
  5
188E8
330
10FE8
100
AcDbEntity
  8
图框
 62
     6
100
AcDbLine
 10
1130.411601781241
 20
634.0726090796082
 30
0.0
 11
1126.928502610363
 21
634.0726090796082
 31
0.0
1001
AcDbBlockRepETag
1070
     1
1071
       26
1005
188E8
  0
LINE
  5
188E9
330
10FE8
100
AcDbEntity
  8
图框
 62
     6
100
AcDbLine
 10
1130.411601781241
 20
582.89332913979
 30
0.0
 11
1126.928502610363
 21
582.89332913979
 31
0.0
1001
AcDbBlockRepETag
1070
     1
1071
       27
1005
188E9
  0
MTEXT
  5
188EA
330
10FE8
100
AcDbEntity
  8
图框
 62
     6
100
AcDbMText
 10
1105.329704038389
 20
483.6164543011163
 30
0.0
 40
2.651776162684904
 41
2.557913877927211
 71
     1
 72
     5
  1
6
  7
Romans字体
 73
     1
 44
1.0
1001
AcDbBlockRepETag
1070
     1
1071
       28
1005
188EA
1001
ACAD
1000
MTEXTBEGIN
1070
    73
1070
     1
1070
    44
1040
1.0
1070
    74
1070
     0
1000
MTEXTEND
  0
LINE
  5
188EB
330
10FE8
100
AcDbEntity
  8
图框
 62
     6
100
AcDbLine
 10
1081.088565155284
 20
484.0347692601515
 30
0.0
 11
1081.088565155284
 21
480.5347692601475
 31
0.0
1001
AcDbBlockRepETag
1070
     1
1071
       29
1005
188EB
  0
MTEXT
  5
188EC
330
10FE8
100
AcDbEntity
  8
图框
 62
     6
100
AcDbMText
 10
1055.900596365941
 20
483.520053108993
 30
0.0
 40
2.651776162684904
 41
2.557913877927211
 71
     1
 72
     5
  1
5
  7
Romans字体
 73
     1
 44
1.0
1001
AcDbBlockRepETag
1070
     1
1071
       30
1005
188EC
1001
ACAD
1000
MTEXTBEGIN
1070
    73
1070
     1
1070
    44
1040
1.0
1070
    74
1070
     0
1000
MTEXTEND
  0
LINE
  5
188ED
330
10FE8
100
AcDbEntity
  8
图框
 62
     6
100
AcDbLine
 10
1031.553386436349
 20
484.0347692601515
 30
0.0
 11
1031.553386436349
 21
480.5347692601475
 31
0.0
1001
AcDbBlockRepETag
1070
     1
1071
       31
1005
188ED
  0
MTEXT
  5
188EE
330
10FE8
100
AcDbEntity
  8
图框
 62
     6
100
AcDbMText
 10
1006.383180575197
 20
483.5687958215896
 30
0.0
 40
2.651776162684904
 41
2.557913877927211
 71
     1
 72
     5
  1
4
  7
Romans字体
 73
     1
 44
1.0
1001
AcDbBlockRepETag
1070
     1
1071
       32
1005
188EE
1001
ACAD
1000
MTEXTBEGIN
1070
    73
1070
     1
1070
    44
1040
1.0
1070
    74
1070
     0
1000
MTEXTEND
  0
LINE
  5
188EF
330
10FE8
100
AcDbEntity
  8
图框
 62
     6
100
AcDbLine
 10
982.0182077173887
 20
484.0347692601515
 30
0.0
 11
982.0182077173887
 21
480.5347692601475
 31
0.0
1001
AcDbBlockRepETag
1070
     1
1071
       33
1005
188EF
  0
MTEXT
  5
188F0
330
10FE8
100
AcDbEntity
  8
图框
 62
     6
100
AcDbMText
 10
956.8302389280352
 20
483.5989680297948
 30
0.0
 40
2.651776162684904
 41
2.557913877927211
 71
     1
 72
     5
  1
3
  7
Romans字体
 73
     1
 44
1.0
1001
AcDbBlockRepETag
1070
     1
1071
       34
1005
188F0
1001
ACAD
1000
MTEXTBEGIN
1070
    73
1070
     1
1070
    44
1040
1.0
1070
    74
1070
     0
1000
MTEXTEND
  0
LINE
  5
188F1
330
10FE8
100
AcDbEntity
  8
图框
 62
     6
100
AcDbLine
 10
932.4830289984245
 20
484.0347692601515
 30
0.0
 11
932.4830289984245
 21
480.5347692601475
 31
0.0
1001
AcDbBlockRepETag
1070
     1
1071
       35
1005
188F1
  0
MTEXT
  5
188F2
330
10FE8
100
AcDbEntity
  8
图框
 62
     6
100
AcDbMText
 10
906.0252349826365
 20
483.6475250013156
 30
0.0
 40
2.651776162684904
 41
2.557913877927211
 71
     1
 72
     5
  1
2
  7
Romans字体
 73
     1
 44
1.0
1001
AcDbBlockRepETag
1070
     1
1071
       36
1005
188F2
1001
ACAD
1000
MTEXTBEGIN
1070
    73
1070
     1
1070
    44
1040
1.0
1070
    74
1070
     0
1000
MTEXTEND
  0
LINE
  5
188F3
330
10FE8
100
AcDbEntity
  8
图框
 62
     6
100
AcDbLine
 10
882.9478502794648
 20
484.0347692601515
 30
0.0
 11
882.9478502794648
 21
480.5347692601475
 31
0.0
1001
AcDbBlockRepETag
1070
     1
1071
       37
1005
188F3
  0
MTEXT
  5
188F4
330
10FE8
100
AcDbEntity
  8
图框
 62
     6
100
AcDbMText
 10
857.7598814901191
 20
483.651829494754
 30
0.0
 40
2.651776162684904
 41
2.557913877927211
 71
     1
 72
     5
  1
1
  7
Romans字体
 73
     1
 44
1.0
1001
AcDbBlockRepETag
1070
     1
1071
       38
1005
188F4
1001
ACAD
1000
MTEXTBEGIN
1070
    73
1070
     1
1070
    44
1040
1.0
1070
    74
1070
     0
1000
MTEXTEND
  0
LINE
  5
188F5
330
10FE8
100
AcDbEntity
  8
图框
370
    50
100
AcDbLine
 10
836.8548209370597
 20
484.0347692601515
 30
0.0
 11
1126.928502610363
 21
484.0347692601515
 31
0.0
1001
AcDbBlockRepETag
1070
     1
1071
       39
1005
188F5
  0
LINE
  5
188F6
330
10FE8
100
AcDbEntity
  8
图框
370
    50
100
AcDbLine
 10
836.9128518455362
 20
484.0178684310246
 30
0.0
 11
836.9128518455394
 21
675.0207195125422
 31
0.0
1001
AcDbBlockRepETag
1070
     1
1071
       40
1005
188F6
  0
MTEXT
  5
188F7
330
10FE8
100
AcDbEntity
  8
图框
 62
     6
100
AcDbMText
 10
833.8475685789031
 20
658.7332172029115
 30
0.0
 40
2.651776162684904
 41
2.557913877927211
 71
     1
 72
     5
  1
D
  7
Romans字体
 11
0.0000000000000001
 21
1.0
 31
0.0
 73
     1
 44
1.0
1001
AcDbBlockRepETag
1070
     1
1071
       41
1005
188F7
1001
ACAD
1000
MTEXTBEGIN
1070
    73
1070
     1
1070
    44
1040
1.0
1070
    74
1070
     0
1000
MTEXTEND
  0
LINE
  5
188F8
330
10FE8
100
AcDbEntity
  8
图框
 62
     6
100
AcDbLine
 10
836.9128518455386
 20
634.0726090796082
 30
0.0
 11
833.4128518455365
 21
634.0726090796082
 31
0.0
1001
AcDbBlockRepETag
1070
     1
1071
       42
1005
188F8
  0
MTEXT
  5
188F9
330
10FE8
100
AcDbEntity
  8
图框
 62
     6
100
AcDbMText
 10
833.9039177480142
 20
607.5539372630998
 30
0.0
 40
2.651776162684904
 41
2.557913877927211
 71
     1
 72
     5
  1
C
  7
Romans字体
 11
0.0000000000000001
 21
1.0
 31
0.0
 73
     1
 44
1.0
1001
AcDbBlockRepETag
1070
     1
1071
       43
1005
188F9
1001
ACAD
1000
MTEXTBEGIN
1070
    73
1070
     1
1070
    44
1040
1.0
1070
    74
1070
     0
1000
MTEXTEND
  0
LINE
  5
188FA
330
10FE8
100
AcDbEntity
  8
图框
 62
     6
100
AcDbLine
 10
836.9128518455378
 20
582.89332913979
 30
0.0
 11
833.4128518455365
 21
582.89332913979
 31
0.0
1001
AcDbBlockRepETag
1070
     1
1071
       44
1005
188FA
  0
MTEXT
  5
188FB
330
10FE8
100
AcDbEntity
  8
图框
 62
     6
100
AcDbMText
 10
833.9039177480142
 20
556.3746573232886
 30
0.0
 40
2.651776162684904
 41
2.557913877927211
 71
     1
 72
     5
  1
B
  7
Romans字体
 11
0.0000000000000001
 21
1.0
 31
0.0
 73
     1
 44
1.0
1001
AcDbBlockRepETag
1070
     1
1071
       45
1005
188FB
1001
ACAD
1000
MTEXTBEGIN
1070
    73
1070
     1
1070
    44
1040
1.0
1070
    74
1070
     0
1000
MTEXTEND
  0
LINE
  5
188FC
330
10FE8
100
AcDbEntity
  8
图框
 62
     6
100
AcDbLine
 10
836.9128518455367
 20
531.714049199969
 30
0.0
 11
833.4128518455365
 21
531.714049199969
 31
0.0
1001
AcDbBlockRepETag
1070
     1
1071
       46
1005
188FC
  0
MTEXT
  5
188FD
330
10FE8
100
AcDbEntity
  8
图框
 62
     6
100
AcDbMText
 10
833.9039177480142
 20
508.7896535755975
 30
0.0
 40
2.651776162684904
 41
2.557913877927211
 71
     1
 72
     5
  1
A
  7
Romans字体
 11
0.0000000000000001
 21
1.0
 31
0.0
 73
     1
 44
1.0
1001
AcDbBlockRepETag
1070
     1
1071
       47
1005
188FD
1001
ACAD
1000
MTEXTBEGIN
1070
    73
1070
     1
1070
    44
1040
1.0
1070
    74
1070
     0
1000
MTEXTEND
  0
LINE
  5
188FE
330
10FE8
100
AcDbEntity
  8
图框
370
    -3
100
AcDbLine
 10
836.9128518455394
 20
675.0207195125422
 30
0.0
 11
836.9128518455394
 21
684.5021384922564
 31
0.0
1001
AcDbBlockRepETag
1070
     1
1071
       48
1005
188FE
  0
LINE
  5
188FF
330
10FE8
100
AcDbEntity
  8
图框
370
    -3
100
AcDbLine
 10
842.6237321475781
 20
675.5347692601515
 30
0.0
 11
842.6237321475781
 21
685.0161882398658
 31
0.0
1001
AcDbBlockRepETag
1070
     1
1071
       49
1005
188FF
  0
LINE
  5
18900
330
10FE8
100
AcDbEntity
  8
图框
370
    -3
100
AcDbLine
 10
848.3346124496179
 20
675.5347692601515
 30
0.0
 11
848.3346124496179
 21
685.0161882398658
 31
0.0
1001
AcDbBlockRepETag
1070
     1
1071
       50
1005
18900
  0
LINE
  5
18901
330
10FE8
100
AcDbEntity
  8
图框
370
    -3
100
AcDbLine
 10
854.0454927516588
 20
675.5347692601515
 30
0.0
 11
854.0454927516588
 21
685.0161882398658
 31
0.0
1001
AcDbBlockRepETag
1070
     1
1071
       51
1005
18901
  0
LINE
  5
18902
330
10FE8
100
AcDbEntity
  8
图框
370
    -3
100
AcDbLine
 10
861.5351874539182
 20
675.5347692601515
 30
0.0
 11
861.5351874539182
 21
686.7901958362482
 31
0.0
1001
AcDbBlockRepETag
1070
     1
1071
       52
1005
18902
  0
MTEXT
  5
18903
330
10FE8
100
AcDbEntity
  8
图框
 62
     6
100
AcDbMText
 10
1105.329704038389
 20
678.859919059449
 30
0.0
 40
2.651776162684904
 41
2.557913877927211
 71
     1
 72
     5
  1
6
  7
Romans字体
 73
     1
 44
1.0
1001
AcDbBlockRepETag
1070
     1
1071
       53
1005
18903
1001
ACAD
1000
MTEXTBEGIN
1070
    73
1070
     1
1070
    44
1040
1.0
1070
    74
1070
     0
1000
MTEXTEND
  0
LINE
  5
18904
330
10FE8
100
AcDbEntity
  8
图框
 62
     6
100
AcDbLine
 10
1081.088565155284
 20
679.0347692601516
 30
0.0
 11
1081.088565155284
 21
675.5347692601515
 31
0.0
1001
AcDbBlockRepETag
1070
     1
1071
       54
1005
18904
  0
MTEXT
  5
18905
330
10FE8
100
AcDbEntity
  8
图框
 62
     6
100
AcDbMText
 10
1055.900596365941
 20
678.859919059449
 30
0.0
 40
2.651776162684904
 41
2.557913877927211
 71
     1
 72
     5
  1
5
  7
Romans字体
 73
     1
 44
1.0
1001
AcDbBlockRepETag
1070
     1
1071
       55
1005
18905
1001
ACAD
1000
MTEXTBEGIN
1070
    73
1070
     1
1070
    44
1040
1.0
1070
    74
1070
     0
1000
MTEXTEND
  0
LINE
  5
18906
330
10FE8
100
AcDbEntity
  8
图框
 62
     6
100
AcDbLine
 10
1031.553386436349
 20
679.0347692601516
 30
0.0
 11
1031.553386436349
 21
675.5347692601515
 31
0.0
1001
AcDbBlockRepETag
1070
     1
1071
       56
1005
18906
  0
MTEXT
  5
18907
330
10FE8
100
AcDbEntity
  8
图框
 62
     6
100
AcDbMText
 10
1006.36541764698
 20
678.7312083656147
 30
0.0
 40
2.651776162684904
 41
2.557913877927211
 71
     1
 72
     5
  1
4
  7
Romans字体
 73
     1
 44
1.0
1001
AcDbBlockRepETag
1070
     1
1071
       57
1005
18907
1001
ACAD
1000
MTEXTBEGIN
1070
    73
1070
     1
1070
    44
1040
1.0
1070
    74
1070
     0
1000
MTEXTEND
  0
LINE
  5
18908
330
10FE8
100
AcDbEntity
  8
图框
 62
     6
100
AcDbLine
 10
982.0182077173887
 20
679.0347692601516
 30
0.0
 11
982.0182077173887
 21
675.5347692601515
 31
0.0
1001
AcDbBlockRepETag
1070
     1
1071
       58
1005
18908
  0
MTEXT
  5
18909
330
10FE8
100
AcDbEntity
  8
图框
 62
     6
100
AcDbMText
 10
956.8302389280352
 20
678.859919059449
 30
0.0
 40
2.651776162684904
 41
2.557913877927211
 71
     1
 72
     5
  1
3
  7
Romans字体
 73
     1
 44
1.0
1001
AcDbBlockRepETag
1070
     1
1071
       59
1005
18909
1001
ACAD
1000
MTEXTBEGIN
1070
    73
1070
     1
1070
    44
1040
1.0
1070
    74
1070
     0
1000
MTEXTEND
  0
LINE
  5
1890A
330
10FE8
100
AcDbEntity
  8
图框
 62
     6
100
AcDbLine
 10
932.4830289984245
 20
679.0347692601516
 30
0.0
 11
932.4830289984245
 21
675.5347692601515
 31
0.0
1001
AcDbBlockRepETag
1070
     1
1071
       60
1005
1890A
  0
MTEXT
  5
1890B
330
10FE8
100
AcDbEntity
  8
图框
 62
     6
100
AcDbMText
 10
907.295060209082
 20
678.859919059449
 30
0.0
 40
2.651776162684904
 41
2.557913877927211
 71
     1
 72
     5
  1
2
  7
Romans字体
 73
     1
 44
1.0
1001
AcDbBlockRepETag
1070
     1
1071
       61
1005
1890B
1001
ACAD
1000
MTEXTBEGIN
1070
    73
1070
     1
1070
    44
1040
1.0
1070
    74
1070
     0
1000
MTEXTEND
  0
LINE
  5
1890C
330
10FE8
100
AcDbEntity
  8
图框
 62
     6
100
AcDbLine
 10
882.9478502794648
 20
678.7962435131815
 30
0.0
 11
882.9478502794648
 21
675.5347692601515
 31
0.0
1001
AcDbBlockRepETag
1070
     1
1071
       62
1005
1890C
  0
MTEXT
  5
1890D
330
10FE8
100
AcDbEntity
  8
图框
 62
     6
100
AcDbMText
 10
862.6286629643733
 20
678.859919059449
 30
0.0
 40
2.651776162684904
 41
2.557913877927211
 71
     1
 72
     5
  1
1
  7
Romans字体
 73
     1
 44
1.0
1001
AcDbBlockRepETag
1070
     1
1071
       63
1005
1890D
1001
ACAD
1000
MTEXTBEGIN
1070
    73
1070
     1
1070
    44
1040
1.0
1070
    74
1070
     0
1000
MTEXTEND
  0
LINE
  5
1890E
330
10FE8
100
AcDbEntity
  8
图框
370
    -3
100
AcDbLine
 10
836.9128518455394
 20
675.0207195125422
 30
0.0
 11
836.9128518455394
 21
686.7901958362482
 31
0.0
1001
AcDbBlockRepETag
1070
     1
1071
       64
1005
1890E
  0
LINE
  5
1890F
330
10FE8
100
AcDbEntity
  8
图框
370
    50
100
AcDbLine
 10
836.9128518455394
 20
675.5347692601515
 30
0.0
 11
1126.928502610363
 21
675.5347692601515
 31
0.0
1001
AcDbBlockRepETag
1070
     1
1071
       65
1005
1890F
  0
LINE
  5
18910
330
10FE8
100
AcDbEntity
  8
图框
370
    -3
100
AcDbLine
 10
842.6237321475781
 20
675.5347692601515
 30
0.0
 11
842.6237321475781
 21
686.7901958362482
 31
0.0
1001
AcDbBlockRepETag
1070
     1
1071
       66
1005
18910
  0
LINE
  5
18911
330
10FE8
100
AcDbEntity
  8
图框
370
    -3
100
AcDbLine
 10
848.3346124496179
 20
675.5347692601515
 30
0.0
 11
848.3346124496179
 21
686.7901958362482
 31
0.0
1001
AcDbBlockRepETag
1070
     1
1071
       67
1005
18911
  0
MTEXT
  5
18912
102
{ACAD_XDICTIONARY
360
18973
102
}
330
10FE8
100
AcDbEntity
  8
图框
100
AcDbMText
 10
857.7903401027889
 20
686.7901958362482
 30
0.0
 40
1.958998408821398
 41
11.25542657609672
 71
     4
 72
     5
  1
{\W2.08073; }档案员{\H0.7x;\P\Fromans|c134;\W1.0325; \W0.75;Filing Clerk\fFangSong_GB2312|b0|i0|c134|p49; }
 11
-0.0000000000000002
 21
-1.0
 31
0.0
 73
     1
 44
1.0
1001
AcDbBlockRepETag
1070
     1
1071
       68
1005
18912
1001
ACAD
1000
MTEXTBEGIN
1070
    73
1070
     1
1070
    44
1040
1.0
1070
    74
1070
     0
1000
MTEXTEND
1000
ACAD_MTEXT_DEFINED_HEIGHT_BEGIN
1070
    46
1040
7.489694702258906
1000
ACAD_MTEXT_DEFINED_HEIGHT_END
  0
MTEXT
  5
18913
102
{ACAD_XDICTIONARY
360
18975
102
}
330
10FE8
100
AcDbEntity
  8
图框
100
AcDbMText
 10
845.479172298598
 20
686.7901958362482
 30
0.0
 40
1.958998408821398
 41
11.25542657609672
 71
     4
 72
     5
  1
{\W0.524929; }日期{\Fromans|c134;/Date}
 11
-0.0000000000000002
 21
-1.0
 31
0.0
 73
     1
 44
1.0
1001
AcDbBlockRepETag
1070
     1
1071
       69
1005
18913
1001
ACAD
1000
MTEXTBEGIN
1070
    73
1070
     1
1070
    44
1040
1.0
1070
    74
1070
     0
1000
MTEXTEND
1000
ACAD_MTEXT_DEFINED_HEIGHT_BEGIN
1070
    46
1040
5.710880302039671
1000
ACAD_MTEXT_DEFINED_HEIGHT_END
  0
LINE
  5
18914
330
10FE8
100
AcDbEntity
  8
图框
370
    -3
100
AcDbLine
 10
854.0454927516588
 20
675.5347692601515
 30
0.0
 11
854.0454927516588
 21
686.7901958362482
 31
0.0
1001
AcDbBlockRepETag
1070
     1
1071
       70
1005
18914
  0
LINE
  5
18915
330
10FE8
100
AcDbEntity
  8
图框
370
    -3
100
AcDbLine
 10
1036.653967466372
 20
531.3291676047914
 30
0.0
 11
1036.653967466372
 21
484.0126019753161
 31
0.0
1001
AcDbBlockRepETag
1070
     1
1071
       71
1005
18915
  0
LINE
  5
18916
330
10FE8
100
AcDbEntity
  8
图框
370
    -3
100
AcDbLine
 10
1047.483315900763
 20
507.6708838011533
 30
0.0
 11
1047.483315900763
 21
491.8986945987308
 31
0.0
1001
AcDbBlockRepETag
1070
     1
1071
       72
1005
18916
  0
LINE
  5
18917
330
10FE8
100
AcDbEntity
  8
图框
370
    -3
100
AcDbLine
 10
1058.312664335153
 20
507.6708838011533
 30
0.0
 11
1058.312664335153
 21
484.0347692601515
 31
0.0
1001
AcDbBlockRepETag
1070
     1
1071
       73
1005
18917
  0
LINE
  5
18918
330
10FE8
100
AcDbEntity
  8
图框
370
    25
100
AcDbLine
 10
1048.474135214456
 20
488.1095628329926
 30
0.0
 11
1054.946420288459
 21
488.1095628329926
 31
0.0
1001
AcDbBlockRepETag
1070
     1
1071
       74
1005
18918
  0
LINE
  5
18919
330
10FE8
100
AcDbEntity
  8
图框
370
    25
100
AcDbLine
 10
1054.232527365989
 20
487.0761716842634
 30
0.0
 11
1049.156490914508
 21
486.4576273751
 31
0.0
1001
AcDbBlockRepETag
1070
     1
1071
       75
1005
18919
  0
LINE
  5
1891A
330
10FE8
100
AcDbEntity
  8
图框
370
    25
100
AcDbLine
 10
1054.232527365989
 20
489.1429539817209
 30
0.0
 11
1049.156490914508
 21
489.7614982908846
 31
0.0
1001
AcDbBlockRepETag
1070
     1
1071
       76
1005
1891A
  0
LINE
  5
1891B
330
10FE8
100
AcDbEntity
  8
图框
370
    25
100
AcDbLine
 10
1049.156490914508
 20
489.7614982908846
 30
0.0
 11
1049.156490914508
 21
486.4576273751
 31
0.0
1001
AcDbBlockRepETag
1070
     1
1071
       77
1005
1891B
  0
LINE
  5
1891C
330
10FE8
100
AcDbEntity
  8
图框
370
    25
100
AcDbLine
 10
1054.232527365989
 20
489.1429539817209
 30
0.0
 11
1054.232527365989
 21
487.0761716842634
 31
0.0
1001
AcDbBlockRepETag
1070
     1
1071
       78
1005
1891C
  0
CIRCLE
  5
1891D
330
10FE8
100
AcDbEntity
  8
图框
370
    25
100
AcDbCircle
 10
1042.502700458579
 20
488.1095628329926
 30
0.0
 40
1.651935457891863
1001
AcDbBlockRepETag
1070
     1
1071
       79
1005
1891D
  0
CIRCLE
  5
1891E
330
10FE8
100
AcDbEntity
  8
图框
370
    25
100
AcDbCircle
 10
1042.502700458579
 20
488.1095628329926
 30
0.0
 40
1.033391148728775
1001
AcDbBlockRepETag
1070
     1
1071
       80
1005
1891E
  0
LINE
  5
1891F
330
10FE8
100
AcDbEntity
  8
图框
370
    25
100
AcDbLine
 10
1040.136872078216
 20
488.1095628329926
 30
0.0
 11
1044.868528838943
 21
488.1095628329926
 31
0.0
1001
AcDbBlockRepETag
1070
     1
1071
       81
1005
1891F
  0
LINE
  5
18920
330
10FE8
100
AcDbEntity
  8
图框
370
    25
100
AcDbLine
 10
1042.502700458579
 20
490.475391213355
 30
0.0
 11
1042.502700458579
 21
485.743734452629
 31
0.0
1001
AcDbBlockRepETag
1070
     1
1071
       82
1005
18920
  0
LINE
  5
18921
330
10FE8
100
AcDbEntity
  8
图框
370
    -3
100
AcDbLine
 10
1069.142012769546
 20
507.6708838011533
 30
0.0
 11
1069.142012769546
 21
491.8986945987308
 31
0.0
1001
AcDbBlockRepETag
1070
     1
1071
       83
1005
18921
  0
MTEXT
  5
18922
330
10FE8
100
AcDbEntity
  8
图框
100
AcDbMText
 10
1086.643735910939
 20
526.8006839312707
 30
0.0
 40
2.154898249703542
 41
13.34474941400573
 71
     5
 72
     5
  1
图号{\Ftxt|c134;\P\Fromans|c134;\W0.65;Drawing No.}
 73
     1
 44
1.0
1001
AcDbBlockRepETag
1070
     1
1071
       84
1005
18922
1001
ACAD
1000
MTEXTBEGIN
1070
    73
1070
     1
1070
    44
1040
1.0
1070
    74
1070
     0
1000
MTEXTEND
1000
ACAD_MTEXT_DEFINED_HEIGHT_BEGIN
1070
    46
1040
9.056967347041775
1000
ACAD_MTEXT_DEFINED_HEIGHT_END
  0
LINE
  5
18923
330
10FE8
100
AcDbEntity
  8
图框
370
    -3
100
AcDbLine
 10
1093.316110617942
 20
531.3291676047914
 30
0.0
 11
1093.316110617942
 21
495.8417418993347
 31
0.0
1001
AcDbBlockRepETag
1070
     1
1071
       85
1005
18923
  0
LINE
  5
18924
330
10FE8
100
AcDbEntity
  8
图框
370
    -3
100
AcDbLine
 10
1047.473969770481
 20
531.3291676047914
 30
0.0
 11
1047.473969770481
 21
507.6708838011533
 31
0.0
1001
AcDbBlockRepETag
1070
     1
1071
       86
1005
18924
  0
MTEXT
  5
18925
330
10FE8
100
AcDbEntity
  8
图框
100
AcDbMText
 10
1063.72733855235
 20
503.7278365005473
 30
0.0
 40
2.252848170144607
 41
10.82934843439208
 71
     5
 72
     5
  1
重量\P{\Fromans|c134;Weight}
 73
     1
 44
1.0
1001
AcDbBlockRepETag
1070
     1
1071
       87
1005
18925
1001
ACAD
1000
MTEXTBEGIN
1070
    73
1070
     1
1070
    44
1040
1.0
1070
    74
1070
     0
1000
MTEXTEND
1000
ACAD_MTEXT_DEFINED_HEIGHT_BEGIN
1070
    46
1040
7.886094601212128
1000
ACAD_MTEXT_DEFINED_HEIGHT_END
  0
LINE
  5
18926
330
10FE8
100
AcDbEntity
  8
图框
370
    -3
100
AcDbLine
 10
1036.653967466372
 20
519.5000257029746
 30
0.0
 11
1079.971361203936
 21
519.5000257029746
 31
0.0
1001
AcDbBlockRepETag
1070
     1
1071
       88
1005
18926
  0
MTEXT
  5
18927
330
10FE8
100
AcDbEntity
  8
图框
100
AcDbMText
 10
1074.556686986741
 20
503.7278365005473
 30
0.0
 40
2.252848170144607
 41
10.82934843438984
 71
     5
 72
     5
  1
数量\P{\Fromans|c134;Qty.}
 73
     1
 44
1.0
1001
AcDbBlockRepETag
1070
     1
1071
       89
1005
18927
1001
ACAD
1000
MTEXTBEGIN
1070
    73
1070
     1
1070
    44
1040
1.0
1070
    74
1070
     0
1000
MTEXTEND
1000
ACAD_MTEXT_DEFINED_HEIGHT_BEGIN
1070
    46
1040
7.886094601212141
1000
ACAD_MTEXT_DEFINED_HEIGHT_END
  0
LINE
  5
18928
330
10FE8
100
AcDbEntity
  8
图框
370
    -3
100
AcDbLine
 10
1079.971361203936
 20
495.8417418993347
 30
0.0
 11
1126.928502610363
 21
495.8417418993342
 31
0.0
1001
AcDbBlockRepETag
1070
     1
1071
       90
1005
18928
  0
LINE
  5
18929
330
10FE8
100
AcDbEntity
  8
图框
370
    -3
100
AcDbLine
 10
1079.971361203936
 20
504.7132992040975
 30
0.0
 11
1126.928502610363
 21
504.7132992040975
 31
0.0
1001
AcDbBlockRepETag
1070
     1
1071
       91
1005
18929
  0
MTEXT
  5
1892A
330
10FE8
100
AcDbEntity
  8
图框
100
AcDbMText
 10
1052.893317052817
 20
503.7278365005473
 30
0.0
 40
2.252848170144607
 41
10.83869456467139
 71
     5
 72
     5
  1
版本\P{\Fromans|c134;REV.}
 73
     1
 44
1.0
1001
AcDbBlockRepETag
1070
     1
1071
       92
1005
1892A
1001
ACAD
1000
MTEXTBEGIN
1070
    73
1070
     1
1070
    44
1040
1.0
1070
    74
1070
     0
1000
MTEXTEND
1000
ACAD_MTEXT_DEFINED_HEIGHT_BEGIN
1070
    46
1040
7.886094601212101
1000
ACAD_MTEXT_DEFINED_HEIGHT_END
  0
MTEXT
  5
1892B
330
10FE8
100
AcDbEntity
  8
图框
100
AcDbMText
 10
1042.068641683568
 20
503.7278365005473
 30
0.0
 40
2.252848170144607
 41
10.8293484343908
 71
     5
 72
     5
  1
比例\P{\Fromans|c134;Scale}
 73
     1
 44
1.0
1001
AcDbBlockRepETag
1070
     1
1071
       93
1005
1892B
1001
ACAD
1000
MTEXTBEGIN
1070
    73
1070
     1
1070
    44
1040
1.0
1070
    74
1070
     0
1000
MTEXTEND
1000
ACAD_MTEXT_DEFINED_HEIGHT_BEGIN
1070
    46
1040
7.886094601212136
1000
ACAD_MTEXT_DEFINED_HEIGHT_END
  0
LINE
  5
1892C
330
10FE8
100
AcDbEntity
  8
图框
370
    -3
100
AcDbLine
 10
1036.653967466372
 20
507.6708838011533
 30
0.0
 11
1079.971361203936
 21
507.6708838011533
 31
0.0
1001
AcDbBlockRepETag
1070
     1
1071
       94
1005
1892C
  0
LINE
  5
1892D
330
10FE8
100
AcDbEntity
  8
图框
370
    -3
100
AcDbLine
 10
1036.653967466372
 20
491.8986945987308
 30
0.0
 11
1079.971361203936
 21
491.8986945987308
 31
0.0
1001
AcDbBlockRepETag
1070
     1
1071
       95
1005
1892D
  0
LINE
  5
1892E
330
10FE8
100
AcDbEntity
  8
图框
370
    -3
100
AcDbLine
 10
1079.971361203936
 20
531.3291676047914
 30
0.0
 11
1079.971361203936
 21
484.0125999975168
 31
0.0
1001
AcDbBlockRepETag
1070
     1
1071
       96
1005
1892E
  0
MTEXT
  5
1892F
330
10FE8
100
AcDbEntity
  8
图框
100
AcDbMText
 10
1042.063968618426
 20
525.4145966538832
 30
0.0
 40
2.252848170144607
 41
10.82000230410933
 71
     5
 72
     5
  1
表面处理\P{\Fromans|c134;Finish}
 73
     1
 44
1.0
1001
AcDbBlockRepETag
1070
     1
1071
       97
1005
1892F
1001
ACAD
1000
MTEXTBEGIN
1070
    73
1070
     1
1070
    44
1040
1.0
1070
    74
1070
     0
1000
MTEXTEND
1000
ACAD_MTEXT_DEFINED_HEIGHT_BEGIN
1070
    46
1040
11.82914190181708
1000
ACAD_MTEXT_DEFINED_HEIGHT_END
  0
MTEXT
  5
18930
330
10FE8
100
AcDbEntity
  8
图框
100
AcDbMText
 10
1042.063968618426
 20
513.5854547520639
 30
0.0
 40
2.252848170144607
 41
10.82000230410933
 71
     5
 72
     5
  1
材料\P{\Fromans|c134;Material}
 73
     1
 44
1.0
1001
AcDbBlockRepETag
1070
     1
1071
       98
1005
18930
1001
ACAD
1000
MTEXTBEGIN
1070
    73
1070
     1
1070
    44
1040
1.0
1070
    74
1070
     0
1000
MTEXTEND
1000
ACAD_MTEXT_DEFINED_HEIGHT_BEGIN
1070
    46
1040
11.8291419018212
1000
ACAD_MTEXT_DEFINED_HEIGHT_END
  0
LINE
  5
18931
330
10FE8
100
AcDbEntity
  8
图框
370
    -3
100
AcDbLine
 10
1079.971361203936
 20
522.27220025775
 30
0.0
 11
1126.928502610363
 21
522.27220025775
 31
0.0
1001
AcDbBlockRepETag
1070
     1
1071
       99
1005
18931
  0
LINE
  5
18932
330
10FE8
100
AcDbEntity
  8
图框
370
    -3
100
AcDbLine
 10
1079.971361203936
 20
513.5854547520641
 30
0.0
 11
1126.928502610363
 21
513.5854547520639
 31
0.0
1001
AcDbBlockRepETag
1070
     1
1071
      100
1005
18932
  0
MTEXT
  5
18933
330
10FE8
100
AcDbEntity
  8
图框
100
AcDbMText
 10
1086.643735910939
 20
517.9288275049072
 30
0.0
 40
1.958998408821398
 41
13.34474941400573
 71
     5
 72
     5
  1
产品代号\P{\Fromans|c134;Part Code}
 73
     1
 44
1.0
1001
AcDbBlockRepETag
1070
     1
1071
      101
1005
18933
1001
ACAD
1000
MTEXTBEGIN
1070
    73
1070
     1
1070
    44
1040
1.0
1070
    74
1070
     0
1000
MTEXTEND
1000
ACAD_MTEXT_DEFINED_HEIGHT_BEGIN
1070
    46
1040
8.686745505685811
1000
ACAD_MTEXT_DEFINED_HEIGHT_END
  0
LINE
  5
18934
330
10FE8
100
AcDbEntity
  8
图框
370
    -3
100
AcDbLine
 10
946.9285026103634
 20
525.7982263931411
 30
0.0
 11
1036.653967466372
 21
525.7982263931411
 31
0.0
1001
AcDbBlockRepETag
1070
     1
1071
      102
1005
18934
  0
LINE
  5
18935
330
10FE8
100
AcDbEntity
  8
图框
370
    -3
100
AcDbLine
 10
946.9285026103634
 20
520.2672851814959
 30
0.0
 11
1036.653967466372
 21
520.2672851814959
 31
0.0
1001
AcDbBlockRepETag
1070
     1
1071
      103
1005
18935
  0
LINE
  5
18936
330
10FE8
100
AcDbEntity
  8
图框
370
    35
100
AcDbLine
 10
946.9285026103634
 20
531.3291676047914
 30
0.0
 11
1126.928502610363
 21
531.3291676047914
 31
0.0
1001
AcDbBlockRepETag
1070
     1
1071
      104
1005
18936
  0
LINE
  5
18937
330
10FE8
100
AcDbEntity
  8
图框
370
    -3
100
AcDbLine
 10
990.6727612856927
 20
509.2054027581959
 30
0.0
 11
990.6727612856927
 21
484.0347692601515
 31
0.0
1001
AcDbBlockRepETag
1070
     1
1071
      105
1005
18937
  0
MTEXT
  5
18938
102
{ACAD_XDICTIONARY
360
18977
102
}
330
10FE8
100
AcDbEntity
  8
图框
100
AcDbMText
 10
997.1628169651232
 20
499.816589978722
 30
0.0
 40
2.252848170144607
 41
12.98011135886052
 71
     5
 72
     5
  1
{\f仿宋_GB2312|b0|i0|c134|p49;标准化}\PStand.
  7
Romans字体
 73
     1
 44
1.0
1001
AcDbBlockRepETag
1070
     1
1071
      106
1005
18938
1001
ACAD
1000
MTEXTBEGIN
1070
    73
1070
     1
1070
    44
1040
1.0
1070
    74
1070
     0
1000
MTEXTEND
1000
ACAD_MTEXT_DEFINED_HEIGHT_BEGIN
1070
    46
1040
6.19230880992475
1000
ACAD_MTEXT_DEFINED_HEIGHT_END
  0
LINE
  5
18939
330
10FE8
100
AcDbEntity
  8
图框
370
    -3
100
AcDbLine
 10
975.4103773808022
 20
509.2054027581959
 30
0.0
 11
975.4103773808022
 21
484.0347692601515
 31
0.0
1001
AcDbBlockRepETag
1070
     1
1071
      107
1005
18939
  0
MTEXT
  5
1893A
330
10FE8
100
AcDbEntity
  8
图框
100
AcDbMText
 10
984.5089229802068
 20
511.9708733640202
 30
0.0
 40
2.448748011026752
 41
38.287899328693
 71
     5
 72
     5
  1
  变更描述{\Fromans|c134;/Description}
 73
     1
 44
1.0
1001
AcDbBlockRepETag
1070
     1
1071
      108
1005
1893A
1001
ACAD
1000
MTEXTBEGIN
1070
    73
1070
     1
1070
    44
1040
1.0
1070
    74
1070
     0
1000
MTEXTEND
1000
ACAD_MTEXT_DEFINED_HEIGHT_BEGIN
1070
    46
1040
5.530941211648832
1000
ACAD_MTEXT_DEFINED_HEIGHT_END
  0
MTEXT
  5
1893B
102
{ACAD_XDICTIONARY
360
18979
102
}
330
10FE8
100
AcDbEntity
  8
图框
100
AcDbMText
 10
1012.466086049227
 20
511.9708733640202
 30
0.0
 40
1.958998408821398
 41
17.6264268093469
 71
     5
 72
     5
  1
签名\P{\Fromans|c134;Signature} 
 73
     1
 44
1.0
1001
AcDbBlockRepETag
1070
     1
1071
      109
1005
1893B
1001
ACAD
1000
MTEXTBEGIN
1070
    73
1070
     1
1070
    44
1040
1.0
1070
    74
1070
     0
1000
MTEXTEND
1000
ACAD_MTEXT_DEFINED_HEIGHT_BEGIN
1070
    46
1040
5.530941211648825
1000
ACAD_MTEXT_DEFINED_HEIGHT_END
  0
MTEXT
  5
1893C
102
{ACAD_XDICTIONARY
360
1897B
102
}
330
10FE8
100
AcDbEntity
  8
图框
100
AcDbMText
 10
960.7558556394856
 20
511.9708733640202
 30
0.0
 40
1.958998408821398
 41
9.218235352749283
 71
     5
 72
     5
  1
处数\P{\Fromans|c134;Number }
 73
     1
 44
1.0
1001
AcDbBlockRepETag
1070
     1
1071
      110
1005
1893C
1001
ACAD
1000
MTEXTBEGIN
1070
    73
1070
     1
1070
    44
1040
1.0
1070
    74
1070
     0
1000
MTEXTEND
1000
ACAD_MTEXT_DEFINED_HEIGHT_BEGIN
1070
    46
1040
5.530941211648841
1000
ACAD_MTEXT_DEFINED_HEIGHT_END
  0
LINE
  5
1893D
330
10FE8
100
AcDbEntity
  8
图框
370
    -3
100
AcDbLine
 10
946.9285026103634
 20
514.7363439698449
 30
0.0
 11
1036.653967466372
 21
514.7363439698449
 31
0.0
1001
AcDbBlockRepETag
1070
     1
1071
      111
1005
1893D
  0
LINE
  5
1893E
330
10FE8
100
AcDbEntity
  8
图框
370
    -3
100
AcDbLine
 10
946.9285026103634
 20
509.2054027581959
 30
0.0
 11
1036.653967466372
 21
509.2054027581959
 31
0.0
1001
AcDbBlockRepETag
1070
     1
1071
      112
1005
1893E
  0
LINE
  5
1893F
330
10FE8
100
AcDbEntity
  8
图框
370
    -3
100
AcDbLine
 10
946.9285026103634
 20
502.9127443836848
 30
0.0
 11
1036.653967466372
 21
502.9127443836848
 31
0.0
1001
AcDbBlockRepETag
1070
     1
1071
      113
1005
1893F
  0
LINE
  5
18940
330
10FE8
100
AcDbEntity
  8
图框
370
    -3
100
AcDbLine
 10
946.9285026103634
 20
496.620086009173
 30
0.0
 11
1036.653967466372
 21
496.620086009173
 31
0.0
1001
AcDbBlockRepETag
1070
     1
1071
      114
1005
18940
  0
LINE
  5
18941
330
10FE8
100
AcDbEntity
  8
图框
370
    35
380
     1
100
AcDbLine
 10
946.9285026103634
 20
531.3291676047914
 30
0.0
 11
946.9285026103634
 21
484.0347692601515
 31
0.0
1001
AcDbBlockRepETag
1070
     1
1071
      115
1005
18941
  0
LINE
  5
18942
330
10FE8
100
AcDbEntity
  8
图框
370
    -3
100
AcDbLine
 10
1021.301636813399
 20
531.3291676047914
 30
0.0
 11
1021.301636813399
 21
484.0347692601515
 31
0.0
1001
AcDbBlockRepETag
1070
     1
1071
      116
1005
18942
  0
LINE
  5
18943
330
10FE8
100
AcDbEntity
  8
图框
370
    -3
100
AcDbLine
 10
1003.652872644553
 20
531.3291676047914
 30
0.0
 11
1003.652872644553
 21
484.0347692601515
 31
0.0
1001
AcDbBlockRepETag
1070
     1
1071
      117
1005
18943
  0
LINE
  5
18944
330
10FE8
100
AcDbEntity
  8
图框
370
    -3
100
AcDbLine
 10
965.3649733158603
 20
531.3291676047914
 30
0.0
 11
965.3649733158603
 21
509.2054027581959
 31
0.0
1001
AcDbBlockRepETag
1070
     1
1071
      118
1005
18944
  0
LINE
  5
18945
330
10FE8
100
AcDbEntity
  8
图框
370
    -3
100
AcDbLine
 10
956.1467379631109
 20
531.3291676047914
 30
0.0
 11
956.1467379631109
 21
509.2054027581959
 31
0.0
1001
AcDbBlockRepETag
1070
     1
1071
      119
1005
18945
  0
MTEXT
  5
18946
102
{ACAD_XDICTIONARY
360
1897D
102
}
330
10FE8
100
AcDbEntity
  8
图框
100
AcDbMText
 10
951.537620286737
 20
511.9708733640202
 30
0.0
 40
1.958998408821398
 41
9.218235352747692
 71
     5
 72
     5
  1
标记\P{\Fromans|c134;Mark}
 73
     1
 44
1.0
1001
AcDbBlockRepETag
1070
     1
1071
      120
1005
18946
1001
ACAD
1000
MTEXTBEGIN
1070
    73
1070
     1
1070
    44
1040
1.0
1070
    74
1070
     0
1000
MTEXTEND
1000
ACAD_MTEXT_DEFINED_HEIGHT_BEGIN
1070
    46
1040
5.530941211648832
1000
ACAD_MTEXT_DEFINED_HEIGHT_END
  0
MTEXT
  5
18947
102
{ACAD_XDICTIONARY
360
1897F
102
}
330
10FE8
100
AcDbEntity
  8
图框
100
AcDbMText
 10
953.4185582897936
 20
493.4737568219182
 30
0.0
 40
2.252848170144607
 41
12.98011135886041
 71
     5
 72
     5
  1
审核\P{\Fromans|c134;Checked}
 73
     1
 44
1.0
1001
AcDbBlockRepETag
1070
     1
1071
      121
1005
18947
1001
ACAD
1000
MTEXTBEGIN
1070
    73
1070
     1
1070
    44
1040
1.0
1070
    74
1070
     0
1000
MTEXTEND
1000
ACAD_MTEXT_DEFINED_HEIGHT_BEGIN
1070
    46
1040
6.292658374510382
1000
ACAD_MTEXT_DEFINED_HEIGHT_END
  0
MTEXT
  5
18948
102
{ACAD_XDICTIONARY
360
18981
102
}
330
10FE8
100
AcDbEntity
  8
图框
100
AcDbMText
 10
953.4185582897936
 20
499.8775635376777
 30
0.0
 40
2.252848170144607
 41
12.98011135886041
 71
     5
 72
     5
  1
绘图\P{\Fromans|c134;Drawn\Ftxt|c134; }
 73
     1
 44
1.0
1001
AcDbBlockRepETag
1070
     1
1071
      122
1005
18948
1001
ACAD
1000
MTEXTBEGIN
1070
    73
1070
     1
1070
    44
1040
1.0
1070
    74
1070
     0
1000
MTEXTEND
1000
ACAD_MTEXT_DEFINED_HEIGHT_BEGIN
1070
    46
1040
6.070361692014189
1000
ACAD_MTEXT_DEFINED_HEIGHT_END
  0
ARC
  5
18949
330
10FE8
100
AcDbEntity
  8
图框
 62
     4
370
    35
100
AcDbCircle
 10
1086.900627017421
 20
490.0179944151195
 30
0.0
 40
4.063310408393665
100
AcDbArc
 50
18.95237904564806
 51
161.0476209543519
1001
AcDbBlockRepETag
1070
     1
1071
      123
1005
18949
  0
ARC
  5
1894A
330
10FE8
100
AcDbEntity
  8
图框
 62
     4
370
    35
100
AcDbCircle
 10
1086.900627017421
 20
490.0179944151195
 30
0.0
 40
4.063310408393665
100
AcDbArc
 50
198.952379045648
 51
341.0476209543519
1001
AcDbBlockRepETag
1070
     1
1071
      124
1005
1894A
  0
LINE
  5
1894B
330
10FE8
100
AcDbEntity
  8
图框
 62
     4
370
    35
100
AcDbLine
 10
1083.057593369548
 20
488.6983035966752
 30
0.0
 11
1090.74366066529
 21
488.6983035966752
 31
0.0
1001
AcDbBlockRepETag
1070
     1
1071
      125
1005
1894B
  0
LINE
  5
1894C
330
10FE8
100
AcDbEntity
  8
图框
 62
     4
370
    35
100
AcDbLine
 10
1083.057593369548
 20
491.3376852335652
 30
0.0
 11
1090.74366066529
 21
491.3376852335652
 31
0.0
1001
AcDbBlockRepETag
1070
     1
1071
      126
1005
1894C
  0
MTEXT
  5
1894D
330
10FE8
100
AcDbEntity
  8
图框
 62
     1
370
    20
100
AcDbMText
 10
1083.034582879669
 20
491.0506288081688
 30
0.0
 40
2.005930044038334
 41
5.047240019334847
 71
     1
 72
     5
  1
{\fArial|b0|i0|c0|p34;W}
  7
Chinese
 73
     1
 44
1.0
1001
AcDbBlockRepETag
1070
     1
1071
      127
1005
1894D
1001
ACAD
1000
MTEXTBEGIN
1070
    73
1070
     1
1070
    44
1040
1.0
1070
    74
1070
     0
1000
MTEXTEND
  0
LINE
  5
1894E
330
10FE8
100
AcDbEntity
  8
图框
370
    -3
100
AcDbLine
 10
946.9285026103634
 20
490.327427634663
 30
0.0
 11
1036.653967466372
 21
490.327427634663
 31
0.0
1001
AcDbBlockRepETag
1070
     1
1071
      128
1005
1894E
  0
LINE
  5
1894F
330
10FE8
100
AcDbEntity
  8
图框
370
    -3
100
AcDbLine
 10
959.9086139692238
 20
509.2054027581959
 30
0.0
 11
959.9086139692238
 21
484.0347692601515
 31
0.0
1001
AcDbBlockRepETag
1070
     1
1071
      129
1005
1894F
  0
MTEXT
  5
18950
330
10FE8
100
AcDbEntity
  8
图框
100
AcDbMText
 10
967.6594956750129
 20
506.0590735709403
 30
0.0
 40
2.252848170144607
 41
15.50176341157869
 71
     5
 72
     5
  1
姓名{\Fromans|c134;/Name\Ftxt|c134; }
 73
     1
 44
1.0
1001
AcDbBlockRepETag
1070
     1
1071
      130
1005
18950
1001
ACAD
1000
MTEXTBEGIN
1070
    73
1070
     1
1070
    44
1040
1.0
1070
    74
1070
     0
1000
MTEXTEND
1000
ACAD_MTEXT_DEFINED_HEIGHT_BEGIN
1070
    46
1040
6.292658374511246
1000
ACAD_MTEXT_DEFINED_HEIGHT_END
  0
MTEXT
  5
18951
330
10FE8
100
AcDbEntity
  8
图框
100
AcDbMText
 10
983.0415693332477
 20
506.0590735709403
 30
0.0
 40
2.252848170144607
 41
15.26238390489042
 71
     5
 72
     5
  1
日期{\Fromans|c134;/Date}
 73
     1
 44
1.0
1001
AcDbBlockRepETag
1070
     1
1071
      131
1005
18951
1001
ACAD
1000
MTEXTBEGIN
1070
    73
1070
     1
1070
    44
1040
1.0
1070
    74
1070
     0
1000
MTEXTEND
1000
ACAD_MTEXT_DEFINED_HEIGHT_BEGIN
1070
    46
1040
6.2926583745112
1000
ACAD_MTEXT_DEFINED_HEIGHT_END
  0
LINE
  5
18952
330
10FE8
100
AcDbEntity
  8
图框
370
    -3
100
AcDbLine
 10
946.9285026103634
 20
509.2054027581959
 30
0.0
 11
959.9086139692238
 21
502.9127443836848
 31
0.0
1001
AcDbBlockRepETag
1070
     1
1071
      132
1005
18952
  0
MTEXT
  5
18953
330
10FE8
100
AcDbEntity
  8
图框
100
AcDbMText
 10
1012.931405110086
 20
506.0185715840725
 30
0.0
 40
2.252848170144607
 41
16.93492221063566
 71
     5
 72
     5
  1
姓名{\Fromans|c134;/Name}
 73
     1
 44
1.0
1001
AcDbBlockRepETag
1070
     1
1071
      133
1005
18953
1001
ACAD
1000
MTEXTBEGIN
1070
    73
1070
     1
1070
    44
1040
1.0
1070
    74
1070
     0
1000
MTEXTEND
  0
MTEXT
  5
18954
330
10FE8
100
AcDbEntity
  8
图框
100
AcDbMText
 10
1028.977802139886
 20
506.0590735709403
 30
0.0
 40
2.252848170144607
 41
15.35233065297283
 71
     5
 72
     5
  1
日期{\Fromans|c134;/Date}
 73
     1
 44
1.0
1001
AcDbBlockRepETag
1070
     1
1071
      134
1005
18954
1001
ACAD
1000
MTEXTBEGIN
1070
    73
1070
     1
1070
    44
1040
1.0
1070
    74
1070
     0
1000
MTEXTEND
1000
ACAD_MTEXT_DEFINED_HEIGHT_BEGIN
1070
    46
1040
6.292658374511256
1000
ACAD_MTEXT_DEFINED_HEIGHT_END
  0
LINE
  5
18955
330
10FE8
100
AcDbEntity
  8
图框
370
    -3
100
AcDbLine
 10
1003.652872644553
 20
502.9127443836848
 30
0.0
 11
990.6727612856927
 21
509.2054027581959
 31
0.0
1001
AcDbBlockRepETag
1070
     1
1071
      135
1005
18955
  0
MTEXT
  5
18956
102
{ACAD_XDICTIONARY
360
18983
102
}
330
10FE8
100
AcDbEntity
  8
图框
100
AcDbMText
 10
997.1628169651232
 20
487.1810984474071
 30
0.0
 40
2.252848170144607
 41
12.98011135886052
 71
     5
 72
     5
  1
批准\P{\Fromans|c134;Approved}
 73
     1
 44
1.0
1001
AcDbBlockRepETag
1070
     1
1071
      136
1005
18956
1001
ACAD
1000
MTEXTBEGIN
1070
    73
1070
     1
1070
    44
1040
1.0
1070
    74
1070
     0
1000
MTEXTEND
1000
ACAD_MTEXT_DEFINED_HEIGHT_BEGIN
1070
    46
1040
6.292658374511517
1000
ACAD_MTEXT_DEFINED_HEIGHT_END
  0
MTEXT
  5
18957
102
{ACAD_XDICTIONARY
360
18985
102
}
330
10FE8
100
AcDbEntity
  8
图框
100
AcDbMText
 10
953.4185582897936
 20
487.1810984474071
 30
0.0
 40
2.252848170144607
 41
12.98011135886041
 71
     5
 72
     5
  1
工艺\P{\Fromans|c134;Process}
 73
     1
 44
1.0
1001
AcDbBlockRepETag
1070
     1
1071
      137
1005
18957
1001
ACAD
1000
MTEXTBEGIN
1070
    73
1070
     1
1070
    44
1040
1.0
1070
    74
1070
     0
1000
MTEXTEND
1000
ACAD_MTEXT_DEFINED_HEIGHT_BEGIN
1070
    46
1040
6.292658374511495
1000
ACAD_MTEXT_DEFINED_HEIGHT_END
  0
MTEXT
  5
18958
102
{ACAD_XDICTIONARY
360
18987
102
}
330
10FE8
100
AcDbEntity
  8
图框
100
AcDbMText
 10
1028.977802139886
 20
511.8287965307664
 30
0.0
 40
1.958998408821398
 41
15.3523306529728
 71
     5
 72
     5
  1
日期\P{\Fromans|c134;Date}
 73
     1
 44
1.0
1001
AcDbBlockRepETag
1070
     1
1071
      138
1005
18958
1001
ACAD
1000
MTEXTBEGIN
1070
    73
1070
     1
1070
    44
1040
1.0
1070
    74
1070
     0
1000
MTEXTEND
1000
ACAD_MTEXT_DEFINED_HEIGHT_BEGIN
1070
    46
1040
5.246787545140668
1000
ACAD_MTEXT_DEFINED_HEIGHT_END
  0
MTEXT
  5
18959
330
10FE8
100
AcDbEntity
  8
图框
100
AcDbMText
 10
1086.643735910939
 20
509.1493769780809
 30
0.0
 40
2.154898249703542
 41
13.34474941400573
 71
     5
 72
     5
  1
产品料号\P{\Fromans|c134;Part No.}
 73
     1
 44
1.0
1001
AcDbBlockRepETag
1070
     1
1071
      139
1005
18959
1001
ACAD
1000
MTEXTBEGIN
1070
    73
1070
     1
1070
    44
1040
1.0
1070
    74
1070
     0
1000
MTEXTEND
1000
ACAD_MTEXT_DEFINED_HEIGHT_BEGIN
1070
    46
1040
8.87215554796615
1000
ACAD_MTEXT_DEFINED_HEIGHT_END
  0
MTEXT
  5
1895A
330
10FE8
100
AcDbEntity
  8
图框
100
AcDbMText
 10
1086.643735910939
 20
500.2775205517163
 30
0.0
 40
1.958998408821398
 41
13.34474941400573
 71
     5
 72
     5
  1
产品名称\P{\Fromans|c134;Part Name}
 73
     1
 44
1.0
1001
AcDbBlockRepETag
1070
     1
1071
      140
1005
1895A
1001
ACAD
1000
MTEXTBEGIN
1070
    73
1070
     1
1070
    44
1040
1.0
1070
    74
1070
     0
1000
MTEXTEND
1000
ACAD_MTEXT_DEFINED_HEIGHT_BEGIN
1070
    46
1040
8.871557304763321
1000
ACAD_MTEXT_DEFINED_HEIGHT_END
  0
LINE
  5
1895B
330
10FE8
100
AcDbEntity
  8
图框
 62
     1
370
    18
100
AcDbLine
 10
833.4128518455365
 20
690.5347692601515
 30
0.0
 11
833.4128518455365
 21
480.5347692601515
 31
0.0
1001
AcDbBlockRepETag
1070
     1
1071
      141
1005
1895B
  0
LINE
  5
1895C
330
10FE8
100
AcDbEntity
  8
图框
 62
     1
370
    18
100
AcDbLine
 10
833.4128518455365
 20
480.5347692601515
 30
0.0
 11
1130.411601781236
 21
480.5347692601515
 31
0.0
1001
AcDbBlockRepETag
1070
     1
1071
      142
1005
1895C
  0
LINE
  5
1895D
330
10FE8
100
AcDbEntity
  8
图框
 62
     1
370
    18
100
AcDbLine
 10
833.4128518455365
 20
690.5347692601515
 30
0.0
 11
1130.411601781236
 21
690.5347692601515
 31
0.0
1001
AcDbBlockRepETag
1070
     1
1071
      143
1005
1895D
  0
LINE
  5
1895E
330
10FE8
100
AcDbEntity
  8
图框
 62
     1
370
    18
100
AcDbLine
 10
1130.411601781236
 20
480.5347692601515
 30
0.0
 11
1130.411601781236
 21
690.5347692601515
 31
0.0
1001
AcDbBlockRepETag
1070
     1
1071
      144
1005
1895E
  0
LINE
  5
1895F
330
10FE8
100
AcDbEntity
  8
图框
370
    18
100
AcDbLine
 10
836.9128518455394
 20
686.7901958362482
 30
0.0
 11
861.5351874539182
 21
686.7901958362482
 31
0.0
1001
AcDbBlockRepETag
1070
     1
1071
      145
1005
1895F
  0
LINE
  5
18960
330
10FE8
100
AcDbEntity
  8
图框
370
    50
100
AcDbLine
 10
1126.928502610363
 20
484.3410054693078
 30
0.0
 11
1126.928502610363
 21
675.5347692601515
 31
0.0
1001
AcDbBlockRepETag
1070
     1
1071
      146
1005
18960
  0
MTEXT
  5
18961
330
10FE8
100
AcDbEntity
  8
图框
 62
     3
100
AcDbMText
 10
1052.897990117958
 20
495.8417418993364
 30
0.0
 40
2.985513575034151
 41
10.82934843439114
 71
     5
 72
     5
  1
V1.0
  7
Romans字体
 73
     1
 44
1.0
1001
AcDbBlockRepETag
1070
     1
1071
      147
1005
18961
1001
ACAD
1000
MTEXTBEGIN
1070
    73
1070
     1
1070
    44
1040
1.0
1070
    74
1070
     0
1000
MTEXTEND
1000
ACAD_MTEXT_DEFINED_HEIGHT_BEGIN
1070
    46
1040
7.886094601211307
1000
ACAD_MTEXT_DEFINED_HEIGHT_END
  0
ENDBLK
  5
1107F
330
10FE8
100
AcDbEntity
  8
0
100
AcDbBlockEnd
  0
BLOCK
  5
1870B
330
1870A
100
AcDbEntity
  8
0
100
AcDbBlockBegin
  2
*D2
 70
     1
 10
0.0
 20
0.0
 30
0.0
  3
*D2
  1

  0
LINE
  5
18809
330
1870A
100
AcDbEntity
  8
DIM
 62
     6
370
    -2
100
AcDbLine
 10
529.5750660908391
 20
302.7727246589464
 30
0.0
 11
529.5750660908391
 21
321.6268746589467
 31
0.0
  0
LINE
  5
1880A
330
1870A
100
AcDbEntity
  8
DIM
 62
     6
370
    -2
100
AcDbLine
 10
502.3750660908389
 20
312.4227246589466
 30
0.0
 11
502.3750660908389
 21
321.6268746589467
 31
0.0
  0
LINE
  5
1880B
330
1870A
100
AcDbEntity
  8
DIM
 62
     1
370
    -2
100
AcDbLine
 10
526.5750660908388
 20
320.4268746589466
 30
0.0
 11
505.3750660908391
 21
320.4268746589466
 31
0.0
  0
SOLID
  5
1880C
330
1870A
100
AcDbEntity
  8
DIM
 62
     1
100
AcDbTrace
 10
526.5750660908388
 20
320.9268746589466
 30
0.0
 11
526.5750660908388
 21
319.9268746589466
 31
0.0
 12
529.5750660908391
 22
320.4268746589466
 32
0.0
 13
529.5750660908391
 23
320.4268746589466
 33
0.0
  0
SOLID
  5
1880D
330
1870A
100
AcDbEntity
  8
DIM
 62
     1
100
AcDbTrace
 10
505.3750660908391
 20
320.9268746589466
 30
0.0
 11
505.3750660908391
 21
319.9268746589466
 31
0.0
 12
502.3750660908389
 22
320.4268746589466
 32
0.0
 13
502.3750660908389
 23
320.4268746589466
 33
0.0
  0
MTEXT
  5
1880E
330
1870A
100
AcDbEntity
  8
DIM
 62
     4
370
     0
100
AcDbMText
 10
515.9750660908396
 20
322.9768746589466
 30
0.0
 40
3.5
 41
0.0
 71
     5
 72
     1
  1
\A1;27.2
  7
Romans字体
 73
     1
 44
1.0
1001
ACAD
1000
MTEXTBEGIN
1070
    73
1070
     1
1070
    44
1040
1.0
1070
    74
1070
     0
1000
MTEXTEND
  0
POINT
  5
1880F
330
1870A
100
AcDbEntity
  8
Defpoints
 62
     0
100
AcDbPoint
 10
529.5750660908391
 20
302.5727246589465
 30
0.0
  0
POINT
  5
18810
330
1870A
100
AcDbEntity
  8
Defpoints
 62
     0
100
AcDbPoint
 10
502.3750660908389
 20
312.2227246589466
 30
0.0
  0
POINT
  5
18811
330
1870A
100
AcDbEntity
  8
Defpoints
 62
     0
100
AcDbPoint
 10
502.3750660908389
 20
320.4268746589466
 30
0.0
  0
ENDBLK
  5
1870C
330
1870A
100
AcDbEntity
  8
0
100
AcDbBlockEnd
  0
BLOCK
  5
18717
330
18716
100
AcDbEntity
  8
0
100
AcDbBlockBegin
  2
*D3
 70
     1
 10
0.0
 20
0.0
 30
0.0
  3
*D3
  1

  0
LINE
  5
18812
330
18716
100
AcDbEntity
  8
DIM
 62
     6
370
    -2
100
AcDbLine
 10
465.9997031261205
 20
304.7727246589464
 30
0.0
 11
465.9997031261205
 21
321.4794096589466
 31
0.0
  0
LINE
  5
18813
330
18716
100
AcDbEntity
  8
DIM
 62
     6
370
    -2
100
AcDbLine
 10
480.599703126121
 20
309.0727246589464
 30
0.0
 11
480.599703126121
 21
321.4794096589466
 31
0.0
  0
LINE
  5
18814
330
18716
100
AcDbEntity
  8
DIM
 62
     1
370
    -2
100
AcDbLine
 10
468.9997031261206
 20
320.2794096589467
 30
0.0
 11
477.5997031261209
 21
320.2794096589467
 31
0.0
  0
SOLID
  5
18815
330
18716
100
AcDbEntity
  8
DIM
 62
     1
100
AcDbTrace
 10
468.9997031261206
 20
320.7794096589466
 30
0.0
 11
468.9997031261206
 21
319.7794096589466
 31
0.0
 12
465.9997031261205
 22
320.2794096589467
 32
0.0
 13
465.9997031261205
 23
320.2794096589467
 33
0.0
  0
SOLID
  5
18816
330
18716
100
AcDbEntity
  8
DIM
 62
     1
100
AcDbTrace
 10
477.5997031261209
 20
320.7794096589466
 30
0.0
 11
477.5997031261209
 21
319.7794096589466
 31
0.0
 12
480.599703126121
 22
320.2794096589467
 32
0.0
 13
480.599703126121
 23
320.2794096589467
 33
0.0
  0
MTEXT
  5
18817
330
18716
100
AcDbEntity
  8
DIM
 62
     4
370
     0
100
AcDbMText
 10
473.2997031261215
 20
322.8294096589466
 30
0.0
 40
3.5
 41
0.0
 71
     5
 72
     1
  1
\A1;14.6
  7
Romans字体
 73
     1
 44
1.0
1001
ACAD
1000
MTEXTBEGIN
1070
    73
1070
     1
1070
    44
1040
1.0
1070
    74
1070
     0
1000
MTEXTEND
  0
POINT
  5
18818
330
18716
100
AcDbEntity
  8
Defpoints
 62
     0
100
AcDbPoint
 10
465.9997031261205
 20
304.5727246589465
 30
0.0
  0
POINT
  5
18819
330
18716
100
AcDbEntity
  8
Defpoints
 62
     0
100
AcDbPoint
 10
480.599703126121
 20
308.8727246589464
 30
0.0
  0
POINT
  5
1881A
330
18716
100
AcDbEntity
  8
Defpoints
 62
     0
100
AcDbPoint
 10
480.599703126121
 20
320.2794096589467
 30
0.0
  0
ENDBLK
  5
18718
330
18716
100
AcDbEntity
  8
0
100
AcDbBlockEnd
  0
BLOCK
  5
18723
330
18722
100
AcDbEntity
  8
0
100
AcDbBlockBegin
  2
*D4
 70
     1
 10
0.0
 20
0.0
 30
0.0
  3
*D4
  1

  0
LINE
  5
1881B
330
18722
100
AcDbEntity
  8
DIM
 62
     6
370
    -2
100
AcDbLine
 10
470.5997031261216
 20
314.1727246589463
 30
0.0
 11
456.7564046261217
 21
314.1727246589463
 31
0.0
  0
LINE
  5
1881C
330
18722
100
AcDbEntity
  8
DIM
 62
     6
370
    -2
100
AcDbLine
 10
469.5997031261216
 20
279.9727226589463
 30
0.0
 11
456.7564046261217
 21
279.9727226589463
 31
0.0
  0
LINE
  5
1881D
330
18722
100
AcDbEntity
  8
DIM
 62
     1
370
    -2
100
AcDbLine
 10
457.9564046261218
 20
311.1727246589463
 30
0.0
 11
457.9564046261218
 21
282.9727226589463
 31
0.0
  0
SOLID
  5
1881E
330
18722
100
AcDbEntity
  8
DIM
 62
     1
100
AcDbTrace
 10
457.4564046261218
 20
311.1727246589463
 30
0.0
 11
458.4564046261219
 21
311.1727246589463
 31
0.0
 12
457.9564046261218
 22
314.1727246589463
 32
0.0
 13
457.9564046261218
 23
314.1727246589463
 33
0.0
  0
SOLID
  5
1881F
330
18722
100
AcDbEntity
  8
DIM
 62
     1
100
AcDbTrace
 10
457.4564046261218
 20
282.9727226589463
 30
0.0
 11
458.4564046261219
 21
282.9727226589463
 31
0.0
 12
457.9564046261218
 22
279.9727226589463
 32
0.0
 13
457.9564046261218
 23
279.9727226589463
 33
0.0
  0
MTEXT
  5
18820
330
18722
100
AcDbEntity
  8
DIM
 62
     4
370
     0
100
AcDbMText
 10
455.4064046261218
 20
297.0727246589465
 30
0.0
 40
3.5
 41
0.0
 71
     5
 72
     1
  1
\A1;34.2
  7
Romans字体
 11
0.0000000000000001
 21
1.0
 31
0.0
 73
     1
 44
1.0
1001
ACAD
1000
MTEXTBEGIN
1070
    73
1070
     1
1070
    44
1040
1.0
1070
    74
1070
     0
1000
MTEXTEND
  0
POINT
  5
18821
330
18722
100
AcDbEntity
  8
Defpoints
 62
     0
100
AcDbPoint
 10
470.7997031261217
 20
314.1727246589463
 30
0.0
  0
POINT
  5
18822
330
18722
100
AcDbEntity
  8
Defpoints
 62
     0
100
AcDbPoint
 10
469.7997031261215
 20
279.9727226589463
 30
0.0
  0
POINT
  5
18823
330
18722
100
AcDbEntity
  8
Defpoints
 62
     0
100
AcDbPoint
 10
457.9564046261218
 20
279.9727226589463
 30
0.0
  0
ENDBLK
  5
18724
330
18722
100
AcDbEntity
  8
0
100
AcDbBlockEnd
  0
ENDSEC
  0
SECTION
  2
ENTITIES
  0
HATCH
  5
28AE
330
1F
100
AcDbEntity
  8
图层 1
 62
     7
100
AcDbHatch
 10
0.0
 20
0.0
 30
0.0
210
0.0
220
0.0
230
1.0
  2
SOLID
 70
     1
 71
     0
 91
        1
 92
        1
 93
        2
 72
     4
 94
        3
 73
     0
 74
     0
 95
       17
 96
       13
 40
0.0
 40
0.0
 40
0.0
 40
0.0
 40
0.3527780104152769
 40
0.3527780104152769
 40
0.3527780104152769
 40
0.7055560208305538
 40
0.7055560208305538
 40
0.7055560208305538
 40
1.058334031245828
 40
1.058334031245828
 40
1.058334031245828
 40
1.411112041661104
 40
1.411112041661104
 40
1.411112041661104
 40
1.411112041661104
 10
11.07013262565829
 20
29.50312817963231
 10
11.07013262565829
 20
29.50312817963231
 10
10.9431807732774
 20
29.50312817963231
 10
10.9431807732774
 20
29.50312817963231
 10
10.9431807732774
 20
29.50312817963231
 10
10.85843136843155
 20
29.22786486877117
 10
10.85843136843155
 20
29.22786486877117
 10
10.85843136843155
 20
29.22786486877117
 10
10.90080607085448
 20
29.2068497724476
 10
10.90080607085448
 20
29.2068497724476
 10
10.94455881238059
 20
29.31571486159919
 10
11.00346998404173
 20
29.40907701083995
 10
11.07013262565829
 20
29.50312817963231
 72
     1
 10
11.07013262565829
 20
29.50312817963231
 11
11.07013262565829
 21
29.50312817963231
 97
        0
 75
     0
 76
     1
 98
        0
  0
HATCH
  5
2C65
330
1F
100
AcDbEntity
  8
图层 1
 62
     7
100
AcDbHatch
 10
0.0
 20
0.0
 30
0.0
210
0.0
220
0.0
230
1.0
  2
SOLID
 70
     1
 71
     0
 91
        1
 92
        1
 93
        2
 72
     4
 94
        3
 73
     0
 74
     0
 95
       47
 96
       43
 40
0.0
 40
0.0
 40
0.0
 40
0.0
 40
0.3527780104152769
 40
0.3527780104152769
 40
0.3527780104152769
 40
0.7055560208305538
 40
0.7055560208305538
 40
0.7055560208305538
 40
1.058334031245828
 40
1.058334031245828
 40
1.058334031245828
 40
1.411112041661104
 40
1.411112041661104
 40
1.411112041661104
 40
1.763890052076384
 40
1.763890052076384
 40
1.763890052076384
 40
2.116668062491659
 40
2.116668062491659
 40
2.116668062491659
 40
2.469446072906936
 40
2.469446072906936
 40
2.469446072906936
 40
2.822224083322215
 40
2.822224083322215
 40
2.822224083322215
 40
3.175002093737492
 40
3.175002093737492
 40
3.175002093737492
 40
3.527780104152768
 40
3.527780104152768
 40
3.527780104152768
 40
3.880558114568044
 40
3.880558114568044
 40
3.880558114568044
 40
4.233336124983321
 40
4.233336124983321
 40
4.233336124983321
 40
4.586114135398599
 40
4.586114135398599
 40
4.586114135398599
 40
4.938892145813873
 40
4.938892145813873
 40
4.938892145813873
 40
4.938892145813873
 10
162.8986914070121
 20
257.4895347631509
 10
162.8986914070121
 20
257.4895347631509
 10
162.9200510131114
 20
257.4471600607279
 10
162.9200510131114
 20
257.4471600607279
 10
162.9200510131114
 20
257.4471600607279
 10
162.9200510131114
 20
257.404785358305
 10
162.9200510131114
 20
257.404785358305
 10
162.9200510131114
 20
257.404785358305
 10
162.8986914070121
 20
257.36258291077
 10
162.8986914070121
 20
257.36258291077
 10
162.8986914070121
 20
257.36258291077
 10
162.8986914070121
 20
257.320208208347
 10
162.8986914070121
 20
257.320208208347
 10
162.8986914070121
 20
257.320208208347
 10
162.8563167045891
 20
257.2990208571356
 10
162.8563167045891
 20
257.2990208571356
 10
162.8563167045891
 20
257.2990208571356
 10
162.8139420021662
 20
257.2563016449369
 10
162.8139420021662
 20
257.2563016449369
 10
162.8139420021662
 20
257.2563016449369
 10
162.7295371070961
 20
257.2563016449369
 10
162.7295371070961
 20
257.2563016449369
 10
162.7295371070961
 20
257.2563016449369
 10
162.6658027985738
 20
257.2778335059241
 10
162.6658027985738
 20
257.2778335059241
 10
162.6658027985738
 20
257.2778335059241
 10
162.6237726059267
 20
257.2990208571356
 10
162.6237726059267
 20
257.2990208571356
 10
162.6237726059267
 20
257.2990208571356
 10
162.5813979035038
 20
257.3413955595585
 10
162.5813979035038
 20
257.3413955595585
 10
162.5813979035038
 20
257.3413955595585
 10
162.5813979035038
 20
257.4895347631509
 10
162.5813979035038
 20
257.4895347631509
 10
162.5813979035038
 20
257.4895347631509
 10
162.6447877022503
 20
257.5525800521216
 10
162.6447877022503
 20
257.5525800521216
 10
162.6447877022503
 20
257.5525800521216
 10
162.7081775009967
 20
257.5525800521216
 10
162.7081775009967
 20
257.5525800521216
 10
162.8749202324821
 20
257.5424170137356
 10
162.7918933765152
 20
257.5939212252171
 10
162.8986914070121
 20
257.4895347631509
 72
     1
 10
162.8986914070121
 20
257.4895347631509
 11
162.8986914070121
 21
257.4895347631509
 97
        0
 75
     0
 76
     1
 98
        0
  0
HATCH
  5
2EE7
330
1F
100
AcDbEntity
  8
图层 1
 62
     7
100
AcDbHatch
 10
0.0
 20
0.0
 30
0.0
210
0.0
220
0.0
230
1.0
  2
SOLID
 70
     1
 71
     0
 91
        1
 92
        1
 93
        2
 72
     4
 94
        3
 73
     0
 74
     0
 95
       56
 96
       52
 40
0.0
 40
0.0
 40
0.0
 40
0.0
 40
0.3527780104152769
 40
0.3527780104152769
 40
0.3527780104152769
 40
0.7055560208305538
 40
0.7055560208305538
 40
0.7055560208305538
 40
1.058334031245828
 40
1.058334031245828
 40
1.058334031245828
 40
1.411112041661104
 40
1.411112041661104
 40
1.411112041661104
 40
1.763890052076384
 40
1.763890052076384
 40
1.763890052076384
 40
2.116668062491659
 40
2.116668062491659
 40
2.116668062491659
 40
2.469446072906936
 40
2.469446072906936
 40
2.469446072906936
 40
2.822224083322215
 40
2.822224083322215
 40
2.822224083322215
 40
3.175002093737492
 40
3.175002093737492
 40
3.175002093737492
 40
3.527780104152768
 40
3.527780104152768
 40
3.527780104152768
 40
3.880558114568044
 40
3.880558114568044
 40
3.880558114568044
 40
4.233336124983321
 40
4.233336124983321
 40
4.233336124983321
 40
4.586114135398599
 40
4.586114135398599
 40
4.586114135398599
 40
4.938892145813873
 40
4.938892145813873
 40
4.938892145813873
 40
5.291670156229153
 40
5.291670156229153
 40
5.291670156229153
 40
5.64444816664443
 40
5.64444816664443
 40
5.64444816664443
 40
5.997226177059705
 40
5.997226177059705
 40
5.997226177059705
 40
5.997226177059705
 10
185.4837187788815
 20
241.4451977396596
 10
185.4837187788815
 20
241.4451977396596
 10
185.4837187788815
 20
241.4028230372367
 10
185.4837187788815
 20
241.4028230372367
 10
185.4837187788815
 20
241.4028230372367
 10
185.5047338752051
 20
241.3604483348137
 10
185.5047338752051
 20
241.3604483348137
 10
185.4520238795082
 20
241.2782827532863
 10
185.4671823096433
 20
241.1897437409066
 10
185.335579575289
 20
241.2119646214456
 10
185.335579575289
 20
241.2119646214456
 10
185.2932048728662
 20
241.2119646214456
 10
185.2932048728662
 20
241.2119646214456
 10
185.2932048728662
 20
241.2119646214456
 10
185.2294705643439
 20
241.2334964824328
 10
185.2294705643439
 20
241.2334964824328
 10
185.2294705643439
 20
241.2334964824328
 10
185.1660807655974
 20
241.2543393238685
 10
185.1660807655974
 20
241.2543393238685
 10
185.1660807655974
 20
241.2543393238685
 10
185.1450656692739
 20
241.2758711848558
 10
185.1450656692739
 20
241.2758711848558
 10
185.1450656692739
 20
241.2758711848558
 10
185.1450656692739
 20
241.2967140262914
 10
185.1450656692739
 20
241.2967140262914
 10
185.1450656692739
 20
241.2967140262914
 10
185.1237060631745
 20
241.3604483348137
 10
185.1237060631745
 20
241.3604483348137
 10
185.1237060631745
 20
241.3604483348137
 10
185.1237060631745
 20
241.4028230372367
 10
185.1237060631745
 20
241.4028230372367
 10
185.1237060631745
 20
241.4028230372367
 10
185.1660807655974
 20
241.4875724420825
 10
185.1660807655974
 20
241.4875724420825
 10
185.1660807655974
 20
241.4875724420825
 10
185.2084554680203
 20
241.5085875384061
 10
185.2084554680203
 20
241.5085875384061
 10
185.2084554680203
 20
241.5085875384061
 10
185.2718452667668
 20
241.5297748896175
 10
185.2718452667668
 20
241.5297748896175
 10
185.2718452667668
 20
241.5297748896175
 10
185.3565946716127
 20
241.5297748896175
 10
185.3565946716127
 20
241.5297748896175
 10
185.3565946716127
 20
241.5297748896175
 10
185.4199844703592
 20
241.5085875384061
 10
185.4199844703592
 20
241.5085875384061
 10
185.4199844703592
 20
241.5085875384061
 10
185.4623591727821
 20
241.4875724420825
 10
185.4623591727821
 20
241.4875724420825
 10
185.4623591727821
 20
241.4875724420825
 10
185.4837187788815
 20
241.4451977396596
 10
185.4837187788815
 20
241.4451977396596
 72
     1
 10
185.4837187788815
 20
241.4451977396596
 11
185.4837187788815
 21
241.4451977396596
 97
        0
 75
     0
 76
     1
 98
        0
  0
HATCH
  5
2F93
330
1F
100
AcDbEntity
  8
图层 1
 62
     7
100
AcDbHatch
 10
0.0
 20
0.0
 30
0.0
210
0.0
220
0.0
230
1.0
  2
SOLID
 70
     1
 71
     0
 91
        1
 92
        1
 93
        2
 72
     4
 94
        3
 73
     0
 74
     0
 95
       38
 96
       34
 40
0.0
 40
0.0
 40
0.0
 40
0.0
 40
0.3527780104152769
 40
0.3527780104152769
 40
0.3527780104152769
 40
0.7055560208305538
 40
0.7055560208305538
 40
0.7055560208305538
 40
1.058334031245828
 40
1.058334031245828
 40
1.058334031245828
 40
1.411112041661104
 40
1.411112041661104
 40
1.411112041661104
 40
1.763890052076384
 40
1.763890052076384
 40
1.763890052076384
 40
2.116668062491659
 40
2.116668062491659
 40
2.116668062491659
 40
2.469446072906936
 40
2.469446072906936
 40
2.469446072906936
 40
2.822224083322215
 40
2.822224083322215
 40
2.822224083322215
 40
3.175002093737492
 40
3.175002093737492
 40
3.175002093737492
 40
3.527780104152768
 40
3.527780104152768
 40
3.527780104152768
 40
3.880558114568044
 40
3.880558114568044
 40
3.880558114568044
 40
3.880558114568044
 10
185.907121293335
 20
220.1937677098971
 10
185.9005756075949
 20
220.0449394867532
 10
185.9329595265197
 20
220.1136691870245
 10
185.864746590912
 20
219.9817219428946
 10
185.864746590912
 20
219.9817219428946
 10
185.822371888489
 20
219.9605345916831
 10
185.822371888489
 20
219.9605345916831
 10
185.822371888489
 20
219.9605345916831
 10
185.6528730787974
 20
219.9605345916831
 10
185.6528730787974
 20
219.9605345916831
 10
185.6528730787974
 20
219.9605345916831
 10
185.5894832800509
 20
220.002909294106
 10
185.5894832800509
 20
220.002909294106
 10
185.5894832800509
 20
220.002909294106
 10
185.5681236739515
 20
220.0240966453175
 10
185.5681236739515
 20
220.0240966453175
 10
185.5681236739515
 20
220.0240966453175
 10
185.5681236739515
 20
220.045283996529
 10
185.5681236739515
 20
220.045283996529
 10
185.5681236739515
 20
220.045283996529
 10
185.547108577628
 20
220.0876586989519
 10
185.547108577628
 20
220.0876586989519
 10
185.547108577628
 20
220.0876586989519
 10
185.547108577628
 20
220.1513930074742
 10
185.547108577628
 20
220.1513930074742
 10
185.547108577628
 20
220.1513930074742
 10
185.5894832800509
 20
220.23614241232
 10
185.5894832800509
 20
220.23614241232
 10
185.5894832800509
 20
220.23614241232
 10
185.6318579824738
 20
220.2573297635315
 10
185.6318579824738
 20
220.2573297635315
 10
185.7055830744942
 20
220.2566407439799
 10
185.8416644359337
 20
220.3310548555519
 10
185.907121293335
 20
220.1937677098971
 72
     1
 10
185.907121293335
 20
220.1937677098971
 11
185.907121293335
 21
220.1937677098971
 97
        0
 75
     0
 76
     1
 98
        0
  0
HATCH
  5
2FDE
330
1F
100
AcDbEntity
  8
图层 1
 62
     7
100
AcDbHatch
 10
0.0
 20
0.0
 30
0.0
210
0.0
220
0.0
230
1.0
  2
SOLID
 70
     1
 71
     0
 91
        1
 92
        1
 93
        2
 72
     4
 94
        3
 73
     0
 74
     0
 95
       50
 96
       46
 40
0.0
 40
0.0
 40
0.0
 40
0.0
 40
0.3527780104152769
 40
0.3527780104152769
 40
0.3527780104152769
 40
0.7055560208305538
 40
0.7055560208305538
 40
0.7055560208305538
 40
1.058334031245828
 40
1.058334031245828
 40
1.058334031245828
 40
1.411112041661104
 40
1.411112041661104
 40
1.411112041661104
 40
1.763890052076384
 40
1.763890052076384
 40
1.763890052076384
 40
2.116668062491659
 40
2.116668062491659
 40
2.116668062491659
 40
2.469446072906936
 40
2.469446072906936
 40
2.469446072906936
 40
2.822224083322215
 40
2.822224083322215
 40
2.822224083322215
 40
3.175002093737492
 40
3.175002093737492
 40
3.175002093737492
 40
3.527780104152768
 40
3.527780104152768
 40
3.527780104152768
 40
3.880558114568044
 40
3.880558114568044
 40
3.880558114568044
 40
4.233336124983321
 40
4.233336124983321
 40
4.233336124983321
 40
4.586114135398599
 40
4.586114135398599
 40
4.586114135398599
 40
4.938892145813873
 40
4.938892145813873
 40
4.938892145813873
 40
5.291670156229153
 40
5.291670156229153
 40
5.291670156229153
 40
5.291670156229153
 10
180.9117295442905
 20
208.9327766684477
 10
180.9117295442905
 20
208.9327766684477
 10
180.9117295442905
 20
208.7637946234197
 10
180.9117295442905
 20
208.7637946234197
 10
181.2273004989198
 20
208.6749111012643
 10
181.3833634273555
 20
208.6776671794706
 10
181.6948002646751
 20
208.5097186637701
 10
181.9542161258496
 20
208.4294478860095
 10
182.1388733656765
 20
208.2134402565853
 10
182.3297317814676
 20
208.02292635057
 10
182.3297317814676
 20
208.02292635057
 10
182.435496282637
 20
208.065301052993
 10
182.435496282637
 20
208.065301052993
 10
182.288390608372
 20
208.2733849575739
 10
182.3752070718726
 20
208.2134402565853
 10
182.1605774815516
 20
208.3824223016133
 10
182.1605774815516
 20
208.3824223016133
 10
182.1182027791287
 20
208.4247970040363
 10
182.1182027791287
 20
208.4247970040363
 10
182.1182027791287
 20
208.4247970040363
 10
182.0968431730294
 20
208.467516216235
 10
182.0968431730294
 20
208.467516216235
 10
182.0968431730294
 20
208.467516216235
 10
182.0544684706064
 20
208.4883590576707
 10
182.0544684706064
 20
208.4883590576707
 10
182.0544684706064
 20
208.4883590576707
 10
181.9910786718599
 20
208.5305615052057
 10
181.9910786718599
 20
208.5305615052057
 10
181.9910786718599
 20
208.5305615052057
 10
181.948703969437
 20
208.552093366193
 10
181.948703969437
 20
208.552093366193
 10
181.948703969437
 20
208.552093366193
 10
181.9063292670141
 20
208.5729362076286
 10
181.9063292670141
 20
208.5729362076286
 10
181.9063292670141
 20
208.5729362076286
 10
181.8639545645911
 20
208.6156554198274
 10
181.8639545645911
 20
208.6156554198274
 10
181.8639545645911
 20
208.6156554198274
 10
181.821924371944
 20
208.6368427710388
 10
181.821924371944
 20
208.6368427710388
 10
181.6637943848536
 20
208.6742220817127
 10
181.5452830219797
 20
208.8092699138248
 10
181.3771622513911
 20
208.8061693258427
 10
181.2803550043924
 20
208.8573290275484
 10
181.0126709085988
 20
208.8971199066528
 10
180.9117295442905
 20
208.9327766684477
 72
     1
 10
180.9117295442905
 20
208.9327766684477
 11
180.9117295442905
 21
208.9327766684477
 97
        0
 75
     0
 76
     1
 98
        0
  0
HATCH
  5
35C8
330
1F
100
AcDbEntity
  8
图层 1
 62
     7
100
AcDbHatch
 10
0.0
 20
0.0
 30
0.0
210
0.0
220
0.0
230
1.0
  2
SOLID
 70
     1
 71
     0
 91
        1
 92
        1
 93
        2
 72
     4
 94
        3
 73
     0
 74
     0
 95
       38
 96
       34
 40
0.0
 40
0.0
 40
0.0
 40
0.0
 40
0.3527780104152769
 40
0.3527780104152769
 40
0.3527780104152769
 40
0.7055560208305538
 40
0.7055560208305538
 40
0.7055560208305538
 40
1.058334031245828
 40
1.058334031245828
 40
1.058334031245828
 40
1.411112041661104
 40
1.411112041661104
 40
1.411112041661104
 40
1.763890052076384
 40
1.763890052076384
 40
1.763890052076384
 40
2.116668062491659
 40
2.116668062491659
 40
2.116668062491659
 40
2.469446072906936
 40
2.469446072906936
 40
2.469446072906936
 40
2.822224083322215
 40
2.822224083322215
 40
2.822224083322215
 40
3.175002093737492
 40
3.175002093737492
 40
3.175002093737492
 40
3.527780104152768
 40
3.527780104152768
 40
3.527780104152768
 40
3.880558114568044
 40
3.880558114568044
 40
3.880558114568044
 40
3.880558114568044
 10
189.145513185819
 20
166.8326485368285
 10
189.207869455238
 20
166.740492171803
 10
189.1317327947871
 20
166.6833035490209
 10
189.103138483396
 20
166.6209472796017
 10
189.103138483396
 20
166.6209472796017
 10
189.0607637809731
 20
166.5997599283903
 10
189.0607637809731
 20
166.5997599283903
 10
189.0607637809731
 20
166.5997599283903
 10
188.9973739822266
 20
166.5785725771788
 10
188.9973739822266
 20
166.5785725771788
 10
188.9973739822266
 20
166.5785725771788
 10
188.9549992798037
 20
166.5997599283903
 10
188.9549992798037
 20
166.5997599283903
 10
188.9549992798037
 20
166.5997599283903
 10
188.8916094810572
 20
166.5997599283903
 10
188.8916094810572
 20
166.5997599283903
 10
188.8916094810572
 20
166.5997599283903
 10
188.8492347786343
 20
166.6209472796017
 10
188.8492347786343
 20
166.6209472796017
 10
188.8492347786343
 20
166.6209472796017
 10
188.8278751725349
 20
166.6633219820247
 10
188.8278751725349
 20
166.6633219820247
 10
188.8278751725349
 20
166.6633219820247
 10
188.8068600762114
 20
166.6845093332361
 10
188.8068600762114
 20
166.6845093332361
 10
188.8068600762114
 20
166.6845093332361
 10
188.8068600762114
 20
166.8326485368285
 10
188.8068600762114
 20
166.8326485368285
 10
188.8068600762114
 20
166.8326485368285
 10
188.8702498749578
 20
166.896038335575
 10
188.8702498749578
 20
166.896038335575
 10
189.0228677056355
 20
166.8819134347673
 10
189.0686875058164
 20
166.9411691162043
 10
189.145513185819
 20
166.8326485368285
 72
     1
 10
189.145513185819
 20
166.8326485368285
 11
189.145513185819
 21
166.8326485368285
 97
        0
 75
     0
 76
     1
 98
        0
  0
HATCH
  5
35D8
330
1F
100
AcDbEntity
  8
图层 1
 62
     7
100
AcDbHatch
 10
0.0
 20
0.0
 30
0.0
210
0.0
220
0.0
230
1.0
  2
SOLID
 70
     1
 71
     0
 91
        1
 92
        1
 93
        2
 72
     4
 94
        3
 73
     0
 74
     0
 95
       68
 96
       64
 40
0.0
 40
0.0
 40
0.0
 40
0.0
 40
0.3527780104152769
 40
0.3527780104152769
 40
0.3527780104152769
 40
0.7055560208305538
 40
0.7055560208305538
 40
0.7055560208305538
 40
1.058334031245828
 40
1.058334031245828
 40
1.058334031245828
 40
1.411112041661104
 40
1.411112041661104
 40
1.411112041661104
 40
1.763890052076384
 40
1.763890052076384
 40
1.763890052076384
 40
2.116668062491659
 40
2.116668062491659
 40
2.116668062491659
 40
2.469446072906936
 40
2.469446072906936
 40
2.469446072906936
 40
2.822224083322215
 40
2.822224083322215
 40
2.822224083322215
 40
3.175002093737492
 40
3.175002093737492
 40
3.175002093737492
 40
3.527780104152768
 40
3.527780104152768
 40
3.527780104152768
 40
3.880558114568044
 40
3.880558114568044
 40
3.880558114568044
 40
4.233336124983321
 40
4.233336124983321
 40
4.233336124983321
 40
4.586114135398599
 40
4.586114135398599
 40
4.586114135398599
 40
4.938892145813873
 40
4.938892145813873
 40
4.938892145813873
 40
5.291670156229153
 40
5.291670156229153
 40
5.291670156229153
 40
5.64444816664443
 40
5.64444816664443
 40
5.64444816664443
 40
5.997226177059705
 40
5.997226177059705
 40
5.997226177059705
 40
6.350004187474984
 40
6.350004187474984
 40
6.350004187474984
 40
6.702782197890257
 40
6.702782197890257
 40
6.702782197890257
 40
7.055560208305537
 40
7.055560208305537
 40
7.055560208305537
 40
7.408338218720808
 40
7.408338218720808
 40
7.408338218720808
 40
7.408338218720808
 10
174.7732543591544
 20
135.4846705078077
 10
174.7732543591544
 20
135.4846705078077
 10
174.7732543591544
 20
135.3789060066383
 10
174.7732543591544
 20
135.3789060066383
 10
174.7732543591544
 20
135.3789060066383
 10
174.8156290615773
 20
135.3789060066383
 10
174.8156290615773
 20
135.3789060066383
 10
174.8156290615773
 20
135.3789060066383
 10
174.8580037640002
 20
135.3578909103147
 10
174.8580037640002
 20
135.3578909103147
 10
174.8580037640002
 20
135.3578909103147
 10
174.9213935627468
 20
135.3578909103147
 10
174.9213935627468
 20
135.3578909103147
 10
174.9213935627468
 20
135.3578909103147
 10
174.9637682651697
 20
135.3365313042154
 10
174.9637682651697
 20
135.3365313042154
 10
174.9637682651697
 20
135.3365313042154
 10
174.9847833614933
 20
135.3365313042154
 10
174.9847833614933
 20
135.3365313042154
 10
174.9847833614933
 20
135.3365313042154
 10
175.0271580639162
 20
135.3155162078918
 10
175.0271580639162
 20
135.3155162078918
 10
175.0271580639162
 20
135.3155162078918
 10
175.0485176700155
 20
135.2941566017924
 10
175.0485176700155
 20
135.2941566017924
 10
175.0485176700155
 20
135.2941566017924
 10
175.0695327663391
 20
135.2941566017924
 10
175.0695327663391
 20
135.2941566017924
 10
175.0695327663391
 20
135.2941566017924
 10
175.0908923724385
 20
135.2731415054689
 10
175.0908923724385
 20
135.2731415054689
 10
175.0908923724385
 20
135.2731415054689
 10
175.1332670748614
 20
135.2731415054689
 10
175.1332670748614
 20
135.2731415054689
 10
175.1332670748614
 20
135.2731415054689
 10
175.154282171185
 20
135.2517818993695
 10
175.154282171185
 20
135.2517818993695
 10
175.154282171185
 20
135.2517818993695
 10
175.154282171185
 20
135.3578909103147
 10
175.154282171185
 20
135.3578909103147
 10
175.154282171185
 20
135.3578909103147
 10
175.1332670748614
 20
135.3789060066383
 10
175.1332670748614
 20
135.3789060066383
 10
175.1332670748614
 20
135.3789060066383
 10
175.0908923724385
 20
135.3789060066383
 10
175.0908923724385
 20
135.3789060066383
 10
175.0908923724385
 20
135.3789060066383
 10
175.0908923724385
 20
135.3999211029619
 10
175.0908923724385
 20
135.3999211029619
 10
175.0908923724385
 20
135.3999211029619
 10
175.0695327663391
 20
135.3999211029619
 10
175.0695327663391
 20
135.3999211029619
 10
175.0695327663391
 20
135.3999211029619
 10
175.0271580639162
 20
135.4212807090612
 10
175.0271580639162
 20
135.4212807090612
 10
175.0271580639162
 20
135.4212807090612
 10
175.0061429675926
 20
135.4212807090612
 10
175.0061429675926
 20
135.4212807090612
 10
175.0061429675926
 20
135.4212807090612
 10
174.9637682651697
 20
135.4422958053848
 10
174.9637682651697
 20
135.4422958053848
 10
174.8996894468716
 20
135.4498750204523
 10
174.8394002361073
 20
135.4860485469109
 10
174.7732543591544
 20
135.4846705078077
 72
     1
 10
174.7732543591544
 20
135.4846705078077
 11
174.7732543591544
 21
135.4846705078077
 97
        0
 75
     0
 76
     1
 98
        0
  0
HATCH
  5
3807
330
1F
100
AcDbEntity
  8
图层 1
 62
     7
100
AcDbHatch
 10
0.0
 20
0.0
 30
0.0
210
0.0
220
0.0
230
1.0
  2
SOLID
 70
     1
 71
     0
 91
        1
 92
        1
 93
        2
 72
     4
 94
        3
 73
     0
 74
     0
 95
       29
 96
       25
 40
0.0
 40
0.0
 40
0.0
 40
0.0
 40
0.3527780104152769
 40
0.3527780104152769
 40
0.3527780104152769
 40
0.7055560208305538
 40
0.7055560208305538
 40
0.7055560208305538
 40
1.058334031245828
 40
1.058334031245828
 40
1.058334031245828
 40
1.411112041661104
 40
1.411112041661104
 40
1.411112041661104
 40
1.763890052076384
 40
1.763890052076384
 40
1.763890052076384
 40
2.116668062491659
 40
2.116668062491659
 40
2.116668062491659
 40
2.469446072906936
 40
2.469446072906936
 40
2.469446072906936
 40
2.822224083322215
 40
2.822224083322215
 40
2.822224083322215
 40
2.822224083322215
 10
175.4929352807925
 20
164.0174869039101
 10
175.4929352807925
 20
164.0174869039101
 10
175.5139503771161
 20
163.9751122014871
 10
175.5139503771161
 20
163.9751122014871
 10
175.5139503771161
 20
163.9751122014871
 10
175.5139503771161
 20
163.9327374990642
 10
175.5139503771161
 20
163.9327374990642
 10
175.5139503771161
 20
163.9327374990642
 10
175.4929352807925
 20
163.8903627966413
 10
175.4929352807925
 20
163.8903627966413
 10
175.4929352807925
 20
163.8903627966413
 10
175.471920184469
 20
163.8691754454298
 10
175.471920184469
 20
163.8691754454298
 10
175.471920184469
 20
163.8691754454298
 10
175.4505605783696
 20
163.8269729978948
 10
175.4505605783696
 20
163.8269729978948
 10
175.3571984291289
 20
163.7715069239916
 10
175.272449024283
 20
163.8195660377152
 10
175.1966568736079
 20
163.8691754454298
 10
175.208370205985
 20
163.9930267098286
 10
175.1563492298397
 20
164.0216210212197
 10
175.2600466723544
 20
164.0596893514451
 10
175.3330827448232
 20
164.1094710140476
 10
175.4357466580104
 20
164.0753645462439
 10
175.4929352807925
 20
164.0174869039101
 72
     1
 10
175.4929352807925
 20
164.0174869039101
 11
175.4929352807925
 21
164.0174869039101
 97
        0
 75
     0
 76
     1
 98
        0
  0
HATCH
  5
3895
330
1F
100
AcDbEntity
  8
图层 1
 62
     7
100
AcDbHatch
 10
0.0
 20
0.0
 30
0.0
210
0.0
220
0.0
230
1.0
  2
SOLID
 70
     1
 71
     0
 91
        1
 92
        1
 93
        2
 72
     4
 94
        3
 73
     0
 74
     0
 95
       11
 96
        7
 40
0.0
 40
0.0
 40
0.0
 40
0.0
 40
0.3527780104152769
 40
0.3527780104152769
 40
0.3527780104152769
 40
0.7055560208305538
 40
0.7055560208305538
 40
0.7055560208305538
 40
0.7055560208305538
 10
174.9213935627468
 20
174.5369206529582
 10
174.9213935627468
 20
174.5369206529582
 10
174.9213935627468
 20
174.3043765542958
 10
174.9213935627468
 20
174.3043765542958
 10
174.9213935627468
 20
174.3043765542958
 10
174.9213935627468
 20
174.5369206529582
 10
174.9213935627468
 20
174.5369206529582
 72
     1
 10
174.9213935627468
 20
174.5369206529582
 11
174.9213935627468
 21
174.5369206529582
 97
        0
 75
     0
 76
     1
 98
        0
  0
HATCH
  5
3943
330
1F
100
AcDbEntity
  8
图层 1
 62
     7
100
AcDbHatch
 10
0.0
 20
0.0
 30
0.0
210
0.0
220
0.0
230
1.0
  2
SOLID
 70
     1
 71
     0
 91
        1
 92
        1
 93
        2
 72
     4
 94
        3
 73
     0
 74
     0
 95
      131
 96
      127
 40
0.0
 40
0.0
 40
0.0
 40
0.0
 40
0.3527780104152769
 40
0.3527780104152769
 40
0.3527780104152769
 40
0.7055560208305538
 40
0.7055560208305538
 40
0.7055560208305538
 40
1.058334031245828
 40
1.058334031245828
 40
1.058334031245828
 40
1.411112041661104
 40
1.411112041661104
 40
1.411112041661104
 40
1.763890052076384
 40
1.763890052076384
 40
1.763890052076384
 40
2.116668062491659
 40
2.116668062491659
 40
2.116668062491659
 40
2.469446072906936
 40
2.469446072906936
 40
2.469446072906936
 40
2.822224083322215
 40
2.822224083322215
 40
2.822224083322215
 40
3.175002093737492
 40
3.175002093737492
 40
3.175002093737492
 40
3.527780104152768
 40
3.527780104152768
 40
3.527780104152768
 40
3.880558114568044
 40
3.880558114568044
 40
3.880558114568044
 40
4.233336124983321
 40
4.233336124983321
 40
4.233336124983321
 40
4.586114135398599
 40
4.586114135398599
 40
4.586114135398599
 40
4.938892145813873
 40
4.938892145813873
 40
4.938892145813873
 40
5.291670156229153
 40
5.291670156229153
 40
5.291670156229153
 40
5.64444816664443
 40
5.64444816664443
 40
5.64444816664443
 40
5.997226177059705
 40
5.997226177059705
 40
5.997226177059705
 40
6.350004187474984
 40
6.350004187474984
 40
6.350004187474984
 40
6.702782197890257
 40
6.702782197890257
 40
6.702782197890257
 40
7.055560208305537
 40
7.055560208305537
 40
7.055560208305537
 40
7.408338218720808
 40
7.408338218720808
 40
7.408338218720808
 40
7.76111622913609
 40
7.76111622913609
 40
7.76111622913609
 40
8.113894239551369
 40
8.113894239551369
 40
8.113894239551369
 40
8.466672249966642
 40
8.466672249966642
 40
8.466672249966642
 40
8.819450260381922
 40
8.819450260381922
 40
8.819450260381922
 40
9.172228270797198
 40
9.172228270797198
 40
9.172228270797198
 40
9.525006281212476
 40
9.525006281212476
 40
9.525006281212476
 40
9.877784291627751
 40
9.877784291627751
 40
9.877784291627751
 40
10.23056230204303
 40
10.23056230204303
 40
10.23056230204303
 40
10.58334031245831
 40
10.58334031245831
 40
10.58334031245831
 40
10.93611832287358
 40
10.93611832287358
 40
10.93611832287358
 40
11.28889633328886
 40
11.28889633328886
 40
11.28889633328886
 40
11.64167434370414
 40
11.64167434370414
 40
11.64167434370414
 40
11.99445235411941
 40
11.99445235411941
 40
11.99445235411941
 40
12.34723036453469
 40
12.34723036453469
 40
12.34723036453469
 40
12.70000837494997
 40
12.70000837494997
 40
12.70000837494997
 40
13.05278638536524
 40
13.05278638536524
 40
13.05278638536524
 40
13.40556439578052
 40
13.40556439578052
 40
13.40556439578052
 40
13.7583424061958
 40
13.7583424061958
 40
13.7583424061958
 40
14.11112041661107
 40
14.11112041661107
 40
14.11112041661107
 40
14.46389842702635
 40
14.46389842702635
 40
14.46389842702635
 40
14.81667643744163
 40
14.81667643744163
 40
14.81667643744163
 40
14.81667643744163
 10
173.3972823146245
 20
126.8274843518258
 10
173.3972823146245
 20
126.8274843518258
 10
173.3972823146245
 20
126.7217198506564
 10
173.3972823146245
 20
126.7217198506564
 10
173.3972823146245
 20
126.7217198506564
 10
173.4186419207238
 20
126.7217198506564
 10
173.4186419207238
 20
126.7217198506564
 10
173.4186419207238
 20
126.7217198506564
 10
173.4820317194703
 20
126.7007047543328
 10
173.4820317194703
 20
126.7007047543328
 10
173.4820317194703
 20
126.7007047543328
 10
173.5244064218933
 20
126.6793451482334
 10
173.5244064218933
 20
126.6793451482334
 10
173.5244064218933
 20
126.6793451482334
 10
173.5877962206398
 20
126.6793451482334
 10
173.5877962206398
 20
126.6793451482334
 10
173.5877962206398
 20
126.6793451482334
 10
173.6301709230627
 20
126.6583300519099
 10
173.6301709230627
 20
126.6583300519099
 10
173.7955356154449
 20
126.5911506456296
 10
173.759706598762
 20
126.6380039751379
 10
173.9478089363468
 20
126.5525655507404
 10
173.9478089363468
 20
126.5525655507404
 10
173.9688240326703
 20
126.4464565397952
 10
173.9688240326703
 20
126.4464565397952
 10
173.9688240326703
 20
126.4464565397952
 10
174.0325583411926
 20
126.5101908483175
 10
174.0325583411926
 20
126.5101908483175
 10
174.0325583411926
 20
126.5101908483175
 10
174.0749330436156
 20
126.5101908483175
 10
174.0749330436156
 20
126.5101908483175
 10
174.0749330436156
 20
126.5101908483175
 10
174.1593379386856
 20
126.4678161458946
 10
174.1593379386856
 20
126.4678161458946
 10
174.1593379386856
 20
126.4678161458946
 10
174.180697544785
 20
126.4464565397952
 10
174.180697544785
 20
126.4464565397952
 10
174.2464989119621
 20
126.3982251711837
 10
174.3298702777047
 20
126.3716979184474
 10
174.3922265471239
 20
126.3196769423022
 10
174.608234176548
 20
126.2059887162895
 10
174.7749769080334
 20
126.0278771622029
 10
174.9637682651697
 20
125.8749148217494
 10
174.9637682651697
 20
125.8749148217494
 10
175.0061429675926
 20
125.9172895241723
 10
175.0061429675926
 20
125.9172895241723
 10
174.961356696739
 20
125.9631093243532
 10
174.782211613325
 20
126.1246844092016
 10
174.7308796567315
 20
126.1501781326105
 10
174.7308796567315
 20
126.1501781326105
 10
174.6885049543085
 20
126.1925528350335
 10
174.6885049543085
 20
126.1925528350335
 10
174.6885049543085
 20
126.1925528350335
 10
174.667489857985
 20
126.2349275374564
 10
174.667489857985
 20
126.2349275374564
 10
174.667489857985
 20
126.2349275374564
 10
174.625115155562
 20
126.2559426337799
 10
174.625115155562
 20
126.2559426337799
 10
174.625115155562
 20
126.2559426337799
 10
174.5827404531391
 20
126.2983173362029
 10
174.5827404531391
 20
126.2983173362029
 10
174.5827404531391
 20
126.2983173362029
 10
174.5403657507162
 20
126.3196769423022
 10
174.5403657507162
 20
126.3196769423022
 10
174.5403657507162
 20
126.3196769423022
 10
174.4979910482932
 20
126.3620516447252
 10
174.4979910482932
 20
126.3620516447252
 10
174.4735308542117
 20
126.3875453681341
 10
174.3247026310678
 20
126.4695386947736
 10
174.2864620459544
 20
126.4888312422181
 10
174.2864620459544
 20
126.4888312422181
 10
174.2654469496308
 20
126.5101908483175
 10
174.2654469496308
 20
126.5101908483175
 10
174.2654469496308
 20
126.5101908483175
 10
174.2230722472079
 20
126.5312059446411
 10
174.2230722472079
 20
126.5312059446411
 10
174.2230722472079
 20
126.5312059446411
 10
174.2017126411085
 20
126.5525655507404
 10
174.2017126411085
 20
126.5525655507404
 10
174.2017126411085
 20
126.5525655507404
 10
174.1383228423621
 20
126.573580647064
 10
174.1383228423621
 20
126.573580647064
 10
174.1383228423621
 20
126.573580647064
 10
174.1169632362627
 20
126.5945957433876
 10
174.1169632362627
 20
126.5945957433876
 10
174.1169632362627
 20
126.5945957433876
 10
174.0959481399391
 20
126.7007047543328
 10
174.0959481399391
 20
126.7007047543328
 10
174.0959481399391
 20
126.7007047543328
 10
174.0325583411926
 20
126.6369704458105
 10
174.0325583411926
 20
126.6369704458105
 10
174.0325583411926
 20
126.6369704458105
 10
173.9901836387697
 20
126.6369704458105
 10
173.9901836387697
 20
126.6369704458105
 10
173.9901836387697
 20
126.6369704458105
 10
173.9054342339239
 20
126.6793451482334
 10
173.9054342339239
 20
126.6793451482334
 10
173.9054342339239
 20
126.6793451482334
 10
173.8420444351773
 20
126.7007047543328
 10
173.8420444351773
 20
126.7007047543328
 10
173.8420444351773
 20
126.7007047543328
 10
173.7996697327544
 20
126.7217198506564
 10
173.7996697327544
 20
126.7217198506564
 10
173.7996697327544
 20
126.7217198506564
 10
173.7572950303315
 20
126.7217198506564
 10
173.7572950303315
 20
126.7217198506564
 10
173.7572950303315
 20
126.7217198506564
 10
173.6725456254856
 20
126.7640945530793
 10
173.6725456254856
 20
126.7640945530793
 10
173.6725456254856
 20
126.7640945530793
 10
173.6515305291621
 20
126.7640945530793
 10
173.6515305291621
 20
126.7640945530793
 10
173.6515305291621
 20
126.7640945530793
 10
173.5667811243162
 20
126.7851096494029
 10
173.5667811243162
 20
126.7851096494029
 10
173.5667811243162
 20
126.7851096494029
 10
173.5033913255697
 20
126.8064692555022
 10
173.5033913255697
 20
126.8064692555022
 10
173.5033913255697
 20
126.8064692555022
 10
173.4396570170474
 20
126.8064692555022
 10
173.4396570170474
 20
126.8064692555022
 10
173.4396570170474
 20
126.8064692555022
 10
173.4186419207238
 20
126.8274843518258
 10
173.4186419207238
 20
126.8274843518258
 10
173.4186419207238
 20
126.8274843518258
 10
173.3972823146245
 20
126.8274843518258
 10
173.3972823146245
 20
126.8274843518258
 72
     1
 10
173.3972823146245
 20
126.8274843518258
 11
173.3972823146245
 21
126.8274843518258
 97
        0
 75
     0
 76
     1
 98
        0
  0
HATCH
  5
4842
330
1F
100
AcDbEntity
  8
图层 1
 62
     7
100
AcDbHatch
 10
0.0
 20
0.0
 30
0.0
210
0.0
220
0.0
230
1.0
  2
SOLID
 70
     1
 71
     0
 91
        1
 92
        1
 93
        2
 72
     4
 94
        3
 73
     0
 74
     0
 95
       47
 96
       43
 40
0.0
 40
0.0
 40
0.0
 40
0.0
 40
0.3527780104152769
 40
0.3527780104152769
 40
0.3527780104152769
 40
0.7055560208305538
 40
0.7055560208305538
 40
0.7055560208305538
 40
1.058334031245828
 40
1.058334031245828
 40
1.058334031245828
 40
1.411112041661104
 40
1.411112041661104
 40
1.411112041661104
 40
1.763890052076384
 40
1.763890052076384
 40
1.763890052076384
 40
2.116668062491659
 40
2.116668062491659
 40
2.116668062491659
 40
2.469446072906936
 40
2.469446072906936
 40
2.469446072906936
 40
2.822224083322215
 40
2.822224083322215
 40
2.822224083322215
 40
3.175002093737492
 40
3.175002093737492
 40
3.175002093737492
 40
3.527780104152768
 40
3.527780104152768
 40
3.527780104152768
 40
3.880558114568044
 40
3.880558114568044
 40
3.880558114568044
 40
4.233336124983321
 40
4.233336124983321
 40
4.233336124983321
 40
4.586114135398599
 40
4.586114135398599
 40
4.586114135398599
 40
4.938892145813873
 40
4.938892145813873
 40
4.938892145813873
 40
4.938892145813873
 10
180.1920486226523
 20
255.6479577566324
 10
180.1920486226523
 20
255.6479577566324
 10
180.2130637189759
 20
255.6055830542095
 10
180.2130637189759
 20
255.6055830542095
 10
180.2130637189759
 20
255.6055830542095
 10
180.2130637189759
 20
255.5210059042515
 10
180.2130637189759
 20
255.5210059042515
 10
180.2130637189759
 20
255.5210059042515
 10
180.1920486226523
 20
255.4786312018286
 10
180.1920486226523
 20
255.4786312018286
 10
180.1920486226523
 20
255.4786312018286
 10
180.1496739202294
 20
255.4359119896299
 10
180.1496739202294
 20
255.4359119896299
 10
180.1496739202294
 20
255.4359119896299
 10
180.1283143141301
 20
255.4147246384184
 10
180.1283143141301
 20
255.4147246384184
 10
180.1283143141301
 20
255.4147246384184
 10
180.0225498129606
 20
255.4147246384184
 10
180.0225498129606
 20
255.4147246384184
 10
180.0225498129606
 20
255.4147246384184
 10
179.9591600142141
 20
255.4359119896299
 10
179.9591600142141
 20
255.4359119896299
 10
179.9591600142141
 20
255.4359119896299
 10
179.9167853117912
 20
255.4570993408414
 10
179.9167853117912
 20
255.4570993408414
 10
179.9167853117912
 20
255.4570993408414
 10
179.8957702154676
 20
255.4786312018286
 10
179.8957702154676
 20
255.4786312018286
 10
179.8957702154676
 20
255.4786312018286
 10
179.8744106093683
 20
255.4994740432643
 10
179.8744106093683
 20
255.4994740432643
 10
179.8744106093683
 20
255.4994740432643
 10
179.8744106093683
 20
255.6479577566324
 10
179.8744106093683
 20
255.6479577566324
 10
179.9608825630931
 20
255.7323626517025
 10
180.045631967939
 20
255.7085914771726
 10
180.1496739202294
 20
255.7115198102668
 10
180.1496739202294
 20
255.7115198102668
 10
180.170689016553
 20
255.6688005980681
 10
180.170689016553
 20
255.6688005980681
 10
180.170689016553
 20
255.6688005980681
 10
180.1920486226523
 20
255.6479577566324
 10
180.1920486226523
 20
255.6479577566324
 72
     1
 10
180.1920486226523
 20
255.6479577566324
 11
180.1920486226523
 21
255.6479577566324
 97
        0
 75
     0
 76
     1
 98
        0
  0
MTEXT
  5
65A0
330
1F
100
AcDbEntity
  8
图框
 62
     3
100
AcDbMText
 10
652.3064215351515
 20
221.9674786344378
 30
0.0
 40
2.985513575034151
 41
33.61239199242137
 71
     5
 72
     5
  1
HMP-002
  7
Romans字体
 73
     1
 44
1.0
1001
ACAD
1000
MTEXTBEGIN
1070
    73
1070
     1
1070
    44
1040
1.0
1070
    74
1070
     0
1000
MTEXTEND
1000
ACAD_MTEXT_DEFINED_HEIGHT_BEGIN
1070
    46
1040
8.686745505685866
1000
ACAD_MTEXT_DEFINED_HEIGHT_END
  0
MTEXT
  5
65A1
330
1F
100
AcDbEntity
  8
图框
 62
     3
100
AcDbMText
 10
652.3064215351515
 20
213.1880281076118
 30
0.0
 40
2.985513575034151
 41
33.61239199242137
 71
     5
 72
     5
  1
1290020000001
  7
Romans字体
 73
     1
 44
1.0
1001
ACAD
1000
MTEXTBEGIN
1070
    73
1070
     1
1070
    44
1040
1.0
1070
    74
1070
     0
1000
MTEXTEND
1000
ACAD_MTEXT_DEFINED_HEIGHT_BEGIN
1070
    46
1040
8.872155547966105
1000
ACAD_MTEXT_DEFINED_HEIGHT_END
  0
MTEXT
  5
65A3
330
1F
100
AcDbEntity
  8
图框
 62
     3
100
AcDbMText
 10
584.2527566045665
 20
199.8803930288668
 30
0.0
 40
2.985513575034151
 41
10.82934843439047
 71
     5
 72
     5
  1
1:1 
  7
Romans字体
 73
     1
 44
1.0
1001
ACAD
1000
MTEXTBEGIN
1070
    73
1070
     1
1070
    44
1040
1.0
1070
    74
1070
     0
1000
MTEXTEND
1000
ACAD_MTEXT_DEFINED_HEIGHT_BEGIN
1070
    46
1040
7.886094601210496
1000
ACAD_MTEXT_DEFINED_HEIGHT_END
  0
MTEXT
  5
65A4
330
1F
100
AcDbEntity
  8
图框
 62
     3
100
AcDbMText
 10
595.0821050389572
 20
199.8803930288669
 30
0.0
 40
2.985513575034151
 41
10.82934843439126
 71
     5
 72
     5
  1
V1.0 
  7
Romans字体
 73
     1
 44
1.0
1001
ACAD
1000
MTEXTBEGIN
1070
    73
1070
     1
1070
    44
1040
1.0
1070
    74
1070
     0
1000
MTEXTEND
1000
ACAD_MTEXT_DEFINED_HEIGHT_BEGIN
1070
    46
1040
7.886094601210459
1000
ACAD_MTEXT_DEFINED_HEIGHT_END
  0
MTEXT
  5
65B2
330
1F
100
AcDbEntity
  8
图框
 62
     3
100
AcDbMText
 10
605.9114534733492
 20
199.8803930288669
 30
0.0
 40
3.0
 41
10.82934843439217
 71
     5
 72
     5
  1
6.8g
  7
Romans字体
 73
     1
 44
1.0
1001
ACAD
1000
MTEXTBEGIN
1070
    73
1070
     1
1070
    44
1040
1.0
1070
    74
1070
     0
1000
MTEXTEND
1000
ACAD_MTEXT_DEFINED_HEIGHT_BEGIN
1070
    46
1040
7.886094601210402
1000
ACAD_MTEXT_DEFINED_HEIGHT_END
  0
MTEXT
  5
7228
102
{ACAD_XDICTIONARY
360
1896F
102
}
330
1F
100
AcDbEntity
  8
打标文字
 62
     3
100
AcDbMText
 10
603.5477355080578
 20
350.8582385733836
 30
0.0
 40
1.912985285738284
 41
67.09538717665188
 71
     1
 72
     5
  3
\A1;{\f仿宋_GB2312|b0|i0|c134|p49;技术参数}:\P{\f仿宋_GB2312|b0|i0|c134|p49;插芯：}\P- {\f仿宋_GB2312|b0|i0|c134|p49;插针数}: 2\P- {\f仿宋_GB2312|b0|i0|c134|p49;材料}: {\f仿宋_GB2312|b0|i0|c134|p49;聚碳酸酯}\P- {\f仿宋_GB2312|b0|i0|c134|p49;颜色}: RAL 5012({\f仿宋_GB2312|b0|i0|c134
  3
|p49;蓝色})\P- {\f仿宋_GB2312|b0|i0|c134|p49;温度范围}: -40{\f仿宋_GB2312|b0|i0|c134|p49;℃} - +80{\f仿宋_GB2312|b0|i0|c134|p49;℃}\P- {\f仿宋_GB2312|b0|i0|c134|p49;依据}UL 94{\f仿宋_GB2312|b0|i0|c134|p49;的阻燃等级}: V0\P- {\f仿宋_GB2312|b0|i0|c134|p49;可插拔次数}: {\f仿宋_GB2312|b0
  3
|i0|c134|p49;≥}500\P{\f仿宋_GB2312|b0|i0|c134|p49;插针：}\P- {\f仿宋_GB2312|b0|i0|c134|p49;材料}: {\f仿宋_GB2312|b0|i0|c134|p49;聚甲醛}\P- {\f仿宋_GB2312|b0|i0|c134|p49;颜色}: {\f仿宋_GB2312|b0|i0|c134|p49;黑色}\P- {\f仿宋_GB2312|b0|i0|c134|p49;软管连接}: {\f仿宋_GB2312|b0|i0|c13
  3
4|p49;内径}-delrin acetal\P- {\f仿宋_GB2312|b0|i0|c134|p49;工作压力}: {\f仿宋_GB2312|b0|i0|c134|p49;最大}8 bar / 116 psi\P- {\f仿宋_GB2312|b0|i0|c134|p49;材料：}\P   {\f仿宋_GB2312|b0|i0|c134|p49;·} {\f仿宋_GB2312|b0|i0|c134|p49;密封\fSimSun|b0|i0|c134|p2;圏\f仿宋_GB2312|b0|i
  3
0|c134|p49;：} {\f仿宋_GB2312|b0|i0|c134|p49;氟橡胶}\P   {\f仿宋_GB2312|b0|i0|c134|p49;·} {\f仿宋_GB2312|b0|i0|c134|p49;闭锁阀：} {\f仿宋_GB2312|b0|i0|c134|p49;聚丙烯}\P\PTechnical specification:\PInsters:\P- No. of contact: 2\P- Material: polycarbonate\P- Colour: RAL 
  3
5012(blue)\P- Temperature range: -40{\f仿宋_GB2312|b0|i0|c134|p49;℃} - +80{\f仿宋_GB2312|b0|i0|c134|p49;℃}\P- Flammability acc.to UL 94: V0\P- Mating cycles: {\f仿宋_GB2312|b0|i0|c134|p49;≥}500\PContacts:\P- Material: delrin acetal\P- Colour: black\P- Tube
  1
 termination: internal diameter(ID)-delrin acetal\P- Working pressure: up to 8 bar / 116 psi\P- Material: \P   {\f仿宋_GB2312|b0|i0|c134|p49;·} Sealing: FPM\P   {\f仿宋_GB2312|b0|i0|c134|p49;·} Shut off valve: Polypropylen
  7
Romans字体
 73
     1
 44
1.0
1001
ACAD
1000
MTEXTBEGIN
1070
    73
1070
     1
1070
    44
1040
1.0
1070
    74
1070
     0
1000
MTEXTEND
1000
ACAD_MTEXT_DEFINED_HEIGHT_BEGIN
1070
    46
1040
8.294818561909686
1000
ACAD_MTEXT_DEFINED_HEIGHT_END
  0
INSERT
  5
11089
330
1F
100
AcDbEntity
  8
DIM
100
AcDbBlockReference
  2
A4图框-NEW
 10
-457.8158850790006
 20
-295.9613488704692
 30
0.0
  0
MTEXT
  5
17E6D
330
1F
100
AcDbEntity
  8
DIM
 62
     4
100
AcDbMText
 10
1108.266215402166
 20
1268.944676452501
 30
0.0
 40
2.0
 41
0.0
 71
     1
 72
     1
  1
{\Fromand,hztxt|c134;A}
 73
     1
 44
1.0
1001
ACAD
1000
MTEXTBEGIN
1070
    73
1070
     1
1070
    44
1040
1.0
1070
    74
1070
     0
1000
MTEXTEND
  0
LINE
  5
18408
330
1F
100
AcDbEntity
  8
0
100
AcDbLine
 10
528.5750660908388
 20
312.2227246589466
 30
0.0
 11
529.5750660908391
 21
311.2227246589466
 31
0.0
  0
LINE
  5
18409
330
1F
100
AcDbEntity
  8
0
100
AcDbLine
 10
528.5750660908388
 20
281.9227226589466
 30
0.0
 11
529.5750660908391
 21
282.9227226589466
 31
0.0
  0
LINE
  5
1840A
330
1F
100
AcDbEntity
  8
0
100
AcDbLine
 10
504.9750660908394
 20
314.1727246589464
 30
0.0
 11
507.4750660908394
 21
314.1727246589464
 31
0.0
  0
LINE
  5
1840B
330
1F
100
AcDbEntity
  8
0
100
AcDbLine
 10
507.4750660908394
 20
314.1727246589464
 30
0.0
 11
508.4750660908396
 21
314.1727246589464
 31
0.0
  0
LINE
  5
1840C
330
1F
100
AcDbEntity
  8
0
100
AcDbLine
 10
508.4750660908396
 20
314.1727246589464
 30
0.0
 11
508.4750660908396
 21
312.2227246589466
 31
0.0
  0
LINE
  5
1840D
330
1F
100
AcDbEntity
  8
0
100
AcDbLine
 10
508.4750660908396
 20
279.9727226589463
 30
0.0
 11
507.4750660908394
 21
279.9727226589463
 31
0.0
  0
LINE
  5
1840E
330
1F
100
AcDbEntity
  8
0
100
AcDbLine
 10
507.4750660908394
 20
279.9727226589463
 30
0.0
 11
504.9750660908394
 21
279.9727226589463
 31
0.0
  0
LINE
  5
1840F
330
1F
100
AcDbEntity
  8
0
100
AcDbLine
 10
508.4750660908396
 20
281.9227226589466
 30
0.0
 11
508.4750660908396
 21
279.9727226589463
 31
0.0
  0
LINE
  5
18410
330
1F
100
AcDbEntity
  8
0
100
AcDbLine
 10
502.3750660908389
 20
312.2227246589466
 30
0.0
 11
518.7250660908396
 21
312.2227246589466
 31
0.0
  0
LINE
  5
18411
330
1F
100
AcDbEntity
  8
0
100
AcDbLine
 10
522.7920560908398
 20
312.2227246589466
 30
0.0
 11
528.5750660908388
 21
312.2227246589466
 31
0.0
  0
LINE
  5
18412
330
1F
100
AcDbEntity
  8
0
100
AcDbLine
 10
528.5750660908388
 20
281.9227226589466
 30
0.0
 11
522.7920560908398
 21
281.9227226589466
 31
0.0
  0
LINE
  5
18413
330
1F
100
AcDbEntity
  8
0
100
AcDbLine
 10
502.3750660908389
 20
281.9227226589466
 30
0.0
 11
518.7250660908396
 21
281.9227226589466
 31
0.0
  0
LINE
  5
18414
330
1F
100
AcDbEntity
  8
0
100
AcDbLine
 10
528.5750660908388
 20
291.5727246589465
 30
0.0
 11
529.5750660908391
 21
291.5727246589465
 31
0.0
  0
LINE
  5
18415
330
1F
100
AcDbEntity
  8
0
100
AcDbLine
 10
520.8250660908388
 20
291.5727246589465
 30
0.0
 11
528.5750660908388
 21
291.5727246589465
 31
0.0
  0
LINE
  5
18416
330
1F
100
AcDbEntity
  8
0
100
AcDbLine
 10
528.5750660908388
 20
302.5727246589465
 30
0.0
 11
529.5750660908391
 21
302.5727246589465
 31
0.0
  0
LINE
  5
18417
330
1F
100
AcDbEntity
  8
0
100
AcDbLine
 10
528.5750660908388
 20
302.5727246589465
 30
0.0
 11
520.8250660908388
 21
302.5727246589465
 31
0.0
  0
LINE
  5
18418
330
1F
100
AcDbEntity
  8
0
100
AcDbLine
 10
529.5750660908391
 20
285.2727246589465
 30
0.0
 11
528.5750660908388
 21
285.2727246589465
 31
0.0
  0
LINE
  5
18419
330
1F
100
AcDbEntity
  8
0
100
AcDbLine
 10
510.875066090839
 20
285.2727246589465
 30
0.0
 11
528.5750660908388
 21
285.2727246589465
 31
0.0
  0
LINE
  5
1841A
330
1F
100
AcDbEntity
  8
0
100
AcDbLine
 10
529.5750660908391
 20
289.5727246589465
 30
0.0
 11
528.5750660908388
 21
289.5727246589465
 31
0.0
  0
LINE
  5
1841B
330
1F
100
AcDbEntity
  8
0
100
AcDbLine
 10
528.5750660908388
 20
289.5727246589465
 30
0.0
 11
520.8250660908388
 21
289.5727246589465
 31
0.0
  0
LINE
  5
1841C
330
1F
100
AcDbEntity
  8
0
100
AcDbLine
 10
529.5750660908391
 20
304.5727246589465
 30
0.0
 11
528.5750660908388
 21
304.5727246589465
 31
0.0
  0
LINE
  5
1841D
330
1F
100
AcDbEntity
  8
0
100
AcDbLine
 10
520.8250660908388
 20
304.5727246589465
 30
0.0
 11
528.5750660908388
 21
304.5727246589465
 31
0.0
  0
LINE
  5
1841E
330
1F
100
AcDbEntity
  8
0
100
AcDbLine
 10
529.5750660908391
 20
308.8727246589464
 30
0.0
 11
528.5750660908388
 21
308.8727246589464
 31
0.0
  0
LINE
  5
1841F
330
1F
100
AcDbEntity
  8
0
100
AcDbLine
 10
528.5750660908388
 20
308.8727246589464
 30
0.0
 11
510.875066090839
 21
308.8727246589464
 31
0.0
  0
LINE
  5
18420
330
1F
100
AcDbEntity
  8
0
100
AcDbLine
 10
529.5750660908391
 20
311.2227246589466
 30
0.0
 11
529.5750660908391
 21
309.6990746589465
 31
0.0
  0
LINE
  5
18421
330
1F
100
AcDbEntity
  8
0
100
AcDbLine
 10
529.5750660908391
 20
309.6990746589465
 30
0.0
 11
529.5750660908391
 21
308.8727246589464
 31
0.0
  0
LINE
  5
18422
330
1F
100
AcDbEntity
  8
0
100
AcDbLine
 10
529.5750660908391
 20
308.8727246589464
 30
0.0
 11
529.5750660908391
 21
304.5727246589465
 31
0.0
  0
LINE
  5
18423
330
1F
100
AcDbEntity
  8
0
100
AcDbLine
 10
529.5750660908391
 20
304.5727246589465
 30
0.0
 11
529.5750660908391
 21
302.5727246589465
 31
0.0
  0
LINE
  5
18424
330
1F
100
AcDbEntity
  8
0
100
AcDbLine
 10
529.5750660908391
 20
302.5727246589465
 30
0.0
 11
529.5750660908391
 21
291.5727246589465
 31
0.0
  0
LINE
  5
18425
330
1F
100
AcDbEntity
  8
0
100
AcDbLine
 10
529.5750660908391
 20
291.5727246589465
 30
0.0
 11
529.5750660908391
 21
289.5727246589465
 31
0.0
  0
LINE
  5
18426
330
1F
100
AcDbEntity
  8
0
100
AcDbLine
 10
529.5750660908391
 20
289.5727246589465
 30
0.0
 11
529.5750660908391
 21
285.2727246589465
 31
0.0
  0
LINE
  5
18427
330
1F
100
AcDbEntity
  8
0
100
AcDbLine
 10
529.5750660908391
 20
285.2727246589465
 30
0.0
 11
529.5750660908391
 21
284.4463696589466
 31
0.0
  0
LINE
  5
18428
330
1F
100
AcDbEntity
  8
0
100
AcDbLine
 10
529.5750660908391
 20
284.4463696589466
 30
0.0
 11
529.5750660908391
 21
282.9227226589466
 31
0.0
  0
LINE
  5
18429
330
1F
100
AcDbEntity
  8
0
100
AcDbLine
 10
512.1750660908394
 20
304.4107396589465
 30
0.0
 11
512.1750660908394
 21
302.7347096589464
 31
0.0
  0
LINE
  5
1842A
330
1F
100
AcDbEntity
  8
0
100
AcDbLine
 10
512.1750660908394
 20
291.4107396589465
 30
0.0
 11
512.1750660908394
 21
289.7347046589463
 31
0.0
  0
LINE
  5
1842B
330
1F
100
AcDbEntity
  8
0
100
AcDbLine
 10
520.8250660908388
 20
304.5727246589465
 30
0.0
 11
520.8250660908388
 21
302.5727246589465
 31
0.0
  0
LINE
  5
1842C
330
1F
100
AcDbEntity
  8
0
100
AcDbLine
 10
524.4250660908394
 20
302.5727246589465
 30
0.0
 11
524.4250660908394
 21
304.5727246589465
 31
0.0
  0
LINE
  5
1842D
330
1F
100
AcDbEntity
  8
0
100
AcDbLine
 10
520.8250660908388
 20
302.5727246589465
 30
0.0
 11
507.4750660908394
 21
302.8227246589465
 31
0.0
  0
LINE
  5
1842E
330
1F
100
AcDbEntity
  8
0
100
AcDbLine
 10
507.4750660908394
 20
304.3227246589465
 30
0.0
 11
520.8250660908388
 21
304.5727246589465
 31
0.0
  0
LINE
  5
1842F
330
1F
100
AcDbEntity
  8
0
100
AcDbLine
 10
507.4750660908394
 20
302.8227246589465
 30
0.0
 11
507.4750660908394
 21
304.3227246589465
 31
0.0
  0
LINE
  5
18430
330
1F
100
AcDbEntity
  8
0
100
AcDbLine
 10
502.3750660908389
 20
281.9227226589466
 30
0.0
 11
502.3750660908389
 21
312.2227246589466
 31
0.0
  0
LINE
  5
18431
330
1F
100
AcDbEntity
  8
0
100
AcDbLine
 10
520.8250660908388
 20
291.5727246589465
 30
0.0
 11
520.8250660908388
 21
289.5727246589465
 31
0.0
  0
LINE
  5
18432
330
1F
100
AcDbEntity
  8
0
100
AcDbLine
 10
520.8250660908388
 20
289.5727246589465
 30
0.0
 11
507.4750660908394
 21
289.8227246589465
 31
0.0
  0
LINE
  5
18433
330
1F
100
AcDbEntity
  8
0
100
AcDbLine
 10
507.4750660908394
 20
289.8227246589465
 30
0.0
 11
507.4750660908394
 21
291.3227246589465
 31
0.0
  0
LINE
  5
18434
330
1F
100
AcDbEntity
  8
0
100
AcDbLine
 10
507.4750660908394
 20
291.3227246589465
 30
0.0
 11
520.8250660908388
 21
291.5727246589465
 31
0.0
  0
LINE
  5
18435
330
1F
100
AcDbEntity
  8
0
100
AcDbLine
 10
524.4250660908394
 20
289.5727246589465
 30
0.0
 11
524.4250660908394
 21
291.5727246589465
 31
0.0
  0
LINE
  5
18436
330
1F
100
AcDbEntity
  8
0
100
AcDbLine
 10
504.9750660908394
 20
281.9227226589466
 30
0.0
 11
504.9750660908394
 21
279.9727226589463
 31
0.0
  0
LINE
  5
18437
330
1F
100
AcDbEntity
  8
0
100
AcDbLine
 10
519.1114360908389
 20
281.4191951589466
 30
0.0
 11
518.9114210908394
 21
280.6727226589466
 31
0.0
  0
LINE
  5
18438
330
1F
100
AcDbEntity
  8
0
100
AcDbLine
 10
518.9114210908394
 20
280.6727226589466
 30
0.0
 11
520.1114210908391
 21
280.6727226589466
 31
0.0
  0
LINE
  5
18439
330
1F
100
AcDbEntity
  8
0
100
AcDbLine
 10
520.1114210908391
 20
280.6727226589466
 30
0.0
 11
522.8145860908401
 21
281.9332281589465
 31
0.0
  0
LINE
  5
1843A
330
1F
100
AcDbEntity
  8
0
100
AcDbLine
 10
522.509536090839
 20
283.6457491589464
 30
0.0
 11
510.875066090839
 21
284.6227246589464
 31
0.0
  0
LINE
  5
1843B
330
1F
100
AcDbEntity
  8
0
100
AcDbLine
 10
510.875066090839
 20
284.6227246589464
 30
0.0
 11
510.875066090839
 21
285.2727246589465
 31
0.0
  0
LINE
  5
1843C
330
1F
100
AcDbEntity
  8
0
100
AcDbLine
 10
504.9750660908394
 20
314.1727246589464
 30
0.0
 11
504.9750660908394
 21
312.2227246589466
 31
0.0
  0
LINE
  5
1843D
330
1F
100
AcDbEntity
  8
0
100
AcDbLine
 10
510.875066090839
 20
308.8727246589464
 30
0.0
 11
510.875066090839
 21
309.5227246589465
 31
0.0
  0
LINE
  5
1843E
330
1F
100
AcDbEntity
  8
0
100
AcDbLine
 10
510.875066090839
 20
309.5227246589465
 30
0.0
 11
522.509536090839
 21
310.4996946589464
 31
0.0
  0
LINE
  5
1843F
330
1F
100
AcDbEntity
  8
0
100
AcDbLine
 10
522.8145860908401
 20
312.2122146589465
 30
0.0
 11
520.1114210908391
 21
313.4727246589465
 31
0.0
  0
LINE
  5
18440
330
1F
100
AcDbEntity
  8
0
100
AcDbLine
 10
520.1114210908391
 20
313.4727246589465
 30
0.0
 11
518.9114210908394
 21
313.4727246589465
 31
0.0
  0
LINE
  5
18441
330
1F
100
AcDbEntity
  8
0
100
AcDbLine
 10
518.9114210908394
 20
313.4727246589465
 30
0.0
 11
519.1114360908389
 21
312.7262496589464
 31
0.0
  0
LINE
  5
18442
330
1F
100
AcDbEntity
  8
0
100
AcDbLine
 10
507.4750610908387
 20
312.2227196589465
 30
0.0
 11
507.4750660908394
 21
314.1727246589464
 31
0.0
  0
LINE
  5
18443
330
1F
100
AcDbEntity
  8
0
100
AcDbLine
 10
507.4750660908394
 20
279.9727226589463
 30
0.0
 11
507.4750610908387
 21
281.9227256589465
 31
0.0
  0
LINE
  5
18444
330
1F
100
AcDbEntity
  8
0
100
AcDbLine
 10
528.5750660908388
 20
291.5727246589465
 30
0.0
 11
528.5750660908388
 21
302.5727246589465
 31
0.0
  0
LINE
  5
18445
330
1F
100
AcDbEntity
  8
0
100
AcDbLine
 10
528.5750660908388
 20
285.2727246589465
 30
0.0
 11
528.5750660908388
 21
289.5727246589465
 31
0.0
  0
LINE
  5
18446
330
1F
100
AcDbEntity
  8
0
100
AcDbLine
 10
528.5750660908388
 20
304.5727246589465
 30
0.0
 11
528.5750660908388
 21
308.8727246589464
 31
0.0
  0
LINE
  5
18447
330
1F
100
AcDbEntity
  8
0
100
AcDbLine
 10
528.5358360908388
 20
304.5727246589465
 30
0.0
 11
528.5358360908388
 21
302.5727246589465
 31
0.0
  0
LINE
  5
18448
330
1F
100
AcDbEntity
  8
0
100
AcDbLine
 10
528.5358360908388
 20
291.5727246589465
 30
0.0
 11
528.5358360908388
 21
289.5727246589465
 31
0.0
  0
ARC
  5
18449
330
1F
100
AcDbEntity
  8
0
100
AcDbCircle
 10
518.7250660908396
 20
281.5227226589465
 30
0.0
 40
0.4
100
AcDbArc
 50
345.0000000000056
 51
90.0
  0
ARC
  5
1844A
330
1F
100
AcDbEntity
  8
0
100
AcDbCircle
 10
522.434226090839
 20
282.7489051589466
 30
0.0
 40
0.9
100
AcDbArc
 50
294.9999999999779
 51
85.2000000000052
  0
ARC
  5
1844B
330
1F
100
AcDbEntity
  8
0
100
AcDbCircle
 10
522.434226090839
 20
311.3965396589464
 30
0.0
 40
0.9
100
AcDbArc
 50
274.7999999999948
 51
65.00000000002207
  0
ARC
  5
1844C
330
1F
100
AcDbEntity
  8
0
100
AcDbCircle
 10
518.7250660908396
 20
312.6227246589464
 30
0.0
 40
0.400000015
100
AcDbArc
 50
270.0
 51
14.99999999999443
  0
POLYLINE
  5
1844D
330
1F
100
AcDbEntity
  8
0
100
AcDb2dPolyline
 66
     1
 10
0.0
 20
0.0
 30
0.0
 70
     2
  0
VERTEX
  5
1844E
330
1844D
100
AcDbEntity
  8
0
100
AcDbVertex
100
AcDb2dVertex
 10
524.4197660908396
 20
302.5727246589465
 30
0.0
  0
VERTEX
  5
1844F
330
1844D
100
AcDbEntity
  8
0
100
AcDbVertex
100
AcDb2dVertex
 10
524.4185110908395
 20
302.6352196589466
 30
0.0
 42
0.0000711146
 70
     1
  0
VERTEX
  5
18450
330
1844D
100
AcDbEntity
  8
0
100
AcDbVertex
100
AcDb2dVertex
 10
524.4172310908392
 20
302.6977196589466
 30
0.0
 42
0.0001016014
  0
VERTEX
  5
18451
330
1844D
100
AcDbEntity
  8
0
100
AcDbVertex
100
AcDb2dVertex
 10
524.4159310908392
 20
302.7602146589465
 30
0.0
 42
0.0000718677
 70
     1
  0
VERTEX
  5
18452
330
1844D
100
AcDbEntity
  8
0
100
AcDbVertex
100
AcDb2dVertex
 10
524.4146210908394
 20
302.8227096589464
 30
0.0
 42
-0.0000256758
  0
VERTEX
  5
18453
330
1844D
100
AcDbEntity
  8
0
100
AcDbVertex
100
AcDb2dVertex
 10
524.4133310908392
 20
302.8852046589465
 30
0.0
 42
-0.0000977973
 70
     1
  0
VERTEX
  5
18454
330
1844D
100
AcDbEntity
  8
0
100
AcDbVertex
100
AcDb2dVertex
 10
524.4120710908394
 20
302.9477046589465
 30
0.0
 42
-0.0001629066
  0
VERTEX
  5
18455
330
1844D
100
AcDbEntity
  8
0
100
AcDbVertex
100
AcDb2dVertex
 10
524.4108610908398
 20
303.0101996589463
 30
0.0
 42
-0.0002242746
 70
     1
  0
VERTEX
  5
18456
330
1844D
100
AcDbEntity
  8
0
100
AcDbVertex
100
AcDb2dVertex
 10
524.4097160908396
 20
303.0726996589464
 30
0.0
 42
-0.0002975644
  0
VERTEX
  5
18457
330
1844D
100
AcDbEntity
  8
0
100
AcDbVertex
100
AcDb2dVertex
 10
524.4086510908394
 20
303.1351996589464
 30
0.0
 42
-0.0003617098
 70
     1
  0
VERTEX
  5
18458
330
1844D
100
AcDbEntity
  8
0
100
AcDbVertex
100
AcDb2dVertex
 10
524.4076860908392
 20
303.1976996589464
 30
0.0
 42
-0.0004330866
  0
VERTEX
  5
18459
330
1844D
100
AcDbEntity
  8
0
100
AcDbVertex
100
AcDb2dVertex
 10
524.4068460908395
 20
303.2602046589465
 30
0.0
 42
-0.0004963147
 70
     1
  0
VERTEX
  5
1845A
330
1844D
100
AcDbEntity
  8
0
100
AcDbVertex
100
AcDb2dVertex
 10
524.4061310908391
 20
303.3227096589464
 30
0.0
 42
-0.0005675079
  0
VERTEX
  5
1845B
330
1844D
100
AcDbEntity
  8
0
100
AcDbVertex
100
AcDb2dVertex
 10
524.405571090839
 20
303.3852196589466
 30
0.0
 42
-0.0006319341
 70
     1
  0
VERTEX
  5
1845C
330
1844D
100
AcDbEntity
  8
0
100
AcDbVertex
100
AcDb2dVertex
 10
524.4051760908397
 20
303.4477296589463
 30
0.0
 42
-0.0007061598
  0
VERTEX
  5
1845D
330
1844D
100
AcDbEntity
  8
0
100
AcDbVertex
100
AcDb2dVertex
 10
524.4049660908395
 20
303.5102396589465
 30
0.0
 42
-0.0007210803
 70
     1
  0
VERTEX
  5
1845E
330
1844D
100
AcDbEntity
  8
0
100
AcDbVertex
100
AcDb2dVertex
 10
524.4049260908389
 20
303.5727496589465
 30
0.0
 42
-0.0006802327
  0
VERTEX
  5
1845F
330
1844D
100
AcDbEntity
  8
0
100
AcDbVertex
100
AcDb2dVertex
 10
524.4050610908391
 20
303.6352646589464
 30
0.0
 42
-0.0006415322
 70
     1
  0
VERTEX
  5
18460
330
1844D
100
AcDbEntity
  8
0
100
AcDbVertex
100
AcDb2dVertex
 10
524.4053460908392
 20
303.6977646589464
 30
0.0
 42
-0.0005958797
  0
VERTEX
  5
18461
330
1844D
100
AcDbEntity
  8
0
100
AcDbVertex
100
AcDb2dVertex
 10
524.4057760908391
 20
303.7602346589464
 30
0.0
 42
-0.000559778
 70
     1
  0
VERTEX
  5
18462
330
1844D
100
AcDbEntity
  8
0
100
AcDbVertex
100
AcDb2dVertex
 10
524.4063410908394
 20
303.8227696589465
 30
0.0
 42
-0.0005211756
  0
VERTEX
  5
18463
330
1844D
100
AcDbEntity
  8
0
100
AcDbVertex
100
AcDb2dVertex
 10
524.4070360908391
 20
303.8853996589466
 30
0.0
 42
-0.0004752339
 70
     1
  0
VERTEX
  5
18464
330
1844D
100
AcDbEntity
  8
0
100
AcDbVertex
100
AcDb2dVertex
 10
524.4078410908398
 20
303.9477696589465
 30
0.0
 42
-0.0004196388
  0
VERTEX
  5
18465
330
1844D
100
AcDbEntity
  8
0
100
AcDbVertex
100
AcDb2dVertex
 10
524.4087410908388
 20
304.0097696589466
 30
0.0
 42
-0.000401114
 70
     1
  0
VERTEX
  5
18466
330
1844D
100
AcDbEntity
  8
0
100
AcDbVertex
100
AcDb2dVertex
 10
524.4097560908387
 20
304.0727646589464
 30
0.0
 42
-0.0003831023
  0
VERTEX
  5
18467
330
1844D
100
AcDbEntity
  8
0
100
AcDbVertex
100
AcDb2dVertex
 10
524.4108810908394
 20
304.1372346589466
 30
0.0
 42
-0.0002983837
 70
     1
  0
VERTEX
  5
18468
330
1844D
100
AcDbEntity
  8
0
100
AcDbVertex
100
AcDb2dVertex
 10
524.4120010908393
 20
304.1977596589465
 30
0.0
 42
-0.0002138897
  0
VERTEX
  5
18469
330
1844D
100
AcDbEntity
  8
0
100
AcDbVertex
100
AcDb2dVertex
 10
524.4130660908388
 20
304.2524746589465
 30
0.0
 42
-0.0002729708
 70
     1
  0
VERTEX
  5
1846A
330
1844D
100
AcDbEntity
  8
0
100
AcDbVertex
100
AcDb2dVertex
 10
524.4145010908388
 20
304.3227446589463
 30
0.0
 42
-0.0001838082
  0
VERTEX
  5
1846B
330
1844D
100
AcDbEntity
  8
0
100
AcDbVertex
100
AcDb2dVertex
 10
524.4167660908398
 20
304.4309796589466
 30
0.0
 42
-0.0000722019
 70
     1
  0
VERTEX
  5
1846C
330
1844D
100
AcDbEntity
  8
0
100
AcDbVertex
100
AcDb2dVertex
 10
524.4197610908387
 20
304.5727246589465
 30
0.0
 42
-0.0000535142
  0
SEQEND
  5
1846D
330
1844D
100
AcDbEntity
  8
0
  0
POLYLINE
  5
1846E
330
1F
100
AcDbEntity
  8
0
100
AcDb2dPolyline
 66
     1
 10
0.0
 20
0.0
 30
0.0
 70
     2
  0
VERTEX
  5
1846F
330
1846E
100
AcDbEntity
  8
0
100
AcDbVertex
100
AcDb2dVertex
 10
524.4197610908387
 20
289.5727246589465
 30
0.0
  0
VERTEX
  5
18470
330
1846E
100
AcDbEntity
  8
0
100
AcDbVertex
100
AcDb2dVertex
 10
524.4184710908394
 20
289.6352196589466
 30
0.0
 42
0.0000542644
 70
     1
  0
VERTEX
  5
18471
330
1846E
100
AcDbEntity
  8
0
100
AcDbVertex
100
AcDb2dVertex
 10
524.417161090839
 20
289.6977096589464
 30
0.0
 42
0.0001122152
  0
VERTEX
  5
18472
330
1846E
100
AcDbEntity
  8
0
100
AcDbVertex
100
AcDb2dVertex
 10
524.41582609084
 20
289.7602046589465
 30
0.0
 42
0.000055697
 70
     1
  0
VERTEX
  5
18473
330
1846E
100
AcDbEntity
  8
0
100
AcDbVertex
100
AcDb2dVertex
 10
524.4145010908388
 20
289.8226996589464
 30
0.0
 42
-0.000129717
  0
VERTEX
  5
18474
330
1846E
100
AcDbEntity
  8
0
100
AcDbVertex
100
AcDb2dVertex
 10
524.4132260908393
 20
289.8851946589463
 30
0.0
 42
-0.0002185416
 70
     1
  0
VERTEX
  5
18475
330
1846E
100
AcDbEntity
  8
0
100
AcDbVertex
100
AcDb2dVertex
 10
524.4120010908393
 20
289.9476896589464
 30
0.0
 42
-0.0002334466
  0
VERTEX
  5
18476
330
1846E
100
AcDbEntity
  8
0
100
AcDbVertex
100
AcDb2dVertex
 10
524.4108410908394
 20
290.0101846589466
 30
0.0
 42
-0.0002624954
 70
     1
  0
VERTEX
  5
18477
330
1846E
100
AcDbEntity
  8
0
100
AcDbVertex
100
AcDb2dVertex
 10
524.4097510908386
 20
290.0726796589465
 30
0.0
 42
-0.000313102
  0
VERTEX
  5
18478
330
1846E
100
AcDbEntity
  8
0
100
AcDbVertex
100
AcDb2dVertex
 10
524.4087510908395
 20
290.1351746589464
 30
0.0
 42
-0.0003539574
 70
     1
  0
VERTEX
  5
18479
330
1846E
100
AcDbEntity
  8
0
100
AcDbVertex
100
AcDb2dVertex
 10
524.4078410908398
 20
290.1976746589464
 30
0.0
 42
-0.00039549
  0
VERTEX
  5
1847A
330
1846E
100
AcDbEntity
  8
0
100
AcDbVertex
100
AcDb2dVertex
 10
524.4070360908391
 20
290.2601746589464
 30
0.0
 42
-0.0004333917
 70
     1
  0
VERTEX
  5
1847B
330
1846E
100
AcDbEntity
  8
0
100
AcDbVertex
100
AcDb2dVertex
 10
524.4063410908394
 20
290.3226746589464
 30
0.0
 42
-0.0004773247
  0
VERTEX
  5
1847C
330
1846E
100
AcDbEntity
  8
0
100
AcDbVertex
100
AcDb2dVertex
 10
524.4057760908391
 20
290.3851796589465
 30
0.0
 42
-0.0005158278
 70
     1
  0
VERTEX
  5
1847D
330
1846E
100
AcDbEntity
  8
0
100
AcDbVertex
100
AcDb2dVertex
 10
524.4053460908392
 20
290.4476796589465
 30
0.0
 42
-0.0005587743
  0
VERTEX
  5
1847E
330
1846E
100
AcDbEntity
  8
0
100
AcDbVertex
100
AcDb2dVertex
 10
524.4050610908391
 20
290.5101846589466
 30
0.0
 42
-0.0005976191
 70
     1
  0
VERTEX
  5
1847F
330
1846E
100
AcDbEntity
  8
0
100
AcDbVertex
100
AcDb2dVertex
 10
524.4049260908389
 20
290.5726946589463
 30
0.0
 42
-0.0006420687
  0
VERTEX
  5
18480
330
1846E
100
AcDbEntity
  8
0
100
AcDbVertex
100
AcDb2dVertex
 10
524.4049660908395
 20
290.6352096589464
 30
0.0
 42
-0.0006790051
 70
     1
  0
VERTEX
  5
18481
330
1846E
100
AcDbEntity
  8
0
100
AcDbVertex
100
AcDb2dVertex
 10
524.4051760908397
 20
290.6977146589465
 30
0.0
 42
-0.0007188081
  0
VERTEX
  5
18482
330
1846E
100
AcDbEntity
  8
0
100
AcDbVertex
100
AcDb2dVertex
 10
524.405571090839
 20
290.7601946589463
 30
0.0
 42
-0.000707051
 70
     1
  0
VERTEX
  5
18483
330
1846E
100
AcDbEntity
  8
0
100
AcDbVertex
100
AcDb2dVertex
 10
524.4061310908391
 20
290.8227346589464
 30
0.0
 42
-0.0006371877
  0
VERTEX
  5
18484
330
1846E
100
AcDbEntity
  8
0
100
AcDbVertex
100
AcDb2dVertex
 10
524.4068460908395
 20
290.8853646589466
 30
0.0
 42
-0.0005655179
 70
     1
  0
VERTEX
  5
18485
330
1846E
100
AcDbEntity
  8
0
100
AcDbVertex
100
AcDb2dVertex
 10
524.4076860908392
 20
290.9477446589463
 30
0.0
 42
-0.0004847939
  0
VERTEX
  5
18486
330
1846E
100
AcDbEntity
  8
0
100
AcDbVertex
100
AcDb2dVertex
 10
524.4086410908396
 20
291.0097446589463
 30
0.0
 42
-0.000438747
 70
     1
  0
VERTEX
  5
18487
330
1846E
100
AcDbEntity
  8
0
100
AcDbVertex
100
AcDb2dVertex
 10
524.4097110908398
 20
291.0727446589464
 30
0.0
 42
-0.000381605
  0
VERTEX
  5
18488
330
1846E
100
AcDbEntity
  8
0
100
AcDbVertex
100
AcDb2dVertex
 10
524.4109010908387
 20
291.1372146589465
 30
0.0
 42
-0.000285786
 70
     1
  0
VERTEX
  5
18489
330
1846E
100
AcDbEntity
  8
0
100
AcDbVertex
100
AcDb2dVertex
 10
524.4120710908394
 20
291.1977446589464
 30
0.0
 42
-0.0002117544
  0
VERTEX
  5
1848A
330
1846E
100
AcDbEntity
  8
0
100
AcDbVertex
100
AcDb2dVertex
 10
524.4131760908397
 20
291.2524596589467
 30
0.0
 42
-0.0001845616
 70
     1
  0
VERTEX
  5
1848B
330
1846E
100
AcDbEntity
  8
0
100
AcDbVertex
100
AcDb2dVertex
 10
524.4146210908394
 20
291.3227346589465
 30
0.0
 42
-0.000022718
  0
VERTEX
  5
1848C
330
1846E
100
AcDbEntity
  8
0
100
AcDbVertex
100
AcDb2dVertex
 10
524.4168510908393
 20
291.4309746589465
 30
0.0
 42
0.0000071198
 70
     1
  0
VERTEX
  5
1848D
330
1846E
100
AcDbEntity
  8
0
100
AcDbVertex
100
AcDb2dVertex
 10
524.4197660908396
 20
291.5727196589466
 30
0.0
 42
-0.000011957
  0
SEQEND
  5
1848E
330
1846E
100
AcDbEntity
  8
0
  0
LINE
  5
1848F
330
1F
100
AcDbEntity
  8
0
100
AcDbLine
 10
410.3882876773461
 20
234.4264208193479
 30
0.0
 11
410.3882876773461
 21
232.8979395393482
 31
0.0
  0
LINE
  5
18490
330
1F
100
AcDbEntity
  8
0
100
AcDbLine
 10
409.0306374373446
 20
234.4264208193479
 30
0.0
 11
410.3882876773461
 21
234.4264208193479
 31
0.0
  0
LINE
  5
18491
330
1F
100
AcDbEntity
  8
0
100
AcDbLine
 10
409.0306374373446
 20
232.8979395393482
 30
0.0
 11
409.0306374373446
 21
234.4264208193479
 31
0.0
  0
LINE
  5
18492
330
1F
100
AcDbEntity
  8
0
100
AcDbLine
 10
410.3882876773461
 20
232.8979395393482
 30
0.0
 11
409.0306374373446
 21
232.8979395393482
 31
0.0
  0
LINE
  5
18493
330
1F
100
AcDbEntity
  8
0
100
AcDbLine
 10
429.0737747173459
 20
226.363225299348
 30
0.0
 11
423.743222077346
 21
223.2856217793476
 31
0.0
  0
LINE
  5
18494
330
1F
100
AcDbEntity
  8
0
100
AcDbLine
 10
428.2752553573454
 20
227.4698720193478
 30
0.0
 11
429.0737747173459
 21
226.363225299348
 31
0.0
  0
LINE
  5
18495
330
1F
100
AcDbEntity
  8
0
100
AcDbLine
 10
423.1840902373467
 20
224.5304844993483
 30
0.0
 11
428.2752553573454
 21
227.4698720193478
 31
0.0
  0
LINE
  5
18496
330
1F
100
AcDbEntity
  8
0
100
AcDbLine
 10
423.1840902373467
 20
224.5304844993483
 30
0.0
 11
423.743222077346
 21
223.2856217793476
 31
0.0
  0
LINE
  5
18497
330
1F
100
AcDbEntity
  8
0
100
AcDbLine
 10
422.1319177573453
 20
215.5751523393479
 30
0.0
 11
422.1319177573453
 21
206.9529507393479
 31
0.0
  0
LINE
  5
18498
330
1F
100
AcDbEntity
  8
0
100
AcDbLine
 10
420.7742665573467
 20
215.5751523393479
 30
0.0
 11
422.1319177573453
 21
215.5751523393479
 31
0.0
  0
LINE
  5
18499
330
1F
100
AcDbEntity
  8
0
100
AcDbLine
 10
420.7742665573467
 20
206.9529507393479
 30
0.0
 11
420.7742665573467
 21
215.5751523393479
 31
0.0
  0
LINE
  5
1849A
330
1F
100
AcDbEntity
  8
0
100
AcDbLine
 10
420.7742665573467
 20
206.9529507393479
 30
0.0
 11
422.1319177573453
 21
206.9529507393479
 31
0.0
  0
LINE
  5
1849B
330
1F
100
AcDbEntity
  8
0
100
AcDbLine
 10
422.1319177573453
 20
205.385277459348
 30
0.0
 11
422.1319177573453
 21
202.0147702593483
 31
0.0
  0
LINE
  5
1849C
330
1F
100
AcDbEntity
  8
0
100
AcDbLine
 10
422.1319177573453
 20
205.385277459348
 30
0.0
 11
420.7742665573467
 21
205.385277459348
 31
0.0
  0
LINE
  5
1849D
330
1F
100
AcDbEntity
  8
0
100
AcDbLine
 10
420.7742665573467
 20
202.0147702593483
 30
0.0
 11
420.7742665573467
 21
205.385277459348
 31
0.0
  0
LINE
  5
1849E
330
1F
100
AcDbEntity
  8
0
100
AcDbLine
 10
422.1319177573453
 20
202.0147702593483
 30
0.0
 11
420.7742665573467
 21
202.0147702593483
 31
0.0
  0
LINE
  5
1849F
330
1F
100
AcDbEntity
  8
0
100
AcDbLine
 10
422.1319177573453
 20
220.5133222593478
 30
0.0
 11
422.1319177573453
 21
217.1428256193478
 31
0.0
  0
LINE
  5
184A0
330
1F
100
AcDbEntity
  8
0
100
AcDbLine
 10
422.1319177573453
 20
220.5133222593478
 30
0.0
 11
420.7742665573467
 21
220.5133222593478
 31
0.0
  0
LINE
  5
184A1
330
1F
100
AcDbEntity
  8
0
100
AcDbLine
 10
420.7742665573467
 20
217.1428256193478
 30
0.0
 11
420.7742665573467
 21
220.5133222593478
 31
0.0
  0
LINE
  5
184A2
330
1F
100
AcDbEntity
  8
0
100
AcDbLine
 10
422.1319177573453
 20
217.1428256193478
 30
0.0
 11
420.7742665573467
 21
217.1428256193478
 31
0.0
  0
LINE
  5
184A3
330
1F
100
AcDbEntity
  8
0
100
AcDbLine
 10
412.0853459173458
 20
238.1496444993481
 30
0.0
 11
413.7823945573453
 21
237.169848339348
 31
0.0
  0
LINE
  5
184A4
330
1F
100
AcDbEntity
  8
0
100
AcDbLine
 10
413.7823993573468
 20
236.3860150593481
 30
0.0
 11
413.7823945573453
 21
237.169848339348
 31
0.0
  0
LINE
  5
184A5
330
1F
100
AcDbEntity
  8
0
100
AcDbLine
 10
412.0853459173458
 20
238.1496444993481
 30
0.0
 11
407.3335887973469
 21
235.4062160193479
 31
0.0
  0
LINE
  5
184A6
330
1F
100
AcDbEntity
  8
0
100
AcDbLine
 10
407.3335887973469
 20
235.4062160193479
 30
0.0
 11
409.0306374373446
 21
234.4264208193479
 31
0.0
  0
LINE
  5
184A7
330
1F
100
AcDbEntity
  8
0
100
AcDbLine
 10
410.3882876773461
 20
234.4264208193479
 30
0.0
 11
413.7823993573468
 21
236.3860150593481
 31
0.0
  0
LINE
  5
184A8
330
1F
100
AcDbEntity
  8
0
100
AcDbLine
 10
407.3335887973469
 20
235.4062160193479
 30
0.0
 11
407.3335887973469
 21
233.8777356993475
 31
0.0
  0
LINE
  5
184A9
330
1F
100
AcDbEntity
  8
0
100
AcDbLine
 10
409.0306374373446
 20
232.8979395393482
 30
0.0
 11
407.3335887973469
 21
233.8777356993475
 31
0.0
  0
LINE
  5
184AA
330
1F
100
AcDbEntity
  8
0
100
AcDbLine
 10
413.7823993573468
 20
234.8575337793477
 30
0.0
 11
413.7823993573468
 21
236.3860150593481
 31
0.0
  0
LINE
  5
184AB
330
1F
100
AcDbEntity
  8
0
100
AcDbLine
 10
413.7823993573468
 20
234.8575337793477
 30
0.0
 11
410.3882876773461
 21
232.8979395393482
 31
0.0
  0
LINE
  5
184AC
330
1F
100
AcDbEntity
  8
0
100
AcDbLine
 10
423.743222077346
 20
223.2856217793476
 30
0.0
 11
423.5608422373458
 21
221.9860428993477
 31
0.0
  0
LINE
  5
184AD
330
1F
100
AcDbEntity
  8
0
100
AcDbLine
 10
411.168932797346
 20
231.4674377793478
 30
0.0
 11
411.0620924773462
 21
230.7060953793476
 31
0.0
  0
LINE
  5
184AE
330
1F
100
AcDbEntity
  8
0
100
AcDbLine
 10
411.168932797346
 20
231.4674377793478
 30
0.0
 11
415.7756627173463
 21
228.8077433793481
 31
0.0
  0
LINE
  5
184AF
330
1F
100
AcDbEntity
  8
0
100
AcDbLine
 10
417.0171615973457
 20
228.0909632193481
 30
0.0
 11
423.1840902373467
 21
224.5304844993483
 31
0.0
  0
LINE
  5
184B0
330
1F
100
AcDbEntity
  8
0
100
AcDbLine
 10
429.2561535973461
 20
225.2742204993479
 30
0.0
 11
429.0737747173459
 21
226.363225299348
 31
0.0
  0
LINE
  5
184B1
330
1F
100
AcDbEntity
  8
0
100
AcDbLine
 10
428.2752553573454
 20
227.4698720193478
 30
0.0
 11
416.260097917345
 21
234.4068252993482
 31
0.0
  0
LINE
  5
184B2
330
1F
100
AcDbEntity
  8
0
100
AcDbLine
 10
416.260097917345
 20
234.4068252993482
 30
0.0
 11
416.9728633573463
 21
234.8183388993474
 31
0.0
  0
LINE
  5
184B3
330
1F
100
AcDbEntity
  8
0
100
AcDbLine
 10
416.9728633573463
 20
234.8183388993474
 30
0.0
 11
422.3016265573455
 21
231.7417808193476
 31
0.0
  0
LINE
  5
184B4
330
1F
100
AcDbEntity
  8
0
100
AcDbLine
 10
412.8999308773456
 20
239.1294396993482
 30
0.0
 11
423.2766515173463
 21
233.1384406593478
 31
0.0
  0
LINE
  5
184B5
330
1F
100
AcDbEntity
  8
0
100
AcDbLine
 10
402.9891183973458
 20
233.4074336193483
 30
0.0
 11
412.8999308773456
 21
239.1294396993482
 31
0.0
  0
LINE
  5
184B6
330
1F
100
AcDbEntity
  8
0
100
AcDbLine
 10
402.9891183973458
 20
233.4074336193483
 30
0.0
 11
414.0878723173471
 21
226.9995699393479
 31
0.0
  0
LINE
  5
184B7
330
1F
100
AcDbEntity
  8
0
100
AcDbLine
 10
415.0628991973451
 20
228.3962288193481
 30
0.0
 11
410.4561673573461
 21
231.0559241793478
 31
0.0
  0
LINE
  5
184B8
330
1F
100
AcDbEntity
  8
0
100
AcDbLine
 10
410.4561673573461
 20
231.0559241793478
 30
0.0
 11
411.168932797346
 21
231.4674377793478
 31
0.0
  0
LINE
  5
184B9
330
1F
100
AcDbEntity
  8
0
100
AcDbLine
 10
429.9246591973449
 20
206.5139187393481
 30
0.0
 11
430.6850790373451
 21
206.9529507393479
 31
0.0
  0
LINE
  5
184BA
330
1F
100
AcDbEntity
  8
0
100
AcDbLine
 10
430.6850799973452
 20
225.4514931393477
 30
0.0
 11
430.6850799973452
 21
226.2353292993477
 31
0.0
  0
LINE
  5
184BB
330
1F
100
AcDbEntity
  8
0
100
AcDbLine
 10
425.6673155173466
 20
229.1323366593478
 30
0.0
 11
430.6850799973452
 21
226.2353292993477
 31
0.0
  0
LINE
  5
184BC
330
1F
100
AcDbEntity
  8
0
100
AcDbLine
 10
430.6850799973452
 20
225.4514931393477
 30
0.0
 11
429.9246591973449
 21
225.0124611393479
 31
0.0
  0
LINE
  5
184BD
330
1F
100
AcDbEntity
  8
0
100
AcDbLine
 10
424.1251782373463
 20
233.6283372993482
 30
0.0
 11
424.9397622373458
 21
233.1580352193483
 31
0.0
  0
LINE
  5
184BE
330
1F
100
AcDbEntity
  8
0
100
AcDbLine
 10
424.9397622373458
 20
233.1580352193483
 30
0.0
 11
426.7747369573459
 21
231.1105913793482
 31
0.0
  0
LINE
  5
184BF
330
1F
100
AcDbEntity
  8
0
100
AcDbLine
 10
429.0737747173459
 20
204.1806416193478
 30
0.0
 11
429.2561535973461
 21
205.480229139348
 31
0.0
  0
LINE
  5
184C0
330
1F
100
AcDbEntity
  8
0
100
AcDbLine
 10
423.1840911973452
 20
200.7802323393483
 30
0.0
 11
423.7432191973458
 21
201.1030448193476
 31
0.0
  0
LINE
  5
184C1
330
1F
100
AcDbEntity
  8
0
100
AcDbLine
 10
423.5608422373458
 20
202.1920428993475
 30
0.0
 11
423.7432191973458
 21
201.1030448193476
 31
0.0
  0
LINE
  5
184C2
330
1F
100
AcDbEntity
  8
0
100
AcDbLine
 10
423.1840911973452
 20
200.7802323393483
 30
0.0
 11
421.0458006373456
 21
202.0147750593478
 31
0.0
  0
LINE
  5
184C3
330
1F
100
AcDbEntity
  8
0
100
AcDbLine
 10
402.9891183973458
 20
209.6571862593478
 30
0.0
 11
414.0878723173471
 21
203.2493129793478
 31
0.0
  0
LINE
  5
184C4
330
1F
100
AcDbEntity
  8
0
100
AcDbLine
 10
422.1319177573453
 20
206.9529507393479
 30
0.0
 11
422.3581119973456
 21
207.0835443393476
 31
0.0
  0
LINE
  5
184C5
330
1F
100
AcDbEntity
  8
0
100
AcDbLine
 10
415.5133926373451
 20
209.9903168193475
 30
0.0
 11
420.7742665573467
 21
206.9529507393479
 31
0.0
  0
LINE
  5
184C6
330
1F
100
AcDbEntity
  8
0
100
AcDbLine
 10
422.3581119973456
 20
215.7057468993476
 30
0.0
 11
422.1319177573453
 21
215.5751523393479
 31
0.0
  0
LINE
  5
184C7
330
1F
100
AcDbEntity
  8
0
100
AcDbLine
 10
422.0662729573461
 20
216.3518384193481
 30
0.0
 11
419.2757891173456
 21
217.9629228993482
 31
0.0
  0
LINE
  5
184C8
330
1F
100
AcDbEntity
  8
0
100
AcDbLine
 10
419.2757891173456
 20
217.9629228993482
 30
0.0
 11
419.3148025573459
 21
217.9854483393482
 31
0.0
  0
LINE
  5
184C9
330
1F
100
AcDbEntity
  8
0
100
AcDbLine
 10
416.8710419173448
 20
219.3963545793481
 30
0.0
 11
416.8320255973458
 21
219.3738291393481
 31
0.0
  0
LINE
  5
184CA
330
1F
100
AcDbEntity
  8
0
100
AcDbLine
 10
420.7742665573467
 20
215.5751523393479
 30
0.0
 11
415.5133926373451
 21
218.6125184193482
 31
0.0
  0
LINE
  5
184CB
330
1F
100
AcDbEntity
  8
0
100
AcDbLine
 10
408.7591091173463
 20
208.9517331393483
 30
0.0
 11
420.7742665573467
 21
202.0147702593483
 31
0.0
  0
LINE
  5
184CC
330
1F
100
AcDbEntity
  8
0
100
AcDbLine
 10
422.1319177573453
 20
202.0147702593483
 30
0.0
 11
422.8923375973458
 21
202.4538022593482
 31
0.0
  0
LINE
  5
184CD
330
1F
100
AcDbEntity
  8
0
100
AcDbLine
 10
420.7742665573467
 20
205.385277459348
 30
0.0
 11
415.5133926373451
 21
208.4226435393476
 31
0.0
  0
LINE
  5
184CE
330
1F
100
AcDbEntity
  8
0
100
AcDbLine
 10
416.8710419173448
 20
209.2064768193482
 30
0.0
 11
416.8320255973458
 21
209.1839542593475
 31
0.0
  0
LINE
  5
184CF
330
1F
100
AcDbEntity
  8
0
100
AcDbLine
 10
419.2757891173456
 20
207.7730480193476
 30
0.0
 11
419.3148025573459
 21
207.7955705793483
 31
0.0
  0
LINE
  5
184D0
330
1F
100
AcDbEntity
  8
0
100
AcDbLine
 10
422.0662719973459
 20
206.161956819348
 30
0.0
 11
419.2757891173456
 21
207.7730480193476
 31
0.0
  0
LINE
  5
184D1
330
1F
100
AcDbEntity
  8
0
100
AcDbLine
 10
422.3581110373455
 20
205.5158662593476
 30
0.0
 11
422.1319177573453
 21
205.385277459348
 31
0.0
  0
LINE
  5
184D2
330
1F
100
AcDbEntity
  8
0
100
AcDbLine
 10
415.5133926373451
 20
220.1801916993481
 30
0.0
 11
420.7742665573467
 21
217.1428256193478
 31
0.0
  0
LINE
  5
184D3
330
1F
100
AcDbEntity
  8
0
100
AcDbLine
 10
422.1319177573453
 20
217.1428256193478
 30
0.0
 11
422.3581119973456
 21
217.2734192193482
 31
0.0
  0
LINE
  5
184D4
330
1F
100
AcDbEntity
  8
0
100
AcDbLine
 10
420.7742665573467
 20
220.5133222593478
 30
0.0
 11
408.7591091173463
 21
227.4502755393481
 31
0.0
  0
LINE
  5
184D5
330
1F
100
AcDbEntity
  8
0
100
AcDbLine
 10
409.2407958373467
 20
227.7283760193476
 30
0.0
 11
408.7591091173463
 21
227.4502755393481
 31
0.0
  0
LINE
  5
184D6
330
1F
100
AcDbEntity
  8
0
100
AcDbLine
 10
422.8923375973458
 20
220.9523542593477
 30
0.0
 11
422.1319177573453
 21
220.5133222593478
 31
0.0
  0
LINE
  5
184D7
330
1F
100
AcDbEntity
  8
0
100
AcDbLine
 10
415.5133926373451
 20
218.6125184193482
 30
0.0
 11
406.4511145573453
 21
224.0405868993478
 31
0.0
  0
LINE
  5
184D8
330
1F
100
AcDbEntity
  8
0
100
AcDbLine
 10
406.4511145573453
 20
224.0405868993478
 30
0.0
 11
406.4511145573453
 21
225.2163411393481
 31
0.0
  0
LINE
  5
184D9
330
1F
100
AcDbEntity
  8
0
100
AcDbLine
 10
406.4511145573453
 20
225.2163411393481
 30
0.0
 11
415.5133926373451
 21
220.1801916993481
 31
0.0
  0
LINE
  5
184DA
330
1F
100
AcDbEntity
  8
0
100
AcDbLine
 10
408.7591091173463
 20
227.4502755393481
 30
0.0
 11
408.7591091173463
 21
227.9597696193475
 31
0.0
  0
LINE
  5
184DB
330
1F
100
AcDbEntity
  8
0
100
AcDbLine
 10
408.7591091173463
 20
227.9597696193475
 30
0.0
 11
416.6568524773444
 21
224.1657939393476
 31
0.0
  0
LINE
  5
184DC
330
1F
100
AcDbEntity
  8
0
100
AcDbLine
 10
416.863925437345
 20
225.3885785793481
 30
0.0
 11
415.0289603173452
 21
227.4360281793477
 31
0.0
  0
LINE
  5
184DD
330
1F
100
AcDbEntity
  8
0
100
AcDbLine
 10
415.0289603173452
 20
227.4360281793477
 30
0.0
 11
414.2143753573454
 21
227.9063302593476
 31
0.0
  0
LINE
  5
184DE
330
1F
100
AcDbEntity
  8
0
100
AcDbLine
 10
414.2143753573454
 20
227.9063302593476
 30
0.0
 11
414.3501443173453
 21
227.2428262593483
 31
0.0
  0
LINE
  5
184DF
330
1F
100
AcDbEntity
  8
0
100
AcDbLine
 10
402.9891183973458
 20
209.6571862593478
 30
0.0
 11
402.9891183973458
 21
233.4074336193483
 31
0.0
  0
LINE
  5
184E0
330
1F
100
AcDbEntity
  8
0
100
AcDbLine
 10
414.3501462373454
 20
202.7032083393478
 30
0.0
 11
414.2143753573454
 21
202.1964828993481
 31
0.0
  0
LINE
  5
184E1
330
1F
100
AcDbEntity
  8
0
100
AcDbLine
 10
414.2143753573454
 20
202.1964828993481
 30
0.0
 11
415.0289603173452
 21
201.7261808193481
 31
0.0
  0
LINE
  5
184E2
330
1F
100
AcDbEntity
  8
0
100
AcDbLine
 10
415.0289603173452
 20
201.7261808193481
 30
0.0
 11
416.8639244773463
 21
201.6548000193481
 31
0.0
  0
LINE
  5
184E3
330
1F
100
AcDbEntity
  8
0
100
AcDbLine
 10
416.6568534373459
 20
203.1166860993482
 30
0.0
 11
408.7591091173463
 21
208.4422400193481
 31
0.0
  0
LINE
  5
184E4
330
1F
100
AcDbEntity
  8
0
100
AcDbLine
 10
408.7591091173463
 20
208.4422400193481
 30
0.0
 11
408.7591091173463
 21
208.9517331393483
 31
0.0
  0
LINE
  5
184E5
330
1F
100
AcDbEntity
  8
0
100
AcDbLine
 10
415.5133926373451
 20
208.4226435393476
 30
0.0
 11
406.4511145573453
 21
213.850712019348
 31
0.0
  0
LINE
  5
184E6
330
1F
100
AcDbEntity
  8
0
100
AcDbLine
 10
406.4511145573453
 20
213.850712019348
 30
0.0
 11
406.4511145573453
 21
215.0264662593475
 31
0.0
  0
LINE
  5
184E7
330
1F
100
AcDbEntity
  8
0
100
AcDbLine
 10
406.4511145573453
 20
215.0264662593475
 30
0.0
 11
415.5133926373451
 21
209.9903168193475
 31
0.0
  0
LINE
  5
184E8
330
1F
100
AcDbEntity
  8
0
100
AcDbLine
 10
423.7432191973458
 20
201.1030448193476
 30
0.0
 11
429.0737747173459
 21
204.1806416193478
 31
0.0
  0
LINE
  5
184E9
330
1F
100
AcDbEntity
  8
0
100
AcDbLine
 10
430.6850790373451
 20
206.9529507393479
 30
0.0
 11
430.6850799973452
 21
225.4514931393477
 31
0.0
  0
LINE
  5
184EA
330
1F
100
AcDbEntity
  8
0
100
AcDbLine
 10
410.8010214373448
 20
222.7989833793483
 30
0.0
 11
410.6598159973462
 21
222.717456339348
 31
0.0
  0
LINE
  5
184EB
330
1F
100
AcDbEntity
  8
0
100
AcDbLine
 10
410.6598159973462
 20
222.717456339348
 30
0.0
 11
407.4693481573467
 21
224.6284640193476
 31
0.0
  0
LINE
  5
184EC
330
1F
100
AcDbEntity
  8
0
100
AcDbLine
 10
407.4693481573467
 20
224.6284640193476
 30
0.0
 11
406.4511145573453
 21
224.0405868993478
 31
0.0
  0
LINE
  5
184ED
330
1F
100
AcDbEntity
  8
0
100
AcDbLine
 10
407.4693481573467
 20
224.6284640193476
 30
0.0
 11
407.4693500773452
 21
224.6504825793479
 31
0.0
  0
LINE
  5
184EE
330
1F
100
AcDbEntity
  8
0
100
AcDbLine
 10
410.6598159973462
 20
212.5275814593482
 30
0.0
 11
407.4693481573467
 21
214.4385891393478
 31
0.0
  0
LINE
  5
184EF
330
1F
100
AcDbEntity
  8
0
100
AcDbLine
 10
407.4693481573467
 20
214.4385891393478
 30
0.0
 11
407.4693500773452
 21
214.460604819348
 31
0.0
  0
LINE
  5
184F0
330
1F
100
AcDbEntity
  8
0
100
AcDbLine
 10
410.8010214373448
 20
212.6091065793476
 30
0.0
 11
410.6598159973462
 21
212.5275814593482
 31
0.0
  0
LINE
  5
184F1
330
1F
100
AcDbEntity
  8
0
100
AcDbLine
 10
406.4511145573453
 20
213.850712019348
 30
0.0
 11
407.4693481573467
 21
214.4385891393478
 31
0.0
  0
LINE
  5
184F2
330
1F
100
AcDbEntity
  8
0
100
AcDbLine
 10
417.0377343973459
 20
201.6949779393482
 30
0.0
 11
418.734787837347
 21
202.6747721793483
 31
0.0
  0
LINE
  5
184F3
330
1F
100
AcDbEntity
  8
0
100
AcDbLine
 10
408.7591091173463
 20
208.4422400193481
 30
0.0
 11
409.2003471973447
 21
208.6969827393481
 31
0.0
  0
LINE
  5
184F4
330
1F
100
AcDbEntity
  8
0
100
AcDbLine
 10
416.9728652773462
 20
233.9953126593481
 30
0.0
 11
416.9728633573463
 21
234.8183388993474
 31
0.0
  0
LINE
  5
184F5
330
1F
100
AcDbEntity
  8
0
100
AcDbLine
 10
425.0776777573463
 20
230.1307913793479
 30
0.0
 11
423.2427135973463
 21
232.1782390593482
 31
0.0
  0
LINE
  5
184F6
330
1F
100
AcDbEntity
  8
0
100
AcDbLine
 10
423.2427135973463
 20
232.1782390593482
 30
0.0
 11
422.4281199973464
 21
232.6485411393481
 31
0.0
  0
LINE
  5
184F7
330
1F
100
AcDbEntity
  8
0
100
AcDbLine
 10
422.4281199973464
 20
232.6485411393481
 30
0.0
 11
422.5638985573469
 21
231.985037139348
 31
0.0
  0
LINE
  5
184F8
330
1F
100
AcDbEntity
  8
0
100
AcDbLine
 10
422.4281199973464
 20
232.6485411393481
 30
0.0
 11
424.1251782373463
 21
233.6283372993482
 31
0.0
  0
LINE
  5
184F9
330
1F
100
AcDbEntity
  8
0
100
AcDbLine
 10
423.2427135973463
 20
232.1782390593482
 30
0.0
 11
424.9397622373458
 21
233.1580352193483
 31
0.0
  0
LINE
  5
184FA
330
1F
100
AcDbEntity
  8
0
100
AcDbLine
 10
425.5315513573449
 20
229.0539536193482
 30
0.0
 11
426.9485401573454
 21
229.8720521793478
 31
0.0
  0
LINE
  5
184FB
330
1F
100
AcDbEntity
  8
0
100
AcDbLine
 10
418.5609817573459
 20
226.3683747393482
 30
0.0
 11
416.7260185573463
 21
228.4158243393478
 31
0.0
  0
LINE
  5
184FC
330
1F
100
AcDbEntity
  8
0
100
AcDbLine
 10
416.7260185573463
 20
228.4158243393478
 30
0.0
 11
415.9114239973463
 21
228.8861264193478
 31
0.0
  0
LINE
  5
184FD
330
1F
100
AcDbEntity
  8
0
100
AcDbLine
 10
417.0377343973459
 20
224.150047059348
 30
0.0
 11
418.734787837347
 21
225.129840339348
 31
0.0
  0
LINE
  5
184FE
330
1F
100
AcDbEntity
  8
0
100
AcDbLine
 10
416.7260185573463
 20
228.4158243393478
 30
0.0
 11
415.0289603173452
 21
227.4360281793477
 31
0.0
  0
LINE
  5
184FF
330
1F
100
AcDbEntity
  8
0
100
AcDbLine
 10
415.9114239973463
 20
228.8861264193478
 30
0.0
 11
414.2143753573454
 21
227.9063302593476
 31
0.0
  0
POLYLINE
  5
18500
330
1F
100
AcDbEntity
  8
0
100
AcDb2dPolyline
 66
     1
 10
0.0
 20
0.0
 30
0.0
 70
     2
  0
VERTEX
  5
18501
330
18500
100
AcDbEntity
  8
0
100
AcDbVertex
100
AcDb2dVertex
 10
426.7747340773445
 20
231.110586579348
 30
0.0
  0
VERTEX
  5
18502
330
18500
100
AcDbEntity
  8
0
100
AcDbVertex
100
AcDb2dVertex
 10
426.8241183973465
 20
231.0523664193478
 30
0.0
 42
-0.015153724
 70
     1
  0
VERTEX
  5
18503
330
18500
100
AcDbEntity
  8
0
100
AcDbVertex
100
AcDb2dVertex
 10
426.8715673573455
 20
230.9894345793476
 30
0.0
 42
-0.013964161
  0
VERTEX
  5
18504
330
18500
100
AcDbEntity
  8
0
100
AcDbVertex
100
AcDb2dVertex
 10
426.9171260773445
 20
230.9214848193481
 30
0.0
 42
-0.01330601
 70
     1
  0
VERTEX
  5
18505
330
18500
100
AcDbEntity
  8
0
100
AcDbVertex
100
AcDb2dVertex
 10
426.9600159973453
 20
230.8494732993476
 30
0.0
 42
-0.013932523
  0
VERTEX
  5
18506
330
18500
100
AcDbEntity
  8
0
100
AcDbVertex
100
AcDb2dVertex
 10
426.9990947173452
 20
230.7742304193478
 30
0.0
 42
-0.01427693
 70
     1
  0
VERTEX
  5
18507
330
18500
100
AcDbEntity
  8
0
100
AcDbVertex
100
AcDb2dVertex
 10
427.0338649573455
 20
230.696892819348
 30
0.0
 42
-0.01449763
  0
VERTEX
  5
18508
330
18500
100
AcDbEntity
  8
0
100
AcDbVertex
100
AcDb2dVertex
 10
427.0635721573456
 20
230.6184531393479
 30
0.0
 42
-0.015005747
 70
     1
  0
VERTEX
  5
18509
330
18500
100
AcDbEntity
  8
0
100
AcDbVertex
100
AcDb2dVertex
 10
427.0879379173458
 20
230.5400720193476
 30
0.0
 42
-0.015890691
  0
VERTEX
  5
1850A
330
18500
100
AcDbEntity
  8
0
100
AcDbVertex
100
AcDb2dVertex
 10
427.1063660773458
 20
230.4629388993478
 30
0.0
 42
-0.016480831
 70
     1
  0
VERTEX
  5
1850B
330
18500
100
AcDbEntity
  8
0
100
AcDbVertex
100
AcDb2dVertex
 10
427.1191935973456
 20
230.3881529793481
 30
0.0
 42
-0.016445774
  0
VERTEX
  5
1850C
330
18500
100
AcDbEntity
  8
0
100
AcDbVertex
100
AcDb2dVertex
 10
427.1262611173453
 20
230.3168710593479
 30
0.0
 42
-0.018870353
 70
     1
  0
VERTEX
  5
1850D
330
18500
100
AcDbEntity
  8
0
100
AcDbVertex
100
AcDb2dVertex
 10
427.127272957346
 20
230.2493264193475
 30
0.0
 42
-0.023846987
  0
VERTEX
  5
1850E
330
18500
100
AcDbEntity
  8
0
100
AcDbVertex
100
AcDb2dVertex
 10
427.1220563173447
 20
230.1862256193479
 30
0.0
 42
-0.020702089
 70
     1
  0
VERTEX
  5
1850F
330
18500
100
AcDbEntity
  8
0
100
AcDbVertex
100
AcDb2dVertex
 10
427.1142649573459
 20
230.129268819348
 30
0.0
 42
-0.00604042
  0
VERTEX
  5
18510
330
18500
100
AcDbEntity
  8
0
100
AcDbVertex
100
AcDb2dVertex
 10
427.1048598373463
 20
230.0786508993482
 30
0.0
 42
-0.031793979
 70
     1
  0
VERTEX
  5
18511
330
18500
100
AcDbEntity
  8
0
100
AcDbVertex
100
AcDb2dVertex
 10
427.0807071973463
 20
230.023865619348
 30
0.0
 42
-0.072792113
  0
VERTEX
  5
18512
330
18500
100
AcDbEntity
  8
0
100
AcDbVertex
100
AcDb2dVertex
 10
427.0276038373451
 20
229.9543347393478
 30
0.0
 42
-0.040282314
 70
     1
  0
VERTEX
  5
18513
330
18500
100
AcDbEntity
  8
0
100
AcDbVertex
100
AcDb2dVertex
 10
426.9485401573454
 20
229.8720521793478
 30
0.0
 42
-0.020901732
  0
SEQEND
  5
18514
330
18500
100
AcDbEntity
  8
0
  0
POLYLINE
  5
18515
330
1F
100
AcDbEntity
  8
0
100
AcDb2dPolyline
 66
     1
 10
0.0
 20
0.0
 30
0.0
 70
     2
  0
VERTEX
  5
18516
330
18515
100
AcDbEntity
  8
0
100
AcDbVertex
100
AcDb2dVertex
 10
422.3581110373455
 20
215.7057440193483
 30
0.0
  0
VERTEX
  5
18517
330
18515
100
AcDbEntity
  8
0
100
AcDbVertex
100
AcDb2dVertex
 10
422.3325078373465
 20
215.7622841793479
 30
0.0
 42
-0.0000418059
 70
     1
  0
VERTEX
  5
18518
330
18515
100
AcDbEntity
  8
0
100
AcDbVertex
100
AcDb2dVertex
 10
422.3071974373461
 20
215.8182003393481
 30
0.0
 42
-0.0000388749
  0
VERTEX
  5
18519
330
18515
100
AcDbEntity
  8
0
100
AcDbVertex
100
AcDb2dVertex
 10
422.2822652773446
 20
215.873303379348
 30
0.0
 42
-0.0000434066
 70
     1
  0
VERTEX
  5
1851A
330
18515
100
AcDbEntity
  8
0
100
AcDbVertex
100
AcDb2dVertex
 10
422.257192957347
 20
215.9287472193482
 30
0.0
 42
-0.0000529732
  0
VERTEX
  5
1851B
330
18515
100
AcDbEntity
  8
0
100
AcDbVertex
100
AcDb2dVertex
 10
422.2318038373467
 20
215.984920659348
 30
0.0
 42
-0.0000410803
 70
     1
  0
VERTEX
  5
1851C
330
18515
100
AcDbEntity
  8
0
100
AcDbVertex
100
AcDb2dVertex
 10
422.2080975973465
 20
216.0373846593476
 30
0.0
 42
-0.00001425
  0
VERTEX
  5
1851D
330
18515
100
AcDbEntity
  8
0
100
AcDbVertex
100
AcDb2dVertex
 10
422.1867788773462
 20
216.0845792193478
 30
0.0
 42
-0.0000590876
 70
     1
  0
VERTEX
  5
1851E
330
18515
100
AcDbEntity
  8
0
100
AcDbVertex
100
AcDb2dVertex
 10
422.1599132773445
 20
216.1441116993479
 30
0.0
 42
-0.0001053284
  0
VERTEX
  5
1851F
330
18515
100
AcDbEntity
  8
0
100
AcDbVertex
100
AcDb2dVertex
 10
422.1191967973451
 20
216.2344140993478
 30
0.0
 42
-0.0000531504
 70
     1
  0
VERTEX
  5
18520
330
18515
100
AcDbEntity
  8
0
100
AcDbVertex
100
AcDb2dVertex
 10
422.0662729573461
 20
216.3518384193481
 30
0.0
 42
-0.0000285818
  0
SEQEND
  5
18521
330
18515
100
AcDbEntity
  8
0
  0
POLYLINE
  5
18522
330
1F
100
AcDbEntity
  8
0
100
AcDb2dPolyline
 66
     1
 10
0.0
 20
0.0
 30
0.0
 70
     2
  0
VERTEX
  5
18523
330
18522
100
AcDbEntity
  8
0
100
AcDbVertex
100
AcDb2dVertex
 10
422.3581110373455
 20
205.5158662593476
 30
0.0
  0
VERTEX
  5
18524
330
18522
100
AcDbEntity
  8
0
100
AcDbVertex
100
AcDb2dVertex
 10
422.3325078373465
 20
205.572406419348
 30
0.0
 42
-0.0000418059
 70
     1
  0
VERTEX
  5
18525
330
18522
100
AcDbEntity
  8
0
100
AcDbVertex
100
AcDb2dVertex
 10
422.3071974373461
 20
205.6283235393475
 30
0.0
 42
-0.0000388749
  0
VERTEX
  5
18526
330
18522
100
AcDbEntity
  8
0
100
AcDbVertex
100
AcDb2dVertex
 10
422.2822652773446
 20
205.683425619348
 30
0.0
 42
-0.0000434066
 70
     1
  0
VERTEX
  5
18527
330
18522
100
AcDbEntity
  8
0
100
AcDbVertex
100
AcDb2dVertex
 10
422.257192957347
 20
205.7388704193475
 30
0.0
 42
-0.0000529732
  0
VERTEX
  5
18528
330
18522
100
AcDbEntity
  8
0
100
AcDbVertex
100
AcDb2dVertex
 10
422.2318038373467
 20
205.7950438593481
 30
0.0
 42
-0.0000410803
 70
     1
  0
VERTEX
  5
18529
330
18522
100
AcDbEntity
  8
0
100
AcDbVertex
100
AcDb2dVertex
 10
422.2080975973465
 20
205.8475068993477
 30
0.0
 42
-0.00001425
  0
VERTEX
  5
1852A
330
18522
100
AcDbEntity
  8
0
100
AcDbVertex
100
AcDb2dVertex
 10
422.1867788773462
 20
205.8947014593479
 30
0.0
 42
-0.0000590876
 70
     1
  0
VERTEX
  5
1852B
330
18522
100
AcDbEntity
  8
0
100
AcDbVertex
100
AcDb2dVertex
 10
422.1599132773445
 20
205.954234899348
 30
0.0
 42
-0.0001053284
  0
VERTEX
  5
1852C
330
18522
100
AcDbEntity
  8
0
100
AcDbVertex
100
AcDb2dVertex
 10
422.1191967973451
 20
206.0445372993479
 30
0.0
 42
-0.0000531504
 70
     1
  0
VERTEX
  5
1852D
330
18522
100
AcDbEntity
  8
0
100
AcDbVertex
100
AcDb2dVertex
 10
422.0662729573461
 20
206.1619606593481
 30
0.0
 42
-0.0000285818
  0
SEQEND
  5
1852E
330
18522
100
AcDbEntity
  8
0
  0
POLYLINE
  5
1852F
330
1F
100
AcDbEntity
  8
0
100
AcDb2dPolyline
 66
     1
 10
0.0
 20
0.0
 30
0.0
 70
     2
  0
VERTEX
  5
18530
330
1852F
100
AcDbEntity
  8
0
100
AcDbVertex
100
AcDb2dVertex
 10
416.6568534373459
 20
224.1657958593477
 30
0.0
  0
VERTEX
  5
18531
330
1852F
100
AcDbEntity
  8
0
100
AcDbVertex
100
AcDb2dVertex
 10
416.7327894373458
 20
224.1346524993478
 30
0.0
 42
0.034230738
 70
     1
  0
VERTEX
  5
18532
330
1852F
100
AcDbEntity
  8
0
100
AcDbVertex
100
AcDb2dVertex
 10
416.8075916773458
 20
224.1159123393477
 30
0.0
 42
0.038401715
  0
VERTEX
  5
18533
330
1852F
100
AcDbEntity
  8
0
100
AcDbVertex
100
AcDb2dVertex
 10
416.8815491173456
 20
224.1099382593481
 30
0.0
 42
0.042559571
 70
     1
  0
VERTEX
  5
18534
330
1852F
100
AcDbEntity
  8
0
100
AcDbVertex
100
AcDb2dVertex
 10
416.9523961573457
 20
224.117257299348
 30
0.0
 42
0.051265222
  0
VERTEX
  5
18535
330
1852F
100
AcDbEntity
  8
0
100
AcDbVertex
100
AcDb2dVertex
 10
417.0172335973456
 20
224.1394275393478
 30
0.0
 42
0.057738438
 70
     1
  0
VERTEX
  5
18536
330
1852F
100
AcDbEntity
  8
0
100
AcDbVertex
100
AcDb2dVertex
 10
417.0746204773468
 20
224.1753372993476
 30
0.0
 42
0.058605053
  0
VERTEX
  5
18537
330
1852F
100
AcDbEntity
  8
0
100
AcDbVertex
100
AcDb2dVertex
 10
417.1228201573462
 20
224.2244192193477
 30
0.0
 42
0.054915579
 70
     1
  0
VERTEX
  5
18538
330
1852F
100
AcDbEntity
  8
0
100
AcDbVertex
100
AcDb2dVertex
 10
417.1612479973449
 20
224.2839670593482
 30
0.0
 42
0.048612929
  0
VERTEX
  5
18539
330
1852F
100
AcDbEntity
  8
0
100
AcDbVertex
100
AcDb2dVertex
 10
417.1889343973464
 20
224.3521155393482
 30
0.0
 42
0.042009695
 70
     1
  0
VERTEX
  5
1853A
330
1852F
100
AcDbEntity
  8
0
100
AcDbVertex
100
AcDb2dVertex
 10
417.2072041573462
 20
224.427317139348
 30
0.0
 42
0.033026429
  0
VERTEX
  5
1853B
330
1852F
100
AcDbEntity
  8
0
100
AcDbVertex
100
AcDb2dVertex
 10
417.2163539173453
 20
224.5094614593476
 30
0.0
 42
0.031067182
 70
     1
  0
VERTEX
  5
1853C
330
1852F
100
AcDbEntity
  8
0
100
AcDbVertex
100
AcDb2dVertex
 10
417.2148755173457
 20
224.600643219348
 30
0.0
 42
0.032712106
  0
VERTEX
  5
1853D
330
1852F
100
AcDbEntity
  8
0
100
AcDbVertex
100
AcDb2dVertex
 10
417.2012195173456
 20
224.7020000193482
 30
0.0
 42
0.022445603
 70
     1
  0
VERTEX
  5
1853E
330
1852F
100
AcDbEntity
  8
0
100
AcDbVertex
100
AcDb2dVertex
 10
417.1810172773454
 20
224.8036179393482
 30
0.0
 42
0.010291336
  0
VERTEX
  5
1853F
330
1852F
100
AcDbEntity
  8
0
100
AcDbVertex
100
AcDb2dVertex
 10
417.1556924773462
 20
224.9001872193479
 30
0.0
 42
0.027393972
 70
     1
  0
VERTEX
  5
18540
330
1852F
100
AcDbEntity
  8
0
100
AcDbVertex
100
AcDb2dVertex
 10
417.1047798373455
 20
225.0171008193476
 30
0.0
 42
0.042253589
  0
VERTEX
  5
18541
330
1852F
100
AcDbEntity
  8
0
100
AcDbVertex
100
AcDb2dVertex
 10
417.0059286373459
 20
225.1817273793483
 30
0.0
 42
0.021538674
 70
     1
  0
VERTEX
  5
18542
330
1852F
100
AcDbEntity
  8
0
100
AcDbVertex
100
AcDb2dVertex
 10
416.863925437345
 20
225.3885785793481
 30
0.0
 42
0.011335379
  0
SEQEND
  5
18543
330
1852F
100
AcDbEntity
  8
0
  0
POLYLINE
  5
18544
330
1F
100
AcDbEntity
  8
0
100
AcDb2dPolyline
 66
     1
 10
0.0
 20
0.0
 30
0.0
 70
     2
  0
VERTEX
  5
18545
330
18544
100
AcDbEntity
  8
0
100
AcDbVertex
100
AcDb2dVertex
 10
414.3501462373454
 20
227.2428281793483
 30
0.0
  0
VERTEX
  5
18546
330
18544
100
AcDbEntity
  8
0
100
AcDbVertex
100
AcDb2dVertex
 10
414.3575468773468
 20
227.1960550593477
 30
0.0
 42
-0.029942601
 70
     1
  0
VERTEX
  5
18547
330
18544
100
AcDbEntity
  8
0
100
AcDbVertex
100
AcDb2dVertex
 10
414.3593487973451
 20
227.1503369793481
 30
0.0
 42
-0.029244657
  0
VERTEX
  5
18548
330
18544
100
AcDbEntity
  8
0
100
AcDbVertex
100
AcDb2dVertex
 10
414.3555337573453
 20
227.1053580993477
 30
0.0
 42
-0.033712642
 70
     1
  0
VERTEX
  5
18549
330
18544
100
AcDbEntity
  8
0
100
AcDbVertex
100
AcDb2dVertex
 10
414.3448662373463
 20
227.0635299393481
 30
0.0
 42
-0.05149424
  0
VERTEX
  5
1854A
330
18544
100
AcDbEntity
  8
0
100
AcDbVertex
100
AcDb2dVertex
 10
414.3261663973458
 20
227.0276556993481
 30
0.0
 42
-0.054347836
 70
     1
  0
VERTEX
  5
1854B
330
18544
100
AcDbEntity
  8
0
100
AcDbVertex
100
AcDb2dVertex
 10
414.3032876773457
 20
226.9978649793479
 30
0.0
 42
-0.034425684
  0
VERTEX
  5
1854C
330
18544
100
AcDbEntity
  8
0
100
AcDbVertex
100
AcDb2dVertex
 10
414.2778563173469
 20
226.9753500993476
 30
0.0
 42
-0.081024089
 70
     1
  0
VERTEX
  5
1854D
330
18544
100
AcDbEntity
  8
0
100
AcDbVertex
100
AcDb2dVertex
 10
414.2390387173461
 20
226.9653766593477
 30
0.0
 42
-0.13220319
  0
VERTEX
  5
1854E
330
18544
100
AcDbEntity
  8
0
100
AcDbVertex
100
AcDb2dVertex
 10
414.1748579173444
 20
226.973943699348
 30
0.0
 42
-0.058187763
 70
     1
  0
VERTEX
  5
1854F
330
18544
100
AcDbEntity
  8
0
100
AcDbVertex
100
AcDb2dVertex
 10
414.0878694373453
 20
226.9995699393479
 30
0.0
 42
-0.02676437
  0
SEQEND
  5
18550
330
18544
100
AcDbEntity
  8
0
  0
POLYLINE
  5
18551
330
1F
100
AcDbEntity
  8
0
100
AcDb2dPolyline
 66
     1
 10
0.0
 20
0.0
 30
0.0
 70
     2
  0
VERTEX
  5
18552
330
18551
100
AcDbEntity
  8
0
100
AcDbVertex
100
AcDb2dVertex
 10
414.0878694373453
 20
203.2493177793479
 30
0.0
  0
VERTEX
  5
18553
330
18551
100
AcDbEntity
  8
0
100
AcDbVertex
100
AcDb2dVertex
 10
414.1253372773451
 20
203.2249395393479
 30
0.0
 42
-0.033614801
 70
     1
  0
VERTEX
  5
18554
330
18551
100
AcDbEntity
  8
0
100
AcDbVertex
100
AcDb2dVertex
 10
414.1631775973461
 20
203.1935388993482
 30
0.0
 42
-0.025336302
  0
VERTEX
  5
18555
330
18551
100
AcDbEntity
  8
0
100
AcDbVertex
100
AcDb2dVertex
 10
414.2016582373452
 20
203.1548556993478
 30
0.0
 42
-0.02308565
 70
     1
  0
VERTEX
  5
18556
330
18551
100
AcDbEntity
  8
0
100
AcDbVertex
100
AcDb2dVertex
 10
414.2390387173461
 20
203.1089561793476
 30
0.0
 42
-0.027385757
  0
VERTEX
  5
18557
330
18551
100
AcDbEntity
  8
0
100
AcDbVertex
100
AcDb2dVertex
 10
414.2732396773466
 20
203.0562732993483
 30
0.0
 42
-0.022542381
 70
     1
  0
VERTEX
  5
18558
330
18551
100
AcDbEntity
  8
0
100
AcDbVertex
100
AcDb2dVertex
 10
414.3032876773457
 20
203.0022790593477
 30
0.0
 42
-0.012716006
  0
VERTEX
  5
18559
330
18551
100
AcDbEntity
  8
0
100
AcDbVertex
100
AcDb2dVertex
 10
414.3278223973462
 20
202.950121299348
 30
0.0
 42
-0.028132891
 70
     1
  0
VERTEX
  5
1855A
330
18551
100
AcDbEntity
  8
0
100
AcDbVertex
100
AcDb2dVertex
 10
414.3448662373463
 20
202.8886035393476
 30
0.0
 42
-0.05174485
  0
VERTEX
  5
1855B
330
18551
100
AcDbEntity
  8
0
100
AcDbVertex
100
AcDb2dVertex
 10
414.3520854373456
 20
202.8054780993475
 30
0.0
 42
-0.034778163
 70
     1
  0
VERTEX
  5
1855C
330
18551
100
AcDbEntity
  8
0
100
AcDbVertex
100
AcDb2dVertex
 10
414.3501462373454
 20
202.7032083393478
 30
0.0
 42
-0.020977339
  0
SEQEND
  5
1855D
330
18551
100
AcDbEntity
  8
0
  0
POLYLINE
  5
1855E
330
1F
100
AcDbEntity
  8
0
100
AcDb2dPolyline
 66
     1
 10
0.0
 20
0.0
 30
0.0
 70
     2
  0
VERTEX
  5
1855F
330
1855E
100
AcDbEntity
  8
0
100
AcDbVertex
100
AcDb2dVertex
 10
416.863925437345
 20
201.6547961793479
 30
0.0
  0
VERTEX
  5
18560
330
1855E
100
AcDbEntity
  8
0
100
AcDbVertex
100
AcDb2dVertex
 10
416.9313942373448
 20
201.6580380993477
 30
0.0
 42
0.05053405
 70
     1
  0
VERTEX
  5
18561
330
1855E
100
AcDbEntity
  8
0
100
AcDbVertex
100
AcDb2dVertex
 10
416.9942847973458
 20
201.6744963393477
 30
0.0
 42
0.0540277
  0
VERTEX
  5
18562
330
1855E
100
AcDbEntity
  8
0
100
AcDbVertex
100
AcDb2dVertex
 10
417.0527113573459
 20
201.7047180993479
 30
0.0
 42
0.054147994
 70
     1
  0
VERTEX
  5
18563
330
1855E
100
AcDbEntity
  8
0
100
AcDbVertex
100
AcDb2dVertex
 10
417.1047798373455
 20
201.7481590593477
 30
0.0
 42
0.056552723
  0
VERTEX
  5
18564
330
1855E
100
AcDbEntity
  8
0
100
AcDbVertex
100
AcDb2dVertex
 10
417.147805117345
 20
201.8051091393481
 30
0.0
 42
0.053226263
 70
     1
  0
VERTEX
  5
18565
330
1855E
100
AcDbEntity
  8
0
100
AcDbVertex
100
AcDb2dVertex
 10
417.1810172773454
 20
201.8736108993482
 30
0.0
 42
0.046355364
  0
VERTEX
  5
18566
330
1855E
100
AcDbEntity
  8
0
100
AcDbVertex
100
AcDb2dVertex
 10
417.2032527973462
 20
201.9521705793475
 30
0.0
 42
0.038993016
 70
     1
  0
VERTEX
  5
18567
330
1855E
100
AcDbEntity
  8
0
100
AcDbVertex
100
AcDb2dVertex
 10
417.2148755173457
 20
202.0374886593479
 30
0.0
 42
0.03293345
  0
VERTEX
  5
18568
330
1855E
100
AcDbEntity
  8
0
100
AcDbVertex
100
AcDb2dVertex
 10
417.2157001573457
 20
202.1270096193478
 30
0.0
 42
0.028359674
 70
     1
  0
VERTEX
  5
18569
330
1855E
100
AcDbEntity
  8
0
100
AcDbVertex
100
AcDb2dVertex
 10
417.2072041573462
 20
202.2196745793476
 30
0.0
 42
0.022840689
  0
VERTEX
  5
1856A
330
1855E
100
AcDbEntity
  8
0
100
AcDbVertex
100
AcDb2dVertex
 10
417.1896467173453
 20
202.3155094593475
 30
0.0
 42
0.022353656
 70
     1
  0
VERTEX
  5
1856B
330
1855E
100
AcDbEntity
  8
0
100
AcDbVertex
100
AcDb2dVertex
 10
417.1612479973449
 20
202.4160896193479
 30
0.0
 42
0.024895632
  0
VERTEX
  5
1856C
330
1855E
100
AcDbEntity
  8
0
100
AcDbVertex
100
AcDb2dVertex
 10
417.1204806373465
 20
202.5219036993479
 30
0.0
 42
0.018253685
 70
     1
  0
VERTEX
  5
1856D
330
1855E
100
AcDbEntity
  8
0
100
AcDbVertex
100
AcDb2dVertex
 10
417.0746204773468
 20
202.6247484993477
 30
0.0
 42
0.0087131826
  0
VERTEX
  5
1856E
330
1855E
100
AcDbEntity
  8
0
100
AcDbVertex
100
AcDb2dVertex
 10
417.0263478373462
 20
202.7194275393481
 30
0.0
 42
0.024168552
 70
     1
  0
VERTEX
  5
1856F
330
1855E
100
AcDbEntity
  8
0
100
AcDbVertex
100
AcDb2dVertex
 10
416.9523961573457
 20
202.8239609793479
 30
0.0
 42
0.041777952
  0
VERTEX
  5
18570
330
1855E
100
AcDbEntity
  8
0
100
AcDbVertex
100
AcDb2dVertex
 10
416.827461757346
 20
202.9576169793475
 30
0.0
 42
0.023693232
 70
     1
  0
VERTEX
  5
18571
330
1855E
100
AcDbEntity
  8
0
100
AcDbVertex
100
AcDb2dVertex
 10
416.6568534373459
 20
203.1166860993482
 30
0.0
 42
0.013109036
  0
SEQEND
  5
18572
330
1855E
100
AcDbEntity
  8
0
  0
POLYLINE
  5
18573
330
1F
100
AcDbEntity
  8
0
100
AcDb2dPolyline
 66
     1
 10
0.0
 20
0.0
 30
0.0
 70
     2
  0
VERTEX
  5
18574
330
18573
100
AcDbEntity
  8
0
100
AcDbVertex
100
AcDb2dVertex
 10
423.5608460773462
 20
221.9860400193483
 30
0.0
  0
VERTEX
  5
18575
330
18573
100
AcDbEntity
  8
0
100
AcDbVertex
100
AcDb2dVertex
 10
423.543935677346
 20
221.8922364993482
 30
0.0
 42
-0.021652279
 70
     1
  0
VERTEX
  5
18576
330
18573
100
AcDbEntity
  8
0
100
AcDbVertex
100
AcDb2dVertex
 10
423.5184764773449
 20
221.7949251393478
 30
0.0
 42
-0.017756077
  0
VERTEX
  5
18577
330
18573
100
AcDbEntity
  8
0
100
AcDbVertex
100
AcDb2dVertex
 10
423.4843311973449
 20
221.6938179393477
 30
0.0
 42
-0.01740344
 70
     1
  0
VERTEX
  5
18578
330
18573
100
AcDbEntity
  8
0
100
AcDbVertex
100
AcDb2dVertex
 10
423.4403641573455
 20
221.5900390593477
 30
0.0
 42
-0.020633033
  0
VERTEX
  5
18579
330
18573
100
AcDbEntity
  8
0
100
AcDbVertex
100
AcDb2dVertex
 10
423.3859340773452
 20
221.4857619393482
 30
0.0
 42
-0.016508577
 70
     1
  0
VERTEX
  5
1857A
330
18573
100
AcDbEntity
  8
0
100
AcDbVertex
100
AcDb2dVertex
 10
423.3286758373457
 20
221.3876537793479
 30
0.0
 42
-0.0079094378
  0
VERTEX
  5
1857B
330
18573
100
AcDbEntity
  8
0
100
AcDbVertex
100
AcDb2dVertex
 10
423.2716796773452
 20
221.2995632193476
 30
0.0
 42
-0.02140359
 70
     1
  0
VERTEX
  5
1857C
330
18573
100
AcDbEntity
  8
0
100
AcDbVertex
100
AcDb2dVertex
 10
423.1916684773453
 20
221.2054908993475
 30
0.0
 42
-0.038437698
  0
VERTEX
  5
1857D
330
18573
100
AcDbEntity
  8
0
100
AcDbVertex
100
AcDb2dVertex
 10
423.0634902373461
 20
221.0887088193481
 30
0.0
 42
-0.022510349
 70
     1
  0
VERTEX
  5
1857E
330
18573
100
AcDbEntity
  8
0
100
AcDbVertex
100
AcDb2dVertex
 10
422.8923366373456
 20
220.9523504193475
 30
0.0
 42
-0.012826776
  0
SEQEND
  5
1857F
330
18573
100
AcDbEntity
  8
0
  0
POLYLINE
  5
18580
330
1F
100
AcDbEntity
  8
0
100
AcDb2dPolyline
 66
     1
 10
0.0
 20
0.0
 30
0.0
 70
     2
  0
VERTEX
  5
18581
330
18580
100
AcDbEntity
  8
0
100
AcDbVertex
100
AcDb2dVertex
 10
422.3581110373455
 20
217.2734172993481
 30
0.0
  0
VERTEX
  5
18582
330
18580
100
AcDbEntity
  8
0
100
AcDbVertex
100
AcDb2dVertex
 10
422.5533529573463
 20
218.2741136193482
 30
0.0
 42
-0.040512968
 70
     1
  0
VERTEX
  5
18583
330
18580
100
AcDbEntity
  8
0
100
AcDbVertex
100
AcDb2dVertex
 10
422.9250687973467
 20
219.3287936193478
 30
0.0
 42
-0.033160385
  0
VERTEX
  5
18584
330
18580
100
AcDbEntity
  8
0
100
AcDbVertex
100
AcDb2dVertex
 10
423.483296317346
 20
220.4528326593481
 30
0.0
 42
-0.028053995
 70
     1
  0
VERTEX
  5
18585
330
18580
100
AcDbEntity
  8
0
100
AcDbVertex
100
AcDb2dVertex
 10
424.2020943973455
 20
221.553907539348
 30
0.0
 42
-0.032661048
  0
VERTEX
  5
18586
330
18580
100
AcDbEntity
  8
0
100
AcDbVertex
100
AcDb2dVertex
 10
425.0559654373452
 20
222.5222019393481
 30
0.0
 42
-0.036559123
 70
     1
  0
VERTEX
  5
18587
330
18580
100
AcDbEntity
  8
0
100
AcDbVertex
100
AcDb2dVertex
 10
425.9732876773467
 20
223.2923129793478
 30
0.0
 42
-0.040951773
  0
VERTEX
  5
18588
330
18580
100
AcDbEntity
  8
0
100
AcDbVertex
100
AcDb2dVertex
 10
426.8816819173453
 20
223.8040409793477
 30
0.0
 42
-0.048397489
 70
     1
  0
VERTEX
  5
18589
330
18580
100
AcDbEntity
  8
0
100
AcDbVertex
100
AcDb2dVertex
 10
427.7184323173464
 20
224.0788793793475
 30
0.0
 42
-0.052069497
  0
VERTEX
  5
1858A
330
18580
100
AcDbEntity
  8
0
100
AcDbVertex
100
AcDb2dVertex
 10
428.4337868773445
 20
224.1303219393481
 30
0.0
 42
-0.070570638
 70
     1
  0
VERTEX
  5
1858B
330
18580
100
AcDbEntity
  8
0
100
AcDbVertex
100
AcDb2dVertex
 10
429.0616460773462
 20
223.9796729793477
 30
0.0
 42
-0.081024317
  0
VERTEX
  5
1858C
330
18580
100
AcDbEntity
  8
0
100
AcDbVertex
100
AcDb2dVertex
 10
429.6291308773458
 20
223.6228169793477
 30
0.0
 42
-0.080067357
 70
     1
  0
VERTEX
  5
1858D
330
18580
100
AcDbEntity
  8
0
100
AcDbVertex
100
AcDb2dVertex
 10
430.0963167973455
 20
223.044155859348
 30
0.0
 42
-0.085878399
  0
VERTEX
  5
1858E
330
18580
100
AcDbEntity
  8
0
100
AcDbVertex
100
AcDb2dVertex
 10
430.4022995173446
 20
222.2175689793479
 30
0.0
 42
-0.069642995
 70
     1
  0
VERTEX
  5
1858F
330
18580
100
AcDbEntity
  8
0
100
AcDbVertex
100
AcDb2dVertex
 10
430.5153740773453
 20
221.1991788993476
 30
0.0
 42
-0.05645095
  0
VERTEX
  5
18590
330
18580
100
AcDbEntity
  8
0
100
AcDbVertex
100
AcDb2dVertex
 10
430.4024627173459
 20
220.0500099393477
 30
0.0
 42
-0.04446044
 70
     1
  0
VERTEX
  5
18591
330
18580
100
AcDbEntity
  8
0
100
AcDbVertex
100
AcDb2dVertex
 10
430.0963167973455
 20
218.8703148993477
 30
0.0
 42
-0.036516602
  0
VERTEX
  5
18592
330
18580
100
AcDbEntity
  8
0
100
AcDbVertex
100
AcDb2dVertex
 10
429.6286095973463
 20
217.7534768193476
 30
0.0
 42
-0.032298113
 70
     1
  0
VERTEX
  5
18593
330
18580
100
AcDbEntity
  8
0
100
AcDbVertex
100
AcDb2dVertex
 10
429.0616460773462
 20
216.740064339348
 30
0.0
 42
-0.025785028
  0
VERTEX
  5
18594
330
18580
100
AcDbEntity
  8
0
100
AcDbVertex
100
AcDb2dVertex
 10
428.4358115173449
 20
215.8592480193477
 30
0.0
 42
-0.029193958
 70
     1
  0
VERTEX
  5
18595
330
18580
100
AcDbEntity
  8
0
100
AcDbVertex
100
AcDb2dVertex
 10
427.7184323173464
 20
215.0898473793477
 30
0.0
 42
-0.037216415
  0
VERTEX
  5
18596
330
18580
100
AcDbEntity
  8
0
100
AcDbVertex
100
AcDb2dVertex
 10
426.8737023973455
 20
214.4189494593479
 30
0.0
 42
-0.033256245
 70
     1
  0
VERTEX
  5
18597
330
18580
100
AcDbEntity
  8
0
100
AcDbVertex
100
AcDb2dVertex
 10
425.9732876773467
 20
213.8612940993476
 30
0.0
 42
-0.027084969
  0
VERTEX
  5
18598
330
18580
100
AcDbEntity
  8
0
100
AcDbVertex
100
AcDb2dVertex
 10
425.0874534373456
 20
213.4914300993481
 30
0.0
 42
-0.066030715
 70
     1
  0
VERTEX
  5
18599
330
18580
100
AcDbEntity
  8
0
100
AcDbVertex
100
AcDb2dVertex
 10
424.2020943973455
 20
213.5545020993482
 30
0.0
 42
-0.16756621
  0
VERTEX
  5
1859A
330
18580
100
AcDbEntity
  8
0
100
AcDbVertex
100
AcDb2dVertex
 10
423.2907769573453
 20
214.3128550593482
 30
0.0
 42
-0.10983333
 70
     1
  0
VERTEX
  5
1859B
330
18580
100
AcDbEntity
  8
0
100
AcDbVertex
100
AcDb2dVertex
 10
422.3581110373455
 20
215.7057440193483
 30
0.0
 42
-0.047616368
  0
SEQEND
  5
1859C
330
18580
100
AcDbEntity
  8
0
  0
POLYLINE
  5
1859D
330
1F
100
AcDbEntity
  8
0
100
AcDb2dPolyline
 66
     1
 10
0.0
 20
0.0
 30
0.0
 70
     2
  0
VERTEX
  5
1859E
330
1859D
100
AcDbEntity
  8
0
100
AcDbVertex
100
AcDb2dVertex
 10
422.3581110373455
 20
207.0835404993482
 30
0.0
  0
VERTEX
  5
1859F
330
1859D
100
AcDbEntity
  8
0
100
AcDbVertex
100
AcDb2dVertex
 10
422.5533529573463
 20
208.0842358593475
 30
0.0
 42
-0.040512968
 70
     1
  0
VERTEX
  5
185A0
330
1859D
100
AcDbEntity
  8
0
100
AcDbVertex
100
AcDb2dVertex
 10
422.9250687973467
 20
209.1389158593479
 30
0.0
 42
-0.033160385
  0
VERTEX
  5
185A1
330
1859D
100
AcDbEntity
  8
0
100
AcDbVertex
100
AcDb2dVertex
 10
423.483296317346
 20
210.2629548993481
 30
0.0
 42
-0.028053995
 70
     1
  0
VERTEX
  5
185A2
330
1859D
100
AcDbEntity
  8
0
100
AcDbVertex
100
AcDb2dVertex
 10
424.2020943973455
 20
211.3640297793481
 30
0.0
 42
-0.032661048
  0
VERTEX
  5
185A3
330
1859D
100
AcDbEntity
  8
0
100
AcDbVertex
100
AcDb2dVertex
 10
425.0559654373452
 20
212.3323251393481
 30
0.0
 42
-0.036559123
 70
     1
  0
VERTEX
  5
185A4
330
1859D
100
AcDbEntity
  8
0
100
AcDbVertex
100
AcDb2dVertex
 10
425.9732876773467
 20
213.1024361793479
 30
0.0
 42
-0.040951773
  0
VERTEX
  5
185A5
330
1859D
100
AcDbEntity
  8
0
100
AcDbVertex
100
AcDb2dVertex
 10
426.8816819173453
 20
213.6141632193477
 30
0.0
 42
-0.048397489
 70
     1
  0
VERTEX
  5
185A6
330
1859D
100
AcDbEntity
  8
0
100
AcDbVertex
100
AcDb2dVertex
 10
427.7184323173464
 20
213.8890016193476
 30
0.0
 42
-0.052069497
  0
VERTEX
  5
185A7
330
1859D
100
AcDbEntity
  8
0
100
AcDbVertex
100
AcDb2dVertex
 10
428.4337868773445
 20
213.9404451393482
 30
0.0
 42
-0.070570638
 70
     1
  0
VERTEX
  5
185A8
330
1859D
100
AcDbEntity
  8
0
100
AcDbVertex
100
AcDb2dVertex
 10
429.0616460773462
 20
213.7897952193478
 30
0.0
 42
-0.081024317
  0
VERTEX
  5
185A9
330
1859D
100
AcDbEntity
  8
0
100
AcDbVertex
100
AcDb2dVertex
 10
429.6291308773458
 20
213.4329392193478
 30
0.0
 42
-0.080067357
 70
     1
  0
VERTEX
  5
185AA
330
1859D
100
AcDbEntity
  8
0
100
AcDbVertex
100
AcDb2dVertex
 10
430.0963167973455
 20
212.8542790593481
 30
0.0
 42
-0.085878399
  0
VERTEX
  5
185AB
330
1859D
100
AcDbEntity
  8
0
100
AcDbVertex
100
AcDb2dVertex
 10
430.4022995173446
 20
212.0276921793479
 30
0.0
 42
-0.069642995
 70
     1
  0
VERTEX
  5
185AC
330
1859D
100
AcDbEntity
  8
0
100
AcDbVertex
100
AcDb2dVertex
 10
430.5153740773453
 20
211.0093011393477
 30
0.0
 42
-0.05645095
  0
VERTEX
  5
185AD
330
1859D
100
AcDbEntity
  8
0
100
AcDbVertex
100
AcDb2dVertex
 10
430.4024627173459
 20
209.8601331393477
 30
0.0
 42
-0.04446044
 70
     1
  0
VERTEX
  5
185AE
330
1859D
100
AcDbEntity
  8
0
100
AcDbVertex
100
AcDb2dVertex
 10
430.0963167973455
 20
208.6804371393478
 30
0.0
 42
-0.036516602
  0
VERTEX
  5
185AF
330
1859D
100
AcDbEntity
  8
0
100
AcDbVertex
100
AcDb2dVertex
 10
429.6286095973463
 20
207.5636000193477
 30
0.0
 42
-0.032298113
 70
     1
  0
VERTEX
  5
185B0
330
1859D
100
AcDbEntity
  8
0
100
AcDbVertex
100
AcDb2dVertex
 10
429.0616460773462
 20
206.5501865793481
 30
0.0
 42
-0.025785028
  0
VERTEX
  5
185B1
330
1859D
100
AcDbEntity
  8
0
100
AcDbVertex
100
AcDb2dVertex
 10
428.4358115173449
 20
205.6693702593478
 30
0.0
 42
-0.029193958
 70
     1
  0
VERTEX
  5
185B2
330
1859D
100
AcDbEntity
  8
0
100
AcDbVertex
100
AcDb2dVertex
 10
427.7184323173464
 20
204.8999705793478
 30
0.0
 42
-0.037216415
  0
VERTEX
  5
185B3
330
1859D
100
AcDbEntity
  8
0
100
AcDbVertex
100
AcDb2dVertex
 10
426.8737023973455
 20
204.229072659348
 30
0.0
 42
-0.033256245
 70
     1
  0
VERTEX
  5
185B4
330
1859D
100
AcDbEntity
  8
0
100
AcDbVertex
100
AcDb2dVertex
 10
425.9732876773467
 20
203.6714163393476
 30
0.0
 42
-0.027084969
  0
VERTEX
  5
185B5
330
1859D
100
AcDbEntity
  8
0
100
AcDbVertex
100
AcDb2dVertex
 10
425.0874534373456
 20
203.3015523393482
 30
0.0
 42
-0.066030715
 70
     1
  0
VERTEX
  5
185B6
330
1859D
100
AcDbEntity
  8
0
100
AcDbVertex
100
AcDb2dVertex
 10
424.2020943973455
 20
203.3646252993476
 30
0.0
 42
-0.16756621
  0
VERTEX
  5
185B7
330
1859D
100
AcDbEntity
  8
0
100
AcDbVertex
100
AcDb2dVertex
 10
423.2907769573453
 20
204.1229772993476
 30
0.0
 42
-0.10983333
 70
     1
  0
VERTEX
  5
185B8
330
1859D
100
AcDbEntity
  8
0
100
AcDbVertex
100
AcDb2dVertex
 10
422.3581110373455
 20
205.5158662593476
 30
0.0
 42
-0.047616368
  0
SEQEND
  5
185B9
330
1859D
100
AcDbEntity
  8
0
  0
POLYLINE
  5
185BA
330
1F
100
AcDbEntity
  8
0
100
AcDb2dPolyline
 66
     1
 10
0.0
 20
0.0
 30
0.0
 70
     2
  0
VERTEX
  5
185BB
330
185BA
100
AcDbEntity
  8
0
100
AcDbVertex
100
AcDb2dVertex
 10
422.8923366373456
 20
202.4538041793475
 30
0.0
  0
VERTEX
  5
185BC
330
185BA
100
AcDbEntity
  8
0
100
AcDbVertex
100
AcDb2dVertex
 10
422.9669478373467
 20
202.492243539348
 30
0.0
 42
-0.027925478
 70
     1
  0
VERTEX
  5
185BD
330
185BA
100
AcDbEntity
  8
0
100
AcDbVertex
100
AcDb2dVertex
 10
423.0418268773452
 20
202.5208688193477
 30
0.0
 42
-0.027952345
  0
VERTEX
  5
185BE
330
185BA
100
AcDbEntity
  8
0
100
AcDbVertex
100
AcDb2dVertex
 10
423.1171743973459
 20
202.5396771393479
 30
0.0
 42
-0.032859138
 70
     1
  0
VERTEX
  5
185BF
330
185BA
100
AcDbEntity
  8
0
100
AcDbVertex
100
AcDb2dVertex
 10
423.1916684773453
 20
202.546302099348
 30
0.0
 42
-0.046855786
  0
VERTEX
  5
185C0
330
185BA
100
AcDbEntity
  8
0
100
AcDbVertex
100
AcDb2dVertex
 10
423.2632527973453
 20
202.5383859393481
 30
0.0
 42
-0.044040676
 70
     1
  0
VERTEX
  5
185C1
330
185BA
100
AcDbEntity
  8
0
100
AcDbVertex
100
AcDb2dVertex
 10
423.3286758373457
 20
202.5223414593481
 30
0.0
 42
-0.022497469
  0
VERTEX
  5
185C2
330
185BA
100
AcDbEntity
  8
0
100
AcDbVertex
100
AcDb2dVertex
 10
423.3856364773465
 20
202.4999974593479
 30
0.0
 42
-0.062935273
 70
     1
  0
VERTEX
  5
185C3
330
185BA
100
AcDbEntity
  8
0
100
AcDbVertex
100
AcDb2dVertex
 10
423.4403641573455
 20
202.448922579348
 30
0.0
 42
-0.1051524
  0
VERTEX
  5
185C4
330
185BA
100
AcDbEntity
  8
0
100
AcDbVertex
100
AcDb2dVertex
 10
423.4991065573452
 20
202.3445081793481
 30
0.0
 42
-0.047385296
 70
     1
  0
VERTEX
  5
185C5
330
185BA
100
AcDbEntity
  8
0
100
AcDbVertex
100
AcDb2dVertex
 10
423.5608460773462
 20
202.1920428993475
 30
0.0
 42
-0.022743095
  0
SEQEND
  5
185C6
330
185BA
100
AcDbEntity
  8
0
  0
POLYLINE
  5
185C7
330
1F
100
AcDbEntity
  8
0
100
AcDb2dPolyline
 66
     1
 10
0.0
 20
0.0
 30
0.0
 70
     2
  0
VERTEX
  5
185C8
330
185C7
100
AcDbEntity
  8
0
100
AcDbVertex
100
AcDb2dVertex
 10
429.2561497573458
 20
205.4802281793479
 30
0.0
  0
VERTEX
  5
185C9
330
185C7
100
AcDbEntity
  8
0
100
AcDbVertex
100
AcDb2dVertex
 10
429.2730611173459
 20
205.574031699348
 30
0.0
 42
-0.021652279
 70
     1
  0
VERTEX
  5
185CA
330
185C7
100
AcDbEntity
  8
0
100
AcDbVertex
100
AcDb2dVertex
 10
429.2985203173456
 20
205.6713430593477
 30
0.0
 42
-0.017756077
  0
VERTEX
  5
185CB
330
185C7
100
AcDbEntity
  8
0
100
AcDbVertex
100
AcDb2dVertex
 10
429.332664637347
 20
205.7724502593478
 30
0.0
 42
-0.01740344
 70
     1
  0
VERTEX
  5
185CC
330
185C7
100
AcDbEntity
  8
0
100
AcDbVertex
100
AcDb2dVertex
 10
429.3766316773467
 20
205.8762281793478
 30
0.0
 42
-0.020633033
  0
VERTEX
  5
185CD
330
185C7
100
AcDbEntity
  8
0
100
AcDbVertex
100
AcDb2dVertex
 10
429.4310627173453
 20
205.9805052993481
 30
0.0
 42
-0.016508577
 70
     1
  0
VERTEX
  5
185CE
330
185C7
100
AcDbEntity
  8
0
100
AcDbVertex
100
AcDb2dVertex
 10
429.4883209573463
 20
206.0786144193476
 30
0.0
 42
-0.0079094378
  0
VERTEX
  5
185CF
330
185C7
100
AcDbEntity
  8
0
100
AcDbVertex
100
AcDb2dVertex
 10
429.5453171173456
 20
206.1667040193478
 30
0.0
 42
-0.02140359
 70
     1
  0
VERTEX
  5
185D0
330
185C7
100
AcDbEntity
  8
0
100
AcDbVertex
100
AcDb2dVertex
 10
429.6253283173466
 20
206.260777299348
 30
0.0
 42
-0.038437698
  0
VERTEX
  5
185D1
330
185C7
100
AcDbEntity
  8
0
100
AcDbVertex
100
AcDb2dVertex
 10
429.7535055973461
 20
206.3775584193481
 30
0.0
 42
-0.022510349
 70
     1
  0
VERTEX
  5
185D2
330
185C7
100
AcDbEntity
  8
0
100
AcDbVertex
100
AcDb2dVertex
 10
429.9246591973449
 20
206.513917779348
 30
0.0
 42
-0.012826776
  0
SEQEND
  5
185D3
330
185C7
100
AcDbEntity
  8
0
  0
POLYLINE
  5
185D4
330
1F
100
AcDbEntity
  8
0
100
AcDb2dPolyline
 66
     1
 10
0.0
 20
0.0
 30
0.0
 70
     2
  0
VERTEX
  5
185D5
330
185D4
100
AcDbEntity
  8
0
100
AcDbVertex
100
AcDb2dVertex
 10
429.9246591973449
 20
225.012464019348
 30
0.0
  0
VERTEX
  5
185D6
330
185D4
100
AcDbEntity
  8
0
100
AcDbVertex
100
AcDb2dVertex
 10
429.8500479973453
 20
224.9740236993482
 30
0.0
 42
-0.027925478
 70
     1
  0
VERTEX
  5
185D7
330
185D4
100
AcDbEntity
  8
0
100
AcDbVertex
100
AcDb2dVertex
 10
429.7751699173455
 20
224.9453984193478
 30
0.0
 42
-0.027952345
  0
VERTEX
  5
185D8
330
185D4
100
AcDbEntity
  8
0
100
AcDbVertex
100
AcDb2dVertex
 10
429.6998223973448
 20
224.9265910593476
 30
0.0
 42
-0.032859138
 70
     1
  0
VERTEX
  5
185D9
330
185D4
100
AcDbEntity
  8
0
100
AcDbVertex
100
AcDb2dVertex
 10
429.6253283173466
 20
224.9199660993483
 30
0.0
 42
-0.046855786
  0
VERTEX
  5
185DA
330
185D4
100
AcDbEntity
  8
0
100
AcDbVertex
100
AcDb2dVertex
 10
429.5537430373467
 20
224.9278822593481
 30
0.0
 42
-0.044040676
 70
     1
  0
VERTEX
  5
185DB
330
185D4
100
AcDbEntity
  8
0
100
AcDbVertex
100
AcDb2dVertex
 10
429.4883209573463
 20
224.9439267393481
 30
0.0
 42
-0.022497469
  0
VERTEX
  5
185DC
330
185D4
100
AcDbEntity
  8
0
100
AcDbVertex
100
AcDb2dVertex
 10
429.4313593573455
 20
224.9662707393476
 30
0.0
 42
-0.062935273
 70
     1
  0
VERTEX
  5
185DD
330
185D4
100
AcDbEntity
  8
0
100
AcDbVertex
100
AcDb2dVertex
 10
429.3766316773467
 20
225.0173446593482
 30
0.0
 42
-0.1051524
  0
VERTEX
  5
185DE
330
185D4
100
AcDbEntity
  8
0
100
AcDbVertex
100
AcDb2dVertex
 10
429.3178892773455
 20
225.1217600193482
 30
0.0
 42
-0.047385296
 70
     1
  0
VERTEX
  5
185DF
330
185D4
100
AcDbEntity
  8
0
100
AcDbVertex
100
AcDb2dVertex
 10
429.2561497573458
 20
225.274224339348
 30
0.0
 42
-0.022743095
  0
SEQEND
  5
185E0
330
185D4
100
AcDbEntity
  8
0
  0
POLYLINE
  5
185E1
330
1F
100
AcDbEntity
  8
0
100
AcDb2dPolyline
 66
     1
 10
0.0
 20
0.0
 30
0.0
 70
     2
  0
VERTEX
  5
185E2
330
185E1
100
AcDbEntity
  8
0
100
AcDbVertex
100
AcDb2dVertex
 10
416.8320294373446
 20
219.3738300993481
 30
0.0
  0
VERTEX
  5
185E3
330
185E1
100
AcDbEntity
  8
0
100
AcDbVertex
100
AcDb2dVertex
 10
416.6758182373459
 20
219.4667571393478
 30
0.0
 42
-0.0000033768
 70
     1
  0
VERTEX
  5
185E4
330
185E1
100
AcDbEntity
  8
0
100
AcDbVertex
100
AcDb2dVertex
 10
416.5200495973458
 20
219.5594249793477
 30
0.0
 42
-0.0000030874
  0
VERTEX
  5
185E5
330
185E1
100
AcDbEntity
  8
0
100
AcDbVertex
100
AcDb2dVertex
 10
416.3652399973457
 20
219.6515244993479
 30
0.0
 42
-0.0000033894
 70
     1
  0
VERTEX
  5
185E6
330
185E1
100
AcDbEntity
  8
0
100
AcDbVertex
100
AcDb2dVertex
 10
416.2079411173452
 20
219.7451072193482
 30
0.0
 42
-0.0000040577
  0
VERTEX
  5
185E7
330
185E1
100
AcDbEntity
  8
0
100
AcDbVertex
100
AcDb2dVertex
 10
416.0469145573451
 20
219.8409123393477
 30
0.0
 42
-0.0000030816
 70
     1
  0
VERTEX
  5
185E8
330
185E1
100
AcDbEntity
  8
0
100
AcDbVertex
100
AcDb2dVertex
 10
415.8957059173445
 20
219.9308777793481
 30
0.0
 42
-0.000001056
  0
VERTEX
  5
185E9
330
185E1
100
AcDbEntity
  8
0
100
AcDbVertex
100
AcDb2dVertex
 10
415.7589913573461
 20
220.0122204993476
 30
0.0
 42
-0.0000043419
 70
     1
  0
VERTEX
  5
185EA
330
185E1
100
AcDbEntity
  8
0
100
AcDbVertex
100
AcDb2dVertex
 10
415.5833439973453
 20
220.1167337793481
 30
0.0
 42
-0.0000074692
  0
VERTEX
  5
185EB
330
185E1
100
AcDbEntity
  8
0
100
AcDbVertex
100
AcDb2dVertex
 10
415.3127142373453
 20
220.2777718593479
 30
0.0
 42
-0.0000036498
 70
     1
  0
VERTEX
  5
185EC
330
185E1
100
AcDbEntity
  8
0
100
AcDbVertex
100
AcDb2dVertex
 10
414.9582467173455
 20
220.4887030593479
 30
0.0
 42
-0.0000019333
  0
SEQEND
  5
185ED
330
185E1
100
AcDbEntity
  8
0
  0
POLYLINE
  5
185EE
330
1F
100
AcDbEntity
  8
0
100
AcDb2dPolyline
 66
     1
 10
0.0
 20
0.0
 30
0.0
 70
     2
  0
VERTEX
  5
185EF
330
185EE
100
AcDbEntity
  8
0
100
AcDbVertex
100
AcDb2dVertex
 10
422.1264745573463
 20
216.2182409793476
 30
0.0
  0
VERTEX
  5
185F0
330
185EE
100
AcDbEntity
  8
0
100
AcDbVertex
100
AcDb2dVertex
 10
422.5114191973459
 20
216.3698163393481
 30
0.0
 42
0.023866881
 70
     1
  0
VERTEX
  5
185F1
330
185EE
100
AcDbEntity
  8
0
100
AcDbVertex
100
AcDb2dVertex
 10
422.8899951973459
 20
216.561592659348
 30
0.0
 42
0.023593879
  0
VERTEX
  5
185F2
330
185EE
100
AcDbEntity
  8
0
100
AcDbVertex
100
AcDb2dVertex
 10
423.2627219173456
 20
216.7961888193476
 30
0.0
 42
0.021268986
 70
     1
  0
VERTEX
  5
185F3
330
185EE
100
AcDbEntity
  8
0
100
AcDbVertex
100
AcDb2dVertex
 10
423.6244748773456
 20
217.0654044993479
 30
0.0
 42
0.018573912
  0
VERTEX
  5
185F4
330
185EE
100
AcDbEntity
  8
0
100
AcDbVertex
100
AcDb2dVertex
 10
423.9683679973455
 20
217.3623296193476
 30
0.0
 42
0.016743547
 70
     1
  0
VERTEX
  5
185F5
330
185EE
100
AcDbEntity
  8
0
100
AcDbVertex
100
AcDb2dVertex
 10
424.2913379173459
 20
217.6783337793476
 30
0.0
 42
0.01498027
  0
VERTEX
  5
185F6
330
185EE
100
AcDbEntity
  8
0
100
AcDbVertex
100
AcDb2dVertex
 10
424.5900524773455
 20
218.0075676993477
 30
0.0
 42
0.014088904
 70
     1
  0
VERTEX
  5
185F7
330
185EE
100
AcDbEntity
  8
0
100
AcDbVertex
100
AcDb2dVertex
 10
424.8671526373462
 20
218.3479088193478
 30
0.0
 42
0.013036933
  0
VERTEX
  5
185F8
330
185EE
100
AcDbEntity
  8
0
100
AcDbVertex
100
AcDb2dVertex
 10
425.1251199973466
 20
218.7008230593481
 30
0.0
 42
0.01251091
 70
     1
  0
VERTEX
  5
185F9
330
185EE
100
AcDbEntity
  8
0
100
AcDbVertex
100
AcDb2dVertex
 10
425.3710940773463
 20
219.0737004993479
 30
0.0
 42
0.011723486
  0
VERTEX
  5
185FA
330
185EE
100
AcDbEntity
  8
0
100
AcDbVertex
100
AcDb2dVertex
 10
425.6095273573454
 20
219.4765308993479
 30
0.0
 42
0.012890882
 70
     1
  0
VERTEX
  5
185FB
330
185EE
100
AcDbEntity
  8
0
100
AcDbVertex
100
AcDb2dVertex
 10
425.8349439973458
 20
219.9141238593478
 30
0.0
 42
0.016819519
  0
VERTEX
  5
185FC
330
185EE
100
AcDbEntity
  8
0
100
AcDbVertex
100
AcDb2dVertex
 10
426.039391357345
 20
220.384660179348
 30
0.0
 42
0.013179572
 70
     1
  0
VERTEX
  5
185FD
330
185EE
100
AcDbEntity
  8
0
100
AcDbVertex
100
AcDb2dVertex
 10
426.2209820773461
 20
220.8447555393479
 30
0.0
 42
0.0043393826
  0
VERTEX
  5
185FE
330
185EE
100
AcDbEntity
  8
0
100
AcDbVertex
100
AcDb2dVertex
 10
426.3748643173452
 20
221.2766460993476
 30
0.0
 42
0.020184813
 70
     1
  0
VERTEX
  5
185FF
330
185EE
100
AcDbEntity
  8
0
100
AcDbVertex
100
AcDb2dVertex
 10
426.4893222373455
 20
221.8198899393475
 30
0.0
 42
0.040565178
  0
VERTEX
  5
18600
330
185EE
100
AcDbEntity
  8
0
100
AcDbVertex
100
AcDb2dVertex
 10
426.5503782373455
 20
222.6227657793478
 30
0.0
 42
0.022689219
 70
     1
  0
VERTEX
  5
18601
330
185EE
100
AcDbEntity
  8
0
100
AcDbVertex
100
AcDb2dVertex
 10
426.5618300773446
 20
223.6555049793478
 30
0.0
 42
0.012167678
  0
SEQEND
  5
18602
330
185EE
100
AcDbEntity
  8
0
  0
POLYLINE
  5
18603
330
1F
100
AcDbEntity
  8
0
100
AcDb2dPolyline
 66
     1
 10
0.0
 20
0.0
 30
0.0
 70
     2
  0
VERTEX
  5
18604
330
18603
100
AcDbEntity
  8
0
100
AcDbVertex
100
AcDb2dVertex
 10
427.4278700773469
 20
224.0104169793481
 30
0.0
  0
VERTEX
  5
18605
330
18603
100
AcDbEntity
  8
0
100
AcDbVertex
100
AcDb2dVertex
 10
427.7908796773462
 20
223.9703494593482
 30
0.0
 42
-0.05197425
 70
     1
  0
VERTEX
  5
18606
330
18603
100
AcDbEntity
  8
0
100
AcDbVertex
100
AcDb2dVertex
 10
428.1342639973455
 20
223.8589865793477
 30
0.0
 42
-0.050470626
  0
VERTEX
  5
18607
330
18603
100
AcDbEntity
  8
0
100
AcDbVertex
100
AcDb2dVertex
 10
428.4587238373449
 20
223.6744467393477
 30
0.0
 42
-0.050292668
 70
     1
  0
VERTEX
  5
18608
330
18603
100
AcDbEntity
  8
0
100
AcDbVertex
100
AcDb2dVertex
 10
428.7546793573459
 20
223.4123024193479
 30
0.0
 42
-0.054707234
  0
VERTEX
  5
18609
330
18603
100
AcDbEntity
  8
0
100
AcDbVertex
100
AcDb2dVertex
 10
429.0076316773465
 20
223.0618918593481
 30
0.0
 42
-0.051625443
 70
     1
  0
VERTEX
  5
1860A
330
18603
100
AcDbEntity
  8
0
100
AcDbVertex
100
AcDb2dVertex
 10
429.207098557347
 20
222.6288454593476
 30
0.0
 42
-0.046908817
  0
VERTEX
  5
1860B
330
18603
100
AcDbEntity
  8
0
100
AcDbVertex
100
AcDb2dVertex
 10
429.3392435173457
 20
222.1156217793479
 30
0.0
 42
-0.040346787
 70
     1
  0
VERTEX
  5
1860C
330
18603
100
AcDbEntity
  8
0
100
AcDbVertex
100
AcDb2dVertex
 10
429.3997561573468
 20
221.5379571393477
 30
0.0
 42
-0.035151267
  0
VERTEX
  5
1860D
330
18603
100
AcDbEntity
  8
0
100
AcDbVertex
100
AcDb2dVertex
 10
429.3809036773465
 20
220.9089660993475
 30
0.0
 42
-0.030130308
 70
     1
  0
VERTEX
  5
1860E
330
18603
100
AcDbEntity
  8
0
100
AcDbVertex
100
AcDb2dVertex
 10
429.2881820773454
 20
220.2509177793475
 30
0.0
 42
-0.026228574
  0
VERTEX
  5
1860F
330
18603
100
AcDbEntity
  8
0
100
AcDbVertex
100
AcDb2dVertex
 10
429.1234748773461
 20
219.5842457793482
 30
0.0
 42
-0.023531914
 70
     1
  0
VERTEX
  5
18610
330
18603
100
AcDbEntity
  8
0
100
AcDbVertex
100
AcDb2dVertex
 10
428.8985334373466
 20
218.9275260993479
 30
0.0
 42
-0.021334302
  0
VERTEX
  5
18611
330
18603
100
AcDbEntity
  8
0
100
AcDbVertex
100
AcDb2dVertex
 10
428.622337597346
 20
218.2994163393475
 30
0.0
 42
-0.019517401
 70
     1
  0
VERTEX
  5
18612
330
18603
100
AcDbEntity
  8
0
100
AcDbVertex
100
AcDb2dVertex
 10
428.3135910373451
 20
217.7155846593475
 30
0.0
 42
-0.017383532
  0
VERTEX
  5
18613
330
18603
100
AcDbEntity
  8
0
100
AcDbVertex
100
AcDb2dVertex
 10
427.9851068773462
 20
217.1892972993478
 30
0.0
 42
-0.017875447
 70
     1
  0
VERTEX
  5
18614
330
18603
100
AcDbEntity
  8
0
100
AcDbVertex
100
AcDb2dVertex
 10
427.6316502373456
 20
216.7033212993479
 30
0.0
 42
-0.01770125
  0
VERTEX
  5
18615
330
18603
100
AcDbEntity
  8
0
100
AcDbVertex
100
AcDb2dVertex
 10
427.2427302373467
 20
216.2417984193478
 30
0.0
 42
-0.017561341
 70
     1
  0
VERTEX
  5
18616
330
18603
100
AcDbEntity
  8
0
100
AcDbVertex
100
AcDb2dVertex
 10
426.8163231973458
 20
215.8042131393481
 30
0.0
 42
-0.019095567
  0
VERTEX
  5
18617
330
18603
100
AcDbEntity
  8
0
100
AcDbVertex
100
AcDb2dVertex
 10
426.3496902373455
 20
215.3996316993481
 30
0.0
 42
-0.022817071
 70
     1
  0
VERTEX
  5
18618
330
18603
100
AcDbEntity
  8
0
100
AcDbVertex
100
AcDb2dVertex
 10
425.8481459173471
 20
215.0505161793476
 30
0.0
 42
-0.031529334
  0
VERTEX
  5
18619
330
18603
100
AcDbEntity
  8
0
100
AcDbVertex
100
AcDb2dVertex
 10
425.3215359973468
 20
214.7802819393477
 30
0.0
 42
-0.030005413
 70
     1
  0
VERTEX
  5
1861A
330
18603
100
AcDbEntity
  8
0
100
AcDbVertex
100
AcDb2dVertex
 10
424.8094431973449
 20
214.5740240193477
 30
0.0
 42
-0.01649437
  0
VERTEX
  5
1861B
330
18603
100
AcDbEntity
  8
0
100
AcDbVertex
100
AcDb2dVertex
 10
424.3360047973453
 20
214.4375734593482
 30
0.0
 42
-0.049661345
 70
     1
  0
VERTEX
  5
1861C
330
18603
100
AcDbEntity
  8
0
100
AcDbVertex
100
AcDb2dVertex
 10
423.8215273573452
 20
214.4708825793477
 30
0.0
 42
-0.11318459
  0
VERTEX
  5
1861D
330
18603
100
AcDbEntity
  8
0
100
AcDbVertex
100
AcDb2dVertex
 10
423.1808003173453
 20
214.784795859348
 30
0.0
 42
-0.06886679
 70
     1
  0
VERTEX
  5
1861E
330
18603
100
AcDbEntity
  8
0
100
AcDbVertex
100
AcDb2dVertex
 10
422.430142717345
 20
215.3540988993477
 30
0.0
 42
-0.035325167
  0
SEQEND
  5
1861F
330
18603
100
AcDbEntity
  8
0
  0
POLYLINE
  5
18620
330
1F
100
AcDbEntity
  8
0
100
AcDb2dPolyline
 66
     1
 10
0.0
 20
0.0
 30
0.0
 70
     2
  0
VERTEX
  5
18621
330
18620
100
AcDbEntity
  8
0
100
AcDbVertex
100
AcDb2dVertex
 10
410.6632652773458
 20
212.685660819348
 30
0.0
  0
VERTEX
  5
18622
330
18620
100
AcDbEntity
  8
0
100
AcDbVertex
100
AcDb2dVertex
 10
410.6484678373448
 20
212.6806601793479
 30
0.0
 42
-0.0011098971
 70
     1
  0
VERTEX
  5
18623
330
18620
100
AcDbEntity
  8
0
100
AcDbVertex
100
AcDb2dVertex
 10
410.6337327973461
 20
212.6757488193481
 30
0.0
 42
-0.0010220453
  0
VERTEX
  5
18624
330
18620
100
AcDbEntity
  8
0
100
AcDbVertex
100
AcDb2dVertex
 10
410.6191100773457
 20
212.6709449793477
 30
0.0
 42
-0.001126952
 70
     1
  0
VERTEX
  5
18625
330
18620
100
AcDbEntity
  8
0
100
AcDbVertex
100
AcDb2dVertex
 10
410.6042771173462
 20
212.6661526593478
 30
0.0
 42
-0.0013535654
  0
VERTEX
  5
18626
330
18620
100
AcDbEntity
  8
0
100
AcDbVertex
100
AcDb2dVertex
 10
410.5891206373453
 20
212.6613430593479
 30
0.0
 42
-0.00103497
 70
     1
  0
VERTEX
  5
18627
330
18620
100
AcDbEntity
  8
0
100
AcDbVertex
100
AcDb2dVertex
 10
410.5749020773461
 20
212.6568723393476
 30
0.0
 42
-0.0003592251
  0
VERTEX
  5
18628
330
18620
100
AcDbEntity
  8
0
100
AcDbVertex
100
AcDb2dVertex
 10
410.5620563173459
 20
212.652870099348
 30
0.0
 42
-0.001462832
 70
     1
  0
VERTEX
  5
18629
330
18620
100
AcDbEntity
  8
0
100
AcDbVertex
100
AcDb2dVertex
 10
410.5456076773459
 20
212.6479078593478
 30
0.0
 42
-0.0025381811
  0
VERTEX
  5
1862A
330
18620
100
AcDbEntity
  8
0
100
AcDbVertex
100
AcDb2dVertex
 10
410.5203356773456
 20
212.6404956993483
 30
0.0
 42
-0.0012527826
 70
     1
  0
VERTEX
  5
1862B
330
18620
100
AcDbEntity
  8
0
100
AcDbVertex
100
AcDb2dVertex
 10
410.4872780773447
 20
212.6309273793482
 30
0.0
 42
-0.0006672309
  0
SEQEND
  5
1862C
330
18620
100
AcDbEntity
  8
0
  0
POLYLINE
  5
1862D
330
1F
100
AcDbEntity
  8
0
100
AcDb2dPolyline
 66
     1
 10
0.0
 20
0.0
 30
0.0
 70
     2
  0
VERTEX
  5
1862E
330
1862D
100
AcDbEntity
  8
0
100
AcDbVertex
100
AcDb2dVertex
 10
416.8320294373446
 20
209.1839523393482
 30
0.0
  0
VERTEX
  5
1862F
330
1862D
100
AcDbEntity
  8
0
100
AcDbVertex
100
AcDb2dVertex
 10
416.6758182373459
 20
209.2768803393478
 30
0.0
 42
-0.0000033768
 70
     1
  0
VERTEX
  5
18630
330
1862D
100
AcDbEntity
  8
0
100
AcDbVertex
100
AcDb2dVertex
 10
416.5200495973458
 20
209.3695472193477
 30
0.0
 42
-0.0000030874
  0
VERTEX
  5
18631
330
1862D
100
AcDbEntity
  8
0
100
AcDbVertex
100
AcDb2dVertex
 10
416.3652399973457
 20
209.4616467393479
 30
0.0
 42
-0.0000033894
 70
     1
  0
VERTEX
  5
18632
330
1862D
100
AcDbEntity
  8
0
100
AcDbVertex
100
AcDb2dVertex
 10
416.2079411173452
 20
209.5552304193475
 30
0.0
 42
-0.0000040577
  0
VERTEX
  5
18633
330
1862D
100
AcDbEntity
  8
0
100
AcDbVertex
100
AcDb2dVertex
 10
416.0469145573451
 20
209.6510345793478
 30
0.0
 42
-0.0000030816
 70
     1
  0
VERTEX
  5
18634
330
1862D
100
AcDbEntity
  8
0
100
AcDbVertex
100
AcDb2dVertex
 10
415.8957059173445
 20
209.7410000193482
 30
0.0
 42
-0.000001056
  0
VERTEX
  5
18635
330
1862D
100
AcDbEntity
  8
0
100
AcDbVertex
100
AcDb2dVertex
 10
415.7589913573461
 20
209.8223427393477
 30
0.0
 42
-0.0000043419
 70
     1
  0
VERTEX
  5
18636
330
1862D
100
AcDbEntity
  8
0
100
AcDbVertex
100
AcDb2dVertex
 10
415.5833439973453
 20
209.9268560193482
 30
0.0
 42
-0.0000074692
  0
VERTEX
  5
18637
330
1862D
100
AcDbEntity
  8
0
100
AcDbVertex
100
AcDb2dVertex
 10
415.3127142373453
 20
210.0878940993479
 30
0.0
 42
-0.0000036498
 70
     1
  0
VERTEX
  5
18638
330
1862D
100
AcDbEntity
  8
0
100
AcDbVertex
100
AcDb2dVertex
 10
414.9582467173455
 20
210.298825299348
 30
0.0
 42
-0.0000019333
  0
SEQEND
  5
18639
330
1862D
100
AcDbEntity
  8
0
  0
POLYLINE
  5
1863A
330
1F
100
AcDbEntity
  8
0
100
AcDb2dPolyline
 66
     1
 10
0.0
 20
0.0
 30
0.0
 70
     2
  0
VERTEX
  5
1863B
330
1863A
100
AcDbEntity
  8
0
100
AcDbVertex
100
AcDb2dVertex
 10
427.4278700773469
 20
213.8205392193481
 30
0.0
  0
VERTEX
  5
1863C
330
1863A
100
AcDbEntity
  8
0
100
AcDbVertex
100
AcDb2dVertex
 10
427.7908796773462
 20
213.7804726593476
 30
0.0
 42
-0.05197425
 70
     1
  0
VERTEX
  5
1863D
330
1863A
100
AcDbEntity
  8
0
100
AcDbVertex
100
AcDb2dVertex
 10
428.1342639973455
 20
213.6691097793478
 30
0.0
 42
-0.050470626
  0
VERTEX
  5
1863E
330
1863A
100
AcDbEntity
  8
0
100
AcDbVertex
100
AcDb2dVertex
 10
428.4587238373449
 20
213.4845689793477
 30
0.0
 42
-0.050292668
 70
     1
  0
VERTEX
  5
1863F
330
1863A
100
AcDbEntity
  8
0
100
AcDbVertex
100
AcDb2dVertex
 10
428.7546793573459
 20
213.222425619348
 30
0.0
 42
-0.054707234
  0
VERTEX
  5
18640
330
1863A
100
AcDbEntity
  8
0
100
AcDbVertex
100
AcDb2dVertex
 10
429.0076316773465
 20
212.8720140993482
 30
0.0
 42
-0.051625443
 70
     1
  0
VERTEX
  5
18641
330
1863A
100
AcDbEntity
  8
0
100
AcDbVertex
100
AcDb2dVertex
 10
429.207098557347
 20
212.4389676993476
 30
0.0
 42
-0.046908817
  0
VERTEX
  5
18642
330
1863A
100
AcDbEntity
  8
0
100
AcDbVertex
100
AcDb2dVertex
 10
429.3392435173457
 20
211.925744019348
 30
0.0
 42
-0.040346787
 70
     1
  0
VERTEX
  5
18643
330
1863A
100
AcDbEntity
  8
0
100
AcDbVertex
100
AcDb2dVertex
 10
429.3997561573468
 20
211.3480793793478
 30
0.0
 42
-0.035151267
  0
VERTEX
  5
18644
330
1863A
100
AcDbEntity
  8
0
100
AcDbVertex
100
AcDb2dVertex
 10
429.3809036773465
 20
210.7190883393475
 30
0.0
 42
-0.030130308
 70
     1
  0
VERTEX
  5
18645
330
1863A
100
AcDbEntity
  8
0
100
AcDbVertex
100
AcDb2dVertex
 10
429.2881820773454
 20
210.0610409793476
 30
0.0
 42
-0.026228574
  0
VERTEX
  5
18646
330
1863A
100
AcDbEntity
  8
0
100
AcDbVertex
100
AcDb2dVertex
 10
429.1234748773461
 20
209.3943689793482
 30
0.0
 42
-0.023531914
 70
     1
  0
VERTEX
  5
18647
330
1863A
100
AcDbEntity
  8
0
100
AcDbVertex
100
AcDb2dVertex
 10
428.8985334373466
 20
208.737648339348
 30
0.0
 42
-0.021334302
  0
VERTEX
  5
18648
330
1863A
100
AcDbEntity
  8
0
100
AcDbVertex
100
AcDb2dVertex
 10
428.622337597346
 20
208.1095395393476
 30
0.0
 42
-0.019517401
 70
     1
  0
VERTEX
  5
18649
330
1863A
100
AcDbEntity
  8
0
100
AcDbVertex
100
AcDb2dVertex
 10
428.3135910373451
 20
207.5257068993476
 30
0.0
 42
-0.017383532
  0
VERTEX
  5
1864A
330
1863A
100
AcDbEntity
  8
0
100
AcDbVertex
100
AcDb2dVertex
 10
427.9851068773462
 20
206.9994204993479
 30
0.0
 42
-0.017875447
 70
     1
  0
VERTEX
  5
1864B
330
1863A
100
AcDbEntity
  8
0
100
AcDbVertex
100
AcDb2dVertex
 10
427.6316502373456
 20
206.5134435393479
 30
0.0
 42
-0.01770125
  0
VERTEX
  5
1864C
330
1863A
100
AcDbEntity
  8
0
100
AcDbVertex
100
AcDb2dVertex
 10
427.2427302373467
 20
206.0519216193479
 30
0.0
 42
-0.017561341
 70
     1
  0
VERTEX
  5
1864D
330
1863A
100
AcDbEntity
  8
0
100
AcDbVertex
100
AcDb2dVertex
 10
426.8163231973458
 20
205.6143353793482
 30
0.0
 42
-0.019095567
  0
VERTEX
  5
1864E
330
1863A
100
AcDbEntity
  8
0
100
AcDbVertex
100
AcDb2dVertex
 10
426.3496902373455
 20
205.2097548993475
 30
0.0
 42
-0.022817071
 70
     1
  0
VERTEX
  5
1864F
330
1863A
100
AcDbEntity
  8
0
100
AcDbVertex
100
AcDb2dVertex
 10
425.8481459173471
 20
204.8606393793477
 30
0.0
 42
-0.031529334
  0
VERTEX
  5
18650
330
1863A
100
AcDbEntity
  8
0
100
AcDbVertex
100
AcDb2dVertex
 10
425.3215359973468
 20
204.5904051393477
 30
0.0
 42
-0.030005413
 70
     1
  0
VERTEX
  5
18651
330
1863A
100
AcDbEntity
  8
0
100
AcDbVertex
100
AcDb2dVertex
 10
424.8094431973449
 20
204.3841462593478
 30
0.0
 42
-0.01649437
  0
VERTEX
  5
18652
330
1863A
100
AcDbEntity
  8
0
100
AcDbVertex
100
AcDb2dVertex
 10
424.3360047973453
 20
204.2476956993476
 30
0.0
 42
-0.049661345
 70
     1
  0
VERTEX
  5
18653
330
1863A
100
AcDbEntity
  8
0
100
AcDbVertex
100
AcDb2dVertex
 10
423.8215273573452
 20
204.2810057793478
 30
0.0
 42
-0.11318459
  0
VERTEX
  5
18654
330
1863A
100
AcDbEntity
  8
0
100
AcDbVertex
100
AcDb2dVertex
 10
423.1808003173453
 20
204.5949190593481
 30
0.0
 42
-0.06886679
 70
     1
  0
VERTEX
  5
18655
330
1863A
100
AcDbEntity
  8
0
100
AcDbVertex
100
AcDb2dVertex
 10
422.430142717345
 20
205.1642211393478
 30
0.0
 42
-0.035325167
  0
SEQEND
  5
18656
330
1863A
100
AcDbEntity
  8
0
  0
POLYLINE
  5
18657
330
1F
100
AcDbEntity
  8
0
100
AcDb2dPolyline
 66
     1
 10
0.0
 20
0.0
 30
0.0
 70
     2
  0
VERTEX
  5
18658
330
18657
100
AcDbEntity
  8
0
100
AcDbVertex
100
AcDb2dVertex
 10
422.1264745573463
 20
206.0283641793478
 30
0.0
  0
VERTEX
  5
18659
330
18657
100
AcDbEntity
  8
0
100
AcDbVertex
100
AcDb2dVertex
 10
422.5114191973459
 20
206.1799395393481
 30
0.0
 42
0.023866881
 70
     1
  0
VERTEX
  5
1865A
330
18657
100
AcDbEntity
  8
0
100
AcDbVertex
100
AcDb2dVertex
 10
422.8899951973459
 20
206.371714899348
 30
0.0
 42
0.023593879
  0
VERTEX
  5
1865B
330
18657
100
AcDbEntity
  8
0
100
AcDbVertex
100
AcDb2dVertex
 10
423.2627219173456
 20
206.6063110593477
 30
0.0
 42
0.021268986
 70
     1
  0
VERTEX
  5
1865C
330
18657
100
AcDbEntity
  8
0
100
AcDbVertex
100
AcDb2dVertex
 10
423.6244748773456
 20
206.875526739348
 30
0.0
 42
0.018573912
  0
VERTEX
  5
1865D
330
18657
100
AcDbEntity
  8
0
100
AcDbVertex
100
AcDb2dVertex
 10
423.9683679973455
 20
207.1724528193477
 30
0.0
 42
0.016743547
 70
     1
  0
VERTEX
  5
1865E
330
18657
100
AcDbEntity
  8
0
100
AcDbVertex
100
AcDb2dVertex
 10
424.2913379173459
 20
207.4884569793477
 30
0.0
 42
0.01498027
  0
VERTEX
  5
1865F
330
18657
100
AcDbEntity
  8
0
100
AcDbVertex
100
AcDb2dVertex
 10
424.5900524773455
 20
207.8176908993478
 30
0.0
 42
0.014088904
 70
     1
  0
VERTEX
  5
18660
330
18657
100
AcDbEntity
  8
0
100
AcDbVertex
100
AcDb2dVertex
 10
424.8671526373462
 20
208.1580310593479
 30
0.0
 42
0.013036933
  0
VERTEX
  5
18661
330
18657
100
AcDbEntity
  8
0
100
AcDbVertex
100
AcDb2dVertex
 10
425.1251199973466
 20
208.5109462593481
 30
0.0
 42
0.01251091
 70
     1
  0
VERTEX
  5
18662
330
18657
100
AcDbEntity
  8
0
100
AcDbVertex
100
AcDb2dVertex
 10
425.3710940773463
 20
208.883823699348
 30
0.0
 42
0.011723486
  0
VERTEX
  5
18663
330
18657
100
AcDbEntity
  8
0
100
AcDbVertex
100
AcDb2dVertex
 10
425.6095273573454
 20
209.2866531393479
 30
0.0
 42
0.012890882
 70
     1
  0
VERTEX
  5
18664
330
18657
100
AcDbEntity
  8
0
100
AcDbVertex
100
AcDb2dVertex
 10
425.8349439973458
 20
209.7242470593478
 30
0.0
 42
0.016819519
  0
VERTEX
  5
18665
330
18657
100
AcDbEntity
  8
0
100
AcDbVertex
100
AcDb2dVertex
 10
426.039391357345
 20
210.1947833793481
 30
0.0
 42
0.013179572
 70
     1
  0
VERTEX
  5
18666
330
18657
100
AcDbEntity
  8
0
100
AcDbVertex
100
AcDb2dVertex
 10
426.2209820773461
 20
210.6548787393479
 30
0.0
 42
0.0043393826
  0
VERTEX
  5
18667
330
18657
100
AcDbEntity
  8
0
100
AcDbVertex
100
AcDb2dVertex
 10
426.3748643173452
 20
211.0867692993477
 30
0.0
 42
0.020184813
 70
     1
  0
VERTEX
  5
18668
330
18657
100
AcDbEntity
  8
0
100
AcDbVertex
100
AcDb2dVertex
 10
426.4893222373455
 20
211.6300121793476
 30
0.0
 42
0.040565178
  0
VERTEX
  5
18669
330
18657
100
AcDbEntity
  8
0
100
AcDbVertex
100
AcDb2dVertex
 10
426.5503782373455
 20
212.4328880193479
 30
0.0
 42
0.022689219
 70
     1
  0
VERTEX
  5
1866A
330
18657
100
AcDbEntity
  8
0
100
AcDbVertex
100
AcDb2dVertex
 10
426.5618300773446
 20
213.4656272193478
 30
0.0
 42
0.012167678
  0
SEQEND
  5
1866B
330
18657
100
AcDbEntity
  8
0
  0
POLYLINE
  5
1866C
330
1F
100
AcDbEntity
  8
0
100
AcDb2dPolyline
 66
     1
 10
0.0
 20
0.0
 30
0.0
 70
     2
  0
VERTEX
  5
1866D
330
1866C
100
AcDbEntity
  8
0
100
AcDbVertex
100
AcDb2dVertex
 10
418.9135139173457
 20
203.0890841793476
 30
0.0
  0
VERTEX
  5
1866E
330
1866C
100
AcDbEntity
  8
0
100
AcDbVertex
100
AcDb2dVertex
 10
418.9132422373464
 20
203.0432144193476
 30
0.0
 42
-0.015037191
 70
     1
  0
VERTEX
  5
1866F
330
1866C
100
AcDbEntity
  8
0
100
AcDbVertex
100
AcDb2dVertex
 10
418.9103958373463
 20
202.9986425793478
 30
0.0
 42
-0.01432541
  0
VERTEX
  5
18670
330
1866C
100
AcDbEntity
  8
0
100
AcDbVertex
100
AcDb2dVertex
 10
418.9049622373461
 20
202.9554320193481
 30
0.0
 42
-0.016566347
 70
     1
  0
VERTEX
  5
18671
330
1866C
100
AcDbEntity
  8
0
100
AcDbVertex
100
AcDb2dVertex
 10
418.8963971173459
 20
202.9134608193479
 30
0.0
 42
-0.022087275
  0
VERTEX
  5
18672
330
1866C
100
AcDbEntity
  8
0
100
AcDbVertex
100
AcDb2dVertex
 10
418.884319357345
 20
202.8730908993475
 30
0.0
 42
-0.018784035
 70
     1
  0
VERTEX
  5
18673
330
1866C
100
AcDbEntity
  8
0
100
AcDbVertex
100
AcDb2dVertex
 10
418.8712172773458
 20
202.8362873793481
 30
0.0
 42
-0.0073756879
  0
VERTEX
  5
18674
330
1866C
100
AcDbEntity
  8
0
100
AcDbVertex
100
AcDb2dVertex
 10
418.8578483173459
 20
202.8040332993481
 30
0.0
 42
-0.028603263
 70
     1
  0
VERTEX
  5
18675
330
1866C
100
AcDbEntity
  8
0
100
AcDbVertex
100
AcDb2dVertex
 10
418.8351740773456
 20
202.769596179348
 30
0.0
 42
-0.056727344
  0
VERTEX
  5
18676
330
1866C
100
AcDbEntity
  8
0
100
AcDbVertex
100
AcDb2dVertex
 10
418.7934812773463
 20
202.7260812993477
 30
0.0
 42
-0.030903112
 70
     1
  0
VERTEX
  5
18677
330
1866C
100
AcDbEntity
  8
0
100
AcDbVertex
100
AcDb2dVertex
 10
418.734787837347
 20
202.6747721793483
 30
0.0
 42
-0.016707897
  0
SEQEND
  5
18678
330
1866C
100
AcDbEntity
  8
0
  0
POLYLINE
  5
18679
330
1F
100
AcDbEntity
  8
0
100
AcDb2dPolyline
 66
     1
 10
0.0
 20
0.0
 30
0.0
 70
     2
  0
VERTEX
  5
1867A
330
18679
100
AcDbEntity
  8
0
100
AcDbVertex
100
AcDb2dVertex
 10
425.4112307173456
 20
229.1234201793482
 30
0.0
  0
VERTEX
  5
1867B
330
18679
100
AcDbEntity
  8
0
100
AcDbVertex
100
AcDb2dVertex
 10
425.4198687973456
 20
229.1632332993478
 30
0.0
 42
0.018736088
 70
     1
  0
VERTEX
  5
1867C
330
18679
100
AcDbEntity
  8
0
100
AcDbVertex
100
AcDb2dVertex
 10
425.4259859173451
 20
229.2054656193478
 30
0.0
 42
0.016736472
  0
VERTEX
  5
1867D
330
18679
100
AcDbEntity
  8
0
100
AcDbVertex
100
AcDb2dVertex
 10
425.4294985573458
 20
229.2502179393482
 30
0.0
 42
0.015446242
 70
     1
  0
VERTEX
  5
1867E
330
18679
100
AcDbEntity
  8
0
100
AcDbVertex
100
AcDb2dVertex
 10
425.4303673573458
 20
229.2973980993479
 30
0.0
 42
0.014966567
  0
VERTEX
  5
1867F
330
18679
100
AcDbEntity
  8
0
100
AcDbVertex
100
AcDb2dVertex
 10
425.4283139173447
 20
229.3470588993481
 30
0.0
 42
0.014105996
 70
     1
  0
VERTEX
  5
18680
330
18679
100
AcDbEntity
  8
0
100
AcDbVertex
100
AcDb2dVertex
 10
425.4233622373456
 20
229.3988028993477
 30
0.0
 42
0.013418328
  0
VERTEX
  5
18681
330
18679
100
AcDbEntity
  8
0
100
AcDbVertex
100
AcDb2dVertex
 10
425.415308797346
 20
229.4523584193481
 30
0.0
 42
0.012852217
 70
     1
  0
VERTEX
  5
18682
330
18679
100
AcDbEntity
  8
0
100
AcDbVertex
100
AcDb2dVertex
 10
425.4042054373461
 20
229.5073587393479
 30
0.0
 42
0.012542938
  0
VERTEX
  5
18683
330
18679
100
AcDbEntity
  8
0
100
AcDbVertex
100
AcDb2dVertex
 10
425.3899119973453
 20
229.5634966593479
 30
0.0
 42
0.011731147
 70
     1
  0
VERTEX
  5
18684
330
18679
100
AcDbEntity
  8
0
100
AcDbVertex
100
AcDb2dVertex
 10
425.3728172773446
 20
229.6200771393476
 30
0.0
 42
0.010735077
  0
VERTEX
  5
18685
330
18679
100
AcDbEntity
  8
0
100
AcDbVertex
100
AcDb2dVertex
 10
425.3529692773454
 20
229.676597139348
 30
0.0
 42
0.011268944
 70
     1
  0
VERTEX
  5
18686
330
18679
100
AcDbEntity
  8
0
100
AcDbVertex
100
AcDb2dVertex
 10
425.3298755173465
 20
229.7335520193478
 30
0.0
 42
0.012724113
  0
VERTEX
  5
18687
330
18679
100
AcDbEntity
  8
0
100
AcDbVertex
100
AcDb2dVertex
 10
425.3033526373455
 20
229.7908044993481
 30
0.0
 42
0.0098267882
 70
     1
  0
VERTEX
  5
18688
330
18679
100
AcDbEntity
  8
0
100
AcDbVertex
100
AcDb2dVertex
 10
425.2767759973457
 20
229.8442889793481
 30
0.0
 42
0.0042712279
  0
VERTEX
  5
18689
330
18679
100
AcDbEntity
  8
0
100
AcDbVertex
100
AcDb2dVertex
 10
425.2513609573458
 20
229.8922832193475
 30
0.0
 42
0.012790209
 70
     1
  0
VERTEX
  5
1868A
330
18679
100
AcDbEntity
  8
0
100
AcDbVertex
100
AcDb2dVertex
 10
425.2154857573459
 20
229.9490604993483
 30
0.0
 42
0.021522795
  0
VERTEX
  5
1868B
330
18679
100
AcDbEntity
  8
0
100
AcDbVertex
100
AcDb2dVertex
 10
425.1567491173463
 20
230.0295334593476
 30
0.0
 42
0.011254496
 70
     1
  0
VERTEX
  5
1868C
330
18679
100
AcDbEntity
  8
0
100
AcDbVertex
100
AcDb2dVertex
 10
425.0776777573463
 20
230.1307913793479
 30
0.0
 42
0.0062168536
  0
SEQEND
  5
1868D
330
18679
100
AcDbEntity
  8
0
  0
POLYLINE
  5
1868E
330
1F
100
AcDbEntity
  8
0
100
AcDb2dPolyline
 66
     1
 10
0.0
 20
0.0
 30
0.0
 70
     2
  0
VERTEX
  5
1868F
330
1868E
100
AcDbEntity
  8
0
100
AcDbVertex
100
AcDb2dVertex
 10
422.5638985573469
 20
231.9850400193481
 30
0.0
  0
VERTEX
  5
18690
330
1868E
100
AcDbEntity
  8
0
100
AcDbVertex
100
AcDb2dVertex
 10
422.5712991973453
 20
231.9382668993475
 30
0.0
 42
-0.029942601
 70
     1
  0
VERTEX
  5
18691
330
1868E
100
AcDbEntity
  8
0
100
AcDbVertex
100
AcDb2dVertex
 10
422.5731011173463
 20
231.8925488193479
 30
0.0
 42
-0.029244657
  0
VERTEX
  5
18692
330
1868E
100
AcDbEntity
  8
0
100
AcDbVertex
100
AcDb2dVertex
 10
422.5692860773452
 20
231.8475699393482
 30
0.0
 42
-0.033712642
 70
     1
  0
VERTEX
  5
18693
330
1868E
100
AcDbEntity
  8
0
100
AcDbVertex
100
AcDb2dVertex
 10
422.5586185573463
 20
231.805742739348
 30
0.0
 42
-0.05149424
  0
VERTEX
  5
18694
330
1868E
100
AcDbEntity
  8
0
100
AcDbVertex
100
AcDb2dVertex
 10
422.5399187173469
 20
231.769868499348
 30
0.0
 42
-0.054347836
 70
     1
  0
VERTEX
  5
18695
330
1868E
100
AcDbEntity
  8
0
100
AcDbVertex
100
AcDb2dVertex
 10
422.5170399973453
 20
231.7400777793478
 30
0.0
 42
-0.034425684
  0
VERTEX
  5
18696
330
1868E
100
AcDbEntity
  8
0
100
AcDbVertex
100
AcDb2dVertex
 10
422.4916086373452
 20
231.7175628993481
 30
0.0
 42
-0.081024089
 70
     1
  0
VERTEX
  5
18697
330
1868E
100
AcDbEntity
  8
0
100
AcDbVertex
100
AcDb2dVertex
 10
422.4527910373459
 20
231.7075894593475
 30
0.0
 42
-0.13220319
  0
VERTEX
  5
18698
330
1868E
100
AcDbEntity
  8
0
100
AcDbVertex
100
AcDb2dVertex
 10
422.3886111973459
 20
231.7161555393479
 30
0.0
 42
-0.058187763
 70
     1
  0
VERTEX
  5
18699
330
1868E
100
AcDbEntity
  8
0
100
AcDbVertex
100
AcDb2dVertex
 10
422.3016217573452
 20
231.7417827393477
 30
0.0
 42
-0.02676437
  0
SEQEND
  5
1869A
330
1868E
100
AcDbEntity
  8
0
  0
POLYLINE
  5
1869B
330
1F
100
AcDbEntity
  8
0
100
AcDb2dPolyline
 66
     1
 10
0.0
 20
0.0
 30
0.0
 70
     2
  0
VERTEX
  5
1869C
330
1869B
100
AcDbEntity
  8
0
100
AcDbVertex
100
AcDb2dVertex
 10
418.734787837347
 20
225.129840339348
 30
0.0
  0
VERTEX
  5
1869D
330
1869B
100
AcDbEntity
  8
0
100
AcDbVertex
100
AcDb2dVertex
 10
418.7756310373452
 20
225.1586528193478
 30
0.0
 42
0.039571036
 70
     1
  0
VERTEX
  5
1869E
330
1869B
100
AcDbEntity
  8
0
100
AcDbVertex
100
AcDb2dVertex
 10
418.8113670373462
 20
225.1935699393481
 30
0.0
 42
0.040898705
  0
VERTEX
  5
1869F
330
1869B
100
AcDbEntity
  8
0
100
AcDbVertex
100
AcDb2dVertex
 10
418.8418182373463
 20
225.2349900993478
 30
0.0
 42
0.037789333
 70
     1
  0
VERTEX
  5
186A0
330
1869B
100
AcDbEntity
  8
0
100
AcDbVertex
100
AcDb2dVertex
 10
418.8669548773447
 20
225.2816537793481
 30
0.0
 42
0.033484918
  0
VERTEX
  5
186A1
330
1869B
100
AcDbEntity
  8
0
100
AcDbVertex
100
AcDb2dVertex
 10
418.8863507173469
 20
225.3325952193477
 30
0.0
 42
0.02990815
 70
     1
  0
VERTEX
  5
186A2
330
1869B
100
AcDbEntity
  8
0
100
AcDbVertex
100
AcDb2dVertex
 10
418.900512637346
 20
225.3870569793482
 30
0.0
 42
0.025685548
  0
VERTEX
  5
186A3
330
1869B
100
AcDbEntity
  8
0
100
AcDbVertex
100
AcDb2dVertex
 10
418.9095318373463
 20
225.444958419348
 30
0.0
 42
0.023543911
 70
     1
  0
VERTEX
  5
186A4
330
1869B
100
AcDbEntity
  8
0
100
AcDbVertex
100
AcDb2dVertex
 10
418.9135206373462
 20
225.5071145793477
 30
0.0
 42
0.022127531
  0
VERTEX
  5
186A5
330
1869B
100
AcDbEntity
  8
0
100
AcDbVertex
100
AcDb2dVertex
 10
418.9121065573456
 20
225.574532499348
 30
0.0
 42
0.019309465
 70
     1
  0
VERTEX
  5
186A6
330
1869B
100
AcDbEntity
  8
0
100
AcDbVertex
100
AcDb2dVertex
 10
418.9054412773471
 20
225.6459411393476
 30
0.0
 42
0.017541989
  0
VERTEX
  5
186A7
330
1869B
100
AcDbEntity
  8
0
100
AcDbVertex
100
AcDb2dVertex
 10
418.8930716773461
 20
225.7203113793479
 30
0.0
 42
0.017938774
 70
     1
  0
VERTEX
  5
186A8
330
1869B
100
AcDbEntity
  8
0
100
AcDbVertex
100
AcDb2dVertex
 10
418.8741855973446
 20
225.7978601793478
 30
0.0
 42
0.019484898
  0
VERTEX
  5
186A9
330
1869B
100
AcDbEntity
  8
0
100
AcDbVertex
100
AcDb2dVertex
 10
418.8482991973456
 20
225.878109459348
 30
0.0
 42
0.014562141
 70
     1
  0
VERTEX
  5
186AA
330
1869B
100
AcDbEntity
  8
0
100
AcDbVertex
100
AcDb2dVertex
 10
418.8201126373455
 20
225.9546800193474
 30
0.0
 42
0.0065381446
  0
VERTEX
  5
186AB
330
1869B
100
AcDbEntity
  8
0
100
AcDbVertex
100
AcDb2dVertex
 10
418.7912703973455
 20
226.0245872193478
 30
0.0
 42
0.018329748
 70
     1
  0
VERTEX
  5
186AC
330
1869B
100
AcDbEntity
  8
0
100
AcDbVertex
100
AcDb2dVertex
 10
418.7462636773455
 20
226.1072614593478
 30
0.0
 42
0.029946179
  0
VERTEX
  5
186AD
330
1869B
100
AcDbEntity
  8
0
100
AcDbVertex
100
AcDb2dVertex
 10
418.6683385573453
 20
226.2231987393479
 30
0.0
 42
0.015658466
 70
     1
  0
VERTEX
  5
186AE
330
1869B
100
AcDbEntity
  8
0
100
AcDbVertex
100
AcDb2dVertex
 10
418.5609817573459
 20
226.3683747393482
 30
0.0
 42
0.0085549968
  0
SEQEND
  5
186AF
330
1869B
100
AcDbEntity
  8
0
  0
LINE
  5
186B0
330
1F
100
AcDbEntity
  8
Cen
 48
10.0
100
AcDbLine
 10
498.1560960908391
 20
297.0727246589465
 30
0.0
 11
532.5159260908397
 21
297.0727246589465
 31
0.0
  0
DIMENSION
  5
186B1
330
1F
100
AcDbEntity
  8
DIM
370
     0
100
AcDbDimension
  2
*D2
 10
502.3750660908389
 20
320.4268746589466
 30
0.0
 11
515.9750660908396
 21
320.4268746589466
 31
0.0
 70
   160
 71
     5
 42
27.19999999999988
  3
01
100
AcDbAlignedDimension
 13
529.5750660908391
 23
302.5727246589465
 33
0.0
 14
502.3750660908389
 24
312.2227246589466
 34
0.0
100
AcDbRotatedDimension
  0
DIMENSION
  5
186B2
330
1F
100
AcDbEntity
  8
DIM
370
     0
100
AcDbDimension
  2
*D3
 10
480.599703126121
 20
320.2794096589467
 30
0.0
 11
473.2997031261215
 21
320.2794096589467
 31
0.0
 70
   160
 71
     5
 42
14.60000000000036
  3
01
100
AcDbAlignedDimension
 13
465.9997031261205
 23
304.5727246589465
 33
0.0
 14
480.599703126121
 24
308.8727246589464
 34
0.0
100
AcDbRotatedDimension
  0
DIMENSION
  5
186B3
330
1F
100
AcDbEntity
  8
DIM
370
     0
100
AcDbDimension
  2
*D4
 10
457.9564046261218
 20
279.9727226589463
 30
0.0
 11
457.9564046261218
 21
297.0727246589465
 31
0.0
 70
   160
 71
     5
 42
34.20000200000004
  3
01
100
AcDbAlignedDimension
 13
470.7997031261217
 23
314.1727246589464
 33
0.0
 14
469.7997031261215
 24
279.9727226589463
 34
0.0
 50
90.0
100
AcDbRotatedDimension
  0
LINE
  5
186B4
330
1F
100
AcDbEntity
  8
Cen
 48
10.0
100
AcDbLine
 10
473.2997031261215
 20
277.5018721589465
 30
0.0
 11
473.2997031261215
 21
315.7126896589463
 31
0.0
  0
LINE
  5
186B5
330
1F
100
AcDbEntity
  8
Cen
 48
10.0
100
AcDbLine
 10
464.2992486261205
 20
297.0727246589465
 30
0.0
 11
482.2655806261206
 21
297.0727246589465
 31
0.0
  0
LINE
  5
186B6
330
1F
100
AcDbEntity
  8
Cen
 48
10.0
100
AcDbLine
 10
465.9997031261205
 20
303.5727246589465
 30
0.0
 11
480.599703126121
 21
303.5727246589465
 31
0.0
  0
LINE
  5
186B7
330
1F
100
AcDbEntity
  8
Cen
 48
10.0
100
AcDbLine
 10
465.9997031261205
 20
290.5727246589465
 30
0.0
 11
480.599703126121
 21
290.5727246589465
 31
0.0
  0
LINE
  5
186B8
330
1F
100
AcDbEntity
  8
0
100
AcDbLine
 10
469.7997031261198
 20
314.1727246589464
 30
0.0
 11
476.7997031261198
 21
314.1727246589464
 31
0.0
  0
LINE
  5
186B9
330
1F
100
AcDbEntity
  8
0
100
AcDbLine
 10
480.599703126121
 20
313.4727256589469
 30
0.0
 11
478.0997031261209
 21
313.4727256589469
 31
0.0
  0
LINE
  5
186BA
330
1F
100
AcDbEntity
  8
0
100
AcDbLine
 10
465.9997031261205
 20
313.4727256589469
 30
0.0
 11
468.4997031261207
 21
313.4727256589469
 31
0.0
  0
LINE
  5
186BB
330
1F
100
AcDbEntity
  8
0
100
AcDbLine
 10
478.0997031261209
 20
312.2227246589466
 30
0.0
 11
468.4997031261207
 21
312.2227246589466
 31
0.0
  0
LINE
  5
186BC
330
1F
100
AcDbEntity
  8
0
100
AcDbLine
 10
480.599703126121
 20
312.2122156589469
 30
0.0
 11
478.0997031261209
 21
312.2122156589469
 31
0.0
  0
LINE
  5
186BD
330
1F
100
AcDbEntity
  8
0
100
AcDbLine
 10
465.9997031261205
 20
312.2122156589469
 30
0.0
 11
468.4997031261207
 21
312.2122156589469
 31
0.0
  0
LINE
  5
186BE
330
1F
100
AcDbEntity
  8
0
100
AcDbLine
 10
477.2260301261209
 20
311.2227246589466
 30
0.0
 11
469.3733761261206
 21
311.2227246589466
 31
0.0
  0
LINE
  5
186BF
330
1F
100
AcDbEntity
  8
0
100
AcDbLine
 10
480.599703126121
 20
310.4996956589468
 30
0.0
 11
478.0997031261209
 21
310.4996956589468
 31
0.0
  0
LINE
  5
186C0
330
1F
100
AcDbEntity
  8
0
100
AcDbLine
 10
465.9997031261205
 20
310.4996956589468
 30
0.0
 11
468.4997031261207
 21
310.4996956589468
 31
0.0
  0
LINE
  5
186C1
330
1F
100
AcDbEntity
  8
0
100
AcDbLine
 10
480.599703126121
 20
309.5227256589462
 30
0.0
 11
478.0997031261209
 21
309.5227256589462
 31
0.0
  0
LINE
  5
186C2
330
1F
100
AcDbEntity
  8
0
100
AcDbLine
 10
465.9997031261205
 20
309.5227256589462
 30
0.0
 11
468.4997031261207
 21
309.5227256589462
 31
0.0
  0
LINE
  5
186C3
330
1F
100
AcDbEntity
  8
0
100
AcDbLine
 10
465.9997031261205
 20
308.8727246589462
 30
0.0
 11
468.1199081261198
 21
308.8727246589462
 31
0.0
  0
LINE
  5
186C4
330
1F
100
AcDbEntity
  8
0
100
AcDbLine
 10
478.4794981261198
 20
308.8727246589462
 30
0.0
 11
480.599703126121
 21
308.8727246589462
 31
0.0
  0
LINE
  5
186C5
330
1F
100
AcDbEntity
  8
0
100
AcDbLine
 10
465.9997031261205
 20
304.5727256589464
 30
0.0
 11
468.2997031261198
 21
304.5727256589464
 31
0.0
  0
LINE
  5
186C6
330
1F
100
AcDbEntity
  8
0
100
AcDbLine
 10
467.4997031261206
 20
304.4088679810467
 30
0.0
 11
467.8130498342203
 21
304.4088679810467
 31
0.0
  0
LINE
  5
186C7
330
1F
100
AcDbEntity
  8
0
100
AcDbLine
 10
465.9997031261205
 20
304.3227256589464
 30
0.0
 11
467.4997031261206
 21
304.3227256589464
 31
0.0
  0
LINE
  5
186C8
330
1F
100
AcDbEntity
  8
0
100
AcDbLine
 10
465.9997031261205
 20
313.4727256589469
 30
0.0
 11
465.9997031261205
 21
280.672723658946
 31
0.0
  0
LINE
  5
186C9
330
1F
100
AcDbEntity
  8
0
100
AcDbLine
 10
465.9997031261205
 20
302.8227256589464
 30
0.0
 11
467.4997031261206
 21
302.8227256589464
 31
0.0
  0
LINE
  5
186CA
330
1F
100
AcDbEntity
  8
0
100
AcDbLine
 10
467.4997031261206
 20
302.7365833368469
 30
0.0
 11
467.8130495294205
 21
302.7365833368469
 31
0.0
  0
LINE
  5
186CB
330
1F
100
AcDbEntity
  8
0
100
AcDbLine
 10
465.9997031261205
 20
302.5727256589464
 30
0.0
 11
468.2997031261198
 21
302.5727256589464
 31
0.0
  0
LINE
  5
186CC
330
1F
100
AcDbEntity
  8
0
100
AcDbLine
 10
469.5497037137207
 20
281.9227226589466
 30
0.0
 11
469.1047130103203
 21
284.4463816578464
 31
0.0
  0
LINE
  5
186CD
330
1F
100
AcDbEntity
  8
0
100
AcDbLine
 10
466.9997031261206
 20
308.8727246589462
 30
0.0
 11
466.9997031261206
 21
304.5727256589464
 31
0.0
  0
LINE
  5
186CE
330
1F
100
AcDbEntity
  8
0
100
AcDbLine
 10
466.9997031261206
 20
302.5727256589464
 30
0.0
 11
466.9997031261206
 21
291.5727256589463
 31
0.0
  0
LINE
  5
186CF
330
1F
100
AcDbEntity
  8
0
100
AcDbLine
 10
466.9997031261206
 20
289.5727256589463
 30
0.0
 11
466.9997031261206
 21
285.2727246589467
 31
0.0
  0
LINE
  5
186D0
330
1F
100
AcDbEntity
  8
0
100
AcDbLine
 10
467.4997031261206
 20
304.4088679810467
 30
0.0
 11
467.4997031261206
 21
302.7365833368469
 31
0.0
  0
LINE
  5
186D1
330
1F
100
AcDbEntity
  8
0
100
AcDbLine
 10
467.4997031261206
 20
291.4088679810467
 30
0.0
 11
467.4997031261206
 21
289.7365833368469
 31
0.0
  0
LINE
  5
186D2
330
1F
100
AcDbEntity
  8
0
100
AcDbLine
 10
469.1047149351204
 20
309.6990735761466
 30
0.0
 11
469.5497033666201
 21
312.2227246589466
 31
0.0
  0
LINE
  5
186D3
330
1F
100
AcDbEntity
  8
0
100
AcDbLine
 10
468.2997031261198
 20
304.5727256589464
 30
0.0
 11
468.2997031261198
 21
302.5727256589464
 31
0.0
  0
LINE
  5
186D4
330
1F
100
AcDbEntity
  8
0
100
AcDbLine
 10
468.2997031261198
 20
291.5727256589463
 30
0.0
 11
468.2997031261198
 21
289.5727256589463
 31
0.0
  0
LINE
  5
186D5
330
1F
100
AcDbEntity
  8
0
100
AcDbLine
 10
468.4997031261207
 20
309.5227256589462
 30
0.0
 11
468.4997031261207
 21
313.4727256589469
 31
0.0
  0
LINE
  5
186D6
330
1F
100
AcDbEntity
  8
0
100
AcDbLine
 10
468.4997031261207
 20
284.6227236589468
 30
0.0
 11
468.4997031261207
 21
280.672723658946
 31
0.0
  0
LINE
  5
186D7
330
1F
100
AcDbEntity
  8
0
100
AcDbLine
 10
468.7997031261198
 20
281.9227226589466
 30
0.0
 11
468.7997031261198
 21
279.9727226589468
 31
0.0
  0
LINE
  5
186D8
330
1F
100
AcDbEntity
  8
0
100
AcDbLine
 10
469.7997031261198
 20
314.1727246589464
 30
0.0
 11
469.7997031261198
 21
312.2227246589466
 31
0.0
  0
LINE
  5
186D9
330
1F
100
AcDbEntity
  8
0
100
AcDbLine
 10
469.7997031261198
 20
281.9227226589466
 30
0.0
 11
469.7997031261198
 21
279.9727226589468
 31
0.0
  0
LINE
  5
186DA
330
1F
100
AcDbEntity
  8
0
100
AcDbLine
 10
470.7997031261198
 20
314.1727246589464
 30
0.0
 11
470.7997031261198
 21
312.2227246589466
 31
0.0
  0
LINE
  5
186DB
330
1F
100
AcDbEntity
  8
0
100
AcDbLine
 10
475.7997031261198
 20
312.2227246589466
 30
0.0
 11
475.7997031261198
 21
314.1727246589464
 31
0.0
  0
LINE
  5
186DC
330
1F
100
AcDbEntity
  8
0
100
AcDbLine
 10
476.7997031261198
 20
279.9727226589468
 30
0.0
 11
476.7997031261198
 21
281.9227226589466
 31
0.0
  0
LINE
  5
186DD
330
1F
100
AcDbEntity
  8
0
100
AcDbLine
 10
476.7997031261198
 20
312.2227246589466
 30
0.0
 11
476.7997031261198
 21
314.1727246589464
 31
0.0
  0
LINE
  5
186DE
330
1F
100
AcDbEntity
  8
0
100
AcDbLine
 10
477.7997031261198
 20
279.9727226589468
 30
0.0
 11
477.7997031261198
 21
281.9227226589466
 31
0.0
  0
LINE
  5
186DF
330
1F
100
AcDbEntity
  8
0
100
AcDbLine
 10
465.9997031261205
 20
291.5727256589463
 30
0.0
 11
468.2997031261198
 21
291.5727256589463
 31
0.0
  0
LINE
  5
186E0
330
1F
100
AcDbEntity
  8
0
100
AcDbLine
 10
467.4997031261206
 20
291.4088679810467
 30
0.0
 11
467.8130498342203
 21
291.4088679810467
 31
0.0
  0
LINE
  5
186E1
330
1F
100
AcDbEntity
  8
0
100
AcDbLine
 10
465.9997031261205
 20
291.3227256589463
 30
0.0
 11
467.4997031261206
 21
291.3227256589463
 31
0.0
  0
LINE
  5
186E2
330
1F
100
AcDbEntity
  8
0
100
AcDbLine
 10
478.0997031261209
 20
309.5227256589462
 30
0.0
 11
478.0997031261209
 21
313.4727256589469
 31
0.0
  0
LINE
  5
186E3
330
1F
100
AcDbEntity
  8
0
100
AcDbLine
 10
478.0997031261209
 20
284.6227236589468
 30
0.0
 11
478.0997031261209
 21
280.672723658946
 31
0.0
  0
LINE
  5
186E4
330
1F
100
AcDbEntity
  8
0
100
AcDbLine
 10
465.9997031261205
 20
289.8227256589464
 30
0.0
 11
467.4997031261206
 21
289.8227256589464
 31
0.0
  0
LINE
  5
186E5
330
1F
100
AcDbEntity
  8
0
100
AcDbLine
 10
467.4997031261206
 20
289.7365833368469
 30
0.0
 11
467.8130495294205
 21
289.7365833368469
 31
0.0
  0
LINE
  5
186E6
330
1F
100
AcDbEntity
  8
0
100
AcDbLine
 10
465.9997031261205
 20
289.5727256589463
 30
0.0
 11
468.2997031261198
 21
289.5727256589463
 31
0.0
  0
LINE
  5
186E7
330
1F
100
AcDbEntity
  8
0
100
AcDbLine
 10
477.0497035419208
 20
312.2227246589466
 30
0.0
 11
477.4946891303203
 21
309.6990803059463
 31
0.0
  0
LINE
  5
186E8
330
1F
100
AcDbEntity
  8
0
100
AcDbLine
 10
479.5997031261209
 20
285.2727246589467
 30
0.0
 11
479.5997031261209
 21
308.8727246589462
 31
0.0
  0
LINE
  5
186E9
330
1F
100
AcDbEntity
  8
0
100
AcDbLine
 10
480.599703126121
 20
313.4727256589469
 30
0.0
 11
480.599703126121
 21
280.672723658946
 31
0.0
  0
LINE
  5
186EA
330
1F
100
AcDbEntity
  8
0
100
AcDbLine
 10
477.4946910582199
 20
284.4463749452463
 30
0.0
 11
477.0497031947201
 21
281.9227226589466
 31
0.0
  0
LINE
  5
186EB
330
1F
100
AcDbEntity
  8
0
100
AcDbLine
 10
480.599703126121
 20
285.2727246589467
 30
0.0
 11
478.4794981435203
 21
285.2727246589467
 31
0.0
  0
LINE
  5
186EC
330
1F
100
AcDbEntity
  8
0
100
AcDbLine
 10
465.9997031261205
 20
285.2727246589467
 30
0.0
 11
468.1199081435202
 21
285.2727246589467
 31
0.0
  0
LINE
  5
186ED
330
1F
100
AcDbEntity
  8
0
100
AcDbLine
 10
480.599703126121
 20
284.6227236589468
 30
0.0
 11
478.0997031261209
 21
284.6227236589468
 31
0.0
  0
LINE
  5
186EE
330
1F
100
AcDbEntity
  8
0
100
AcDbLine
 10
465.9997031261205
 20
284.6227236589468
 30
0.0
 11
468.4997031261207
 21
284.6227236589468
 31
0.0
  0
LINE
  5
186EF
330
1F
100
AcDbEntity
  8
0
100
AcDbLine
 10
480.599703126121
 20
283.6457536589461
 30
0.0
 11
478.0997031261209
 21
283.6457536589461
 31
0.0
  0
LINE
  5
186F0
330
1F
100
AcDbEntity
  8
0
100
AcDbLine
 10
465.9997031261205
 20
283.6457536589461
 30
0.0
 11
468.4997031261207
 21
283.6457536589461
 31
0.0
  0
LINE
  5
186F1
330
1F
100
AcDbEntity
  8
0
100
AcDbLine
 10
469.3733761261206
 20
282.9227226589466
 30
0.0
 11
477.2260301261209
 21
282.9227226589466
 31
0.0
  0
LINE
  5
186F2
330
1F
100
AcDbEntity
  8
0
100
AcDbLine
 10
480.599703126121
 20
281.9332336589461
 30
0.0
 11
478.0997031261209
 21
281.9332336589461
 31
0.0
  0
LINE
  5
186F3
330
1F
100
AcDbEntity
  8
0
100
AcDbLine
 10
465.9997031261205
 20
281.9332336589461
 30
0.0
 11
468.4997031261207
 21
281.9332336589461
 31
0.0
  0
LINE
  5
186F4
330
1F
100
AcDbEntity
  8
0
100
AcDbLine
 10
468.4997031261207
 20
281.9227226589466
 30
0.0
 11
478.0997031261209
 21
281.9227226589466
 31
0.0
  0
LINE
  5
186F5
330
1F
100
AcDbEntity
  8
0
100
AcDbLine
 10
480.599703126121
 20
280.672723658946
 30
0.0
 11
478.0997031261209
 21
280.672723658946
 31
0.0
  0
LINE
  5
186F6
330
1F
100
AcDbEntity
  8
0
100
AcDbLine
 10
465.9997031261205
 20
280.672723658946
 30
0.0
 11
468.4997031261207
 21
280.672723658946
 31
0.0
  0
LINE
  5
186F7
330
1F
100
AcDbEntity
  8
0
100
AcDbLine
 10
477.7997031261198
 20
279.9727226589468
 30
0.0
 11
468.7997031261198
 21
279.9727226589468
 31
0.0
  0
ARC
  5
186F8
330
1F
100
AcDbEntity
  8
0
100
AcDbCircle
 10
473.2997031261198
 20
303.5727246589469
 30
0.0
 40
6.2499749808
100
AcDbArc
 50
189.206924110879
 51
170.7930573151158
  0
ARC
  5
186F9
330
1F
100
AcDbEntity
  8
0
100
AcDbCircle
 10
473.2997031261198
 20
290.5727246589469
 30
0.0
 40
6.2499749808
100
AcDbArc
 50
189.206924110879
 51
170.7930573151158
  0
ARC
  5
186FA
330
1F
100
AcDbEntity
  8
0
100
AcDbCircle
 10
473.2997031261198
 20
303.5727246589469
 30
0.0
 40
5.75
100
AcDbArc
 50
190.0154000495757
 51
169.9845797131066
  0
ARC
  5
186FB
330
1F
100
AcDbEntity
  8
0
100
AcDbCircle
 10
473.2997031261198
 20
290.5727246589469
 30
0.0
 40
5.75
100
AcDbArc
 50
190.0154000495757
 51
169.9845797131066
  0
ARC
  5
186FC
330
1F
100
AcDbEntity
  8
0
100
AcDbCircle
 10
473.2997031261198
 20
290.5727246589469
 30
0.0
 40
5.549999999999998
100
AcDbArc
 50
169.6590404442821
 51
171.3350290411028
  0
ARC
  5
186FD
330
1F
100
AcDbEntity
  8
0
100
AcDbCircle
 10
473.2997031261198
 20
290.5727246589469
 30
0.0
 40
5.549999999999998
100
AcDbArc
 50
188.6649500734099
 51
190.3409385675901
  0
ARC
  5
186FE
330
1F
100
AcDbEntity
  8
0
100
AcDbCircle
 10
473.2997031261198
 20
303.5727246589469
 30
0.0
 40
5.549999999999998
100
AcDbArc
 50
169.6590404442821
 51
171.3350290411028
  0
ARC
  5
186FF
330
1F
100
AcDbEntity
  8
0
100
AcDbCircle
 10
473.2997031261198
 20
303.5727246589469
 30
0.0
 40
5.549999999999998
100
AcDbArc
 50
188.6649500734099
 51
190.3409385675901
  0
ARC
  5
18700
330
1F
100
AcDbEntity
  8
0
100
AcDbCircle
 10
473.2997031261198
 20
303.5727246589469
 30
0.0
 40
5.299999999999998
100
AcDbArc
 50
190.8757054863992
 51
169.124272497108
  0
ARC
  5
18701
330
1F
100
AcDbEntity
  8
0
100
AcDbCircle
 10
473.2997031261198
 20
290.5727246589469
 30
0.0
 40
5.299999999999998
100
AcDbArc
 50
190.8757054863992
 51
169.124272497108
  0
CIRCLE
  5
18702
330
1F
100
AcDbEntity
  8
0
100
AcDbCircle
 10
473.2997031261198
 20
303.5727246589469
 30
0.0
 40
4.299999999999998
  0
CIRCLE
  5
18703
330
1F
100
AcDbEntity
  8
0
100
AcDbCircle
 10
473.2997031261198
 20
290.5727246589469
 30
0.0
 40
4.299999999999998
  0
ARC
  5
18704
330
1F
100
AcDbEntity
  8
0
100
AcDbCircle
 10
468.1199081261198
 20
309.8727246589462
 30
0.0
 40
1.0
100
AcDbArc
 50
270.0
 51
349.9998266835961
  0
ARC
  5
18705
330
1F
100
AcDbEntity
  8
0
100
AcDbCircle
 10
478.4794981261198
 20
309.8727246589462
 30
0.0
 40
1.0
100
AcDbArc
 50
189.9997718301859
 51
270.0
  0
ARC
  5
18706
330
1F
100
AcDbEntity
  8
0
100
AcDbCircle
 10
478.4794981261198
 20
284.2727246589467
 30
0.0
 40
1.0
100
AcDbArc
 50
89.99999900000508
 51
169.9998742059211
  0
ARC
  5
18707
330
1F
100
AcDbEntity
  8
0
100
AcDbCircle
 10
468.1199081261198
 20
284.2727246589467
 30
0.0
 40
1.0
100
AcDbArc
 50
10.00052628488515
 51
89.99999900000508
  0
MTEXT
  5
18708
330
1F
100
AcDbEntity
  8
打标文字
100
AcDbMText
 10
478.8359350696715
 20
308.6535271294762
 30
0.0
 40
2.5
 41
12.37818607289227
 71
     1
 72
     5
  1
1
  7
数字
 73
     1
 44
1.0
1001
ACAD
1000
MTEXTBEGIN
1070
    73
1070
     1
1070
    44
1040
1.0
1070
    74
1070
     0
1000
MTEXTEND
  0
MTEXT
  5
18709
330
1F
100
AcDbEntity
  8
打标文字
100
AcDbMText
 10
478.1315455613363
 20
298.4319047190658
 30
0.0
 40
2.5
 41
12.37818607289227
 71
     1
 72
     5
  1
2
  7
数字
 73
     1
 44
1.0
1001
ACAD
1000
MTEXTBEGIN
1070
    73
1070
     1
1070
    44
1040
1.0
1070
    74
1070
     0
1000
MTEXTEND
  0
ENDSEC
  0
SECTION
  2
OBJECTS
  0
DICTIONARY
  5
C
330
0
100
AcDbDictionary
281
     1
  3
ACAD_COLOR
350
4FFE
  3
ACAD_GROUP
350
D
  3
ACAD_LAYOUT
350
1A
  3
ACAD_MATERIAL
350
4FE5
  3
ACAD_MLEADERSTYLE
350
5022
  3
ACAD_MLINESTYLE
350
17
  3
ACAD_PLOTSETTINGS
350
19
  3
ACAD_PLOTSTYLENAME
350
E
  3
ACAD_RENDER_PLOT_SETTINGS
350
6537
  3
ACAD_SCALELIST
350
5000
  3
ACAD_TABLESTYLE
350
4FE3
  3
ACAD_VISUALSTYLE
350
2A
  3
ACDB_RECOMPOSE_DATA
350
50EC
  3
AcDbVariableDictionary
350
5108
  3
ASE_INDEX_DICTIONARY
350
11ACE
  3
DWGPROPS
350
18989
  0
DICTIONARY
  5
50EE
330
8
100
AcDbDictionary
280
     1
281
     1
  0
DICTIONARY
  5
50B8
330
2
100
AcDbDictionary
280
     1
281
     1
  3
ACAD_LAYERFILTERS
360
138AC
  3
ACAD_LAYERSTATES
360
50B9
  3
ACLYDICTIONARY
360
138AB
  0
DICTIONARY
  5
50D0
330
10
100
AcDbDictionary
280
     1
281
     1
  3
ADSK_XREC_LAYER_RECONCILED
360
50D1
  0
DICTIONARY
  5
50D2
330
3B
100
AcDbDictionary
280
     1
281
     1
  3
ADSK_XREC_LAYER_RECONCILED
360
50D3
  0
DICTIONARY
  5
50AF
330
50AE
100
AcDbDictionary
280
     1
281
     1
  3
ADSK_XREC_LAYER_RECONCILED
360
50D4
  0
DICTIONARY
  5
180FD
330
180FC
100
AcDbDictionary
280
     1
281
     1
  0
DICTIONARY
  5
67C0
330
1F
100
AcDbDictionary
280
     1
281
     1
  3
ACAD_SORTENTS
360
67C1
  0
DICTIONARY
  5
18962
330
10FE8
100
AcDbDictionary
280
     1
281
     1
  0
DICTIONARY
  5
18971
330
188CE
100
AcDbDictionary
280
     1
281
     1
  3
ACAD_MTEXT_2008_RT
360
18972
  3
ACAD_MTEXT_RT
360
189AA
  0
DICTIONARY
  5
18973
330
18912
100
AcDbDictionary
280
     1
281
     1
  3
ACAD_MTEXT_2008_RT
360
18974
  3
ACAD_MTEXT_RT
360
189AB
  0
DICTIONARY
  5
18975
330
18913
100
AcDbDictionary
280
     1
281
     1
  3
ACAD_MTEXT_2008_RT
360
18976
  3
ACAD_MTEXT_RT
360
189AC
  0
DICTIONARY
  5
18977
330
18938
100
AcDbDictionary
280
     1
281
     1
  3
ACAD_MTEXT_2008_RT
360
18978
  3
ACAD_MTEXT_RT
360
189AD
  0
DICTIONARY
  5
18979
330
1893B
100
AcDbDictionary
280
     1
281
     1
  3
ACAD_MTEXT_2008_RT
360
1897A
  3
ACAD_MTEXT_RT
360
189AE
  0
DICTIONARY
  5
1897B
330
1893C
100
AcDbDictionary
280
     1
281
     1
  3
ACAD_MTEXT_2008_RT
360
1897C
  3
ACAD_MTEXT_RT
360
189AF
  0
DICTIONARY
  5
1897D
330
18946
100
AcDbDictionary
280
     1
281
     1
  3
ACAD_MTEXT_2008_RT
360
1897E
  3
ACAD_MTEXT_RT
360
189B0
  0
DICTIONARY
  5
1897F
330
18947
100
AcDbDictionary
280
     1
281
     1
  3
ACAD_MTEXT_2008_RT
360
18980
  3
ACAD_MTEXT_RT
360
189B1
  0
DICTIONARY
  5
18981
330
18948
100
AcDbDictionary
280
     1
281
     1
  3
ACAD_MTEXT_2008_RT
360
18982
  3
ACAD_MTEXT_RT
360
189B2
  0
DICTIONARY
  5
18983
330
18956
100
AcDbDictionary
280
     1
281
     1
  3
ACAD_MTEXT_2008_RT
360
18984
  3
ACAD_MTEXT_RT
360
189B3
  0
DICTIONARY
  5
18985
330
18957
100
AcDbDictionary
280
     1
281
     1
  3
ACAD_MTEXT_2008_RT
360
18986
  3
ACAD_MTEXT_RT
360
189B4
  0
DICTIONARY
  5
18987
330
18958
100
AcDbDictionary
280
     1
281
     1
  3
ACAD_MTEXT_2008_RT
360
18988
  3
ACAD_MTEXT_RT
360
189B5
  0
DICTIONARY
  5
1896F
330
7228
100
AcDbDictionary
280
     1
281
     1
  3
ACAD_MTEXT_2008_RT
360
18970
  3
ACAD_MTEXT_RT
360
18991
  0
DICTIONARY
  5
4FFE
102
{ACAD_REACTORS
330
C
102
}
330
C
100
AcDbDictionary
281
     1
  0
DICTIONARY
  5
D
102
{ACAD_REACTORS
330
C
102
}
330
C
100
AcDbDictionary
281
     1
  0
DICTIONARY
  5
1A
102
{ACAD_REACTORS
330
C
102
}
330
C
100
AcDbDictionary
281
     1
  3
Layout1
350
1E
  3
Layout2
350
26
  3
Model
350
22
  0
DICTIONARY
  5
4FE5
102
{ACAD_REACTORS
330
C
102
}
330
C
100
AcDbDictionary
281
     1
  3
ByBlock
350
4FEE
  3
ByLayer
350
4FE6
  3
Global
350
4FF6
  0
DICTIONARY
  5
5022
102
{ACAD_REACTORS
330
C
102
}
330
C
100
AcDbDictionary
281
     1
  3
Standard
350
5023
  0
DICTIONARY
  5
17
102
{ACAD_REACTORS
330
C
102
}
330
C
100
AcDbDictionary
281
     1
  3
Standard
350
18
  0
DICTIONARY
  5
19
102
{ACAD_REACTORS
330
C
102
}
330
C
100
AcDbDictionary
281
     1
  0
ACDBDICTIONARYWDFLT
  5
E
102
{ACAD_REACTORS
330
C
102
}
330
C
100
AcDbDictionary
281
     1
  3
Normal
350
F
100
AcDbDictionaryWithDefault
340
F
  0
DICTIONARY
  5
6537
102
{ACAD_REACTORS
330
C
102
}
330
C
100
AcDbDictionary
281
     1
  3
{1DC63513-1B1A-422F-9880-65CFD2B8D533}
350
6538
  0
DICTIONARY
  5
5000
102
{ACAD_REACTORS
330
C
102
}
330
C
100
AcDbDictionary
281
     1
  3
A0
350
5001
  3
A1
350
5002
  3
A2
350
5003
  3
A3
350
5004
  3
A4
350
5005
  3
A5
350
5006
  3
A6
350
5007
  3
A7
350
5008
  3
A8
350
5009
  3
A9
350
500A
  3
B0
350
500B
  3
B1
350
500C
  3
B2
350
500D
  3
B3
350
500E
  3
B4
350
500F
  3
B5
350
5010
  3
B6
350
5011
  3
B7
350
5012
  3
B8
350
5013
  3
B9
350
5014
  3
C0
350
5015
  3
C1
350
5016
  3
C2
350
5017
  3
C3
350
5018
  3
C4
350
5019
  3
C5
350
501A
  3
C6
350
501B
  3
C7
350
501C
  3
C8
350
501D
  3
C9
350
501E
  3
D0
350
501F
  3
D1
350
5020
  3
D2
350
5021
  0
DICTIONARY
  5
4FE3
102
{ACAD_REACTORS
330
C
102
}
330
C
100
AcDbDictionary
281
     1
  3
Standard
350
4FFF
  0
DICTIONARY
  5
2A
102
{ACAD_REACTORS
330
C
102
}
330
C
100
AcDbDictionary
281
     1
  3
2dWireframe
350
2F
  3
3D Hidden
350
31
  3
3dWireframe
350
30
  3
Basic
350
32
  3
Brighten
350
36
  3
ColorChange
350
3A
  3
Conceptual
350
34
  3
Dim
350
35
  3
Facepattern
350
39
  3
Flat
350
2B
  3
FlatWithEdges
350
2C
  3
Gouraud
350
2D
  3
GouraudWithEdges
350
2E
  3
Linepattern
350
38
  3
Realistic
350
33
  3
Thicken
350
37
  0
XRECORD
  5
50EC
102
{ACAD_REACTORS
330
C
102
}
330
C
100
AcDbXrecord
280
     1
 90
        1
330
4FFF
330
7228
330
188CE
330
18912
330
18913
330
18938
330
1893B
330
1893C
330
18946
330
18947
330
18948
330
18956
330
18957
330
18958
  0
DICTIONARY
  5
5108
102
{ACAD_REACTORS
330
C
102
}
330
C
100
AcDbDictionary
281
     1
  3
CANNOSCALE
350
510B
  3
CMLEADERSTYLE
350
510A
  3
CTABLESTYLE
350
5109
  3
DIMASSOC
350
510E
  3
INDEXCTL
350
510D
  3
SORTENTS
350
510C
  0
DICTIONARY
  5
11ACE
102
{ACAD_REACTORS
330
C
102
}
330
C
100
AcDbDictionary
281
     1
  3
ASEBlockHierarchyIndexRecord
350
11ACF
1001
DCO15
1040
1901610418.781
  0
XRECORD
  5
18989
102
{ACAD_REACTORS
330
C
102
}
330
C
100
AcDbXrecord
280
     1
  1
DWGPROPS COOKIE
  2

  3

  4

  6

  7

  8
yl.gao
  9

300
=
301
=
302
=
303
=
304
=
305
=
306
=
307
=
308
=
309
=
 40
1.013578784722222
 41
2456524.383632987
 42
2460316.695001285
  1

 90
        0
  0
DICTIONARY
  5
138AC
102
{ACAD_REACTORS
330
50B8
102
}
330
50B8
100
AcDbDictionary
281
     1
  0
DICTIONARY
  5
50B9
102
{ACAD_REACTORS
330
50B8
102
}
330
50B8
100
AcDbDictionary
281
     1
  0
DICTIONARY
  5
138AB
102
{ACAD_REACTORS
330
50B8
102
}
330
50B8
100
AcDbDictionary
281
     1
1001
ACAD
1000
<All
  0
XRECORD
  5
50D1
102
{ACAD_REACTORS
330
50D0
102
}
330
50D0
100
AcDbXrecord
280
     1
290
     1
  0
XRECORD
  5
50D3
102
{ACAD_REACTORS
330
50D2
102
}
330
50D2
100
AcDbXrecord
280
     1
290
     1
  0
XRECORD
  5
50D4
102
{ACAD_REACTORS
330
50AF
102
}
330
50AF
100
AcDbXrecord
280
     1
290
     1
  0
SORTENTSTABLE
  5
67C1
102
{ACAD_REACTORS
330
67C0
102
}
330
67C0
100
AcDbSortentsTable
330
1F
331
35C8
  5
35D8
331
65A3
  5
65A4
331
65A1
  5
65A2
331
7228
  5
99F4
331
2F93
  5
2FDE
331
65B2
  5
65B3
331
28AE
  5
2A38
331
2EE7
  5
2F93
331
2FDE
  5
35C8
331
65A4
  5
65A5
331
3943
  5
4842
331
65A0
  5
65A1
331
2C65
  5
2EE7
331
3895
  5
3943
331
35D8
  5
3807
331
4842
  5
4E94
331
3807
  5
3895
  0
XRECORD
  5
18972
102
{ACAD_REACTORS
330
18971
102
}
330
18971
100
AcDbXrecord
280
     1
 40
1527.0
  1
\pxqc;BQ LUO
  0
XRECORD
  5
189AA
102
{ACAD_REACTORS
330
18971
102
}
330
18971
100
AcDbXrecord
280
     1
 40
1527.0
  1
\pxqc;BQ LUO
  0
XRECORD
  5
18974
102
{ACAD_REACTORS
330
18973
102
}
330
18973
100
AcDbXrecord
280
     1
 40
1262561.0
  1
\pxqc;档案员{\H0.7x;\P\Fromans|c134;Filing Clerk\fFangSong_GB2312|b0|i0|c134|p49; }
  0
XRECORD
  5
189AB
102
{ACAD_REACTORS
330
18973
102
}
330
18973
100
AcDbXrecord
280
     1
 40
448513.0
  1
\pxqc;档案员{\H0.7x;\P\Fromans|c134;Filing Clerk\fFangSong_GB2312|b0|i0|c134|p49; }
  0
XRECORD
  5
18976
102
{ACAD_REACTORS
330
18975
102
}
330
18975
100
AcDbXrecord
280
     1
 40
650528.0
  1
\pxqc;日期{\Fromans|c134;/Date}
  0
XRECORD
  5
189AC
102
{ACAD_REACTORS
330
18975
102
}
330
18975
100
AcDbXrecord
280
     1
 40
58584.0
  1
\pxqc;日期{\Fromans|c134;/Date}
  0
XRECORD
  5
18978
102
{ACAD_REACTORS
330
18977
102
}
330
18977
100
AcDbXrecord
280
     1
 40
2318748.0
  1
\pxsm0.7;{\f仿宋_GB2312|b0|i0|c134|p49;标准化}\PStand.
  0
XRECORD
  5
189AD
102
{ACAD_REACTORS
330
18977
102
}
330
18977
100
AcDbXrecord
280
     1
 40
55334.0
  1
\pxsm0.7;{\f仿宋_GB2312|b0|i0|c134|p49;标准化}\PStand.
  0
XRECORD
  5
1897A
102
{ACAD_REACTORS
330
18979
102
}
330
18979
100
AcDbXrecord
280
     1
 40
118135.0
  1
\pxsm0.7;签名\P{\Fromans|c134;Signature} 
  0
XRECORD
  5
189AE
102
{ACAD_REACTORS
330
18979
102
}
330
18979
100
AcDbXrecord
280
     1
 40
48353.0
  1
\pxsm0.7;签名\P{\Fromans|c134;Signature} 
  0
XRECORD
  5
1897C
102
{ACAD_REACTORS
330
1897B
102
}
330
1897B
100
AcDbXrecord
280
     1
 40
108939.0
  1
\pxsm0.7,qc;处数\P{\Fromans|c134;Number }
  0
XRECORD
  5
189AF
102
{ACAD_REACTORS
330
1897B
102
}
330
1897B
100
AcDbXrecord
280
     1
 40
38427.0
  1
\pxsm0.7,qc;处数\P{\Fromans|c134;Number }
  0
XRECORD
  5
1897E
102
{ACAD_REACTORS
330
1897D
102
}
330
1897D
100
AcDbXrecord
280
     1
 40
125762.0
  1
\pxsm0.7;标记\P{\Fromans|c134;Mark}
  0
XRECORD
  5
189B0
102
{ACAD_REACTORS
330
1897D
102
}
330
1897D
100
AcDbXrecord
280
     1
 40
31190.0
  1
\pxsm0.7;标记\P{\Fromans|c134;Mark}
  0
XRECORD
  5
18980
102
{ACAD_REACTORS
330
1897F
102
}
330
1897F
100
AcDbXrecord
280
     1
 40
111973.0
  1
\pxsm0.7;审核\P{\Fromans|c134;Checked}
  0
XRECORD
  5
189B1
102
{ACAD_REACTORS
330
1897F
102
}
330
1897F
100
AcDbXrecord
280
     1
 40
39355.0
  1
\pxsm0.7;审核\P{\Fromans|c134;Checked}
  0
XRECORD
  5
18982
102
{ACAD_REACTORS
330
18981
102
}
330
18981
100
AcDbXrecord
280
     1
 40
137968.0
  1
\pxsm0.7;绘图\P{\Fromans|c134;Drawn\Ftxt|c134; }
  0
XRECORD
  5
189B2
102
{ACAD_REACTORS
330
18981
102
}
330
18981
100
AcDbXrecord
280
     1
 40
66730.0
  1
\pxsm0.7;绘图\P{\Fromans|c134;Drawn\Ftxt|c134; }
  0
XRECORD
  5
18984
102
{ACAD_REACTORS
330
18983
102
}
330
18983
100
AcDbXrecord
280
     1
 40
106320.0
  1
\pxsm0.7;批准\P{\Fromans|c134;Approved}
  0
XRECORD
  5
189B3
102
{ACAD_REACTORS
330
18983
102
}
330
18983
100
AcDbXrecord
280
     1
 40
43787.0
  1
\pxsm0.7;批准\P{\Fromans|c134;Approved}
  0
XRECORD
  5
18986
102
{ACAD_REACTORS
330
18985
102
}
330
18985
100
AcDbXrecord
280
     1
 40
127283.0
  1
\pxsm0.7;工艺\P{\Fromans|c134;Process}
  0
XRECORD
  5
189B4
102
{ACAD_REACTORS
330
18985
102
}
330
18985
100
AcDbXrecord
280
     1
 40
40691.0
  1
\pxsm0.7;工艺\P{\Fromans|c134;Process}
  0
XRECORD
  5
18988
102
{ACAD_REACTORS
330
18987
102
}
330
18987
100
AcDbXrecord
280
     1
 40
106220.0
  1
\pxsm0.7;日期\P{\Fromans|c134;Date}
  0
XRECORD
  5
189B5
102
{ACAD_REACTORS
330
18987
102
}
330
18987
100
AcDbXrecord
280
     1
 40
30977.0
  1
\pxsm0.7;日期\P{\Fromans|c134;Date}
  0
XRECORD
  5
18970
102
{ACAD_REACTORS
330
1896F
102
}
330
1896F
100
AcDbXrecord
280
     1
 40
2634798334.0
  1
\A1;\pxql;{\f仿宋_GB2312|b0|i0|c134|p49;技术参数}:\P{\f仿宋_GB2312|b0|i0|c134|p49;插芯：}\P- {\f仿宋_GB2312|b0|i0|c134|p49;插针数}: 2\P- {\f仿宋_GB2312|b0|i0|c134|p49;材料}: {\f仿宋_GB2312|b0|i0|c134|p49;聚碳酸酯}\P- {\f仿宋_GB2312|b0|i0|c134|p49;颜色}: RAL 5012({\f仿宋_GB2312|b0|i
  1
0|c134|p49;蓝色})\P- {\f仿宋_GB2312|b0|i0|c134|p49;温度范围}: -40{\f仿宋_GB2312|b0|i0|c134|p49;℃} - +80{\f仿宋_GB2312|b0|i0|c134|p49;℃}\P- {\f仿宋_GB2312|b0|i0|c134|p49;依据}UL 94{\f仿宋_GB2312|b0|i0|c134|p49;的阻燃等级}: V0\P\pq*;- {\f仿宋_GB2312|b0|i0|c134|p49;可插拔次数}: {\f仿
  1
宋_GB2312|b0|i0|c134|p49;≥}500\P\pql;{\f仿宋_GB2312|b0|i0|c134|p49;插针：}\P- {\f仿宋_GB2312|b0|i0|c134|p49;材料}: {\f仿宋_GB2312|b0|i0|c134|p49;聚甲醛}\P- {\f仿宋_GB2312|b0|i0|c134|p49;颜色}: {\f仿宋_GB2312|b0|i0|c134|p49;黑色}\P- {\f仿宋_GB2312|b0|i0|c134|p49;软管连接}: {\f仿宋_
  1
GB2312|b0|i0|c134|p49;内径}-delrin acetal\P- {\f仿宋_GB2312|b0|i0|c134|p49;工作压力}: {\f仿宋_GB2312|b0|i0|c134|p49;最大}8 bar / 116 psi\P- {\f仿宋_GB2312|b0|i0|c134|p49;材料：}\P   {\f仿宋_GB2312|b0|i0|c134|p49;·} {\f仿宋_GB2312|b0|i0|c134|p49;密封\fSimSun|b0|i0|c134|p2;圏
  1
\f仿宋_GB2312|b0|i0|c134|p49;：} {\f仿宋_GB2312|b0|i0|c134|p49;氟橡胶}\P   {\f仿宋_GB2312|b0|i0|c134|p49;·} {\f仿宋_GB2312|b0|i0|c134|p49;闭锁阀：} {\f仿宋_GB2312|b0|i0|c134|p49;聚丙烯}\P\PTechnical specification:\PInsters:\P- No. of contact: 2\P- Material: polycarbonate
  1
\P- Colour: RAL 5012(blue)\P- Temperature range: -40{\f仿宋_GB2312|b0|i0|c134|p49;℃} - +80{\f仿宋_GB2312|b0|i0|c134|p49;℃}\P- Flammability acc.to UL 94: V0\P- Mating cycles: {\f仿宋_GB2312|b0|i0|c134|p49;≥}500\PContacts:\P- Material: delrin acetal\P- Colou
  1
r: black\P- Tube termination: internal diameter(ID)-delrin acetal\P- Working pressure: up to 8 bar / 116 psi\P- Material: \P   {\f仿宋_GB2312|b0|i0|c134|p49;·} Sealing: FPM\P   {\f仿宋_GB2312|b0|i0|c134|p49;·} Shut off valve: Polypropylen
  0
XRECORD
  5
18991
102
{ACAD_REACTORS
330
1896F
102
}
330
1896F
100
AcDbXrecord
280
     1
 40
111779279.0
  1
\A1;\pxql;{\f仿宋_GB2312|b0|i0|c134|p49;技术参数}:\P{\f仿宋_GB2312|b0|i0|c134|p49;插芯：}\P- {\f仿宋_GB2312|b0|i0|c134|p49;插针数}: 2\P- {\f仿宋_GB2312|b0|i0|c134|p49;材料}: {\f仿宋_GB2312|b0|i0|c134|p49;聚碳酸酯}\P- {\f仿宋_GB2312|b0|i0|c134|p49;颜色}: RAL 5012({\f仿宋_GB2312|b0|i
  1
0|c134|p49;蓝色})\P- {\f仿宋_GB2312|b0|i0|c134|p49;温度范围}: -40{\f仿宋_GB2312|b0|i0|c134|p49;℃} - +80{\f仿宋_GB2312|b0|i0|c134|p49;℃}\P- {\f仿宋_GB2312|b0|i0|c134|p49;依据}UL 94{\f仿宋_GB2312|b0|i0|c134|p49;的阻燃等级}: V0\P\pq*;- {\f仿宋_GB2312|b0|i0|c134|p49;可插拔次数}: {\f仿
  1
宋_GB2312|b0|i0|c134|p49;≥}500\P\pql;{\f仿宋_GB2312|b0|i0|c134|p49;插针：}\P- {\f仿宋_GB2312|b0|i0|c134|p49;材料}: {\f仿宋_GB2312|b0|i0|c134|p49;聚甲醛}\P- {\f仿宋_GB2312|b0|i0|c134|p49;颜色}: {\f仿宋_GB2312|b0|i0|c134|p49;黑色}\P- {\f仿宋_GB2312|b0|i0|c134|p49;软管连接}: {\f仿宋_
  1
GB2312|b0|i0|c134|p49;内径}-delrin acetal\P- {\f仿宋_GB2312|b0|i0|c134|p49;工作压力}: {\f仿宋_GB2312|b0|i0|c134|p49;最大}8 bar / 116 psi\P- {\f仿宋_GB2312|b0|i0|c134|p49;材料：}\P   {\f仿宋_GB2312|b0|i0|c134|p49;·} {\f仿宋_GB2312|b0|i0|c134|p49;密封\fSimSun|b0|i0|c134|p2;圏
  1
\f仿宋_GB2312|b0|i0|c134|p49;：} {\f仿宋_GB2312|b0|i0|c134|p49;氟橡胶}\P   {\f仿宋_GB2312|b0|i0|c134|p49;·} {\f仿宋_GB2312|b0|i0|c134|p49;闭锁阀：} {\f仿宋_GB2312|b0|i0|c134|p49;聚丙烯}\P\PTechnical specification:\PInsters:\P- No. of contact: 2\P- Material: polycarbonate
  1
\P- Colour: RAL 5012(blue)\P- Temperature range: -40{\f仿宋_GB2312|b0|i0|c134|p49;℃} - +80{\f仿宋_GB2312|b0|i0|c134|p49;℃}\P- Flammability acc.to UL 94: V0\P- Mating cycles: {\f仿宋_GB2312|b0|i0|c134|p49;≥}500\PContacts:\P- Material: delrin acetal\P- Colou
  1
r: black\P- Tube termination: internal diameter(ID)-delrin acetal\P- Working pressure: up to 8 bar / 116 psi\P- Material: \P   {\f仿宋_GB2312|b0|i0|c134|p49;·} Sealing: FPM\P   {\f仿宋_GB2312|b0|i0|c134|p49;·} Shut off valve: Polypropylen
  0
LAYOUT
  5
1E
102
{ACAD_XDICTIONARY
360
1898A
102
}
102
{ACAD_REACTORS
330
1A
102
}
330
1A
100
AcDbPlotSettings
  1

  2
none_device
  4

  6

 40
0.0
 41
0.0
 42
0.0
 43
0.0
 44
0.0
 45
0.0
 46
0.0
 47
0.0
 48
0.0
 49
0.0
140
0.0
141
0.0
142
1.0
143
1.0
 70
   688
 72
     0
 73
     0
 74
     5
  7

 75
    16
147
1.0
148
0.0
149
0.0
100
AcDbLayout
  1
Layout1
 70
     1
 71
     1
 10
0.0
 20
0.0
 11
12.0
 21
9.0
 12
0.0
 22
0.0
 32
0.0
 14
1.000000000000000E+20
 24
1.000000000000000E+20
 34
1.000000000000000E+20
 15
-1.000000000000000E+20
 25
-1.000000000000000E+20
 35
-1.000000000000000E+20
146
0.0
 13
0.0
 23
0.0
 33
0.0
 16
1.0
 26
0.0
 36
0.0
 17
0.0
 27
1.0
 37
0.0
 76
     0
330
1B
  0
LAYOUT
  5
26
102
{ACAD_XDICTIONARY
360
1898E
102
}
102
{ACAD_REACTORS
330
1A
102
}
330
1A
100
AcDbPlotSettings
  1

  2
none_device
  4

  6

 40
0.0
 41
0.0
 42
0.0
 43
0.0
 44
0.0
 45
0.0
 46
0.0
 47
0.0
 48
0.0
 49
0.0
140
0.0
141
0.0
142
1.0
143
1.0
 70
   688
 72
     0
 73
     0
 74
     5
  7

 75
    16
147
1.0
148
0.0
149
0.0
100
AcDbLayout
  1
Layout2
 70
     1
 71
     2
 10
0.0
 20
0.0
 11
0.0
 21
0.0
 12
0.0
 22
0.0
 32
0.0
 14
0.0
 24
0.0
 34
0.0
 15
0.0
 25
0.0
 35
0.0
146
0.0
 13
0.0
 23
0.0
 33
0.0
 16
1.0
 26
0.0
 36
0.0
 17
0.0
 27
1.0
 37
0.0
 76
     0
330
23
  0
LAYOUT
  5
22
102
{ACAD_XDICTIONARY
360
1898C
102
}
102
{ACAD_REACTORS
330
1A
102
}
330
1A
100
AcDbPlotSettings
  1

  2
Adobe PDF Converter.pc3
  4
A4
  6

 40
3.174999952316281
 41
3.174999952316281
 42
3.17498779296875
 43
3.175003051757812
 44
297.0318298339844
 45
209.9733276367186
 46
0.0000000000000076
 47
1.630241740247063
 48
246.9897427644609
 49
39.36804549891383
140
544.952097801264
141
244.7492402188181
142
1.0
143
1.025046328645055
 70
  3764
 72
     1
 73
     0
 74
     4
  7
monochrome.ctb
 75
     0
147
0.9755656618192436
148
-246.9897427644609
149
-39.36804549891383
100
AcDbLayout
  1
Model
 70
     1
 71
     0
 10
0.0
 20
0.0
 11
12.0
 21
9.0
 12
0.0
 22
0.0
 32
0.0
 14
1.000000000000000E+20
 24
1.000000000000000E+20
 34
1.000000000000000E+20
 15
-1.000000000000000E+20
 25
-1.000000000000000E+20
 35
-1.000000000000000E+20
146
0.0
 13
0.0
 23
0.0
 33
0.0
 16
1.0
 26
0.0
 36
0.0
 17
0.0
 27
1.0
 37
0.0
 76
     0
330
1F
331
29
1001
ACAD_PSEXT
1000
Adobe PDF Converter.pc3
1000
Adobe PDF Converter
1000
桌面\*.pdf
1000

1070
     0
  0
MATERIAL
  5
4FEE
102
{ACAD_XDICTIONARY
360
4FEF
102
}
102
{ACAD_REACTORS
330
4FE5
102
}
330
4FE5
100
AcDbMaterial
  1
ByBlock
 72
     0
 43
0.0208333333333333
 43
0.0
 43
0.0
 43
0.0
 43
0.0
 43
0.0208333333333333
 43
0.0
 43
0.0
 43
0.0
 43
0.0
 43
1.0
 43
0.0
 43
0.0
 43
0.0
 43
0.0
 43
1.0
 77
     0
 47
0.0208333333333333
 47
0.0
 47
0.0
 47
0.0
 47
0.0
 47
0.0208333333333333
 47
0.0
 47
0.0
 47
0.0
 47
0.0
 47
1.0
 47
0.0
 47
0.0
 47
0.0
 47
0.0
 47
1.0
171
     0
 49
0.0208333333333333
 49
0.0
 49
0.0
 49
0.0
 49
0.0
 49
0.0208333333333333
 49
0.0
 49
0.0
 49
0.0
 49
0.0
 49
1.0
 49
0.0
 49
0.0
 49
0.0
 49
0.0
 49
1.0
175
     0
142
0.0208333333333333
142
0.0
142
0.0
142
0.0
142
0.0
142
0.0208333333333333
142
0.0
142
0.0
142
0.0
142
0.0
142
1.0
142
0.0
142
0.0
142
0.0
142
0.0
142
1.0
179
     0
144
0.0208333333333333
144
0.0
144
0.0
144
0.0
144
0.0
144
0.0208333333333333
144
0.0
144
0.0
144
0.0
144
0.0
144
1.0
144
0.0
144
0.0
144
0.0
144
0.0
144
1.0
147
0.0208333333333333
147
0.0
147
0.0
147
0.0
147
0.0
147
0.0208333333333333
147
0.0
147
0.0
147
0.0
147
0.0
147
1.0
147
0.0
147
0.0
147
0.0
147
0.0
147
1.0
  0
MATERIAL
  5
4FE6
102
{ACAD_XDICTIONARY
360
4FE7
102
}
102
{ACAD_REACTORS
330
4FE5
102
}
330
4FE5
100
AcDbMaterial
  1
ByLayer
 72
     0
 43
0.0208333333333333
 43
0.0
 43
0.0
 43
0.0
 43
0.0
 43
0.0208333333333333
 43
0.0
 43
0.0
 43
0.0
 43
0.0
 43
1.0
 43
0.0
 43
0.0
 43
0.0
 43
0.0
 43
1.0
 77
     0
 47
0.0208333333333333
 47
0.0
 47
0.0
 47
0.0
 47
0.0
 47
0.0208333333333333
 47
0.0
 47
0.0
 47
0.0
 47
0.0
 47
1.0
 47
0.0
 47
0.0
 47
0.0
 47
0.0
 47
1.0
171
     0
 49
0.0208333333333333
 49
0.0
 49
0.0
 49
0.0
 49
0.0
 49
0.0208333333333333
 49
0.0
 49
0.0
 49
0.0
 49
0.0
 49
1.0
 49
0.0
 49
0.0
 49
0.0
 49
0.0
 49
1.0
175
     0
142
0.0208333333333333
142
0.0
142
0.0
142
0.0
142
0.0
142
0.0208333333333333
142
0.0
142
0.0
142
0.0
142
0.0
142
1.0
142
0.0
142
0.0
142
0.0
142
0.0
142
1.0
179
     0
144
0.0208333333333333
144
0.0
144
0.0
144
0.0
144
0.0
144
0.0208333333333333
144
0.0
144
0.0
144
0.0
144
0.0
144
1.0
144
0.0
144
0.0
144
0.0
144
0.0
144
1.0
147
0.0208333333333333
147
0.0
147
0.0
147
0.0
147
0.0
147
0.0208333333333333
147
0.0
147
0.0
147
0.0
147
0.0
147
1.0
147
0.0
147
0.0
147
0.0
147
0.0
147
1.0
  0
MATERIAL
  5
4FF6
102
{ACAD_XDICTIONARY
360
4FF7
102
}
102
{ACAD_REACTORS
330
4FE5
102
}
330
4FE5
100
AcDbMaterial
  1
Global
 72
     0
 43
0.0208333333333333
 43
0.0
 43
0.0
 43
0.0
 43
0.0
 43
0.0208333333333333
 43
0.0
 43
0.0
 43
0.0
 43
0.0
 43
1.0
 43
0.0
 43
0.0
 43
0.0
 43
0.0
 43
1.0
 77
     0
 47
0.0208333333333333
 47
0.0
 47
0.0
 47
0.0
 47
0.0
 47
0.0208333333333333
 47
0.0
 47
0.0
 47
0.0
 47
0.0
 47
1.0
 47
0.0
 47
0.0
 47
0.0
 47
0.0
 47
1.0
171
     0
 49
0.0208333333333333
 49
0.0
 49
0.0
 49
0.0
 49
0.0
 49
0.0208333333333333
 49
0.0
 49
0.0
 49
0.0
 49
0.0
 49
1.0
 49
0.0
 49
0.0
 49
0.0
 49
0.0
 49
1.0
175
     0
142
0.0208333333333333
142
0.0
142
0.0
142
0.0
142
0.0
142
0.0208333333333333
142
0.0
142
0.0
142
0.0
142
0.0
142
1.0
142
0.0
142
0.0
142
0.0
142
0.0
142
1.0
179
     0
144
0.0208333333333333
144
0.0
144
0.0
144
0.0
144
0.0
144
0.0208333333333333
144
0.0
144
0.0
144
0.0
144
0.0
144
1.0
144
0.0
144
0.0
144
0.0
144
0.0
144
1.0
147
0.0208333333333333
147
0.0
147
0.0
147
0.0
147
0.0
147
0.0208333333333333
147
0.0
147
0.0
147
0.0
147
0.0
147
1.0
147
0.0
147
0.0
147
0.0
147
0.0
147
1.0
  0
MLEADERSTYLE
  5
5023
102
{ACAD_REACTORS
330
5022
102
}
330
5022
100
AcDbMLeaderStyle
170
     2
171
     1
172
     0
 90
        2
 40
0.0
 41
0.0
173
     1
 91
-1056964608
340
14
 92
       -2
290
     1
 42
0.09
291
     1
 43
0.36
  3
Standard
 44
0.18
300

342
11
174
     1
178
     6
175
     1
176
     0
 93
-1056964608
 45
0.18
292
     0
297
     0
 46
0.18
 94
-1056964608
 47
1.0
 49
1.0
140
1.0
293
     1
141
0.0
294
     1
177
     0
142
1.0
295
     0
296
     0
143
0.125
1001
ACAD_MLEADERVER
1070
     2
  0
MLINESTYLE
  5
18
102
{ACAD_REACTORS
330
17
102
}
330
17
100
AcDbMlineStyle
  2
STANDARD
 70
     0
  3

 62
   256
 51
90.0
 52
90.0
 71
     2
 49
0.5
 62
   256
  6
BYLAYER
 49
-0.5
 62
   256
  6
BYLAYER
  0
ACDBPLACEHOLDER
  5
F
102
{ACAD_REACTORS
330
E
102
}
330
E
  0
MENTALRAYRENDERSETTINGS
  5
6538
102
{ACAD_REACTORS
330
6537
102
}
330
6537
100
AcDbRenderSettings
 90
        2
  1
中
290
     1
290
     1
290
     1
290
     1
  1

  1
渲染质量好于“低级”。包括纹理过滤并且强制双面处于激活状态。处理中等级反锯齿和 5 反射/折射的光线跟踪深度。
 90
        0
100
AcDbMentalRayRenderSettings
 90
        2
 90
        0
 90
        1
 70
     2
 40
3.0
 40
3.0
 40
0.0500000007450581
 40
0.0500000007450581
 40
0.0500000007450581
 40
0.0500000007450581
 70
     0
290
     0
290
     1
 90
        5
 90
        5
 90
        5
290
     0
 90
      500
290
     0
 40
1.0
 90
    10000
 90
        5
 90
        5
 90
        5
290
     0
 90
      200
290
     0
290
     0
290
     0
 40
0.1
 40
1.0
 40
1500.0
 70
     0
 70
     0
 40
10.0
 70
     0
 70
     0
290
     0
  1

 90
       32
 70
     0
 90
     1048
290
     0
 40
1.0
  0
SCALE
  5
5001
102
{ACAD_REACTORS
330
5000
102
}
330
5000
100
AcDbScale
 70
     0
300
1:1
140
1.0
141
1.0
290
     1
  0
SCALE
  5
5002
102
{ACAD_REACTORS
330
5000
102
}
330
5000
100
AcDbScale
 70
     0
300
1:2
140
1.0
141
2.0
290
     0
  0
SCALE
  5
5003
102
{ACAD_REACTORS
330
5000
102
}
330
5000
100
AcDbScale
 70
     0
300
1:4
140
1.0
141
4.0
290
     0
  0
SCALE
  5
5004
102
{ACAD_REACTORS
330
5000
102
}
330
5000
100
AcDbScale
 70
     0
300
1:5
140
1.0
141
5.0
290
     0
  0
SCALE
  5
5005
102
{ACAD_REACTORS
330
5000
102
}
330
5000
100
AcDbScale
 70
     0
300
1:8
140
1.0
141
8.0
290
     0
  0
SCALE
  5
5006
102
{ACAD_REACTORS
330
5000
102
}
330
5000
100
AcDbScale
 70
     0
300
1:10
140
1.0
141
10.0
290
     0
  0
SCALE
  5
5007
102
{ACAD_REACTORS
330
5000
102
}
330
5000
100
AcDbScale
 70
     0
300
1:16
140
1.0
141
16.0
290
     0
  0
SCALE
  5
5008
102
{ACAD_REACTORS
330
5000
102
}
330
5000
100
AcDbScale
 70
     0
300
1:20
140
1.0
141
20.0
290
     0
  0
SCALE
  5
5009
102
{ACAD_REACTORS
330
5000
102
}
330
5000
100
AcDbScale
 70
     0
300
1:30
140
1.0
141
30.0
290
     0
  0
SCALE
  5
500A
102
{ACAD_REACTORS
330
5000
102
}
330
5000
100
AcDbScale
 70
     0
300
1:40
140
1.0
141
40.0
290
     0
  0
SCALE
  5
500B
102
{ACAD_REACTORS
330
5000
102
}
330
5000
100
AcDbScale
 70
     0
300
1:50
140
1.0
141
50.0
290
     0
  0
SCALE
  5
500C
102
{ACAD_REACTORS
330
5000
102
}
330
5000
100
AcDbScale
 70
     0
300
1:100
140
1.0
141
100.0
290
     0
  0
SCALE
  5
500D
102
{ACAD_REACTORS
330
5000
102
}
330
5000
100
AcDbScale
 70
     0
300
2:1
140
2.0
141
1.0
290
     0
  0
SCALE
  5
500E
102
{ACAD_REACTORS
330
5000
102
}
330
5000
100
AcDbScale
 70
     0
300
4:1
140
4.0
141
1.0
290
     0
  0
SCALE
  5
500F
102
{ACAD_REACTORS
330
5000
102
}
330
5000
100
AcDbScale
 70
     0
300
8:1
140
8.0
141
1.0
290
     0
  0
SCALE
  5
5010
102
{ACAD_REACTORS
330
5000
102
}
330
5000
100
AcDbScale
 70
     0
300
10:1
140
10.0
141
1.0
290
     0
  0
SCALE
  5
5011
102
{ACAD_REACTORS
330
5000
102
}
330
5000
100
AcDbScale
 70
     0
300
100:1
140
100.0
141
1.0
290
     0
  0
SCALE
  5
5012
102
{ACAD_REACTORS
330
5000
102
}
330
5000
100
AcDbScale
 70
     0
300
1/128" = 1'-0"
140
0.0078125
141
12.0
290
     0
  0
SCALE
  5
5013
102
{ACAD_REACTORS
330
5000
102
}
330
5000
100
AcDbScale
 70
     0
300
1/64" = 1'-0"
140
0.015625
141
12.0
290
     0
  0
SCALE
  5
5014
102
{ACAD_REACTORS
330
5000
102
}
330
5000
100
AcDbScale
 70
     0
300
1/32" = 1'-0"
140
0.03125
141
12.0
290
     0
  0
SCALE
  5
5015
102
{ACAD_REACTORS
330
5000
102
}
330
5000
100
AcDbScale
 70
     0
300
1/16" = 1'-0"
140
0.0625
141
12.0
290
     0
  0
SCALE
  5
5016
102
{ACAD_REACTORS
330
5000
102
}
330
5000
100
AcDbScale
 70
     0
300
3/32" = 1'-0"
140
0.09375
141
12.0
290
     0
  0
SCALE
  5
5017
102
{ACAD_REACTORS
330
5000
102
}
330
5000
100
AcDbScale
 70
     0
300
1/8" = 1'-0"
140
0.125
141
12.0
290
     0
  0
SCALE
  5
5018
102
{ACAD_REACTORS
330
5000
102
}
330
5000
100
AcDbScale
 70
     0
300
3/16" = 1'-0"
140
0.1875
141
12.0
290
     0
  0
SCALE
  5
5019
102
{ACAD_REACTORS
330
5000
102
}
330
5000
100
AcDbScale
 70
     0
300
1/4" = 1'-0"
140
0.25
141
12.0
290
     0
  0
SCALE
  5
501A
102
{ACAD_REACTORS
330
5000
102
}
330
5000
100
AcDbScale
 70
     0
300
3/8" = 1'-0"
140
0.375
141
12.0
290
     0
  0
SCALE
  5
501B
102
{ACAD_REACTORS
330
5000
102
}
330
5000
100
AcDbScale
 70
     0
300
1/2" = 1'-0"
140
0.5
141
12.0
290
     0
  0
SCALE
  5
501C
102
{ACAD_REACTORS
330
5000
102
}
330
5000
100
AcDbScale
 70
     0
300
3/4" = 1'-0"
140
0.75
141
12.0
290
     0
  0
SCALE
  5
501D
102
{ACAD_REACTORS
330
5000
102
}
330
5000
100
AcDbScale
 70
     0
300
1" = 1'-0"
140
1.0
141
12.0
290
     0
  0
SCALE
  5
501E
102
{ACAD_REACTORS
330
5000
102
}
330
5000
100
AcDbScale
 70
     0
300
1-1/2" = 1'-0"
140
1.5
141
12.0
290
     0
  0
SCALE
  5
501F
102
{ACAD_REACTORS
330
5000
102
}
330
5000
100
AcDbScale
 70
     0
300
3" = 1'-0"
140
3.0
141
12.0
290
     0
  0
SCALE
  5
5020
102
{ACAD_REACTORS
330
5000
102
}
330
5000
100
AcDbScale
 70
     0
300
6" = 1'-0"
140
6.0
141
12.0
290
     0
  0
SCALE
  5
5021
102
{ACAD_REACTORS
330
5000
102
}
330
5000
100
AcDbScale
 70
     0
300
1'-0" = 1'-0"
140
12.0
141
12.0
290
     0
  0
TABLESTYLE
  5
4FFF
102
{ACAD_XDICTIONARY
360
50D6
102
}
102
{ACAD_REACTORS
330
4FE3
102
}
330
4FE3
100
AcDbTableStyle
  3
Standard
 70
     0
 71
     0
 40
0.06
 41
0.06
280
     0
281
     0
  7
Standard
140
0.18
170
     2
 62
     0
 63
     7
283
     0
274
    -2
284
     1
 64
     0
275
    -2
285
     1
 65
     0
276
    -2
286
     1
 66
     0
277
    -2
287
     1
 67
     0
278
    -2
288
     1
 68
     0
279
    -2
289
     1
 69
     0
  7
Standard
140
0.25
170
     5
 62
     0
 63
     7
283
     0
274
    -2
284
     1
 64
     0
275
    -2
285
     1
 65
     0
276
    -2
286
     1
 66
     0
277
    -2
287
     1
 67
     0
278
    -2
288
     1
 68
     0
279
    -2
289
     1
 69
     0
  7
Standard
140
0.18
170
     5
 62
     0
 63
     7
283
     0
274
    -2
284
     1
 64
     0
275
    -2
285
     1
 65
     0
276
    -2
286
     1
 66
     0
277
    -2
287
     1
 67
     0
278
    -2
288
     1
 68
     0
279
    -2
289
     1
 69
     0
  0
VISUALSTYLE
  5
2F
102
{ACAD_REACTORS
330
2A
102
}
330
2A
100
AcDbVisualStyle
  2
2dWireframe
 70
     4
 71
     0
 72
     2
 73
     0
 90
        0
 40
-0.6
 41
-30.0
 62
     5
 63
     7
 74
     1
 91
        4
 64
     7
 65
   257
 75
     1
175
     1
 42
1.0
 92
        0
 66
   257
 43
1.0
 76
     1
 77
     6
 78
     2
 67
     7
 79
     5
170
     0
171
     0
290
     0
174
     0
 93
        1
 44
0.0
173
     0
291
     0
 45
0.0
1001
ACAD
1000
AcDbSavedByObjectVersion
1070
     0
1000
AcDbSavedByObjectVersion
1070
     0
1000
AcDbSavedByObjectVersion
1070
     0
1000
AcDbSavedByObjectVersion
1070
     0
1000
AcDbSavedByObjectVersion
1070
     0
1000
AcDbSavedByObjectVersion
1070
     0
1000
AcDbSavedByObjectVersion
1070
     0
1000
AcDbSavedByObjectVersion
1070
     0
1000
AcDbSavedByObjectVersion
1070
     0
1000
AcDbSavedByObjectVersion
1070
     0
1000
AcDbSavedByObjectVersion
1070
     0
1000
AcDbSavedByObjectVersion
1070
     0
1000
AcDbSavedByObjectVersion
1070
     0
1000
AcDbSavedByObjectVersion
1070
     0
1000
AcDbSavedByObjectVersion
1070
     0
1000
AcDbSavedByObjectVersion
1070
     0
1000
AcDbSavedByObjectVersion
1070
     0
1000
AcDbSavedByObjectVersion
1070
     0
1000
AcDbSavedByObjectVersion
1070
     0
1000
AcDbSavedByObjectVersion
1070
     0
1000
AcDbSavedByObjectVersion
1070
     0
1000
AcDbSavedByObjectVersion
1070
     0
1000
AcDbSavedByObjectVersion
1070
     0
1000
AcDbSavedByObjectVersion
1070
     0
1000
AcDbSavedByObjectVersion
1070
     0
1000
AcDbSavedByObjectVersion
1070
     0
1000
AcDbSavedByObjectVersion
1070
     0
1000
AcDbSavedByObjectVersion
1070
     0
1000
AcDbSavedByObjectVersion
1070
     0
1000
AcDbSavedByObjectVersion
1070
     0
1000
AcDbSavedByObjectVersion
1070
     0
1000
AcDbSavedByObjectVersion
1070
     0
1000
AcDbSavedByObjectVersion
1070
     0
1000
AcDbSavedByObjectVersion
1070
     0
1000
AcDbSavedByObjectVersion
1070
     0
1000
AcDbSavedByObjectVersion
1070
     0
1000
AcDbSavedByObjectVersion
1070
     0
1000
AcDbSavedByObjectVersion
1070
     0
1000
AcDbSavedByObjectVersion
1070
     0
1000
AcDbSavedByObjectVersion
1070
     0
1000
AcDbSavedByObjectVersion
1070
     0
1000
AcDbSavedByObjectVersion
1070
     0
1000
AcDbSavedByObjectVersion
1070
     0
  0
VISUALSTYLE
  5
31
102
{ACAD_REACTORS
330
2A
102
}
330
2A
100
AcDbVisualStyle
  2
3D Hidden
 70
     6
 71
     1
 72
     2
 73
     2
 90
        0
 40
-0.6
 41
-30.0
 62
     5
 63
     7
 74
     2
 91
        2
 64
     7
 65
   257
 75
     2
175
     1
 42
40.0
 92
        0
 66
   257
 43
1.0
 76
     1
 77
     6
 78
     2
 67
     7
 79
     3
170
     0
171
     0
290
     0
174
     0
 93
        1
 44
0.0
173
     0
291
     0
 45
0.0
1001
ACAD
1000
AcDbSavedByObjectVersion
1070
     0
1000
AcDbSavedByObjectVersion
1070
     0
1000
AcDbSavedByObjectVersion
1070
     0
1000
AcDbSavedByObjectVersion
1070
     0
1000
AcDbSavedByObjectVersion
1070
     0
1000
AcDbSavedByObjectVersion
1070
     0
1000
AcDbSavedByObjectVersion
1070
     0
1000
AcDbSavedByObjectVersion
1070
     0
1000
AcDbSavedByObjectVersion
1070
     0
1000
AcDbSavedByObjectVersion
1070
     0
1000
AcDbSavedByObjectVersion
1070
     0
1000
AcDbSavedByObjectVersion
1070
     0
1000
AcDbSavedByObjectVersion
1070
     0
1000
AcDbSavedByObjectVersion
1070
     0
1000
AcDbSavedByObjectVersion
1070
     0
1000
AcDbSavedByObjectVersion
1070
     0
1000
AcDbSavedByObjectVersion
1070
     0
1000
AcDbSavedByObjectVersion
1070
     0
1000
AcDbSavedByObjectVersion
1070
     0
1000
AcDbSavedByObjectVersion
1070
     0
1000
AcDbSavedByObjectVersion
1070
     0
1000
AcDbSavedByObjectVersion
1070
     0
1000
AcDbSavedByObjectVersion
1070
     0
1000
AcDbSavedByObjectVersion
1070
     0
1000
AcDbSavedByObjectVersion
1070
     0
1000
AcDbSavedByObjectVersion
1070
     0
1000
AcDbSavedByObjectVersion
1070
     0
1000
AcDbSavedByObjectVersion
1070
     0
1000
AcDbSavedByObjectVersion
1070
     0
1000
AcDbSavedByObjectVersion
1070
     0
1000
AcDbSavedByObjectVersion
1070
     0
1000
AcDbSavedByObjectVersion
1070
     0
1000
AcDbSavedByObjectVersion
1070
     0
1000
AcDbSavedByObjectVersion
1070
     0
1000
AcDbSavedByObjectVersion
1070
     0
1000
AcDbSavedByObjectVersion
1070
     0
1000
AcDbSavedByObjectVersion
1070
     0
1000
AcDbSavedByObjectVersion
1070
     0
1000
AcDbSavedByObjectVersion
1070
     0
1000
AcDbSavedByObjectVersion
1070
     0
1000
AcDbSavedByObjectVersion
1070
     0
1000
AcDbSavedByObjectVersion
1070
     0
1000
AcDbSavedByObjectVersion
1070
     0
  0
VISUALSTYLE
  5
30
102
{ACAD_REACTORS
330
2A
102
}
330
2A
100
AcDbVisualStyle
  2
3dWireframe
 70
     5
 71
     0
 72
     2
 73
     0
 90
        0
 40
-0.6
 41
-30.0
 62
     5
 63
     7
 74
     1
 91
        4
 64
     7
 65
   257
 75
     1
175
     1
 42
1.0
 92
        0
 66
   257
 43
1.0
 76
     1
 77
     6
 78
     2
 67
     7
 79
     5
170
     0
171
     0
290
     0
174
     0
 93
        1
 44
0.0
173
     0
291
     0
 45
0.0
1001
ACAD
1000
AcDbSavedByObjectVersion
1070
     0
1000
AcDbSavedByObjectVersion
1070
     0
1000
AcDbSavedByObjectVersion
1070
     0
1000
AcDbSavedByObjectVersion
1070
     0
1000
AcDbSavedByObjectVersion
1070
     0
1000
AcDbSavedByObjectVersion
1070
     0
1000
AcDbSavedByObjectVersion
1070
     0
1000
AcDbSavedByObjectVersion
1070
     0
1000
AcDbSavedByObjectVersion
1070
     0
1000
AcDbSavedByObjectVersion
1070
     0
1000
AcDbSavedByObjectVersion
1070
     0
1000
AcDbSavedByObjectVersion
1070
     0
1000
AcDbSavedByObjectVersion
1070
     0
1000
AcDbSavedByObjectVersion
1070
     0
1000
AcDbSavedByObjectVersion
1070
     0
1000
AcDbSavedByObjectVersion
1070
     0
1000
AcDbSavedByObjectVersion
1070
     0
1000
AcDbSavedByObjectVersion
1070
     0
1000
AcDbSavedByObjectVersion
1070
     0
1000
AcDbSavedByObjectVersion
1070
     0
1000
AcDbSavedByObjectVersion
1070
     0
1000
AcDbSavedByObjectVersion
1070
     0
1000
AcDbSavedByObjectVersion
1070
     0
1000
AcDbSavedByObjectVersion
1070
     0
1000
AcDbSavedByObjectVersion
1070
     0
1000
AcDbSavedByObjectVersion
1070
     0
1000
AcDbSavedByObjectVersion
1070
     0
1000
AcDbSavedByObjectVersion
1070
     0
1000
AcDbSavedByObjectVersion
1070
     0
1000
AcDbSavedByObjectVersion
1070
     0
1000
AcDbSavedByObjectVersion
1070
     0
1000
AcDbSavedByObjectVersion
1070
     0
1000
AcDbSavedByObjectVersion
1070
     0
1000
AcDbSavedByObjectVersion
1070
     0
1000
AcDbSavedByObjectVersion
1070
     0
1000
AcDbSavedByObjectVersion
1070
     0
1000
AcDbSavedByObjectVersion
1070
     0
1000
AcDbSavedByObjectVersion
1070
     0
1000
AcDbSavedByObjectVersion
1070
     0
1000
AcDbSavedByObjectVersion
1070
     0
1000
AcDbSavedByObjectVersion
1070
     0
1000
AcDbSavedByObjectVersion
1070
     0
1000
AcDbSavedByObjectVersion
1070
     0
  0
VISUALSTYLE
  5
32
102
{ACAD_REACTORS
330
2A
102
}
330
2A
100
AcDbVisualStyle
  2
Basic
 70
     7
 71
     1
 72
     0
 73
     1
 90
        0
 40
-0.6
 41
-30.0
 62
     5
 63
     7
 74
     0
 91
        4
 64
     7
 65
   257
 75
     1
175
     1
 42
1.0
 92
        8
 66
     7
 43
1.0
 76
     1
 77
     6
 78
     2
 67
     7
 79
     5
170
     0
171
     0
290
     0
174
     0
 93
        1
 44
0.0
173
     0
291
     1
 45
0.0
1001
ACAD
1000
AcDbSavedByObjectVersion
1070
     0
1000
AcDbSavedByObjectVersion
1070
     0
1000
AcDbSavedByObjectVersion
1070
     0
1000
AcDbSavedByObjectVersion
1070
     0
1000
AcDbSavedByObjectVersion
1070
     0
1000
AcDbSavedByObjectVersion
1070
     0
1000
AcDbSavedByObjectVersion
1070
     0
1000
AcDbSavedByObjectVersion
1070
     0
1000
AcDbSavedByObjectVersion
1070
     0
1000
AcDbSavedByObjectVersion
1070
     0
1000
AcDbSavedByObjectVersion
1070
     0
1000
AcDbSavedByObjectVersion
1070
     0
1000
AcDbSavedByObjectVersion
1070
     0
1000
AcDbSavedByObjectVersion
1070
     0
1000
AcDbSavedByObjectVersion
1070
     0
1000
AcDbSavedByObjectVersion
1070
     0
1000
AcDbSavedByObjectVersion
1070
     0
1000
AcDbSavedByObjectVersion
1070
     0
1000
AcDbSavedByObjectVersion
1070
     0
1000
AcDbSavedByObjectVersion
1070
     0
1000
AcDbSavedByObjectVersion
1070
     0
1000
AcDbSavedByObjectVersion
1070
     0
1000
AcDbSavedByObjectVersion
1070
     0
1000
AcDbSavedByObjectVersion
1070
     0
1000
AcDbSavedByObjectVersion
1070
     0
1000
AcDbSavedByObjectVersion
1070
     0
1000
AcDbSavedByObjectVersion
1070
     0
1000
AcDbSavedByObjectVersion
1070
     0
1000
AcDbSavedByObjectVersion
1070
     0
1000
AcDbSavedByObjectVersion
1070
     0
1000
AcDbSavedByObjectVersion
1070
     0
1000
AcDbSavedByObjectVersion
1070
     0
1000
AcDbSavedByObjectVersion
1070
     0
1000
AcDbSavedByObjectVersion
1070
     0
1000
AcDbSavedByObjectVersion
1070
     0
1000
AcDbSavedByObjectVersion
1070
     0
1000
AcDbSavedByObjectVersion
1070
     0
1000
AcDbSavedByObjectVersion
1070
     0
1000
AcDbSavedByObjectVersion
1070
     0
1000
AcDbSavedByObjectVersion
1070
     0
1000
AcDbSavedByObjectVersion
1070
     0
1000
AcDbSavedByObjectVersion
1070
     0
1000
AcDbSavedByObjectVersion
1070
     0
  0
VISUALSTYLE
  5
36
102
{ACAD_REACTORS
330
2A
102
}
330
2A
100
AcDbVisualStyle
  2
Brighten
 70
    12
 71
     2
 72
     2
 73
     0
 90
        0
 40
-0.6
 41
-30.0
 62
     5
 63
     7
 74
     1
 91
        4
 64
     7
 65
   257
 75
     1
175
     1
 42
1.0
 92
        8
 66
     7
 43
1.0
 76
     1
 77
     6
 78
     2
 67
     7
 79
     5
170
     0
171
     0
290
     0
174
     0
 93
        1
 44
50.0
173
     0
291
     1
 45
0.0
1001
ACAD
1000
AcDbSavedByObjectVersion
1070
     0
1000
AcDbSavedByObjectVersion
1070
     0
1000
AcDbSavedByObjectVersion
1070
     0
1000
AcDbSavedByObjectVersion
1070
     0
1000
AcDbSavedByObjectVersion
1070
     0
1000
AcDbSavedByObjectVersion
1070
     0
1000
AcDbSavedByObjectVersion
1070
     0
1000
AcDbSavedByObjectVersion
1070
     0
1000
AcDbSavedByObjectVersion
1070
     0
1000
AcDbSavedByObjectVersion
1070
     0
1000
AcDbSavedByObjectVersion
1070
     0
1000
AcDbSavedByObjectVersion
1070
     0
1000
AcDbSavedByObjectVersion
1070
     0
1000
AcDbSavedByObjectVersion
1070
     0
1000
AcDbSavedByObjectVersion
1070
     0
1000
AcDbSavedByObjectVersion
1070
     0
1000
AcDbSavedByObjectVersion
1070
     0
1000
AcDbSavedByObjectVersion
1070
     0
1000
AcDbSavedByObjectVersion
1070
     0
1000
AcDbSavedByObjectVersion
1070
     0
1000
AcDbSavedByObjectVersion
1070
     0
1000
AcDbSavedByObjectVersion
1070
     0
1000
AcDbSavedByObjectVersion
1070
     0
1000
AcDbSavedByObjectVersion
1070
     0
1000
AcDbSavedByObjectVersion
1070
     0
1000
AcDbSavedByObjectVersion
1070
     0
1000
AcDbSavedByObjectVersion
1070
     0
1000
AcDbSavedByObjectVersion
1070
     0
1000
AcDbSavedByObjectVersion
1070
     0
1000
AcDbSavedByObjectVersion
1070
     0
1000
AcDbSavedByObjectVersion
1070
     0
1000
AcDbSavedByObjectVersion
1070
     0
1000
AcDbSavedByObjectVersion
1070
     0
1000
AcDbSavedByObjectVersion
1070
     0
1000
AcDbSavedByObjectVersion
1070
     0
1000
AcDbSavedByObjectVersion
1070
     0
1000
AcDbSavedByObjectVersion
1070
     0
1000
AcDbSavedByObjectVersion
1070
     0
1000
AcDbSavedByObjectVersion
1070
     0
1000
AcDbSavedByObjectVersion
1070
     0
1000
AcDbSavedByObjectVersion
1070
     0
1000
AcDbSavedByObjectVersion
1070
     0
1000
AcDbSavedByObjectVersion
1070
     0
  0
VISUALSTYLE
  5
3A
102
{ACAD_REACTORS
330
2A
102
}
330
2A
100
AcDbVisualStyle
  2
ColorChange
 70
    16
 71
     2
 72
     2
 73
     3
 90
        0
 40
-0.6
 41
-30.0
 62
     5
 63
     8
 74
     1
 91
        4
 64
     7
 65
   257
 75
     1
175
     1
 42
1.0
 92
        8
 66
     8
 43
1.0
 76
     1
 77
     6
 78
     2
 67
     7
 79
     5
170
     0
171
     0
290
     0
174
     0
 93
        1
 44
0.0
173
     0
291
     1
 45
0.0
1001
ACAD
1000
AcDbSavedByObjectVersion
1070
     0
1000
AcDbSavedByObjectVersion
1070
     0
1000
AcDbSavedByObjectVersion
1070
     0
1000
AcDbSavedByObjectVersion
1070
     0
1000
AcDbSavedByObjectVersion
1070
     0
1000
AcDbSavedByObjectVersion
1070
     0
1000
AcDbSavedByObjectVersion
1070
     0
1000
AcDbSavedByObjectVersion
1070
     0
1000
AcDbSavedByObjectVersion
1070
     0
1000
AcDbSavedByObjectVersion
1070
     0
1000
AcDbSavedByObjectVersion
1070
     0
1000
AcDbSavedByObjectVersion
1070
     0
1000
AcDbSavedByObjectVersion
1070
     0
1000
AcDbSavedByObjectVersion
1070
     0
1000
AcDbSavedByObjectVersion
1070
     0
1000
AcDbSavedByObjectVersion
1070
     0
1000
AcDbSavedByObjectVersion
1070
     0
1000
AcDbSavedByObjectVersion
1070
     0
1000
AcDbSavedByObjectVersion
1070
     0
1000
AcDbSavedByObjectVersion
1070
     0
1000
AcDbSavedByObjectVersion
1070
     0
1000
AcDbSavedByObjectVersion
1070
     0
1000
AcDbSavedByObjectVersion
1070
     0
1000
AcDbSavedByObjectVersion
1070
     0
1000
AcDbSavedByObjectVersion
1070
     0
1000
AcDbSavedByObjectVersion
1070
     0
1000
AcDbSavedByObjectVersion
1070
     0
1000
AcDbSavedByObjectVersion
1070
     0
1000
AcDbSavedByObjectVersion
1070
     0
1000
AcDbSavedByObjectVersion
1070
     0
1000
AcDbSavedByObjectVersion
1070
     0
1000
AcDbSavedByObjectVersion
1070
     0
1000
AcDbSavedByObjectVersion
1070
     0
1000
AcDbSavedByObjectVersion
1070
     0
1000
AcDbSavedByObjectVersion
1070
     0
1000
AcDbSavedByObjectVersion
1070
     0
1000
AcDbSavedByObjectVersion
1070
     0
1000
AcDbSavedByObjectVersion
1070
     0
1000
AcDbSavedByObjectVersion
1070
     0
1000
AcDbSavedByObjectVersion
1070
     0
1000
AcDbSavedByObjectVersion
1070
     0
1000
AcDbSavedByObjectVersion
1070
     0
1000
AcDbSavedByObjectVersion
1070
     0
  0
VISUALSTYLE
  5
34
102
{ACAD_REACTORS
330
2A
102
}
330
2A
100
AcDbVisualStyle
  2
Conceptual
 70
     9
 71
     3
 72
     2
 73
     0
 90
        0
 40
-0.6
 41
-30.0
 62
     5
 63
     7
 74
     2
 91
        2
 64
     7
 65
   257
 75
     1
175
     1
 42
40.0
 92
        8
 66
     7
 43
1.0
 76
     1
 77
     6
 78
     2
 67
     7
 79
     3
170
     0
171
     0
290
     0
174
     0
 93
        1
 44
0.0
173
     0
291
     0
 45
0.0
1001
ACAD
1000
AcDbSavedByObjectVersion
1070
     0
1000
AcDbSavedByObjectVersion
1070
     0
1000
AcDbSavedByObjectVersion
1070
     0
1000
AcDbSavedByObjectVersion
1070
     0
1000
AcDbSavedByObjectVersion
1070
     0
1000
AcDbSavedByObjectVersion
1070
     0
1000
AcDbSavedByObjectVersion
1070
     0
1000
AcDbSavedByObjectVersion
1070
     0
1000
AcDbSavedByObjectVersion
1070
     0
1000
AcDbSavedByObjectVersion
1070
     0
1000
AcDbSavedByObjectVersion
1070
     0
1000
AcDbSavedByObjectVersion
1070
     0
1000
AcDbSavedByObjectVersion
1070
     0
1000
AcDbSavedByObjectVersion
1070
     0
1000
AcDbSavedByObjectVersion
1070
     0
1000
AcDbSavedByObjectVersion
1070
     0
1000
AcDbSavedByObjectVersion
1070
     0
1000
AcDbSavedByObjectVersion
1070
     0
1000
AcDbSavedByObjectVersion
1070
     0
1000
AcDbSavedByObjectVersion
1070
     0
1000
AcDbSavedByObjectVersion
1070
     0
1000
AcDbSavedByObjectVersion
1070
     0
1000
AcDbSavedByObjectVersion
1070
     0
1000
AcDbSavedByObjectVersion
1070
     0
1000
AcDbSavedByObjectVersion
1070
     0
1000
AcDbSavedByObjectVersion
1070
     0
1000
AcDbSavedByObjectVersion
1070
     0
1000
AcDbSavedByObjectVersion
1070
     0
1000
AcDbSavedByObjectVersion
1070
     0
1000
AcDbSavedByObjectVersion
1070
     0
1000
AcDbSavedByObjectVersion
1070
     0
1000
AcDbSavedByObjectVersion
1070
     0
1000
AcDbSavedByObjectVersion
1070
     0
1000
AcDbSavedByObjectVersion
1070
     0
1000
AcDbSavedByObjectVersion
1070
     0
1000
AcDbSavedByObjectVersion
1070
     0
1000
AcDbSavedByObjectVersion
1070
     0
1000
AcDbSavedByObjectVersion
1070
     0
1000
AcDbSavedByObjectVersion
1070
     0
1000
AcDbSavedByObjectVersion
1070
     0
1000
AcDbSavedByObjectVersion
1070
     0
1000
AcDbSavedByObjectVersion
1070
     0
1000
AcDbSavedByObjectVersion
1070
     0
  0
VISUALSTYLE
  5
35
102
{ACAD_REACTORS
330
2A
102
}
330
2A
100
AcDbVisualStyle
  2
Dim
 70
    11
 71
     2
 72
     2
 73
     0
 90
        0
 40
-0.6
 41
-30.0
 62
     5
 63
     7
 74
     1
 91
        4
 64
     7
 65
   257
 75
     1
175
     1
 42
1.0
 92
        8
 66
     7
 43
1.0
 76
     1
 77
     6
 78
     2
 67
     7
 79
     5
170
     0
171
     0
290
     0
174
     0
 93
        1
 44
-50.0
173
     0
291
     1
 45
0.0
1001
ACAD
1000
AcDbSavedByObjectVersion
1070
     0
1000
AcDbSavedByObjectVersion
1070
     0
1000
AcDbSavedByObjectVersion
1070
     0
1000
AcDbSavedByObjectVersion
1070
     0
1000
AcDbSavedByObjectVersion
1070
     0
1000
AcDbSavedByObjectVersion
1070
     0
1000
AcDbSavedByObjectVersion
1070
     0
1000
AcDbSavedByObjectVersion
1070
     0
1000
AcDbSavedByObjectVersion
1070
     0
1000
AcDbSavedByObjectVersion
1070
     0
1000
AcDbSavedByObjectVersion
1070
     0
1000
AcDbSavedByObjectVersion
1070
     0
1000
AcDbSavedByObjectVersion
1070
     0
1000
AcDbSavedByObjectVersion
1070
     0
1000
AcDbSavedByObjectVersion
1070
     0
1000
AcDbSavedByObjectVersion
1070
     0
1000
AcDbSavedByObjectVersion
1070
     0
1000
AcDbSavedByObjectVersion
1070
     0
1000
AcDbSavedByObjectVersion
1070
     0
1000
AcDbSavedByObjectVersion
1070
     0
1000
AcDbSavedByObjectVersion
1070
     0
1000
AcDbSavedByObjectVersion
1070
     0
1000
AcDbSavedByObjectVersion
1070
     0
1000
AcDbSavedByObjectVersion
1070
     0
1000
AcDbSavedByObjectVersion
1070
     0
1000
AcDbSavedByObjectVersion
1070
     0
1000
AcDbSavedByObjectVersion
1070
     0
1000
AcDbSavedByObjectVersion
1070
     0
1000
AcDbSavedByObjectVersion
1070
     0
1000
AcDbSavedByObjectVersion
1070
     0
1000
AcDbSavedByObjectVersion
1070
     0
1000
AcDbSavedByObjectVersion
1070
     0
1000
AcDbSavedByObjectVersion
1070
     0
1000
AcDbSavedByObjectVersion
1070
     0
1000
AcDbSavedByObjectVersion
1070
     0
1000
AcDbSavedByObjectVersion
1070
     0
1000
AcDbSavedByObjectVersion
1070
     0
1000
AcDbSavedByObjectVersion
1070
     0
1000
AcDbSavedByObjectVersion
1070
     0
1000
AcDbSavedByObjectVersion
1070
     0
1000
AcDbSavedByObjectVersion
1070
     0
1000
AcDbSavedByObjectVersion
1070
     0
1000
AcDbSavedByObjectVersion
1070
     0
  0
VISUALSTYLE
  5
39
102
{ACAD_REACTORS
330
2A
102
}
330
2A
100
AcDbVisualStyle
  2
Facepattern
 70
    15
 71
     2
 72
     2
 73
     0
 90
        0
 40
-0.6
 41
-30.0
 62
     5
 63
     7
 74
     1
 91
        4
 64
     7
 65
   257
 75
     1
175
     1
 42
1.0
 92
        8
 66
     7
 43
1.0
 76
     1
 77
     6
 78
     2
 67
     7
 79
     5
170
     0
171
     0
290
     0
174
     0
 93
        1
 44
0.0
173
     0
291
     1
 45
0.0
1001
ACAD
1000
AcDbSavedByObjectVersion
1070
     0
1000
AcDbSavedByObjectVersion
1070
     0
1000
AcDbSavedByObjectVersion
1070
     0
1000
AcDbSavedByObjectVersion
1070
     0
1000
AcDbSavedByObjectVersion
1070
     0
1000
AcDbSavedByObjectVersion
1070
     0
1000
AcDbSavedByObjectVersion
1070
     0
1000
AcDbSavedByObjectVersion
1070
     0
1000
AcDbSavedByObjectVersion
1070
     0
1000
AcDbSavedByObjectVersion
1070
     0
1000
AcDbSavedByObjectVersion
1070
     0
1000
AcDbSavedByObjectVersion
1070
     0
1000
AcDbSavedByObjectVersion
1070
     0
1000
AcDbSavedByObjectVersion
1070
     0
1000
AcDbSavedByObjectVersion
1070
     0
1000
AcDbSavedByObjectVersion
1070
     0
1000
AcDbSavedByObjectVersion
1070
     0
1000
AcDbSavedByObjectVersion
1070
     0
1000
AcDbSavedByObjectVersion
1070
     0
1000
AcDbSavedByObjectVersion
1070
     0
1000
AcDbSavedByObjectVersion
1070
     0
1000
AcDbSavedByObjectVersion
1070
     0
1000
AcDbSavedByObjectVersion
1070
     0
1000
AcDbSavedByObjectVersion
1070
     0
1000
AcDbSavedByObjectVersion
1070
     0
1000
AcDbSavedByObjectVersion
1070
     0
1000
AcDbSavedByObjectVersion
1070
     0
1000
AcDbSavedByObjectVersion
1070
     0
1000
AcDbSavedByObjectVersion
1070
     0
1000
AcDbSavedByObjectVersion
1070
     0
1000
AcDbSavedByObjectVersion
1070
     0
1000
AcDbSavedByObjectVersion
1070
     0
1000
AcDbSavedByObjectVersion
1070
     0
1000
AcDbSavedByObjectVersion
1070
     0
1000
AcDbSavedByObjectVersion
1070
     0
1000
AcDbSavedByObjectVersion
1070
     0
1000
AcDbSavedByObjectVersion
1070
     0
1000
AcDbSavedByObjectVersion
1070
     0
1000
AcDbSavedByObjectVersion
1070
     0
1000
AcDbSavedByObjectVersion
1070
     0
1000
AcDbSavedByObjectVersion
1070
     0
1000
AcDbSavedByObjectVersion
1070
     0
1000
AcDbSavedByObjectVersion
1070
     0
  0
VISUALSTYLE
  5
2B
102
{ACAD_REACTORS
330
2A
102
}
330
2A
100
AcDbVisualStyle
  2
Flat
 70
     0
 71
     2
 72
     1
 73
     1
 90
        2
 40
-0.6
 41
30.0
 62
     5
 63
     7
 74
     0
 91
        4
 64
     7
 65
   257
 75
     1
175
     1
 42
1.0
 92
        8
 66
     7
 43
1.0
 76
     1
 77
     6
 78
     2
 67
     7
 79
     5
170
     0
171
     0
290
     0
174
     0
 93
       13
 44
0.0
173
     0
291
     1
 45
0.0
1001
ACAD
1000
AcDbSavedByObjectVersion
1070
     0
1000
AcDbSavedByObjectVersion
1070
     0
1000
AcDbSavedByObjectVersion
1070
     0
1000
AcDbSavedByObjectVersion
1070
     0
1000
AcDbSavedByObjectVersion
1070
     0
1000
AcDbSavedByObjectVersion
1070
     0
1000
AcDbSavedByObjectVersion
1070
     0
1000
AcDbSavedByObjectVersion
1070
     0
1000
AcDbSavedByObjectVersion
1070
     0
1000
AcDbSavedByObjectVersion
1070
     0
1000
AcDbSavedByObjectVersion
1070
     0
1000
AcDbSavedByObjectVersion
1070
     0
1000
AcDbSavedByObjectVersion
1070
     0
1000
AcDbSavedByObjectVersion
1070
     0
1000
AcDbSavedByObjectVersion
1070
     0
1000
AcDbSavedByObjectVersion
1070
     0
1000
AcDbSavedByObjectVersion
1070
     0
1000
AcDbSavedByObjectVersion
1070
     0
1000
AcDbSavedByObjectVersion
1070
     0
1000
AcDbSavedByObjectVersion
1070
     0
1000
AcDbSavedByObjectVersion
1070
     0
1000
AcDbSavedByObjectVersion
1070
     0
1000
AcDbSavedByObjectVersion
1070
     0
1000
AcDbSavedByObjectVersion
1070
     0
1000
AcDbSavedByObjectVersion
1070
     0
1000
AcDbSavedByObjectVersion
1070
     0
1000
AcDbSavedByObjectVersion
1070
     0
1000
AcDbSavedByObjectVersion
1070
     0
1000
AcDbSavedByObjectVersion
1070
     0
1000
AcDbSavedByObjectVersion
1070
     0
1000
AcDbSavedByObjectVersion
1070
     0
1000
AcDbSavedByObjectVersion
1070
     0
1000
AcDbSavedByObjectVersion
1070
     0
1000
AcDbSavedByObjectVersion
1070
     0
1000
AcDbSavedByObjectVersion
1070
     0
1000
AcDbSavedByObjectVersion
1070
     0
1000
AcDbSavedByObjectVersion
1070
     0
1000
AcDbSavedByObjectVersion
1070
     0
1000
AcDbSavedByObjectVersion
1070
     0
1000
AcDbSavedByObjectVersion
1070
     0
1000
AcDbSavedByObjectVersion
1070
     0
1000
AcDbSavedByObjectVersion
1070
     0
1000
AcDbSavedByObjectVersion
1070
     0
  0
VISUALSTYLE
  5
2C
102
{ACAD_REACTORS
330
2A
102
}
330
2A
100
AcDbVisualStyle
  2
FlatWithEdges
 70
     1
 71
     2
 72
     1
 73
     1
 90
        2
 40
-0.6
 41
30.0
 62
     5
 63
     7
 74
     1
 91
        4
 64
     7
 65
   257
 75
     1
175
     1
 42
1.0
 92
        0
 66
   257
 43
1.0
 76
     1
 77
     6
 78
     2
 67
     7
 79
     5
170
     0
171
     0
290
     0
174
     0
 93
       13
 44
0.0
173
     0
291
     1
 45
0.0
1001
ACAD
1000
AcDbSavedByObjectVersion
1070
     0
1000
AcDbSavedByObjectVersion
1070
     0
1000
AcDbSavedByObjectVersion
1070
     0
1000
AcDbSavedByObjectVersion
1070
     0
1000
AcDbSavedByObjectVersion
1070
     0
1000
AcDbSavedByObjectVersion
1070
     0
1000
AcDbSavedByObjectVersion
1070
     0
1000
AcDbSavedByObjectVersion
1070
     0
1000
AcDbSavedByObjectVersion
1070
     0
1000
AcDbSavedByObjectVersion
1070
     0
1000
AcDbSavedByObjectVersion
1070
     0
1000
AcDbSavedByObjectVersion
1070
     0
1000
AcDbSavedByObjectVersion
1070
     0
1000
AcDbSavedByObjectVersion
1070
     0
1000
AcDbSavedByObjectVersion
1070
     0
1000
AcDbSavedByObjectVersion
1070
     0
1000
AcDbSavedByObjectVersion
1070
     0
1000
AcDbSavedByObjectVersion
1070
     0
1000
AcDbSavedByObjectVersion
1070
     0
1000
AcDbSavedByObjectVersion
1070
     0
1000
AcDbSavedByObjectVersion
1070
     0
1000
AcDbSavedByObjectVersion
1070
     0
1000
AcDbSavedByObjectVersion
1070
     0
1000
AcDbSavedByObjectVersion
1070
     0
1000
AcDbSavedByObjectVersion
1070
     0
1000
AcDbSavedByObjectVersion
1070
     0
1000
AcDbSavedByObjectVersion
1070
     0
1000
AcDbSavedByObjectVersion
1070
     0
1000
AcDbSavedByObjectVersion
1070
     0
1000
AcDbSavedByObjectVersion
1070
     0
1000
AcDbSavedByObjectVersion
1070
     0
1000
AcDbSavedByObjectVersion
1070
     0
1000
AcDbSavedByObjectVersion
1070
     0
1000
AcDbSavedByObjectVersion
1070
     0
1000
AcDbSavedByObjectVersion
1070
     0
1000
AcDbSavedByObjectVersion
1070
     0
1000
AcDbSavedByObjectVersion
1070
     0
1000
AcDbSavedByObjectVersion
1070
     0
1000
AcDbSavedByObjectVersion
1070
     0
1000
AcDbSavedByObjectVersion
1070
     0
1000
AcDbSavedByObjectVersion
1070
     0
1000
AcDbSavedByObjectVersion
1070
     0
1000
AcDbSavedByObjectVersion
1070
     0
  0
VISUALSTYLE
  5
2D
102
{ACAD_REACTORS
330
2A
102
}
330
2A
100
AcDbVisualStyle
  2
Gouraud
 70
     2
 71
     2
 72
     2
 73
     1
 90
        2
 40
-0.6
 41
30.0
 62
     5
 63
     7
 74
     0
 91
        4
 64
     7
 65
   257
 75
     1
175
     1
 42
1.0
 92
        0
 66
     7
 43
1.0
 76
     1
 77
     6
 78
     2
 67
     7
 79
     5
170
     0
171
     0
290
     0
174
     0
 93
       13
 44
0.0
173
     0
291
     1
 45
0.0
1001
ACAD
1000
AcDbSavedByObjectVersion
1070
     0
1000
AcDbSavedByObjectVersion
1070
     0
1000
AcDbSavedByObjectVersion
1070
     0
1000
AcDbSavedByObjectVersion
1070
     0
1000
AcDbSavedByObjectVersion
1070
     0
1000
AcDbSavedByObjectVersion
1070
     0
1000
AcDbSavedByObjectVersion
1070
     0
1000
AcDbSavedByObjectVersion
1070
     0
1000
AcDbSavedByObjectVersion
1070
     0
1000
AcDbSavedByObjectVersion
1070
     0
1000
AcDbSavedByObjectVersion
1070
     0
1000
AcDbSavedByObjectVersion
1070
     0
1000
AcDbSavedByObjectVersion
1070
     0
1000
AcDbSavedByObjectVersion
1070
     0
1000
AcDbSavedByObjectVersion
1070
     0
1000
AcDbSavedByObjectVersion
1070
     0
1000
AcDbSavedByObjectVersion
1070
     0
1000
AcDbSavedByObjectVersion
1070
     0
1000
AcDbSavedByObjectVersion
1070
     0
1000
AcDbSavedByObjectVersion
1070
     0
1000
AcDbSavedByObjectVersion
1070
     0
1000
AcDbSavedByObjectVersion
1070
     0
1000
AcDbSavedByObjectVersion
1070
     0
1000
AcDbSavedByObjectVersion
1070
     0
1000
AcDbSavedByObjectVersion
1070
     0
1000
AcDbSavedByObjectVersion
1070
     0
1000
AcDbSavedByObjectVersion
1070
     0
1000
AcDbSavedByObjectVersion
1070
     0
1000
AcDbSavedByObjectVersion
1070
     0
1000
AcDbSavedByObjectVersion
1070
     0
1000
AcDbSavedByObjectVersion
1070
     0
1000
AcDbSavedByObjectVersion
1070
     0
1000
AcDbSavedByObjectVersion
1070
     0
1000
AcDbSavedByObjectVersion
1070
     0
1000
AcDbSavedByObjectVersion
1070
     0
1000
AcDbSavedByObjectVersion
1070
     0
1000
AcDbSavedByObjectVersion
1070
     0
1000
AcDbSavedByObjectVersion
1070
     0
1000
AcDbSavedByObjectVersion
1070
     0
1000
AcDbSavedByObjectVersion
1070
     0
1000
AcDbSavedByObjectVersion
1070
     0
1000
AcDbSavedByObjectVersion
1070
     0
1000
AcDbSavedByObjectVersion
1070
     0
  0
VISUALSTYLE
  5
2E
102
{ACAD_REACTORS
330
2A
102
}
330
2A
100
AcDbVisualStyle
  2
GouraudWithEdges
 70
     3
 71
     2
 72
     2
 73
     1
 90
        2
 40
-0.6
 41
30.0
 62
     5
 63
     7
 74
     1
 91
        4
 64
     7
 65
   257
 75
     1
175
     1
 42
1.0
 92
        0
 66
   257
 43
1.0
 76
     1
 77
     6
 78
     2
 67
     7
 79
     5
170
     0
171
     0
290
     0
174
     0
 93
       13
 44
0.0
173
     0
291
     1
 45
0.0
1001
ACAD
1000
AcDbSavedByObjectVersion
1070
     0
1000
AcDbSavedByObjectVersion
1070
     0
1000
AcDbSavedByObjectVersion
1070
     0
1000
AcDbSavedByObjectVersion
1070
     0
1000
AcDbSavedByObjectVersion
1070
     0
1000
AcDbSavedByObjectVersion
1070
     0
1000
AcDbSavedByObjectVersion
1070
     0
1000
AcDbSavedByObjectVersion
1070
     0
1000
AcDbSavedByObjectVersion
1070
     0
1000
AcDbSavedByObjectVersion
1070
     0
1000
AcDbSavedByObjectVersion
1070
     0
1000
AcDbSavedByObjectVersion
1070
     0
1000
AcDbSavedByObjectVersion
1070
     0
1000
AcDbSavedByObjectVersion
1070
     0
1000
AcDbSavedByObjectVersion
1070
     0
1000
AcDbSavedByObjectVersion
1070
     0
1000
AcDbSavedByObjectVersion
1070
     0
1000
AcDbSavedByObjectVersion
1070
     0
1000
AcDbSavedByObjectVersion
1070
     0
1000
AcDbSavedByObjectVersion
1070
     0
1000
AcDbSavedByObjectVersion
1070
     0
1000
AcDbSavedByObjectVersion
1070
     0
1000
AcDbSavedByObjectVersion
1070
     0
1000
AcDbSavedByObjectVersion
1070
     0
1000
AcDbSavedByObjectVersion
1070
     0
1000
AcDbSavedByObjectVersion
1070
     0
1000
AcDbSavedByObjectVersion
1070
     0
1000
AcDbSavedByObjectVersion
1070
     0
1000
AcDbSavedByObjectVersion
1070
     0
1000
AcDbSavedByObjectVersion
1070
     0
1000
AcDbSavedByObjectVersion
1070
     0
1000
AcDbSavedByObjectVersion
1070
     0
1000
AcDbSavedByObjectVersion
1070
     0
1000
AcDbSavedByObjectVersion
1070
     0
1000
AcDbSavedByObjectVersion
1070
     0
1000
AcDbSavedByObjectVersion
1070
     0
1000
AcDbSavedByObjectVersion
1070
     0
1000
AcDbSavedByObjectVersion
1070
     0
1000
AcDbSavedByObjectVersion
1070
     0
1000
AcDbSavedByObjectVersion
1070
     0
1000
AcDbSavedByObjectVersion
1070
     0
1000
AcDbSavedByObjectVersion
1070
     0
1000
AcDbSavedByObjectVersion
1070
     0
  0
VISUALSTYLE
  5
38
102
{ACAD_REACTORS
330
2A
102
}
330
2A
100
AcDbVisualStyle
  2
Linepattern
 70
    14
 71
     2
 72
     2
 73
     0
 90
        0
 40
-0.6
 41
-30.0
 62
     5
 63
     7
 74
     1
 91
        4
 64
     7
 65
   257
 75
     7
175
     7
 42
1.0
 92
        8
 66
     7
 43
1.0
 76
     1
 77
     6
 78
     2
 67
     7
 79
     5
170
     0
171
     0
290
     0
174
     0
 93
        1
 44
0.0
173
     0
291
     1
 45
0.0
1001
ACAD
1000
AcDbSavedByObjectVersion
1070
     0
1000
AcDbSavedByObjectVersion
1070
     0
1000
AcDbSavedByObjectVersion
1070
     0
1000
AcDbSavedByObjectVersion
1070
     0
1000
AcDbSavedByObjectVersion
1070
     0
1000
AcDbSavedByObjectVersion
1070
     0
1000
AcDbSavedByObjectVersion
1070
     0
1000
AcDbSavedByObjectVersion
1070
     0
1000
AcDbSavedByObjectVersion
1070
     0
1000
AcDbSavedByObjectVersion
1070
     0
1000
AcDbSavedByObjectVersion
1070
     0
1000
AcDbSavedByObjectVersion
1070
     0
1000
AcDbSavedByObjectVersion
1070
     0
1000
AcDbSavedByObjectVersion
1070
     0
1000
AcDbSavedByObjectVersion
1070
     0
1000
AcDbSavedByObjectVersion
1070
     0
1000
AcDbSavedByObjectVersion
1070
     0
1000
AcDbSavedByObjectVersion
1070
     0
1000
AcDbSavedByObjectVersion
1070
     0
1000
AcDbSavedByObjectVersion
1070
     0
1000
AcDbSavedByObjectVersion
1070
     0
1000
AcDbSavedByObjectVersion
1070
     0
1000
AcDbSavedByObjectVersion
1070
     0
1000
AcDbSavedByObjectVersion
1070
     0
1000
AcDbSavedByObjectVersion
1070
     0
1000
AcDbSavedByObjectVersion
1070
     0
1000
AcDbSavedByObjectVersion
1070
     0
1000
AcDbSavedByObjectVersion
1070
     0
1000
AcDbSavedByObjectVersion
1070
     0
1000
AcDbSavedByObjectVersion
1070
     0
1000
AcDbSavedByObjectVersion
1070
     0
1000
AcDbSavedByObjectVersion
1070
     0
1000
AcDbSavedByObjectVersion
1070
     0
1000
AcDbSavedByObjectVersion
1070
     0
1000
AcDbSavedByObjectVersion
1070
     0
1000
AcDbSavedByObjectVersion
1070
     0
1000
AcDbSavedByObjectVersion
1070
     0
1000
AcDbSavedByObjectVersion
1070
     0
1000
AcDbSavedByObjectVersion
1070
     0
1000
AcDbSavedByObjectVersion
1070
     0
1000
AcDbSavedByObjectVersion
1070
     0
1000
AcDbSavedByObjectVersion
1070
     0
1000
AcDbSavedByObjectVersion
1070
     0
  0
VISUALSTYLE
  5
33
102
{ACAD_REACTORS
330
2A
102
}
330
2A
100
AcDbVisualStyle
  2
Realistic
 70
     8
 71
     2
 72
     2
 73
     0
 90
        0
 40
-0.6
 41
-30.0
 62
     5
 63
     7
 74
     1
 91
        0
 64
     7
 65
   257
 75
     1
175
     1
 42
1.0
 92
        8
 66
     8
 43
1.0
 76
     1
 77
     6
 78
     2
 67
     7
 79
     5
170
     0
171
     0
290
     0
174
     0
 93
       13
 44
0.0
173
     0
291
     0
 45
0.0
1001
ACAD
1000
AcDbSavedByObjectVersion
1070
     0
1000
AcDbSavedByObjectVersion
1070
     0
1000
AcDbSavedByObjectVersion
1070
     0
1000
AcDbSavedByObjectVersion
1070
     0
1000
AcDbSavedByObjectVersion
1070
     0
1000
AcDbSavedByObjectVersion
1070
     0
1000
AcDbSavedByObjectVersion
1070
     0
1000
AcDbSavedByObjectVersion
1070
     0
1000
AcDbSavedByObjectVersion
1070
     0
1000
AcDbSavedByObjectVersion
1070
     0
1000
AcDbSavedByObjectVersion
1070
     0
1000
AcDbSavedByObjectVersion
1070
     0
1000
AcDbSavedByObjectVersion
1070
     0
1000
AcDbSavedByObjectVersion
1070
     0
1000
AcDbSavedByObjectVersion
1070
     0
1000
AcDbSavedByObjectVersion
1070
     0
1000
AcDbSavedByObjectVersion
1070
     0
1000
AcDbSavedByObjectVersion
1070
     0
1000
AcDbSavedByObjectVersion
1070
     0
1000
AcDbSavedByObjectVersion
1070
     0
1000
AcDbSavedByObjectVersion
1070
     0
1000
AcDbSavedByObjectVersion
1070
     0
1000
AcDbSavedByObjectVersion
1070
     0
1000
AcDbSavedByObjectVersion
1070
     0
1000
AcDbSavedByObjectVersion
1070
     0
1000
AcDbSavedByObjectVersion
1070
     0
1000
AcDbSavedByObjectVersion
1070
     0
1000
AcDbSavedByObjectVersion
1070
     0
1000
AcDbSavedByObjectVersion
1070
     0
1000
AcDbSavedByObjectVersion
1070
     0
1000
AcDbSavedByObjectVersion
1070
     0
1000
AcDbSavedByObjectVersion
1070
     0
1000
AcDbSavedByObjectVersion
1070
     0
1000
AcDbSavedByObjectVersion
1070
     0
1000
AcDbSavedByObjectVersion
1070
     0
1000
AcDbSavedByObjectVersion
1070
     0
1000
AcDbSavedByObjectVersion
1070
     0
1000
AcDbSavedByObjectVersion
1070
     0
1000
AcDbSavedByObjectVersion
1070
     0
1000
AcDbSavedByObjectVersion
1070
     0
1000
AcDbSavedByObjectVersion
1070
     0
1000
AcDbSavedByObjectVersion
1070
     0
1000
AcDbSavedByObjectVersion
1070
     0
  0
VISUALSTYLE
  5
37
102
{ACAD_REACTORS
330
2A
102
}
330
2A
100
AcDbVisualStyle
  2
Thicken
 70
    13
 71
     2
 72
     2
 73
     0
 90
        0
 40
-0.6
 41
-30.0
 62
     5
 63
     7
 74
     1
 91
        4
 64
     7
 65
   257
 75
     1
175
     1
 42
1.0
 92
       12
 66
     7
 43
1.0
 76
     1
 77
     6
 78
     2
 67
     7
 79
     5
170
     0
171
     0
290
     0
174
     0
 93
        1
 44
0.0
173
     0
291
     1
 45
0.0
1001
ACAD
1000
AcDbSavedByObjectVersion
1070
     0
1000
AcDbSavedByObjectVersion
1070
     0
1000
AcDbSavedByObjectVersion
1070
     0
1000
AcDbSavedByObjectVersion
1070
     0
1000
AcDbSavedByObjectVersion
1070
     0
1000
AcDbSavedByObjectVersion
1070
     0
1000
AcDbSavedByObjectVersion
1070
     0
1000
AcDbSavedByObjectVersion
1070
     0
1000
AcDbSavedByObjectVersion
1070
     0
1000
AcDbSavedByObjectVersion
1070
     0
1000
AcDbSavedByObjectVersion
1070
     0
1000
AcDbSavedByObjectVersion
1070
     0
1000
AcDbSavedByObjectVersion
1070
     0
1000
AcDbSavedByObjectVersion
1070
     0
1000
AcDbSavedByObjectVersion
1070
     0
1000
AcDbSavedByObjectVersion
1070
     0
1000
AcDbSavedByObjectVersion
1070
     0
1000
AcDbSavedByObjectVersion
1070
     0
1000
AcDbSavedByObjectVersion
1070
     0
1000
AcDbSavedByObjectVersion
1070
     0
1000
AcDbSavedByObjectVersion
1070
     0
1000
AcDbSavedByObjectVersion
1070
     0
1000
AcDbSavedByObjectVersion
1070
     0
1000
AcDbSavedByObjectVersion
1070
     0
1000
AcDbSavedByObjectVersion
1070
     0
1000
AcDbSavedByObjectVersion
1070
     0
1000
AcDbSavedByObjectVersion
1070
     0
1000
AcDbSavedByObjectVersion
1070
     0
1000
AcDbSavedByObjectVersion
1070
     0
1000
AcDbSavedByObjectVersion
1070
     0
1000
AcDbSavedByObjectVersion
1070
     0
1000
AcDbSavedByObjectVersion
1070
     0
1000
AcDbSavedByObjectVersion
1070
     0
1000
AcDbSavedByObjectVersion
1070
     0
1000
AcDbSavedByObjectVersion
1070
     0
1000
AcDbSavedByObjectVersion
1070
     0
1000
AcDbSavedByObjectVersion
1070
     0
1000
AcDbSavedByObjectVersion
1070
     0
1000
AcDbSavedByObjectVersion
1070
     0
1000
AcDbSavedByObjectVersion
1070
     0
1000
AcDbSavedByObjectVersion
1070
     0
1000
AcDbSavedByObjectVersion
1070
     0
1000
AcDbSavedByObjectVersion
1070
     0
  0
DICTIONARYVAR
  5
510B
102
{ACAD_REACTORS
330
5108
102
}
330
5108
100
DictionaryVariables
280
     0
  1
1:1
  0
DICTIONARYVAR
  5
510A
102
{ACAD_REACTORS
330
5108
102
}
330
5108
100
DictionaryVariables
280
     0
  1
STANDARD
  0
DICTIONARYVAR
  5
5109
102
{ACAD_REACTORS
330
5108
102
}
330
5108
100
DictionaryVariables
280
     0
  1
STANDARD
  0
DICTIONARYVAR
  5
510E
102
{ACAD_REACTORS
330
5108
102
}
330
5108
100
DictionaryVariables
280
     0
  1
1
  0
DICTIONARYVAR
  5
510D
102
{ACAD_REACTORS
330
5108
102
}
330
5108
100
DictionaryVariables
280
     0
  1
0
  0
DICTIONARYVAR
  5
510C
102
{ACAD_REACTORS
330
5108
102
}
330
5108
100
DictionaryVariables
280
     0
  1
127
  0
XRECORD
  5
11ACF
102
{ACAD_REACTORS
330
11ACE
102
}
330
11ACE
100
AcDbXrecord
280
     1
330
11089
  0
DICTIONARY
  5
1898A
330
1E
100
AcDbDictionary
280
     1
281
     1
  3
ACAD_XREC_ROUNDTRIP
360
1898B
  0
DICTIONARY
  5
1898E
330
26
100
AcDbDictionary
280
     1
281
     1
  3
ACAD_XREC_ROUNDTRIP
360
1898F
  0
DICTIONARY
  5
1898C
330
22
100
AcDbDictionary
280
     1
281
     1
  3
ACAD_XREC_ROUNDTRIP
360
1898D
  0
DICTIONARY
  5
4FEF
330
4FEE
100
AcDbDictionary
280
     1
281
     1
  3
ACAD_XREC_ROUNDTRIP
360
7C2C
  3
BUMPTILE
360
4FF1
  3
DIFFUSETILE
360
4FF0
  3
OPACITYTILE
360
4FF4
  3
REFLECTIONTILE
360
4FF3
  3
REFRACTIONTILE
360
4FF5
  3
SPECULARTILE
360
4FF2
  0
DICTIONARY
  5
4FE7
330
4FE6
100
AcDbDictionary
280
     1
281
     1
  3
ACAD_XREC_ROUNDTRIP
360
7C2B
  3
BUMPTILE
360
4FE9
  3
DIFFUSETILE
360
4FE8
  3
OPACITYTILE
360
4FEC
  3
REFLECTIONTILE
360
4FEB
  3
REFRACTIONTILE
360
4FED
  3
SPECULARTILE
360
4FEA
  0
DICTIONARY
  5
4FF7
330
4FF6
100
AcDbDictionary
280
     1
281
     1
  3
ACAD_XREC_ROUNDTRIP
360
7C2D
  3
BUMPTILE
360
4FF9
  3
DIFFUSETILE
360
4FF8
  3
OPACITYTILE
360
4FFC
  3
REFLECTIONTILE
360
4FFB
  3
REFRACTIONTILE
360
4FFD
  3
SPECULARTILE
360
4FFA
  0
DICTIONARY
  5
50D6
330
4FFF
100
AcDbDictionary
280
     1
281
     1
  3
ACAD_ROUNDTRIP_2008_TABLESTYLE_CELLSTYLEMAP
360
1896E
  3
ACAD_XREC_ROUNDTRIP
360
18990
  0
XRECORD
  5
1898B
102
{ACAD_REACTORS
330
1898A
102
}
330
1898A
100
AcDbXrecord
280
     1
102
SHADEPLOT
 70
     0
102
SHADEPLOTRESLEVEL
 70
     2
102
SHADEPLOTCUSTOMDPI
 70
   300
  0
XRECORD
  5
1898F
102
{ACAD_REACTORS
330
1898E
102
}
330
1898E
100
AcDbXrecord
280
     1
102
SHADEPLOT
 70
     0
102
SHADEPLOTRESLEVEL
 70
     2
102
SHADEPLOTCUSTOMDPI
 70
   300
  0
XRECORD
  5
1898D
102
{ACAD_REACTORS
330
1898C
102
}
330
1898C
100
AcDbXrecord
280
     1
102
SHADEPLOT
 70
     1
102
SHADEPLOTRESLEVEL
 70
     2
102
SHADEPLOTCUSTOMDPI
 70
   300
  0
XRECORD
  5
7C2C
102
{ACAD_REACTORS
330
4FEF
102
}
330
4FEF
100
AcDbXrecord
280
     1
102
MATERIAL
148
0.0
149
0.0
149
0.0
 93
        0
 94
      127
282
     0
 72
     0
 77
     0
171
     0
175
     0
179
     0
273
     0
  0
XRECORD
  5
4FF1
102
{ACAD_REACTORS
330
4FEF
102
}
330
4FEF
100
AcDbXrecord
280
     1
270
     1
271
     1
  0
XRECORD
  5
4FF0
102
{ACAD_REACTORS
330
4FEF
102
}
330
4FEF
100
AcDbXrecord
280
     1
270
     1
271
     1
  0
XRECORD
  5
4FF4
102
{ACAD_REACTORS
330
4FEF
102
}
330
4FEF
100
AcDbXrecord
280
     1
270
     1
271
     1
  0
XRECORD
  5
4FF3
102
{ACAD_REACTORS
330
4FEF
102
}
330
4FEF
100
AcDbXrecord
280
     1
270
     1
271
     1
  0
XRECORD
  5
4FF5
102
{ACAD_REACTORS
330
4FEF
102
}
330
4FEF
100
AcDbXrecord
280
     1
270
     1
271
     1
  0
XRECORD
  5
4FF2
102
{ACAD_REACTORS
330
4FEF
102
}
330
4FEF
100
AcDbXrecord
280
     1
270
     1
271
     1
  0
XRECORD
  5
7C2B
102
{ACAD_REACTORS
330
4FE7
102
}
330
4FE7
100
AcDbXrecord
280
     1
102
MATERIAL
148
0.0
149
0.0
149
0.0
 93
        0
 94
      127
282
     0
 72
     0
 77
     0
171
     0
175
     0
179
     0
273
     0
  0
XRECORD
  5
4FE9
102
{ACAD_REACTORS
330
4FE7
102
}
330
4FE7
100
AcDbXrecord
280
     1
270
     1
271
     1
  0
XRECORD
  5
4FE8
102
{ACAD_REACTORS
330
4FE7
102
}
330
4FE7
100
AcDbXrecord
280
     1
270
     1
271
     1
  0
XRECORD
  5
4FEC
102
{ACAD_REACTORS
330
4FE7
102
}
330
4FE7
100
AcDbXrecord
280
     1
270
     1
271
     1
  0
XRECORD
  5
4FEB
102
{ACAD_REACTORS
330
4FE7
102
}
330
4FE7
100
AcDbXrecord
280
     1
270
     1
271
     1
  0
XRECORD
  5
4FED
102
{ACAD_REACTORS
330
4FE7
102
}
330
4FE7
100
AcDbXrecord
280
     1
270
     1
271
     1
  0
XRECORD
  5
4FEA
102
{ACAD_REACTORS
330
4FE7
102
}
330
4FE7
100
AcDbXrecord
280
     1
270
     1
271
     1
  0
XRECORD
  5
7C2D
102
{ACAD_REACTORS
330
4FF7
102
}
330
4FF7
100
AcDbXrecord
280
     1
102
MATERIAL
148
0.0
149
0.0
149
0.0
 93
        0
 94
      127
282
     0
 72
     0
 77
     0
171
     0
175
     0
179
     0
273
     0
  0
XRECORD
  5
4FF9
102
{ACAD_REACTORS
330
4FF7
102
}
330
4FF7
100
AcDbXrecord
280
     1
270
     1
271
     1
  0
XRECORD
  5
4FF8
102
{ACAD_REACTORS
330
4FF7
102
}
330
4FF7
100
AcDbXrecord
280
     1
270
     1
271
     1
  0
XRECORD
  5
4FFC
102
{ACAD_REACTORS
330
4FF7
102
}
330
4FF7
100
AcDbXrecord
280
     1
270
     1
271
     1
  0
XRECORD
  5
4FFB
102
{ACAD_REACTORS
330
4FF7
102
}
330
4FF7
100
AcDbXrecord
280
     1
270
     1
271
     1
  0
XRECORD
  5
4FFD
102
{ACAD_REACTORS
330
4FF7
102
}
330
4FF7
100
AcDbXrecord
280
     1
270
     1
271
     1
  0
XRECORD
  5
4FFA
102
{ACAD_REACTORS
330
4FF7
102
}
330
4FF7
100
AcDbXrecord
280
     1
270
     1
271
     1
  0
CELLSTYLEMAP
  5
1896E
102
{ACAD_REACTORS
330
50D6
102
}
330
50D6
100
AcDbCellStyleMap
 90
        3
300
CELLSTYLE
  1
TABLEFORMAT_BEGIN
 90
        5
170
     1
 91
        0
 92
    32768
 62
   257
 93
        1
300
CONTENTFORMAT
  1
CONTENTFORMAT_BEGIN
 90
        0
 91
        0
 92
      512
 93
        0
300

 40
0.0
140
1.0
 94
        5
 62
     0
340
11
144
0.25
309
CONTENTFORMAT_END
171
     1
301
MARGIN
  1
CELLMARGIN_BEGIN
 40
0.06
 40
0.06
 40
0.06
 40
0.06
 40
0.18
 40
0.18
309
CELLMARGIN_END
 94
        6
 95
        1
302
GRIDFORMAT
  1
GRIDFORMAT_BEGIN
 90
        0
 91
        1
 62
     0
 92
       -2
340
0
 93
        0
 40
0.045
309
GRIDFORMAT_END
 95
        2
302
GRIDFORMAT
  1
GRIDFORMAT_BEGIN
 90
        0
 91
        1
 62
     0
 92
       -2
340
0
 93
        0
 40
0.045
309
GRIDFORMAT_END
 95
        4
302
GRIDFORMAT
  1
GRIDFORMAT_BEGIN
 90
        0
 91
        1
 62
     0
 92
       -2
340
0
 93
        0
 40
0.045
309
GRIDFORMAT_END
 95
        8
302
GRIDFORMAT
  1
GRIDFORMAT_BEGIN
 90
        0
 91
        1
 62
     0
 92
       -2
340
0
 93
        0
 40
0.045
309
GRIDFORMAT_END
 95
       16
302
GRIDFORMAT
  1
GRIDFORMAT_BEGIN
 90
        0
 91
        1
 62
     0
 92
       -2
340
0
 93
        0
 40
0.045
309
GRIDFORMAT_END
 95
       32
302
GRIDFORMAT
  1
GRIDFORMAT_BEGIN
 90
        0
 91
        1
 62
     0
 92
       -2
340
0
 93
        0
 40
0.045
309
GRIDFORMAT_END
309
TABLEFORMAT_END
  1
CELLSTYLE_BEGIN
 90
        1
 91
        1
300
_TITLE
309
CELLSTYLE_END
300
CELLSTYLE
  1
TABLEFORMAT_BEGIN
 90
        5
170
     1
 91
        0
 92
        0
 62
   257
 93
        1
300
CONTENTFORMAT
  1
CONTENTFORMAT_BEGIN
 90
        0
 91
        0
 92
      512
 93
        0
300

 40
0.0
140
1.0
 94
        5
 62
     0
340
11
144
0.18
309
CONTENTFORMAT_END
171
     1
301
MARGIN
  1
CELLMARGIN_BEGIN
 40
0.06
 40
0.06
 40
0.06
 40
0.06
 40
0.18
 40
0.18
309
CELLMARGIN_END
 94
        6
 95
        1
302
GRIDFORMAT
  1
GRIDFORMAT_BEGIN
 90
        0
 91
        1
 62
     0
 92
       -2
340
0
 93
        0
 40
0.045
309
GRIDFORMAT_END
 95
        2
302
GRIDFORMAT
  1
GRIDFORMAT_BEGIN
 90
        0
 91
        1
 62
     0
 92
       -2
340
0
 93
        0
 40
0.045
309
GRIDFORMAT_END
 95
        4
302
GRIDFORMAT
  1
GRIDFORMAT_BEGIN
 90
        0
 91
        1
 62
     0
 92
       -2
340
0
 93
        0
 40
0.045
309
GRIDFORMAT_END
 95
        8
302
GRIDFORMAT
  1
GRIDFORMAT_BEGIN
 90
        0
 91
        1
 62
     0
 92
       -2
340
0
 93
        0
 40
0.045
309
GRIDFORMAT_END
 95
       16
302
GRIDFORMAT
  1
GRIDFORMAT_BEGIN
 90
        0
 91
        1
 62
     0
 92
       -2
340
0
 93
        0
 40
0.045
309
GRIDFORMAT_END
 95
       32
302
GRIDFORMAT
  1
GRIDFORMAT_BEGIN
 90
        0
 91
        1
 62
     0
 92
       -2
340
0
 93
        0
 40
0.045
309
GRIDFORMAT_END
309
TABLEFORMAT_END
  1
CELLSTYLE_BEGIN
 90
        2
 91
        1
300
_HEADER
309
CELLSTYLE_END
300
CELLSTYLE
  1
TABLEFORMAT_BEGIN
 90
        5
170
     1
 91
        0
 92
        0
 62
   257
 93
        1
300
CONTENTFORMAT
  1
CONTENTFORMAT_BEGIN
 90
        0
 91
        0
 92
      512
 93
        0
300

 40
0.0
140
1.0
 94
        2
 62
     0
340
11
144
0.18
309
CONTENTFORMAT_END
171
     1
301
MARGIN
  1
CELLMARGIN_BEGIN
 40
0.06
 40
0.06
 40
0.06
 40
0.06
 40
0.18
 40
0.18
309
CELLMARGIN_END
 94
        6
 95
        1
302
GRIDFORMAT
  1
GRIDFORMAT_BEGIN
 90
        0
 91
        1
 62
     0
 92
       -2
340
0
 93
        0
 40
0.045
309
GRIDFORMAT_END
 95
        2
302
GRIDFORMAT
  1
GRIDFORMAT_BEGIN
 90
        0
 91
        1
 62
     0
 92
       -2
340
0
 93
        0
 40
0.045
309
GRIDFORMAT_END
 95
        4
302
GRIDFORMAT
  1
GRIDFORMAT_BEGIN
 90
        0
 91
        1
 62
     0
 92
       -2
340
0
 93
        0
 40
0.045
309
GRIDFORMAT_END
 95
        8
302
GRIDFORMAT
  1
GRIDFORMAT_BEGIN
 90
        0
 91
        1
 62
     0
 92
       -2
340
0
 93
        0
 40
0.045
309
GRIDFORMAT_END
 95
       16
302
GRIDFORMAT
  1
GRIDFORMAT_BEGIN
 90
        0
 91
        1
 62
     0
 92
       -2
340
0
 93
        0
 40
0.045
309
GRIDFORMAT_END
 95
       32
302
GRIDFORMAT
  1
GRIDFORMAT_BEGIN
 90
        0
 91
        1
 62
     0
 92
       -2
340
0
 93
        0
 40
0.045
309
GRIDFORMAT_END
309
TABLEFORMAT_END
  1
CELLSTYLE_BEGIN
 90
        3
 91
        2
300
_DATA
309
CELLSTYLE_END
  0
XRECORD
  5
18990
102
{ACAD_REACTORS
330
50D6
102
}
330
50D6
100
AcDbXrecord
280
     1
102
ACAD_ROUNDTRIP_PRE2007_TABLESTYLE
 90
      512
 91
        0
  1

 92
      512
 93
        0
  2

 94
      512
 95
        0
  3

  0
ENDSEC
  0
EOF
