  0
SECTION
  2
HEADER
  9
$ACADVER
  1
AC1021
  9
$ACADMAINTVER
 70
    25
  9
$DWGCODEPAGE
  3
ANSI_936
  9
$LASTSAVEDBY
  1
gy.huang
  9
$INSBASE
 10
0.0
 20
0.0
 30
0.0
  9
$EXTMIN
 10
2597.527296917755
 20
-2832.33702350046
 30
-0.0000000000000179
  9
$EXTMAX
 10
3043.025421821311
 20
-2517.337023500454
 30
0.0000000000000088
  9
$LIMMIN
 10
0.0
 20
0.0
  9
$LIMMAX
 10
1189.0
 20
841.0
  9
$ORTHOMODE
 70
     0
  9
$REGENMODE
 70
     1
  9
$FILLMODE
 70
     1
  9
$QTEXTMODE
 70
     0
  9
$MIRRTEXT
 70
     1
  9
$LTSCALE
 40
65.395
  9
$ATTMODE
 70
     1
  9
$TEXTSIZE
 40
0.2
  9
$TRACEWID
 40
0.05
  9
$TEXTSTYLE
  7
Romans字体
  9
$CLAYER
  8
Dim
  9
$CELTYPE
  6
ByLayer
  9
$CECOLOR
 62
   256
  9
$CELTSCALE
 40
1.0
  9
$DISPSILH
 70
     0
  9
$DIMSCALE
 40
1.0
  9
$DIMASZ
 40
3.5
  9
$DIMEXO
 40
0.2
  9
$DIMDLI
 40
0.2
  9
$DIMRND
 40
0.0
  9
$DIMDLE
 40
0.0
  9
$DIMEXE
 40
1.199999999999999
  9
$DIMTP
 40
0.0
  9
$DIMTM
 40
0.0
  9
$DIMTXT
 40
4.0
  9
$DIMCEN
 40
0.0
  9
$DIMTSZ
 40
0.0
  9
$DIMTOL
 70
     0
  9
$DIMLIM
 70
     0
  9
$DIMTIH
 70
     0
  9
$DIMTOH
 70
     0
  9
$DIMSE1
 70
     0
  9
$DIMSE2
 70
     0
  9
$DIMTAD
 70
     1
  9
$DIMZIN
 70
     8
  9
$DIMBLK
  1

  9
$DIMASO
 70
     1
  9
$DIMSHO
 70
     1
  9
$DIMPOST
  1

  9
$DIMAPOST
  1

  9
$DIMALT
 70
     0
  9
$DIMALTD
 70
     2
  9
$DIMALTF
 40
25.4
  9
$DIMLFAC
 40
1.0
  9
$DIMTOFL
 70
     0
  9
$DIMTVP
 40
0.0
  9
$DIMTIX
 70
     0
  9
$DIMSOXD
 70
     0
  9
$DIMSAH
 70
     0
  9
$DIMBLK1
  1

  9
$DIMBLK2
  1

  9
$DIMSTYLE
  2
01
  9
$DIMCLRD
 70
     1
  9
$DIMCLRE
 70
     6
  9
$DIMCLRT
 70
     4
  9
$DIMTFAC
 40
1.0
  9
$DIMGAP
 40
0.5
  9
$DIMJUST
 70
     0
  9
$DIMSD1
 70
     0
  9
$DIMSD2
 70
     0
  9
$DIMTOLJ
 70
     1
  9
$DIMTZIN
 70
     0
  9
$DIMALTZ
 70
     0
  9
$DIMALTTZ
 70
     0
  9
$DIMUPT
 70
     0
  9
$DIMDEC
 70
     2
  9
$DIMTDEC
 70
     2
  9
$DIMALTU
 70
     2
  9
$DIMALTTD
 70
     2
  9
$DIMTXSTY
  7
Romans字体
  9
$DIMAUNIT
 70
     0
  9
$DIMADEC
 70
     2
  9
$DIMALTRND
 40
0.0
  9
$DIMAZIN
 70
     2
  9
$DIMDSEP
 70
    46
  9
$DIMATFIT
 70
     3
  9
$DIMFRAC
 70
     0
  9
$DIMLDRBLK
  1

  9
$DIMLUNIT
 70
     2
  9
$DIMLWD
 70
    -2
  9
$DIMLWE
 70
    -2
  9
$DIMTMOVE
 70
     0
  9
$DIMFXL
 40
1.0
  9
$DIMFXLON
 70
     0
  9
$DIMJOGANG
 40
0.7853981633974483
  9
$DIMTFILL
 70
     0
  9
$DIMTFILLCLR
 70
     0
  9
$DIMARCSYM
 70
     0
  9
$DIMLTYPE
  6

  9
$DIMLTEX1
  6

  9
$DIMLTEX2
  6

  9
$LUNITS
 70
     2
  9
$LUPREC
 70
     4
  9
$SKETCHINC
 40
0.1
  9
$FILLETRAD
 40
0.0
  9
$AUNITS
 70
     0
  9
$AUPREC
 70
     0
  9
$MENU
  1
acad
  9
$ELEVATION
 40
0.0
  9
$PELEVATION
 40
0.0
  9
$THICKNESS
 40
0.0
  9
$LIMCHECK
 70
     0
  9
$CHAMFERA
 40
0.0
  9
$CHAMFERB
 40
0.0
  9
$CHAMFERC
 40
0.0
  9
$CHAMFERD
 40
0.0
  9
$SKPOLY
 70
     0
  9
$TDCREATE
 40
2454351.702036852
  9
$TDUCREATE
 40
2454351.368703519
  9
$TDUPDATE
 40
2460297.425508148
  9
$TDUUPDATE
 40
2460297.092174815
  9
$TDINDWG
 40
0.9909092361
  9
$TDUSRTIMER
 40
0.9909064815
  9
$USRTIMER
 70
     1
  9
$ANGBASE
 50
0.0
  9
$ANGDIR
 70
     0
  9
$PDMODE
 70
     3
  9
$PDSIZE
 40
8.0
  9
$PLINEWID
 40
0.0
  9
$SPLFRAME
 70
     0
  9
$SPLINETYPE
 70
     6
  9
$SPLINESEGS
 70
     8
  9
$HANDSEED
  5
BE7
  9
$SURFTAB1
 70
     6
  9
$SURFTAB2
 70
     6
  9
$SURFTYPE
 70
     6
  9
$SURFU
 70
     6
  9
$SURFV
 70
     6
  9
$UCSBASE
  2

  9
$UCSNAME
  2

  9
$UCSORG
 10
0.0
 20
0.0
 30
0.0
  9
$UCSXDIR
 10
1.0
 20
0.0
 30
0.0
  9
$UCSYDIR
 10
0.0
 20
1.0
 30
0.0
  9
$UCSORTHOREF
  2

  9
$UCSORTHOVIEW
 70
     0
  9
$UCSORGTOP
 10
0.0
 20
0.0
 30
0.0
  9
$UCSORGBOTTOM
 10
0.0
 20
0.0
 30
0.0
  9
$UCSORGLEFT
 10
0.0
 20
0.0
 30
0.0
  9
$UCSORGRIGHT
 10
0.0
 20
0.0
 30
0.0
  9
$UCSORGFRONT
 10
0.0
 20
0.0
 30
0.0
  9
$UCSORGBACK
 10
0.0
 20
0.0
 30
0.0
  9
$PUCSBASE
  2

  9
$PUCSNAME
  2

  9
$PUCSORG
 10
0.0
 20
0.0
 30
0.0
  9
$PUCSXDIR
 10
1.0
 20
0.0
 30
0.0
  9
$PUCSYDIR
 10
0.0
 20
1.0
 30
0.0
  9
$PUCSORTHOREF
  2

  9
$PUCSORTHOVIEW
 70
     0
  9
$PUCSORGTOP
 10
0.0
 20
0.0
 30
0.0
  9
$PUCSORGBOTTOM
 10
0.0
 20
0.0
 30
0.0
  9
$PUCSORGLEFT
 10
0.0
 20
0.0
 30
0.0
  9
$PUCSORGRIGHT
 10
0.0
 20
0.0
 30
0.0
  9
$PUCSORGFRONT
 10
0.0
 20
0.0
 30
0.0
  9
$PUCSORGBACK
 10
0.0
 20
0.0
 30
0.0
  9
$USERI1
 70
     0
  9
$USERI2
 70
     0
  9
$USERI3
 70
     0
  9
$USERI4
 70
     0
  9
$USERI5
 70
     0
  9
$USERR1
 40
0.0
  9
$USERR2
 40
0.0
  9
$USERR3
 40
0.0
  9
$USERR4
 40
0.0
  9
$USERR5
 40
2.5
  9
$WORLDVIEW
 70
     1
  9
$SHADEDGE
 70
     3
  9
$SHADEDIF
 70
    70
  9
$TILEMODE
 70
     1
  9
$MAXACTVP
 70
    16
  9
$PINSBASE
 10
0.0
 20
0.0
 30
0.0
  9
$PLIMCHECK
 70
     0
  9
$PEXTMIN
 10
1.000000000000000E+20
 20
1.000000000000000E+20
 30
1.000000000000000E+20
  9
$PEXTMAX
 10
-1.000000000000000E+20
 20
-1.000000000000000E+20
 30
-1.000000000000000E+20
  9
$PLIMMIN
 10
0.0
 20
0.0
  9
$PLIMMAX
 10
12.0
 20
9.0
  9
$UNITMODE
 70
     0
  9
$VISRETAIN
 70
     0
  9
$PLINEGEN
 70
     1
  9
$PSLTSCALE
 70
     0
  9
$TREEDEPTH
 70
  3020
  9
$CMLSTYLE
  2
Standard
  9
$CMLJUST
 70
     0
  9
$CMLSCALE
 40
1.0
  9
$PROXYGRAPHICS
 70
     0
  9
$MEASUREMENT
 70
     1
  9
$CELWEIGHT
370
    -1
  9
$ENDCAPS
280
     0
  9
$JOINSTYLE
280
     0
  9
$LWDISPLAY
290
     0
  9
$INSUNITS
 70
     4
  9
$HYPERLINKBASE
  1

  9
$STYLESHEET
  1
monochrome.ctb
  9
$XEDIT
290
     1
  9
$CEPSNTYPE
380
     0
  9
$PSTYLEMODE
290
     1
  9
$FINGERPRINTGUID
  2
{7C4782FC-E277-49A8-8442-40FF79E6BEC0}
  9
$VERSIONGUID
  2
{49CD6875-BDAE-462B-9506-8F07A5135886}
  9
$EXTNAMES
290
     1
  9
$PSVPSCALE
 40
0.0
  9
$OLESTARTUP
290
     0
  9
$SORTENTS
280
   127
  9
$INDEXCTL
280
     0
  9
$HIDETEXT
280
     1
  9
$XCLIPFRAME
290
     0
  9
$HALOGAP
280
     0
  9
$OBSCOLOR
 70
   257
  9
$OBSLTYPE
280
     0
  9
$INTERSECTIONDISPLAY
280
     0
  9
$INTERSECTIONCOLOR
 70
   257
  9
$DIMASSOC
280
     2
  9
$PROJECTNAME
  1

  9
$CAMERADISPLAY
290
     0
  9
$LENSLENGTH
 40
50.0
  9
$CAMERAHEIGHT
 40
0.0
  9
$STEPSPERSEC
 40
2.0
  9
$STEPSIZE
 40
6.0
  9
$3DDWFPREC
 40
2.0
  9
$PSOLWIDTH
 40
0.25
  9
$PSOLHEIGHT
 40
4.0
  9
$LOFTANG1
 40
1.570796
  9
$LOFTANG2
 40
1.570796
  9
$LOFTMAG1
 40
0.0
  9
$LOFTMAG2
 40
0.0
  9
$LOFTPARAM
 70
     7
  9
$LOFTNORMALS
280
     1
  9
$LATITUDE
 40
37.795
  9
$LONGITUDE
 40
-122.394
  9
$NORTHDIRECTION
 40
0.0
  9
$TIMEZONE
 70
 -8000
  9
$LIGHTGLYPHDISPLAY
280
     1
  9
$TILEMODELIGHTSYNCH
280
     1
  9
$CMATERIAL
347
36
  9
$SOLIDHIST
280
     1
  9
$SHOWHIST
280
     1
  9
$DWFFRAME
280
     2
  9
$DGNFRAME
280
     0
  9
$REALWORLDSCALE
290
     1
  9
$INTERFERECOLOR
 62
     1
  9
$INTERFEREOBJVS
345
50
  9
$INTERFEREVPVS
346
51
  9
$CSHADOW
280
     0
  9
$SHADOWPLANELOCATION
 40
0.0
  0
ENDSEC
  0
SECTION
  2
CLASSES
  0
CLASS
  1
ACDBDICTIONARYWDFLT
  2
AcDbDictionaryWithDefault
  3
ObjectDBX Classes
 90
        0
 91
        1
280
     0
281
     0
  0
CLASS
  1
IMAGE
  2
AcDbRasterImage
  3
ISM
 90
     2175
 91
        0
280
     0
281
     1
  0
CLASS
  1
DICTIONARYVAR
  2
AcDbDictionaryVar
  3
ObjectDBX Classes
 90
        0
 91
        7
280
     0
281
     0
  0
CLASS
  1
RASTERVARIABLES
  2
AcDbRasterVariables
  3
ISM
 90
        0
 91
        0
280
     0
281
     0
  0
CLASS
  1
IMAGEDEF
  2
AcDbRasterImageDef
  3
ISM
 90
        0
 91
        0
280
     0
281
     0
  0
CLASS
  1
IMAGEDEF_REACTOR
  2
AcDbRasterImageDefReactor
  3
ISM
 90
        1
 91
        0
280
     0
281
     0
  0
CLASS
  1
IDBUFFER
  2
AcDbIdBuffer
  3
ObjectDBX Classes
 90
        0
 91
        0
280
     0
281
     0
  0
CLASS
  1
SPATIAL_FILTER
  2
AcDbSpatialFilter
  3
ObjectDBX Classes
 90
        0
 91
        0
280
     0
281
     0
  0
CLASS
  1
SORTENTSTABLE
  2
AcDbSortentsTable
  3
ObjectDBX Classes
 90
        0
 91
        1
280
     0
281
     0
  0
CLASS
  1
LAYER_INDEX
  2
AcDbLayerIndex
  3
ObjectDBX Classes
 90
        0
 91
        0
280
     0
281
     0
  0
CLASS
  1
SPATIAL_INDEX
  2
AcDbSpatialIndex
  3
ObjectDBX Classes
 90
        0
 91
        0
280
     0
281
     0
  0
CLASS
  1
OBJECT_PTR
  2
CAseDLPNTableRecord
  3
ASE-LPNTableRecord
 90
        1
 91
        0
280
     0
281
     0
  0
CLASS
  1
PLOTSETTINGS
  2
AcDbPlotSettings
  3
ObjectDBX Classes
 90
        0
 91
        0
280
     0
281
     0
  0
CLASS
  1
WIPEOUT
  2
AcDbWipeout
  3
"WipeOut|Product Desc: Object Enabler for WipeOut entity                        |Company: Autodesk, Inc.                        |WEB Address: www.autodesk.com"
 90
     2175
 91
        0
280
     0
281
     1
  0
CLASS
  1
WIPEOUTVARIABLES
  2
AcDbWipeoutVariables
  3
"WipeOut|Product Desc:     WipeOut Dbx Application|Company:          Autodesk, Inc.|WEB Address:      www.autodesk.com"
 90
        0
 91
        0
280
     0
281
     0
  0
CLASS
  1
RTEXT
  2
RText
  3
RText|AutoCAD Express Tool|expresstools@autodesk.com
 90
        0
 91
        0
280
     1
281
     1
  0
CLASS
  1
ARCALIGNEDTEXT
  2
AcDbArcAlignedText
  3
ATEXT|AutoCAD Express Tool|expresstools@autodesk.com
 90
        0
 91
        0
280
     1
281
     1
  0
CLASS
  1
VLO-VL
  2
vlo_VL
  3
VL|AutoLISP based application
 90
      129
 91
        0
280
     0
281
     0
  0
CLASS
  1
DIMASSOC
  2
AcDbDimAssoc
  3
"AcDbDimAssoc|Product Desc:     AcDim ARX App For Dimension|Company:          Autodesk, Inc.|WEB Address:      www.autodesk.com"
 90
        0
 91
        4
280
     0
281
     0
  0
CLASS
  1
ACAD_EVALUATION_GRAPH
  2
AcDbEvalGraph
  3
ObjectDBX Classes
 90
     1153
 91
        1
280
     0
281
     0
  0
CLASS
  1
ACDB_DYNAMICBLOCKPURGEPREVENTER_VERSION
  2
AcDbDynamicBlockPurgePreventer
  3
ObjectDBX Classes
 90
     1153
 91
        1
280
     0
281
     0
  0
CLASS
  1
MATERIAL
  2
AcDbMaterial
  3
ObjectDBX Classes
 90
     1153
 91
        3
280
     0
281
     0
  0
CLASS
  1
VISUALSTYLE
  2
AcDbVisualStyle
  3
ObjectDBX Classes
 90
     4095
 91
       16
280
     0
281
     0
  0
CLASS
  1
TABLESTYLE
  2
AcDbTableStyle
  3
ObjectDBX Classes
 90
     4095
 91
        1
280
     0
281
     0
  0
CLASS
  1
SCALE
  2
AcDbScale
  3
ObjectDBX Classes
 90
     1153
 91
       33
280
     0
281
     0
  0
CLASS
  1
MLEADERSTYLE
  2
AcDbMLeaderStyle
  3
ACDB_MLEADERSTYLE_CLASS
 90
     4095
 91
        1
280
     0
281
     0
  0
CLASS
  1
CELLSTYLEMAP
  2
AcDbCellStyleMap
  3
ObjectDBX Classes
 90
     1152
 91
        2
280
     0
281
     0
  0
CLASS
  1
ACAECUSTOBJ
  2
AcAeEditorObj
  3
AcAeEditorObj
 90
     1024
 91
        1
280
     1
281
     0
  0
CLASS
  1
SOLID_BACKGROUND
  2
AcDbSolidBackground
  3
SCENEOE
 90
     4095
 91
        0
280
     0
281
     0
  0
CLASS
  1
NPOCOLLECTION
  2
AcDbImpNonPersistentObjectsCollection
  3
ObjectDBX Classes
 90
     1153
 91
        0
280
     0
281
     0
  0
ENDSEC
  0
SECTION
  2
TABLES
  0
TABLE
  2
VPORT
  5
26
102
{ACAD_XDICTIONARY
360
2A
102
}
330
0
100
AcDbSymbolTable
 70
     1
  0
VPORT
  5
27
330
26
100
AcDbSymbolTableRecord
100
AcDbViewportTableRecord
  2
*Active
 70
     0
 10
0.0
 20
0.0
 11
1.0
 21
1.0
 12
2820.276849498529
 22
-2674.913881102125
 13
0.0
 23
0.0
 14
1.0
 24
1.0
 15
0.0
 25
0.0
 16
0.0
 26
0.0
 36
1.0
 17
0.0
 27
0.0
 37
0.0
 40
318.6370090750703
 41
2.587610619469026
 42
50.0
 43
0.0
 44
0.0
 50
0.0
 51
0.0
 71
     0
 72
   100
 73
     1
 74
     1
 75
     0
 76
     0
 77
     0
 78
     0
281
     0
 65
     0
110
0.0
120
0.0
130
0.0
111
1.0
121
0.0
131
0.0
112
0.0
122
1.0
132
0.0
 79
     0
146
0.0
348
28
 60
     3
 61
     5
292
     1
282
     1
141
0.0
142
0.0
 63
   250
421
  3355443
  0
ENDTAB
  0
TABLE
  2
LTYPE
  5
21
330
0
100
AcDbSymbolTable
 70
     2
  0
LTYPE
  5
22
330
21
100
AcDbSymbolTableRecord
100
AcDbLinetypeTableRecord
  2
ByBlock
 70
     0
  3

 72
    65
 73
     0
 40
0.0
  0
LTYPE
  5
23
330
21
100
AcDbSymbolTableRecord
100
AcDbLinetypeTableRecord
  2
ByLayer
 70
     0
  3

 72
    65
 73
     0
 40
0.0
  0
LTYPE
  5
10
330
21
100
AcDbSymbolTableRecord
100
AcDbLinetypeTableRecord
  2
CONTINUOUS
 70
     0
  3
Solid line
 72
    65
 73
     0
 40
0.0
  0
LTYPE
  5
521
330
21
100
AcDbSymbolTableRecord
100
AcDbLinetypeTableRecord
  2
CENTER
 70
     0
  3
____ _ ____ _ ____ _ ____
 72
    65
 73
     4
 40
47.4
 49
22.0
 74
     4
 75
     0
340
0
 46
0.0
 50
0.0
 44
0.0
 45
0.0
 49
-8.5
 74
     4
 75
     0
340
0
 46
0.0
 50
0.0
 44
0.0
 45
0.0
 49
8.5
 74
     4
 75
     0
340
0
 46
0.0
 50
0.0
 44
0.0
 45
0.0
 49
-8.5
 74
     4
 75
     0
340
0
 46
0.0
 50
0.0
 44
0.0
 45
0.0
  0
ENDTAB
  0
TABLE
  2
LAYER
  5
18
102
{ACAD_XDICTIONARY
360
19
102
}
330
0
100
AcDbSymbolTable
 70
     7
  0
LAYER
  5
6
102
{ACAD_XDICTIONARY
360
7
102
}
330
18
100
AcDbSymbolTableRecord
100
AcDbLayerTableRecord
  2
0
 70
     0
 62
     7
  6
CONTINUOUS
370
    30
390
9
347
C
  0
LAYER
  5
26B
330
18
100
AcDbSymbolTableRecord
100
AcDbLayerTableRecord
  2
Defpoints
 70
     0
 62
     7
  6
CONTINUOUS
290
     0
370
    -3
390
9
347
C
  0
LAYER
  5
1BD
102
{ACAD_XDICTIONARY
360
1BE
102
}
330
18
100
AcDbSymbolTableRecord
100
AcDbLayerTableRecord
  2
图框
 70
     0
 62
     7
  6
CONTINUOUS
370
    20
390
9
347
C
  0
LAYER
  5
29B
330
18
100
AcDbSymbolTableRecord
100
AcDbLayerTableRecord
  2
打标文字
 70
     0
 62
     3
  6
CONTINUOUS
370
    20
390
9
347
C
  0
LAYER
  5
4B
102
{ACAD_XDICTIONARY
360
4C
102
}
330
18
100
AcDbSymbolTableRecord
100
AcDbLayerTableRecord
  2
Dim
 70
     0
 62
     3
  6
CONTINUOUS
370
    15
390
9
347
C
  0
LAYER
  5
3EC
330
18
100
AcDbSymbolTableRecord
100
AcDbLayerTableRecord
  2
02___PRT_ALL_AXES
 70
     0
 62
     7
  6
CONTINUOUS
370
    -3
390
9
347
C
  0
LAYER
  5
522
330
18
100
AcDbSymbolTableRecord
100
AcDbLayerTableRecord
  2
1
 70
     0
 62
     7
420
 16777215
  6
CONTINUOUS
370
    -3
390
9
347
C
  0
ENDTAB
  0
TABLE
  2
STYLE
  5
1E
330
0
100
AcDbSymbolTable
 70
     5
  0
STYLE
  5
1F
330
1E
100
AcDbSymbolTableRecord
100
AcDbTextStyleTableRecord
  2
STANDARD
 70
     0
 40
0.0
 41
0.75
 50
0.0
 71
     0
 42
0.2
  3

  4

1001
ACAD
1000
仿宋_GB2312
1071
    34353
  0
STYLE
  5
2E
330
1E
100
AcDbSymbolTableRecord
100
AcDbTextStyleTableRecord
  2
Romans字体
 70
     0
 40
0.0
 41
0.75
 50
0.0
 71
     0
 42
0.2
  3
romans.shx
  4

  0
STYLE
  5
1D8
330
1E
100
AcDbSymbolTableRecord
100
AcDbTextStyleTableRecord
  2
工程字
 70
     0
 40
0.0
 41
1.0
 50
0.0
 71
     0
 42
3.5
  3
gbenor.shx
  4
gbcbig.shx
  0
STYLE
  5
1DA
330
1E
100
AcDbSymbolTableRecord
100
AcDbTextStyleTableRecord
  2
Chinese
 70
     0
 40
0.0
 41
1.0
 50
0.0
 71
     0
 42
2.5
  3
PMingLiU.ttf
  4

1001
ACAD
1000
PMingLiU
1071
    34834
  0
ENDTAB
  0
TABLE
  2
VIEW
  5
24
330
0
100
AcDbSymbolTable
 70
     0
  0
ENDTAB
  0
TABLE
  2
UCS
  5
25
330
0
100
AcDbSymbolTable
 70
     0
  0
ENDTAB
  0
TABLE
  2
APPID
  5
2B
330
0
100
AcDbSymbolTable
 70
     9
  0
APPID
  5
1D
330
2B
100
AcDbSymbolTableRecord
100
AcDbRegAppTableRecord
  2
ACAD
 70
     0
  0
APPID
  5
1C6
330
2B
100
AcDbSymbolTableRecord
100
AcDbRegAppTableRecord
  2
AcDbBlockRepETag
 70
     0
  0
APPID
  5
25E
330
2B
100
AcDbSymbolTableRecord
100
AcDbRegAppTableRecord
  2
AcDbDynamicBlockGUID
 70
     0
  0
APPID
  5
2F
330
2B
100
AcDbSymbolTableRecord
100
AcDbRegAppTableRecord
  2
ACAD_DSTYLE_DIMJAG
 70
     0
  0
APPID
  5
30
330
2B
100
AcDbSymbolTableRecord
100
AcDbRegAppTableRecord
  2
ACAD_DSTYLE_DIMTALN
 70
     0
  0
APPID
  5
43E
330
2B
100
AcDbSymbolTableRecord
100
AcDbRegAppTableRecord
  2
ACAD_MLEADERVER
 70
     0
  0
APPID
  5
51C
330
2B
100
AcDbSymbolTableRecord
100
AcDbRegAppTableRecord
  2
ACAUTHENVIRON
 70
     0
  0
APPID
  5
51F
330
2B
100
AcDbSymbolTableRecord
100
AcDbRegAppTableRecord
  2
AcDbDynamicBlockTrueName
 70
     0
  0
APPID
  5
B26
330
2B
100
AcDbSymbolTableRecord
100
AcDbRegAppTableRecord
  2
AcadAnnoPO
 70
     0
  0
ENDTAB
  0
TABLE
  2
DIMSTYLE
  5
2C
330
0
100
AcDbSymbolTable
 70
     3
100
AcDbDimStyleTable
 71
     2
340
2D
340
31
  0
DIMSTYLE
105
31
330
2C
100
AcDbSymbolTableRecord
100
AcDbDimStyleTableRecord
  2
STANDARD
 70
     0
 41
3.5
 47
0.01
 48
0.01
 71
     1
 73
     0
 74
     0
 77
     1
 78
     8
140
3.5
271
     2
272
     2
284
     8
340
1F
  0
DIMSTYLE
105
2D
102
{ACAD_REACTORS
330
25F
330
26F
330
27E
330
28D
330
2A4
102
}
330
2C
100
AcDbSymbolTableRecord
100
AcDbDimStyleTableRecord
  2
01
 70
     0
 41
3.5
 42
0.2
 43
0.2
 44
1.199999999999999
 73
     0
 74
     0
 77
     1
 78
     8
 79
     2
140
4.0
141
0.0
147
0.5
176
     1
177
     6
178
     4
179
     2
271
     2
272
     2
340
2E
1001
ACAD_DSTYLE_DIMJAG
1070
   388
1040
1.5
1001
ACAD_DSTYLE_DIMTALN
1070
   392
1070
     0
  0
ENDTAB
  0
TABLE
  2
BLOCK_RECORD
  5
1
330
0
100
AcDbSymbolTable
 70
     8
  0
BLOCK_RECORD
  5
2
102
{ACAD_XDICTIONARY
360
3
102
}
330
1
100
AcDbSymbolTableRecord
100
AcDbBlockTableRecord
  2
*MODEL_SPACE
340
12
 70
     0
280
     1
281
     0
  0
BLOCK_RECORD
  5
14
330
1
100
AcDbSymbolTableRecord
100
AcDbBlockTableRecord
  2
*PAPER_SPACE
340
17
 70
     0
280
     1
281
     0
  0
BLOCK_RECORD
  5
1C2
102
{ACAD_XDICTIONARY
360
BC0
102
}
330
1
100
AcDbSymbolTableRecord
100
AcDbBlockTableRecord
  2
A4图框-NEW
340
0
310
2800000020000000200000000100080000000000000400000000000000000000000000000000000000000000000080000080000000808000800000008000800080800000C0C0C000C0DCC000F0CAA6000020400000206000002080000020A0000020C0000020E00000400000004020000040400000406000004080000040A0
310
000040C0000040E00000600000006020000060400000606000006080000060A0000060C0000060E00000800000008020000080400000806000008080000080A0000080C0000080E00000A0000000A0200000A0400000A0600000A0800000A0A00000A0C00000A0E00000C0000000C0200000C0400000C0600000C0800000C0
310
A00000C0C00000C0E00000E0000000E0200000E0400000E0600000E0800000E0A00000E0C00000E0E00040000000400020004000400040006000400080004000A0004000C0004000E00040200000402020004020400040206000402080004020A0004020C0004020E000404000004040200040404000404060004040800040
310
40A0004040C0004040E00040600000406020004060400040606000406080004060A0004060C0004060E00040800000408020004080400040806000408080004080A0004080C0004080E00040A0000040A0200040A0400040A0600040A0800040A0A00040A0C00040A0E00040C0000040C0200040C0400040C0600040C08000
310
40C0A00040C0C00040C0E00040E0000040E0200040E0400040E0600040E0800040E0A00040E0C00040E0E00080000000800020008000400080006000800080008000A0008000C0008000E00080200000802020008020400080206000802080008020A0008020C0008020E00080400000804020008040400080406000804080
310
008040A0008040C0008040E00080600000806020008060400080606000806080008060A0008060C0008060E00080800000808020008080400080806000808080008080A0008080C0008080E00080A0000080A0200080A0400080A0600080A0800080A0A00080A0C00080A0E00080C0000080C0200080C0400080C0600080C0
310
800080C0A00080C0C00080C0E00080E0000080E0200080E0400080E0600080E0800080E0A00080E0C00080E0E000C0000000C0002000C0004000C0006000C0008000C000A000C000C000C000E000C0200000C0202000C0204000C0206000C0208000C020A000C020C000C020E000C0400000C0402000C0404000C0406000C0
310
408000C040A000C040C000C040E000C0600000C0602000C0604000C0606000C0608000C060A000C060C000C060E000C0800000C0802000C0804000C0806000C0808000C080A000C080C000C080E000C0A00000C0A02000C0A04000C0A06000C0A08000C0A0A000C0A0C000C0A0E000C0C00000C0C02000C0C04000C0C06000
310
C0C08000C0C0A000F0FBFF00A4A0A000808080000000FF0000FF000000FFFF00FF000000FF00FF00FFFF0000FFFFFF0000000000000000000000000000000000000000000000000000000000000000000000000000000000000000000000000000000000000000000000000000000000000000000000000000000000000000
310
000000000000000000000000000000000000000000000000000000000000000000000000000000000000000000000000000000000000000000000000000000000000000000000000000000000000000000000000000000000000000000000000000000000000000000000000000000000000F9F9F9F9F9F9F9F9F9F9F9F9F9
310
F9F9F9F9F9F9F9F9F9F9F9F9F9F9FF00000000F9FF000000000000000000FFFFFFFFFFFFFFFFFFFFFFFFF9FAFAFAFF00000000F9FF000000000000000000FFFFFFFFFFFFFFFFFFFFFFFFFFFFFFFFFF00000000F9FD000000000000000000FFFFFFFFFFFFFFFFFFFFFFFFFFFFFFFFFF00000000F9FF000000000000000000FF
310
FFFFFFFFFFFFFFFFFFFFFFFFFFFFFFFF00000000F9FD000000000000000000FFFFFFFFFFFFFFFFFFFFFFFFFFFFFFFFFF00000000F9FF00000000000000000000000000000000000000000000000000FF00000000F9FD00000000000000000000000000000000000000000000000000FF00000000F9FF000000000000000000
310
00000000000000000000000000000000FF00000000F9FD00000000000000000000000000000000000000000000000000FF00000000F9FF00000000000000000000000000000000000000000000000000FF00000000F9FD00000000000000000000000000000000000000000000000000FF00000000F9FD0000000000000000
310
0000000000000000000000000000000000FF00000000F9FF00000000000000000000000000000000000000000000000000FF00000000F9FD00000000000000000000000000000000000000000000000000FF00000000F9FF00000000000000000000000000000000000000000000000000FF00000000F9FD00000000000000
310
000000000000000000000000000000000000FF00000000F9FF00000000000000000000000000000000000000000000000000FF00000000F9FFFFFFFFFFFFFFFFFFFFFFFFFFFFFFFFFFFFFFFFFFFFFFFFFFFFFF00000000F9FFFFFFF9F9F9F9F9F9F9F9F9F9F9F9F9F9F9F9F9F9F9F9F9F9F9F9000000000000000000000000
310
00000000000000000000000000000000000000000000000000000000000000000000000000000000000000000000000000000000000000000000000000000000000000000000000000000000000000000000000000000000000000000000000000000000000000000000000000000000000000000000000000000000000000
310
0000000000000000000000000000000000000000000000000000000000000000000000000000000000000000000000000000000000000000
102
{BLKREFS
331
1C1
102
}
 70
     4
280
     1
281
     0
1001
AcDbDynamicBlockGUID
1000
{0E8C677A-3CFF-496D-B5B3-437404BE3E8D}
1001
AcDbBlockRepETag
1070
     1
1071
      150
  0
BLOCK_RECORD
  5
28E
330
1
100
AcDbSymbolTableRecord
100
AcDbBlockTableRecord
  2
*D1
340
0
 70
     0
280
     1
281
     0
  0
BLOCK_RECORD
  5
262
330
1
100
AcDbSymbolTableRecord
100
AcDbBlockTableRecord
  2
*D2
340
0
 70
     0
280
     1
281
     0
  0
BLOCK_RECORD
  5
272
330
1
100
AcDbSymbolTableRecord
100
AcDbBlockTableRecord
  2
*D3
340
0
 70
     0
280
     1
281
     0
  0
BLOCK_RECORD
  5
281
330
1
100
AcDbSymbolTableRecord
100
AcDbBlockTableRecord
  2
*D4
340
0
 70
     0
280
     1
281
     0
  0
BLOCK_RECORD
  5
2A7
330
1
100
AcDbSymbolTableRecord
100
AcDbBlockTableRecord
  2
*D5
340
0
 70
     0
280
     1
281
     0
  0
ENDTAB
  0
ENDSEC
  0
SECTION
  2
BLOCKS
  0
BLOCK
  5
5
330
2
100
AcDbEntity
  8
0
100
AcDbBlockBegin
  2
*MODEL_SPACE
 70
     0
 10
0.0
 20
0.0
 30
0.0
  3
*MODEL_SPACE
  1

  0
ENDBLK
  5
11
330
2
100
AcDbEntity
  8
0
100
AcDbBlockEnd
  0
BLOCK
  5
15
330
14
100
AcDbEntity
 67
     1
  8
0
100
AcDbBlockBegin
  2
*PAPER_SPACE
 70
     0
 10
0.0
 20
0.0
 30
0.0
  3
*PAPER_SPACE
  1

  0
ENDBLK
  5
16
330
14
100
AcDbEntity
 67
     1
  8
0
100
AcDbBlockEnd
  0
BLOCK
  5
1C4
330
1C2
100
AcDbEntity
  8
0
100
AcDbBlockBegin
  2
A4图框-NEW
 70
     0
 10
0.0
 20
0.0
 30
0.0
  3
A4图框-NEW
  1

  0
MTEXT
  5
B2B
102
{ACAD_XDICTIONARY
360
BCF
102
}
330
1C2
100
AcDbEntity
  8
图框
 62
     3
100
AcDbMText
 10
967.6594956750133
 20
499.7664151964293
 30
0.0
 40
2.5
 41
15.50176341157864
 46
6.292658374511018
 71
     5
 72
     5
  1
GY HUANG
  7
Romans字体
 73
     1
 44
1.0
1001
AcDbBlockRepETag
1070
     1
1071
        0
1005
B2B
1001
ACAD
1000
ACAD_MTEXT_DEFINED_HEIGHT_BEGIN
1070
    46
1040
6.292658374511018
1000
ACAD_MTEXT_DEFINED_HEIGHT_END
  0
MTEXT
  5
B2C
330
1C2
100
AcDbEntity
  8
图框
 62
     3
100
AcDbMText
 10
983.041569333247
 20
499.7664151964293
 30
0.0
 40
2.5
 41
15.50176341157864
 46
6.292658374511042
 71
     5
 72
     5
  1
{\W0.7;01.12.2023}
  7
Romans字体
 73
     1
 44
1.0
1001
AcDbBlockRepETag
1070
     1
1071
        1
1005
B2C
1001
ACAD
1000
ACAD_MTEXT_DEFINED_HEIGHT_BEGIN
1070
    46
1040
6.292658374511042
1000
ACAD_MTEXT_DEFINED_HEIGHT_END
  0
MTEXT
  5
B2D
330
1C2
100
AcDbEntity
  8
图框
 62
     3
100
AcDbMText
 10
1012.477254728976
 20
487.1810984474071
 30
0.0
 40
2.5
 41
15.50176341157864
 46
6.292658374511455
 71
     5
 72
     5
  1
HQ ZHANG
  7
Romans字体
 73
     1
 44
1.0
1001
AcDbBlockRepETag
1070
     1
1071
        2
1005
B2D
1001
ACAD
1000
ACAD_MTEXT_DEFINED_HEIGHT_BEGIN
1070
    46
1040
6.292658374511455
1000
ACAD_MTEXT_DEFINED_HEIGHT_END
  0
MTEXT
  5
B2E
330
1C2
100
AcDbEntity
  8
图框
 62
     3
100
AcDbMText
 10
1028.977802139886
 20
487.1810984474071
 30
0.0
 40
2.5
 41
15.50176341157864
 46
6.292658374511495
 71
     5
 72
     5
  1
{\W0.7;01.12.2023}
  7
Romans字体
 73
     1
 44
1.0
1001
AcDbBlockRepETag
1070
     1
1071
        3
1005
B2E
1001
ACAD
1000
ACAD_MTEXT_DEFINED_HEIGHT_BEGIN
1070
    46
1040
6.292658374511495
1000
ACAD_MTEXT_DEFINED_HEIGHT_END
  0
MTEXT
  5
B2F
330
1C2
100
AcDbEntity
  8
图框
 62
     3
100
AcDbMText
 10
1063.722665487208
 20
525.4145966538831
 30
0.0
 40
2.985513575034151
 41
32.4973914334545
 46
11.82914190181707
 71
     5
 72
     5
  1
-
  7
Romans字体
 73
     1
 44
1.0
1001
AcDbBlockRepETag
1070
     1
1071
        4
1005
B2F
1001
ACAD
1000
ACAD_MTEXT_DEFINED_HEIGHT_BEGIN
1070
    46
1040
11.82914190181707
1000
ACAD_MTEXT_DEFINED_HEIGHT_END
  0
MTEXT
  5
B30
330
1C2
100
AcDbEntity
  8
图框
 62
     3
100
AcDbMText
 10
1063.727338552349
 20
513.5854547520641
 30
0.0
 40
2.985513575034151
 41
32.48804530317308
 46
11.82914190182139
 71
     5
 72
     5
  1
-
  7
Romans字体
 73
     1
 44
1.0
1001
AcDbBlockRepETag
1070
     1
1071
        5
1005
B30
1001
ACAD
1000
ACAD_MTEXT_DEFINED_HEIGHT_BEGIN
1070
    46
1040
11.82914190182139
1000
ACAD_MTEXT_DEFINED_HEIGHT_END
  0
MTEXT
  5
B31
330
1C2
100
AcDbEntity
  8
图框
 62
     3
100
AcDbMText
 10
1110.122306614152
 20
526.8006839312707
 30
0.0
 40
2.985513575034151
 41
33.61239199242139
 46
9.05696734704178
 71
     5
 72
     5
  1
-
  7
Romans字体
 73
     1
 44
1.0
1001
AcDbBlockRepETag
1070
     1
1071
        6
1005
B31
1001
ACAD
1000
ACAD_MTEXT_DEFINED_HEIGHT_BEGIN
1070
    46
1040
9.05696734704178
1000
ACAD_MTEXT_DEFINED_HEIGHT_END
  0
MTEXT
  5
B32
330
1C2
100
AcDbEntity
  8
图框
 62
     3
100
AcDbMText
 10
1110.122306614152
 20
500.2775205517162
 30
0.0
 40
2.985513575034151
 41
33.61239199242139
 46
8.871557304763419
 71
     5
 72
     5
  1
-
  7
Romans字体
 73
     1
 44
1.0
1001
AcDbBlockRepETag
1070
     1
1071
        7
1005
B32
1001
ACAD
1000
ACAD_MTEXT_DEFINED_HEIGHT_BEGIN
1070
    46
1040
8.871557304763419
1000
ACAD_MTEXT_DEFINED_HEIGHT_END
  0
MTEXT
  5
B33
330
1C2
100
AcDbEntity
  8
图框
 62
     3
100
AcDbMText
 10
967.6594956750133
 20
493.4737568219182
 30
0.0
 40
2.5
 41
15.50176341157864
 46
6.292658374510335
 71
     5
 72
     5
  1
Q GAO
  7
Romans字体
 73
     1
 44
1.0
1001
AcDbBlockRepETag
1070
     1
1071
        8
1005
B33
1001
ACAD
1000
ACAD_MTEXT_DEFINED_HEIGHT_BEGIN
1070
    46
1040
6.292658374510335
1000
ACAD_MTEXT_DEFINED_HEIGHT_END
  0
MTEXT
  5
B34
330
1C2
100
AcDbEntity
  8
图框
 62
     3
100
AcDbMText
 10
983.041569333247
 20
493.2441970450405
 30
0.0
 40
2.5
 41
15.50176341157864
 46
6.751777928266487
 71
     5
 72
     5
  1
{\W0.7;01.12.2023}
  7
Romans字体
 73
     1
 44
1.0
1001
AcDbBlockRepETag
1070
     1
1071
        9
1005
B34
1001
ACAD
1000
ACAD_MTEXT_DEFINED_HEIGHT_BEGIN
1070
    46
1040
6.751777928266487
1000
ACAD_MTEXT_DEFINED_HEIGHT_END
  0
MTEXT
  5
B35
330
1C2
100
AcDbEntity
  8
图框
 62
     3
100
AcDbMText
 10
1012.477254728976
 20
499.7664151964291
 30
0.0
 40
2.985513575034151
 41
17.64876416884615
 46
6.292658374511397
 71
     5
 72
     5
  1
-
  7
Romans字体
 73
     1
 44
1.0
1001
AcDbBlockRepETag
1070
     1
1071
       10
1005
B35
1001
ACAD
1000
ACAD_MTEXT_DEFINED_HEIGHT_BEGIN
1070
    46
1040
6.292658374511397
1000
ACAD_MTEXT_DEFINED_HEIGHT_END
  0
MTEXT
  5
B36
330
1C2
100
AcDbEntity
  8
图框
 62
     3
100
AcDbMText
 10
1028.977802139886
 20
499.7664151964289
 30
0.0
 40
2.487927979195124
 41
15.35233065297265
 46
6.292658374511382
 71
     5
 72
     5
  1
-
  7
Romans字体
 73
     1
 44
1.0
1001
AcDbBlockRepETag
1070
     1
1071
       11
1005
B36
1001
ACAD
1000
ACAD_MTEXT_DEFINED_HEIGHT_BEGIN
1070
    46
1040
6.292658374511382
1000
ACAD_MTEXT_DEFINED_HEIGHT_END
  0
MTEXT
  5
B37
330
1C2
100
AcDbEntity
  8
图框
 62
     3
100
AcDbMText
 10
967.6594956750133
 20
487.1810984474071
 30
0.0
 40
2.985513575034151
 41
15.50176341157863
 46
6.292658374511478
 71
     5
 72
     5
  1
-
  7
Romans字体
 73
     1
 44
1.0
1001
AcDbBlockRepETag
1070
     1
1071
       12
1005
B37
1001
ACAD
1000
ACAD_MTEXT_DEFINED_HEIGHT_BEGIN
1070
    46
1040
6.292658374511478
1000
ACAD_MTEXT_DEFINED_HEIGHT_END
  0
MTEXT
  5
B38
330
1C2
100
AcDbEntity
  8
图框
 62
     3
100
AcDbMText
 10
983.041569333247
 20
487.1810984474071
 30
0.0
 40
2.487927979195124
 41
15.26238390489062
 46
6.292658374511495
 71
     5
 72
     5
  1
-
  7
Romans字体
 73
     1
 44
1.0
1001
AcDbBlockRepETag
1070
     1
1071
       13
1005
B38
1001
ACAD
1000
ACAD_MTEXT_DEFINED_HEIGHT_BEGIN
1070
    46
1040
6.292658374511495
1000
ACAD_MTEXT_DEFINED_HEIGHT_END
  0
MTEXT
  5
B39
330
1C2
100
AcDbEntity
  8
图框
 62
     3
100
AcDbMText
 10
1074.556686986741
 20
495.8417418993361
 30
0.0
 40
2.985513575034151
 41
10.82934843438978
 46
7.886094601210427
 71
     5
 72
     5
  1
-
  7
Romans字体
 73
     1
 44
1.0
1001
AcDbBlockRepETag
1070
     1
1071
       14
1005
B39
1001
ACAD
1000
ACAD_MTEXT_DEFINED_HEIGHT_BEGIN
1070
    46
1040
7.886094601210427
1000
ACAD_MTEXT_DEFINED_HEIGHT_END
  0
LINE
  5
B3A
330
1C2
100
AcDbEntity
  8
图框
370
    -3
100
AcDbLine
 10
1036.653967466372
 20
499.7847891999413
 30
0.0
 11
1079.971361203936
 21
499.7847891999413
 31
0.0
1001
AcDbBlockRepETag
1070
     1
1071
       15
1005
B3A
  0
MTEXT
  5
B3B
330
1C2
100
AcDbEntity
  8
图框
 62
     1
370
    20
100
AcDbMText
 10
1108.26336443907
 20
491.5162596080882
 30
0.0
 40
2.699054613030988
 41
82.30831305643079
 46
0.0
 71
     5
 72
     5
  1
{\fSimHei|b0|i0|c134|p2;厦门唯恩电气有限公司}
 73
     1
 44
1.0
1001
AcDbBlockRepETag
1070
     1
1071
       16
1005
B3B
  0
MTEXT
  5
B3C
330
1C2
100
AcDbEntity
  8
图框
 62
     3
370
    20
100
AcDbMText
 10
1108.435451459908
 20
487.298967726064
 30
0.0
 40
1.652482416141417
 41
68.08558693693567
 46
0.0
 71
     5
 72
     5
  1
{\fArial Narrow|b0|i0|c0|p34;XIAMEN WAIN ELECTRICAL CO.LTD}
  7
工程字
 73
     1
 44
1.0
1001
AcDbBlockRepETag
1070
     1
1071
       17
1005
B3C
  0
MTEXT
  5
B3D
330
1C2
100
AcDbEntity
  8
图框
 62
     1
370
    20
100
AcDbMText
 10
1085.711816899387
 20
491.0944802995856
 30
0.0
 40
2.005930044038334
 41
5.047240019334847
 46
0.0
 71
     1
 72
     5
  1
{\fArial|b0|i0|c0|p34;A}
  7
Chinese
 73
     1
 44
1.0
1001
AcDbBlockRepETag
1070
     1
1071
       18
1005
B3D
  0
MTEXT
  5
B3E
330
1C2
100
AcDbEntity
  8
图框
 62
     1
370
    20
100
AcDbMText
 10
1088.213485935716
 20
491.0944802995856
 30
0.0
 40
2.005930044038334
 41
5.047240019334847
 46
0.0
 71
     1
 72
     5
  1
{\fArial|b0|i0|c0|p34;I}
  7
Chinese
 73
     1
 44
1.0
1001
AcDbBlockRepETag
1070
     1
1071
       19
1005
B3E
  0
MTEXT
  5
B3F
330
1C2
100
AcDbEntity
  8
图框
 62
     1
370
    20
100
AcDbMText
 10
1089.142375222864
 20
491.0822866326808
 30
0.0
 40
2.005930044038334
 41
5.047240019334847
 46
0.0
 71
     1
 72
     5
  1
{\fArial|b0|i0|c0|p34;N}
  7
Chinese
 73
     1
 44
1.0
1001
AcDbBlockRepETag
1070
     1
1071
       20
1005
B3F
  0
MTEXT
  5
B40
330
1C2
100
AcDbEntity
  8
图框
100
AcDbMText
 10
1069.142012769545
 20
487.9667319294409
 30
0.0
 40
2.252848170144607
 41
21.65869686878327
 46
7.863925338579296
 71
     5
 72
     5
  1
{\W0.5;\C1;All Dimensions in mm\POriginal Size DIN A 4}
  7
Romans字体
 73
     1
 44
1.0
1001
AcDbBlockRepETag
1070
     1
1071
       21
1005
B40
1001
ACAD
1000
ACAD_MTEXT_DEFINED_HEIGHT_BEGIN
1070
    46
1040
7.863925338579296
1000
ACAD_MTEXT_DEFINED_HEIGHT_END
  0
MTEXT
  5
B41
330
1C2
100
AcDbEntity
  8
图框
  6
ByBlock
 62
     6
370
    18
100
AcDbMText
 10
1127.40434942308
 20
508.7896535755975
 30
0.0
 40
2.651776162684904
 41
2.557913877927211
 46
0.0
 71
     1
 72
     5
  1
A
  7
Romans字体
 11
0.0000000000000001
 21
1.0
 31
0.0
 73
     1
 44
1.0
1001
AcDbBlockRepETag
1070
     1
1071
       22
1005
B41
  0
MTEXT
  5
B42
330
1C2
100
AcDbEntity
  8
图框
 62
     6
100
AcDbMText
 10
1127.40434942308
 20
556.3746573232886
 30
0.0
 40
2.651776162684904
 41
2.557913877927211
 46
0.0
 71
     1
 72
     5
  1
B
  7
Romans字体
 11
0.0000000000000001
 21
1.0
 31
0.0
 73
     1
 44
1.0
1001
AcDbBlockRepETag
1070
     1
1071
       23
1005
B42
  0
MTEXT
  5
B43
330
1C2
100
AcDbEntity
  8
图框
 62
     6
100
AcDbMText
 10
1127.40434942308
 20
607.5539372630998
 30
0.0
 40
2.651776162684904
 41
2.557913877927211
 46
0.0
 71
     1
 72
     5
  1
C
  7
Romans字体
 11
0.0000000000000001
 21
1.0
 31
0.0
 73
     1
 44
1.0
1001
AcDbBlockRepETag
1070
     1
1071
       24
1005
B43
  0
MTEXT
  5
B44
330
1C2
100
AcDbEntity
  8
图框
 62
     6
100
AcDbMText
 10
1127.40434942308
 20
658.7332172029115
 30
0.0
 40
2.651776162684904
 41
2.557913877927211
 46
0.0
 71
     1
 72
     5
  1
D
  7
Romans字体
 11
0.0000000000000001
 21
1.0
 31
0.0
 73
     1
 44
1.0
1001
AcDbBlockRepETag
1070
     1
1071
       25
1005
B44
  0
LINE
  5
B45
330
1C2
100
AcDbEntity
  8
图框
 62
     6
100
AcDbLine
 10
1130.411601781241
 20
634.0726090796082
 30
0.0
 11
1126.928502610363
 21
634.0726090796082
 31
0.0
1001
AcDbBlockRepETag
1070
     1
1071
       26
1005
B45
  0
LINE
  5
B46
330
1C2
100
AcDbEntity
  8
图框
 62
     6
100
AcDbLine
 10
1130.411601781241
 20
582.89332913979
 30
0.0
 11
1126.928502610363
 21
582.89332913979
 31
0.0
1001
AcDbBlockRepETag
1070
     1
1071
       27
1005
B46
  0
MTEXT
  5
B47
330
1C2
100
AcDbEntity
  8
图框
 62
     6
100
AcDbMText
 10
1105.329704038389
 20
483.6164543011163
 30
0.0
 40
2.651776162684904
 41
2.557913877927211
 46
0.0
 71
     1
 72
     5
  1
6
  7
Romans字体
 73
     1
 44
1.0
1001
AcDbBlockRepETag
1070
     1
1071
       28
1005
B47
  0
LINE
  5
B48
330
1C2
100
AcDbEntity
  8
图框
 62
     6
100
AcDbLine
 10
1081.088565155284
 20
484.0347692601515
 30
0.0
 11
1081.088565155284
 21
480.5347692601475
 31
0.0
1001
AcDbBlockRepETag
1070
     1
1071
       29
1005
B48
  0
MTEXT
  5
B49
330
1C2
100
AcDbEntity
  8
图框
 62
     6
100
AcDbMText
 10
1055.900596365941
 20
483.520053108993
 30
0.0
 40
2.651776162684904
 41
2.557913877927211
 46
0.0
 71
     1
 72
     5
  1
5
  7
Romans字体
 73
     1
 44
1.0
1001
AcDbBlockRepETag
1070
     1
1071
       30
1005
B49
  0
LINE
  5
B4A
330
1C2
100
AcDbEntity
  8
图框
 62
     6
100
AcDbLine
 10
1031.553386436349
 20
484.0347692601515
 30
0.0
 11
1031.553386436349
 21
480.5347692601475
 31
0.0
1001
AcDbBlockRepETag
1070
     1
1071
       31
1005
B4A
  0
MTEXT
  5
B4B
330
1C2
100
AcDbEntity
  8
图框
 62
     6
100
AcDbMText
 10
1006.383180575197
 20
483.5687958215896
 30
0.0
 40
2.651776162684904
 41
2.557913877927211
 46
0.0
 71
     1
 72
     5
  1
4
  7
Romans字体
 73
     1
 44
1.0
1001
AcDbBlockRepETag
1070
     1
1071
       32
1005
B4B
  0
LINE
  5
B4C
330
1C2
100
AcDbEntity
  8
图框
 62
     6
100
AcDbLine
 10
982.0182077173887
 20
484.0347692601515
 30
0.0
 11
982.0182077173887
 21
480.5347692601475
 31
0.0
1001
AcDbBlockRepETag
1070
     1
1071
       33
1005
B4C
  0
MTEXT
  5
B4D
330
1C2
100
AcDbEntity
  8
图框
 62
     6
100
AcDbMText
 10
956.8302389280352
 20
483.5989680297948
 30
0.0
 40
2.651776162684904
 41
2.557913877927211
 46
0.0
 71
     1
 72
     5
  1
3
  7
Romans字体
 73
     1
 44
1.0
1001
AcDbBlockRepETag
1070
     1
1071
       34
1005
B4D
  0
LINE
  5
B4E
330
1C2
100
AcDbEntity
  8
图框
 62
     6
100
AcDbLine
 10
932.4830289984245
 20
484.0347692601515
 30
0.0
 11
932.4830289984245
 21
480.5347692601475
 31
0.0
1001
AcDbBlockRepETag
1070
     1
1071
       35
1005
B4E
  0
MTEXT
  5
B4F
330
1C2
100
AcDbEntity
  8
图框
 62
     6
100
AcDbMText
 10
906.0252349826365
 20
483.6475250013156
 30
0.0
 40
2.651776162684904
 41
2.557913877927211
 46
0.0
 71
     1
 72
     5
  1
2
  7
Romans字体
 73
     1
 44
1.0
1001
AcDbBlockRepETag
1070
     1
1071
       36
1005
B4F
  0
LINE
  5
B50
330
1C2
100
AcDbEntity
  8
图框
 62
     6
100
AcDbLine
 10
882.9478502794648
 20
484.0347692601515
 30
0.0
 11
882.9478502794648
 21
480.5347692601475
 31
0.0
1001
AcDbBlockRepETag
1070
     1
1071
       37
1005
B50
  0
MTEXT
  5
B51
330
1C2
100
AcDbEntity
  8
图框
 62
     6
100
AcDbMText
 10
857.7598814901191
 20
483.651829494754
 30
0.0
 40
2.651776162684904
 41
2.557913877927211
 46
0.0
 71
     1
 72
     5
  1
1
  7
Romans字体
 73
     1
 44
1.0
1001
AcDbBlockRepETag
1070
     1
1071
       38
1005
B51
  0
LINE
  5
B52
330
1C2
100
AcDbEntity
  8
图框
370
    50
100
AcDbLine
 10
836.8548209370597
 20
484.0347692601515
 30
0.0
 11
1126.928502610363
 21
484.0347692601515
 31
0.0
1001
AcDbBlockRepETag
1070
     1
1071
       39
1005
B52
  0
LINE
  5
B53
330
1C2
100
AcDbEntity
  8
图框
370
    50
100
AcDbLine
 10
836.9128518455362
 20
484.0178684310246
 30
0.0
 11
836.9128518455394
 21
675.0207195125422
 31
0.0
1001
AcDbBlockRepETag
1070
     1
1071
       40
1005
B53
  0
MTEXT
  5
B54
330
1C2
100
AcDbEntity
  8
图框
 62
     6
100
AcDbMText
 10
833.8475685789031
 20
658.7332172029115
 30
0.0
 40
2.651776162684904
 41
2.557913877927211
 46
0.0
 71
     1
 72
     5
  1
D
  7
Romans字体
 11
0.0000000000000001
 21
1.0
 31
0.0
 73
     1
 44
1.0
1001
AcDbBlockRepETag
1070
     1
1071
       41
1005
B54
  0
LINE
  5
B55
330
1C2
100
AcDbEntity
  8
图框
 62
     6
100
AcDbLine
 10
836.9128518455386
 20
634.0726090796082
 30
0.0
 11
833.4128518455365
 21
634.0726090796082
 31
0.0
1001
AcDbBlockRepETag
1070
     1
1071
       42
1005
B55
  0
MTEXT
  5
B56
330
1C2
100
AcDbEntity
  8
图框
 62
     6
100
AcDbMText
 10
833.9039177480142
 20
607.5539372630998
 30
0.0
 40
2.651776162684904
 41
2.557913877927211
 46
0.0
 71
     1
 72
     5
  1
C
  7
Romans字体
 11
0.0000000000000001
 21
1.0
 31
0.0
 73
     1
 44
1.0
1001
AcDbBlockRepETag
1070
     1
1071
       43
1005
B56
  0
LINE
  5
B57
330
1C2
100
AcDbEntity
  8
图框
 62
     6
100
AcDbLine
 10
836.9128518455378
 20
582.89332913979
 30
0.0
 11
833.4128518455365
 21
582.89332913979
 31
0.0
1001
AcDbBlockRepETag
1070
     1
1071
       44
1005
B57
  0
MTEXT
  5
B58
330
1C2
100
AcDbEntity
  8
图框
 62
     6
100
AcDbMText
 10
833.9039177480142
 20
556.3746573232886
 30
0.0
 40
2.651776162684904
 41
2.557913877927211
 46
0.0
 71
     1
 72
     5
  1
B
  7
Romans字体
 11
0.0000000000000001
 21
1.0
 31
0.0
 73
     1
 44
1.0
1001
AcDbBlockRepETag
1070
     1
1071
       45
1005
B58
  0
LINE
  5
B59
330
1C2
100
AcDbEntity
  8
图框
 62
     6
100
AcDbLine
 10
836.9128518455367
 20
531.714049199969
 30
0.0
 11
833.4128518455365
 21
531.714049199969
 31
0.0
1001
AcDbBlockRepETag
1070
     1
1071
       46
1005
B59
  0
MTEXT
  5
B5A
330
1C2
100
AcDbEntity
  8
图框
 62
     6
100
AcDbMText
 10
833.9039177480142
 20
508.7896535755975
 30
0.0
 40
2.651776162684904
 41
2.557913877927211
 46
0.0
 71
     1
 72
     5
  1
A
  7
Romans字体
 11
0.0000000000000001
 21
1.0
 31
0.0
 73
     1
 44
1.0
1001
AcDbBlockRepETag
1070
     1
1071
       47
1005
B5A
  0
LINE
  5
B5B
330
1C2
100
AcDbEntity
  8
图框
370
    -3
100
AcDbLine
 10
836.9128518455394
 20
675.0207195125422
 30
0.0
 11
836.9128518455394
 21
684.5021384922564
 31
0.0
1001
AcDbBlockRepETag
1070
     1
1071
       48
1005
B5B
  0
LINE
  5
B5C
330
1C2
100
AcDbEntity
  8
图框
370
    -3
100
AcDbLine
 10
842.6237321475781
 20
675.5347692601515
 30
0.0
 11
842.6237321475781
 21
685.0161882398658
 31
0.0
1001
AcDbBlockRepETag
1070
     1
1071
       49
1005
B5C
  0
LINE
  5
B5D
330
1C2
100
AcDbEntity
  8
图框
370
    -3
100
AcDbLine
 10
848.3346124496179
 20
675.5347692601515
 30
0.0
 11
848.3346124496179
 21
685.0161882398658
 31
0.0
1001
AcDbBlockRepETag
1070
     1
1071
       50
1005
B5D
  0
LINE
  5
B5E
330
1C2
100
AcDbEntity
  8
图框
370
    -3
100
AcDbLine
 10
854.0454927516588
 20
675.5347692601515
 30
0.0
 11
854.0454927516588
 21
685.0161882398658
 31
0.0
1001
AcDbBlockRepETag
1070
     1
1071
       51
1005
B5E
  0
LINE
  5
B5F
330
1C2
100
AcDbEntity
  8
图框
370
    -3
100
AcDbLine
 10
861.5351874539182
 20
675.5347692601515
 30
0.0
 11
861.5351874539182
 21
686.7901958362482
 31
0.0
1001
AcDbBlockRepETag
1070
     1
1071
       52
1005
B5F
  0
MTEXT
  5
B60
330
1C2
100
AcDbEntity
  8
图框
 62
     6
100
AcDbMText
 10
1105.329704038389
 20
678.859919059449
 30
0.0
 40
2.651776162684904
 41
2.557913877927211
 46
0.0
 71
     1
 72
     5
  1
6
  7
Romans字体
 73
     1
 44
1.0
1001
AcDbBlockRepETag
1070
     1
1071
       53
1005
B60
  0
LINE
  5
B61
330
1C2
100
AcDbEntity
  8
图框
 62
     6
100
AcDbLine
 10
1081.088565155284
 20
679.0347692601516
 30
0.0
 11
1081.088565155284
 21
675.5347692601515
 31
0.0
1001
AcDbBlockRepETag
1070
     1
1071
       54
1005
B61
  0
MTEXT
  5
B62
330
1C2
100
AcDbEntity
  8
图框
 62
     6
100
AcDbMText
 10
1055.900596365941
 20
678.859919059449
 30
0.0
 40
2.651776162684904
 41
2.557913877927211
 46
0.0
 71
     1
 72
     5
  1
5
  7
Romans字体
 73
     1
 44
1.0
1001
AcDbBlockRepETag
1070
     1
1071
       55
1005
B62
  0
LINE
  5
B63
330
1C2
100
AcDbEntity
  8
图框
 62
     6
100
AcDbLine
 10
1031.553386436349
 20
679.0347692601516
 30
0.0
 11
1031.553386436349
 21
675.5347692601515
 31
0.0
1001
AcDbBlockRepETag
1070
     1
1071
       56
1005
B63
  0
MTEXT
  5
B64
330
1C2
100
AcDbEntity
  8
图框
 62
     6
100
AcDbMText
 10
1006.36541764698
 20
678.7312083656147
 30
0.0
 40
2.651776162684904
 41
2.557913877927211
 46
0.0
 71
     1
 72
     5
  1
4
  7
Romans字体
 73
     1
 44
1.0
1001
AcDbBlockRepETag
1070
     1
1071
       57
1005
B64
  0
LINE
  5
B65
330
1C2
100
AcDbEntity
  8
图框
 62
     6
100
AcDbLine
 10
982.0182077173887
 20
679.0347692601516
 30
0.0
 11
982.0182077173887
 21
675.5347692601515
 31
0.0
1001
AcDbBlockRepETag
1070
     1
1071
       58
1005
B65
  0
MTEXT
  5
B66
330
1C2
100
AcDbEntity
  8
图框
 62
     6
100
AcDbMText
 10
956.8302389280352
 20
678.859919059449
 30
0.0
 40
2.651776162684904
 41
2.557913877927211
 46
0.0
 71
     1
 72
     5
  1
3
  7
Romans字体
 73
     1
 44
1.0
1001
AcDbBlockRepETag
1070
     1
1071
       59
1005
B66
  0
LINE
  5
B67
330
1C2
100
AcDbEntity
  8
图框
 62
     6
100
AcDbLine
 10
932.4830289984245
 20
679.0347692601516
 30
0.0
 11
932.4830289984245
 21
675.5347692601515
 31
0.0
1001
AcDbBlockRepETag
1070
     1
1071
       60
1005
B67
  0
MTEXT
  5
B68
330
1C2
100
AcDbEntity
  8
图框
 62
     6
100
AcDbMText
 10
907.295060209082
 20
678.859919059449
 30
0.0
 40
2.651776162684904
 41
2.557913877927211
 46
0.0
 71
     1
 72
     5
  1
2
  7
Romans字体
 73
     1
 44
1.0
1001
AcDbBlockRepETag
1070
     1
1071
       61
1005
B68
  0
LINE
  5
B69
330
1C2
100
AcDbEntity
  8
图框
 62
     6
100
AcDbLine
 10
882.9478502794648
 20
678.7962435131815
 30
0.0
 11
882.9478502794648
 21
675.5347692601515
 31
0.0
1001
AcDbBlockRepETag
1070
     1
1071
       62
1005
B69
  0
MTEXT
  5
B6A
330
1C2
100
AcDbEntity
  8
图框
 62
     6
100
AcDbMText
 10
862.6286629643733
 20
678.859919059449
 30
0.0
 40
2.651776162684904
 41
2.557913877927211
 46
0.0
 71
     1
 72
     5
  1
1
  7
Romans字体
 73
     1
 44
1.0
1001
AcDbBlockRepETag
1070
     1
1071
       63
1005
B6A
  0
LINE
  5
B6B
330
1C2
100
AcDbEntity
  8
图框
370
    -3
100
AcDbLine
 10
836.9128518455394
 20
675.0207195125422
 30
0.0
 11
836.9128518455394
 21
686.7901958362482
 31
0.0
1001
AcDbBlockRepETag
1070
     1
1071
       64
1005
B6B
  0
LINE
  5
B6C
330
1C2
100
AcDbEntity
  8
图框
370
    50
100
AcDbLine
 10
836.9128518455394
 20
675.5347692601515
 30
0.0
 11
1126.928502610363
 21
675.5347692601515
 31
0.0
1001
AcDbBlockRepETag
1070
     1
1071
       65
1005
B6C
  0
LINE
  5
B6D
330
1C2
100
AcDbEntity
  8
图框
370
    -3
100
AcDbLine
 10
842.6237321475781
 20
675.5347692601515
 30
0.0
 11
842.6237321475781
 21
686.7901958362482
 31
0.0
1001
AcDbBlockRepETag
1070
     1
1071
       66
1005
B6D
  0
LINE
  5
B6E
330
1C2
100
AcDbEntity
  8
图框
370
    -3
100
AcDbLine
 10
848.3346124496179
 20
675.5347692601515
 30
0.0
 11
848.3346124496179
 21
686.7901958362482
 31
0.0
1001
AcDbBlockRepETag
1070
     1
1071
       67
1005
B6E
  0
MTEXT
  5
B6F
102
{ACAD_XDICTIONARY
360
BD1
102
}
330
1C2
100
AcDbEntity
  8
图框
100
AcDbMText
 10
857.7903401027889
 20
686.7901958362482
 30
0.0
 40
1.958998408821398
 41
11.25542657609672
 46
7.489694702258906
 71
     4
 72
     5
  1
\pi2.8203;档案员{\H0.7x;\P\pi1.4159;\Fromans|c134;Filing Clerk\fFangSong_GB2312|b0|i0|c134|p49; }
 11
-0.0000000000000002
 21
-1.0
 31
0.0
 73
     1
 44
1.0
1001
AcDbBlockRepETag
1070
     1
1071
       68
1005
B6F
1001
ACAD
1000
ACAD_MTEXT_DEFINED_HEIGHT_BEGIN
1070
    46
1040
7.489694702258906
1000
ACAD_MTEXT_DEFINED_HEIGHT_END
  0
MTEXT
  5
B70
102
{ACAD_XDICTIONARY
360
BD3
102
}
330
1C2
100
AcDbEntity
  8
图框
100
AcDbMText
 10
845.479172298598
 20
686.7901958362482
 30
0.0
 40
1.958998408821398
 41
11.25542657609672
 46
5.710880302039671
 71
     4
 72
     5
  1
\pi0.7115;日期{\Fromans|c134;/Date}
 11
-0.0000000000000002
 21
-1.0
 31
0.0
 73
     1
 44
1.0
1001
AcDbBlockRepETag
1070
     1
1071
       69
1005
B70
1001
ACAD
1000
ACAD_MTEXT_DEFINED_HEIGHT_BEGIN
1070
    46
1040
5.710880302039671
1000
ACAD_MTEXT_DEFINED_HEIGHT_END
  0
LINE
  5
B71
330
1C2
100
AcDbEntity
  8
图框
370
    -3
100
AcDbLine
 10
854.0454927516588
 20
675.5347692601515
 30
0.0
 11
854.0454927516588
 21
686.7901958362482
 31
0.0
1001
AcDbBlockRepETag
1070
     1
1071
       70
1005
B71
  0
LINE
  5
B72
330
1C2
100
AcDbEntity
  8
图框
370
    -3
100
AcDbLine
 10
1036.653967466372
 20
531.3291676047914
 30
0.0
 11
1036.653967466372
 21
484.0126019753161
 31
0.0
1001
AcDbBlockRepETag
1070
     1
1071
       71
1005
B72
  0
LINE
  5
B73
330
1C2
100
AcDbEntity
  8
图框
370
    -3
100
AcDbLine
 10
1047.483315900763
 20
507.6708838011533
 30
0.0
 11
1047.483315900763
 21
491.8986945987308
 31
0.0
1001
AcDbBlockRepETag
1070
     1
1071
       72
1005
B73
  0
LINE
  5
B74
330
1C2
100
AcDbEntity
  8
图框
370
    -3
100
AcDbLine
 10
1058.312664335153
 20
507.6708838011533
 30
0.0
 11
1058.312664335153
 21
484.0347692601515
 31
0.0
1001
AcDbBlockRepETag
1070
     1
1071
       73
1005
B74
  0
LINE
  5
B75
330
1C2
100
AcDbEntity
  8
图框
370
    25
100
AcDbLine
 10
1048.474135214456
 20
488.1095628329926
 30
0.0
 11
1054.946420288459
 21
488.1095628329926
 31
0.0
1001
AcDbBlockRepETag
1070
     1
1071
       74
1005
B75
  0
LINE
  5
B76
330
1C2
100
AcDbEntity
  8
图框
370
    25
100
AcDbLine
 10
1054.232527365989
 20
487.0761716842634
 30
0.0
 11
1049.156490914508
 21
486.4576273751
 31
0.0
1001
AcDbBlockRepETag
1070
     1
1071
       75
1005
B76
  0
LINE
  5
B77
330
1C2
100
AcDbEntity
  8
图框
370
    25
100
AcDbLine
 10
1054.232527365989
 20
489.1429539817209
 30
0.0
 11
1049.156490914508
 21
489.7614982908846
 31
0.0
1001
AcDbBlockRepETag
1070
     1
1071
       76
1005
B77
  0
LINE
  5
B78
330
1C2
100
AcDbEntity
  8
图框
370
    25
100
AcDbLine
 10
1049.156490914508
 20
489.7614982908846
 30
0.0
 11
1049.156490914508
 21
486.4576273751
 31
0.0
1001
AcDbBlockRepETag
1070
     1
1071
       77
1005
B78
  0
LINE
  5
B79
330
1C2
100
AcDbEntity
  8
图框
370
    25
100
AcDbLine
 10
1054.232527365989
 20
489.1429539817209
 30
0.0
 11
1054.232527365989
 21
487.0761716842634
 31
0.0
1001
AcDbBlockRepETag
1070
     1
1071
       78
1005
B79
  0
CIRCLE
  5
B7A
330
1C2
100
AcDbEntity
  8
图框
370
    25
100
AcDbCircle
 10
1042.502700458579
 20
488.1095628329926
 30
0.0
 40
1.651935457891863
1001
AcDbBlockRepETag
1070
     1
1071
       79
1005
B7A
  0
CIRCLE
  5
B7B
330
1C2
100
AcDbEntity
  8
图框
370
    25
100
AcDbCircle
 10
1042.502700458579
 20
488.1095628329926
 30
0.0
 40
1.033391148728775
1001
AcDbBlockRepETag
1070
     1
1071
       80
1005
B7B
  0
LINE
  5
B7C
330
1C2
100
AcDbEntity
  8
图框
370
    25
100
AcDbLine
 10
1040.136872078216
 20
488.1095628329926
 30
0.0
 11
1044.868528838943
 21
488.1095628329926
 31
0.0
1001
AcDbBlockRepETag
1070
     1
1071
       81
1005
B7C
  0
LINE
  5
B7D
330
1C2
100
AcDbEntity
  8
图框
370
    25
100
AcDbLine
 10
1042.502700458579
 20
490.475391213355
 30
0.0
 11
1042.502700458579
 21
485.743734452629
 31
0.0
1001
AcDbBlockRepETag
1070
     1
1071
       82
1005
B7D
  0
LINE
  5
B7E
330
1C2
100
AcDbEntity
  8
图框
370
    -3
100
AcDbLine
 10
1069.142012769546
 20
507.6708838011533
 30
0.0
 11
1069.142012769546
 21
491.8986945987308
 31
0.0
1001
AcDbBlockRepETag
1070
     1
1071
       83
1005
B7E
  0
MTEXT
  5
B7F
330
1C2
100
AcDbEntity
  8
图框
100
AcDbMText
 10
1086.643735910939
 20
526.8006839312707
 30
0.0
 40
2.154898249703542
 41
13.34474941400573
 46
9.056967347041776
 71
     5
 72
     5
  1
图号{\Ftxt|c134;\P\Fromans|c134;\W0.65;Drawing No.}
 73
     1
 44
1.0
1001
AcDbBlockRepETag
1070
     1
1071
       84
1005
B7F
1001
ACAD
1000
ACAD_MTEXT_DEFINED_HEIGHT_BEGIN
1070
    46
1040
9.056967347041776
1000
ACAD_MTEXT_DEFINED_HEIGHT_END
  0
LINE
  5
B80
330
1C2
100
AcDbEntity
  8
图框
370
    -3
100
AcDbLine
 10
1093.316110617942
 20
531.3291676047914
 30
0.0
 11
1093.316110617942
 21
495.8417418993347
 31
0.0
1001
AcDbBlockRepETag
1070
     1
1071
       85
1005
B80
  0
LINE
  5
B81
330
1C2
100
AcDbEntity
  8
图框
370
    -3
100
AcDbLine
 10
1047.473969770481
 20
531.3291676047914
 30
0.0
 11
1047.473969770481
 21
507.6708838011533
 31
0.0
1001
AcDbBlockRepETag
1070
     1
1071
       86
1005
B81
  0
MTEXT
  5
B82
330
1C2
100
AcDbEntity
  8
图框
100
AcDbMText
 10
1063.72733855235
 20
503.7278365005473
 30
0.0
 40
2.252848170144607
 41
10.82934843439208
 46
7.886094601212128
 71
     5
 72
     5
  1
重量\P{\Fromans|c134;Weight}
 73
     1
 44
1.0
1001
AcDbBlockRepETag
1070
     1
1071
       87
1005
B82
1001
ACAD
1000
ACAD_MTEXT_DEFINED_HEIGHT_BEGIN
1070
    46
1040
7.886094601212128
1000
ACAD_MTEXT_DEFINED_HEIGHT_END
  0
LINE
  5
B83
330
1C2
100
AcDbEntity
  8
图框
370
    -3
100
AcDbLine
 10
1036.653967466372
 20
519.5000257029746
 30
0.0
 11
1079.971361203936
 21
519.5000257029746
 31
0.0
1001
AcDbBlockRepETag
1070
     1
1071
       88
1005
B83
  0
MTEXT
  5
B84
330
1C2
100
AcDbEntity
  8
图框
100
AcDbMText
 10
1074.556686986741
 20
503.7278365005473
 30
0.0
 40
2.252848170144607
 41
10.82934843438984
 46
7.886094601212141
 71
     5
 72
     5
  1
数量\P{\Fromans|c134;Qty.}
 73
     1
 44
1.0
1001
AcDbBlockRepETag
1070
     1
1071
       89
1005
B84
1001
ACAD
1000
ACAD_MTEXT_DEFINED_HEIGHT_BEGIN
1070
    46
1040
7.886094601212141
1000
ACAD_MTEXT_DEFINED_HEIGHT_END
  0
LINE
  5
B85
330
1C2
100
AcDbEntity
  8
图框
370
    -3
100
AcDbLine
 10
1079.971361203936
 20
495.8417418993347
 30
0.0
 11
1126.928502610363
 21
495.8417418993342
 31
0.0
1001
AcDbBlockRepETag
1070
     1
1071
       90
1005
B85
  0
LINE
  5
B86
330
1C2
100
AcDbEntity
  8
图框
370
    -3
100
AcDbLine
 10
1079.971361203936
 20
504.7132992040975
 30
0.0
 11
1126.928502610363
 21
504.7132992040975
 31
0.0
1001
AcDbBlockRepETag
1070
     1
1071
       91
1005
B86
  0
MTEXT
  5
B87
330
1C2
100
AcDbEntity
  8
图框
100
AcDbMText
 10
1052.893317052817
 20
503.7278365005473
 30
0.0
 40
2.252848170144607
 41
10.83869456467139
 46
7.886094601212101
 71
     5
 72
     5
  1
版本\P{\Fromans|c134;REV.}
 73
     1
 44
1.0
1001
AcDbBlockRepETag
1070
     1
1071
       92
1005
B87
1001
ACAD
1000
ACAD_MTEXT_DEFINED_HEIGHT_BEGIN
1070
    46
1040
7.886094601212101
1000
ACAD_MTEXT_DEFINED_HEIGHT_END
  0
MTEXT
  5
B88
330
1C2
100
AcDbEntity
  8
图框
100
AcDbMText
 10
1042.068641683568
 20
503.7278365005473
 30
0.0
 40
2.252848170144607
 41
10.8293484343908
 46
7.886094601212136
 71
     5
 72
     5
  1
比例\P{\Fromans|c134;Scale}
 73
     1
 44
1.0
1001
AcDbBlockRepETag
1070
     1
1071
       93
1005
B88
1001
ACAD
1000
ACAD_MTEXT_DEFINED_HEIGHT_BEGIN
1070
    46
1040
7.886094601212136
1000
ACAD_MTEXT_DEFINED_HEIGHT_END
  0
LINE
  5
B89
330
1C2
100
AcDbEntity
  8
图框
370
    -3
100
AcDbLine
 10
1036.653967466372
 20
507.6708838011533
 30
0.0
 11
1079.971361203936
 21
507.6708838011533
 31
0.0
1001
AcDbBlockRepETag
1070
     1
1071
       94
1005
B89
  0
LINE
  5
B8A
330
1C2
100
AcDbEntity
  8
图框
370
    -3
100
AcDbLine
 10
1036.653967466372
 20
491.8986945987308
 30
0.0
 11
1079.971361203936
 21
491.8986945987308
 31
0.0
1001
AcDbBlockRepETag
1070
     1
1071
       95
1005
B8A
  0
LINE
  5
B8B
330
1C2
100
AcDbEntity
  8
图框
370
    -3
100
AcDbLine
 10
1079.971361203936
 20
531.3291676047914
 30
0.0
 11
1079.971361203936
 21
484.0125999975168
 31
0.0
1001
AcDbBlockRepETag
1070
     1
1071
       96
1005
B8B
  0
MTEXT
  5
B8C
330
1C2
100
AcDbEntity
  8
图框
100
AcDbMText
 10
1042.063968618426
 20
525.4145966538832
 30
0.0
 40
2.252848170144607
 41
10.82000230410933
 46
11.82914190181708
 71
     5
 72
     5
  1
表面处理\P{\Fromans|c134;Finish}
 73
     1
 44
1.0
1001
AcDbBlockRepETag
1070
     1
1071
       97
1005
B8C
1001
ACAD
1000
ACAD_MTEXT_DEFINED_HEIGHT_BEGIN
1070
    46
1040
11.82914190181708
1000
ACAD_MTEXT_DEFINED_HEIGHT_END
  0
MTEXT
  5
B8D
330
1C2
100
AcDbEntity
  8
图框
100
AcDbMText
 10
1042.063968618426
 20
513.5854547520639
 30
0.0
 40
2.252848170144607
 41
10.82000230410933
 46
11.8291419018212
 71
     5
 72
     5
  1
材料\P{\Fromans|c134;Material}
 73
     1
 44
1.0
1001
AcDbBlockRepETag
1070
     1
1071
       98
1005
B8D
1001
ACAD
1000
ACAD_MTEXT_DEFINED_HEIGHT_BEGIN
1070
    46
1040
11.8291419018212
1000
ACAD_MTEXT_DEFINED_HEIGHT_END
  0
LINE
  5
B8E
330
1C2
100
AcDbEntity
  8
图框
370
    -3
100
AcDbLine
 10
1079.971361203936
 20
522.27220025775
 30
0.0
 11
1126.928502610363
 21
522.27220025775
 31
0.0
1001
AcDbBlockRepETag
1070
     1
1071
       99
1005
B8E
  0
LINE
  5
B8F
330
1C2
100
AcDbEntity
  8
图框
370
    -3
100
AcDbLine
 10
1079.971361203936
 20
513.5854547520641
 30
0.0
 11
1126.928502610363
 21
513.5854547520639
 31
0.0
1001
AcDbBlockRepETag
1070
     1
1071
      100
1005
B8F
  0
MTEXT
  5
B90
330
1C2
100
AcDbEntity
  8
图框
100
AcDbMText
 10
1086.643735910939
 20
517.9288275049072
 30
0.0
 40
1.958998408821398
 41
13.34474941400573
 46
8.686745505685811
 71
     5
 72
     5
  1
产品代号\P{\Fromans|c134;Part Code}
 73
     1
 44
1.0
1001
AcDbBlockRepETag
1070
     1
1071
      101
1005
B90
1001
ACAD
1000
ACAD_MTEXT_DEFINED_HEIGHT_BEGIN
1070
    46
1040
8.686745505685811
1000
ACAD_MTEXT_DEFINED_HEIGHT_END
  0
LINE
  5
B91
330
1C2
100
AcDbEntity
  8
图框
370
    -3
100
AcDbLine
 10
946.9285026103634
 20
525.7982263931411
 30
0.0
 11
1036.653967466372
 21
525.7982263931411
 31
0.0
1001
AcDbBlockRepETag
1070
     1
1071
      102
1005
B91
  0
LINE
  5
B92
330
1C2
100
AcDbEntity
  8
图框
370
    -3
100
AcDbLine
 10
946.9285026103634
 20
520.2672851814959
 30
0.0
 11
1036.653967466372
 21
520.2672851814959
 31
0.0
1001
AcDbBlockRepETag
1070
     1
1071
      103
1005
B92
  0
LINE
  5
B93
330
1C2
100
AcDbEntity
  8
图框
370
    35
100
AcDbLine
 10
946.9285026103634
 20
531.3291676047914
 30
0.0
 11
1126.928502610363
 21
531.3291676047914
 31
0.0
1001
AcDbBlockRepETag
1070
     1
1071
      104
1005
B93
  0
LINE
  5
B94
330
1C2
100
AcDbEntity
  8
图框
370
    -3
100
AcDbLine
 10
990.6727612856927
 20
509.2054027581959
 30
0.0
 11
990.6727612856927
 21
484.0347692601515
 31
0.0
1001
AcDbBlockRepETag
1070
     1
1071
      105
1005
B94
  0
MTEXT
  5
B95
102
{ACAD_XDICTIONARY
360
BD5
102
}
330
1C2
100
AcDbEntity
  8
图框
100
AcDbMText
 10
997.1628169651232
 20
499.816589978722
 30
0.0
 40
2.252848170144607
 41
12.98011135886052
 46
6.19230880992475
 71
     5
 72
     5
  1
{\f仿宋_GB2312|b0|i0|c134|p49;标准化}\PStand.
  7
Romans字体
 73
     1
 44
1.0
1001
AcDbBlockRepETag
1070
     1
1071
      106
1005
B95
1001
ACAD
1000
ACAD_MTEXT_DEFINED_HEIGHT_BEGIN
1070
    46
1040
6.19230880992475
1000
ACAD_MTEXT_DEFINED_HEIGHT_END
  0
LINE
  5
B96
330
1C2
100
AcDbEntity
  8
图框
370
    -3
100
AcDbLine
 10
975.4103773808022
 20
509.2054027581959
 30
0.0
 11
975.4103773808022
 21
484.0347692601515
 31
0.0
1001
AcDbBlockRepETag
1070
     1
1071
      107
1005
B96
  0
MTEXT
  5
B97
330
1C2
100
AcDbEntity
  8
图框
100
AcDbMText
 10
984.5089229802068
 20
511.9708733640202
 30
0.0
 40
2.448748011026752
 41
38.287899328693
 46
5.530941211648832
 71
     5
 72
     5
  1
  变更描述{\Fromans|c134;/Description}
 73
     1
 44
1.0
1001
AcDbBlockRepETag
1070
     1
1071
      108
1005
B97
1001
ACAD
1000
ACAD_MTEXT_DEFINED_HEIGHT_BEGIN
1070
    46
1040
5.530941211648832
1000
ACAD_MTEXT_DEFINED_HEIGHT_END
  0
MTEXT
  5
B98
102
{ACAD_XDICTIONARY
360
BD7
102
}
330
1C2
100
AcDbEntity
  8
图框
100
AcDbMText
 10
1012.466086049227
 20
511.9708733640202
 30
0.0
 40
1.958998408821398
 41
17.6264268093469
 46
5.530941211648825
 71
     5
 72
     5
  1
签名\P{\Fromans|c134;Signature} 
 73
     1
 44
1.0
1001
AcDbBlockRepETag
1070
     1
1071
      109
1005
B98
1001
ACAD
1000
ACAD_MTEXT_DEFINED_HEIGHT_BEGIN
1070
    46
1040
5.530941211648825
1000
ACAD_MTEXT_DEFINED_HEIGHT_END
  0
MTEXT
  5
B99
102
{ACAD_XDICTIONARY
360
BD9
102
}
330
1C2
100
AcDbEntity
  8
图框
100
AcDbMText
 10
960.7558556394856
 20
511.9708733640202
 30
0.0
 40
1.958998408821398
 41
9.218235352749283
 46
5.530941211648841
 71
     5
 72
     5
  1
处数\P{\Fromans|c134;Number }
 73
     1
 44
1.0
1001
AcDbBlockRepETag
1070
     1
1071
      110
1005
B99
1001
ACAD
1000
ACAD_MTEXT_DEFINED_HEIGHT_BEGIN
1070
    46
1040
5.530941211648841
1000
ACAD_MTEXT_DEFINED_HEIGHT_END
  0
LINE
  5
B9A
330
1C2
100
AcDbEntity
  8
图框
370
    -3
100
AcDbLine
 10
946.9285026103634
 20
514.7363439698449
 30
0.0
 11
1036.653967466372
 21
514.7363439698449
 31
0.0
1001
AcDbBlockRepETag
1070
     1
1071
      111
1005
B9A
  0
LINE
  5
B9B
330
1C2
100
AcDbEntity
  8
图框
370
    -3
100
AcDbLine
 10
946.9285026103634
 20
509.2054027581959
 30
0.0
 11
1036.653967466372
 21
509.2054027581959
 31
0.0
1001
AcDbBlockRepETag
1070
     1
1071
      112
1005
B9B
  0
LINE
  5
B9C
330
1C2
100
AcDbEntity
  8
图框
370
    -3
100
AcDbLine
 10
946.9285026103634
 20
502.9127443836848
 30
0.0
 11
1036.653967466372
 21
502.9127443836848
 31
0.0
1001
AcDbBlockRepETag
1070
     1
1071
      113
1005
B9C
  0
LINE
  5
B9D
330
1C2
100
AcDbEntity
  8
图框
370
    -3
100
AcDbLine
 10
946.9285026103634
 20
496.620086009173
 30
0.0
 11
1036.653967466372
 21
496.620086009173
 31
0.0
1001
AcDbBlockRepETag
1070
     1
1071
      114
1005
B9D
  0
LINE
  5
B9E
330
1C2
100
AcDbEntity
  8
图框
370
    35
380
     1
100
AcDbLine
 10
946.9285026103634
 20
531.3291676047914
 30
0.0
 11
946.9285026103634
 21
484.0347692601515
 31
0.0
1001
AcDbBlockRepETag
1070
     1
1071
      115
1005
B9E
  0
LINE
  5
B9F
330
1C2
100
AcDbEntity
  8
图框
370
    -3
100
AcDbLine
 10
1021.301636813399
 20
531.3291676047914
 30
0.0
 11
1021.301636813399
 21
484.0347692601515
 31
0.0
1001
AcDbBlockRepETag
1070
     1
1071
      116
1005
B9F
  0
LINE
  5
BA0
330
1C2
100
AcDbEntity
  8
图框
370
    -3
100
AcDbLine
 10
1003.652872644553
 20
531.3291676047914
 30
0.0
 11
1003.652872644553
 21
484.0347692601515
 31
0.0
1001
AcDbBlockRepETag
1070
     1
1071
      117
1005
BA0
  0
LINE
  5
BA1
330
1C2
100
AcDbEntity
  8
图框
370
    -3
100
AcDbLine
 10
965.3649733158603
 20
531.3291676047914
 30
0.0
 11
965.3649733158603
 21
509.2054027581959
 31
0.0
1001
AcDbBlockRepETag
1070
     1
1071
      118
1005
BA1
  0
LINE
  5
BA2
330
1C2
100
AcDbEntity
  8
图框
370
    -3
100
AcDbLine
 10
956.1467379631109
 20
531.3291676047914
 30
0.0
 11
956.1467379631109
 21
509.2054027581959
 31
0.0
1001
AcDbBlockRepETag
1070
     1
1071
      119
1005
BA2
  0
MTEXT
  5
BA3
102
{ACAD_XDICTIONARY
360
BDB
102
}
330
1C2
100
AcDbEntity
  8
图框
100
AcDbMText
 10
951.537620286737
 20
511.9708733640202
 30
0.0
 40
1.958998408821398
 41
9.218235352747692
 46
5.530941211648832
 71
     5
 72
     5
  1
标记\P{\Fromans|c134;Mark}
 73
     1
 44
1.0
1001
AcDbBlockRepETag
1070
     1
1071
      120
1005
BA3
1001
ACAD
1000
ACAD_MTEXT_DEFINED_HEIGHT_BEGIN
1070
    46
1040
5.530941211648832
1000
ACAD_MTEXT_DEFINED_HEIGHT_END
  0
MTEXT
  5
BA4
102
{ACAD_XDICTIONARY
360
BDD
102
}
330
1C2
100
AcDbEntity
  8
图框
100
AcDbMText
 10
953.4185582897936
 20
493.4737568219182
 30
0.0
 40
2.252848170144607
 41
12.98011135886041
 46
6.292658374510382
 71
     5
 72
     5
  1
审核\P{\Fromans|c134;Checked}
 73
     1
 44
1.0
1001
AcDbBlockRepETag
1070
     1
1071
      121
1005
BA4
1001
ACAD
1000
ACAD_MTEXT_DEFINED_HEIGHT_BEGIN
1070
    46
1040
6.292658374510382
1000
ACAD_MTEXT_DEFINED_HEIGHT_END
  0
MTEXT
  5
BA5
102
{ACAD_XDICTIONARY
360
BDF
102
}
330
1C2
100
AcDbEntity
  8
图框
100
AcDbMText
 10
953.4185582897936
 20
499.8775635376777
 30
0.0
 40
2.252848170144607
 41
12.98011135886041
 46
6.070361692014189
 71
     5
 72
     5
  1
绘图\P{\Fromans|c134;Drawn\Ftxt|c134; }
 73
     1
 44
1.0
1001
AcDbBlockRepETag
1070
     1
1071
      122
1005
BA5
1001
ACAD
1000
ACAD_MTEXT_DEFINED_HEIGHT_BEGIN
1070
    46
1040
6.070361692014189
1000
ACAD_MTEXT_DEFINED_HEIGHT_END
  0
ARC
  5
BA6
330
1C2
100
AcDbEntity
  8
图框
 62
     4
370
    35
100
AcDbCircle
 10
1086.900627017421
 20
490.0179944151195
 30
0.0
 40
4.063310408393665
100
AcDbArc
 50
18.95237904564806
 51
161.0476209543519
1001
AcDbBlockRepETag
1070
     1
1071
      123
1005
BA6
  0
ARC
  5
BA7
330
1C2
100
AcDbEntity
  8
图框
 62
     4
370
    35
100
AcDbCircle
 10
1086.900627017421
 20
490.0179944151195
 30
0.0
 40
4.063310408393665
100
AcDbArc
 50
198.952379045648
 51
341.0476209543519
1001
AcDbBlockRepETag
1070
     1
1071
      124
1005
BA7
  0
LINE
  5
BA8
330
1C2
100
AcDbEntity
  8
图框
 62
     4
370
    35
100
AcDbLine
 10
1083.057593369548
 20
488.6983035966752
 30
0.0
 11
1090.74366066529
 21
488.6983035966752
 31
0.0
1001
AcDbBlockRepETag
1070
     1
1071
      125
1005
BA8
  0
LINE
  5
BA9
330
1C2
100
AcDbEntity
  8
图框
 62
     4
370
    35
100
AcDbLine
 10
1083.057593369548
 20
491.3376852335652
 30
0.0
 11
1090.74366066529
 21
491.3376852335652
 31
0.0
1001
AcDbBlockRepETag
1070
     1
1071
      126
1005
BA9
  0
MTEXT
  5
BAA
330
1C2
100
AcDbEntity
  8
图框
 62
     1
370
    20
100
AcDbMText
 10
1083.034582879669
 20
491.0506288081688
 30
0.0
 40
2.005930044038334
 41
5.047240019334847
 46
0.0
 71
     1
 72
     5
  1
{\fArial|b0|i0|c0|p34;W}
  7
Chinese
 73
     1
 44
1.0
1001
AcDbBlockRepETag
1070
     1
1071
      127
1005
BAA
  0
LINE
  5
BAB
330
1C2
100
AcDbEntity
  8
图框
370
    -3
100
AcDbLine
 10
946.9285026103634
 20
490.327427634663
 30
0.0
 11
1036.653967466372
 21
490.327427634663
 31
0.0
1001
AcDbBlockRepETag
1070
     1
1071
      128
1005
BAB
  0
LINE
  5
BAC
330
1C2
100
AcDbEntity
  8
图框
370
    -3
100
AcDbLine
 10
959.9086139692238
 20
509.2054027581959
 30
0.0
 11
959.9086139692238
 21
484.0347692601515
 31
0.0
1001
AcDbBlockRepETag
1070
     1
1071
      129
1005
BAC
  0
MTEXT
  5
BAD
330
1C2
100
AcDbEntity
  8
图框
100
AcDbMText
 10
967.6594956750127
 20
506.0590735709403
 30
0.0
 40
2.252848170144607
 41
15.50176341157869
 46
6.292658374511246
 71
     5
 72
     5
  1
姓名{\Fromans|c134;/Name\Ftxt|c134; }
 73
     1
 44
1.0
1001
AcDbBlockRepETag
1070
     1
1071
      130
1005
BAD
1001
ACAD
1000
ACAD_MTEXT_DEFINED_HEIGHT_BEGIN
1070
    46
1040
6.292658374511246
1000
ACAD_MTEXT_DEFINED_HEIGHT_END
  0
MTEXT
  5
BAE
330
1C2
100
AcDbEntity
  8
图框
100
AcDbMText
 10
983.0415693332476
 20
506.0590735709403
 30
0.0
 40
2.252848170144607
 41
15.26238390489042
 46
6.2926583745112
 71
     5
 72
     5
  1
日期{\Fromans|c134;/Date}
 73
     1
 44
1.0
1001
AcDbBlockRepETag
1070
     1
1071
      131
1005
BAE
1001
ACAD
1000
ACAD_MTEXT_DEFINED_HEIGHT_BEGIN
1070
    46
1040
6.2926583745112
1000
ACAD_MTEXT_DEFINED_HEIGHT_END
  0
LINE
  5
BAF
330
1C2
100
AcDbEntity
  8
图框
370
    -3
100
AcDbLine
 10
946.9285026103634
 20
509.2054027581959
 30
0.0
 11
959.9086139692238
 21
502.9127443836848
 31
0.0
1001
AcDbBlockRepETag
1070
     1
1071
      132
1005
BAF
  0
MTEXT
  5
BB0
330
1C2
100
AcDbEntity
  8
图框
100
AcDbMText
 10
1012.931405110086
 20
506.0185715840725
 30
0.0
 40
2.252848170144607
 41
16.93492221063566
 46
0.0
 71
     5
 72
     5
  1
姓名{\Fromans|c134;/Name}
 73
     1
 44
1.0
1001
AcDbBlockRepETag
1070
     1
1071
      133
1005
BB0
  0
MTEXT
  5
BB1
330
1C2
100
AcDbEntity
  8
图框
100
AcDbMText
 10
1028.977802139886
 20
506.0590735709403
 30
0.0
 40
2.252848170144607
 41
15.35233065297283
 46
6.292658374511256
 71
     5
 72
     5
  1
日期{\Fromans|c134;/Date}
 73
     1
 44
1.0
1001
AcDbBlockRepETag
1070
     1
1071
      134
1005
BB1
1001
ACAD
1000
ACAD_MTEXT_DEFINED_HEIGHT_BEGIN
1070
    46
1040
6.292658374511256
1000
ACAD_MTEXT_DEFINED_HEIGHT_END
  0
LINE
  5
BB2
330
1C2
100
AcDbEntity
  8
图框
370
    -3
100
AcDbLine
 10
1003.652872644553
 20
502.9127443836848
 30
0.0
 11
990.6727612856927
 21
509.2054027581959
 31
0.0
1001
AcDbBlockRepETag
1070
     1
1071
      135
1005
BB2
  0
MTEXT
  5
BB3
102
{ACAD_XDICTIONARY
360
BE1
102
}
330
1C2
100
AcDbEntity
  8
图框
100
AcDbMText
 10
997.1628169651232
 20
487.1810984474071
 30
0.0
 40
2.252848170144607
 41
12.98011135886052
 46
6.292658374511517
 71
     5
 72
     5
  1
批准\P{\Fromans|c134;Approved}
 73
     1
 44
1.0
1001
AcDbBlockRepETag
1070
     1
1071
      136
1005
BB3
1001
ACAD
1000
ACAD_MTEXT_DEFINED_HEIGHT_BEGIN
1070
    46
1040
6.292658374511517
1000
ACAD_MTEXT_DEFINED_HEIGHT_END
  0
MTEXT
  5
BB4
102
{ACAD_XDICTIONARY
360
BE3
102
}
330
1C2
100
AcDbEntity
  8
图框
100
AcDbMText
 10
953.4185582897936
 20
487.1810984474071
 30
0.0
 40
2.252848170144607
 41
12.98011135886041
 46
6.292658374511495
 71
     5
 72
     5
  1
工艺\P{\Fromans|c134;Process}
 73
     1
 44
1.0
1001
AcDbBlockRepETag
1070
     1
1071
      137
1005
BB4
1001
ACAD
1000
ACAD_MTEXT_DEFINED_HEIGHT_BEGIN
1070
    46
1040
6.292658374511495
1000
ACAD_MTEXT_DEFINED_HEIGHT_END
  0
MTEXT
  5
BB5
102
{ACAD_XDICTIONARY
360
BE5
102
}
330
1C2
100
AcDbEntity
  8
图框
100
AcDbMText
 10
1028.977802139886
 20
511.8287965307664
 30
0.0
 40
1.958998408821398
 41
15.3523306529728
 46
5.246787545140668
 71
     5
 72
     5
  1
日期\P{\Fromans|c134;Date}
 73
     1
 44
1.0
1001
AcDbBlockRepETag
1070
     1
1071
      138
1005
BB5
1001
ACAD
1000
ACAD_MTEXT_DEFINED_HEIGHT_BEGIN
1070
    46
1040
5.246787545140668
1000
ACAD_MTEXT_DEFINED_HEIGHT_END
  0
MTEXT
  5
BB6
330
1C2
100
AcDbEntity
  8
图框
100
AcDbMText
 10
1086.643735910939
 20
509.1493769780809
 30
0.0
 40
2.154898249703542
 41
13.34474941400573
 46
8.87215554796615
 71
     5
 72
     5
  1
产品料号\P{\Fromans|c134;Part No.}
 73
     1
 44
1.0
1001
AcDbBlockRepETag
1070
     1
1071
      139
1005
BB6
1001
ACAD
1000
ACAD_MTEXT_DEFINED_HEIGHT_BEGIN
1070
    46
1040
8.87215554796615
1000
ACAD_MTEXT_DEFINED_HEIGHT_END
  0
MTEXT
  5
BB7
330
1C2
100
AcDbEntity
  8
图框
100
AcDbMText
 10
1086.643735910939
 20
500.2775205517163
 30
0.0
 40
1.958998408821398
 41
13.34474941400573
 46
8.871557304763321
 71
     5
 72
     5
  1
产品名称\P{\Fromans|c134;Part Name}
 73
     1
 44
1.0
1001
AcDbBlockRepETag
1070
     1
1071
      140
1005
BB7
1001
ACAD
1000
ACAD_MTEXT_DEFINED_HEIGHT_BEGIN
1070
    46
1040
8.871557304763321
1000
ACAD_MTEXT_DEFINED_HEIGHT_END
  0
LINE
  5
BB8
330
1C2
100
AcDbEntity
  8
图框
 62
     1
370
    18
100
AcDbLine
 10
833.4128518455365
 20
690.5347692601515
 30
0.0
 11
833.4128518455365
 21
480.5347692601515
 31
0.0
1001
AcDbBlockRepETag
1070
     1
1071
      141
1005
BB8
  0
LINE
  5
BB9
330
1C2
100
AcDbEntity
  8
图框
 62
     1
370
    18
100
AcDbLine
 10
833.4128518455365
 20
480.5347692601515
 30
0.0
 11
1130.411601781236
 21
480.5347692601515
 31
0.0
1001
AcDbBlockRepETag
1070
     1
1071
      142
1005
BB9
  0
LINE
  5
BBA
330
1C2
100
AcDbEntity
  8
图框
 62
     1
370
    18
100
AcDbLine
 10
833.4128518455365
 20
690.5347692601515
 30
0.0
 11
1130.411601781236
 21
690.5347692601515
 31
0.0
1001
AcDbBlockRepETag
1070
     1
1071
      143
1005
BBA
  0
LINE
  5
BBB
330
1C2
100
AcDbEntity
  8
图框
 62
     1
370
    18
100
AcDbLine
 10
1130.411601781236
 20
480.5347692601515
 30
0.0
 11
1130.411601781236
 21
690.5347692601515
 31
0.0
1001
AcDbBlockRepETag
1070
     1
1071
      144
1005
BBB
  0
LINE
  5
BBC
330
1C2
100
AcDbEntity
  8
图框
370
    18
100
AcDbLine
 10
836.9128518455394
 20
686.7901958362482
 30
0.0
 11
861.5351874539182
 21
686.7901958362482
 31
0.0
1001
AcDbBlockRepETag
1070
     1
1071
      145
1005
BBC
  0
LINE
  5
BBD
330
1C2
100
AcDbEntity
  8
图框
370
    50
100
AcDbLine
 10
1126.928502610363
 20
484.3410054693078
 30
0.0
 11
1126.928502610363
 21
675.5347692601515
 31
0.0
1001
AcDbBlockRepETag
1070
     1
1071
      146
1005
BBD
  0
MTEXT
  5
BBE
330
1C2
100
AcDbEntity
  8
图框
 62
     3
100
AcDbMText
 10
1052.897990117958
 20
495.8417418993364
 30
0.0
 40
2.985513575034151
 41
10.82934843439114
 46
7.886094601211307
 71
     5
 72
     5
  1
V1.1
  7
Romans字体
 73
     1
 44
1.0
1001
AcDbBlockRepETag
1070
     1
1071
      147
1005
BBE
1001
ACAD
1000
ACAD_MTEXT_DEFINED_HEIGHT_BEGIN
1070
    46
1040
7.886094601211307
1000
ACAD_MTEXT_DEFINED_HEIGHT_END
  0
MTEXT
  5
BBF
330
1C2
100
AcDbEntity
  8
图框
 62
     3
100
AcDbMText
 10
1063.727338552349
 20
495.8417418993361
 30
0.0
 40
2.985513575034151
 41
10.82934843438978
 46
7.886094601210427
 71
     5
 72
     5
  1
180g
  7
Romans字体
 73
     1
 44
1.0
1001
AcDbBlockRepETag
1070
     1
1071
      148
1005
BBF
1001
ACAD
1000
ACAD_MTEXT_DEFINED_HEIGHT_BEGIN
1070
    46
1040
7.886094601210427
1000
ACAD_MTEXT_DEFINED_HEIGHT_END
  0
ENDBLK
  5
25D
330
1C2
100
AcDbEntity
  8
0
100
AcDbBlockEnd
  0
BLOCK
  5
28F
330
28E
100
AcDbEntity
  8
0
100
AcDbBlockBegin
  2
*D1
 70
     1
 10
0.0
 20
0.0
 30
0.0
  3
*D1
  1

  0
LINE
  5
290
330
28E
100
AcDbEntity
  8
Dim
 62
     6
370
    -2
100
AcDbLine
 10
2735.299889900701
 20
-2597.629884625415
 30
0.0
 11
2735.299889900701
 21
-2592.754713997555
 31
0.0
  0
LINE
  5
291
330
28E
100
AcDbEntity
  8
Dim
 62
     6
370
    -2
100
AcDbLine
 10
2761.899889900702
 20
-2597.629884625415
 30
0.0
 11
2761.899889900702
 21
-2592.754713997555
 31
0.0
  0
LINE
  5
292
330
28E
100
AcDbEntity
  8
Dim
 62
     1
370
    -2
100
AcDbLine
 10
2738.799889900701
 20
-2593.954713997554
 30
0.0
 11
2758.399889900701
 21
-2593.954713997554
 31
0.0
  0
SOLID
  5
293
330
28E
100
AcDbEntity
  8
Dim
 62
     1
100
AcDbTrace
 10
2738.799889900701
 20
-2593.371380664221
 30
0.0
 11
2738.799889900701
 21
-2594.538047330888
 31
0.0
 12
2735.299889900701
 22
-2593.954713997554
 32
0.0
 13
2735.299889900701
 23
-2593.954713997554
 33
0.0
  0
SOLID
  5
294
330
28E
100
AcDbEntity
  8
Dim
 62
     1
100
AcDbTrace
 10
2758.399889900701
 20
-2593.371380664221
 30
0.0
 11
2758.399889900701
 21
-2594.538047330888
 31
0.0
 12
2761.899889900702
 22
-2593.954713997554
 32
0.0
 13
2761.899889900702
 23
-2593.954713997554
 33
0.0
  0
MTEXT
  5
295
330
28E
100
AcDbEntity
  8
Dim
 62
     4
100
AcDbMText
 10
2748.599889900701
 20
-2591.454713997555
 30
0.0
 40
4.0
 41
0.0
 46
0.0
 71
     5
 72
     1
  1
\A1;PG21
  7
Romans字体
 73
     1
 44
1.0
  0
POINT
  5
296
330
28E
100
AcDbEntity
  8
Defpoints
 62
     0
100
AcDbPoint
 10
2735.299889900701
 20
-2597.829884625415
 30
0.0
  0
POINT
  5
297
330
28E
100
AcDbEntity
  8
Defpoints
 62
     0
100
AcDbPoint
 10
2761.899889900702
 20
-2597.829884625415
 30
0.0
  0
POINT
  5
298
330
28E
100
AcDbEntity
  8
Defpoints
 62
     0
100
AcDbPoint
 10
2761.899889900702
 20
-2593.954713997554
 30
0.0
  0
ENDBLK
  5
299
330
28E
100
AcDbEntity
  8
0
100
AcDbBlockEnd
  0
BLOCK
  5
263
330
262
100
AcDbEntity
  8
0
100
AcDbBlockBegin
  2
*D2
 70
     1
 10
0.0
 20
0.0
 30
0.0
  3
*D2
  1

  0
LINE
  5
264
330
262
100
AcDbEntity
  8
Dim
 62
     6
370
    -2
100
AcDbLine
 10
2725.989715071849
 20
-2597.8298709194
 30
0.0
 11
2697.593900668972
 21
-2597.8298709194
 31
0.0
  0
LINE
  5
265
330
262
100
AcDbEntity
  8
Dim
 62
     6
370
    -2
100
AcDbLine
 10
2712.69992036352
 20
-2669.829884623093
 30
0.0
 11
2697.593900668972
 21
-2669.829884623093
 31
0.0
  0
LINE
  5
266
330
262
100
AcDbEntity
  8
Dim
 62
     1
370
    -2
100
AcDbLine
 10
2698.793900668972
 20
-2601.3298709194
 30
0.0
 11
2698.793900668972
 21
-2666.329884623094
 31
0.0
  0
SOLID
  5
267
330
262
100
AcDbEntity
  8
Dim
 62
     1
100
AcDbTrace
 10
2698.210567335638
 20
-2601.3298709194
 30
0.0
 11
2699.377234002306
 21
-2601.3298709194
 31
0.0
 12
2698.793900668972
 22
-2597.8298709194
 32
0.0
 13
2698.793900668972
 23
-2597.8298709194
 33
0.0
  0
SOLID
  5
268
330
262
100
AcDbEntity
  8
Dim
 62
     1
100
AcDbTrace
 10
2698.210567335638
 20
-2666.329884623094
 30
0.0
 11
2699.377234002306
 21
-2666.329884623094
 31
0.0
 12
2698.793900668972
 22
-2669.829884623093
 32
0.0
 13
2698.793900668972
 23
-2669.829884623093
 33
0.0
  0
MTEXT
  5
269
330
262
100
AcDbEntity
  8
Dim
 62
     4
100
AcDbMText
 10
2696.293900668973
 20
-2633.829877771246
 30
0.0
 40
4.0
 41
0.0
 46
0.0
 71
     5
 72
     1
  1
\A1;72
  7
Romans字体
 11
0.0000000000000001
 21
1.0
 31
0.0
 73
     1
 44
1.0
  0
POINT
  5
26A
330
262
100
AcDbEntity
  8
Defpoints
 62
     0
100
AcDbPoint
 10
2726.189715071849
 20
-2597.8298709194
 30
0.0
  0
POINT
  5
26C
330
262
100
AcDbEntity
  8
Defpoints
 62
     0
100
AcDbPoint
 10
2712.89992036352
 20
-2669.829884623093
 30
0.0
  0
POINT
  5
26D
330
262
100
AcDbEntity
  8
Defpoints
 62
     0
100
AcDbPoint
 10
2698.793900668972
 20
-2669.829884623093
 30
0.0
  0
ENDBLK
  5
26E
330
262
100
AcDbEntity
  8
0
100
AcDbBlockEnd
  0
BLOCK
  5
273
330
272
100
AcDbEntity
  8
0
100
AcDbBlockBegin
  2
*D3
 70
     1
 10
0.0
 20
0.0
 30
0.0
  3
*D3
  1

  0
LINE
  5
274
330
272
100
AcDbEntity
  8
Dim
 62
     6
370
    -2
100
AcDbLine
 10
2712.099889901105
 20
-2669.429878269128
 30
0.0
 11
2712.099889901105
 21
-2678.414667743771
 31
0.0
  0
LINE
  5
275
330
272
100
AcDbEntity
  8
Dim
 62
     6
370
    -2
100
AcDbLine
 10
2785.099889900297
 20
-2669.429878269128
 30
0.0
 11
2785.099889900297
 21
-2678.414667743771
 31
0.0
  0
LINE
  5
276
330
272
100
AcDbEntity
  8
Dim
 62
     1
370
    -2
100
AcDbLine
 10
2715.599889901105
 20
-2677.214667743771
 30
0.0
 11
2781.599889900297
 21
-2677.214667743771
 31
0.0
  0
SOLID
  5
277
330
272
100
AcDbEntity
  8
Dim
 62
     1
100
AcDbTrace
 10
2715.599889901105
 20
-2676.631334410437
 30
0.0
 11
2715.599889901105
 21
-2677.798001077106
 31
0.0
 12
2712.099889901105
 22
-2677.214667743771
 32
0.0
 13
2712.099889901105
 23
-2677.214667743771
 33
0.0
  0
SOLID
  5
278
330
272
100
AcDbEntity
  8
Dim
 62
     1
100
AcDbTrace
 10
2781.599889900297
 20
-2676.631334410437
 30
0.0
 11
2781.599889900297
 21
-2677.798001077106
 31
0.0
 12
2785.099889900297
 22
-2677.214667743771
 32
0.0
 13
2785.099889900297
 23
-2677.214667743771
 33
0.0
  0
MTEXT
  5
279
330
272
100
AcDbEntity
  8
Dim
 62
     4
100
AcDbMText
 10
2748.599889900701
 20
-2674.714667743771
 30
0.0
 40
4.0
 41
0.0
 46
0.0
 71
     5
 72
     1
  1
\A1;73
  7
Romans字体
 73
     1
 44
1.0
  0
POINT
  5
27A
330
272
100
AcDbEntity
  8
Defpoints
 62
     0
100
AcDbPoint
 10
2712.099889901105
 20
-2669.229878269129
 30
0.0
  0
POINT
  5
27B
330
272
100
AcDbEntity
  8
Defpoints
 62
     0
100
AcDbPoint
 10
2785.099889900297
 20
-2669.229878269129
 30
0.0
  0
POINT
  5
27C
330
272
100
AcDbEntity
  8
Defpoints
 62
     0
100
AcDbPoint
 10
2785.099889900297
 20
-2677.214667743771
 30
0.0
  0
ENDBLK
  5
27D
330
272
100
AcDbEntity
  8
0
100
AcDbBlockEnd
  0
BLOCK
  5
282
330
281
100
AcDbEntity
  8
0
100
AcDbBlockBegin
  2
*D4
 70
     1
 10
0.0
 20
0.0
 30
0.0
  3
*D4
  1

  0
LINE
  5
283
330
281
100
AcDbEntity
  8
Dim
 62
     6
370
    -2
100
AcDbLine
 10
2812.571745840395
 20
-2669.24660136184
 30
0.0
 11
2812.571745840395
 21
-2679.048432694648
 31
0.0
  0
LINE
  5
284
330
281
100
AcDbEntity
  8
Dim
 62
     6
370
    -2
100
AcDbLine
 10
2855.571730221261
 20
-2669.246601361111
 30
0.0
 11
2855.571730221261
 21
-2679.048432694648
 31
0.0
  0
LINE
  5
285
330
281
100
AcDbEntity
  8
Dim
 62
     1
370
    -2
100
AcDbLine
 10
2816.071745840395
 20
-2677.848432694649
 30
0.0
 11
2852.07173022126
 21
-2677.848432694649
 31
0.0
  0
SOLID
  5
286
330
281
100
AcDbEntity
  8
Dim
 62
     1
100
AcDbTrace
 10
2816.071745840395
 20
-2677.265099361314
 30
0.0
 11
2816.071745840395
 21
-2678.431766027981
 31
0.0
 12
2812.571745840395
 22
-2677.848432694649
 32
0.0
 13
2812.571745840395
 23
-2677.848432694649
 33
0.0
  0
SOLID
  5
287
330
281
100
AcDbEntity
  8
Dim
 62
     1
100
AcDbTrace
 10
2852.07173022126
 20
-2677.265099361314
 30
0.0
 11
2852.07173022126
 21
-2678.431766027981
 31
0.0
 12
2855.571730221261
 22
-2677.848432694649
 32
0.0
 13
2855.571730221261
 23
-2677.848432694649
 33
0.0
  0
MTEXT
  5
288
330
281
100
AcDbEntity
  8
Dim
 62
     4
100
AcDbMText
 10
2834.071738030827
 20
-2675.348432694648
 30
0.0
 40
4.0
 41
0.0
 46
0.0
 71
     5
 72
     1
  1
\A1;43
  7
Romans字体
 73
     1
 44
1.0
  0
POINT
  5
289
330
281
100
AcDbEntity
  8
Defpoints
 62
     0
100
AcDbPoint
 10
2812.571745840395
 20
-2669.046601361841
 30
0.0
  0
POINT
  5
28A
330
281
100
AcDbEntity
  8
Defpoints
 62
     0
100
AcDbPoint
 10
2855.571730221261
 20
-2669.046601361112
 30
0.0
  0
POINT
  5
28B
330
281
100
AcDbEntity
  8
Defpoints
 62
     0
100
AcDbPoint
 10
2855.571730221261
 20
-2677.848432694649
 30
0.0
  0
ENDBLK
  5
28C
330
281
100
AcDbEntity
  8
0
100
AcDbBlockEnd
  0
BLOCK
  5
2A8
330
2A7
100
AcDbEntity
  8
0
100
AcDbBlockBegin
  2
*D5
 70
     1
 10
0.0
 20
0.0
 30
0.0
  3
*D5
  1

  0
LINE
  5
2A9
330
2A7
100
AcDbEntity
  8
Dim
 62
     6
370
    -2
100
AcDbLine
 10
2704.099889901105
 20
-2668.229884623094
 30
0.0
 11
2704.099889901105
 21
-2685.308467131833
 31
0.0
  0
LINE
  5
2AA
330
2A7
100
AcDbEntity
  8
Dim
 62
     6
370
    -2
100
AcDbLine
 10
2793.099889900297
 20
-2668.229884623094
 30
0.0
 11
2793.099889900297
 21
-2685.308467131833
 31
0.0
  0
LINE
  5
2AB
330
2A7
100
AcDbEntity
  8
Dim
 62
     1
370
    -2
100
AcDbLine
 10
2707.599889901105
 20
-2684.108467131833
 30
0.0
 11
2789.599889900297
 21
-2684.108467131833
 31
0.0
  0
SOLID
  5
2AC
330
2A7
100
AcDbEntity
  8
Dim
 62
     1
100
AcDbTrace
 10
2707.599889901105
 20
-2683.5251337985
 30
0.0
 11
2707.599889901105
 21
-2684.691800465167
 31
0.0
 12
2704.099889901105
 22
-2684.108467131833
 32
0.0
 13
2704.099889901105
 23
-2684.108467131833
 33
0.0
  0
SOLID
  5
2AD
330
2A7
100
AcDbEntity
  8
Dim
 62
     1
100
AcDbTrace
 10
2789.599889900297
 20
-2683.5251337985
 30
0.0
 11
2789.599889900297
 21
-2684.691800465167
 31
0.0
 12
2793.099889900297
 22
-2684.108467131833
 32
0.0
 13
2793.099889900297
 23
-2684.108467131833
 33
0.0
  0
MTEXT
  5
2AE
330
2A7
100
AcDbEntity
  8
Dim
 62
     4
100
AcDbMText
 10
2748.599889900701
 20
-2681.608467131833
 30
0.0
 40
4.0
 41
0.0
 46
0.0
 71
     5
 72
     1
  1
\A1;89
  7
Romans字体
 73
     1
 44
1.0
  0
POINT
  5
2AF
330
2A7
100
AcDbEntity
  8
Defpoints
 62
     0
100
AcDbPoint
 10
2704.099889901105
 20
-2668.029884623094
 30
0.0
  0
POINT
  5
2B0
330
2A7
100
AcDbEntity
  8
Defpoints
 62
     0
100
AcDbPoint
 10
2793.099889900297
 20
-2668.029884623094
 30
0.0
  0
POINT
  5
2B1
330
2A7
100
AcDbEntity
  8
Defpoints
 62
     0
100
AcDbPoint
 10
2793.099889900297
 20
-2684.108467131833
 30
0.0
  0
ENDBLK
  5
2B2
330
2A7
100
AcDbEntity
  8
0
100
AcDbBlockEnd
  0
ENDSEC
  0
SECTION
  2
ENTITIES
  0
LINE
  5
73
330
2
100
AcDbEntity
  8
0
  6
Continuous
 62
     7
100
AcDbLine
 10
2712.099889901105
 20
-2658.873543904374
 30
0.0
 11
2712.099889901105
 21
-2669.229878269129
 31
0.0
  0
LINE
  5
74
330
2
100
AcDbEntity
  8
0
  6
Continuous
 62
     7
100
AcDbLine
 10
2712.222637214656
 20
-2669.107156347952
 30
0.0
 11
2712.222637214656
 21
-2658.878903167209
 31
0.0
  0
LINE
  5
75
330
2
100
AcDbEntity
  8
0
  6
Continuous
 62
     7
100
AcDbLine
 10
2712.89992036352
 20
-2669.829884623093
 30
0.0
 11
2712.89992036352
 21
-2669.729884624972
 31
0.0
  0
LINE
  5
76
330
2
100
AcDbEntity
  8
0
  6
Continuous
 62
     7
100
AcDbLine
 10
2713.02260675264
 20
-2669.829884623093
 30
0.0
 11
2713.02260675264
 21
-2669.607198235855
 31
0.0
  0
LINE
  5
77
330
2
100
AcDbEntity
  8
0
  6
Continuous
 62
     7
100
AcDbLine
 10
2713.899027588059
 20
-2638.265646745847
 30
0.0
 11
2712.10369505732
 21
-2658.786391480247
 31
0.0
  0
LINE
  5
78
102
{ACAD_REACTORS
330
261
102
}
330
2
100
AcDbEntity
  8
0
  6
Continuous
 62
     7
100
AcDbLine
 10
2712.89992036352
 20
-2669.829884623093
 30
0.0
 11
2784.299859437882
 21
-2669.829884623093
 31
0.0
  0
LINE
  5
79
330
2
100
AcDbEntity
  8
0
  6
Continuous
 62
     7
100
AcDbLine
 10
2784.599883546996
 20
-2669.729884624972
 30
0.0
 11
2784.299859437882
 21
-2669.729884624972
 31
0.0
  0
LINE
  5
7A
330
2
100
AcDbEntity
  8
0
  6
Continuous
 62
     7
100
AcDbLine
 10
2712.89992036352
 20
-2669.729884624972
 30
0.0
 11
2712.599896254398
 21
-2669.729884624972
 31
0.0
  0
LINE
  5
7B
330
2
100
AcDbEntity
  8
0
  6
Continuous
 62
     7
100
AcDbLine
 10
2719.722351638617
 20
-2669.546582322033
 30
0.0
 11
2777.477428162785
 21
-2669.546582322033
 31
0.0
  0
LINE
  5
7C
330
2
100
AcDbEntity
  8
0
  6
Continuous
 62
     7
100
AcDbLine
 10
2719.722351638617
 20
-2669.046601361112
 30
0.0
 11
2777.477428162785
 21
-2669.046601361112
 31
0.0
  0
LINE
  5
7D
330
2
100
AcDbEntity
  8
0
  6
Continuous
 62
     7
100
AcDbLine
 10
2715.410154827421
 20
-2634.702005691793
 30
0.0
 11
2715.410154827421
 21
-2654.467997160493
 31
0.0
  0
LINE
  5
7E
330
2
100
AcDbEntity
  8
0
  6
Continuous
 62
     7
100
AcDbLine
 10
2716.56007397792
 20
-2634.251076179633
 30
0.0
 11
2716.56007397792
 21
-2655.097833818013
 31
0.0
  0
LINE
  5
7F
330
2
100
AcDbEntity
  8
0
  6
Continuous
 62
     7
100
AcDbLine
 10
2724.25793697942
 20
-2599.31219009107
 30
0.0
 11
2722.58313678064
 21
-2605.562629525651
 31
0.0
  0
LINE
  5
80
330
2
100
AcDbEntity
  8
0
  6
Continuous
 62
     7
100
AcDbLine
 10
2716.009134587041
 20
-2630.097139722471
 30
0.0
 11
2714.050366185557
 21
-2637.407362915055
 31
0.0
  0
LINE
  5
81
330
2
100
AcDbEntity
  8
0
  6
Continuous
 62
     7
100
AcDbLine
 10
2724.395329254798
 20
-2599.49124318991
 30
0.0
 11
2715.216653764076
 21
-2633.746526469909
 31
0.0
  0
LINE
  5
82
330
2
100
AcDbEntity
  8
0
  6
Continuous
 62
     7
100
AcDbLine
 10
2714.933433263718
 20
-2634.761308898054
 30
0.0
 11
2715.216653764076
 21
-2633.746526469909
 31
0.0
  0
LINE
  5
83
330
2
100
AcDbEntity
  8
0
  6
Continuous
 62
     7
100
AcDbLine
 10
2719.722351638617
 20
-2669.829884623093
 30
0.0
 11
2719.722351638617
 21
-2656.82988462365
 31
0.0
  0
LINE
  5
84
330
2
100
AcDbEntity
  8
0
  6
Continuous
 62
     7
100
AcDbLine
 10
2726.327107349582
 20
-2600.008861570469
 30
0.0
 11
2717.535350345877
 21
-2632.820145394049
 31
0.0
  0
LINE
  5
85
330
2
100
AcDbEntity
  8
0
  6
Continuous
 62
     7
100
AcDbLine
 10
2725.496678558319
 20
-2626.483153557008
 30
0.0
 11
2730.057469490059
 21
-2607.962050078593
 31
0.0
  0
LINE
  5
86
330
2
100
AcDbEntity
  8
0
  6
Continuous
 62
     7
100
AcDbLine
 10
2784.977142586746
 20
-2658.878903167209
 30
0.0
 11
2785.099889900297
 21
-2658.873543904374
 31
0.0
  0
LINE
  5
87
330
2
100
AcDbEntity
  8
0
  6
Continuous
 62
     7
100
AcDbLine
 10
2784.973337430516
 20
-2658.791750743093
 30
0.0
 11
2785.096084744082
 21
-2658.786391480247
 31
0.0
  0
LINE
  5
88
330
2
100
AcDbEntity
  8
0
  6
Continuous
 62
     7
100
AcDbLine
 10
2712.222637214656
 20
-2658.878903167209
 30
0.0
 11
2712.099889901105
 21
-2658.873543904374
 31
0.0
  0
LINE
  5
89
330
2
100
AcDbEntity
  8
0
  6
Continuous
 62
     7
100
AcDbLine
 10
2712.226442370879
 20
-2658.791750743093
 30
0.0
 11
2712.10369505732
 21
-2658.786391480247
 31
0.0
  0
LINE
  5
8A
330
2
100
AcDbEntity
  8
0
  6
Continuous
 62
     7
100
AcDbLine
 10
2737.849889899599
 20
-2656.82988462365
 30
0.0
 11
2736.117839093955
 21
-2655.097833818013
 31
0.0
  0
LINE
  5
8B
330
2
100
AcDbEntity
  8
0
  6
Continuous
 62
     7
100
AcDbLine
 10
2726.327107349582
 20
-2600.008861570469
 30
0.0
 11
2726.327107349582
 21
-2598.008937724254
 31
0.0
  0
LINE
  5
8C
330
2
100
AcDbEntity
  8
0
  6
Continuous
 62
     7
100
AcDbLine
 10
2727.178488773558
 20
-2626.897296526033
 30
0.0
 11
2731.739279705298
 21
-2608.376193047611
 31
0.0
  0
LINE
  5
8D
330
2
100
AcDbEntity
  8
0
  6
Continuous
 62
     7
100
AcDbLine
 10
2727.383598871334
 20
-2630.019548084408
 30
0.0
 11
2727.975995136376
 21
-2628.391952721369
 31
0.0
  0
LINE
  5
8E
330
2
100
AcDbEntity
  8
0
  6
Continuous
 62
     7
100
AcDbLine
 10
2777.477428162785
 20
-2656.82988462365
 30
0.0
 11
2759.349889901804
 21
-2656.82988462365
 31
0.0
  0
LINE
  5
8F
330
2
100
AcDbEntity
  8
0
  6
Continuous
 62
     7
100
AcDbLine
 10
2737.849889899599
 20
-2656.82988462365
 30
0.0
 11
2719.722351638617
 21
-2656.82988462365
 31
0.0
  0
LINE
  5
90
330
2
100
AcDbEntity
  8
0
  6
Continuous
 62
     7
100
AcDbLine
 10
2780.639705823482
 20
-2655.097833818013
 30
0.0
 11
2761.08194070744
 21
-2655.097833818013
 31
0.0
  0
LINE
  5
91
330
2
100
AcDbEntity
  8
0
  6
Continuous
 62
     7
100
AcDbLine
 10
2736.117839093955
 20
-2655.097833818013
 30
0.0
 11
2716.56007397792
 21
-2655.097833818013
 31
0.0
  0
LINE
  5
92
330
2
100
AcDbEntity
  8
0
  6
Continuous
 62
     7
100
AcDbLine
 10
2738.599889900741
 20
-2656.079884625054
 30
0.0
 11
2736.867839092565
 21
-2654.347833816876
 31
0.0
  0
LINE
  5
93
330
2
100
AcDbEntity
  8
0
  6
Continuous
 62
     7
100
AcDbLine
 10
2732.970450245239
 20
-2607.411417550189
 30
0.0
 11
2732.970450237614
 21
-2605.679366744552
 31
0.0
  0
LINE
  5
94
330
2
100
AcDbEntity
  8
0
  6
Continuous
 62
     7
100
AcDbLine
 10
2736.867839092565
 20
-2654.347833816876
 30
0.0
 11
2736.867839092565
 21
-2642.293321057772
 31
0.0
  0
LINE
  5
95
330
2
100
AcDbEntity
  8
0
  6
Continuous
 62
     7
100
AcDbLine
 10
2738.599889900741
 20
-2642.373658654272
 30
0.0
 11
2738.599889900741
 21
-2656.079884625054
 31
0.0
  0
LINE
  5
96
330
2
100
AcDbEntity
  8
0
  6
Continuous
 62
     7
100
AcDbLine
 10
2783.140868339558
 20
-2638.293838586851
 30
0.0
 11
2783.300752213337
 21
-2638.265646745847
 31
0.0
  0
LINE
  5
97
330
2
100
AcDbEntity
  8
0
  6
Continuous
 62
     7
100
AcDbLine
 10
2714.058911461843
 20
-2638.293838586851
 30
0.0
 11
2713.899027588059
 21
-2638.265646745847
 31
0.0
  0
LINE
  5
98
330
2
100
AcDbEntity
  8
0
  6
Continuous
 62
     7
100
AcDbLine
 10
2716.56007397792
 20
-2634.251076179633
 30
0.0
 11
2735.930854235523
 21
-2641.301463607913
 31
0.0
  0
LINE
  5
99
330
2
100
AcDbEntity
  8
0
  6
Continuous
 62
     7
100
AcDbLine
 10
2741.12887084226
 20
-2634.829884625771
 30
0.0
 11
2741.12887084226
 21
-2633.097833817592
 31
0.0
  0
LINE
  5
9A
330
2
100
AcDbEntity
  8
0
  6
Continuous
 62
     7
100
AcDbLine
 10
2740.695206677834
 20
-2633.021367125213
 30
0.0
 11
2740.1028104128
 21
-2634.648962488252
 31
0.0
  0
LINE
  5
9B
330
2
100
AcDbEntity
  8
0
  6
Continuous
 62
     7
100
AcDbLine
 10
2782.988471318978
 20
-2637.435741385088
 30
0.0
 11
2783.149413615838
 21
-2637.407362915055
 31
0.0
  0
LINE
  5
9C
330
2
100
AcDbEntity
  8
0
  6
Continuous
 62
     7
100
AcDbLine
 10
2739.043809515819
 20
-2641.963497541648
 30
0.0
 11
2736.867839092565
 21
-2642.293321057772
 31
0.0
  0
LINE
  5
9D
330
2
100
AcDbEntity
  8
0
  6
Continuous
 62
     7
100
AcDbLine
 10
2738.599889900741
 20
-2642.373658654272
 30
0.0
 11
2758.599889900661
 21
-2642.373658654272
 31
0.0
  0
LINE
  5
9E
330
2
100
AcDbEntity
  8
0
  6
Continuous
 62
     7
100
AcDbLine
 10
2739.386529318059
 20
-2640.773324123173
 30
0.0
 11
2757.813250483343
 21
-2640.773324123173
 31
0.0
  0
LINE
  5
9F
330
2
100
AcDbEntity
  8
0
  6
Continuous
 62
     7
100
AcDbLine
 10
2760.331940708838
 20
-2642.293321057772
 30
0.0
 11
2758.155970285583
 21
-2641.963497541648
 31
0.0
  0
LINE
  5
A0
330
2
100
AcDbEntity
  8
0
  6
Continuous
 62
     7
100
AcDbLine
 10
2714.211308482418
 20
-2637.435741385088
 30
0.0
 11
2714.050366185557
 21
-2637.407362915055
 31
0.0
  0
LINE
  5
A1
330
2
100
AcDbEntity
  8
0
  6
Continuous
 62
     7
100
AcDbLine
 10
2717.535350345877
 20
-2632.820145394049
 30
0.0
 11
2739.386529318059
 21
-2640.773324123173
 31
0.0
  0
LINE
  5
A2
330
2
100
AcDbEntity
  8
0
  6
Continuous
 62
     7
100
AcDbLine
 10
2729.90035187948
 20
-2597.83155757863
 30
0.0
 11
2729.89989193628
 21
-2597.829884625415
 31
0.0
  0
LINE
  5
A3
330
2
100
AcDbEntity
  8
0
  6
Continuous
 62
     7
100
AcDbLine
 10
2770.872672451822
 20
-2598.008937724254
 30
0.0
 11
2771.0100647272
 21
-2597.829884625415
 31
0.0
  0
LINE
  5
A4
330
2
100
AcDbEntity
  8
0
  6
Continuous
 62
     7
100
AcDbLine
 10
2754.851646614838
 20
-2627.344334316229
 30
0.0
 11
2766.12795544648
 21
-2623.240093548349
 31
0.0
  0
LINE
  5
A5
330
2
100
AcDbEntity
  8
0
  6
Continuous
 62
     7
100
AcDbLine
 10
2766.400933823558
 20
-2623.992079763451
 30
0.0
 11
2765.987921682858
 21
-2624.14240388749
 31
0.0
  0
LINE
  5
A6
330
2
100
AcDbEntity
  8
0
  6
Continuous
 62
     7
100
AcDbLine
 10
2764.278140550736
 20
-2624.76471332613
 30
0.0
 11
2763.836261736762
 21
-2624.925544061108
 31
0.0
  0
LINE
  5
A7
330
2
100
AcDbEntity
  8
0
  6
Continuous
 62
     7
100
AcDbLine
 10
2763.0812935261
 20
-2625.200330019033
 30
0.0
 11
2762.650517758239
 21
-2625.35711957591
 31
0.0
  0
LINE
  5
A8
330
2
100
AcDbEntity
  8
0
  6
Continuous
 62
     7
100
AcDbLine
 10
2760.90076729534
 20
-2625.993976661354
 30
0.0
 11
2760.436683946138
 21
-2626.16288918865
 31
0.0
  0
LINE
  5
A9
330
2
100
AcDbEntity
  8
0
  6
Continuous
 62
     7
100
AcDbLine
 10
2759.310892989701
 20
-2626.572643586314
 30
0.0
 11
2758.877896377921
 21
-2626.730241465175
 31
0.0
  0
LINE
  5
AA
330
2
100
AcDbEntity
  8
0
  6
Continuous
 62
     7
100
AcDbLine
 10
2757.485646327785
 20
-2627.23697904199
 30
0.0
 11
2756.966050470861
 21
-2627.42609646665
 31
0.0
  0
LINE
  5
AB
330
2
100
AcDbEntity
  8
0
  6
Continuous
 62
     7
100
AcDbLine
 10
2755.567138623019
 20
-2627.935258740173
 30
0.0
 11
2755.125260111304
 21
-2628.096089365928
 31
0.0
  0
LINE
  5
AC
330
2
100
AcDbEntity
  8
0
  6
Continuous
 62
     7
100
AcDbLine
 10
2739.394955851875
 20
-2640.776391132531
 30
0.0
 11
2735.930854235523
 21
-2641.301463607913
 31
0.0
  0
LINE
  5
AD
330
2
100
AcDbEntity
  8
0
  6
Continuous
 62
     7
100
AcDbLine
 10
2761.268925565879
 20
-2641.301463607913
 30
0.0
 11
2757.80482394952
 21
-2640.776391132531
 31
0.0
  0
LINE
  5
AE
330
2
100
AcDbEntity
  8
0
  6
Continuous
 62
     7
100
AcDbLine
 10
2740.1028104128
 20
-2634.648962488252
 30
0.0
 11
2727.383598871334
 21
-2630.019548084408
 31
0.0
  0
LINE
  5
AF
330
2
100
AcDbEntity
  8
0
  6
Continuous
 62
     7
100
AcDbLine
 10
2772.804450546604
 20
-2599.49124318991
 30
0.0
 11
2772.941842821974
 21
-2599.31219009107
 31
0.0
  0
LINE
  5
B0
330
2
100
AcDbEntity
  8
0
  6
Continuous
 62
     7
100
AcDbLine
 10
2712.599896254398
 20
-2669.729884624972
 30
0.0
 11
2712.722618175585
 21
-2669.60713731141
 31
0.0
  0
LINE
  5
B1
330
2
100
AcDbEntity
  8
0
  6
Continuous
 62
     7
100
AcDbLine
 10
2712.89992036352
 20
-2669.729884624972
 30
0.0
 11
2713.02260675264
 21
-2669.607198235855
 31
0.0
  0
LINE
  5
B2
102
{ACAD_REACTORS
330
271
102
}
330
2
100
AcDbEntity
  8
0
  6
Continuous
 62
     7
100
AcDbLine
 10
2712.099889901105
 20
-2669.229878269129
 30
0.0
 11
2712.222637214656
 21
-2669.107156347952
 31
0.0
  0
LINE
  5
B3
330
2
100
AcDbEntity
  8
0
  6
Continuous
 62
     7
100
AcDbLine
 10
2738.599889900741
 20
-2642.373658654272
 30
0.0
 11
2739.043809515819
 21
-2641.963497541648
 31
0.0
  0
LINE
  5
B4
330
2
100
AcDbEntity
  8
0
  6
Continuous
 62
     7
100
AcDbLine
 10
2761.793803878574
 20
-2627.425049044308
 30
0.0
 11
2760.690217845981
 21
-2627.826721512494
 31
0.0
  0
LINE
  5
B5
330
2
100
AcDbEntity
  8
0
  6
Continuous
 62
     7
100
AcDbLine
 10
2760.669082734585
 20
-2628.155554728331
 30
0.0
 11
2762.030246433382
 21
-2627.660131657711
 31
0.0
  0
LINE
  5
B6
330
2
100
AcDbEntity
  8
0
  6
Continuous
 62
     7
100
AcDbLine
 10
2756.946689026221
 20
-2630.41284121959
 30
0.0
 11
2757.386346998823
 21
-2630.252818804052
 31
0.0
  0
LINE
  5
B7
330
2
100
AcDbEntity
  8
0
  6
Continuous
 62
     7
100
AcDbLine
 10
2758.960677937018
 20
-2629.67980920331
 30
0.0
 11
2759.375910334902
 21
-2629.528676970654
 31
0.0
  0
LINE
  5
B8
330
2
100
AcDbEntity
  8
0
  6
Continuous
 62
     7
100
AcDbLine
 10
2760.144201658363
 20
-2629.249041797127
 30
0.0
 11
2760.601623646742
 21
-2629.08255380905
 31
0.0
  0
LINE
  5
B9
330
2
100
AcDbEntity
  8
0
  6
Continuous
 62
     7
100
AcDbLine
 10
2762.699991540418
 20
-2628.318810355593
 30
0.0
 11
2763.190721110144
 21
-2628.140199399629
 31
0.0
  0
LINE
  5
BA
330
2
100
AcDbEntity
  8
0
  6
Continuous
 62
     7
100
AcDbLine
 10
2763.608174158895
 20
-2627.988258916113
 30
0.0
 11
2764.038949926764
 21
-2627.831469356693
 31
0.0
  0
LINE
  5
BB
330
2
100
AcDbEntity
  8
0
  6
Continuous
 62
     7
100
AcDbLine
 10
2764.793918139958
 20
-2627.556683401311
 30
0.0
 11
2765.206930280658
 21
-2627.40635927473
 31
0.0
  0
LINE
  5
BC
330
2
100
AcDbEntity
  8
0
  6
Continuous
 62
     7
100
AcDbLine
 10
2766.916711410241
 20
-2626.784049836093
 30
0.0
 11
2767.358590224221
 21
-2626.623219101111
 31
0.0
  0
LINE
  5
BD
330
2
100
AcDbEntity
  8
0
  6
Continuous
 62
     7
100
AcDbLine
 10
2767.632844077541
 20
-2627.374741080411
 30
0.0
 11
2756.356536929919
 21
-2631.478981233609
 31
0.0
  0
LINE
  5
BE
330
2
100
AcDbEntity
  8
0
  6
Continuous
 62
     7
100
AcDbLine
 10
2741.12887084226
 20
-2634.829884625771
 30
0.0
 11
2756.070908959135
 21
-2634.829884625771
 31
0.0
  0
LINE
  5
BF
330
2
100
AcDbEntity
  8
0
  6
Continuous
 62
     7
100
AcDbLine
 10
2727.975995133837
 20
-2628.39195271883
 30
0.0
 11
2740.695206677834
 21
-2633.021367125213
 31
0.0
  0
LINE
  5
C0
330
2
100
AcDbEntity
  8
0
  6
Continuous
 62
     7
100
AcDbLine
 10
2784.177173048762
 20
-2669.607198235855
 30
0.0
 11
2784.299859437882
 21
-2669.729884624972
 31
0.0
  0
LINE
  5
C1
330
2
100
AcDbEntity
  8
0
  6
Continuous
 62
     7
100
AcDbLine
 10
2784.477161625817
 20
-2669.60713731141
 30
0.0
 11
2784.599883546996
 21
-2669.729884624972
 31
0.0
  0
LINE
  5
C2
330
2
100
AcDbEntity
  8
0
  6
Continuous
 62
     7
100
AcDbLine
 10
2756.504573123561
 20
-2633.021367125213
 30
0.0
 11
2769.223784667558
 21
-2628.39195271883
 31
0.0
  0
LINE
  5
C3
330
2
100
AcDbEntity
  8
0
  6
Continuous
 62
     7
100
AcDbLine
 10
2769.816180914817
 20
-2630.019548089491
 30
0.0
 11
2757.096969388602
 21
-2634.648962488252
 31
0.0
  0
LINE
  5
C4
330
2
100
AcDbEntity
  8
0
  6
Continuous
 62
     7
100
AcDbLine
 10
2770.021291027837
 20
-2626.897296526033
 30
0.0
 11
2771.703101243084
 21
-2626.483153557008
 31
0.0
  0
LINE
  5
C5
330
2
100
AcDbEntity
  8
0
  6
Continuous
 62
     7
100
AcDbLine
 10
2756.070908959135
 20
-2633.097833817592
 30
0.0
 11
2741.12887084226
 21
-2633.097833817592
 31
0.0
  0
LINE
  5
C6
330
2
100
AcDbEntity
  8
0
  6
Continuous
 62
     7
100
AcDbLine
 10
2716.010335872417
 20
-2630.097163753409
 30
0.0
 11
2716.009134587041
 21
-2630.097139722471
 31
0.0
  0
LINE
  5
C7
330
2
100
AcDbEntity
  8
0
  6
Continuous
 62
     7
100
AcDbLine
 10
2725.496678558319
 20
-2626.483153557008
 30
0.0
 11
2727.178488773558
 21
-2626.897296526033
 31
0.0
  0
LINE
  5
C8
330
2
100
AcDbEntity
  8
0
  6
Continuous
 62
     7
100
AcDbLine
 10
2758.155970285583
 20
-2641.963497541648
 30
0.0
 11
2758.599889900661
 21
-2642.373658654272
 31
0.0
  0
LINE
  5
C9
330
2
100
AcDbEntity
  8
0
  6
Continuous
 62
     7
100
AcDbLine
 10
2784.977142586746
 20
-2669.107156347952
 30
0.0
 11
2785.099889900297
 21
-2669.229878269129
 31
0.0
  0
LINE
  5
CA
330
2
100
AcDbEntity
  8
0
  6
Continuous
 62
     7
100
AcDbLine
 10
2724.395329254798
 20
-2599.49124318991
 30
0.0
 11
2724.25793697942
 21
-2599.31219009107
 31
0.0
  0
LINE
  5
CB
330
2
100
AcDbEntity
  8
0
  6
Continuous
 62
     7
100
AcDbLine
 10
2726.327107349582
 20
-2598.008937724254
 30
0.0
 11
2726.189715074196
 21
-2597.829884625415
 31
0.0
  0
LINE
  5
CC
330
2
100
AcDbEntity
  8
0
  6
Continuous
 62
     7
100
AcDbLine
 10
2755.331160987279
 20
-2631.000840889413
 30
0.0
 11
2754.373504586622
 21
-2628.369701551753
 31
0.0
  0
LINE
  5
CD
330
2
100
AcDbEntity
  8
0
  6
Continuous
 62
     7
100
AcDbLine
 10
2758.877896377921
 20
-2626.730241465175
 30
0.0
 11
2758.982539021063
 21
-2628.606803556591
 31
0.0
  0
LINE
  5
CE
330
2
100
AcDbEntity
  8
0
  6
Continuous
 62
     7
100
AcDbLine
 10
2757.386346998823
 20
-2630.252818804052
 30
0.0
 11
2757.34724679508
 21
-2627.996707362513
 31
0.0
  0
LINE
  5
CF
330
2
100
AcDbEntity
  8
0
  6
Continuous
 62
     7
100
AcDbLine
 10
2756.966050470861
 20
-2627.42609646665
 30
0.0
 11
2756.993244376341
 21
-2629.428409289551
 31
0.0
  0
LINE
  5
D0
330
2
100
AcDbEntity
  8
0
  6
Continuous
 62
     7
100
AcDbLine
 10
2756.070908959135
 20
-2633.097833817592
 30
0.0
 11
2756.070908959135
 21
-2634.829884625771
 31
0.0
  0
LINE
  5
D1
330
2
100
AcDbEntity
  8
0
  6
Continuous
 62
     7
100
AcDbLine
 10
2758.599889900661
 20
-2656.079884625054
 30
0.0
 11
2758.599889900661
 21
-2642.373658654272
 31
0.0
  0
LINE
  5
D2
330
2
100
AcDbEntity
  8
0
  6
Continuous
 62
     7
100
AcDbLine
 10
2757.813250483343
 20
-2640.773324123173
 30
0.0
 11
2779.664429455525
 21
-2632.820145394049
 31
0.0
  0
LINE
  5
D3
330
2
100
AcDbEntity
  8
0
  6
Continuous
 62
     7
100
AcDbLine
 10
2757.544870857544
 20
-2627.924778088035
 30
0.0
 11
2758.960677937018
 21
-2629.67980920331
 31
0.0
  0
LINE
  5
D4
330
2
100
AcDbEntity
  8
0
  6
Continuous
 62
     7
100
AcDbLine
 10
2755.125260111304
 20
-2628.096089365928
 30
0.0
 11
2756.946689026221
 21
-2630.41284121959
 31
0.0
  0
LINE
  5
D5
330
2
100
AcDbEntity
  8
0
  6
Continuous
 62
     7
100
AcDbLine
 10
2756.6900768953
 20
-2629.479809717613
 30
0.0
 11
2755.567138623019
 21
-2627.935258740173
 31
0.0
  0
LINE
  5
D6
330
2
100
AcDbEntity
  8
0
  6
Continuous
 62
     7
100
AcDbLine
 10
2757.096969388602
 20
-2634.648962488252
 30
0.0
 11
2756.504573123561
 21
-2633.021367125213
 31
0.0
  0
LINE
  5
D7
330
2
100
AcDbEntity
  8
0
  6
Continuous
 62
     7
100
AcDbLine
 10
2759.375910334902
 20
-2629.528676970654
 30
0.0
 11
2759.310892989701
 21
-2626.572643586314
 31
0.0
  0
LINE
  5
D8
330
2
100
AcDbEntity
  8
0
  6
Continuous
 62
     7
100
AcDbLine
 10
2760.331940708838
 20
-2642.293321057772
 30
0.0
 11
2760.331940708838
 21
-2654.347833816876
 31
0.0
  0
LINE
  5
D9
330
2
100
AcDbEntity
  8
0
  6
Continuous
 62
     7
100
AcDbLine
 10
2760.601623646742
 20
-2629.08255380905
 30
0.0
 11
2760.669082734585
 21
-2628.155554728331
 31
0.0
  0
LINE
  5
DA
330
2
100
AcDbEntity
  8
0
  6
Continuous
 62
     7
100
AcDbLine
 10
2760.690217845981
 20
-2627.826721512494
 30
0.0
 11
2760.766822328276
 21
-2626.924849198891
 31
0.0
  0
LINE
  5
DB
330
2
100
AcDbEntity
  8
0
  6
Continuous
 62
     7
100
AcDbLine
 10
2760.436683946138
 20
-2626.16288918865
 30
0.0
 11
2760.144201658363
 21
-2629.249041797127
 31
0.0
  0
LINE
  5
DC
330
2
100
AcDbEntity
  8
0
  6
Continuous
 62
     7
100
AcDbLine
 10
2761.268925565879
 20
-2641.301463607913
 30
0.0
 11
2780.639705823482
 21
-2634.251076179633
 31
0.0
  0
LINE
  5
DD
330
2
100
AcDbEntity
  8
0
  6
Continuous
 62
     7
100
AcDbLine
 10
2722.58313678064
 20
-2605.562629525651
 30
0.0
 11
2722.584187954557
 21
-2605.563215313155
 31
0.0
  0
LINE
  5
DE
330
2
100
AcDbEntity
  8
0
  6
Continuous
 62
     7
100
AcDbLine
 10
2763.190721110144
 20
-2628.140199399629
 30
0.0
 11
2760.90076729534
 21
-2625.993976661354
 31
0.0
  0
LINE
  5
DF
330
2
100
AcDbEntity
  8
0
  6
Continuous
 62
     7
100
AcDbLine
 10
2762.030246433382
 20
-2627.660131657711
 30
0.0
 11
2762.699991540418
 21
-2628.318810355593
 31
0.0
  0
LINE
  5
E0
330
2
100
AcDbEntity
  8
0
  6
Continuous
 62
     7
100
AcDbLine
 10
2761.188850971145
 20
-2626.820024178672
 30
0.0
 11
2761.793803878574
 21
-2627.425049044308
 31
0.0
  0
LINE
  5
E1
330
2
100
AcDbEntity
  8
0
  6
Continuous
 62
     7
100
AcDbLine
 10
2758.436657537264
 20
-2628.398980987731
 30
0.0
 11
2757.485646327785
 21
-2627.23697904199
 31
0.0
  0
LINE
  5
E2
330
2
100
AcDbEntity
  8
0
  6
Continuous
 62
     7
100
AcDbLine
 10
2764.22932956886
 20
-2605.679366744552
 30
0.0
 11
2764.229329566322
 21
-2607.411417550189
 31
0.0
  0
LINE
  5
E3
330
2
100
AcDbEntity
  8
0
  6
Continuous
 62
     7
100
AcDbLine
 10
2766.739806076979
 20
-2626.208189280929
 30
0.0
 11
2764.278140550736
 21
-2624.76471332613
 31
0.0
  0
LINE
  5
E4
330
2
100
AcDbEntity
  8
0
  6
Continuous
 62
     7
100
AcDbLine
 10
2764.454392654416
 20
-2625.338779140154
 30
0.0
 11
2766.916711410241
 21
-2626.784049836093
 31
0.0
  0
LINE
  5
E5
330
2
100
AcDbEntity
  8
0
  6
Continuous
 62
     7
100
AcDbLine
 10
2762.650517758239
 20
-2625.35711957591
 30
0.0
 11
2763.608174158895
 21
-2627.988258916113
 31
0.0
  0
LINE
  5
E6
330
2
100
AcDbEntity
  8
0
  6
Continuous
 62
     7
100
AcDbLine
 10
2764.038949926764
 20
-2627.831469356693
 30
0.0
 11
2763.0812935261
 21
-2625.200330019033
 31
0.0
  0
LINE
  5
E7
330
2
100
AcDbEntity
  8
0
  6
Continuous
 62
     7
100
AcDbLine
 10
2763.836261736762
 20
-2624.925544061108
 30
0.0
 11
2764.793918139958
 21
-2627.556683401311
 31
0.0
  0
LINE
  5
E8
330
2
100
AcDbEntity
  8
0
  6
Continuous
 62
     7
100
AcDbLine
 10
2767.142310311343
 20
-2607.962050078593
 30
0.0
 11
2765.460500096097
 21
-2608.376193047611
 31
0.0
  0
LINE
  5
E9
330
2
100
AcDbEntity
  8
0
  6
Continuous
 62
     7
100
AcDbLine
 10
2731.739279705298
 20
-2608.376193047611
 30
0.0
 11
2730.057469490059
 21
-2607.962050078593
 31
0.0
  0
LINE
  5
EA
330
2
100
AcDbEntity
  8
0
  6
Continuous
 62
     7
100
AcDbLine
 10
2765.206930280658
 20
-2627.40635927473
 30
0.0
 11
2764.454392654416
 21
-2625.338779140154
 31
0.0
  0
LINE
  5
EB
330
2
100
AcDbEntity
  8
0
  6
Continuous
 62
     7
100
AcDbLine
 10
2765.987921682858
 20
-2624.14240388749
 30
0.0
 11
2766.739806076979
 21
-2626.208189280929
 31
0.0
  0
LINE
  5
EC
330
2
100
AcDbEntity
  8
0
  6
Continuous
 62
     7
100
AcDbLine
 10
2767.358590224221
 20
-2626.623219101111
 30
0.0
 11
2766.400933823558
 21
-2623.992079763451
 31
0.0
  0
LINE
  5
ED
330
2
100
AcDbEntity
  8
0
  6
Continuous
 62
     7
100
AcDbLine
 10
2767.153325658876
 20
-2623.718231530354
 30
0.0
 11
2768.110982059539
 21
-2626.349370868014
 31
0.0
  0
LINE
  5
EE
330
2
100
AcDbEntity
  8
0
  6
Continuous
 62
     7
100
AcDbLine
 10
2770.872672451822
 20
-2598.008937724254
 30
0.0
 11
2770.872672451822
 21
-2600.008861570469
 31
0.0
  0
LINE
  5
EF
330
2
100
AcDbEntity
  8
0
  6
Continuous
 62
     7
100
AcDbLine
 10
2758.599889900661
 20
-2656.079884625054
 30
0.0
 11
2760.331940708838
 21
-2654.347833816876
 31
0.0
  0
LINE
  5
F0
330
2
100
AcDbEntity
  8
0
  6
Continuous
 62
     7
100
AcDbLine
 10
2759.349889901804
 20
-2656.82988462365
 30
0.0
 11
2761.08194070744
 21
-2655.097833818013
 31
0.0
  0
LINE
  5
F1
330
2
100
AcDbEntity
  8
0
  6
Continuous
 62
     7
100
AcDbLine
 10
2769.223784652322
 20
-2628.391952723913
 30
0.0
 11
2769.816180917356
 21
-2630.019548086951
 31
0.0
  0
LINE
  5
F2
330
2
100
AcDbEntity
  8
0
  6
Continuous
 62
     7
100
AcDbLine
 10
2765.460500096097
 20
-2608.376193047611
 30
0.0
 11
2770.021291027837
 21
-2626.897296526033
 31
0.0
  0
LINE
  5
F3
330
2
100
AcDbEntity
  8
0
  6
Continuous
 62
     7
100
AcDbLine
 10
2767.142310311343
 20
-2607.962050078593
 30
0.0
 11
2771.703101243084
 21
-2626.483153557008
 31
0.0
  0
LINE
  5
F4
330
2
100
AcDbEntity
  8
0
  6
Continuous
 62
     7
100
AcDbLine
 10
2770.872672451822
 20
-2600.008861570469
 30
0.0
 11
2772.804450546604
 21
-2599.49124318991
 31
0.0
  0
LINE
  5
F5
330
2
100
AcDbEntity
  8
0
  6
Continuous
 62
     7
100
AcDbLine
 10
2732.970450245239
 20
-2607.411417550189
 30
0.0
 11
2764.229329566322
 21
-2607.411417550189
 31
0.0
  0
LINE
  5
F6
330
2
100
AcDbEntity
  8
0
  6
Continuous
 62
     7
100
AcDbLine
 10
2724.395329254798
 20
-2599.49124318991
 30
0.0
 11
2726.327107349582
 21
-2600.008861570469
 31
0.0
  0
LINE
  5
F7
330
2
100
AcDbEntity
  8
0
  6
Continuous
 62
     7
100
AcDbLine
 10
2777.477428162785
 20
-2669.829884623093
 30
0.0
 11
2777.477428162785
 21
-2656.82988462365
 31
0.0
  0
LINE
  5
F8
330
2
100
AcDbEntity
  8
0
  6
Continuous
 62
     7
100
AcDbLine
 10
2732.970450219838
 20
-2605.679366744552
 30
0.0
 11
2764.229329581564
 21
-2605.679366744552
 31
0.0
  0
LINE
  5
F9
330
2
100
AcDbEntity
  8
0
  6
Continuous
 62
     7
100
AcDbLine
 10
2779.664429455525
 20
-2632.820145394049
 30
0.0
 11
2770.872672451822
 21
-2600.008861570469
 31
0.0
  0
LINE
  5
FA
330
2
100
AcDbEntity
  8
0
  6
Continuous
 62
     7
100
AcDbLine
 10
2785.096084744082
 20
-2658.786391480247
 30
0.0
 11
2783.300752213337
 21
-2638.265646745847
 31
0.0
  0
LINE
  5
FB
330
2
100
AcDbEntity
  8
0
  6
Continuous
 62
     7
100
AcDbLine
 10
2780.639705823482
 20
-2655.097833818013
 30
0.0
 11
2780.639705823482
 21
-2634.251076179633
 31
0.0
  0
LINE
  5
FC
330
2
100
AcDbEntity
  8
0
  6
Continuous
 62
     7
100
AcDbLine
 10
2781.789624973981
 20
-2654.467997160493
 30
0.0
 11
2781.789624973981
 21
-2634.702005691793
 31
0.0
  0
LINE
  5
FD
330
2
100
AcDbEntity
  8
0
  6
Continuous
 62
     7
100
AcDbLine
 10
2770.872672451822
 20
-2600.008861570469
 30
0.0
 11
2726.327107349582
 21
-2600.008861570469
 31
0.0
  0
LINE
  5
FE
330
2
100
AcDbEntity
  8
0
  6
Continuous
 62
     7
100
AcDbLine
 10
2781.98312603732
 20
-2633.746526469909
 30
0.0
 11
2782.266346563085
 21
-2634.761308989491
 31
0.0
  0
LINE
  5
FF
330
2
100
AcDbEntity
  8
0
  6
Continuous
 62
     7
100
AcDbLine
 10
2781.98312603732
 20
-2633.746526469909
 30
0.0
 11
2772.804450546604
 21
-2599.49124318991
 31
0.0
  0
LINE
  5
100
330
2
100
AcDbEntity
  8
0
  6
Continuous
 62
     7
100
AcDbLine
 10
2783.149413615838
 20
-2637.407362915055
 30
0.0
 11
2772.941842821974
 21
-2599.31219009107
 31
0.0
  0
LINE
  5
101
330
2
100
AcDbEntity
  8
0
  6
Continuous
 62
     7
100
AcDbLine
 10
2784.177173048762
 20
-2669.829884623093
 30
0.0
 11
2784.177173048762
 21
-2669.607198235855
 31
0.0
  0
LINE
  5
102
330
2
100
AcDbEntity
  8
0
  6
Continuous
 62
     7
100
AcDbLine
 10
2784.299859437882
 20
-2669.829884623093
 30
0.0
 11
2784.299859437882
 21
-2669.729884624972
 31
0.0
  0
LINE
  5
103
330
2
100
AcDbEntity
  8
0
  6
Continuous
 62
     7
100
AcDbLine
 10
2784.977142586746
 20
-2658.878903167209
 30
0.0
 11
2784.977142586746
 21
-2669.107156347952
 31
0.0
  0
LINE
  5
104
102
{ACAD_REACTORS
330
271
102
}
330
2
100
AcDbEntity
  8
0
  6
Continuous
 62
     7
100
AcDbLine
 10
2785.099889900297
 20
-2669.229878269129
 30
0.0
 11
2785.099889900297
 21
-2658.873543904374
 31
0.0
  0
LINE
  5
105
330
2
100
AcDbEntity
  8
0
  6
Continuous
 62
     7
100
AcDbLine
 10
2770.872672451822
 20
-2598.008937724254
 30
0.0
 11
2726.327107349582
 21
-2598.008937724254
 31
0.0
  0
LINE
  5
106
330
2
100
AcDbEntity
  8
0
  6
Continuous
 62
     7
100
AcDbLine
 10
2771.0100647272
 20
-2597.829884625415
 30
0.0
 11
2726.189715074196
 21
-2597.829884625415
 31
0.0
  0
LINE
  5
107
330
2
100
AcDbEntity
  8
0
  6
Continuous
 62
     7
100
AcDbLine
 10
2834.073184851661
 20
-2669.729871930052
 30
0.0
 11
2855.076093475678
 21
-2669.546582322033
 31
0.0
  0
LINE
  5
108
330
2
100
AcDbEntity
  8
0
  6
Continuous
 62
     7
100
AcDbLine
 10
2834.07173020636
 20
-2669.229878269129
 30
0.0
 11
2848.137179222979
 21
-2669.107156347952
 31
0.0
  0
LINE
  5
109
330
2
100
AcDbEntity
  8
0
  6
Continuous
 62
     7
100
AcDbLine
 10
2813.3717302069
 20
-2669.829884623093
 30
0.0
 11
2854.771730205817
 21
-2669.829884623093
 31
0.0
  0
LINE
  5
10A
330
2
100
AcDbEntity
  8
0
  6
Continuous
 62
     7
100
AcDbLine
 10
2813.067366939579
 20
-2669.546582322033
 30
0.0
 11
2834.07173020636
 21
-2669.729884624972
 31
0.0
  0
LINE
  5
10B
330
2
100
AcDbEntity
  8
0
  6
Continuous
 62
     7
100
AcDbLine
 10
2820.006281189746
 20
-2669.107156347952
 30
0.0
 11
2834.07173020636
 21
-2669.229878269129
 31
0.0
  0
LINE
  5
10C
330
2
100
AcDbEntity
  8
0
  6
Continuous
 62
     7
100
AcDbLine
 10
2820.006281189746
 20
-2658.878903167209
 30
0.0
 11
2834.07173020636
 21
-2658.873543904374
 31
0.0
  0
LINE
  5
10D
330
2
100
AcDbEntity
  8
0
  6
Continuous
 62
     7
100
AcDbLine
 10
2820.006281189746
 20
-2658.791750743093
 30
0.0
 11
2834.07173020636
 21
-2658.786391480247
 31
0.0
  0
LINE
  5
10E
330
2
100
AcDbEntity
  8
0
  6
Continuous
 62
     7
100
AcDbLine
 10
2834.07173020636
 20
-2658.873543904374
 30
0.0
 11
2848.137179222979
 21
-2658.878903167209
 31
0.0
  0
LINE
  5
10F
330
2
100
AcDbEntity
  8
0
  6
Continuous
 62
     7
100
AcDbLine
 10
2834.07173020636
 20
-2658.786391480247
 30
0.0
 11
2848.137179222979
 21
-2658.791750743093
 31
0.0
  0
LINE
  5
110
330
2
100
AcDbEntity
  8
0
  6
Continuous
 62
     7
100
AcDbLine
 10
2811.571730207719
 20
-2640.773324123173
 30
0.0
 11
2811.571730207719
 21
-2600.008861570469
 31
0.0
  0
LINE
  5
111
330
2
100
AcDbEntity
  8
0
  6
Continuous
 62
     7
100
AcDbLine
 10
2812.5717302067
 20
-2669.046601361112
 30
0.0
 11
2812.5717302067
 21
-2642.373658654272
 31
0.0
  0
LINE
  5
112
330
2
100
AcDbEntity
  8
0
  6
Continuous
 62
     7
100
AcDbLine
 10
2811.571730207719
 20
-2640.773324123173
 30
0.0
 11
2812.5717302067
 21
-2642.373658654272
 31
0.0
  0
LINE
  5
113
330
2
100
AcDbEntity
  8
0
  6
Continuous
 62
     7
100
AcDbLine
 10
2813.3717302069
 20
-2669.829884623093
 30
0.0
 11
2813.3717302069
 21
-2669.549238460993
 31
0.0
  0
LINE
  5
114
330
2
100
AcDbEntity
  8
0
  6
Continuous
 62
     7
100
AcDbLine
 10
2813.554277136698
 20
-2633.746526469909
 30
0.0
 11
2813.554277136698
 21
-2599.49124318991
 31
0.0
  0
LINE
  5
115
330
2
100
AcDbEntity
  8
0
  6
Continuous
 62
     7
100
AcDbLine
 10
2813.571730208222
 20
-2655.097833818013
 30
0.0
 11
2813.571730208222
 21
-2634.251076179633
 31
0.0
  0
LINE
  5
116
330
2
100
AcDbEntity
  8
0
  6
Continuous
 62
     7
100
AcDbLine
 10
2813.9353665701
 20
-2654.467997160493
 30
0.0
 11
2813.9353665701
 21
-2634.702005691793
 31
0.0
  0
LINE
  5
117
330
2
100
AcDbEntity
  8
0
  6
Continuous
 62
     7
100
AcDbLine
 10
2820.006281189746
 20
-2658.878903167209
 30
0.0
 11
2820.006281189746
 21
-2669.107156347952
 31
0.0
  0
LINE
  5
118
330
2
100
AcDbEntity
  8
0
  6
Continuous
 62
     7
100
AcDbLine
 10
2820.013262420378
 20
-2669.829884623093
 30
0.0
 11
2820.013262420378
 21
-2669.607198235855
 31
0.0
  0
LINE
  5
119
330
2
100
AcDbEntity
  8
0
  6
Continuous
 62
     7
100
AcDbLine
 10
2854.571730207036
 20
-2642.293321057772
 30
0.0
 11
2855.828027315978
 21
-2641.963497541648
 31
0.0
  0
LINE
  5
11A
330
2
100
AcDbEntity
  8
0
  6
Continuous
 62
     7
100
AcDbLine
 10
2854.571730207036
 20
-2641.301463607913
 30
0.0
 11
2856.571730207538
 21
-2640.776391132531
 31
0.0
  0
LINE
  5
11B
330
2
100
AcDbEntity
  8
0
  6
Continuous
 62
     7
100
AcDbLine
 10
2813.571730208222
 20
-2642.293321057772
 30
0.0
 11
2812.315433099279
 21
-2641.963497541648
 31
0.0
  0
LINE
  5
11C
330
2
100
AcDbEntity
  8
0
  6
Continuous
 62
     7
100
AcDbLine
 10
2813.571730208222
 20
-2641.301463607913
 30
0.0
 11
2811.571730207719
 21
-2640.776391132531
 31
0.0
  0
LINE
  5
11D
330
2
100
AcDbEntity
  8
0
  6
Continuous
 62
     7
100
AcDbLine
 10
2813.554277136698
 20
-2633.746526469909
 30
0.0
 11
2814.806155615917
 21
-2634.761308989491
 31
0.0
  0
LINE
  5
11E
330
2
100
AcDbEntity
  8
0
  6
Continuous
 62
     7
100
AcDbLine
 10
2812.5717302067
 20
-2656.079884625054
 30
0.0
 11
2813.571730208222
 21
-2654.347833816876
 31
0.0
  0
LINE
  5
11F
330
2
100
AcDbEntity
  8
0
  6
Continuous
 62
     7
100
AcDbLine
 10
2813.9353665701
 20
-2654.467997160493
 30
0.0
 11
2812.5717302067
 21
-2656.82988462365
 31
0.0
  0
LINE
  5
120
330
2
100
AcDbEntity
  8
0
  6
Continuous
 62
     7
100
AcDbLine
 10
2815.539015874865
 20
-2638.293838586851
 30
0.0
 11
2834.07173020636
 21
-2638.265646745847
 31
0.0
  0
LINE
  5
121
330
2
100
AcDbEntity
  8
0
  6
Continuous
 62
     7
100
AcDbLine
 10
2815.416330224882
 20
-2637.435741385088
 30
0.0
 11
2834.07173020636
 21
-2637.407362915055
 31
0.0
  0
LINE
  5
122
330
2
100
AcDbEntity
  8
0
  6
Continuous
 62
     7
100
AcDbLine
 10
2834.07173020636
 20
-2638.265646745847
 30
0.0
 11
2852.60444453786
 21
-2638.293838586851
 31
0.0
  0
LINE
  5
123
330
2
100
AcDbEntity
  8
0
  6
Continuous
 62
     7
100
AcDbLine
 10
2834.07173020636
 20
-2637.407362915055
 30
0.0
 11
2852.727130190377
 21
-2637.435741385088
 31
0.0
  0
LINE
  5
124
330
2
100
AcDbEntity
  8
0
  6
Continuous
 62
     7
100
AcDbLine
 10
2834.07173020636
 20
-2669.829884623093
 30
0.0
 11
2834.07173020636
 21
-2669.729884624972
 31
0.0
  0
LINE
  5
125
330
2
100
AcDbEntity
  8
0
  6
Continuous
 62
     7
100
AcDbLine
 10
2834.07173020636
 20
-2669.229878269129
 30
0.0
 11
2834.07173020636
 21
-2668.029884623094
 31
0.0
  0
LINE
  5
126
330
2
100
AcDbEntity
  8
0
  6
Continuous
 62
     7
100
AcDbLine
 10
2834.07173020636
 20
-2659.229884623093
 30
0.0
 11
2834.07173020636
 21
-2658.873543904374
 31
0.0
  0
LINE
  5
127
330
2
100
AcDbEntity
  8
0
  6
Continuous
 62
     7
100
AcDbLine
 10
2834.07173020636
 20
-2658.786391480247
 30
0.0
 11
2834.07173020636
 21
-2638.265646745847
 31
0.0
  0
LINE
  5
128
330
2
100
AcDbEntity
  8
0
  6
Continuous
 62
     7
100
AcDbLine
 10
2834.07173020636
 20
-2637.407362915055
 30
0.0
 11
2834.07173020636
 21
-2599.31219009107
 31
0.0
  0
LINE
  5
129
330
2
100
AcDbEntity
  8
0
  6
Continuous
 62
     7
100
AcDbLine
 10
2855.571730206025
 20
-2656.82988462365
 30
0.0
 11
2854.208093842624
 21
-2654.467997160493
 31
0.0
  0
LINE
  5
12A
330
2
100
AcDbEntity
  8
0
  6
Continuous
 62
     7
100
AcDbLine
 10
2855.571730206025
 20
-2656.079884625054
 30
0.0
 11
2854.571730207036
 21
-2654.347833816876
 31
0.0
  0
LINE
  5
12B
330
2
100
AcDbEntity
  8
0
  6
Continuous
 62
     7
100
AcDbLine
 10
2848.130197994878
 20
-2669.829884623093
 30
0.0
 11
2848.130197994878
 21
-2669.607198235855
 31
0.0
  0
LINE
  5
12C
330
2
100
AcDbEntity
  8
0
  6
Continuous
 62
     7
100
AcDbLine
 10
2848.137179222979
 20
-2669.107156347952
 30
0.0
 11
2848.137179222979
 21
-2658.878903167209
 31
0.0
  0
LINE
  5
12D
330
2
100
AcDbEntity
  8
0
  6
Continuous
 62
     7
100
AcDbLine
 10
2853.337305226061
 20
-2634.761308641515
 30
0.0
 11
2854.589183278558
 21
-2633.746526469909
 31
0.0
  0
LINE
  5
12E
330
2
100
AcDbEntity
  8
0
  6
Continuous
 62
     7
100
AcDbLine
 10
2854.208093842624
 20
-2634.702005691793
 30
0.0
 11
2854.208093842624
 21
-2654.467997160493
 31
0.0
  0
LINE
  5
12F
330
2
100
AcDbEntity
  8
0
  6
Continuous
 62
     7
100
AcDbLine
 10
2854.571730207036
 20
-2634.251076179633
 30
0.0
 11
2854.571730207036
 21
-2655.097833818013
 31
0.0
  0
LINE
  5
130
330
2
100
AcDbEntity
  8
0
  6
Continuous
 62
     7
100
AcDbLine
 10
2854.589183278558
 20
-2599.49124318991
 30
0.0
 11
2854.589183278558
 21
-2633.746526469909
 31
0.0
  0
LINE
  5
131
330
2
100
AcDbEntity
  8
0
  6
Continuous
 62
     7
100
AcDbLine
 10
2854.771730205817
 20
-2669.829884623093
 30
0.0
 11
2854.771730205817
 21
-2669.549238460993
 31
0.0
  0
LINE
  5
132
330
2
100
AcDbEntity
  8
0
  6
Continuous
 62
     7
100
AcDbLine
 10
2855.571730206025
 20
-2669.046601361112
 30
0.0
 11
2855.571730206025
 21
-2642.373658654272
 31
0.0
  0
LINE
  5
133
330
2
100
AcDbEntity
  8
0
  6
Continuous
 62
     7
100
AcDbLine
 10
2856.571730207538
 20
-2640.773324123173
 30
0.0
 11
2856.571730207538
 21
-2600.008861570469
 31
0.0
  0
LINE
  5
134
330
2
100
AcDbEntity
  8
0
  6
Continuous
 62
     7
100
AcDbLine
 10
2856.571730207538
 20
-2640.773324123173
 30
0.0
 11
2855.571730206025
 21
-2642.373658654272
 31
0.0
  0
LINE
  5
135
330
2
100
AcDbEntity
  8
0
  6
Continuous
 62
     7
100
AcDbLine
 10
2813.554277136698
 20
-2599.49124318991
 30
0.0
 11
2834.07173020636
 21
-2599.31219009107
 31
0.0
  0
LINE
  5
136
330
2
100
AcDbEntity
  8
0
  6
Continuous
 62
     7
100
AcDbLine
 10
2813.554277136698
 20
-2598.008937724254
 30
0.0
 11
2834.07173020636
 21
-2597.829884625415
 31
0.0
  0
LINE
  5
137
330
2
100
AcDbEntity
  8
0
  6
Continuous
 62
     7
100
AcDbLine
 10
2834.07173020636
 20
-2599.31219009107
 30
0.0
 11
2854.589183278558
 21
-2599.49124318991
 31
0.0
  0
LINE
  5
138
330
2
100
AcDbEntity
  8
0
  6
Continuous
 62
     7
100
AcDbLine
 10
2834.07173020636
 20
-2597.829884625415
 30
0.0
 11
2854.589183278558
 21
-2598.008937724254
 31
0.0
  0
ARC
  5
139
330
2
100
AcDbEntity
  8
0
  6
Continuous
 62
     7
100
AcDbCircle
 10
2748.488222638642
 20
-2635.442167155332
 30
0.0
 40
10.1400200171
100
AcDbArc
 50
32.67309009410455
 51
36.01536653890286
  0
ARC
  5
13A
330
2
100
AcDbEntity
  8
0
  6
Continuous
 62
     7
100
AcDbCircle
 10
2718.889197401959
 20
-2638.703063866953
 30
0.0
 40
5.0093041927
100
AcDbArc
 50
165.0095010048947
 51
174.9904989950965
  0
ARC
  5
13B
330
2
100
AcDbEntity
  8
0
  6
Continuous
 62
     7
100
AcDbCircle
 10
2719.007722831661
 20
-2638.73016010435
 30
0.0
 40
4.96800869998
100
AcDbArc
 50
164.8972518872052
 51
174.9614355149062
  0
ARC
  5
13C
330
2
100
AcDbEntity
  8
0
  6
Continuous
 62
     7
100
AcDbCircle
 10
2717.821969213839
 20
-2638.738725850489
 30
0.0
 40
3.503257481659998
100
AcDbArc
 50
162.6589773501974
 51
174.139030226096
  0
ARC
  5
13D
330
2
100
AcDbEntity
  8
0
  6
Continuous
 62
     7
100
AcDbCircle
 10
2713.100403587139
 20
-2658.873567996274
 30
0.0
 40
1.000513686039999
100
AcDbArc
 50
175.0013795760033
 51
179.9986204239989
  0
ARC
  5
13E
330
2
100
AcDbEntity
  8
0
  6
Continuous
 62
     7
100
AcDbCircle
 10
2713.223150900698
 20
-2658.878927259109
 30
0.0
 40
1.000513686039999
100
AcDbArc
 50
175.0013795760033
 51
179.9986204239989
  0
ARC
  5
13F
330
2
100
AcDbEntity
  8
0
  6
Continuous
 62
     7
100
AcDbCircle
 10
2712.722664139417
 20
-2669.107110386652
 30
0.0
 40
0.5000269273
100
AcDbArc
 50
180.0052666812999
 51
269.9947333187
  0
ARC
  5
140
330
2
100
AcDbEntity
  8
0
  6
Continuous
 62
     7
100
AcDbCircle
 10
2712.599929518243
 20
-2669.229845005295
 30
0.0
 40
0.5000269247600003
100
AcDbArc
 50
180.0023580111003
 51
269.9976419888997
  0
ARC
  5
141
330
2
100
AcDbEntity
  8
0
  6
Continuous
 62
     7
100
AcDbCircle
 10
2732.970450232543
 20
-2608.679366744032
 30
0.0
 40
2.999999999479996
100
AcDbArc
 50
90.0000002211166
 51
166.1662445103025
  0
ARC
  5
142
330
2
100
AcDbEntity
  8
0
  6
Continuous
 62
     7
100
AcDbCircle
 10
2728.409659300802
 20
-2627.200470219912
 30
0.0
 40
2.999999999479996
100
AcDbArc
 50
166.1662445099939
 51
250.0000000347804
  0
ARC
  5
143
330
2
100
AcDbEntity
  8
0
  6
Continuous
 62
     7
100
AcDbCircle
 10
2741.12887084226
 20
-2631.829884623748
 30
0.0
 40
2.999999999479996
100
AcDbArc
 50
249.9999999978057
 51
269.999999994294
  0
ARC
  5
144
330
2
100
AcDbEntity
  8
0
  6
Continuous
 62
     7
100
AcDbCircle
 10
2726.327364217244
 20
-2600.009196327228
 30
0.0
 40
2.000274447499998
100
AcDbArc
 50
90.00735775659569
 51
164.9926422432006
  0
ARC
  5
145
102
{ACAD_REACTORS
330
261
102
}
330
2
100
AcDbEntity
  8
0
  6
Continuous
 62
     7
100
AcDbCircle
 10
2726.189812391766
 20
-2599.829935298912
 30
0.0
 40
2.000064381879998
100
AcDbArc
 50
90.00278792049838
 51
164.9972120795009
  0
ARC
  5
146
330
2
100
AcDbEntity
  8
0
  6
Continuous
 62
     7
100
AcDbCircle
 10
2741.12887084226
 20
-2631.829884623748
 30
0.0
 40
1.267949191299998
100
AcDbArc
 50
250.0000000035051
 51
269.9999999945024
  0
ARC
  5
147
330
2
100
AcDbEntity
  8
0
  6
Continuous
 62
     7
100
AcDbCircle
 10
2728.409659300802
 20
-2627.200470219912
 30
0.0
 40
1.267949191299998
100
AcDbArc
 50
166.1660556271968
 51
249.9999998353924
  0
ARC
  5
148
330
2
100
AcDbEntity
  8
0
  6
Continuous
 62
     7
100
AcDbCircle
 10
2732.970450232543
 20
-2608.679366744032
 30
0.0
 40
1.267949191299998
100
AcDbArc
 50
90.00000014618212
 51
166.1662445103964
  0
ARC
  5
149
330
2
100
AcDbEntity
  8
0
  6
Continuous
 62
     7
100
AcDbCircle
 10
2778.310582399443
 20
-2638.703063866953
 30
0.0
 40
5.0093041927
100
AcDbArc
 50
5.009501004903433
 51
14.99049899510525
  0
ARC
  5
14A
330
2
100
AcDbEntity
  8
0
  6
Continuous
 62
     7
100
AcDbCircle
 10
2778.192008211898
 20
-2638.730168763209
 30
0.0
 40
4.968058029319998
100
AcDbArc
 50
5.038614579404738
 51
15.10269801839848
  0
ARC
  5
14B
330
2
100
AcDbEntity
  8
0
  6
Continuous
 62
     7
100
AcDbCircle
 10
2779.377900130183
 20
-2638.738707468514
 30
0.0
 40
3.503166531879998
100
AcDbArc
 50
5.860820248095952
 51
17.34117217560382
  0
ARC
  5
14C
330
2
100
AcDbEntity
  8
0
  6
Continuous
 62
     7
100
AcDbCircle
 10
2784.099376214263
 20
-2658.873567996274
 30
0.0
 40
1.000513686039999
100
AcDbArc
 50
0.0013795760010108
 51
4.998620423996672
  0
ARC
  5
14D
330
2
100
AcDbEntity
  8
0
  6
Continuous
 62
     7
100
AcDbCircle
 10
2783.976628900697
 20
-2658.878927259109
 30
0.0
 40
1.000513686039999
100
AcDbArc
 50
0.0013795760010108
 51
4.998620423996672
  0
ARC
  5
14E
330
2
100
AcDbEntity
  8
0
  6
Continuous
 62
     7
100
AcDbCircle
 10
2784.477115661978
 20
-2669.107110386652
 30
0.0
 40
0.5000269273
100
AcDbArc
 50
270.0052666626966
 51
359.9947333373034
  0
ARC
  5
14F
330
2
100
AcDbEntity
  8
0
  6
Continuous
 62
     7
100
AcDbCircle
 10
2784.599850283159
 20
-2669.229845005295
 30
0.0
 40
0.5000269247600003
100
AcDbArc
 50
270.0023580111003
 51
359.9976419888997
  0
ARC
  5
150
330
2
100
AcDbEntity
  8
0
  6
Continuous
 62
     7
100
AcDbCircle
 10
2757.690225796703
 20
-2626.682288299711
 30
0.0
 40
3.086143548299998
100
AcDbArc
 50
355.4920877313971
 51
6.023025806595926
  0
ARC
  5
151
330
2
100
AcDbEntity
  8
0
  6
Continuous
 62
     7
100
AcDbCircle
 10
2764.22932956886
 20
-2608.679366744032
 30
0.0
 40
2.999999999479996
100
AcDbArc
 50
13.83375548969747
 51
89.99999977888336
  0
ARC
  5
152
330
2
100
AcDbEntity
  8
0
  6
Continuous
 62
     7
100
AcDbCircle
 10
2756.070908959135
 20
-2631.829884623748
 30
0.0
 40
2.999999999479996
100
AcDbArc
 50
269.9999999975117
 51
289.9999999955952
  0
ARC
  5
153
330
2
100
AcDbEntity
  8
0
  6
Continuous
 62
     7
100
AcDbCircle
 10
2768.7901205006
 20
-2627.200470219912
 30
0.0
 40
2.999999999479996
100
AcDbArc
 50
289.999999659804
 51
13.83375549000606
  0
ARC
  5
154
330
2
100
AcDbEntity
  8
0
  6
Continuous
 62
     7
100
AcDbCircle
 10
2770.872415584157
 20
-2600.009196327228
 30
0.0
 40
2.000274447499998
100
AcDbArc
 50
15.00735775659707
 51
89.99264224319579
  0
ARC
  5
155
330
2
100
AcDbEntity
  8
0
  6
Continuous
 62
     7
100
AcDbCircle
 10
2771.009967409637
 20
-2599.829935298912
 30
0.0
 40
2.000064381879998
100
AcDbArc
 50
15.0027879204991
 51
89.99721207950164
  0
ARC
  5
156
330
2
100
AcDbEntity
  8
0
  6
Continuous
 62
     7
100
AcDbCircle
 10
2764.22932956886
 20
-2608.679366744032
 30
0.0
 40
1.267949191299998
100
AcDbArc
 50
13.83375548960356
 51
89.99999985381784
  0
ARC
  5
157
330
2
100
AcDbEntity
  8
0
  6
Continuous
 62
     7
100
AcDbCircle
 10
2768.7901205006
 20
-2627.200470219912
 30
0.0
 40
1.267949191299998
100
AcDbArc
 50
290.000000154304
 51
13.83394424580031
  0
ARC
  5
158
330
2
100
AcDbEntity
  8
0
  6
Continuous
 62
     7
100
AcDbCircle
 10
2756.070908959135
 20
-2631.829884623748
 30
0.0
 40
1.267949191299998
100
AcDbArc
 50
270.0000000054976
 51
289.9999999871815
  0
ARC
  5
159
330
2
100
AcDbEntity
  8
0
  6
Continuous
 62
     7
100
AcDbCircle
 10
2766.401571561679
 20
-2623.991847645553
 30
0.0
 40
0.8000000002
100
AcDbArc
 50
20.00000000029463
 51
110.0000000004054
  0
ARC
  5
15A
330
2
100
AcDbEntity
  8
0
  6
Continuous
 62
     7
100
AcDbCircle
 10
2755.125260111304
 20
-2628.096089365928
 30
0.0
 40
0.8000000002
100
AcDbArc
 50
109.9998005489049
 51
199.9997005662051
  0
ARC
  5
15B
330
2
100
AcDbEntity
  8
0
  6
Continuous
 62
     7
100
AcDbCircle
 10
2756.082916514499
 20
-2630.727228703588
 30
0.0
 40
0.8000000002
100
AcDbArc
 50
199.9997005665935
 51
290.0003279449006
  0
ARC
  5
15C
330
2
100
AcDbEntity
  8
0
  6
Continuous
 62
     7
100
AcDbCircle
 10
2767.359227962343
 20
-2626.622986983214
 30
0.0
 40
0.8000000002
100
AcDbArc
 50
290.000000002903
 51
20.00000000119579
  0
ARC
  5
15D
102
{ACAD_REACTORS
330
280
102
}
330
2
100
AcDbEntity
  8
0
  6
Continuous
 62
     7
100
AcDbCircle
 10
2813.071745841155
 20
-2669.046601498274
 30
0.0
 40
0.5000000007600001
100
AcDbArc
 50
179.9999843658954
 51
269.4982083867006
  0
ARC
  5
15E
330
2
100
AcDbEntity
  8
0
  6
Continuous
 62
     7
100
AcDbCircle
 10
2813.571730208222
 20
-2600.008861570469
 30
0.0
 40
2.0000000005
100
AcDbArc
 50
90.50000000000462
 51
180.0
  0
ARC
  5
15F
330
2
100
AcDbEntity
  8
0
  6
Continuous
 62
     7
100
AcDbCircle
 10
2855.071714574104
 20
-2669.046601498274
 30
0.0
 40
0.5000000007600001
100
AcDbArc
 50
270.5017916132994
 51
0.0000156341045745
  0
ARC
  5
160
330
2
100
AcDbEntity
  8
0
  6
Continuous
 62
     7
100
AcDbCircle
 10
2854.571730207036
 20
-2600.008861570469
 30
0.0
 40
2.0000000005
100
AcDbArc
 50
0.0
 51
89.49999999999539
  0
SPLINE
  5
161
330
2
100
AcDbEntity
  8
0
  6
Continuous
 62
     7
100
AcDbSpline
210
0.0
220
0.0
230
1.0
 70
     8
 71
     3
 72
    51
 73
    47
 74
     0
 42
0.0000000001
 43
0.0000000001
 40
0.0
 40
0.0
 40
0.0
 40
0.0
 40
0.000266975
 40
0.0008111452
 40
0.0016402074
 40
0.0027562668
 40
0.0041603674
 40
0.0058532113
 40
0.0101072665
 40
0.0155222599
 40
0.0221015424
 40
0.0298481643
 40
0.0387542497
 40
0.0487932109
 40
0.0599365878
 40
0.0854067956
 40
0.1148179415
 40
0.1477991947
 40
0.1840426667
 40
0.2232562361
 40
0.2651488923
 40
0.309358536
 40
0.4028931145000004
 40
0.5000365125
 40
0.5971820126000002
 40
0.6907124454000001
 40
0.7349138889
 40
0.7767981228
 40
0.8160065447
 40
0.8522504921999999
 40
0.8852348216999999
 40
0.9146465656999998
 40
0.9401121362999999
 40
0.9512508428
 40
0.9612840148
 40
0.9701836810999999
 40
0.9779237283
 40
0.9844966308
 40
0.9899057275999998
 40
0.994154658
 40
0.995845319
 40
0.9972475377
 40
0.9983620521999998
 40
0.9991899424999999
 40
0.9997333491999999
 40
1.0
 40
1.0
 40
1.0
 40
1.0
 10
2722.58423786556
 20
-2605.563029105753
 30
0.0
 10
2722.585368196038
 20
-2605.564986968231
 30
0.0
 10
2722.585036974962
 20
-2605.572334390668
 30
0.0
 10
2722.584170459037
 20
-2605.585838836614
 30
0.0
 10
2722.580963170558
 20
-2605.606875215676
 30
0.0
 10
2722.576199664722
 20
-2605.634751009552
 30
0.0
 10
2722.569454067338
 20
-2605.669816418212
 30
0.0
 10
2722.557014534179
 20
-2605.730794403949
 30
0.0
 10
2722.536488034721
 20
-2605.82480444199
 30
0.0
 10
2722.505862327623
 20
-2605.958938961633
 30
0.0
 10
2722.467558101462
 20
-2606.121658463472
 30
0.0
 10
2722.421565747422
 20
-2606.312933521611
 30
0.0
 10
2722.36792406146
 20
-2606.532499709353
 30
0.0
 10
2722.306759776877
 20
-2606.779836082854
 30
0.0
 10
2722.211046739956
 20
-2607.163116855528
 30
0.0
 10
2722.074006315541
 20
-2607.70515551999
 30
0.0
 10
2721.889737753418
 20
-2608.425990730594
 30
0.0
 10
2721.681198096844
 20
-2609.234780383012
 30
0.0
 10
2721.450453328458
 20
-2610.123564216312
 30
0.0
 10
2721.199400279644
 20
-2611.085037358134
 30
0.0
 10
2720.930054575003
 20
-2612.11145186867
 30
0.0
 10
2720.5423569379
 20
-2613.582368710929
 30
0.0
 10
2720.032521112258
 20
-2615.504929798488
 30
0.0
 10
2719.403687627741
 20
-2617.859681309452
 30
0.0
 10
2718.770903701539
 20
-2620.213337953413
 30
0.0
 10
2718.251173912957
 20
-2622.133158149831
 30
0.0
 10
2717.851515372679
 20
-2623.600688003691
 30
0.0
 10
2717.571615353361
 20
-2624.624083637867
 30
0.0
 10
2717.308324858861
 20
-2625.582162963768
 30
0.0
 10
2717.063765426722
 20
-2626.467231163151
 30
0.0
 10
2716.839959684339
 20
-2627.271966640293
 30
0.0
 10
2716.63912243298
 20
-2627.988353805431
 30
0.0
 10
2716.48680050242
 20
-2628.52622141143
 30
0.0
 10
2716.378082020341
 20
-2628.905884995511
 30
0.0
 10
2716.307420769738
 20
-2629.150528671834
 30
0.0
 10
2716.244134548843
 20
-2629.367345924253
 30
0.0
 10
2716.188371213585
 20
-2629.555832989492
 30
0.0
 10
2716.14022690042
 20
-2629.715750563988
 30
0.0
 10
2716.099722569439
 20
-2629.847085548972
 30
0.0
 10
2716.070525109421
 20
-2629.938656412312
 30
0.0
 10
2716.050831249895
 20
-2629.997610063772
 30
0.0
 10
2716.039154212043
 20
-2630.031304832555
 30
0.0
 10
2716.029353482338
 20
-2630.057790804472
 30
0.0
 10
2716.021621839182
 20
-2630.07758383829
 30
0.0
 10
2716.01562725122
 20
-2630.089695465074
 30
0.0
 10
2716.012243285421
 20
-2630.09621406265
 30
0.0
 10
2716.010287835942
 20
-2630.097343082492
 30
0.0
  0
SPLINE
  5
162
330
2
100
AcDbEntity
  8
0
  6
Continuous
 62
     7
100
AcDbSpline
210
0.0
220
0.0
230
1.0
 70
     8
 71
     3
 72
     8
 73
     4
 74
     0
 42
0.0000000001
 43
0.0000000001
 40
0.0
 40
0.0
 40
0.0
 40
0.0
 40
1.0
 40
1.0
 40
1.0
 40
1.0
 10
2760.759333239878
 20
-2626.358465030673
 30
0.0
 10
2760.860443553286
 20
-2626.484266760271
 30
0.0
 10
2761.005256639315
 20
-2626.636408010472
 30
0.0
 10
2761.188850971145
 20
-2626.820024178672
 30
0.0
  0
LINE
  5
163
330
2
100
AcDbEntity
  8
0
  6
Continuous
 62
     7
100
AcDbLine
 10
2757.34724679508
 20
-2627.996707362513
 30
0.0
 11
2757.330370227357
 21
-2627.653253848249
 31
0.0
  0
LINE
  5
164
330
2
100
AcDbEntity
  8
0
  6
Continuous
 62
     7
100
AcDbLine
 10
2757.330370227357
 20
-2627.653253848249
 30
0.0
 11
2757.544870857544
 21
-2627.924778088035
 31
0.0
  0
SPLINE
  5
165
330
2
100
AcDbEntity
  8
0
  6
Continuous
 62
     7
100
AcDbSpline
210
0.0
220
0.0
230
1.0
 70
     8
 71
     3
 72
     8
 73
     4
 74
     0
 42
0.0000000001
 43
0.0000000001
 40
0.0
 40
0.0
 40
0.0
 40
0.0
 40
1.0
 40
1.0
 40
1.0
 40
1.0
 10
2758.982539021063
 20
-2628.606803556591
 30
0.0
 10
2758.99431358222
 20
-2628.846422282328
 30
0.0
 10
2759.008698234679
 20
-2629.058668045294
 30
0.0
 10
2759.02882797344
 20
-2629.23833471923
 30
0.0
  0
SPLINE
  5
166
330
2
100
AcDbEntity
  8
0
  6
Continuous
 62
     7
100
AcDbSpline
210
0.0
220
0.0
230
1.0
 70
     8
 71
     3
 72
     8
 73
     4
 74
     0
 42
0.0000000001
 43
0.0000000001
 40
0.0
 40
0.0
 40
0.0
 40
0.0
 40
1.0
 40
1.0
 40
1.0
 40
1.0
 10
2759.02882797344
 20
-2629.23833471923
 30
0.0
 10
2758.869710331297
 20
-2628.966978015309
 30
0.0
 10
2758.672462465702
 20
-2628.687101447809
 30
0.0
 10
2758.436657537264
 20
-2628.398980987731
 30
0.0
  0
LINE
  5
167
330
2
100
AcDbEntity
  8
0
  6
Continuous
 62
     7
100
AcDbLine
 10
2756.993244376341
 20
-2629.428409289551
 30
0.0
 11
2757.023720977823
 21
-2629.96813398099
 31
0.0
  0
SPLINE
  5
168
330
2
100
AcDbEntity
  8
0
  6
Continuous
 62
     7
100
AcDbSpline
210
0.0
220
0.0
230
1.0
 70
     8
 71
     3
 72
    43
 73
    39
 74
     0
 42
0.0000000001
 43
0.0000000001
 40
0.0
 40
0.0
 40
0.0
 40
0.0
 40
0.1297709227
 40
0.2593928014
 40
0.3241310378
 40
0.3888078845
 40
0.4534097248000001
 40
0.5179179333000004
 40
0.5823060986000002
 40
0.6465350504
 40
0.7105429506000001
 40
0.7424337202000002
 40
0.7742239189
 40
0.8058847797999998
 40
0.8373733579999999
 40
0.8686215326999999
 40
0.8841220863
 40
0.8995122443999999
 40
0.9147601086999999
 40
0.9298183552999999
 40
0.9446115461999999
 40
0.9518715817
 40
0.9590123264
 40
0.9659969384
 40
0.9727800446999999
 40
0.9792845886
 40
0.9854044798999998
 40
0.9882597655999999
 40
0.9909360402
 40
0.9933960767
 40
0.9955752115999999
 40
0.9973997359
 40
0.9981559834999998
 40
0.9987957483999998
 40
0.9993094556999999
 40
0.9996875495000001
 40
0.9999205745999999
 40
1.0
 40
1.0
 40
1.0
 40
1.0
 10
2714.058911461843
 20
-2638.293838586851
 30
0.0
 10
2713.980621694618
 20
-2639.180607450854
 30
0.0
 10
2713.824058794637
 20
-2640.953120245674
 30
0.0
 10
2713.628203580558
 20
-2643.167990560654
 30
0.0
 10
2713.471519776585
 20
-2644.938042108173
 30
0.0
 10
2713.35407329062
 20
-2646.263790592049
 30
0.0
 10
2713.236661749981
 20
-2647.587958012293
 30
0.0
 10
2713.119303970979
 20
-2648.910142096389
 30
0.0
 10
2713.002028884222
 20
-2650.229765471871
 30
0.0
 10
2712.884883276502
 20
-2651.545954741952
 30
0.0
 10
2712.787318935183
 20
-2652.640076033512
 30
0.0
 10
2712.709374430162
 20
-2653.512536622849
 30
0.0
 10
2712.651089878202
 20
-2654.163971738569
 30
0.0
 10
2712.592948876876
 20
-2654.81264966651
 30
0.0
 10
2712.535013775576
 20
-2655.45761289525
 30
0.0
 10
2712.486863117499
 20
-2655.992150248832
 30
0.0
 10
2712.448511807359
 20
-2656.416689293073
 30
0.0
 10
2712.419971117679
 20
-2656.731906785571
 30
0.0
 10
2712.391626145154
 20
-2657.044095391575
 30
0.0
 10
2712.363554593483
 20
-2657.352196814994
 30
0.0
 10
2712.340351276925
 20
-2657.605718939394
 30
0.0
 10
2712.322011399965
 20
-2657.805145726215
 30
0.0
 10
2712.3085266441
 20
-2657.951226734534
 30
0.0
 10
2712.295279236003
 20
-2658.094044040972
 30
0.0
 10
2712.282358916398
 20
-2658.23250862053
 30
0.0
 10
2712.269888415564
 20
-2658.36505756549
 30
0.0
 10
2712.259833416621
 20
-2658.470769871208
 30
0.0
 10
2712.252163538638
 20
-2658.55032953429
 30
0.0
 10
2712.246840559705
 20
-2658.604890936473
 30
0.0
 10
2712.241897361559
 20
-2658.654834534831
 30
0.0
 10
2712.2374277515
 20
-2658.698936023971
 30
0.0
 10
2712.234046912434
 20
-2658.731446088488
 30
0.0
 10
2712.23162417154
 20
-2658.753352102591
 30
0.0
 10
2712.230189483026
 20
-2658.766493280269
 30
0.0
 10
2712.228805058558
 20
-2658.776588020054
 30
0.0
 10
2712.228097836198
 20
-2658.785030152012
 30
0.0
 10
2712.2268350244
 20
-2658.788279246349
 30
0.0
 10
2712.2269676632
 20
-2658.791895418952
 30
0.0
 10
2712.226442370879
 20
-2658.791750743093
 30
0.0
  0
SPLINE
  5
169
330
2
100
AcDbEntity
  8
0
  6
Continuous
 62
     7
100
AcDbSpline
210
0.0
220
0.0
230
1.0
 70
     8
 71
     3
 72
    42
 73
    38
 74
     0
 42
0.0000000001
 43
0.0000000001
 40
0.0
 40
0.0
 40
0.0
 40
0.0
 40
0.1310177509
 40
0.2618338747
 40
0.327143433
 40
0.3923696937
 40
0.4574940393000002
 40
0.522490966
 40
0.5873242643
 40
0.6519400518000003
 40
0.7162530454000004
 40
0.7482541214000003
 40
0.7801168302
 40
0.8118012531999998
 40
0.8432477551999999
 40
0.8743616331999998
 40
0.8897472856
 40
0.9049799984999999
 40
0.9200158432
 40
0.9347895573
 40
0.9491980517
 40
0.9562161131999998
 40
0.9630728651999998
 40
0.9697208918999999
 40
0.9761016043999999
 40
0.9821276362999999
 40
0.9876817726
 40
0.9902173728999999
 40
0.9925504194
 40
0.9946457327
 40
0.9964593926999999
 40
0.9979463283999999
 40
0.9990615269
 40
0.9994657284999998
 40
0.9997602548999999
 40
0.9999397017999999
 40
1.0
 40
1.0
 40
1.0
 40
1.0
 10
2782.862755174685
 20
-2638.38099101097
 30
0.0
 10
2782.953959991
 20
-2639.276310360794
 30
0.0
 10
2783.136317129461
 20
-2641.06556227885
 30
0.0
 10
2783.364414572681
 20
-2643.301083619332
 30
0.0
 10
2783.546829884758
 20
-2645.087002054093
 30
0.0
 10
2783.683501988855
 20
-2646.424012290915
 30
0.0
 10
2783.820078698185
 20
-2647.758873636932
 30
0.0
 10
2783.956523700881
 20
-2649.091035125508
 30
0.0
 10
2784.092782397124
 20
-2650.419704157271
 30
0.0
 10
2784.228768383722
 20
-2651.74367860609
 30
0.0
 10
2784.341928431715
 20
-2652.843288555712
 30
0.0
 10
2784.432230567599
 20
-2653.71908374341
 30
0.0
 10
2784.499647656546
 20
-2654.371926715095
 30
0.0
 10
2784.566796008398
 20
-2655.02096783763
 30
0.0
 10
2784.633566337137
 20
-2655.664876925734
 30
0.0
 10
2784.688950531681
 20
-2656.197411138793
 30
0.0
 10
2784.732945353515
 20
-2656.619157625752
 30
0.0
 10
2784.76555990094
 20
-2656.931052970973
 30
0.0
 10
2784.797833290797
 20
-2657.238757694649
 30
0.0
 10
2784.829630430659
 20
-2657.54081978547
 30
0.0
 10
2784.85579307582
 20
-2657.788097027769
 30
0.0
 10
2784.87633960826
 20
-2657.981283768652
 30
0.0
 10
2784.89130466596
 20
-2658.121457321169
 30
0.0
 10
2784.90588265814
 20
-2658.257269353329
 30
0.0
 10
2784.919956978478
 20
-2658.387396598787
 30
0.0
 10
2784.933343431259
 20
-2658.510040059369
 30
0.0
 10
2784.943964451422
 20
-2658.60641790319
 30
0.0
 10
2784.951933769999
 20
-2658.677564766232
 30
0.0
 10
2784.957339403083
 20
-2658.725097797912
 30
0.0
 10
2784.962290701276
 20
-2658.767673036607
 30
0.0
 10
2784.966667913761
 20
-2658.804519851408
 30
0.0
 10
2784.970413857498
 20
-2658.83450397737
 30
0.0
 10
2784.973019333623
 20
-2658.855243321209
 30
0.0
 10
2784.97485814884
 20
-2658.867212959449
 30
0.0
 10
2784.975666590197
 20
-2658.873795443112
 30
0.0
 10
2784.976577627242
 20
-2658.876281635748
 30
0.0
 10
2784.976755216421
 20
-2658.879049776013
 30
0.0
 10
2784.977142586746
 20
-2658.878903167209
 30
0.0
  0
LINE
  5
16A
330
2
100
AcDbEntity
  8
0
  6
Continuous
 62
     7
100
AcDbLine
 10
2781.789624973981
 20
-2634.702005691793
 30
0.0
 11
2782.721836751918
 21
-2637.694550575368
 31
0.0
  0
SPLINE
  5
16B
330
2
100
AcDbEntity
  8
0
  6
Continuous
 62
     7
100
AcDbSpline
210
0.0
220
0.0
230
1.0
 70
     8
 71
     3
 72
    27
 73
    23
 74
     0
 42
0.0000000001
 43
0.0000000001
 40
0.0
 40
0.0
 40
0.0
 40
0.0
 40
0.1940039894
 40
0.3806345778
 40
0.468944741
 40
0.5527993149000002
 40
0.6313823629000001
 40
0.7039553739
 40
0.7698198329000002
 40
0.8283596805
 40
0.8790049048
 40
0.9212870279
 40
0.9391569830999999
 40
0.9547908191999999
 40
0.9681539864999999
 40
0.9792120837999998
 40
0.9879348691999998
 40
0.9943082352999999
 40
0.9966113633999999
 40
0.9983248828
 40
0.9994504678
 40
1.0
 40
1.0
 40
1.0
 40
1.0
 10
2777.477428162785
 20
-2669.046601361112
 30
0.0
 10
2777.962486931038
 20
-2669.046601897051
 30
0.0
 10
2778.914169261861
 20
-2669.047346886673
 30
0.0
 10
2780.086646294602
 20
-2669.050165771052
 30
0.0
 10
2780.983718478101
 20
-2669.053579802832
 30
0.0
 10
2781.610643853661
 20
-2669.056599415795
 30
0.0
 10
2782.198219267283
 20
-2669.060097963531
 30
0.0
 10
2782.74081104214
 20
-2669.064036101455
 30
0.0
 10
2783.233284954326
 20
-2669.06837729927
 30
0.0
 10
2783.670928079535
 20
-2669.073068443053
 30
0.0
 10
2784.04960145224
 20
-2669.078066573773
 30
0.0
 10
2784.326586090045
 20
-2669.082638680454
 30
0.0
 10
2784.516029871682
 20
-2669.086524545175
 30
0.0
 10
2784.633177247243
 20
-2669.089313932534
 30
0.0
 10
2784.733282309915
 20
-2669.092139530134
 30
0.0
 10
2784.816112535418
 20
-2669.094965732249
 30
0.0
 10
2784.881419369502
 20
-2669.097830151215
 30
0.0
 10
2784.924904565736
 20
-2669.100297131295
 30
0.0
 10
2784.950724498866
 20
-2669.102510380613
 30
0.0
 10
2784.963629108565
 20
-2669.103824937294
 30
0.0
 10
2784.971752442582
 20
-2669.105359701811
 30
0.0
 10
2784.976134717286
 20
-2669.106222547434
 30
0.0
 10
2784.977142586746
 20
-2669.107156347952
 30
0.0
  0
LINE
  5
16C
330
2
100
AcDbEntity
  8
0
  6
Continuous
 62
     7
100
AcDbLine
 10
2715.410154827421
 20
-2634.702005691793
 30
0.0
 11
2714.477943049477
 21
-2637.694550575368
 31
0.0
  0
SPLINE
  5
16D
330
2
100
AcDbEntity
  8
0
  6
Continuous
 62
     7
100
AcDbSpline
210
0.0
220
0.0
230
1.0
 70
     8
 71
     3
 72
    42
 73
    38
 74
     0
 42
0.0000000001
 43
0.0000000001
 40
0.0
 40
0.0
 40
0.0
 40
0.0
 40
0.1310155831
 40
0.2618295517
 40
0.3271380377
 40
0.3923632304
 40
0.4574865177000003
 40
0.5224823989000003
 40
0.5873146506
 40
0.6519294324000004
 40
0.7162414508000003
 40
0.7482420974
 40
0.7801043902
 40
0.8117884102999999
 40
0.8432345147999999
 40
0.8743481315999998
 40
0.8897337382999999
 40
0.9049666109
 40
0.9200025781999999
 40
0.9347760602000001
 40
0.949184829
 40
0.9562049023
 40
0.9630616205999999
 40
0.9697092986999999
 40
0.9760895537999999
 40
0.9821208248999999
 40
0.987678226
 40
0.9902126126999998
 40
0.992545621
 40
0.9946401640999999
 40
0.9964528807999998
 40
0.9979402533
 40
0.9990579493999998
 40
0.9994636397999999
 40
0.9997594430999999
 40
0.9999396760999999
 40
1.0
 40
1.0
 40
1.0
 40
1.0
 10
2714.337024626717
 20
-2638.38099101097
 30
0.0
 10
2714.245821362343
 20
-2639.276295534811
 30
0.0
 10
2714.06346717536
 20
-2641.065517872029
 30
0.0
 10
2713.835373531978
 20
-2643.301002306311
 30
0.0
 10
2713.652961232345
 20
-2645.086891355811
 30
0.0
 10
2713.516291383758
 20
-2646.423879713071
 30
0.0
 10
2713.379716922335
 20
-2647.758719362413
 30
0.0
 10
2713.243274170085
 20
-2649.090859301632
 30
0.0
 10
2713.107017681099
 20
-2650.41950714471
 30
0.0
 10
2712.971033883981
 20
-2651.743460889989
 30
0.0
 10
2712.857875616518
 20
-2652.843054357556
 30
0.0
 10
2712.767574859858
 20
-2653.718837096712
 30
0.0
 10
2712.700158748821
 20
-2654.371671539073
 30
0.0
 10
2712.633011280881
 20
-2655.020704340575
 30
0.0
 10
2712.566241914801
 20
-2655.664606187132
 30
0.0
 10
2712.510858091099
 20
-2656.197135561491
 30
0.0
 10
2712.466864097298
 20
-2656.618881111193
 30
0.0
 10
2712.434248432279
 20
-2656.930777967714
 30
0.0
 10
2712.40197660198
 20
-2657.238483194312
 30
0.0
 10
2712.370180165703
 20
-2657.540546494172
 30
0.0
 10
2712.344011170538
 20
-2657.787837246735
 30
0.0
 10
2712.323470447083
 20
-2657.981040159793
 30
0.0
 10
2712.308506921001
 20
-2658.12122512961
 30
0.0
 10
2712.293922903942
 20
-2658.257030712713
 30
0.0
 10
2712.279837186625
 20
-2658.387187351054
 30
0.0
 10
2712.2664574623
 20
-2658.509887131054
 30
0.0
 10
2712.255844232315
 20
-2658.60631623715
 30
0.0
 10
2712.247869539098
 20
-2658.677476386932
 30
0.0
 10
2712.24245529288
 20
-2658.72499454183
 30
0.0
 10
2712.23749668964
 20
-2658.767556564911
 30
0.0
 10
2712.233114475896
 20
-2658.80439469037
 30
0.0
 10
2712.229367546637
 20
-2658.834390269192
 30
0.0
 10
2712.226760843698
 20
-2658.855165432112
 30
0.0
 10
2712.224924489741
 20
-2658.867163782514
 30
0.0
 10
2712.22411093028
 20
-2658.873784957988
 30
0.0
 10
2712.223207787562
 20
-2658.876260576609
 30
0.0
 10
2712.223021379499
 20
-2658.879058447571
 30
0.0
 10
2712.222637214656
 20
-2658.878903167209
 30
0.0
  0
SPLINE
  5
16E
330
2
100
AcDbEntity
  8
0
  6
Continuous
 62
     7
100
AcDbSpline
210
0.0
220
0.0
230
1.0
 70
     8
 71
     3
 72
    27
 73
    23
 74
     0
 42
0.0000000001
 43
0.0000000001
 40
0.0
 40
0.0
 40
0.0
 40
0.0
 40
0.0005495323
 40
0.0016751174
 40
0.0033886368
 40
0.0056917649
 40
0.012065131
 40
0.0207879162
 40
0.0318460135
 40
0.0452091808
 40
0.0608430169
 40
0.0787129721
 40
0.1209950953
 40
0.1716403195
 40
0.2301801671
 40
0.2960446261
 40
0.3686176371
 40
0.4472006851
 40
0.531055259
 40
0.6193654222000001
 40
0.8059960106
 40
1.0
 40
1.0
 40
1.0
 40
1.0
 10
2712.222637214656
 20
-2669.107156347952
 30
0.0
 10
2712.223645086664
 20
-2669.106222547434
 30
0.0
 10
2712.228027358821
 20
-2669.105359701811
 30
0.0
 10
2712.236150695384
 20
-2669.10382493983
 30
0.0
 10
2712.249055302537
 20
-2669.102510380613
 30
0.0
 10
2712.274875235659
 20
-2669.100297131295
 30
0.0
 10
2712.3183604319
 20
-2669.097830151215
 30
0.0
 10
2712.383667265977
 20
-2669.094965732249
 30
0.0
 10
2712.46649749148
 20
-2669.092139530134
 30
0.0
 10
2712.56660255162
 20
-2669.089313932534
 30
0.0
 10
2712.68374992972
 20
-2669.086524545175
 30
0.0
 10
2712.873193711357
 20
-2669.082638680454
 30
0.0
 10
2713.150178349157
 20
-2669.078066573773
 30
0.0
 10
2713.52885172186
 20
-2669.073068443053
 30
0.0
 10
2713.966494847076
 20
-2669.06837729927
 30
0.0
 10
2714.458968759262
 20
-2669.064036101455
 30
0.0
 10
2715.00156053412
 20
-2669.060097963531
 30
0.0
 10
2715.589135947741
 20
-2669.056599415795
 30
0.0
 10
2716.216061323301
 20
-2669.053579802832
 30
0.0
 10
2717.113133506801
 20
-2669.050165771052
 30
0.0
 10
2718.285610539542
 20
-2669.047346886673
 30
0.0
 10
2719.237292870357
 20
-2669.046601897051
 30
0.0
 10
2719.722351638617
 20
-2669.046601361112
 30
0.0
  0
SPLINE
  5
16F
330
2
100
AcDbEntity
  8
0
  6
Continuous
 62
     7
100
AcDbSpline
210
0.0
220
0.0
230
1.0
 70
     8
 71
     3
 72
    26
 73
    22
 74
     0
 42
0.0000000001
 43
0.0000000001
 40
0.0
 40
0.0
 40
0.0
 40
0.0
 40
0.1939998949
 40
0.3806269448
 40
0.5527891943
 40
0.6313709806000001
 40
0.7039428955
 40
0.7698065545000004
 40
0.8283455474
 40
0.8789896775
 40
0.9212717315999999
 40
0.9391424439999999
 40
0.9547772772
 40
0.9681413238999999
 40
0.9791998473999999
 40
0.9879224948999999
 40
0.9942961711
 40
0.9966001411999998
 40
0.9983153481999998
 40
0.9994440505
 40
1.0
 40
1.0
 40
1.0
 40
1.0
 10
2777.477428162785
 20
-2669.546582322033
 30
0.0
 10
2777.930149243623
 20
-2669.546582830033
 30
0.0
 10
2778.818386232701
 20
-2669.547326430271
 30
0.0
 10
2780.108379758882
 20
-2669.550655438088
 30
0.0
 10
2781.129026020857
 20
-2669.555267864729
 30
0.0
 10
2781.883505853019
 20
-2669.560078619652
 30
0.0
 10
2782.38992572664
 20
-2669.564017202068
 30
0.0
 10
2782.849568274456
 20
-2669.568358305911
 30
0.0
 10
2783.25803358402
 20
-2669.573049467472
 30
0.0
 10
2783.6114599714
 20
-2669.578047626131
 30
0.0
 10
2783.869978158956
 20
-2669.582619834411
 30
0.0
 10
2784.046794371238
 20
-2669.586505589915
 30
0.0
 10
2784.156135760381
 20
-2669.589295094112
 30
0.0
 10
2784.249568865361
 20
-2669.592120280231
 30
0.0
 10
2784.32687506838
 20
-2669.594947490729
 30
0.0
 10
2784.387821601298
 20
-2669.597809176652
 30
0.0
 10
2784.428402906977
 20
-2669.600282382271
 30
0.0
 10
2784.452494667285
 20
-2669.602487435015
 30
0.0
 10
2784.464545278179
 20
-2669.603816967534
 30
0.0
 10
2784.47213200926
 20
-2669.605325326211
 30
0.0
 10
2784.47623742396
 20
-2669.606226800151
 30
0.0
 10
2784.477161625817
 20
-2669.60713731141
 30
0.0
  0
SPLINE
  5
170
330
2
100
AcDbEntity
  8
0
  6
Continuous
 62
     7
100
AcDbSpline
210
0.0
220
0.0
230
1.0
 70
     8
 71
     3
 72
    26
 73
    22
 74
     0
 42
0.0000000001
 43
0.0000000001
 40
0.0
 40
0.0
 40
0.0
 40
0.0
 40
0.0005559498
 40
0.0016846523
 40
0.0033998593
 40
0.0057038293
 40
0.0120775054
 40
0.0208001525
 40
0.0318586759
 40
0.0452227226
 40
0.0608575559
 40
0.0787282683
 40
0.1210103225
 40
0.1716544525
 40
0.2301934455
 40
0.2960571045
 40
0.3686290193
 40
0.4472108056000001
 40
0.6193730551
 40
0.8060001051
 40
1.0
 40
1.0
 40
1.0
 40
1.0
 10
2712.722618175585
 20
-2669.60713731141
 30
0.0
 10
2712.723542377442
 20
-2669.606226802694
 30
0.0
 10
2712.727647794674
 20
-2669.605325326211
 30
0.0
 10
2712.735234525755
 20
-2669.603816967534
 30
0.0
 10
2712.747285136665
 20
-2669.602487435015
 30
0.0
 10
2712.771376896957
 20
-2669.600282382271
 30
0.0
 10
2712.811958202636
 20
-2669.597809176652
 30
0.0
 10
2712.872904733022
 20
-2669.594947490729
 30
0.0
 10
2712.950210936042
 20
-2669.592120280231
 30
0.0
 10
2713.043644041014
 20
-2669.589295094112
 30
0.0
 10
2713.152985430157
 20
-2669.586505589915
 30
0.0
 10
2713.32980164244
 20
-2669.582619834411
 30
0.0
 10
2713.588319830002
 20
-2669.578047626131
 30
0.0
 10
2713.941746217384
 20
-2669.573049467472
 30
0.0
 10
2714.350211526939
 20
-2669.568358305911
 30
0.0
 10
2714.809854074755
 20
-2669.564017202068
 30
0.0
 10
2715.316273948376
 20
-2669.560078619652
 30
0.0
 10
2716.070753780538
 20
-2669.555267864729
 30
0.0
 10
2717.09140004252
 20
-2669.550655438088
 30
0.0
 10
2718.381393568702
 20
-2669.547326430271
 30
0.0
 10
2719.269630557779
 20
-2669.546582827493
 30
0.0
 10
2719.722351638617
 20
-2669.546582322033
 30
0.0
  0
SPLINE
  5
171
330
2
100
AcDbEntity
  8
0
  6
Continuous
 62
     7
100
AcDbSpline
210
0.0
220
0.0
230
1.0
 70
     8
 71
     3
 72
    13
 73
     9
 74
     0
 42
0.0000000001
 43
0.0000000001
 40
0.0
 40
0.0
 40
0.0
 40
0.0
 40
0.257706602
 40
0.508167301
 40
0.630225666
 40
0.7502939767
 40
0.8719227002
 40
1.0
 40
1.0
 40
1.0
 40
1.0
 10
2739.043809515819
 20
-2641.963497541648
 30
0.0
 10
2739.132928258079
 20
-2641.88115595881
 30
0.0
 10
2739.300450061719
 20
-2641.709878960751
 30
0.0
 10
2739.47282901846
 20
-2641.464159718893
 30
0.0
 10
2739.555206623578
 20
-2641.245661403031
 30
0.0
 10
2739.571039914237
 20
-2641.071762568714
 30
0.0
 10
2739.515959254781
 20
-2640.900862963855
 30
0.0
 10
2739.434523570557
 20
-2640.811655750851
 30
0.0
 10
2739.387971880578
 20
-2640.773324123173
 30
0.0
  0
SPLINE
  5
172
330
2
100
AcDbEntity
  8
0
  6
Continuous
 62
     7
100
AcDbSpline
210
0.0
220
0.0
230
1.0
 70
     8
 71
     3
 72
    13
 73
     9
 74
     0
 42
0.0000000001
 43
0.0000000001
 40
0.0
 40
0.0
 40
0.0
 40
0.0
 40
0.1280772998
 40
0.2497060233
 40
0.369774334
 40
0.491832699
 40
0.7422933980000001
 40
1.0
 40
1.0
 40
1.0
 40
1.0
 10
2757.811807920824
 20
-2640.773324123173
 30
0.0
 10
2757.765256230838
 20
-2640.811655750851
 30
0.0
 10
2757.683820546614
 20
-2640.900862963855
 30
0.0
 10
2757.628739887159
 20
-2641.071762568714
 30
0.0
 10
2757.644573177824
 20
-2641.245661403031
 30
0.0
 10
2757.726950782942
 20
-2641.464159718893
 30
0.0
 10
2757.899329739676
 20
-2641.709878960751
 30
0.0
 10
2758.066851543323
 20
-2641.88115595881
 30
0.0
 10
2758.155970285583
 20
-2641.963497541648
 30
0.0
  0
SPLINE
  5
173
330
2
100
AcDbEntity
  8
0
  6
Continuous
 62
     7
100
AcDbSpline
210
0.0
220
0.0
230
1.0
 70
     8
 71
     3
 72
    43
 73
    39
 74
     0
 42
0.0000000001
 43
0.0000000001
 40
0.0
 40
0.0
 40
0.0
 40
0.0
 40
0.1297731237
 40
0.2593971937
 40
0.3241365222
 40
0.3888144578
 40
0.4534173798000001
 40
0.5179266590000001
 40
0.5823158892000003
 40
0.6465458982
 40
0.7105547889000004
 40
0.7424460317000002
 40
0.7742366920999999
 40
0.8058979824999996
 40
0.8373869603000001
 40
0.8686355645
 40
0.8841360831999999
 40
0.8995263966999999
 40
0.9147744671999999
 40
0.9298325099999999
 40
0.9446251907999998
 40
0.9518854726
 40
0.9590248123999998
 40
0.966010213
 40
0.9727914492
 40
0.9792965394999999
 40
0.9854119409999999
 40
0.9882684085999999
 40
0.9909437238999998
 40
0.9934000806
 40
0.9955791895
 40
0.9974046354
 40
0.9981606690999999
 40
0.9987995365999999
 40
0.9993119779
 40
0.9996887853999998
 40
0.9999208528
 40
1.0
 40
1.0
 40
1.0
 40
1.0
 10
2783.140868339558
 20
-2638.293838586851
 30
0.0
 10
2783.219159435199
 20
-2639.180622502888
 30
0.0
 10
2783.37572498694
 20
-2640.953165330669
 30
0.0
 10
2783.571583528423
 20
-2643.168073146211
 30
0.0
 10
2783.728269986701
 20
-2644.93815458953
 30
0.0
 10
2783.845718456398
 20
-2646.263925382234
 30
0.0
 10
2783.963131975697
 20
-2647.588114966511
 30
0.0
 10
2784.080491728282
 20
-2648.910321047013
 30
0.0
 10
2784.197768781002
 20
-2650.229966253792
 30
0.0
 10
2784.314916293721
 20
-2651.546176806528
 30
0.0
 10
2784.412482227624
 20
-2652.640315329452
 30
0.0
 10
2784.490427959458
 20
-2653.512789081073
 30
0.0
 10
2784.548713385181
 20
-2654.164233521132
 30
0.0
 10
2784.606855219618
 20
-2654.81292027303
 30
0.0
 10
2784.664791192141
 20
-2655.457892099672
 30
0.0
 10
2784.712942284563
 20
-2655.992434891388
 30
0.0
 10
2784.751294148418
 20
-2656.41697767705
 30
0.0
 10
2784.779835053998
 20
-2656.732197404755
 30
0.0
 10
2784.808180138274
 20
-2657.044387090249
 30
0.0
 10
2784.836251453739
 20
-2657.352485041487
 30
0.0
 10
2784.859454965876
 20
-2657.606003932469
 30
0.0
 10
2784.87779335186
 20
-2657.805419360415
 30
0.0
 10
2784.891278765581
 20
-2657.95149776015
 30
0.0
 10
2784.904523803855
 20
-2658.094298160355
 30
0.0
 10
2784.917444969275
 20
-2658.232758975631
 30
0.0
 10
2784.929910501882
 20
-2658.365268334689
 30
0.0
 10
2784.939965846259
 20
-2658.470961580249
 30
0.0
 10
2784.947632340956
 20
-2658.550492157788
 30
0.0
 10
2784.952952759575
 20
-2658.605029993851
 30
0.0
 10
2784.957893786023
 20
-2658.654941611072
 30
0.0
 10
2784.962361394561
 20
-2658.699024202607
 30
0.0
 10
2784.965741999937
 20
-2658.731538773092
 30
0.0
 10
2784.968163973763
 20
-2658.753443951529
 30
0.0
 10
2784.969596830941
 20
-2658.766567847055
 30
0.0
 10
2784.970979119261
 20
-2658.776642386212
 30
0.0
 10
2784.971684459482
 20
-2658.785051612471
 30
0.0
 10
2784.97294505386
 20
-2658.788300615371
 30
0.0
 10
2784.972812679221
 20
-2658.791890115433
 30
0.0
 10
2784.973337430516
 20
-2658.791750743093
 30
0.0
  0
LINE
  5
174
330
2
100
AcDbEntity
  8
0
  6
Continuous
 62
     7
100
AcDbLine
 10
2782.266346563085
 20
-2634.761308989491
 30
0.0
 11
2782.988471318978
 21
-2637.435741385088
 31
0.0
  0
SPLINE
  5
175
330
2
100
AcDbEntity
  8
0
  6
Continuous
 62
     7
100
AcDbSpline
210
0.0
220
0.0
230
1.0
 70
     8
 71
     3
 72
    11
 73
     7
 74
     0
 42
0.0000000001
 43
0.0000000001
 40
0.0
 40
0.0
 40
0.0
 40
0.0
 40
0.2217931384
 40
0.4561726529
 40
0.7124066764000001
 40
1.0
 40
1.0
 40
1.0
 40
1.0
 10
2715.047011908801
 20
-2634.502717027633
 30
0.0
 10
2715.079148755884
 20
-2634.451535732994
 30
0.0
 10
2715.156171530458
 20
-2634.35260820161
 30
0.0
 10
2715.308195574902
 20
-2634.229035626813
 30
0.0
 10
2715.502619918081
 20
-2634.138919495133
 30
0.0
 10
2715.650736926896
 20
-2634.113518115915
 30
0.0
 10
2715.729024839917
 20
-2634.110076273671
 30
0.0
  0
SPLINE
  5
176
330
2
100
AcDbEntity
  8
0
  6
Continuous
 62
     7
100
AcDbSpline
210
0.0
220
0.0
230
1.0
 70
     8
 71
     3
 72
    10
 73
     6
 74
     0
 42
0.0000000001
 43
0.0000000001
 40
0.0
 40
0.0
 40
0.0
 40
0.0
 40
0.6062049823
 40
0.8320907564999998
 40
1.0
 40
1.0
 40
1.0
 40
1.0
 10
2715.410154807099
 20
-2634.702005691793
 30
0.0
 10
2715.332156212777
 20
-2634.67058572415
 30
0.0
 10
2715.226039340941
 20
-2634.623994554949
 30
0.0
 10
2715.106770425296
 20
-2634.55310066829
 30
0.0
 10
2715.063194093857
 20
-2634.519468911832
 30
0.0
 10
2715.047011908801
 20
-2634.502717027633
 30
0.0
  0
SPLINE
  5
177
330
2
100
AcDbEntity
  8
0
  6
Continuous
 62
     7
100
AcDbSpline
210
0.0
220
0.0
230
1.0
 70
     8
 71
     3
 72
     9
 73
     5
 74
     0
 42
0.0000000001
 43
0.0000000001
 40
0.0
 40
0.0
 40
0.0
 40
0.0
 40
0.7482873272
 40
1.0
 40
1.0
 40
1.0
 40
1.0
 10
2714.933433263718
 20
-2634.761308898054
 30
0.0
 10
2714.952408933156
 20
-2634.693318848611
 30
0.0
 10
2714.987269340965
 20
-2634.604606054232
 30
0.0
 10
2715.034385317335
 20
-2634.522826446387
 30
0.0
 10
2715.047011908801
 20
-2634.502717027633
 30
0.0
  0
SPLINE
  5
178
330
2
100
AcDbEntity
  8
0
  6
Continuous
 62
     7
100
AcDbSpline
210
0.0
220
0.0
230
1.0
 70
     8
 71
     3
 72
    12
 73
     8
 74
     0
 42
0.0000000001
 43
0.0000000001
 40
0.0
 40
0.0
 40
0.0
 40
0.0
 40
0.364115261
 40
0.6508309389
 40
0.7638008351000001
 40
0.8575571804999999
 40
1.0
 40
1.0
 40
1.0
 40
1.0
 10
2714.477942978361
 20
-2637.694550575368
 30
0.0
 10
2714.43631651602
 20
-2637.672530527976
 30
0.0
 10
2714.363446628742
 20
-2637.63018514149
 30
0.0
 10
2714.284078001599
 20
-2637.57055923331
 30
0.0
 10
2714.240469828724
 20
-2637.523474968831
 30
0.0
 10
2714.215303391882
 20
-2637.486266689172
 30
0.0
 10
2714.207152338838
 20
-2637.453688953974
 30
0.0
 10
2714.211309734639
 20
-2637.435741720372
 30
0.0
  0
SPLINE
  5
179
330
2
100
AcDbEntity
  8
0
  6
Continuous
 62
     7
100
AcDbSpline
210
0.0
220
0.0
230
1.0
 70
     8
 71
     3
 72
    12
 73
     8
 74
     0
 42
0.0000000001
 43
0.0000000001
 40
0.0
 40
0.0
 40
0.0
 40
0.0
 40
0.4068209034000001
 40
0.7129980994000002
 40
0.9088597856999999
 40
0.9656509973999998
 40
1.0
 40
1.0
 40
1.0
 40
1.0
 10
2714.337024530194
 20
-2638.38099101097
 30
0.0
 10
2714.297504522876
 20
-2638.373788305031
 30
0.0
 10
2714.228316571341
 20
-2638.360120366913
 30
0.0
 10
2714.141523935681
 20
-2638.338332229134
 30
0.0
 10
2714.08875414282
 20
-2638.319943447011
 30
0.0
 10
2714.064702090337
 20
-2638.305419813372
 30
0.0
 10
2714.058940679456
 20
-2638.297230208213
 30
0.0
 10
2714.058911461843
 20
-2638.293838586851
 30
0.0
  0
SPLINE
  5
17A
330
2
100
AcDbEntity
  8
0
  6
Continuous
 62
     7
100
AcDbSpline
210
0.0
220
0.0
230
1.0
 70
     8
 71
     3
 72
    11
 73
     7
 74
     0
 42
0.0000000001
 43
0.0000000001
 40
0.0
 40
0.0
 40
0.0
 40
0.0
 40
0.2874808241
 40
0.5437260073
 40
0.7781265074000002
 40
1.0
 40
1.0
 40
1.0
 40
1.0
 10
2781.470747064619
 20
-2634.110076080629
 30
0.0
 10
2781.549004962459
 20
-2634.113515558129
 30
0.0
 10
2781.69709281716
 20
-2634.138913668372
 30
0.0
 10
2781.891512669618
 20
-2634.228989368333
 30
0.0
 10
2782.043573307837
 20
-2634.352570083832
 30
0.0
 10
2782.12061795436
 20
-2634.451517589772
 30
0.0
 10
2782.152767902759
 20
-2634.50271702509
 30
0.0
  0
SPLINE
  5
17B
330
2
100
AcDbEntity
  8
0
  6
Continuous
 62
     7
100
AcDbSpline
210
0.0
220
0.0
230
1.0
 70
     8
 71
     3
 72
     9
 73
     5
 74
     0
 42
0.0000000001
 43
0.0000000001
 40
0.0
 40
0.0
 40
0.0
 40
0.0
 40
0.2517126467000001
 40
1.0
 40
1.0
 40
1.0
 40
1.0
 10
2782.152767902759
 20
-2634.50271702509
 30
0.0
 10
2782.165394494218
 20
-2634.52282644893
 30
0.0
 10
2782.21251047314
 20
-2634.604606092333
 30
0.0
 10
2782.247370886022
 20
-2634.693318914651
 30
0.0
 10
2782.266346563085
 20
-2634.761308989491
 30
0.0
  0
SPLINE
  5
17C
330
2
100
AcDbEntity
  8
0
  6
Continuous
 62
     7
100
AcDbSpline
210
0.0
220
0.0
230
1.0
 70
     8
 71
     3
 72
    10
 73
     6
 74
     0
 42
0.0000000001
 43
0.0000000001
 40
0.0
 40
0.0
 40
0.0
 40
0.0
 40
0.1679092371
 40
0.3937950088
 40
1.0
 40
1.0
 40
1.0
 40
1.0
 10
2782.152767902759
 20
-2634.50271702509
 30
0.0
 10
2782.136585720242
 20
-2634.519468909289
 30
0.0
 10
2782.093009388797
 20
-2634.553100663208
 30
0.0
 10
2781.973740475705
 20
-2634.623994552411
 30
0.0
 10
2781.8676236064
 20
-2634.67058572415
 30
0.0
 10
2781.789625012077
 20
-2634.702005691793
 30
0.0
  0
SPLINE
  5
17D
330
2
100
AcDbEntity
  8
0
  6
Continuous
 62
     7
100
AcDbSpline
210
0.0
220
0.0
230
1.0
 70
     8
 71
     3
 72
    12
 73
     8
 74
     0
 42
0.0000000001
 43
0.0000000001
 40
0.0
 40
0.0
 40
0.0
 40
0.0
 40
0.1424426567
 40
0.2361988957999999
 40
0.3491687222
 40
0.6358844377000003
 40
1.0
 40
1.0
 40
1.0
 40
1.0
 10
2782.98846956638
 20
-2637.435741854988
 30
0.0
 10
2782.992627046
 20
-2637.453689025091
 30
0.0
 10
2782.984476145359
 20
-2637.486266739968
 30
0.0
 10
2782.959309827902
 20
-2637.52347498661
 30
0.0
 10
2782.915701776941
 20
-2637.570559240928
 30
0.0
 10
2782.836333246322
 20
-2637.630185144029
 30
0.0
 10
2782.763463419995
 20
-2637.672530525434
 30
0.0
 10
2782.721836975436
 20
-2637.694550575368
 30
0.0
  0
SPLINE
  5
17E
330
2
100
AcDbEntity
  8
0
  6
Continuous
 62
     7
100
AcDbSpline
210
0.0
220
0.0
230
1.0
 70
     8
 71
     3
 72
    12
 73
     8
 74
     0
 42
0.0000000001
 43
0.0000000001
 40
0.0
 40
0.0
 40
0.0
 40
0.0
 40
0.0343490048
 40
0.0911402198
 40
0.2870019097
 40
0.593179104
 40
1.0
 40
1.0
 40
1.0
 40
1.0
 10
2783.140868339558
 20
-2638.293838586851
 30
0.0
 10
2783.140839121939
 20
-2638.297230208213
 30
0.0
 10
2783.13507770852
 20
-2638.305419813372
 30
0.0
 10
2783.111025653506
 20
-2638.319943447011
 30
0.0
 10
2783.058255858096
 20
-2638.338332229134
 30
0.0
 10
2782.971463222438
 20
-2638.360120366913
 30
0.0
 10
2782.902275268361
 20
-2638.373788305031
 30
0.0
 10
2782.862755261036
 20
-2638.38099101097
 30
0.0
  0
LINE
  5
17F
330
2
100
AcDbEntity
  8
0
  6
Continuous
 62
     7
100
AcDbLine
 10
2714.933433263718
 20
-2634.761308898054
 30
0.0
 11
2714.211308482418
 21
-2637.435741385088
 31
0.0
  0
SPLINE
  5
180
330
2
100
AcDbEntity
  8
0
  6
Continuous
 62
     7
100
AcDbSpline
210
0.0
220
0.0
230
1.0
 70
     8
 71
     3
 72
     9
 73
     5
 74
     0
 42
0.0000000001
 43
0.0000000001
 40
0.0
 40
0.0
 40
0.0
 40
0.0
 40
0.2402032212
 40
1.0
 40
1.0
 40
1.0
 40
1.0
 10
2715.729024839917
 20
-2634.110076273671
 30
0.0
 10
2715.796705156683
 20
-2634.107101087851
 30
0.0
 10
2716.07919396178
 20
-2634.111674426432
 30
0.0
 10
2716.358708030634
 20
-2634.177784967312
 30
0.0
 10
2716.56007397792
 20
-2634.251076179633
 30
0.0
  0
LINE
  5
181
330
2
100
AcDbEntity
  8
0
  6
Continuous
 62
     7
100
AcDbLine
 10
2715.729020618443
 20
-2634.110075852033
 30
0.0
 11
2715.410154827421
 21
-2634.702005691793
 31
0.0
  0
SPLINE
  5
182
330
2
100
AcDbEntity
  8
0
  6
Continuous
 62
     7
100
AcDbSpline
210
0.0
220
0.0
230
1.0
 70
     8
 71
     3
 72
     9
 73
     5
 74
     0
 42
0.0000000001
 43
0.0000000001
 40
0.0
 40
0.0
 40
0.0
 40
0.0
 40
0.2578364309
 40
1.0
 40
1.0
 40
1.0
 40
1.0
 10
2780.639705823482
 20
-2634.251076179633
 30
0.0
 10
2780.708011404417
 20
-2634.226214982212
 30
0.0
 10
2780.976444296563
 20
-2634.140561795633
 30
0.0
 10
2781.261718005919
 20
-2634.100889141929
 30
0.0
 10
2781.470747064619
 20
-2634.110076080629
 30
0.0
  0
LINE
  5
183
330
2
100
AcDbEntity
  8
0
  6
Continuous
 62
     7
100
AcDbLine
 10
2781.470744245215
 20
-2634.110075951092
 30
0.0
 11
2781.789624973981
 21
-2634.702169567511
 31
0.0
  0
SPLINE
  5
184
330
2
100
AcDbEntity
  8
0
  6
Continuous
 62
     7
100
AcDbSpline
210
0.0
220
0.0
230
1.0
 70
     8
 71
     3
 72
    25
 73
    21
 74
     0
 42
0.0000000001
 43
0.0000000001
 40
0.0
 40
0.0
 40
0.0
 40
0.0
 40
0.1249737776
 40
0.2499477139
 40
0.3749220242
 40
0.4998968122
 40
0.6248717935000001
 40
0.6873633763
 40
0.7498565506999999
 40
0.7811057513000001
 40
0.8123563665999999
 40
0.8436088742999999
 40
0.8748639361
 40
0.9061223967
 40
0.921758042
 40
0.9373982150999999
 40
0.9530428834
 40
0.968699229
 40
0.9843530261999999
 40
1.0
 40
1.0
 40
1.0
 40
1.0
 10
2814.851744287759
 20
-2638.38099101097
 30
0.0
 10
2814.945896007006
 20
-2639.276869587509
 30
0.0
 10
2815.144019898284
 20
-2641.067618769528
 30
0.0
 10
2815.476239302423
 20
-2643.749649394791
 30
0.0
 10
2815.851413022481
 20
-2646.426088398009
 30
0.0
 10
2816.281783185363
 20
-2649.09426455263
 30
0.0
 10
2816.702689925465
 20
-2651.30721311631
 30
0.0
 10
2817.096390903355
 20
-2653.065542772111
 30
0.0
 10
2817.373813383822
 20
-2654.157230515069
 30
0.0
 10
2817.621974805197
 20
-2655.023403916071
 30
0.0
 10
2817.824281286545
 20
-2655.668266164572
 30
0.0
 10
2818.046894293179
 20
-2656.306525931992
 30
0.0
 10
2818.296195189041
 20
-2656.934965495529
 30
0.0
 10
2818.534600229122
 20
-2657.446002449069
 30
0.0
 10
2818.753299311657
 20
-2657.84036731693
 30
0.0
 10
2818.935450120839
 20
-2658.125683573834
 30
0.0
 10
2819.141882087957
 20
-2658.39446741523
 30
0.0
 10
2819.381178342921
 20
-2658.635801230251
 30
0.0
 10
2819.66645549398
 20
-2658.824407297033
 30
0.0
 10
2819.893498227599
 20
-2658.879271251309
 30
0.0
 10
2820.006281189746
 20
-2658.878903167209
 30
0.0
  0
SPLINE
  5
185
330
2
100
AcDbEntity
  8
0
  6
Continuous
 62
     7
100
AcDbSpline
210
0.0
220
0.0
230
1.0
 70
     8
 71
     3
 72
     9
 73
     5
 74
     0
 42
0.0000000001
 43
0.0000000001
 40
0.0
 40
0.0
 40
0.0
 40
0.0
 40
0.2463747588
 40
1.0
 40
1.0
 40
1.0
 40
1.0
 10
2814.710183920639
 20
-2637.694550575368
 30
0.0
 10
2814.726995438958
 20
-2637.749650703932
 30
0.0
 10
2814.790497869743
 20
-2637.974688643487
 30
0.0
 10
2814.833323303517
 20
-2638.205742646707
 30
0.0
 10
2814.851744287759
 20
-2638.38099101097
 30
0.0
  0
SPLINE
  5
186
330
2
100
AcDbEntity
  8
0
  6
Continuous
 62
     7
100
AcDbSpline
210
0.0
220
0.0
230
1.0
 70
     8
 71
     3
 72
     9
 73
     5
 74
     0
 42
0.0000000001
 43
0.0000000001
 40
0.0
 40
0.0
 40
0.0
 40
0.0
 40
0.2498896723
 40
1.0
 40
1.0
 40
1.0
 40
1.0
 10
2813.9353665701
 20
-2634.702005691793
 30
0.0
 10
2813.990375700619
 20
-2634.953587177449
 30
0.0
 10
2814.219128453684
 20
-2635.958418871112
 30
0.0
 10
2814.484580648199
 20
-2636.955172907572
 30
0.0
 10
2814.710183920639
 20
-2637.694550575368
 30
0.0
  0
LINE
  5
187
330
2
100
AcDbEntity
  8
0
  6
Continuous
 62
     7
100
AcDbLine
 10
2812.5717302067
 20
-2669.046601361112
 30
0.0
 11
2820.006281189746
 21
-2669.107156347952
 31
0.0
  0
SPLINE
  5
188
330
2
100
AcDbEntity
  8
0
  6
Continuous
 62
     7
100
AcDbSpline
210
0.0
220
0.0
230
1.0
 70
     8
 71
     3
 72
     9
 73
     5
 74
     0
 42
0.0000000001
 43
0.0000000001
 40
0.0
 40
0.0
 40
0.0
 40
0.0
 40
0.250175563
 40
1.0
 40
1.0
 40
1.0
 40
1.0
 10
2853.433276492078
 20
-2637.694550575368
 30
0.0
 10
2853.508520905978
 20
-2637.447950232912
 30
0.0
 10
2853.79731403426
 20
-2636.458595810811
 30
0.0
 10
2854.043030477044
 20
-2635.456920321154
 30
0.0
 10
2854.208093842624
 20
-2634.702005691793
 30
0.0
  0
SPLINE
  5
189
330
2
100
AcDbEntity
  8
0
  6
Continuous
 62
     7
100
AcDbSpline
210
0.0
220
0.0
230
1.0
 70
     8
 71
     3
 72
     9
 73
     5
 74
     0
 42
0.0000000001
 43
0.0000000001
 40
0.0
 40
0.0
 40
0.0
 40
0.0
 40
0.253439028
 40
1.0
 40
1.0
 40
1.0
 40
1.0
 10
2853.291716124959
 20
-2638.38099101097
 30
0.0
 10
2853.29791141864
 20
-2638.322052063569
 30
0.0
 10
2853.328433315942
 20
-2638.09014849893
 30
0.0
 10
2853.382330975483
 20
-2637.861525809108
 30
0.0
 10
2853.433276492078
 20
-2637.694550575368
 30
0.0
  0
SPLINE
  5
18A
330
2
100
AcDbEntity
  8
0
  6
Continuous
 62
     7
100
AcDbSpline
210
0.0
220
0.0
230
1.0
 70
     8
 71
     3
 72
    25
 73
    21
 74
     0
 42
0.0000000001
 43
0.0000000001
 40
0.0
 40
0.0
 40
0.0
 40
0.0
 40
0.0156496671
 40
0.0313052588
 40
0.0469629361
 40
0.0626079763
 40
0.0782487508
 40
0.093884565
 40
0.1251429093
 40
0.156397894
 40
0.18765014
 40
0.2189004991
 40
0.2501494815
 40
0.3126422541
 40
0.3751333474
 40
0.500107312
 40
0.6250810966
 40
0.7500543779000001
 40
0.8750272723
 40
1.0
 40
1.0
 40
1.0
 40
1.0
 10
2848.137179222979
 20
-2658.878903167209
 30
0.0
 10
2848.24998168216
 20
-2658.879271530713
 30
0.0
 10
2848.477049630363
 20
-2658.824394647828
 30
0.0
 10
2848.762402760442
 20
-2658.635812335135
 30
0.0
 10
2849.001616871801
 20
-2658.394359193451
 30
0.0
 10
2849.208118097103
 20
-2658.125612578293
 30
0.0
 10
2849.39021410324
 20
-2657.840247322252
 30
0.0
 10
2849.6089229597
 20
-2657.445885035031
 30
0.0
 10
2849.847325838238
 20
-2656.934844682973
 30
0.0
 10
2850.096605479377
 20
-2656.306400303594
 30
0.0
 10
2850.3192201167
 20
-2655.668145184368
 30
0.0
 10
2850.521522996324
 20
-2655.023286778891
 30
0.0
 10
2850.769680628025
 20
-2654.157118170867
 30
0.0
 10
2851.04709482554
 20
-2653.065435673009
 30
0.0
 10
2851.440788262184
 20
-2651.307117114473
 30
0.0
 10
2851.861693305564
 20
-2649.094184938869
 30
0.0
 10
2852.292056214198
 20
-2646.426027793609
 30
0.0
 10
2852.667227221546
 20
-2643.749608759871
 30
0.0
 10
2852.999442485483
 20
-2641.067598238707
 30
0.0
 10
2853.197565210898
 20
-2639.276862742216
 30
0.0
 10
2853.291716124959
 20
-2638.38099101097
 30
0.0
  0
LINE
  5
18B
330
2
100
AcDbEntity
  8
0
  6
Continuous
 62
     7
100
AcDbLine
 10
2848.137179222979
 20
-2669.107156347952
 30
0.0
 11
2848.137179222979
 21
-2669.60713731141
 31
0.0
  0
LINE
  5
18C
102
{ACAD_REACTORS
330
280
102
}
330
2
100
AcDbEntity
  8
0
  6
Continuous
 62
     7
100
AcDbLine
 10
2848.137179222979
 20
-2669.107156347952
 30
0.0
 11
2855.571730221261
 21
-2669.046601361112
 31
0.0
  0
LINE
  5
18D
330
2
100
AcDbEntity
  8
0
  6
Continuous
 62
     7
100
AcDbLine
 10
2820.006281189746
 20
-2669.107156347952
 30
0.0
 11
2820.006281189746
 21
-2669.60713731141
 31
0.0
  0
LINE
  5
18E
330
2
100
AcDbEntity
  8
0
  6
Continuous
 62
     7
100
AcDbLine
 10
2834.073184630683
 20
-2669.229865584373
 30
0.0
 11
2834.073184851661
 21
-2669.729871930052
 31
0.0
  0
SPLINE
  5
18F
330
2
100
AcDbEntity
  8
0
  6
Continuous
 62
     7
100
AcDbSpline
210
0.0
220
0.0
230
1.0
 70
     8
 71
     3
 72
    12
 73
     8
 74
     0
 42
0.0000000001
 43
0.0000000001
 40
0.0
 40
0.0
 40
0.0
 40
0.0
 40
0.0794202884
 40
0.1774835759
 40
0.4169703270000002
 40
0.6962803846
 40
1.0
 40
1.0
 40
1.0
 40
1.0
 10
2813.752562241783
 20
-2634.110076080629
 30
0.0
 10
2813.774269030977
 20
-2634.112164471171
 30
0.0
 10
2813.822054520877
 20
-2634.123412736709
 30
0.0
 10
2813.92934425804
 20
-2634.163610855456
 30
0.0
 10
2814.07988985738
 20
-2634.242373126169
 30
0.0
 10
2814.271544211182
 20
-2634.361896016413
 30
0.0
 10
2814.402809752561
 20
-2634.453686091914
 30
0.0
 10
2814.470268027597
 20
-2634.50271702509
 30
0.0
  0
SPLINE
  5
190
330
2
100
AcDbEntity
  8
0
  6
Continuous
 62
     7
100
AcDbSpline
210
0.0
220
0.0
230
1.0
 70
     8
 71
     3
 72
     9
 73
     5
 74
     0
 42
0.0000000001
 43
0.0000000001
 40
0.0
 40
0.0
 40
0.0
 40
0.0
 40
0.2451527707
 40
1.0
 40
1.0
 40
1.0
 40
1.0
 10
2814.470268027597
 20
-2634.50271702509
 30
0.0
 10
2814.498290242316
 20
-2634.523084756772
 30
0.0
 10
2814.611963080762
 20
-2634.607035081633
 30
0.0
 10
2814.723293388964
 20
-2634.694140218573
 30
0.0
 10
2814.806155615917
 20
-2634.761308989491
 30
0.0
  0
SPLINE
  5
191
330
2
100
AcDbEntity
  8
0
  6
Continuous
 62
     7
100
AcDbSpline
210
0.0
220
0.0
230
1.0
 70
     8
 71
     3
 72
     9
 73
     5
 74
     0
 42
0.0000000001
 43
0.0000000001
 40
0.0
 40
0.0
 40
0.0
 40
0.0
 40
0.5526153857000004
 40
1.0
 40
1.0
 40
1.0
 40
1.0
 10
2814.470268027597
 20
-2634.50271702509
 30
0.0
 10
2814.368208729562
 20
-2634.528869624555
 30
0.0
 10
2814.185565198484
 20
-2634.58414140885
 30
0.0
 10
2814.009365230837
 20
-2634.659587163471
 30
0.0
 10
2813.935366514222
 20
-2634.702005691793
 30
0.0
  0
SPLINE
  5
192
330
2
100
AcDbEntity
  8
0
  6
Continuous
 62
     7
100
AcDbSpline
210
0.0
220
0.0
230
1.0
 70
     8
 71
     3
 72
     9
 73
     5
 74
     0
 42
0.0000000001
 43
0.0000000001
 40
0.0
 40
0.0
 40
0.0
 40
0.0
 40
0.5354215877000002
 40
1.0
 40
1.0
 40
1.0
 40
1.0
 10
2815.416330240124
 20
-2637.435741854988
 30
0.0
 10
2815.285846477718
 20
-2637.468212803513
 30
0.0
 10
2815.04513961344
 20
-2637.541055202913
 30
0.0
 10
2814.812809572644
 20
-2637.639050145353
 30
0.0
 10
2814.710183689504
 20
-2637.694550575368
 30
0.0
  0
SPLINE
  5
193
330
2
100
AcDbEntity
  8
0
  6
Continuous
 62
     7
100
AcDbSpline
210
0.0
220
0.0
230
1.0
 70
     8
 71
     3
 72
     9
 73
     5
 74
     0
 42
0.0000000001
 43
0.0000000001
 40
0.0
 40
0.0
 40
0.0
 40
0.0
 40
0.5386821079000002
 40
1.0
 40
1.0
 40
1.0
 40
1.0
 10
2815.539015874865
 20
-2638.293838586851
 30
0.0
 10
2815.41511003936
 20
-2638.30513289243
 30
0.0
 10
2815.185426627762
 20
-2638.32978671155
 30
0.0
 10
2814.956670189162
 20
-2638.362454891074
 30
0.0
 10
2814.851744203939
 20
-2638.38099101097
 30
0.0
  0
LINE
  5
194
330
2
100
AcDbEntity
  8
0
  6
Continuous
 62
     7
100
AcDbLine
 10
2820.006281189746
 20
-2658.791750743093
 30
0.0
 11
2820.006281189746
 21
-2658.878903167209
 31
0.0
  0
LINE
  5
195
330
2
100
AcDbEntity
  8
0
  6
Continuous
 62
     7
100
AcDbLine
 10
2834.07173020636
 20
-2658.786391480247
 30
0.0
 11
2834.07173020636
 21
-2658.873543904374
 31
0.0
  0
LINE
  5
196
330
2
100
AcDbEntity
  8
0
  6
Continuous
 62
     7
100
AcDbLine
 10
2848.137179222979
 20
-2658.791750743093
 30
0.0
 11
2848.137179228058
 21
-2658.878903162128
 31
0.0
  0
SPLINE
  5
197
330
2
100
AcDbEntity
  8
0
  6
Continuous
 62
     7
100
AcDbSpline
210
0.0
220
0.0
230
1.0
 70
     8
 71
     3
 72
     9
 73
     5
 74
     0
 42
0.0000000001
 43
0.0000000001
 40
0.0
 40
0.0
 40
0.0
 40
0.0
 40
0.5386815332000002
 40
1.0
 40
1.0
 40
1.0
 40
1.0
 10
2852.604444499764
 20
-2638.293838985632
 30
0.0
 10
2852.728350355584
 20
-2638.30513330645
 30
0.0
 10
2852.958034051664
 20
-2638.329787084931
 30
0.0
 10
2853.186790805218
 20
-2638.362455035854
 30
0.0
 10
2853.29171708508
 20
-2638.38099101097
 30
0.0
  0
SPLINE
  5
198
330
2
100
AcDbEntity
  8
0
  6
Continuous
 62
     7
100
AcDbSpline
210
0.0
220
0.0
230
1.0
 70
     8
 71
     3
 72
    12
 73
     8
 74
     0
 42
0.0000000001
 43
0.0000000001
 40
0.0
 40
0.0
 40
0.0
 40
0.0
 40
0.3036219156
 40
0.5829280752
 40
0.8224407991999999
 40
0.9205837729999998
 40
1.0
 40
1.0
 40
1.0
 40
1.0
 10
2853.67319251974
 20
-2634.502716859991
 30
0.0
 10
2853.740628483416
 20
-2634.453701916114
 30
0.0
 10
2853.871867872959
 20
-2634.361923806547
 30
0.0
 10
2854.063505658345
 20
-2634.24242206689
 30
0.0
 10
2854.214060272136
 20
-2634.163609923271
 30
0.0
 10
2854.321387400642
 20
-2634.123439439728
 30
0.0
 10
2854.369187774946
 20
-2634.112165271275
 30
0.0
 10
2854.390893261117
 20
-2634.110076672453
 30
0.0
  0
SPLINE
  5
199
330
2
100
AcDbEntity
  8
0
  6
Continuous
 62
     7
100
AcDbSpline
210
0.0
220
0.0
230
1.0
 70
     8
 71
     3
 72
     9
 73
     5
 74
     0
 42
0.0000000001
 43
0.0000000001
 40
0.0
 40
0.0
 40
0.0
 40
0.0
 40
0.5526152407
 40
1.0
 40
1.0
 40
1.0
 40
1.0
 10
2853.67319251974
 20
-2634.502716859991
 30
0.0
 10
2853.775251911759
 20
-2634.528869431509
 30
0.0
 10
2853.957895656198
 20
-2634.584141210733
 30
0.0
 10
2854.134095809257
 20
-2634.659587064409
 30
0.0
 10
2854.208094604621
 20
-2634.702005691793
 30
0.0
  0
SPLINE
  5
19A
330
2
100
AcDbEntity
  8
0
  6
Continuous
 62
     7
100
AcDbSpline
210
0.0
220
0.0
230
1.0
 70
     8
 71
     3
 72
     9
 73
     5
 74
     0
 42
0.0000000001
 43
0.0000000001
 40
0.0
 40
0.0
 40
0.0
 40
0.0
 40
0.2541925805
 40
1.0
 40
1.0
 40
1.0
 40
1.0
 10
2853.337305226061
 20
-2634.761308641515
 30
0.0
 10
2853.365208688158
 20
-2634.738689878009
 30
0.0
 10
2853.475507946861
 20
-2634.650360895411
 30
0.0
 10
2853.587943370959
 20
-2634.564679540228
 30
0.0
 10
2853.67319251974
 20
-2634.502716859991
 30
0.0
  0
SPLINE
  5
19B
330
2
100
AcDbEntity
  8
0
  6
Continuous
 62
     7
100
AcDbSpline
210
0.0
220
0.0
230
1.0
 70
     8
 71
     3
 72
     9
 73
     5
 74
     0
 42
0.0000000001
 43
0.0000000001
 40
0.0
 40
0.0
 40
0.0
 40
0.0
 40
0.5354217137
 40
1.0
 40
1.0
 40
1.0
 40
1.0
 10
2852.727130190377
 20
-2637.435741385088
 30
0.0
 10
2852.857614206786
 20
-2637.46821207961
 30
0.0
 10
2853.098321436819
 20
-2637.541054326611
 30
0.0
 10
2853.330651637634
 20
-2637.639049744033
 30
0.0
 10
2853.433277419181
 20
-2637.694550575368
 30
0.0
  0
LINE
  5
19C
330
2
100
AcDbEntity
  8
0
  6
Continuous
 62
     7
100
AcDbLine
 10
2834.07173020636
 20
-2637.407362915055
 30
0.0
 11
2834.07173020636
 21
-2638.265646745847
 31
0.0
  0
SPLINE
  5
19D
330
2
100
AcDbEntity
  8
0
  6
Continuous
 62
     7
100
AcDbSpline
210
0.0
220
0.0
230
1.0
 70
     8
 71
     3
 72
     9
 73
     5
 74
     0
 42
0.0000000001
 43
0.0000000001
 40
0.0
 40
0.0
 40
0.0
 40
0.0
 40
0.2526539427
 40
1.0
 40
1.0
 40
1.0
 40
1.0
 10
2852.60444453786
 20
-2638.293838586851
 30
0.0
 10
2852.609765355259
 20
-2638.220998204215
 30
0.0
 10
2852.63600355018
 20
-2637.93308804851
 30
0.0
 10
2852.682451907882
 20
-2637.647105610573
 30
0.0
 10
2852.727130190377
 20
-2637.435741385088
 30
0.0
  0
SPLINE
  5
19E
330
2
100
AcDbEntity
  8
0
  6
Continuous
 62
     7
100
AcDbSpline
210
0.0
220
0.0
230
1.0
 70
     8
 71
     3
 72
     9
 73
     5
 74
     0
 42
0.0000000001
 43
0.0000000001
 40
0.0
 40
0.0
 40
0.0
 40
0.0
 40
0.2470573467
 40
1.0
 40
1.0
 40
1.0
 40
1.0
 10
2815.416330224882
 20
-2637.435741385088
 30
0.0
 10
2815.431099606061
 20
-2637.505612355329
 30
0.0
 10
2815.486477684283
 20
-2637.789328587488
 30
0.0
 10
2815.52315954894
 20
-2638.076769828709
 30
0.0
 10
2815.539015874865
 20
-2638.293838586851
 30
0.0
  0
SPLINE
  5
19F
330
2
100
AcDbEntity
  8
0
  6
Continuous
 62
     7
100
AcDbSpline
210
0.0
220
0.0
230
1.0
 70
     8
 71
     3
 72
    15
 73
    11
 74
     0
 42
0.0000000001
 43
0.0000000001
 40
0.0
 40
0.0
 40
0.0
 40
0.0
 40
0.1167416388
 40
0.1613427463
 40
0.2125881573
 40
0.3341867036
 40
0.4787113937
 40
0.6415949357999999
 40
0.8174937073999998
 40
1.0
 40
1.0
 40
1.0
 40
1.0
 10
2811.571730207719
 20
-2600.008861570469
 30
0.0
 10
2811.571730207719
 20
-2599.926191954251
 30
0.0
 10
2811.679238900501
 20
-2599.831989640756
 30
0.0
 10
2811.808340979102
 20
-2599.763075999053
 30
0.0
 10
2811.950992956941
 20
-2599.701664160988
 30
0.0
 10
2812.16592892026
 20
-2599.636359800868
 30
0.0
 10
2812.463777961335
 20
-2599.574045074088
 30
0.0
 10
2812.803016726599
 20
-2599.527516594633
 30
0.0
 10
2813.171205413638
 20
-2599.498437424951
 30
0.0
 10
2813.425037156422
 20
-2599.491535101952
 30
0.0
 10
2813.554277136698
 20
-2599.49124318991
 30
0.0
  0
SPLINE
  5
1A0
330
2
100
AcDbEntity
  8
0
  6
Continuous
 62
     7
100
AcDbSpline
210
0.0
220
0.0
230
1.0
 70
     8
 71
     3
 72
    23
 73
    19
 74
     0
 42
0.0000000001
 43
0.0000000001
 40
0.0
 40
0.0
 40
0.0
 40
0.0
 40
0.2074730732
 40
0.4003650291
 40
0.5730469529
 40
0.6504031635000001
 40
0.7210863893
 40
0.7846362168000001
 40
0.8405948546999999
 40
0.8885750510999999
 40
0.9282912991999999
 40
0.9594664605
 40
0.9717733425
 40
0.9818716447999999
 40
0.9897501014999999
 40
0.9953982706999999
 40
0.9988087172
 40
1.0
 40
1.0
 40
1.0
 40
1.0
 10
2813.554277136698
 20
-2599.49124318991
 30
0.0
 10
2813.553566442157
 20
-2599.388721936993
 30
0.0
 10
2813.552307582601
 20
-2599.190883775391
 30
0.0
 10
2813.550871679961
 20
-2598.907713694032
 30
0.0
 10
2813.550099451381
 20
-2598.688839143215
 30
0.0
 10
2813.549787757819
 20
-2598.530353501333
 30
0.0
 10
2813.549708283756
 20
-2598.425795932951
 30
0.0
 10
2813.549772223183
 20
-2598.331811294909
 30
0.0
 10
2813.54998056414
 20
-2598.249048013654
 30
0.0
 10
2813.550325666316
 20
-2598.178055773114
 30
0.0
 10
2813.550816079363
 20
-2598.11933135919
 30
0.0
 10
2813.551336959705
 20
-2598.078187882929
 30
0.0
 10
2813.551892089398
 20
-2598.051768044992
 30
0.0
 10
2813.552237399863
 20
-2598.036698893015
 30
0.0
 10
2813.552788854178
 20
-2598.025315590912
 30
0.0
 10
2813.552926463761
 20
-2598.016311570307
 30
0.0
 10
2813.553878189059
 20
-2598.012407082312
 30
0.0
 10
2813.553688481539
 20
-2598.008942862667
 30
0.0
 10
2813.554277136698
 20
-2598.008937724254
 30
0.0
  0
SPLINE
  5
1A1
330
2
100
AcDbEntity
  8
0
  6
Continuous
 62
     7
100
AcDbSpline
210
0.0
220
0.0
230
1.0
 70
     8
 71
     3
 72
    10
 73
     6
 74
     0
 42
0.0000000001
 43
0.0000000001
 40
0.0
 40
0.0
 40
0.0
 40
0.0
 40
0.2534173522
 40
0.4714928481000002
 40
1.0
 40
1.0
 40
1.0
 40
1.0
 10
2813.571730208222
 20
-2634.251076179633
 30
0.0
 10
2813.571730208222
 20
-2634.228790293287
 30
0.0
 10
2813.576359668101
 20
-2634.186437109014
 30
0.0
 10
2813.629208310182
 20
-2634.110120378231
 30
0.0
 10
2813.706298183943
 20
-2634.105625058291
 30
0.0
 10
2813.752562241783
 20
-2634.110076080629
 30
0.0
  0
SPLINE
  5
1A2
330
2
100
AcDbEntity
  8
0
  6
Continuous
 62
     7
100
AcDbSpline
210
0.0
220
0.0
230
1.0
 70
     8
 71
     3
 72
     9
 73
     5
 74
     0
 42
0.0000000001
 43
0.0000000001
 40
0.0
 40
0.0
 40
0.0
 40
0.0
 40
0.2493906935
 40
1.0
 40
1.0
 40
1.0
 40
1.0
 10
2813.752561401039
 20
-2634.110075951092
 30
0.0
 10
2813.764862600723
 20
-2634.160116552051
 30
0.0
 10
2813.816937182879
 20
-2634.360072453892
 30
0.0
 10
2813.880416746036
 20
-2634.557135420189
 30
0.0
 10
2813.9353665701
 20
-2634.702169567511
 30
0.0
  0
SPLINE
  5
1A3
330
2
100
AcDbEntity
  8
0
  6
Continuous
 62
     7
100
AcDbSpline
210
0.0
220
0.0
230
1.0
 70
     8
 71
     3
 72
    10
 73
     6
 74
     0
 42
0.0000000001
 43
0.0000000001
 40
0.0
 40
0.0
 40
0.0
 40
0.0
 40
0.5285101182
 40
0.7465842729000001
 40
1.0
 40
1.0
 40
1.0
 40
1.0
 10
2854.390893261117
 20
-2634.110076672453
 30
0.0
 10
2854.437158342577
 20
-2634.105624748412
 30
0.0
 10
2854.514250012117
 20
-2634.110118762789
 30
0.0
 10
2854.567100670955
 20
-2634.186436268275
 30
0.0
 10
2854.571730207036
 20
-2634.228790031669
 30
0.0
 10
2854.571730207036
 20
-2634.251076179633
 30
0.0
  0
SPLINE
  5
1A4
330
2
100
AcDbEntity
  8
0
  6
Continuous
 62
     7
100
AcDbSpline
210
0.0
220
0.0
230
1.0
 70
     8
 71
     3
 72
    23
 73
    19
 74
     0
 42
0.0000000001
 43
0.0000000001
 40
0.0
 40
0.0
 40
0.0
 40
0.0
 40
0.001191627
 40
0.0046029938
 40
0.0102524136
 40
0.0181322139
 40
0.0282317164
 40
0.0405394191
 40
0.0717163072
 40
0.1114357127
 40
0.1594176598
 40
0.2153751438
 40
0.2789244346
 40
0.3496073757
 40
0.4269628598
 40
0.5996429682
 40
0.7925293268000001
 40
1.0
 40
1.0
 40
1.0
 40
1.0
 10
2854.589183278558
 20
-2598.008937724254
 30
0.0
 10
2854.589772103902
 20
-2598.008942862667
 30
0.0
 10
2854.589581995062
 20
-2598.012408151655
 30
0.0
 10
2854.590534078498
 20
-2598.016313508328
 30
0.0
 10
2854.590671517902
 20
-2598.025319444092
 30
0.0
 10
2854.591223063663
 20
-2598.036704562295
 30
0.0
 10
2854.59156837666
 20
-2598.051775393211
 30
0.0
 10
2854.592123580022
 20
-2598.078197077731
 30
0.0
 10
2854.592644506078
 20
-2598.119343373389
 30
0.0
 10
2854.593134847995
 20
-2598.178071063915
 30
0.0
 10
2854.593479906997
 20
-2598.249065158653
 30
0.0
 10
2854.59368824796
 20
-2598.331828467853
 30
0.0
 10
2854.593752139119
 20
-2598.425812125453
 30
0.0
 10
2854.593672624421
 20
-2598.530368929292
 30
0.0
 10
2854.593360923241
 20
-2598.688853169093
 30
0.0
 10
2854.592588674337
 20
-2598.907723694011
 30
0.0
 10
2854.59115281996
 20
-2599.190888921428
 30
0.0
 10
2854.589893962943
 20
-2599.38872312571
 30
0.0
 10
2854.589183278558
 20
-2599.49124318991
 30
0.0
  0
SPLINE
  5
1A5
330
2
100
AcDbEntity
  8
0
  6
Continuous
 62
     7
100
AcDbSpline
210
0.0
220
0.0
230
1.0
 70
     8
 71
     3
 72
    15
 73
    11
 74
     0
 42
0.0000000001
 43
0.0000000001
 40
0.0
 40
0.0
 40
0.0
 40
0.0
 40
0.1825006284
 40
0.3583916385
 40
0.5212763105000004
 40
0.6658036884000002
 40
0.7874036626000001
 40
0.838649324
 40
0.8832520779000001
 40
1.0
 40
1.0
 40
1.0
 40
1.0
 10
2854.589183278558
 20
-2599.49124318991
 30
0.0
 10
2854.718419204999
 20
-2599.49153509433
 30
0.0
 10
2854.972241407539
 20
-2599.498435799353
 30
0.0
 10
2855.340421245218
 20
-2599.527514778528
 30
0.0
 10
2855.679657371418
 20
-2599.57404104311
 30
0.0
 10
2855.97751026822
 20
-2599.636354731032
 30
0.0
 10
2856.192450044075
 20
-2599.70165706423
 30
0.0
 10
2856.335104467939
 20
-2599.763069097869
 30
0.0
 10
2856.464212927023
 20
-2599.831982112195
 30
0.0
 10
2856.571730207538
 20
-2599.92618752957
 30
0.0
 10
2856.571730207538
 20
-2600.008861570469
 30
0.0
  0
SPLINE
  5
1A6
330
2
100
AcDbEntity
  8
0
  6
Continuous
 62
     7
100
AcDbSpline
210
0.0
220
0.0
230
1.0
 70
     8
 71
     3
 72
     9
 73
     5
 74
     0
 42
0.0000000001
 43
0.0000000001
 40
0.0
 40
0.0
 40
0.0
 40
0.0
 40
0.250781711
 40
1.0
 40
1.0
 40
1.0
 40
1.0
 10
2854.208093842624
 20
-2634.702005691793
 30
0.0
 10
2854.22643520294
 20
-2634.653555295932
 30
0.0
 10
2854.296376625158
 20
-2634.459154191212
 30
0.0
 10
2854.353938445516
 20
-2634.260371261371
 30
0.0
 10
2854.390892161299
 20
-2634.110075961249
 30
0.0
  0
LINE
  5
1A7
330
2
100
AcDbEntity
  8
0
  6
Continuous
 62
     7
100
AcDbLine
 10
2834.07173020636
 20
-2597.829884625415
 30
0.0
 11
2834.07173020636
 21
-2599.31219009107
 31
0.0
  0
SPLINE
  5
1A8
330
2
100
AcDbEntity
  8
0
  6
Continuous
 62
     7
100
AcDbSpline
210
0.0
220
0.0
230
1.0
 70
     8
 71
     3
 72
     8
 73
     4
 74
     0
 42
0.0000000001
 43
0.0000000001
 40
0.0
 40
0.0
 40
0.0
 40
0.0
 40
1.0
 40
1.0
 40
1.0
 40
1.0
 10
2852.727130190377
 20
-2637.435741385088
 30
0.0
 10
2852.96090022576
 20
-2636.551743633154
 30
0.0
 10
2853.161301394679
 20
-2635.658595165452
 30
0.0
 10
2853.337305226061
 20
-2634.761308641515
 30
0.0
  0
SPLINE
  5
1A9
330
2
100
AcDbEntity
  8
0
  6
Continuous
 62
     7
100
AcDbSpline
210
0.0
220
0.0
230
1.0
 70
     8
 71
     3
 72
    28
 73
    24
 74
     0
 42
0.0000000001
 43
0.0000000001
 40
0.0
 40
0.0
 40
0.0
 40
0.0
 40
0.0078520097
 40
0.0157087562
 40
0.0235527995
 40
0.0313835811
 40
0.0470234783
 40
0.0626579034
 40
0.0782892487
 40
0.0939182097
 40
0.1251678567
 40
0.156416185
 40
0.187663385
 40
0.2189097699
 40
0.2501555441
 40
0.3126441437
 40
0.3751322847
 40
0.4376200242000003
 40
0.5001074867000001
 40
0.6250801863000001
 40
0.7500532388
 40
0.8750265020999997
 40
1.0
 40
1.0
 40
1.0
 40
1.0
 10
2848.137179222979
 20
-2658.791750743093
 30
0.0
 10
2848.1931514072
 20
-2658.791879427113
 30
0.0
 10
2848.305611471836
 20
-2658.774208337232
 30
0.0
 10
2848.460611382821
 20
-2658.706308043769
 30
0.0
 10
2848.598558119878
 20
-2658.609469659853
 30
0.0
 10
2848.76229802862
 20
-2658.457077477971
 30
0.0
 10
2848.936784829757
 20
-2658.238052574394
 30
0.0
 10
2849.114619813177
 20
-2657.954536341833
 30
0.0
 10
2849.270687446182
 20
-2657.658641655493
 30
0.0
 10
2849.457403907896
 20
-2657.253903524153
 30
0.0
 10
2849.6605255997
 20
-2656.73487629195
 30
0.0
 10
2849.872835053155
 20
-2656.101086276834
 30
0.0
 10
2850.062458179122
 20
-2655.460208246935
 30
0.0
 10
2850.234853874465
 20
-2654.814556000012
 30
0.0
 10
2850.446432201623
 20
-2653.949077786852
 30
0.0
 10
2850.683108012237
 20
-2652.860719176173
 30
0.0
 10
2850.935313464137
 20
-2651.548323350372
 30
0.0
 10
2851.163069470402
 20
-2650.231495470951
 30
0.0
 10
2851.440617386225
 20
-2648.471465790615
 30
0.0
 10
2851.747425002223
 20
-2646.265363233051
 30
0.0
 10
2852.068848276062
 20
-2643.612090868791
 30
0.0
 10
2852.35365205494
 20
-2640.954658992912
 30
0.0
 10
2852.523638191977
 20
-2639.181028346629
 30
0.0
 10
2852.60444453786
 20
-2638.293838586851
 30
0.0
  0
SPLINE
  5
1AA
330
2
100
AcDbEntity
  8
0
  6
Continuous
 62
     7
100
AcDbSpline
210
0.0
220
0.0
230
1.0
 70
     8
 71
     3
 72
    28
 73
    24
 74
     0
 42
0.0000000001
 43
0.0000000001
 40
0.0
 40
0.0
 40
0.0
 40
0.0
 40
0.1249745456
 40
0.2499488502
 40
0.3749229353
 40
0.4998966477000001
 40
0.5623846138000001
 40
0.6248728736000003
 40
0.6873615005
 40
0.7498505448000003
 40
0.7810965383
 40
0.8123431551999999
 40
0.8435906262999999
 40
0.8748391495999998
 40
0.9060888402999999
 40
0.9217176165999999
 40
0.9373485328999999
 40
0.9529824348999998
 40
0.9686211808999999
 40
0.9764518416999999
 40
0.9842943922999999
 40
0.9921486938000001
 40
1.0
 40
1.0
 40
1.0
 40
1.0
 10
2815.539015874865
 20
-2638.293838586851
 30
0.0
 10
2815.619822962415
 20
-2639.18103544593
 30
0.0
 10
2815.789810128163
 20
-2640.954680293351
 30
0.0
 10
2816.074617559559
 20
-2643.612133164872
 30
0.0
 10
2816.396043619783
 20
-2646.265426346974
 30
0.0
 10
2816.702854814643
 20
-2648.471545965709
 30
0.0
 10
2816.980408448
 20
-2650.231588737209
 30
0.0
 10
2817.208162699122
 20
-2651.548427368452
 30
0.0
 10
2817.460378036698
 20
-2652.860831355268
 30
0.0
 10
2817.697057443957
 20
-2653.949197103349
 30
0.0
 10
2817.908639807176
 20
-2654.814680604788
 30
0.0
 10
2818.081041870298
 20
-2655.460336194352
 30
0.0
 10
2818.270664950536
 20
-2656.101219164549
 30
0.0
 10
2818.482982125602
 20
-2656.735010312513
 30
0.0
 10
2818.686111978424
 20
-2657.254034481473
 30
0.0
 10
2818.872842460938
 20
-2657.658762267395
 30
0.0
 10
2819.028925791137
 20
-2657.954637710692
 30
0.0
 10
2819.20674763006
 20
-2658.238148667667
 30
0.0
 10
2819.38127128914
 20
-2658.457120144888
 30
0.0
 10
2819.544967835
 20
-2658.609534861651
 30
0.0
 10
2819.682923893861
 20
-2658.706303189832
 30
0.0
 10
2819.837866444019
 20
-2658.774253549232
 30
0.0
 10
2819.950314039803
 20
-2658.791878004711
 30
0.0
 10
2820.006281189746
 20
-2658.791750743093
 30
0.0
  0
SPLINE
  5
1AB
330
2
100
AcDbEntity
  8
0
  6
Continuous
 62
     7
100
AcDbSpline
210
0.0
220
0.0
230
1.0
 70
     8
 71
     3
 72
     8
 73
     4
 74
     0
 42
0.0000000001
 43
0.0000000001
 40
0.0
 40
0.0
 40
0.0
 40
0.0
 40
1.0
 40
1.0
 40
1.0
 40
1.0
 10
2814.806155615917
 20
-2634.761308989491
 30
0.0
 10
2814.982159020578
 20
-2635.658595447393
 30
0.0
 10
2815.182561294396
 20
-2636.551743490912
 30
0.0
 10
2815.416330224882
 20
-2637.435741385088
 30
0.0
  0
ELLIPSE
  5
1AC
330
2
100
AcDbEntity
  8
0
  6
Continuous
 62
     7
100
AcDbEllipse
 10
2763.33194070832
 20
-2652.097833815991
 30
0.0
 11
2.806243041299997
 21
2.806243041299997
 31
0.0
210
0.0
220
0.0
230
1.0
 40
0.377964473
 41
2.7802255297
 42
3.5029597775
  0
ELLIPSE
  5
1AD
330
2
100
AcDbEntity
  8
0
  6
Continuous
 62
     7
100
AcDbEllipse
 10
2763.33194070832
 20
-2642.634365636029
 30
0.0
 11
-2.991565985359999
 21
0.4534477138800001
 31
0.0
210
0.0
220
0.0
230
0.9999999999999998
 40
0.4957470549000001
 41
-0.7375169856000002
 42
0.0750020883
  0
ELLIPSE
  5
1AE
330
2
100
AcDbEntity
  8
0
  6
Continuous
 62
     7
100
AcDbEllipse
 10
2733.867839093082
 20
-2642.634365636029
 30
0.0
 11
-2.991565985359999
 21
-0.4534477138800001
 31
0.0
210
0.0
220
0.0
230
0.9999999999999998
 40
0.4957470549000001
 41
3.066590565299998
 42
3.8791096391
  0
ELLIPSE
  5
1AF
330
2
100
AcDbEntity
  8
0
  6
Continuous
 62
     7
100
AcDbEllipse
 10
2733.867839093082
 20
-2652.097833815991
 30
0.0
 11
-2.806243041299997
 21
2.806243041299997
 31
0.0
210
0.0
220
0.0
230
1.0
 40
0.377964473
 41
2.7802255297
 42
3.5029597775
  0
ELLIPSE
  5
1B0
330
2
100
AcDbEntity
  8
0
  6
Continuous
 62
     7
100
AcDbEllipse
 10
2777.477428162785
 20
-2643.839503568651
 30
0.0
 11
0.0
 21
12.99038105754
 31
0.0
210
0.0
220
0.0
230
1.0
 40
0.5773502692
 41
-3.1415926536
 42
-2.529037915299999
  0
ELLIPSE
  5
1B1
330
2
100
AcDbEntity
  8
0
  6
Continuous
 62
     7
100
AcDbEllipse
 10
2719.722351638617
 20
-2643.839503568651
 30
0.0
 11
0.0
 21
12.99038105754
 31
0.0
210
0.0
220
0.0
230
1.0
 40
0.5773502692
 41
-3.7541473919
 42
-3.1415926536
  0
ELLIPSE
  5
1B2
330
2
100
AcDbEntity
  8
0
  6
Continuous
 62
     7
100
AcDbEllipse
 10
2780.100438532698
 20
-2634.447353422332
 30
0.0
 11
1.737883232379999
 21
1.038870386059999
 31
0.0
210
0.0
220
0.0
230
1.0
 40
0.8218631047
 41
-0.2208058478
 42
1.341263832699999
  0
ELLIPSE
  5
1B3
330
2
100
AcDbEntity
  8
0
  6
Continuous
 62
     7
100
AcDbEllipse
 10
2717.099341268697
 20
-2634.447353422332
 30
0.0
 11
-1.737883232379999
 21
1.038870386059999
 31
0.0
210
0.0
220
0.0
230
1.0
 40
0.8218631047
 41
-1.341263832699999
 42
0.2208058478
  0
ELLIPSE
  5
1B4
330
2
100
AcDbEntity
  8
0
  6
Continuous
 62
     7
100
AcDbEllipse
 10
2719.722351638617
 20
-2669.607708476134
 30
0.0
 11
6.700000001039995
 21
0.0
 31
0.0
210
0.0
220
0.0
230
1.0
 40
0.0087268678
 41
1.5707963268
 42
3.1328660073
  0
ELLIPSE
  5
1B5
330
2
100
AcDbEntity
  8
0
  6
Continuous
 62
     7
100
AcDbEllipse
 10
2777.477428162785
 20
-2669.607708476134
 30
0.0
 11
6.700000001039995
 21
0.0
 31
0.0
210
0.0
220
0.0
230
1.0
 40
0.0087268678
 41
0.0087266463
 42
1.5707963268
  0
ELLIPSE
  5
1B6
330
2
100
AcDbEntity
  8
0
  6
Continuous
 62
     7
100
AcDbEllipse
 10
2761.599889900137
 20
-2653.82988462417
 30
0.0
 11
2.806243041299997
 21
2.806243041299997
 31
0.0
210
0.0
220
0.0
230
1.0
 40
0.377964473
 41
-3.5029597775
 42
-2.7802255297
  0
ELLIPSE
  5
1B7
330
2
100
AcDbEntity
  8
0
  6
Continuous
 62
     7
100
AcDbEllipse
 10
2735.599889901258
 20
-2653.82988462417
 30
0.0
 11
2.806243041299997
 21
-2.806243041299997
 31
0.0
210
0.0
220
0.0
230
1.0
 40
0.377964473
 41
-0.3613671239
 42
0.3613671239
  0
ELLIPSE
  5
1B8
330
2
100
AcDbEntity
  8
0
  6
Continuous
 62
     7
100
AcDbEllipse
 10
2716.56007397792
 20
-2651.633732201648
 30
0.0
 11
0.0
 21
3.464101616359998
 31
0.0
210
0.0
220
0.0
230
1.0
 40
0.5773502692
 41
-3.7541473919
 42
-3.1415926536
  0
ELLIPSE
  5
1B9
330
2
100
AcDbEntity
  8
0
  6
Continuous
 62
     7
100
AcDbEllipse
 10
2780.639705823482
 20
-2651.633732201648
 30
0.0
 11
0.0
 21
3.464101616359998
 31
0.0
210
0.0
220
0.0
230
1.0
 40
0.5773502692
 41
-3.1415926536
 42
-2.529037915299999
  0
ELLIPSE
  5
1BA
330
2
100
AcDbEntity
  8
0
  6
Continuous
 62
     7
100
AcDbEllipse
 10
2813.571730208222
 20
-2634.447353422332
 30
0.0
 11
1.969945996599999
 21
-1.721346747799999
 31
0.0
210
0.0
220
0.0
230
1.0
 40
0.2006666032
 41
1.753101705599998
 42
3.315171386199998
  0
ELLIPSE
  5
1BB
330
2
100
AcDbEntity
  8
0
  6
Continuous
 62
     7
100
AcDbEllipse
 10
2854.571730207036
 20
-2634.447353422332
 30
0.0
 11
1.969945996599999
 21
1.721346747799999
 31
0.0
210
0.0
220
0.0
230
1.0
 40
0.2006666032
 41
-0.1735787326
 42
1.388490947899998
  0
MTEXT
  5
1BC
330
2
100
AcDbEntity
  8
图框
 62
     3
100
AcDbMText
 10
3012.591479070679
 20
-2776.24593613332
 30
0.0
 40
3.799999999999998
 41
50.41858798863206
 46
13.0301182585288
 71
     5
 72
     5
  1
WV10B-TEH-2B-PG21
  7
Romans字体
 73
     1
 44
1.0
1001
ACAD
1000
ACAD_MTEXT_DEFINED_HEIGHT_BEGIN
1070
    46
1040
13.0301182585288
1000
ACAD_MTEXT_DEFINED_HEIGHT_END
  0
MTEXT
  5
1C0
330
2
100
AcDbEntity
  8
图框
 62
     3
100
AcDbMText
 10
2910.510981674802
 20
-2809.376564541678
 30
0.0
 40
4.478270362551225
 41
16.2440226515857
 46
11.82914190181574
 71
     5
 72
     5
  1
2:3
  7
Romans字体
 73
     1
 44
1.0
1001
ACAD
1000
ACAD_MTEXT_DEFINED_HEIGHT_BEGIN
1070
    46
1040
11.82914190181574
1000
ACAD_MTEXT_DEFINED_HEIGHT_END
  0
INSERT
  5
1C1
330
2
100
AcDbEntity
  8
Dim
100
AcDbBlockReference
  2
A4图框-NEW
 10
1347.40801914945
 20
-3553.139177390681
 30
0.0
 41
1.5
 42
1.5
 43
1.5
  0
DIMENSION
  5
25F
102
{ACAD_XDICTIONARY
360
260
102
}
102
{ACAD_REACTORS
330
261
102
}
330
2
100
AcDbEntity
  8
Dim
100
AcDbDimension
  2
*D2
 10
2698.793900668972
 20
-2669.829884623093
 30
0.0
 11
2696.293900668973
 21
-2633.829877771246
 31
0.0
 71
     5
 42
72.00001370369363
 73
     0
 74
     0
 75
     0
  3
01
100
AcDbAlignedDimension
 13
2726.189715071849
 23
-2597.8298709194
 33
0.0
 14
2712.89992036352
 24
-2669.829884623093
 34
0.0
 50
90.0
100
AcDbRotatedDimension
  0
DIMENSION
  5
26F
102
{ACAD_XDICTIONARY
360
270
102
}
102
{ACAD_REACTORS
330
271
102
}
330
2
100
AcDbEntity
  8
Dim
100
AcDbDimension
  2
*D3
 10
2785.099889900297
 20
-2677.214667743771
 30
0.0
 11
2748.599889900701
 21
-2674.714667743771
 31
0.0
 71
     5
 42
72.99999999919235
 73
     0
 74
     0
 75
     0
  3
01
100
AcDbAlignedDimension
 13
2712.099889901105
 23
-2669.229878269129
 33
0.0
 14
2785.099889900297
 24
-2669.229878269129
 34
0.0
100
AcDbRotatedDimension
  0
DIMENSION
  5
27E
102
{ACAD_XDICTIONARY
360
27F
102
}
102
{ACAD_REACTORS
330
280
102
}
330
2
100
AcDbEntity
  8
Dim
100
AcDbDimension
  2
*D4
 10
2855.571730221261
 20
-2677.848432694649
 30
0.0
 11
2834.071738030827
 21
-2675.348432694648
 31
0.0
 71
     5
 42
42.99998438086503
 73
     0
 74
     0
 75
     0
  3
01
100
AcDbAlignedDimension
 13
2812.571745840395
 23
-2669.046601361841
 33
0.0
 14
2855.571730221261
 24
-2669.046601361112
 34
0.0
100
AcDbRotatedDimension
  0
DIMENSION
  5
28D
330
2
100
AcDbEntity
  8
Dim
100
AcDbDimension
  2
*D1
 10
2761.899889900702
 20
-2593.954713997554
 30
0.0
 11
2748.599889900701
 21
-2591.454713997555
 31
0.0
  1
PG21
 71
     5
 42
26.60000000000037
 73
     0
 74
     0
 75
     0
  3
01
100
AcDbAlignedDimension
 13
2735.299889900701
 23
-2597.829884625415
 33
0.0
 14
2761.899889900702
 24
-2597.829884625415
 34
0.0
100
AcDbRotatedDimension
  0
MTEXT
  5
29A
102
{ACAD_XDICTIONARY
360
BCD
102
}
330
2
100
AcDbEntity
  8
打标文字
 62
     3
100
AcDbMText
 10
2908.418545999773
 20
-2594.410009339735
 30
0.0
 40
4.5
 41
129.382227065222
 46
161.7354166437583
 71
     1
 72
     5
  3
\A1;{\f仿宋_GB2312|b0|i0|c134|p49;技术参数：}\P- {\f仿宋_GB2312|b0|i0|c134|p49;材料}: {\f仿宋_GB2312|b0|i0|c134|p49;压铸铝}\P- {\f仿宋_GB2312|b0|i0|c134|p49;表面处理}: {\f仿宋_GB2312|b0|i0|c134|p49;粉末喷涂}\P- {\f仿宋_GB2312|b0|i0|c134|p49;颜色}: RAL 7037{\f仿宋_GB2312|b0|i0|c134|p4
  3
9;（灰色）} \P- {\f仿宋_GB2312|b0|i0|c134|p49;温度范围}: -40{\f仿宋_GB2312|b0|i0|c134|p49;℃} - +125{\f仿宋_GB2312|b0|i0|c134|p49;℃}\P- {\f仿宋_GB2312|b0|i0|c134|p49;防护等级}: IP67{\f仿宋_GB2312|b0|i0|c134|p49;（联锁状态},IEC 60529)    \P- {\f仿宋_GB2312|b0|i0|c134|p49;出线方向}: {\
  3
f仿宋_GB2312|b0|i0|c134|p49;顶出线}\P- {\f仿宋_GB2312|b0|i0|c134|p49;出线孔数}: 1\P- {\f仿宋_GB2312|b0|i0|c134|p49;螺纹规格}: PG21\P\PTechnical specification:\P- Material: aluminium die-cast\P- Surface: powder-coated\P- Colour: RAL 7037(grey)\P- Temperature range: -4
  1
0{\f仿宋_GB2312|b0|i0|c134|p49;℃} - +125{\f仿宋_GB2312|b0|i0|c134|p49;℃}\P- Degree of protection: IP67\P  (acc.to IEC 60529 for coupled connector)\P- Cable entry: top entry\P- No. of cable entries: 1\P- Thread size: PG21
  7
Romans字体
 73
     1
 44
1.0
1001
ACAD
1000
ACAD_MTEXT_DEFINED_HEIGHT_BEGIN
1070
    46
1040
161.7354166437583
1000
ACAD_MTEXT_DEFINED_HEIGHT_END
  0
MTEXT
  5
29C
330
2
100
AcDbEntity
  8
图框
 62
     3
100
AcDbMText
 10
3012.591479070679
 20
-2789.276054391851
 30
0.0
 40
4.0
 41
50.41858798863206
 46
13.0301182585288
 71
     5
 72
     5
  1
1241104105003
  7
Romans字体
 73
     1
 44
1.0
1001
ACAD
1000
ACAD_MTEXT_DEFINED_HEIGHT_BEGIN
1070
    46
1040
13.0301182585288
1000
ACAD_MTEXT_DEFINED_HEIGHT_END
  0
LINE
  5
29D
330
2
100
AcDbEntity
  8
0
  6
Continuous
 62
     7
100
AcDbLine
 10
2704.099889901105
 20
-2659.229884623093
 30
0.0
 11
2704.099889901105
 21
-2668.029884623094
 31
0.0
  0
LINE
  5
29E
330
2
100
AcDbEntity
  8
0
  6
Continuous
 62
     7
100
AcDbLine
 10
2793.099889900297
 20
-2668.029884623094
 30
0.0
 11
2793.099889900297
 21
-2659.229884623093
 31
0.0
  0
CIRCLE
  5
29F
330
2
100
AcDbEntity
  8
0
  6
Continuous
 62
     7
100
AcDbCircle
 10
2834.07173020636
 20
-2663.629884623093
 30
0.0
 40
4.4
  0
LINE
  5
2A0
330
2
100
AcDbEntity
  8
0
  6
Continuous
 62
     7
100
AcDbLine
 10
2704.099889901105
 20
-2668.029884623094
 30
0.0
 11
2712.222637214656
 21
-2668.029884623094
 31
0.0
  0
LINE
  5
2A1
102
{ACAD_REACTORS
330
2A6
102
}
330
2
100
AcDbEntity
  8
0
  6
Continuous
 62
     7
100
AcDbLine
 10
2784.977142586746
 20
-2668.029884623094
 30
0.0
 11
2793.099889900297
 21
-2668.029884623094
 31
0.0
  0
LINE
  5
2A2
330
2
100
AcDbEntity
  8
0
  6
Continuous
 62
     7
100
AcDbLine
 10
2704.099889901105
 20
-2659.229884623093
 30
0.0
 11
2712.222637214656
 21
-2659.229884623093
 31
0.0
  0
LINE
  5
2A3
330
2
100
AcDbEntity
  8
0
  6
Continuous
 62
     7
100
AcDbLine
 10
2784.977142586746
 20
-2659.229884623093
 30
0.0
 11
2793.099889900297
 21
-2659.229884623093
 31
0.0
  0
DIMENSION
  5
2A4
102
{ACAD_XDICTIONARY
360
2A5
102
}
102
{ACAD_REACTORS
330
2A6
102
}
330
2
100
AcDbEntity
  8
Dim
100
AcDbDimension
  2
*D5
 10
2793.099889900297
 20
-2684.108467131833
 30
0.0
 11
2748.599889900701
 21
-2681.608467131833
 31
0.0
 71
     5
 42
88.99999999919236
 73
     0
 74
     0
 75
     0
  3
01
100
AcDbAlignedDimension
 13
2704.099889901105
 23
-2668.029884623094
 33
0.0
 14
2793.099889900297
 24
-2668.029884623094
 34
0.0
100
AcDbRotatedDimension
  0
LINE
  5
89A
330
2
100
AcDbEntity
  8
1
  6
Continuous
 62
     0
370
    20
100
AcDbLine
 10
2756.599909940032
 20
-2609.329884626507
 30
0.0
 11
2756.599909940032
 21
-2610.079884626492
 31
0.0
  0
LINE
  5
89B
330
2
100
AcDbEntity
  8
1
  6
Continuous
 62
     0
370
    20
100
AcDbLine
 10
2756.849909940039
 20
-2613.56193543406
 30
0.0
 11
2756.849909940039
 21
-2614.317353219274
 31
0.0
  0
LINE
  5
89C
330
2
100
AcDbEntity
  8
1
  6
Continuous
 62
     0
370
    20
100
AcDbLine
 10
2761.099909939716
 20
-2609.34241603374
 30
0.0
 11
2761.099909939716
 21
-2610.097833818914
 31
0.0
  0
LINE
  5
89D
330
2
100
AcDbEntity
  8
1
  6
Continuous
 62
     0
370
    20
100
AcDbLine
 10
2761.099909939716
 20
-2613.561935434051
 30
0.0
 11
2761.099909939716
 21
-2614.317353219272
 31
0.0
  0
LINE
  5
89E
330
2
100
AcDbEntity
  8
1
  6
Continuous
 62
     0
370
    20
100
AcDbLine
 10
2760.599909939975
 20
-2612.204884626484
 30
0.0
 11
2759.140560648577
 21
-2612.204884626482
 31
0.0
  0
LINE
  5
89F
330
2
100
AcDbEntity
  8
1
  6
Continuous
 62
     0
370
    20
100
AcDbLine
 10
2760.599909939973
 20
-2611.454884626484
 30
0.0
 11
2760.599909939975
 21
-2612.204884626484
 31
0.0
  0
LINE
  5
8A0
330
2
100
AcDbEntity
  8
1
  6
Continuous
 62
     0
370
    20
100
AcDbLine
 10
2759.140560648578
 20
-2611.454884626481
 30
0.0
 11
2760.599909939973
 21
-2611.454884626484
 31
0.0
  0
LINE
  5
8E8
330
2
100
AcDbEntity
  8
1
  6
Continuous
 62
     0
370
    20
100
AcDbLine
 10
2729.132871415224
 20
-2770.041781506349
 30
0.0000000000000036
 11
2728.823899419031
 21
-2770.100726540271
 31
0.0000000000000034
  0
LINE
  5
8E9
330
2
100
AcDbEntity
  8
1
  6
Continuous
 62
     0
370
    20
100
AcDbLine
 10
2728.994245215818
 20
-2779.026940440634
 30
0.0000000000000011
 11
2730.781974737134
 21
-2778.685881125955
 31
0.0000000000000018
  0
LINE
  5
8EA
330
2
100
AcDbEntity
  8
1
  6
Continuous
 62
     0
370
    20
100
AcDbLine
 10
2655.512120683671
 20
-2793.045670282718
 30
-0.0000000000000005
 11
2656.472292369703
 21
-2793.882877196157
 31
-0.0000000000000004
  0
LINE
  5
8EB
330
2
100
AcDbEntity
  8
1
  6
Continuous
 62
     0
370
    20
100
AcDbLine
 10
2649.70941346218
 20
-2772.292237819969
 30
0.0000000000000018
 11
2649.935974363905
 21
-2785.150691773782
 31
0.0000000000000017
  0
LINE
  5
8EC
330
2
100
AcDbEntity
  8
1
  6
Continuous
 62
     0
370
    20
100
AcDbLine
 10
2699.827562790469
 20
-2710.500630618097
 30
-0.0000000000000071
 11
2659.293740884881
 21
-2718.233588739332
 31
0.0
  0
LINE
  5
8ED
330
2
100
AcDbEntity
  8
1
  6
Continuous
 62
     0
370
    20
100
AcDbLine
 10
2710.074898717588
 20
-2717.79104287245
 30
0.0
 11
2701.4505401525
 21
-2710.902494707412
 31
0.0
  0
LINE
  5
8EE
330
2
100
AcDbEntity
  8
1
  6
Continuous
 62
     0
370
    20
100
AcDbLine
 10
2729.131334437559
 20
-2786.803306291397
 30
-0.0000000000000006
 11
2728.864542082402
 21
-2771.661517977969
 31
-0.0000000000000027
  0
LINE
  5
8EF
330
2
100
AcDbEntity
  8
1
  6
Continuous
 62
     0
370
    20
100
AcDbLine
 10
2657.721514712105
 20
-2719.740878098237
 30
0.0
 11
2650.096869858749
 21
-2752.205440744228
 31
0.0000000000000053
  0
LINE
  5
8F0
330
2
100
AcDbEntity
  8
1
  6
Continuous
 62
     0
370
    20
100
AcDbLine
 10
2655.442383316469
 20
-2784.100299346793
 30
-0.0000000000000029
 11
2648.148319223376
 21
-2785.491845702744
 31
-0.0000000000000044
  0
LINE
  5
8F1
330
2
100
AcDbEntity
  8
1
  6
Continuous
 62
     0
370
    20
100
AcDbLine
 10
2649.797422545285
 20
-2794.135945322349
 30
-0.000000000000004
 11
2657.091486638378
 21
-2792.744398966398
 31
-0.0000000000000027
  0
LINE
  5
8F2
330
2
100
AcDbEntity
  8
1
  6
Continuous
 62
     0
370
    20
100
AcDbLine
 10
2656.484764156087
 20
-2793.893259172296
 30
-0.0000000000000013
 11
2662.424284348905
 21
-2798.611710103914
 31
-0.0000000000000036
  0
LINE
  5
8F3
330
2
100
AcDbEntity
  8
1
  6
Continuous
 62
     0
370
    20
100
AcDbLine
 10
2672.072993574744
 20
-2799.834194936734
 30
-0.0000000000000027
 11
2724.626577948564
 21
-2789.808131565998
 31
-0.0000000000000027
  0
LINE
  5
8F4
330
2
100
AcDbEntity
  8
1
  6
Continuous
 62
     0
370
    20
100
AcDbLine
 10
2709.083062806672
 20
-2753.245753650179
 30
0.0
 11
2709.290274808163
 21
-2753.418246446858
 31
0.0000000000000018
  0
LINE
  5
8F5
330
2
100
AcDbEntity
  8
1
  6
Continuous
 62
     0
370
    20
100
AcDbLine
 10
2718.50396034286
 20
-2725.098582607379
 30
-0.0000000000000036
 11
2710.118963710275
 21
-2717.82772018565
 31
0.0
  0
LINE
  5
8F6
330
2
100
AcDbEntity
  8
1
  6
Continuous
 62
     0
370
    20
100
AcDbLine
 10
2727.89887648328
 20
-2755.637474754867
 30
-0.0000000000000018
 11
2719.110973072765
 21
-2726.040344662278
 31
-0.0000000000000071
  0
LINE
  5
8F7
330
2
100
AcDbEntity
  8
1
  6
Continuous
 62
     0
370
    20
100
AcDbLine
 10
2706.139377953444
 20
-2741.699376923266
 30
0.0000000000000036
 11
2706.346589954935
 21
-2741.871869719946
 31
-0.0000000000000036
  0
LINE
  5
8F8
330
2
100
AcDbEntity
  8
1
  6
Continuous
 62
     0
370
    20
100
AcDbLine
 10
2702.272138101586
 20
-2742.4371608877
 30
0.0000000000000036
 11
2702.479350103077
 21
-2742.609653684379
 31
-0.0000000000000036
  0
LINE
  5
8F9
330
2
100
AcDbEntity
  8
1
  6
Continuous
 62
     0
370
    20
100
AcDbLine
 10
2700.614816790184
 20
-2723.634506351686
 30
0.0000000000000019
 11
2700.759588171322
 21
-2724.132589666552
 31
0.0000000000000017
  0
LINE
  5
8FA
330
2
100
AcDbEntity
  8
1
  6
Continuous
 62
     0
370
    20
100
AcDbLine
 10
2650.457798305817
 20
-2779.16906375733
 30
-0.0000000000000022
 11
2650.5610903461
 21
-2785.031398933711
 31
-0.0000000000000025
  0
LINE
  5
8FB
330
2
100
AcDbEntity
  8
1
  6
Continuous
 62
     0
370
    20
100
AcDbLine
 10
2656.343395996942
 20
-2793.59066682791
 30
-0.0000000000000013
 11
2655.681290468327
 21
-2793.01335410973
 31
-0.0000000000000014
  0
LINE
  5
8FC
330
2
100
AcDbEntity
  8
1
  6
Continuous
 62
     0
370
    20
100
AcDbLine
 10
2656.175079097579
 20
-2784.03780667742
 30
-0.0000000000000013
 11
2650.457798305817
 21
-2779.16906375733
 31
0.0
  0
LINE
  5
8FD
330
2
100
AcDbEntity
  8
1
  6
Continuous
 62
     0
370
    20
100
AcDbLine
 10
2708.046587422962
 20
-2781.367472754963
 30
-0.0000000000000027
 11
2709.180073325257
 21
-2779.124140164084
 31
-0.0000000000000004
  0
LINE
  5
8FE
330
2
100
AcDbEntity
  8
1
  6
Continuous
 62
     0
370
    20
100
AcDbLine
 10
2727.540546089497
 20
-2756.586654228007
 30
0.0
 11
2727.861862348094
 21
-2774.822944268871
 31
0.0
  0
LINE
  5
8FF
330
2
100
AcDbEntity
  8
1
  6
Continuous
 62
     0
370
    20
100
AcDbLine
 10
2708.48542979261
 20
-2778.562526141952
 30
-0.0000000000000009
 11
2707.351943890313
 21
-2780.805858732833
 31
-0.0000000000000018
  0
LINE
  5
900
330
2
100
AcDbEntity
  8
1
  6
Continuous
 62
     0
370
    20
100
AcDbLine
 10
2657.477298011359
 20
-2764.715767512414
 30
0.0000000000000018
 11
2649.942793064497
 21
-2758.321175178552
 31
-0.0000000000000018
  0
LINE
  5
901
330
2
100
AcDbEntity
  8
1
  6
Continuous
 62
     0
370
    20
100
AcDbLine
 10
2650.459844313323
 20
-2779.088012499832
 30
-0.0000000000000004
 11
2656.177125105136
 21
-2783.956755419965
 31
-0.0000000000000016
  0
LINE
  5
902
330
2
100
AcDbEntity
  8
1
  6
Continuous
 62
     0
370
    20
100
AcDbLine
 10
2708.289512761016
 20
-2767.443263681907
 30
-0.0000000000000027
 11
2708.485429792606
 21
-2778.562526141954
 31
-0.0000000000000013
  0
LINE
  5
903
330
2
100
AcDbEntity
  8
1
  6
Continuous
 62
     0
370
    20
100
AcDbLine
 10
2726.976442423702
 20
-2775.728985932918
 30
0.0000000000000027
 11
2709.180073325256
 21
-2779.12414016409
 31
0.0000000000000013
  0
LINE
  5
904
330
2
100
AcDbEntity
  8
1
  6
Continuous
 62
     0
370
    20
100
AcDbLine
 10
2726.976442423702
 20
-2775.728985932918
 30
0.0000000000000018
 11
2726.637628656928
 21
-2756.499625589572
 31
-0.0000000000000018
  0
LINE
  5
905
330
2
100
AcDbEntity
  8
1
  6
Continuous
 62
     0
370
    20
100
AcDbLine
 10
2706.824792062352
 20
-2767.950174206403
 30
-0.0000000000000044
 11
2708.289512761013
 21
-2767.443263681905
 31
-0.0000000000000027
  0
LINE
  5
906
330
2
100
AcDbEntity
  8
1
  6
Continuous
 62
     0
370
    20
100
AcDbLine
 10
2724.42128207559
 20
-2789.936006034775
 30
0.0000000000000026
 11
2671.867697701764
 21
-2799.962069405512
 31
-0.0000000000000018
  0
LINE
  5
907
330
2
100
AcDbEntity
  8
1
  6
Continuous
 62
     0
370
    20
100
AcDbLine
 10
2724.42128207559
 20
-2789.936006034775
 30
0.0000000000000026
 11
2724.419724274197
 21
-2789.847593085607
 31
0.0000000000000026
  0
LINE
  5
908
330
2
100
AcDbEntity
  8
1
  6
Continuous
 62
     0
370
    20
100
AcDbLine
 10
2715.481815371357
 20
-2751.696400900704
 30
0.0
 11
2715.523257771654
 21
-2751.73089946004
 31
0.0000000000000018
  0
LINE
  5
909
330
2
100
AcDbEntity
  8
1
  6
Continuous
 62
     0
370
    20
100
AcDbLine
 10
2714.609086241774
 20
-2749.470142807674
 30
-0.0000000000000018
 11
2714.567643841474
 21
-2749.435644248336
 31
-0.0000000000000018
  0
LINE
  5
90A
330
2
100
AcDbEntity
  8
1
  6
Continuous
 62
     0
370
    20
100
AcDbLine
 10
2713.887464069814
 20
-2749.818858327913
 30
0.0
 11
2714.094676071305
 21
-2749.991351124593
 31
-0.0000000000000036
  0
LINE
  5
90B
330
2
100
AcDbEntity
  8
1
  6
Continuous
 62
     0
370
    20
100
AcDbLine
 10
2713.514091459341
 20
-2750.02921689373
 30
0.0
 11
2713.721303460832
 21
-2750.20170969041
 31
-0.0000000000000018
  0
LINE
  5
90C
330
2
100
AcDbEntity
  8
1
  6
Continuous
 62
     0
370
    20
100
AcDbLine
 10
2656.331041498138
 20
-2792.889487764912
 30
-0.0000000000000007
 11
2656.343395998379
 21
-2793.59066682794
 31
-0.0000000000000007
  0
LINE
  5
90D
330
2
100
AcDbEntity
  8
1
  6
Continuous
 62
     0
370
    20
100
AcDbLine
 10
2662.28215326263
 20
-2798.308511677873
 30
-0.0000000000000027
 11
2656.343395996946
 21
-2793.590666827912
 31
-0.0000000000000002
  0
LINE
  5
90E
330
2
100
AcDbEntity
  8
1
  6
Continuous
 62
     0
370
    20
100
AcDbLine
 10
2656.175079848526
 20
-2784.037807317301
 30
0.0000000000000011
 11
2656.180869805715
 21
-2784.366500035466
 31
0.0000000000000009
  0
LINE
  5
90F
330
2
100
AcDbEntity
  8
1
  6
Continuous
 62
     0
370
    20
100
AcDbLine
 10
2727.653867378908
 20
-2756.18878382525
 30
-0.0000000000000003
 11
2727.859091551008
 21
-2755.807029785664
 31
-0.0000000000000018
  0
LINE
  5
910
330
2
100
AcDbEntity
  8
1
  6
Continuous
 62
     0
370
    20
100
AcDbLine
 10
2709.125991376106
 20
-2766.365702532981
 30
0.0000000000000009
 11
2706.797497309511
 21
-2767.17154773587
 31
-0.0000000000000018
  0
LINE
  5
911
330
2
100
AcDbEntity
  8
1
  6
Continuous
 62
     0
370
    20
100
AcDbLine
 10
2709.125991376101
 20
-2766.365702532974
 30
-0.0000000000000018
 11
2726.637628656926
 21
-2756.499625589567
 31
-0.0000000000000018
  0
LINE
  5
912
330
2
100
AcDbEntity
  8
1
  6
Continuous
 62
     0
370
    20
100
AcDbLine
 10
2662.115917675885
 20
-2788.873818306778
 30
-0.0000000000000037
 11
2656.17507912682
 21
-2784.037806673025
 31
-0.0000000000000018
  0
LINE
  5
913
330
2
100
AcDbEntity
  8
1
  6
Continuous
 62
     0
370
    20
100
AcDbLine
 10
2714.231834593078
 20
-2751.80420387511
 30
-0.0000000000000018
 11
2714.439046594569
 21
-2751.97669667179
 31
-0.0000000000000036
  0
LINE
  5
914
330
2
100
AcDbEntity
  8
1
  6
Continuous
 62
     0
370
    20
100
AcDbLine
 10
2712.483112199323
 20
-2753.385873778159
 30
0.0
 11
2712.690324200814
 21
-2753.558366574839
 31
0.0000000000000018
  0
LINE
  5
915
330
2
100
AcDbEntity
  8
1
  6
Continuous
 62
     0
370
    20
100
AcDbLine
 10
2711.968409426294
 20
-2750.900055960548
 30
0.0
 11
2712.175621427785
 21
-2751.072548757227
 31
0.0
  0
LINE
  5
916
330
2
100
AcDbEntity
  8
1
  6
Continuous
 62
     0
370
    20
100
AcDbLine
 10
2711.56894066944
 20
-2751.125117125784
 30
-0.0000000000000036
 11
2711.77615267093
 21
-2751.297609922463
 31
-0.0000000000000036
  0
LINE
  5
917
330
2
100
AcDbEntity
  8
1
  6
Continuous
 62
     0
370
    20
100
AcDbLine
 10
2709.750187625096
 20
-2753.78574805201
 30
-0.0000000000000018
 11
2708.980207464429
 21
-2754.219555775881
 31
-0.0000000000000031
  0
LINE
  5
918
330
2
100
AcDbEntity
  8
1
  6
Continuous
 62
     0
370
    20
100
AcDbLine
 10
2711.411171976848
 20
-2753.989806154332
 30
0.0000000000000018
 11
2711.618383978338
 21
-2754.162298951011
 31
0.0
  0
LINE
  5
919
330
2
100
AcDbEntity
  8
1
  6
Continuous
 62
     0
370
    20
100
AcDbLine
 10
2711.618383978337
 20
-2754.162298951011
 30
-0.0000000000000018
 11
2710.704212448452
 21
-2751.901542298643
 31
-0.0000000000000018
  0
LINE
  5
91A
330
2
100
AcDbEntity
  8
1
  6
Continuous
 62
     0
370
    20
100
AcDbLine
 10
2712.007815324056
 20
-2753.94289287496
 30
-0.0000000000000018
 11
2711.61838397834
 21
-2754.162298951011
 31
-0.0000000000000018
  0
LINE
  5
91B
330
2
100
AcDbEntity
  8
1
  6
Continuous
 62
     0
370
    20
100
AcDbLine
 10
2711.093643794176
 20
-2751.682136222588
 30
0.0
 11
2712.007815324057
 21
-2753.942892874961
 31
0.0000000000000018
  0
LINE
  5
91C
330
2
100
AcDbEntity
  8
1
  6
Continuous
 62
     0
370
    20
100
AcDbLine
 10
2710.704212448451
 20
-2751.901542298638
 30
-0.0000000000000053
 11
2711.093643794173
 21
-2751.682136222583
 31
-0.0000000000000053
  0
LINE
  5
91D
330
2
100
AcDbEntity
  8
1
  6
Continuous
 62
     0
370
    20
100
AcDbLine
 10
2710.886431792682
 20
-2751.509643425905
 30
-0.0000000000000053
 11
2711.093643794172
 21
-2751.682136222584
 31
-0.0000000000000018
  0
LINE
  5
91E
330
2
100
AcDbEntity
  8
1
  6
Continuous
 62
     0
370
    20
100
AcDbLine
 10
2710.497000446965
 20
-2751.729049501955
 30
0.0000000000000036
 11
2710.704212448455
 21
-2751.901542298635
 31
0.0
  0
LINE
  5
91F
330
2
100
AcDbEntity
  8
1
  6
Continuous
 62
     0
370
    20
100
AcDbLine
 10
2714.609378844334
 20
-2752.477168942208
 30
-0.0000000000000018
 11
2712.345330106929
 21
-2751.571478930367
 31
-0.0000000000000018
  0
LINE
  5
920
330
2
100
AcDbEntity
  8
1
  6
Continuous
 62
     0
370
    20
100
AcDbLine
 10
2715.008847601188
 20
-2752.252107776969
 30
-0.0000000000000018
 11
2714.609378844333
 21
-2752.477168942205
 31
0.0000000000000018
  0
LINE
  5
921
330
2
100
AcDbEntity
  8
1
  6
Continuous
 62
     0
370
    20
100
AcDbLine
 10
2714.094676071307
 20
-2749.991351124594
 30
-0.0000000000000018
 11
2715.008847601188
 21
-2752.252107776967
 31
-0.0000000000000018
  0
LINE
  5
922
330
2
100
AcDbEntity
  8
1
  6
Continuous
 62
     0
370
    20
100
AcDbLine
 10
2713.721303460832
 20
-2750.20170969041
 30
-0.0000000000000018
 11
2714.094676071306
 21
-2749.991351124592
 31
-0.0000000000000036
  0
LINE
  5
923
330
2
100
AcDbEntity
  8
1
  6
Continuous
 62
     0
370
    20
100
AcDbLine
 10
2714.439046594568
 20
-2751.976696671789
 30
-0.0000000000000018
 11
2713.721303460832
 21
-2750.20170969041
 31
0.0
  0
LINE
  5
924
330
2
100
AcDbEntity
  8
1
  6
Continuous
 62
     0
370
    20
100
AcDbLine
 10
2712.175621427794
 20
-2751.072548757226
 30
-0.0000000000000036
 11
2714.439046594569
 21
-2751.976696671787
 31
-0.0000000000000018
  0
LINE
  5
925
330
2
100
AcDbEntity
  8
1
  6
Continuous
 62
     0
370
    20
100
AcDbLine
 10
2711.77615267093
 20
-2751.297609922463
 30
0.0
 11
2712.175621427793
 21
-2751.072548757222
 31
0.0
  0
LINE
  5
926
330
2
100
AcDbEntity
  8
1
  6
Continuous
 62
     0
370
    20
100
AcDbLine
 10
2712.690324200813
 20
-2753.558366574841
 30
-0.0000000000000036
 11
2711.776152670931
 21
-2751.297609922468
 31
0.0
  0
LINE
  5
927
330
2
100
AcDbEntity
  8
1
  6
Continuous
 62
     0
370
    20
100
AcDbLine
 10
2713.063696811286
 20
-2753.348008009024
 30
-0.0000000000000053
 11
2712.690324200812
 21
-2753.55836657484
 31
0.0
  0
LINE
  5
928
330
2
100
AcDbEntity
  8
1
  6
Continuous
 62
     0
370
    20
100
AcDbLine
 10
2712.345330106929
 20
-2751.571478930368
 30
0.0
 11
2713.063696811285
 21
-2753.348008009027
 31
-0.0000000000000018
  0
LINE
  5
929
330
2
100
AcDbEntity
  8
1
  6
Continuous
 62
     0
370
    20
100
AcDbLine
 10
2711.033784682562
 20
-2754.202426597708
 30
0.0
 11
2711.240996684052
 21
-2754.374919394388
 31
0.0000000000000018
  0
LINE
  5
92A
330
2
100
AcDbEntity
  8
1
  6
Continuous
 62
     0
370
    20
100
AcDbLine
 10
2708.915185207202
 20
-2752.620246059736
 30
-0.0000000000000089
 11
2709.122397208692
 21
-2752.792738856415
 31
0.0
  0
LINE
  5
92B
330
2
100
AcDbEntity
  8
1
  6
Continuous
 62
     0
370
    20
100
AcDbLine
 10
2671.866105690952
 20
-2799.871714902279
 30
-0.0000000000000012
 11
2671.867697701764
 21
-2799.962069405512
 31
-0.0000000000000018
  0
LINE
  5
92C
330
2
100
AcDbEntity
  8
1
  6
Continuous
 62
     0
370
    20
100
AcDbLine
 10
2708.495643031301
 20
-2752.85661661276
 30
-0.0000000000000018
 11
2708.702855032792
 21
-2753.029109409439
 31
0.0
  0
LINE
  5
92D
330
2
100
AcDbEntity
  8
1
  6
Continuous
 62
     0
370
    20
100
AcDbLine
 10
2708.279660020233
 20
-2755.754103656485
 30
0.0
 11
2708.486872021724
 21
-2755.926596453164
 31
-0.0000000000000036
  0
LINE
  5
92E
330
2
100
AcDbEntity
  8
1
  6
Continuous
 62
     0
370
    20
100
AcDbLine
 10
2709.957399626586
 20
-2753.958240848689
 30
-0.0000000000000018
 11
2709.397379051127
 21
-2753.505403069245
 31
0.0
  0
LINE
  5
92F
330
2
100
AcDbEntity
  8
1
  6
Continuous
 62
     0
370
    20
100
AcDbLine
 10
2708.960641393558
 20
-2754.519815603999
 30
-0.0000000000000018
 11
2709.957399626586
 21
-2753.958240848689
 31
-0.0000000000000053
  0
LINE
  5
930
330
2
100
AcDbEntity
  8
1
  6
Continuous
 62
     0
370
    20
100
AcDbLine
 10
2709.014557116256
 20
-2753.691996136366
 30
-0.0000000000000018
 11
2708.960641393558
 21
-2754.519815603999
 31
0.0
  0
LINE
  5
931
330
2
100
AcDbEntity
  8
1
  6
Continuous
 62
     0
370
    20
100
AcDbLine
 10
2710.177233418785
 20
-2754.133551771331
 30
-0.0000000000000036
 11
2708.946709677737
 21
-2754.826830287508
 31
-0.0000000000000036
  0
LINE
  5
932
330
2
100
AcDbEntity
  8
1
  6
Continuous
 62
     0
370
    20
100
AcDbLine
 10
2710.797365703683
 20
-2754.624861608053
 30
-0.0000000000000018
 11
2710.177233418784
 21
-2754.133551771332
 31
0.0
  0
LINE
  5
933
330
2
100
AcDbEntity
  8
1
  6
Continuous
 62
     0
370
    20
100
AcDbLine
 10
2711.240996684054
 20
-2754.374919394387
 30
-0.0000000000000036
 11
2710.797365703682
 21
-2754.624861608049
 31
-0.0000000000000036
  0
LINE
  5
934
330
2
100
AcDbEntity
  8
1
  6
Continuous
 62
     0
370
    20
100
AcDbLine
 10
2709.122397208696
 20
-2752.792738856417
 30
-0.0000000000000018
 11
2711.240996684054
 21
-2754.374919394388
 31
-0.0000000000000018
  0
LINE
  5
935
330
2
100
AcDbEntity
  8
1
  6
Continuous
 62
     0
370
    20
100
AcDbLine
 10
2708.702855032792
 20
-2753.029109409439
 30
-0.0000000000000036
 11
2709.122397208694
 21
-2752.792738856414
 31
0.0
  0
LINE
  5
936
330
2
100
AcDbEntity
  8
1
  6
Continuous
 62
     0
370
    20
100
AcDbLine
 10
2708.48687202173
 20
-2755.926596453162
 30
-0.0000000000000036
 11
2708.702855032795
 21
-2753.029109409443
 31
-0.0000000000000036
  0
LINE
  5
937
330
2
100
AcDbEntity
  8
1
  6
Continuous
 62
     0
370
    20
100
AcDbLine
 10
2708.900392171916
 20
-2755.693618716473
 30
0.0
 11
2708.486872021729
 21
-2755.926596453161
 31
0.0
  0
LINE
  5
938
330
2
100
AcDbEntity
  8
1
  6
Continuous
 62
     0
370
    20
100
AcDbLine
 10
2708.946709677738
 20
-2754.826830287511
 30
0.0
 11
2708.900392171918
 21
-2755.693618716475
 31
0.0
  0
LINE
  5
939
330
2
100
AcDbEntity
  8
1
  6
Continuous
 62
     0
370
    20
100
AcDbLine
 10
2707.477901741877
 20
-2753.430013246606
 30
-0.0000000000000036
 11
2707.685113743367
 21
-2753.602506043285
 31
-0.0000000000000018
  0
LINE
  5
93A
330
2
100
AcDbEntity
  8
1
  6
Continuous
 62
     0
370
    20
100
AcDbLine
 10
2707.085673088754
 20
-2753.650995328924
 30
-0.0000000000000018
 11
2707.292885090244
 21
-2753.823488125604
 31
-0.0000000000000018
  0
LINE
  5
93B
330
2
100
AcDbEntity
  8
1
  6
Continuous
 62
     0
370
    20
100
AcDbLine
 10
2707.209037273063
 20
-2756.357293765528
 30
-0.0000000000000053
 11
2707.416249274553
 21
-2756.529786562208
 31
-0.0000000000000018
  0
LINE
  5
93C
330
2
100
AcDbEntity
  8
1
  6
Continuous
 62
     0
370
    20
100
AcDbLine
 10
2704.869355364478
 20
-2758.468559566675
 30
-0.0000000000000018
 11
2704.910797764776
 21
-2758.50305812601
 31
0.0000000000000018
  0
LINE
  5
93D
330
2
100
AcDbEntity
  8
1
  6
Continuous
 62
     0
370
    20
100
AcDbLine
 10
2715.104846395301
 20
-2752.759719194263
 30
0.0000000000000018
 11
2715.063403995003
 21
-2752.725220634927
 31
-0.0000000000000018
  0
LINE
  5
93E
330
2
100
AcDbEntity
  8
1
  6
Continuous
 62
     0
370
    20
100
AcDbLine
 10
2705.82783617574
 20
-2754.359662118159
 30
0.0
 11
2706.035048177231
 21
-2754.532154914838
 31
-0.0000000000000036
  0
LINE
  5
93F
330
2
100
AcDbEntity
  8
1
  6
Continuous
 62
     0
370
    20
100
AcDbLine
 10
2705.358109399789
 20
-2754.624306733599
 30
-0.0000000000000036
 11
2705.56532140128
 21
-2754.796799530279
 31
-0.0000000000000036
  0
LINE
  5
940
330
2
100
AcDbEntity
  8
1
  6
Continuous
 62
     0
370
    20
100
AcDbLine
 10
2715.609975673962
 20
-2753.962165607732
 30
0.0000000000000036
 11
2717.938171805001
 21
-2754.946011855671
 31
0.0
  0
LINE
  5
941
330
2
100
AcDbEntity
  8
1
  6
Continuous
 62
     0
370
    20
100
AcDbLine
 10
2705.975599031779
 20
-2761.685739336306
 30
-0.0000000000000071
 11
2705.25512278391
 21
-2759.796101790128
 31
-0.0000000000000018
  0
LINE
  5
942
330
2
100
AcDbEntity
  8
1
  6
Continuous
 62
     0
370
    20
100
AcDbLine
 10
2705.389034003534
 20
-2757.382685738105
 30
-0.0000000000000018
 11
2705.596246005024
 21
-2757.555178534784
 31
0.0
  0
LINE
  5
943
330
2
100
AcDbEntity
  8
1
  6
Continuous
 62
     0
370
    20
100
AcDbLine
 10
2704.093460451701
 20
-2755.33681143137
 30
-0.0000000000000053
 11
2704.300672453192
 21
-2755.509304228049
 31
-0.0000000000000018
  0
LINE
  5
944
330
2
100
AcDbEntity
  8
1
  6
Continuous
 62
     0
370
    20
100
AcDbLine
 10
2703.693991968917
 20
-2755.561872442194
 30
-0.0000000000000018
 11
2703.901203970408
 21
-2755.734365238873
 31
0.0000000000000018
  0
LINE
  5
945
330
2
100
AcDbEntity
  8
1
  6
Continuous
 62
     0
370
    20
100
AcDbLine
 10
2707.416249274553
 20
-2756.529786562208
 30
-0.0000000000000036
 11
2706.09958223285
 21
-2755.156859574518
 31
-0.0000000000000053
  0
LINE
  5
946
330
2
100
AcDbEntity
  8
1
  6
Continuous
 62
     0
370
    20
100
AcDbLine
 10
2707.792318742728
 20
-2756.3179085836
 30
0.0
 11
2707.416249274552
 21
-2756.529786562206
 31
-0.0000000000000018
  0
LINE
  5
947
330
2
100
AcDbEntity
  8
1
  6
Continuous
 62
     0
370
    20
100
AcDbLine
 10
2707.685113743367
 20
-2753.602506043285
 30
0.0
 11
2707.792318742728
 21
-2756.3179085836
 31
0.0000000000000018
  0
LINE
  5
948
330
2
100
AcDbEntity
  8
1
  6
Continuous
 62
     0
370
    20
100
AcDbLine
 10
2707.292885090244
 20
-2753.823488125604
 30
-0.0000000000000018
 11
2707.685113743367
 21
-2753.602506043285
 31
-0.0000000000000036
  0
LINE
  5
949
330
2
100
AcDbEntity
  8
1
  6
Continuous
 62
     0
370
    20
100
AcDbLine
 10
2707.418584490467
 20
-2755.536046320374
 30
0.0
 11
2707.292885090244
 21
-2753.823488125604
 31
-0.0000000000000053
  0
LINE
  5
94A
330
2
100
AcDbEntity
  8
1
  6
Continuous
 62
     0
370
    20
100
AcDbLine
 10
2706.035048177233
 20
-2754.532154914843
 30
0.0000000000000018
 11
2706.944092466379
 21
-2755.464338855713
 31
0.0000000000000018
  0
LINE
  5
94B
330
2
100
AcDbEntity
  8
1
  6
Continuous
 62
     0
370
    20
100
AcDbLine
 10
2705.565321401278
 20
-2754.79679953028
 30
-0.0000000000000036
 11
2706.035048177231
 21
-2754.532154914838
 31
0.0
  0
LINE
  5
94C
330
2
100
AcDbEntity
  8
1
  6
Continuous
 62
     0
370
    20
100
AcDbLine
 10
2705.622609140967
 20
-2756.639047907535
 30
-0.0000000000000036
 11
2705.56532140128
 21
-2754.796799530283
 31
-0.0000000000000053
  0
LINE
  5
94D
330
2
100
AcDbEntity
  8
1
  6
Continuous
 62
     0
370
    20
100
AcDbLine
 10
2704.300672453192
 20
-2755.509304228048
 30
0.0
 11
2705.347578235863
 21
-2756.739085375262
 31
0.0
  0
LINE
  5
94E
330
2
100
AcDbEntity
  8
1
  6
Continuous
 62
     0
370
    20
100
AcDbLine
 10
2703.901203970407
 20
-2755.734365238873
 30
-0.0000000000000036
 11
2704.300672453193
 21
-2755.509304228048
 31
0.0000000000000018
  0
LINE
  5
94F
330
2
100
AcDbEntity
  8
1
  6
Continuous
 62
     0
370
    20
100
AcDbLine
 10
2705.596246005024
 20
-2757.555178534788
 30
0.0000000000000036
 11
2703.901203970407
 21
-2755.734365238873
 31
0.0
  0
LINE
  5
950
330
2
100
AcDbEntity
  8
1
  6
Continuous
 62
     0
370
    20
100
AcDbLine
 10
2705.993707069162
 20
-2757.331248505974
 30
-0.0000000000000036
 11
2705.596246005023
 21
-2757.555178534786
 31
-0.0000000000000036
  0
LINE
  5
951
330
2
100
AcDbEntity
  8
1
  6
Continuous
 62
     0
370
    20
100
AcDbLine
 10
2705.922887332452
 20
-2755.297927740292
 30
0.0
 11
2705.993707069163
 21
-2757.331248505977
 31
0.0
  0
LINE
  5
952
330
2
100
AcDbEntity
  8
1
  6
Continuous
 62
     0
370
    20
100
AcDbLine
 10
2689.153168116856
 20
-2784.277783271351
 30
-0.0000000000000004
 11
2687.134533591632
 21
-2782.635805650545
 31
0.0000000000000016
  0
LINE
  5
953
330
2
100
AcDbEntity
  8
1
  6
Continuous
 62
     0
370
    20
100
AcDbLine
 10
2711.968409426299
 20
-2750.900055960545
 30
-0.0000000000000036
 11
2711.56894066944
 21
-2751.125117125784
 31
-0.0000000000000036
  0
LINE
  5
954
330
2
100
AcDbEntity
  8
1
  6
Continuous
 62
     0
370
    20
100
AcDbLine
 10
2714.231834593078
 20
-2751.80420387511
 30
-0.0000000000000018
 11
2711.9684094263
 21
-2750.900055960548
 31
-0.0000000000000036
  0
LINE
  5
955
330
2
100
AcDbEntity
  8
1
  6
Continuous
 62
     0
370
    20
100
AcDbLine
 10
2713.514091459341
 20
-2750.029216893731
 30
0.0
 11
2714.231834593077
 21
-2751.80420387511
 31
-0.0000000000000036
  0
LINE
  5
956
330
2
100
AcDbEntity
  8
1
  6
Continuous
 62
     0
370
    20
100
AcDbLine
 10
2713.887464069815
 20
-2749.818858327913
 30
0.0
 11
2713.514091459341
 21
-2750.02921689373
 31
-0.0000000000000053
  0
LINE
  5
957
330
2
100
AcDbEntity
  8
1
  6
Continuous
 62
     0
370
    20
100
AcDbLine
 10
2711.568940669441
 20
-2751.125117125788
 30
-0.0000000000000036
 11
2712.483112199323
 21
-2753.385873778161
 31
-0.0000000000000036
  0
LINE
  5
958
330
2
100
AcDbEntity
  8
1
  6
Continuous
 62
     0
370
    20
100
AcDbLine
 10
2710.886431792683
 20
-2751.509643425904
 30
-0.0000000000000036
 11
2710.497000446962
 21
-2751.729049501958
 31
0.0
  0
LINE
  5
959
330
2
100
AcDbEntity
  8
1
  6
Continuous
 62
     0
370
    20
100
AcDbLine
 10
2710.497000446964
 20
-2751.729049501963
 30
0.0
 11
2711.411171976848
 21
-2753.989806154329
 31
-0.0000000000000018
  0
LINE
  5
95A
330
2
100
AcDbEntity
  8
1
  6
Continuous
 62
     0
370
    20
100
AcDbLine
 10
2708.915185207203
 20
-2752.620246059735
 30
-0.0000000000000036
 11
2708.495643031299
 21
-2752.856616612761
 31
-0.0000000000000018
  0
LINE
  5
95B
330
2
100
AcDbEntity
  8
1
  6
Continuous
 62
     0
370
    20
100
AcDbLine
 10
2711.033784682565
 20
-2754.202426597711
 30
-0.0000000000000036
 11
2708.915185207206
 21
-2752.620246059738
 31
0.0
  0
LINE
  5
95C
330
2
100
AcDbEntity
  8
1
  6
Continuous
 62
     0
370
    20
100
AcDbLine
 10
2708.495643031301
 20
-2752.856616612764
 30
-0.0000000000000036
 11
2708.279660020236
 21
-2755.754103656484
 31
-0.0000000000000018
  0
LINE
  5
95D
330
2
100
AcDbEntity
  8
1
  6
Continuous
 62
     0
370
    20
100
AcDbLine
 10
2704.093460451702
 20
-2755.336811431369
 30
-0.0000000000000018
 11
2703.693991968917
 21
-2755.561872442194
 31
-0.0000000000000018
  0
LINE
  5
95E
330
2
100
AcDbEntity
  8
1
  6
Continuous
 62
     0
370
    20
100
AcDbLine
 10
2705.35810939979
 20
-2754.624306733605
 30
0.0
 11
2705.415397139476
 21
-2756.466555110856
 31
-0.0000000000000018
  0
LINE
  5
95F
330
2
100
AcDbEntity
  8
1
  6
Continuous
 62
     0
370
    20
100
AcDbLine
 10
2705.82783617574
 20
-2754.359662118159
 30
0.0
 11
2705.358109399788
 21
-2754.6243067336
 31
-0.0000000000000018
  0
LINE
  5
960
330
2
100
AcDbEntity
  8
1
  6
Continuous
 62
     0
370
    20
100
AcDbLine
 10
2707.085673088754
 20
-2753.650995328924
 30
0.0
 11
2707.211372489117
 21
-2755.363553525604
 31
-0.0000000000000018
  0
LINE
  5
961
330
2
100
AcDbEntity
  8
1
  6
Continuous
 62
     0
370
    20
100
AcDbLine
 10
2707.477901741877
 20
-2753.430013246606
 30
-0.0000000000000036
 11
2707.085673088754
 21
-2753.650995328924
 31
-0.0000000000000036
  0
LINE
  5
962
330
2
100
AcDbEntity
  8
1
  6
Continuous
 62
     0
370
    20
100
AcDbLine
 10
2705.905701485988
 20
-2754.998267664455
 30
-0.0000000000000053
 11
2707.209037273063
 21
-2756.357293765528
 31
-0.0000000000000018
  0
LINE
  5
963
330
2
100
AcDbEntity
  8
1
  6
Continuous
 62
     0
370
    20
100
AcDbLine
 10
2703.693991968917
 20
-2755.561872442193
 30
0.0
 11
2705.389034003535
 21
-2757.382685738108
 31
-0.0000000000000036
  0
LINE
  5
964
330
2
100
AcDbEntity
  8
1
  6
Continuous
 62
     0
370
    20
100
AcDbLine
 10
2715.063403995005
 20
-2752.725220634934
 30
-0.0000000000000018
 11
2704.869355364479
 21
-2758.468559566678
 31
-0.0000000000000018
  0
LINE
  5
965
330
2
100
AcDbEntity
  8
1
  6
Continuous
 62
     0
370
    20
100
AcDbLine
 10
2714.567643841476
 20
-2749.435644248338
 30
-0.0000000000000053
 11
2715.481815371355
 21
-2751.696400900705
 31
0.0
  0
LINE
  5
966
330
2
100
AcDbEntity
  8
1
  6
Continuous
 62
     0
370
    20
100
AcDbLine
 10
2688.930406470646
 20
-2771.63495589593
 30
-0.0000000000000027
 11
2689.433895640485
 21
-2771.267973204835
 31
-0.0000000000000018
  0
LINE
  5
967
330
2
100
AcDbEntity
  8
1
  6
Continuous
 62
     0
370
    20
100
AcDbLine
 10
2706.824792062354
 20
-2767.950174206397
 30
-0.0000000000000018
 11
2707.129182244091
 21
-2768.163031357415
 31
-0.0000000000000009
  0
LINE
  5
968
330
2
100
AcDbEntity
  8
1
  6
Continuous
 62
     0
370
    20
100
AcDbLine
 10
2686.938616560047
 20
-2771.516543190495
 30
-0.0000000000000018
 11
2689.433895640484
 21
-2771.267973204833
 31
-0.0000000000000027
  0
LINE
  5
969
330
2
100
AcDbEntity
  8
1
  6
Continuous
 62
     0
370
    20
100
AcDbLine
 10
2704.479529668657
 20
-2760.083606358267
 30
0.0000000000000018
 11
2705.200005919014
 21
-2761.973243910972
 31
0.0
  0
LINE
  5
96A
330
2
100
AcDbEntity
  8
1
  6
Continuous
 62
     0
370
    20
100
AcDbLine
 10
2700.162622089785
 20
-2710.614418054662
 30
-0.0000000000000036
 11
2708.787782839217
 21
-2717.503606949726
 31
-0.0000000000000036
  0
LINE
  5
96B
330
2
100
AcDbEntity
  8
1
  6
Continuous
 62
     0
370
    20
100
AcDbLine
 10
2700.162622089783
 20
-2710.614418054658
 30
0.0000000000000036
 11
2659.628800184195
 21
-2718.347376175893
 31
0.0000000000000071
  0
LINE
  5
96C
330
2
100
AcDbEntity
  8
1
  6
Continuous
 62
     0
370
    20
100
AcDbLine
 10
2691.443219096472
 20
-2764.597735049024
 30
0.0
 11
2691.278546723915
 21
-2762.602062390081
 31
0.0
  0
LINE
  5
96D
330
2
100
AcDbEntity
  8
1
  6
Continuous
 62
     0
370
    20
100
AcDbLine
 10
2686.464268941263
 20
-2783.457814013071
 30
-0.0000000000000011
 11
2688.482903466484
 21
-2785.099791633874
 31
-0.000000000000002
  0
LINE
  5
96E
330
2
100
AcDbEntity
  8
1
  6
Continuous
 62
     0
370
    20
100
AcDbLine
 10
2719.326059885577
 20
-2751.971781424262
 30
0.0
 11
2716.997863752988
 21
-2750.987935175668
 31
0.0000000000000036
  0
LINE
  5
96F
330
2
100
AcDbEntity
  8
1
  6
Continuous
 62
     0
370
    20
100
AcDbLine
 10
2668.003656848634
 20
-2725.284309860797
 30
-0.0000000000000107
 11
2659.628800184196
 21
-2718.347376175898
 31
-0.0000000000000036
  0
LINE
  5
970
330
2
100
AcDbEntity
  8
1
  6
Continuous
 62
     0
370
    20
100
AcDbLine
 10
2708.201679532618
 20
-2741.50474873442
 30
0.0
 11
2707.994467531127
 21
-2741.332255937741
 31
-0.0000000000000071
  0
LINE
  5
971
330
2
100
AcDbEntity
  8
1
  6
Continuous
 62
     0
370
    20
100
AcDbLine
 10
2707.712465109465
 20
-2739.647971739157
 30
0.0000000000000036
 11
2707.505253107974
 21
-2739.475478942477
 31
0.0000000000000036
  0
LINE
  5
972
330
2
100
AcDbEntity
  8
1
  6
Continuous
 62
     0
370
    20
100
AcDbLine
 10
2712.975114905905
 20
-2736.423595313184
 30
-0.0000000000000036
 11
2714.619285805272
 21
-2734.930932476983
 31
0.0
  0
LINE
  5
973
330
2
100
AcDbEntity
  8
1
  6
Continuous
 62
     0
370
    20
100
AcDbLine
 10
2708.133101421485
 20
-2737.61260107116
 30
0.0
 11
2707.925889419994
 21
-2737.44010827448
 31
0.0
  0
LINE
  5
974
330
2
100
AcDbEntity
  8
1
  6
Continuous
 62
     0
370
    20
100
AcDbLine
 10
2708.133101421485
 20
-2737.612601071195
 30
0.0000000000000036
 11
2708.145378915652
 21
-2738.309409709421
 31
-0.0000000000000036
  0
LINE
  5
975
330
2
100
AcDbEntity
  8
1
  6
Continuous
 62
     0
370
    20
100
AcDbLine
 10
2708.201679532618
 20
-2741.504748734385
 30
-0.0000000000000071
 11
2708.213957026784
 21
-2742.201557372654
 31
-0.0000000000000071
  0
LINE
  5
976
330
2
100
AcDbEntity
  8
1
  6
Continuous
 62
     0
370
    20
100
AcDbLine
 10
2707.724654550601
 20
-2740.339782931487
 30
-0.0000000000000036
 11
2706.396736024136
 21
-2740.59312046224
 31
-0.0000000000000071
  0
LINE
  5
977
330
2
100
AcDbEntity
  8
1
  6
Continuous
 62
     0
370
    20
100
AcDbLine
 10
2707.712465109465
 20
-2739.647971739157
 30
0.0000000000000036
 11
2707.724654550601
 21
-2740.339782931487
 31
-0.0000000000000036
  0
LINE
  5
978
330
2
100
AcDbEntity
  8
1
  6
Continuous
 62
     0
370
    20
100
AcDbLine
 10
2706.384546583002
 20
-2739.901309269907
 30
-0.0000000000000036
 11
2707.712465109465
 21
-2739.647971739157
 31
-0.0000000000000036
  0
LINE
  5
979
330
2
100
AcDbEntity
  8
1
  6
Continuous
 62
     0
370
    20
100
AcDbLine
 10
2724.740090897673
 20
-2789.489482338836
 30
-0.0000000000000021
 11
2724.54153763163
 21
-2778.220600509055
 31
-0.0000000000000004
  0
LINE
  5
97A
330
2
100
AcDbEntity
  8
1
  6
Continuous
 62
     0
370
    20
100
AcDbLine
 10
2724.54153763163
 20
-2778.220600509055
 30
-0.0000000000000004
 11
2708.04658742296
 21
-2781.367472754969
 31
0.0000000000000013
  0
LINE
  5
97B
330
2
100
AcDbEntity
  8
1
  6
Continuous
 62
     0
370
    20
100
AcDbLine
 10
2707.351943890306
 20
-2780.805858732835
 30
-0.0000000000000004
 11
2707.129182244091
 21
-2768.163031357416
 31
0.0000000000000009
  0
LINE
  5
97C
330
2
100
AcDbEntity
  8
1
  6
Continuous
 62
     0
370
    20
100
AcDbLine
 10
2688.930406470646
 20
-2771.634955895931
 30
-0.0000000000000053
 11
2707.129182244091
 21
-2768.163031357416
 31
0.0000000000000018
  0
LINE
  5
97D
330
2
100
AcDbEntity
  8
1
  6
Continuous
 62
     0
370
    20
100
AcDbLine
 10
2688.93040647065
 20
-2771.63495589593
 30
-0.0000000000000018
 11
2689.153168116865
 21
-2784.277783271349
 31
0.0
  0
LINE
  5
97E
330
2
100
AcDbEntity
  8
1
  6
Continuous
 62
     0
370
    20
100
AcDbLine
 10
2688.482903466485
 20
-2785.099791633877
 30
0.0000000000000031
 11
2671.987953257811
 21
-2788.246663879791
 31
0.0000000000000043
  0
LINE
  5
97F
330
2
100
AcDbEntity
  8
1
  6
Continuous
 62
     0
370
    20
100
AcDbLine
 10
2672.186506523854
 20
-2799.515545709572
 30
0.0
 11
2724.740090897673
 21
-2789.489482338836
 31
-0.0000000000000007
  0
LINE
  5
980
330
2
100
AcDbEntity
  8
1
  6
Continuous
 62
     0
370
    20
100
AcDbLine
 10
2704.334439681052
 20
-2742.242532698764
 30
0.0
 11
2704.127227679562
 21
-2742.070039902086
 31
0.0
  0
LINE
  5
981
330
2
100
AcDbEntity
  8
1
  6
Continuous
 62
     0
370
    20
100
AcDbLine
 10
2704.038173204946
 20
-2738.382224935266
 30
-0.0000000000000036
 11
2703.830961203455
 21
-2738.209732138587
 31
0.0
  0
LINE
  5
982
330
2
100
AcDbEntity
  8
1
  6
Continuous
 62
     0
370
    20
100
AcDbLine
 10
2704.334439681052
 20
-2742.242532698771
 30
-0.0000000000000071
 11
2704.346717175219
 21
-2742.939341337033
 31
-0.0000000000000036
  0
LINE
  5
983
330
2
100
AcDbEntity
  8
1
  6
Continuous
 62
     0
370
    20
100
AcDbLine
 10
2704.038173204946
 20
-2738.382224935266
 30
-0.0000000000000036
 11
2704.050362646081
 21
-2739.074036127584
 31
-0.0000000000000071
  0
LINE
  5
984
330
2
100
AcDbEntity
  8
1
  6
Continuous
 62
     0
370
    20
100
AcDbLine
 10
2657.601043942233
 20
-2763.897798655441
 30
0.0
 11
2650.016670943335
 21
-2757.460882922032
 31
-0.0000000000000036
  0
LINE
  5
985
330
2
100
AcDbEntity
  8
1
  6
Continuous
 62
     0
370
    20
100
AcDbLine
 10
2657.89508548554
 20
-2720.050024322356
 30
0.0000000000000036
 11
2666.269947691074
 21
-2726.986962596971
 31
0.0
  0
LINE
  5
986
330
2
100
AcDbEntity
  8
1
  6
Continuous
 62
     0
370
    20
100
AcDbLine
 10
2657.89508548554
 20
-2720.050024322356
 30
0.0000000000000071
 11
2650.099841525595
 21
-2753.240971670812
 31
0.0
  0
LINE
  5
987
330
2
100
AcDbEntity
  8
1
  6
Continuous
 62
     0
370
    20
100
AcDbLine
 10
2650.377419978806
 20
-2754.658049215291
 30
0.0000000000000018
 11
2650.099841525595
 21
-2753.240971670812
 31
-0.0000000000000018
  0
LINE
  5
988
330
2
100
AcDbEntity
  8
1
  6
Continuous
 62
     0
370
    20
100
AcDbLine
 10
2665.303596796944
 20
-2771.108214460029
 30
-0.0000000000000027
 11
2657.477297823324
 21
-2764.71577027761
 31
0.0000000000000018
  0
LINE
  5
989
330
2
100
AcDbEntity
  8
1
  6
Continuous
 62
     0
370
    20
100
AcDbLine
 10
2657.477297414245
 20
-2764.715768959308
 30
0.0
 11
2656.17712585543
 21
-2783.95675606852
 31
0.0000000000000011
  0
LINE
  5
98A
330
2
100
AcDbEntity
  8
1
  6
Continuous
 62
     0
370
    20
100
AcDbLine
 10
2656.177125134374
 20
-2783.956755415566
 30
-0.0000000000000029
 11
2662.117963683391
 21
-2788.79276704928
 31
0.000000000000003
  0
LINE
  5
98B
330
2
100
AcDbEntity
  8
1
  6
Continuous
 62
     0
370
    20
100
AcDbLine
 10
2690.498052859121
 20
-2762.61142483972
 30
-0.0000000000000071
 11
2690.662725232916
 21
-2764.607097513672
 31
-0.0000000000000036
  0
LINE
  5
98C
330
2
100
AcDbEntity
  8
1
  6
Continuous
 62
     0
370
    20
100
AcDbLine
 10
2686.464268941263
 20
-2783.457814013077
 30
0.0000000000000016
 11
2668.667899842811
 21
-2786.85296824425
 31
-0.0000000000000038
  0
LINE
  5
98D
330
2
100
AcDbEntity
  8
1
  6
Continuous
 62
     0
370
    20
100
AcDbLine
 10
2687.134533591638
 20
-2782.635805650545
 30
0.0
 11
2686.938616560048
 21
-2771.516543190495
 31
0.0000000000000027
  0
LINE
  5
98E
330
2
100
AcDbEntity
  8
1
  6
Continuous
 62
     0
370
    20
100
AcDbLine
 10
2668.329086076019
 20
-2767.623607900904
 30
-0.000000000000008
 11
2668.667899842812
 21
-2786.852968244251
 31
0.0000000000000016
  0
LINE
  5
98F
330
2
100
AcDbEntity
  8
1
  6
Continuous
 62
     0
370
    20
100
AcDbLine
 10
2678.543598741006
 20
-2762.461626477641
 30
0.0000000000000018
 11
2680.007686475122
 21
-2760.754296168633
 31
-0.0000000000000071
  0
LINE
  5
990
330
2
100
AcDbEntity
  8
1
  6
Continuous
 62
     0
370
    20
100
AcDbLine
 10
2671.987953257811
 20
-2788.246663879791
 30
0.0000000000000043
 11
2672.186506523854
 21
-2799.515545709572
 31
0.0
  0
LINE
  5
991
330
2
100
AcDbEntity
  8
1
  6
Continuous
 62
     0
370
    20
100
AcDbLine
 10
2667.460607691903
 20
-2786.346169831327
 30
0.0000000000000014
 11
2667.139296970907
 21
-2768.110194076786
 31
-0.0000000000000036
  0
LINE
  5
992
330
2
100
AcDbEntity
  8
1
  6
Continuous
 62
     0
370
    20
100
AcDbLine
 10
2662.28215326263
 20
-2798.308511677873
 30
-0.0000000000000018
 11
2662.115917675885
 21
-2788.873818306778
 31
-0.0000000000000021
  0
LINE
  5
993
330
2
100
AcDbEntity
  8
1
  6
Continuous
 62
     0
370
    20
100
AcDbLine
 10
2668.329086076028
 20
-2767.623607900902
 30
-0.0000000000000036
 11
2686.069897443625
 21
-2770.764296113287
 31
-0.0000000000000009
  0
LINE
  5
994
330
2
100
AcDbEntity
  8
1
  6
Continuous
 62
     0
370
    20
100
AcDbLine
 10
2690.036689569014
 20
-2770.369139727988
 30
-0.0000000000000071
 11
2686.069897443625
 21
-2770.764296113283
 31
-0.0000000000000018
  0
LINE
  5
995
330
2
100
AcDbEntity
  8
1
  6
Continuous
 62
     0
370
    20
100
AcDbLine
 10
2712.386257030861
 20
-2733.623008066644
 30
-0.0000000000000036
 11
2710.742086003497
 21
-2735.115671019048
 31
-0.0000000000000036
  0
LINE
  5
996
330
2
100
AcDbEntity
  8
1
  6
Continuous
 62
     0
370
    20
100
AcDbLine
 10
2706.441735609366
 20
-2739.678374595816
 30
-0.0000000000000021
 11
2707.505253107974
 21
-2739.475478942477
 31
0.0000000000000036
  0
LINE
  5
997
330
2
100
AcDbEntity
  8
1
  6
Continuous
 62
     0
370
    20
100
AcDbLine
 10
2690.498052859121
 20
-2762.61142483972
 30
-0.0000000000000053
 11
2680.007686479227
 21
-2760.754296135165
 31
0.0000000000000036
  0
LINE
  5
998
330
2
100
AcDbEntity
  8
1
  6
Continuous
 62
     0
370
    20
100
AcDbLine
 10
2691.278546723919
 20
-2762.602062390085
 30
0.0000000000000018
 11
2704.479529668657
 21
-2760.083606358267
 31
0.0
  0
LINE
  5
999
330
2
100
AcDbEntity
  8
1
  6
Continuous
 62
     0
370
    20
100
AcDbLine
 10
2715.609975637699
 20
-2753.962165553387
 30
-0.0000000000000018
 11
2705.255122772153
 21
-2759.796101779383
 31
-0.0000000000000018
  0
LINE
  5
99A
330
2
100
AcDbEntity
  8
1
  6
Continuous
 62
     0
370
    20
100
AcDbLine
 10
2716.9978637949
 20
-2750.987935169999
 30
-0.0000000000000036
 11
2712.975114908475
 21
-2736.423595314409
 31
-0.0000000000000071
  0
LINE
  5
99B
330
2
100
AcDbEntity
  8
1
  6
Continuous
 62
     0
370
    20
100
AcDbLine
 10
2710.742086003497
 20
-2735.115671019045
 30
0.0
 11
2684.181048898245
 21
-2740.182930357922
 31
0.0000000000000036
  0
LINE
  5
99C
330
2
100
AcDbEntity
  8
1
  6
Continuous
 62
     0
370
    20
100
AcDbLine
 10
2703.05583112718
 20
-2755.979260263653
 30
0.0000000000000018
 11
2703.97000265706
 21
-2758.24001691602
 31
-0.0000000000000036
  0
LINE
  5
99D
330
2
100
AcDbEntity
  8
1
  6
Continuous
 62
     0
370
    20
100
AcDbLine
 10
2713.66829113404
 20
-2749.207101597694
 30
0.0
 11
2703.474242503535
 21
-2754.95044052943
 31
-0.0000000000000053
  0
LINE
  5
99E
330
2
100
AcDbEntity
  8
1
  6
Continuous
 62
     0
370
    20
100
AcDbLine
 10
2715.523257771655
 20
-2751.73089946004
 30
0.0
 11
2714.609086241775
 21
-2749.470142807674
 31
0.0000000000000018
  0
LINE
  5
99F
330
2
100
AcDbEntity
  8
1
  6
Continuous
 62
     0
370
    20
100
AcDbLine
 10
2704.910797764775
 20
-2758.50305812601
 30
-0.0000000000000018
 11
2715.104846395301
 21
-2752.759719194263
 31
0.0000000000000018
  0
LINE
  5
9A0
330
2
100
AcDbEntity
  8
1
  6
Continuous
 62
     0
370
    20
100
AcDbLine
 10
2684.181048898245
 20
-2740.182930357922
 30
0.0000000000000071
 11
2683.309425259889
 21
-2739.170225472069
 31
0.0
  0
LINE
  5
9A1
330
2
100
AcDbEntity
  8
1
  6
Continuous
 62
     0
370
    20
100
AcDbLine
 10
2678.524639270232
 20
-2758.327776785071
 30
0.0
 11
2677.060551522553
 21
-2760.035107109897
 31
-0.0000000000000036
  0
LINE
  5
9A2
330
2
100
AcDbEntity
  8
1
  6
Continuous
 62
     0
370
    20
100
AcDbLine
 10
2682.008917855498
 20
-2742.331261920632
 30
-0.0000000000000036
 11
2678.524639223838
 21
-2758.327776796566
 31
0.0
  0
LINE
  5
9A3
330
2
100
AcDbEntity
  8
1
  6
Continuous
 62
     0
370
    20
100
AcDbLine
 10
2681.137294244571
 20
-2741.318557026938
 30
-0.0000000000000036
 11
2682.008917883268
 21
-2742.331261913186
 31
-0.0000000000000071
  0
LINE
  5
9A4
330
2
100
AcDbEntity
  8
1
  6
Continuous
 62
     0
370
    20
100
AcDbLine
 10
2675.292601010661
 20
-2723.893755505156
 30
0.0
 11
2668.00383947389
 21
-2725.284291775196
 31
0.0
  0
LINE
  5
9A5
330
2
100
AcDbEntity
  8
1
  6
Continuous
 62
     0
370
    20
100
AcDbLine
 10
2708.787614014535
 20
-2717.503639678936
 30
0.0
 11
2717.168430562229
 21
-2724.770877433478
 31
-0.0000000000000036
  0
LINE
  5
9A6
330
2
100
AcDbEntity
  8
1
  6
Continuous
 62
     0
370
    20
100
AcDbLine
 10
2708.787613638331
 20
-2717.503639751024
 30
0.0
 11
2701.49885247556
 21
-2718.894175949713
 31
0.0000000000000036
  0
LINE
  5
9A7
330
2
100
AcDbEntity
  8
1
  6
Continuous
 62
     0
370
    20
100
AcDbLine
 10
2676.634650369647
 20
-2732.503827596793
 30
-0.0000000000000036
 11
2668.003657252223
 21
-2725.284309464452
 31
-0.0000000000000036
  0
LINE
  5
9A8
330
2
100
AcDbEntity
  8
1
  6
Continuous
 62
     0
370
    20
100
AcDbLine
 10
2676.634650369648
 20
-2732.503827596791
 30
0.0
 11
2717.168430562235
 21
-2724.770877433475
 31
-0.0000000000000071
  0
LINE
  5
9A9
330
2
100
AcDbEntity
  8
1
  6
Continuous
 62
     0
370
    20
100
AcDbLine
 10
2667.105702805315
 20
-2767.397432519405
 30
-0.000000000000008
 11
2666.345660429776
 21
-2767.950773358254
 31
-0.0000000000000027
  0
LINE
  5
9AA
330
2
100
AcDbEntity
  8
1
  6
Continuous
 62
     0
370
    20
100
AcDbLine
 10
2666.26994809618
 20
-2726.986962192212
 30
0.0
 11
2674.900946924158
 21
-2734.206485101227
 31
0.0
  0
LINE
  5
9AB
330
2
100
AcDbEntity
  8
1
  6
Continuous
 62
     0
370
    20
100
AcDbLine
 10
2666.269939768314
 20
-2726.986955374143
 30
-0.0000000000000036
 11
2657.601043619029
 21
-2763.89780002933
 31
-0.0000000000000018
  0
LINE
  5
9AC
330
2
100
AcDbEntity
  8
1
  6
Continuous
 62
     0
370
    20
100
AcDbLine
 10
2665.479166451197
 20
-2770.332575068625
 30
-0.0000000000000018
 11
2657.601043296728
 21
-2763.897801403971
 31
0.0000000000000053
  0
LINE
  5
9AD
330
2
100
AcDbEntity
  8
1
  6
Continuous
 62
     0
370
    20
100
AcDbLine
 10
2705.975599029547
 20
-2761.68573933714
 30
-0.0000000000000018
 11
2717.938171802558
 21
-2754.946011859212
 31
-0.0000000000000018
  0
LINE
  5
9AE
330
2
100
AcDbEntity
  8
1
  6
Continuous
 62
     0
370
    20
100
AcDbLine
 10
2705.200005919019
 20
-2761.973243910969
 30
0.0
 11
2691.443219096474
 21
-2764.597735049025
 31
0.0
  0
LINE
  5
9AF
330
2
100
AcDbEntity
  8
1
  6
Continuous
 62
     0
370
    20
100
AcDbLine
 10
2677.06055152775
 20
-2760.035107111746
 30
-0.0000000000000053
 11
2681.137294251258
 21
-2741.318557029207
 31
0.0
  0
LINE
  5
9B0
330
2
100
AcDbEntity
  8
1
  6
Continuous
 62
     0
370
    20
100
AcDbLine
 10
2683.309425259888
 20
-2739.170225472067
 30
-0.0000000000000071
 11
2712.386257030859
 21
-2733.623008066641
 31
0.0
  0
LINE
  5
9B1
330
2
100
AcDbEntity
  8
1
  6
Continuous
 62
     0
370
    20
100
AcDbLine
 10
2714.61928580052
 20
-2734.930932487009
 30
0.0
 11
2719.326059886348
 21
-2751.971781427031
 31
-0.0000000000000053
  0
LINE
  5
9B2
330
2
100
AcDbEntity
  8
1
  6
Continuous
 62
     0
370
    20
100
AcDbLine
 10
2718.022549535311
 20
-2727.299587162887
 30
0.0
 11
2677.488769342725
 21
-2735.032537326203
 31
-0.0000000000000071
  0
LINE
  5
9B3
330
2
100
AcDbEntity
  8
1
  6
Continuous
 62
     0
370
    20
100
AcDbLine
 10
2690.036956277278
 20
-2770.367625951977
 30
-0.0000000000000062
 11
2670.022123584693
 21
-2766.824363594474
 31
-0.0000000000000018
  0
LINE
  5
9B4
330
2
100
AcDbEntity
  8
1
  6
Continuous
 62
     0
370
    20
100
AcDbLine
 10
2690.038247954208
 20
-2770.36651824188
 30
-0.0000000000000044
 11
2706.798406954322
 21
-2767.169050015099
 31
-0.0000000000000027
  0
LINE
  5
9B5
330
2
100
AcDbEntity
  8
1
  6
Continuous
 62
     0
370
    20
100
AcDbLine
 10
2726.555778536788
 20
-2756.038989164535
 30
-0.0000000000000036
 11
2706.799491536705
 21
-2767.169704387394
 31
-0.0000000000000018
  0
LINE
  5
9B6
330
2
100
AcDbEntity
  8
1
  6
Continuous
 62
     0
370
    20
100
AcDbLine
 10
2718.022549535314
 20
-2727.299587162886
 30
0.0
 11
2726.555778536788
 21
-2756.038989164535
 31
-0.0000000000000053
  0
LINE
  5
9B7
330
2
100
AcDbEntity
  8
1
  6
Continuous
 62
     0
370
    20
100
AcDbLine
 10
2670.022123584693
 20
-2766.824363594474
 30
-0.0000000000000044
 11
2677.488769342725
 21
-2735.032537326203
 31
0.0
  0
LINE
  5
9B8
330
2
100
AcDbEntity
  8
1
  6
Continuous
 62
     0
370
    20
100
AcDbLine
 10
2667.105702805315
 20
-2767.397432519405
 30
-0.0000000000000018
 11
2674.900946924158
 21
-2734.206485101227
 31
0.0
  0
LINE
  5
9B9
330
2
100
AcDbEntity
  8
1
  6
Continuous
 62
     0
370
    20
100
AcDbLine
 10
2678.543598738328
 20
-2762.461626483776
 30
-0.0000000000000018
 11
2690.662725236749
 21
-2764.607097513689
 31
-0.0000000000000036
  0
ARC
  5
9C6
330
2
100
AcDbEntity
  8
1
  6
Continuous
 62
     0
370
    20
100
AcDbCircle
 10
2756.599909939974
 20
-2611.829884626492
 30
0.0
 40
1.75
100
AcDbArc
 50
90.00000000010421
 51
278.2132107020686
  0
ARC
  5
9C7
330
2
100
AcDbEntity
  8
1
  6
Continuous
 62
     0
370
    20
100
AcDbCircle
 10
2756.599909940093
 20
-2611.829884626507
 30
0.0
 40
2.5
100
AcDbArc
 50
90.0
 51
275.7391704772615
  0
ARC
  5
9C8
330
2
100
AcDbEntity
  8
1
  6
Continuous
 62
     0
370
    20
100
AcDbCircle
 10
2760.849909940093
 20
-2611.829884626507
 30
0.0
 40
2.5
100
AcDbArc
 50
84.26082952273846
 51
275.7391704774711
  0
ARC
  5
9C9
330
2
100
AcDbEntity
  8
1
  6
Continuous
 62
     0
370
    20
100
AcDbCircle
 10
2760.849909939974
 20
-2611.829884626484
 30
0.0
 40
1.75
100
AcDbArc
 50
192.3736251161658
 51
278.2132107020918
  0
ARC
  5
9CA
330
2
100
AcDbEntity
  8
1
  6
Continuous
 62
     0
370
    20
100
AcDbCircle
 10
2760.849909939974
 20
-2611.829884626484
 30
0.0
 40
1.75
100
AcDbArc
 50
81.78678929830319
 51
167.6263748837014
  0
ARC
  5
9D0
330
2
100
AcDbEntity
  8
1
  6
Continuous
 62
     0
370
    20
100
AcDbCircle
 10
2700.202358999994
 20
-2712.465198713462
 30
0.0000000000000079
 40
2.0
100
AcDbArc
 50
51.38453074386506
 51
100.8009793549
  0
ARC
  5
9D1
330
2
100
AcDbEntity
  8
1
  6
Continuous
 62
     0
370
    20
100
AcDbCircle
 10
2659.668537094406
 20
-2720.198156834699
 30
0.0000000000000041
 40
2.0
100
AcDbArc
 50
100.8009793549
 51
166.7830210993725
  0
ARC
  5
9D2
330
2
100
AcDbEntity
  8
1
  6
Continuous
 62
     0
370
    20
100
AcDbCircle
 10
2717.193701529349
 20
-2726.609615976171
 30
0.0000000000000075
 40
2.0
100
AcDbArc
 50
16.53707128754852
 51
49.07053701159068
  0
ELLIPSE
  5
A22
330
2
100
AcDbEntity
  8
1
  6
Continuous
 62
     0
370
    20
100
AcDbEllipse
 10
2729.957423076179
 20
-2774.363831316152
 30
0.0000000000000016
 11
0.8245516609547728
 21
-4.322049809802836
 31
0.0
210
0.0
220
0.0
230
1.0
 40
0.3766639760667848
 41
0.0000791429006238
 42
3.141573621718396
  0
ELLIPSE
  5
A23
330
2
100
AcDbEntity
  8
1
  6
Continuous
 62
     0
370
    20
100
AcDbEllipse
 10
2721.644641255618
 20
-2787.624602559271
 30
-0.000000000000003
 11
-6.698960232778423
 21
-0.1180330447512114
 31
0.0
210
0.0
220
0.0
230
1.0
 40
0.3858582161952508
 41
1.991367722666137
 42
2.441268197966742
  0
ELLIPSE
  5
A24
330
2
100
AcDbEntity
  8
1
  6
Continuous
 62
     0
370
    20
100
AcDbEllipse
 10
2650.854267683757
 20
-2758.231647348163
 30
-0.0000000000000019
 11
-0.9996309979634547
 21
0.0271637241663836
 31
0.0
210
0.0
220
0.0
230
0.9999999999999998
 40
0.2737039174785299
 41
0.0005043089962689
 42
0.4306217753952481
  0
ELLIPSE
  5
A25
330
2
100
AcDbEntity
  8
1
  6
Continuous
 62
     0
370
    20
100
AcDbEllipse
 10
2656.101665111768
 20
-2709.355960803724
 30
0.0000000000000033
 11
5.538592058046562
 21
69.8608951758121
 31
0.0000000000000022
210
0.0
220
0.0
230
1.0
 40
0.0463177107448155
 41
2.61538576943918
 42
2.773060655033269
  0
ELLIPSE
  5
A26
330
2
100
AcDbEntity
  8
1
  6
Continuous
 62
     0
370
    20
100
AcDbEllipse
 10
2656.101665111768
 20
-2709.355960803724
 30
0.0000000000000033
 11
5.538592058046562
 21
69.8608951758121
 31
0.0000000000000022
210
0.0
220
0.0
230
1.0
 40
0.0463177107448155
 41
2.773060655033269
 42
3.108091543807739
  0
ELLIPSE
  5
A27
330
2
100
AcDbEntity
  8
1
  6
Continuous
 62
     0
370
    20
100
AcDbEllipse
 10
2727.255306682513
 20
-2759.366161598364
 30
0.0000000000000021
 11
0.997749988713217
 21
0.067044463028467
 31
0.0
210
0.0
220
0.0
230
1.0
 40
0.4918777646162872
 41
5.912154320125361
 42
6.274924678749812
  0
ELLIPSE
  5
A28
330
2
100
AcDbEntity
  8
1
  6
Continuous
 62
     0
370
    20
100
AcDbEllipse
 10
2651.371318932583
 20
-2778.998484669445
 30
-0.0000000000000006
 11
0.6483481250174308
 21
0.7613440147439147
 31
0.0
210
0.0
220
0.0
230
1.0
 40
0.8455643643517575
 41
2.290436804201958
 42
2.377699941851949
  0
ELLIPSE
  5
A29
330
2
100
AcDbEntity
  8
1
  6
Continuous
 62
     0
370
    20
100
AcDbEllipse
 10
2726.676966663248
 20
-2756.402562427533
 30
-0.0000000000000115
 11
0.9751916524645576
 21
0.2213629816662274
 31
0.0
210
0.0
220
0.0000000000000001
230
1.0
 40
0.6127516658443107
 41
5.640172443788676
 42
6.283751717907009
  0
ELLIPSE
  5
A2A
330
2
100
AcDbEntity
  8
1
  6
Continuous
 62
     0
370
    20
100
AcDbEllipse
 10
2700.202358999995
 20
-2712.465198713462
 30
-0.0000000000000019
 11
0.3747962095248967
 21
-1.964568095364924
 31
0.0
210
0.0
220
0.0
230
1.0
 40
0.3766639760667848
 41
2.720687472599938
 42
3.141616436826662
  0
ELLIPSE
  5
A2B
330
2
100
AcDbEntity
  8
1
  6
Continuous
 62
     0
370
    20
100
AcDbEllipse
 10
2700.202358999995
 20
-2712.465198713464
 30
0.0000000000000019
 11
1.248181152504971
 21
1.562704006052124
 31
0.0
210
0.0
220
0.0
230
0.9999999999999998
 40
0.8429539482325441
 41
0.0000131595133945
 42
0.7803663102486996
  0
ELLIPSE
  5
A2C
330
2
100
AcDbEntity
  8
1
  6
Continuous
 62
     0
370
    20
100
AcDbEllipse
 10
2659.668537094406
 20
-2720.198156834698
 30
0.0000000000000048
 11
-0.3747962095248967
 21
1.964568095364924
 31
0.0
210
0.0
220
0.0
230
1.0
 40
0.3766639760667848
 41
5.862280126189735
 42
6.283209090416735
  0
ELLIPSE
  5
A2D
330
2
100
AcDbEntity
  8
1
  6
Continuous
 62
     0
370
    20
100
AcDbEllipse
 10
2726.091293800778
 20
-2771.843675721243
 30
0.0000000000000006
 11
-0.9232227843653806
 21
3.87715000116905
 31
0.0000000000000002
210
0.0
220
0.0
230
1.0
 40
0.4644807416858764
 41
3.120562274291636
 42
3.733117012629894
  0
ELLIPSE
  5
A2E
330
2
100
AcDbEntity
  8
1
  6
Continuous
 62
     0
370
    20
100
AcDbEllipse
 10
2720.259121569048
 20
-2708.989494047043
 30
0.0000000000000047
 11
-8.183950736357529
 21
67.30389328880233
 31
0.0000000000000027
210
0.0
220
0.0
230
0.9999999999999998
 40
0.0400425960901247
 41
3.579680305061731
 42
3.859152132667476
  0
ELLIPSE
  5
A2F
330
2
100
AcDbEntity
  8
1
  6
Continuous
 62
     0
370
    20
100
AcDbEllipse
 10
2720.259121569048
 20
-2708.989494047043
 30
0.0000000000000047
 11
-8.183950736357529
 21
67.30389328880233
 31
0.0000000000000027
210
0.0
220
0.0
230
0.9999999999999998
 40
0.0400425960901247
 41
3.509910456417956
 42
3.579680305061731
  0
ELLIPSE
  5
A30
330
2
100
AcDbEntity
  8
1
  6
Continuous
 62
     0
370
    20
100
AcDbEllipse
 10
2721.222230295666
 20
-2763.650687215267
 30
0.0000000000000039
 11
-3.462085441371587
 21
14.53931250438802
 31
0.0000000000000007
210
0.0
220
0.0
230
0.9999999999999998
 40
0.4644807416858161
 41
3.12056227429163
 42
3.733117012630099
  0
ELLIPSE
  5
A31
330
2
100
AcDbEntity
  8
1
  6
Continuous
 62
     0
370
    20
100
AcDbEllipse
 10
2721.632903714635
 20
-2786.958438940221
 30
0.0000000000000021
 11
-7.498355819970623
 21
-0.1589913418352521
 31
0.0000000000000003
210
0.0
220
0.0
230
0.9999999999999998
 40
0.3789945725028909
 41
1.99000995697224
 42
3.140230203298659
  0
ELLIPSE
  5
A32
330
2
100
AcDbEntity
  8
1
  6
Continuous
 62
     0
370
    20
100
AcDbEllipse
 10
2659.668537094406
 20
-2720.198156834699
 30
-0.000000000000004
 11
1.947022382300463
 21
-0.4572787364628115
 31
-0.0000000000000001
210
0.0
220
0.0
230
1.0
 40
0.2752232894215048
 41
3.141576466407447
 42
3.636164625492039
  0
ELLIPSE
  5
A33
330
2
100
AcDbEntity
  8
1
  6
Continuous
 62
     0
370
    20
100
AcDbEllipse
 10
2651.831598394124
 20
-2753.566633961358
 30
0.0000000000000005
 11
-1.177026358482579
 21
2.167309397045821
 31
0.0000000000000001
210
0.0
220
0.0
230
0.9999999999999998
 40
0.6207929512988972
 41
0.608162039489546
 42
1.102750198571178
  0
ELLIPSE
  5
A34
330
2
100
AcDbEntity
  8
1
  6
Continuous
 62
     0
370
    20
100
AcDbEllipse
 10
2648.97287088433
 20
-2789.813895512546
 30
-0.0000000000000041
 11
0.8245516609547728
 21
-4.322049809802836
 31
0.0
210
0.0
220
0.0
230
1.0
 40
0.3766639760667848
 41
0.0
 42
6.283185307179586
  0
ELLIPSE
  5
A35
330
2
100
AcDbEntity
  8
1
  6
Continuous
 62
     0
370
    20
100
AcDbEllipse
 10
2656.252381193711
 20
-2788.42512569714
 30
0.0000000000000038
 11
-0.8076985315386069
 21
4.325260370598122
 31
0.0000000000000002
210
0.0
220
0.0
230
0.9999999999999998
 40
0.3693096862890077
 41
5.854993470361552
 42
6.284655353125179
  0
ELLIPSE
  5
A36
330
2
100
AcDbEntity
  8
1
  6
Continuous
 62
     0
370
    20
100
AcDbEllipse
 10
2656.798382096919
 20
-2793.503830285914
 30
0.0000000000000019
 11
0.3199132293828043
 21
0.3843092494894211
 31
0.0
210
0.0
220
0.0
230
0.9999999999999998
 40
0.8420983941352037
 41
2.368284257102653
 42
3.160840367251469
  0
ELLIPSE
  5
A37
330
2
100
AcDbEntity
  8
1
  6
Continuous
 62
     0
370
    20
100
AcDbEllipse
 10
2655.190190492504
 20
-2709.445488634172
 30
0.0000000000000104
 11
4.649994846751948
 21
69.67860979055268
 31
0.0000000000000023
210
0.0
220
0.0
230
1.0
 40
0.0399116161850166
 41
2.350878718860232
 42
3.111961204850519
  0
ELLIPSE
  5
A38
330
2
100
AcDbEntity
  8
1
  6
Continuous
 62
     0
370
    20
100
AcDbEllipse
 10
2711.178677835229
 20
-2775.966303884176
 30
-0.0000000000000014
 11
2.509346335960843
 21
3.074499313205695
 31
0.0
210
0.0
220
0.0
230
0.9999999999999998
 40
0.3183203403228028
 41
2.781699898591574
 42
3.504434146403978
  0
ELLIPSE
  5
A39
330
2
100
AcDbEntity
  8
1
  6
Continuous
 62
     0
370
    20
100
AcDbEllipse
 10
2711.024871984102
 20
-2767.237059608883
 30
0.0000000000000011
 11
-2.732260277030273
 21
-0.2610915004503891
 31
0.0000000000000001
210
0.0
220
0.0
230
1.0
 40
0.5073718702304367
 41
5.43120903975539
 42
6.243728113570837
  0
ELLIPSE
  5
A3A
330
2
100
AcDbEntity
  8
1
  6
Continuous
 62
     0
370
    20
100
AcDbEllipse
 10
2724.532878896183
 20
-2789.316989542157
 30
0.0000000000000038
 11
0.0936990523812242
 21
-0.4911420238412314
 31
0.0
210
0.0
220
0.0
230
1.0
 40
0.3766639760667848
 41
0.0000237832363128
 42
1.141164499545068
  0
ELLIPSE
  5
A3B
330
2
100
AcDbEntity
  8
1
  6
Continuous
 62
     0
370
    20
100
AcDbEllipse
 10
2656.252381193711
 20
-2788.42512569714
 30
0.000000000000001
 11
-0.8416218658945769
 21
4.318788039213461
 31
0.0000000000000002
210
0.0
220
0.0
230
0.9999999999999998
 40
0.3840083095071649
 41
3.140105959257748
 42
5.85203673034163
  0
ELLIPSE
  5
A3C
330
2
100
AcDbEntity
  8
1
  6
Continuous
 62
     0
370
    20
100
AcDbEllipse
 10
2725.837806186522
 20
-2757.456997384193
 30
0.0000000000000039
 11
-1.96496527000716
 21
-1.361990714478958
 31
0.0
210
0.0
220
0.0
230
1.0
 40
0.1602890216366162
 41
3.756780232939878
 42
4.185251183430019
  0
ELLIPSE
  5
A3D
330
2
100
AcDbEntity
  8
1
  6
Continuous
 62
     0
370
    20
100
AcDbEllipse
 10
2657.085051771826
 20
-2783.864206277727
 30
0.0000000000000011
 11
-0.6398779019271002
 21
-0.7684997790844791
 31
0.0
210
0.0
220
0.0
230
1.0
 40
0.8421645279826766
 41
5.422691240879889
 42
5.509954369671891
  0
ELLIPSE
  5
A3E
330
2
100
AcDbEntity
  8
1
  6
Continuous
 62
     0
370
    20
100
AcDbEllipse
 10
2712.89293593619
 20
-2748.669032466513
 30
-0.0000000000000069
 11
3.809873129517643
 21
4.576721183665473
 31
0.0
210
0.0
220
0.0
230
0.9999999999999998
 40
0.8421625057720032
 41
3.120451657529466
 42
3.141591251256798
  0
ELLIPSE
  5
A3F
330
2
100
AcDbEntity
  8
1
  6
Continuous
 62
     0
370
    20
100
AcDbEllipse
 10
2669.091056881792
 20
-2797.650665930009
 30
-0.0000000000000044
 11
-6.698960232778423
 21
-0.1180330447512114
 31
0.0
210
0.0
220
0.0
230
1.0
 40
0.3858582161952511
 41
0.8170818403240069
 42
1.991367722666137
  0
ELLIPSE
  5
A40
330
2
100
AcDbEntity
  8
1
  6
Continuous
 62
     0
370
    20
100
AcDbEllipse
 10
2713.100147937681
 20
-2748.841525263193
 30
0.0000000000000034
 11
-3.809873129517643
 21
-4.576721183665473
 31
0.0
210
0.0
220
0.0
230
0.9999999999999998
 40
0.8421625057720032
 41
6.20479876136185
 42
6.310720157927528
  0
ELLIPSE
  5
A41
330
2
100
AcDbEntity
  8
1
  6
Continuous
 62
     0
370
    20
100
AcDbEllipse
 10
2706.212289601042
 20
-2753.984876152349
 30
-0.0000000000000037
 11
-1.974385558997417
 21
-2.371788221129222
 31
0.0
210
0.0
220
0.0
230
0.9999999999999998
 40
0.8421625057720035
 41
2.283515577670506
 42
2.473345512618264
  0
ELLIPSE
  5
A42
330
2
100
AcDbEntity
  8
1
  6
Continuous
 62
     0
370
    20
100
AcDbEllipse
 10
2662.73529709024
 20
-2798.220211604903
 30
-0.000000000000001
 11
-0.3110127413348943
 21
-0.3914984990103463
 31
0.0
210
-0.0000000000000001
220
0.0000000000000001
230
0.9999999999999998
 40
0.8421786063074161
 41
5.490606903141275
 42
6.282912518596337
  0
ELLIPSE
  5
A43
330
2
100
AcDbEntity
  8
1
  6
Continuous
 62
     0
370
    20
100
AcDbEllipse
 10
2671.979294522363
 20
-2799.343052912892
 30
0.0000000000000033
 11
-0.0936990523812242
 21
0.4911420238412314
 31
0.0
210
0.0
220
0.0
230
1.0
 40
0.3766639760667848
 41
3.141128290051122
 42
4.282757153134865
  0
ELLIPSE
  5
A44
330
2
100
AcDbEntity
  8
1
  6
Continuous
 62
     0
370
    20
100
AcDbEllipse
 10
2699.314318655484
 20
-2756.675225134679
 30
-0.0000000000000019
 11
-4.648649454275353
 21
-5.58432570050189
 31
0.0
210
0.0
220
0.0
230
0.9999999999999998
 40
0.842162505772003
 41
2.385580634460564
 42
2.43885978025322
  0
ELLIPSE
  5
A45
330
2
100
AcDbEntity
  8
1
  6
Continuous
 62
     0
370
    20
100
AcDbEllipse
 10
2711.982807068887
 20
-2749.034603435489
 30
0.0000000000000016
 11
-5.437660474634555
 21
-6.532148194391774
 31
0.0
210
0.0
220
0.0
230
0.9999999999999998
 40
0.8421625057720032
 41
6.158059713608593
 42
6.198609831620474
  0
ELLIPSE
  5
A46
330
2
100
AcDbEntity
  8
1
  6
Continuous
 62
     0
370
    20
100
AcDbEllipse
 10
2716.818310715035
 20
-2753.332974469067
 30
0.0
 11
-6.619560697075747
 21
-7.951940297996648
 31
0.0
210
0.0
220
0.0
230
1.0
 40
0.8421625057720032
 41
5.552648661172226
 42
5.613831931028967
  0
ELLIPSE
  5
A47
330
2
100
AcDbEntity
  8
1
  6
Continuous
 62
     0
370
    20
100
AcDbEllipse
 10
2702.337987374554
 20
-2760.234246217994
 30
0.0
 11
-4.247013843783532
 21
-5.101849212660139
 31
0.0
210
0.0
220
0.0
230
1.0
 40
0.8421625057720032
 41
2.905601311992739
 42
3.054126615940726
  0
ELLIPSE
  5
A48
330
2
100
AcDbEntity
  8
1
  6
Continuous
 62
     0
370
    20
100
AcDbEllipse
 10
2727.408834752362
 20
-2751.465392912352
 30
0.0000000000000018
 11
-15.34692449442486
 21
-18.4359405287182
 31
0.0
210
0.0
220
0.0
230
1.0
 40
0.8421625057720032
 41
5.555684058175178
 42
5.578218125045676
  0
ELLIPSE
  5
A49
330
2
100
AcDbEntity
  8
1
  6
Continuous
 62
     0
370
    20
100
AcDbEllipse
 10
2697.981298908839
 20
-2763.662661682619
 30
-0.0000000000000018
 11
-6.487400551772
 21
-7.793179069975247
 31
0.0
210
0.0
220
0.0
230
0.9999999999999998
 40
0.8421625057720035
 41
2.938510582580417
 42
2.996838302225155
  0
ELLIPSE
  5
A4A
330
2
100
AcDbEntity
  8
1
  6
Continuous
 62
     0
370
    20
100
AcDbEllipse
 10
2727.201622750871
 20
-2751.292900115672
 30
-0.000000000000006
 11
15.34692449442486
 21
18.4359405287182
 31
0.0
210
0.0
220
0.0
230
1.0
 40
0.8421625057720032
 41
2.414091404585447
 42
2.431788041059784
  0
ELLIPSE
  5
A4B
330
2
100
AcDbEntity
  8
1
  6
Continuous
 62
     0
370
    20
100
AcDbEllipse
 10
2716.611098713544
 20
-2753.160481672388
 30
-0.0000000000000055
 11
6.619560697075747
 21
7.951940297996648
 31
0.0
210
0.0
220
0.0
230
1.0
 40
0.8421625057720032
 41
2.411056007784925
 42
2.458561948705686
  0
ELLIPSE
  5
A4C
330
2
100
AcDbEntity
  8
1
  6
Continuous
 62
     0
370
    20
100
AcDbEllipse
 10
2704.608163498797
 20
-2757.822629094567
 30
-0.0000000000000036
 11
-0.511825463160034
 21
-0.6148452612332772
 31
0.0
210
0.0
220
0.0
230
0.9999999999999998
 40
0.8421625057720032
 41
0.0400423485885284
 42
1.146521098408531
  0
ELLIPSE
  5
A4D
330
2
100
AcDbEntity
  8
1
  6
Continuous
 62
     0
370
    20
100
AcDbEllipse
 10
2714.802212129321
 20
-2752.079290162828
 30
0.0000000000000017
 11
-0.511825463160034
 21
-0.6148452612332772
 31
0.0
210
0.0
220
0.0
230
0.9999999999999998
 40
0.8421625057720032
 41
1.146521098413953
 42
2.717317425212681
  0
ELLIPSE
  5
A4E
330
2
100
AcDbEntity
  8
1
  6
Continuous
 62
     0
370
    20
100
AcDbEllipse
 10
2713.88804059944
 20
-2749.818533510455
 30
-0.0000000000000001
 11
-0.511825463160034
 21
-0.6148452612332772
 31
0.0
210
0.0
220
0.0
230
0.9999999999999998
 40
0.8421625057720032
 41
2.71731742520363
 42
3.101573476645885
  0
ELLIPSE
  5
A4F
330
2
100
AcDbEntity
  8
1
  6
Continuous
 62
     0
370
    20
100
AcDbEllipse
 10
2709.857374666828
 20
-2767.641107068578
 30
0.0000000000000028
 11
-3.316530682094275
 21
0.1071415680318777
 31
0.0000000000000001
210
0.0
220
0.0
230
1.0
 40
0.2963692739375827
 41
5.895223574478038
 42
6.709675396408729
  0
ELLIPSE
  5
A50
330
2
100
AcDbEntity
  8
1
  6
Continuous
 62
     0
370
    20
100
AcDbEllipse
 10
2686.203276255183
 20
-2772.153786697933
 30
-0.0000000000000065
 11
-3.908762088420079
 21
-1.707361315918674
 31
0.0000000000000001
210
0.0
220
0.0
230
1.0
 40
0.179365073089653
 41
2.461011925010801
 42
3.275463746940391
  0
ELLIPSE
  5
A51
330
2
100
AcDbEntity
  8
1
  6
Continuous
 62
     0
370
    20
100
AcDbEllipse
 10
2659.668537094406
 20
-2720.198156834699
 30
-0.0000000000000011
 11
1.275792180137323
 21
1.540244887380072
 31
0.0
210
0.0
220
0.0
230
0.9999999999999998
 40
0.848003431231249
 41
0.7954130401018295
 42
2.104352973710545
  0
ELLIPSE
  5
A52
330
2
100
AcDbEntity
  8
1
  6
Continuous
 62
     0
370
    20
100
AcDbEllipse
 10
2726.150118443915
 20
-2756.774289414275
 30
0.0000000000000021
 11
-1.737975731702982
 21
-1.160001340386189
 31
0.0
210
0.0
220
0.0
230
1.0
 40
0.1979455826313347
 41
2.785447294222299
 42
4.347516974760512
  0
ELLIPSE
  5
A53
330
2
100
AcDbEntity
  8
1
  6
Continuous
 62
     0
370
    20
100
AcDbEllipse
 10
2717.193701529353
 20
-2726.609615976169
 30
0.0000000000000055
 11
1.917271543412597
 21
0.5692713138919544
 31
0.0000000000000001
210
0.0
220
0.0
230
1.0
 40
0.4701982269189397
 41
5.016124141812839
 42
6.28318232045875
  0
ELLIPSE
  5
A54
330
2
100
AcDbEntity
  8
1
  6
Continuous
 62
     0
370
    20
100
AcDbEllipse
 10
2717.193701529345
 20
-2726.609615976172
 30
-0.0000000000000178
 11
-1.310258813514789
 21
-1.511033368793295
 31
0.0000000000000001
210
0.0
220
0.0000000000000001
230
1.0
 40
0.8412665552931503
 41
3.141606326041213
 42
3.955970597623465
  0
ELLIPSE
  5
A55
330
2
100
AcDbEntity
  8
1
  6
Continuous
 62
     0
370
    20
100
AcDbEllipse
 10
2707.94604452731
 20
-2739.950478278591
 30
-0.0000000000000074
 11
-1.599454572375105
 21
-1.92139144135399
 31
0.0
210
0.0
220
0.0
230
0.9999999999999998
 40
0.8421625057720035
 41
3.83888048043953
 42
7.180807976355929
  0
ELLIPSE
  5
A56
330
2
100
AcDbEntity
  8
1
  6
Continuous
 62
     0
370
    20
100
AcDbEllipse
 10
2707.946044527201
 20
-2739.95047827859
 30
-0.0000000000000046
 11
1.119618200662573
 21
1.344974008947793
 31
0.0
210
0.0
220
0.0
230
1.0
 40
0.8421625057720032
 41
2.584212073490313
 42
4.082395470512573
  0
ELLIPSE
  5
A57
330
2
100
AcDbEntity
  8
1
  6
Continuous
 62
     0
370
    20
100
AcDbEllipse
 10
2707.946044527201
 20
-2739.95047827859
 30
-0.0000000000000046
 11
1.119618200662573
 21
1.344974008947793
 31
0.0
210
0.0
220
0.0
230
1.0
 40
0.8421625057720032
 41
0.6541076791065274
 42
2.152291076119262
  0
ELLIPSE
  5
A58
330
2
100
AcDbEntity
  8
1
  6
Continuous
 62
     0
370
    20
100
AcDbEllipse
 10
2710.045191932938
 20
-2778.20963647505
 30
-0.0000000000000005
 11
2.509346335965239
 21
3.074499313210833
 31
0.0
210
0.0
220
0.0
230
1.0
 40
0.3183203403225222
 41
2.781699898591964
 42
3.504434146403693
  0
ELLIPSE
  5
A59
330
2
100
AcDbEntity
  8
1
  6
Continuous
 62
     0
370
    20
100
AcDbEllipse
 10
2686.386783427425
 20
-2782.723138375129
 30
0.0000000000000017
 11
-2.601328178760105
 21
2.09864236563903
 31
0.0000000000000002
210
0.0
220
0.0
230
1.0
 40
0.4487735984749819
 41
2.777886472808256
 42
3.500620720619822
  0
ELLIPSE
  5
A5A
330
2
100
AcDbEntity
  8
1
  6
Continuous
 62
     0
370
    20
100
AcDbEllipse
 10
2704.078804675343
 20
-2740.688262243033
 30
-0.0000000000000009
 11
1.119618200662573
 21
1.344974008947793
 31
0.0
210
0.0
220
0.0
230
1.0
 40
0.8421625057720032
 41
0.7974552480130801
 42
4.082395470512031
  0
ELLIPSE
  5
A5B
330
2
100
AcDbEntity
  8
1
  6
Continuous
 62
     0
370
    20
100
AcDbEllipse
 10
2704.078804675452
 20
-2740.688262243025
 30
0.0000000000000032
 11
-1.599454572375105
 21
-1.92139144135399
 31
0.0
210
0.0
220
0.0
230
0.9999999999999998
 40
0.8421625057720035
 41
3.939047901600825
 42
7.180807976351981
  0
ELLIPSE
  5
A5C
330
2
100
AcDbEntity
  8
1
  6
Continuous
 62
     0
370
    20
100
AcDbEllipse
 10
2670.746277915133
 20
-2762.305365521644
 30
-0.0000000000000132
 11
3.850423682894669
 21
46.09751071668511
 31
-0.0000000000000026
210
0.0
220
0.0000000000000001
230
1.0
 40
0.4563239391591533
 41
1.44235111436362
 42
1.503682739192462
  0
ELLIPSE
  5
A5D
330
2
100
AcDbEntity
  8
1
  6
Continuous
 62
     0
370
    20
100
AcDbEllipse
 10
2688.509494795264
 20
-2727.850865935607
 30
-0.0000000000000051
 11
13.39792046555684
 21
0.236066089502423
 31
0.0
210
0.0
220
0.0
230
1.0
 40
0.3858582161952509
 41
2.256096622620594
 42
2.548533282411591
  0
ELLIPSE
  5
A5E
330
2
100
AcDbEntity
  8
1
  6
Continuous
 62
     0
370
    20
100
AcDbEllipse
 10
2688.459244010618
 20
-2724.998883920648
 30
-0.0000000000000028
 11
11.95011474100143
 21
14.70734096250908
 31
0.0
210
0.0
220
0.0
230
0.9999999999999998
 40
0.3812705246467379
 41
1.669791065891381
 42
1.776694091983582
  0
ELLIPSE
  5
A5F
330
2
100
AcDbEntity
  8
1
  6
Continuous
 62
     0
370
    20
100
AcDbEllipse
 10
2688.476989618903
 20
-2726.006036089392
 30
-0.0000000000000086
 11
13.39792046555684
 21
0.236066089502423
 31
0.0
210
0.0
220
0.0
230
1.0
 40
0.3858582161952509
 41
0.3559691827764064
 42
2.041960273545433
  0
ELLIPSE
  5
A60
330
2
100
AcDbEntity
  8
1
  6
Continuous
 62
     0
370
    20
100
AcDbEllipse
 10
2663.022205331103
 20
-2788.697218160837
 30
0.0000000000000024
 11
-0.6313063688569919
 21
-0.7755335380501607
 31
-0.0000000000000001
210
-0.0000000000000001
220
-0.0000000000000001
230
0.9999999999999998
 40
0.8386963910067601
 41
5.413353219896247
 42
5.500616357546252
  0
ELLIPSE
  5
A61
330
2
100
AcDbEntity
  8
1
  6
Continuous
 62
     0
370
    20
100
AcDbEllipse
 10
2666.207838444656
 20
-2771.012665571586
 30
-0.0000000000000031
 11
0.993747275740476
 21
-0.1116528188555156
 31
0.0
210
0.0
220
-0.0000000000000001
230
0.9999999999999998
 40
0.4258977204785042
 41
3.619586860640108
 42
4.384622651417666
  0
ELLIPSE
  5
A62
330
2
100
AcDbEntity
  8
1
  6
Continuous
 62
     0
370
    20
100
AcDbEllipse
 10
2666.801295547515
 20
-2719.111106306312
 30
0.0000000000000037
 11
4.600802165945308
 21
69.71722764594935
 31
0.0000000000000023
210
0.0
220
0.0
230
0.9999999999999998
 40
0.0413309709025147
 41
3.112260190733997
 42
3.873342676002339
  0
ELLIPSE
  5
A63
330
2
100
AcDbEntity
  8
1
  6
Continuous
 62
     0
370
    20
100
AcDbEllipse
 10
2684.368148902205
 20
-2781.081160754327
 30
-0.0000000000000046
 11
-2.601328178758139
 21
2.098642365637365
 31
0.0000000000000002
210
0.0
220
0.0
230
1.0
 40
0.4487735984751625
 41
2.77788647280809
 42
3.500620720620053
  0
ELLIPSE
  5
A64
330
2
100
AcDbEntity
  8
1
  6
Continuous
 62
     0
370
    20
100
AcDbEllipse
 10
2684.214343051103
 20
-2772.351916479043
 30
0.0000000000000042
 11
-2.680336619437488
 21
-1.06070669673248
 31
0.0000000000000001
210
0.0
220
0.0
230
1.0
 40
0.4599955992528575
 41
2.970552644562474
 42
3.783071718377064
  0
ELLIPSE
  5
A65
330
2
100
AcDbEntity
  8
1
  6
Continuous
 62
     0
370
    20
100
AcDbEllipse
 10
2667.782751219885
 20
-2782.96765803256
 30
0.0000000000000051
 11
-0.923222784368504
 21
3.877150001179202
 31
0.0000000000000002
210
0.0
220
0.0
230
1.0
 40
0.4644807416852922
 41
2.508007535952062
 42
3.120562274291597
  0
ELLIPSE
  5
A66
330
2
100
AcDbEntity
  8
1
  6
Continuous
 62
     0
370
    20
100
AcDbEllipse
 10
2667.325307925192
 20
-2767.725492443522
 30
0.0000000000000028
 11
0.9470943352219975
 21
-0.3209552096496967
 31
0.0
210
0.0
220
0.0
230
1.0
 40
0.4197491472372226
 41
3.97089941211271
 42
4.660939254983531
  0
ELLIPSE
  5
A67
330
2
100
AcDbEntity
  8
1
  6
Continuous
 62
     0
370
    20
100
AcDbEllipse
 10
2668.668645921832
 20
-2773.676750585986
 30
-0.0000000000000059
 11
-3.462085441380358
 21
14.53931250440625
 31
0.0000000000000007
210
0.0
220
0.0
230
1.0
 40
0.4644807416855218
 41
2.508007535952903
 42
3.120562274292006
  0
ELLIPSE
  5
A68
330
2
100
AcDbEntity
  8
1
  6
Continuous
 62
     0
370
    20
100
AcDbEllipse
 10
2667.705537195227
 20
-2719.015557417861
 30
0.0000000000000037
 11
5.481624743313176
 21
69.9053271402674
 31
0.0000000000000022
210
0.0
220
0.0
230
1.0
 40
0.0479372926408066
 41
3.108461991637351
 42
3.869544476905648
  0
ELLIPSE
  5
A69
330
2
100
AcDbEntity
  8
1
  6
Continuous
 62
     0
370
    20
100
AcDbEllipse
 10
2669.079319340815
 20
-2796.984502310957
 30
-0.0000000000000006
 11
-7.49835581997093
 21
-0.158991341835149
 31
0.0000000000000003
210
0.0
220
0.0
230
1.0
 40
0.3789945725028808
 41
0.4279402764373533
 42
1.990009956972289
  0
ELLIPSE
  5
A6A
330
2
100
AcDbEntity
  8
1
  6
Continuous
 62
     0
370
    20
100
AcDbEllipse
 10
2667.529263605539
 20
-2768.580979695628
 30
0.0000000000000064
 11
-1.997881040318947
 21
-0.1150340439480536
 31
0.0000000000000001
210
0.0
220
0.0
230
1.0
 40
0.5026479223446008
 41
4.271755616332588
 42
4.700483690579526
  0
ELLIPSE
  5
A6B
330
2
100
AcDbEntity
  8
1
  6
Continuous
 62
     0
370
    20
100
AcDbEllipse
 10
2707.738832525711
 20
-2739.777985481911
 30
0.0000000000000025
 11
1.119618200662573
 21
1.344974008947793
 31
0.0
210
0.0
220
0.0
230
1.0
 40
0.8421625057720032
 41
3.233206393789576
 42
4.082395470512572
  0
ELLIPSE
  5
A6C
330
2
100
AcDbEntity
  8
1
  6
Continuous
 62
     0
370
    20
100
AcDbEllipse
 10
2707.738832525819
 20
-2739.777985481911
 30
0.0000000000000032
 11
-1.599454572375105
 21
-1.92139144135399
 31
0.0
210
0.0
220
0.0
230
0.9999999999999998
 40
0.8421625057720035
 41
3.838880480439531
 42
6.283134920382203
  0
ELLIPSE
  5
A6D
330
2
100
AcDbEntity
  8
1
  6
Continuous
 62
     0
370
    20
100
AcDbEllipse
 10
2688.88174324525
 20
-2752.539770809987
 30
-0.0000000000000041
 11
-10.12209834207996
 21
-7.532752639827653
 31
0.0000000000000002
210
0.0
220
0.0
230
1.0
 40
0.3376642127836878
 41
5.913349329645941
 42
6.591300122196958
  0
ELLIPSE
  5
A6E
330
2
100
AcDbEntity
  8
1
  6
Continuous
 62
     0
370
    20
100
AcDbEllipse
 10
2692.319371536057
 20
-2753.148340422035
 30
0.0000000000000013
 11
1.858988459660205
 21
9.456047919766543
 31
0.0000000000000003
210
0.0
220
0.0
230
1.0
 40
0.4586520287304615
 41
3.150262260035347
 42
3.324129353383392
  0
ELLIPSE
  5
A6F
330
2
100
AcDbEntity
  8
1
  6
Continuous
 62
     0
370
    20
100
AcDbEllipse
 10
2703.11365309194
 20
-2751.08902986313
 30
0.0000000000000033
 11
-1.24358617201952
 21
9.01466464507979
 31
0.0000000000000004
210
0.0
220
0.0
230
1.0
 40
0.5143810026143899
 41
3.168062593398684
 42
3.341929685226666
  0
ELLIPSE
  5
A70
330
2
100
AcDbEntity
  8
1
  6
Continuous
 62
     0
370
    20
100
AcDbEllipse
 10
2706.50687443361
 20
-2749.177284990665
 30
0.0000000000000033
 11
-10.49857912989159
 21
3.209475987668199
 31
0.0000000000000006
210
0.0000000000000001
220
0.0
230
1.0
 40
0.4460295696401122
 41
2.739880648961094
 42
3.417831433353811
  0
ELLIPSE
  5
A71
330
2
100
AcDbEntity
  8
1
  6
Continuous
 62
     0
370
    20
100
AcDbEllipse
 10
2705.457756657269
 20
-2745.378959946064
 30
0.0000000000000015
 11
6.805236415471213
 21
10.04215432710781
 31
0.0000000000000001
210
0.0
220
0.0
230
1.0
 40
0.3478475648254684
 41
5.995023598671238
 42
6.617131674987226
  0
ELLIPSE
  5
A72
330
2
100
AcDbEntity
  8
1
  6
Continuous
 62
     0
370
    20
100
AcDbEllipse
 10
2704.649605899096
 20
-2757.857127653904
 30
-0.0000000000000068
 11
0.511825463160034
 21
0.6148452612332772
 31
0.0
210
0.0
220
0.0
230
0.9999999999999998
 40
0.8421625057720032
 41
2.717317425204595
 42
4.288113751999399
  0
ELLIPSE
  5
A73
330
2
100
AcDbEntity
  8
1
  6
Continuous
 62
     0
370
    20
100
AcDbEllipse
 10
2703.735434369215
 20
-2755.596371001537
 30
-0.0000000000000031
 11
0.511825463160034
 21
0.6148452612332772
 31
0.0
210
0.0
220
0.0
230
0.9999999999999998
 40
0.8421625057720032
 41
1.146521098409607
 42
2.717317425204603
  0
ELLIPSE
  5
A74
330
2
100
AcDbEntity
  8
1
  6
Continuous
 62
     0
370
    20
100
AcDbEllipse
 10
2713.929482999738
 20
-2749.853032069791
 30
-0.0000000000000035
 11
0.511825463160034
 21
0.6148452612332772
 31
0.0
210
0.0
220
0.0
230
0.9999999999999998
 40
0.8421625057720032
 41
5.858910078793416
 42
7.429706405616061
  0
ELLIPSE
  5
A75
330
2
100
AcDbEntity
  8
1
  6
Continuous
 62
     0
370
    20
100
AcDbEllipse
 10
2714.84365452962
 20
-2752.113788722157
 30
-0.0000000000000036
 11
0.511825463160034
 21
0.6148452612332772
 31
0.0
210
0.0
220
0.0
230
0.9999999999999998
 40
0.8421625057720032
 41
4.288113751999392
 42
5.858910078794306
  0
ELLIPSE
  5
A76
330
2
100
AcDbEntity
  8
1
  6
Continuous
 62
     0
370
    20
100
AcDbEllipse
 10
2703.871592673961
 20
-2740.515769446346
 30
-0.0000000000000004
 11
-1.599454572375105
 21
-1.92139144135399
 31
0.0
210
0.0
220
0.0
230
0.9999999999999998
 40
0.8421625057720035
 41
3.939047901600821
 42
6.28314435065252
  0
ELLIPSE
  5
A77
330
2
100
AcDbEntity
  8
1
  6
Continuous
 62
     0
370
    20
100
AcDbEllipse
 10
2703.871592673853
 20
-2740.515769446353
 30
-0.0000000000000008
 11
1.119618200662573
 21
1.344974008947793
 31
0.0
210
0.0
220
0.0
230
1.0
 40
0.8421625057720032
 41
3.233187095849396
 42
4.082395470512025
  0
ELLIPSE
  5
A78
330
2
100
AcDbEntity
  8
1
  6
Continuous
 62
     0
370
    20
100
AcDbEllipse
 10
2689.79043000807
 20
-2748.367939893059
 30
-0.0000000000000006
 11
-6.976546898000196
 21
7.523298939822227
 31
0.0000000000000006
210
0.0
220
0.0
230
1.0
 40
0.4862430620205613
 41
5.987783223318865
 42
6.609891304709917
  0
ELLIPSE
  5
A79
330
2
100
AcDbEntity
  8
1
  6
Continuous
 62
     0
370
    20
100
AcDbEllipse
 10
2668.036269922732
 20
-2727.129189447109
 30
0.0000000000000003
 11
1.27950154485969
 21
1.537167053340894
 31
0.0
210
0.0
220
0.0
230
1.0
 40
0.842212077996518
 41
0.7974428863015751
 42
2.106382590695988
  0
ELLIPSE
  5
A7A
330
2
100
AcDbEntity
  8
1
  6
Continuous
 62
     0
370
    20
100
AcDbEllipse
 10
2717.193701529349
 20
-2726.60961597617
 30
0.0000000000000017
 11
0.3747962095248967
 21
-1.964568095364924
 31
0.0
210
0.0
220
0.0
230
1.0
 40
0.3766639760667848
 41
1.141164499544605
 42
2.703234180080007
  0
ELLIPSE
  5
A7B
330
2
100
AcDbEntity
  8
1
  6
Continuous
 62
     0
370
    20
100
AcDbEllipse
 10
2676.659921336763
 20
-2734.342566139485
 30
0.0000000000000013
 11
-0.3747962095248967
 21
1.964568095364924
 31
0.0
210
0.0
220
0.0
230
1.0
 40
0.3766639760667848
 41
4.282757153134362
 42
5.844826833669785
  0
ELLIPSE
  5
A7C
330
2
100
AcDbEntity
  8
1
  6
Continuous
 62
     0
370
    20
100
AcDbEllipse
 10
2676.659921336763
 20
-2734.342566139488
 30
-0.0000000000000096
 11
-1.283201317934766
 21
-1.534077696093151
 31
-0.0000000000000001
210
-0.0000000000000001
220
0.0
230
1.0
 40
0.8362196196272309
 41
3.941065161246405
 42
5.250005090572104
  0
ELLIPSE
  5
A7D
330
2
100
AcDbEntity
  8
1
  6
Continuous
 62
     0
370
    20
100
AcDbEllipse
 10
2649.036585682892
 20
-2744.233226933733
 30
-0.0000000000000171
 11
3.56803848816333
 21
46.1202272127933
 31
-0.0000000000000026
210
0.0000000000000001
220
0.0
230
0.9999999999999998
 40
0.4710336948734257
 41
4.147740541701834
 42
4.209071527419107
  0
ELLIPSE
  5
A7E
330
2
100
AcDbEntity
  8
1
  6
Continuous
 62
     0
370
    20
100
AcDbEllipse
 10
2708.835070607256
 20
-2750.161131256604
 30
0.0000000000000034
 11
-10.49857912988796
 21
3.209475987666781
 31
0.0000000000000006
210
0.0000000000000001
220
0.0
230
1.0
 40
0.4460295696401814
 41
2.739880644833229
 42
3.417831438520465
  0
ELLIPSE
  5
A7F
330
2
100
AcDbEntity
  8
1
  6
Continuous
 62
     0
370
    20
100
AcDbEllipse
 10
2703.834129342311
 20
-2752.978667415744
 30
0.0000000000000016
 11
-1.243586172034286
 21
9.01466464514565
 31
0.0000000000000004
210
0.0
220
0.0
230
1.0
 40
0.5143810026125494
 41
3.168062593393933
 42
3.341929685961016
  0
ELLIPSE
  5
A80
330
2
100
AcDbEntity
  8
1
  6
Continuous
 62
     0
370
    20
100
AcDbEllipse
 10
2692.484043908729
 20
-2755.144013080127
 30
0.0000000000000067
 11
1.858988459780281
 21
9.456047920624191
 31
0.0000000000000003
210
0.0
220
0.0
230
1.0
 40
0.4586520287101754
 41
3.150262261363293
 42
3.324129353376174
  0
ELLIPSE
  5
A81
330
2
100
AcDbEntity
  8
1
  6
Continuous
 62
     0
370
    20
100
AcDbEllipse
 10
2688.918806369738
 20
-2747.355235007203
 30
0.0000000000000011
 11
-6.976546897997578
 21
7.523298939819402
 31
0.0000000000000006
210
0.0
220
0.0
230
0.9999999999999998
 40
0.4862430620206461
 41
5.987783223323139
 42
6.609891304297594
  0
ELLIPSE
  5
A82
330
2
100
AcDbEntity
  8
1
  6
Continuous
 62
     0
370
    20
100
AcDbEllipse
 10
2707.101927684631
 20
-2743.886296993676
 30
0.000000000000005
 11
6.805236415483848
 21
10.04215432712632
 31
0.0000000000000001
210
0.0
220
0.0
230
1.0
 40
0.3478475648251249
 41
5.995023582072646
 42
6.617131674989883
  0
ELLIPSE
  5
A83
330
2
100
AcDbEntity
  8
1
  6
Continuous
 62
     0
370
    20
100
AcDbEllipse
 10
2676.659921336763
 20
-2734.342566139486
 30
-0.0000000000000061
 11
1.947022380439543
 21
-0.4572787443863193
 31
0.0
210
0.0
220
0.0
230
1.0
 40
0.2752232873505295
 41
3.653631494666067
 42
5.215694401134409
  0
ELLIPSE
  5
A84
330
2
100
AcDbEntity
  8
1
  6
Continuous
 62
     0
370
    20
100
AcDbEllipse
 10
2668.822982488952
 20
-2767.711043284216
 30
0.0000000000000037
 11
-2.099098706398053
 21
-0.3098700191257965
 31
0.0000000000000001
210
0.0
220
0.0
230
0.9999999999999998
 40
0.4217489907797329
 41
4.043508860060591
 42
5.605571766528962
  0
ELLIPSE
  5
A85
330
2
100
AcDbEntity
  8
1
  6
Continuous
 62
     0
370
    20
100
AcDbEllipse
 10
2687.417655529099
 20
-2754.247101098037
 30
-0.0000000000000023
 11
-10.12209834208185
 21
-7.532752639829051
 31
0.0000000000000002
210
0.0
220
0.0
230
1.0
 40
0.3376642127836535
 41
5.913349334650629
 42
6.591300119401967
  0
SPLINE
  5
AA7
330
2
100
AcDbEntity
  8
1
  6
Continuous
 62
     0
370
    20
100
AcDbSpline
210
0.0000000000000021
220
-0.0000000000000035
230
-1.0
 70
     8
 71
     3
 72
    20
 73
    16
 74
     0
 42
0.0000000001
 43
0.0000000001
 40
0.0
 40
0.0
 40
0.0
 40
0.0
 40
0.0442670806809044
 40
0.1286608179530368
 40
0.2133132369603409
 40
0.2983412365471312
 40
0.3838559067854479
 40
0.4699792539692367
 40
0.5568063675180813
 40
0.64428515064379
 40
0.7316715191866942
 40
0.8081147187452689
 40
0.8807138732918764
 40
0.958156375295797
 40
1.0
 40
1.0
 40
1.0
 40
1.0
 10
2724.626577948564
 20
-2789.808131565998
 30
-0.0000000000000003
 10
2724.740664168127
 20
-2789.786367573083
 30
-0.0000000000000019
 10
2725.067946821511
 20
-2789.719998186528
 30
0.0000000000000011
 10
2725.591602801013
 20
-2789.594601989542
 30
0.0000000000000006
 10
2726.178600294608
 20
-2789.42262237965
 30
-0.0000000000000004
 10
2726.726641983529
 20
-2789.228148562139
 30
-0.0000000000000012
 10
2727.231338761791
 20
-2789.011665167256
 30
-0.0000000000000019
 10
2727.688722136177
 20
-2788.773254728243
 30
0.0000000000000001
 10
2728.094785196225
 20
-2788.512457521146
 30
0.0000000000000009
 10
2728.444598472316
 20
-2788.228625216975
 30
-0.0000000000000014
 10
2728.721080398319
 20
-2787.932762799917
 30
-0.0000000000000005
 10
2728.924684167195
 20
-2787.63103679693
 30
-0.0000000000000022
 10
2729.061257805932
 20
-2787.320984229268
 30
-0.0000000000000006
 10
2729.128705619209
 20
-2787.042479412811
 30
-0.0000000000000019
 10
2729.127482340305
 20
-2786.867452864112
 30
0.0
 10
2729.122678232849
 20
-2786.805536481398
 30
-0.0000000000000027
  0
SPLINE
  5
AA8
330
2
100
AcDbEntity
  8
1
  6
Continuous
 62
     0
370
    20
100
AcDbSpline
210
0.0000000000005304
220
-0.0000000000000395
230
-1.0
 70
     8
 71
     3
 72
    10
 73
     6
 74
     0
 42
0.0000000001
 43
0.0000000001
 40
0.0
 40
0.0
 40
0.0
 40
0.0
 40
0.088870043691928
 40
0.680347682940421
 40
1.0
 40
1.0
 40
1.0
 40
1.0
 10
2649.911530298446
 20
-2757.422234233523
 30
0.0
 10
2649.908254190656
 20
-2757.445536024998
 30
0.0
 10
2649.88430347482
 20
-2757.623768603985
 30
-0.0000000000000018
 10
2649.865668139707
 20
-2757.887801783003
 30
-0.0000000000000018
 10
2649.858785379946
 20
-2758.120899775368
 30
0.0
 10
2649.858103703696
 20
-2758.202241953837
 30
0.0000000000000036
  0
SPLINE
  5
AA9
330
2
100
AcDbEntity
  8
1
  6
Continuous
 62
     0
370
    20
100
AcDbSpline
210
0.0000000000030389
220
-0.0000000000003949
230
-1.0
 70
     8
 71
     3
 72
    10
 73
     6
 74
     0
 42
0.0000000001
 43
0.0000000001
 40
0.0
 40
0.0
 40
0.0
 40
0.0
 40
0.2750830650817557
 40
0.8433730987021036
 40
1.0
 40
1.0
 40
1.0
 40
1.0
 10
2650.312267093104
 20
-2754.326964737364
 30
0.000000000000001
 10
2650.270803125965
 20
-2754.611202682993
 30
-0.0000000000000018
 10
2650.147333347426
 20
-2755.48380143155
 30
-0.0000000000000017
 10
2650.014134409732
 20
-2756.523305930084
 30
0.0000000000000018
 10
2649.925942595803
 20
-2757.278782920025
 30
0.0000000000000036
 10
2649.907275383718
 20
-2757.442125004776
 30
-0.0000000000000018
  0
SPLINE
  5
AAA
330
2
100
AcDbEntity
  8
1
  6
Continuous
 62
     0
370
    20
100
AcDbSpline
210
-0.000000000000028
220
0.0000000000000004
230
-1.0
 70
     8
 71
     3
 72
    12
 73
     8
 74
     0
 42
0.0000000001
 43
0.0000000001
 40
0.0
 40
0.0
 40
0.0
 40
0.0
 40
0.1921833072181147
 40
0.4907592497981256
 40
0.7486798345191757
 40
0.9684229195744991
 40
1.0
 40
1.0
 40
1.0
 40
1.0
 10
2649.854636685793
 20
-2758.204483623997
 30
-0.0000000000000018
 10
2649.834704149032
 20
-2758.93106246047
 30
0.0000000000000036
 10
2649.787866315204
 20
-2760.788895358659
 30
0.0000000000000018
 10
2649.728983813093
 20
-2763.631150322686
 30
0.0000000000000018
 10
2649.692822987422
 20
-2766.592074495505
 30
-0.0000000000000044
 10
2649.678918013071
 20
-2768.540356849952
 30
0.0000000000000009
 10
2649.684906382295
 20
-2769.507900248323
 30
0.0000000000000027
 10
2649.685785798103
 20
-2769.629528962922
 30
0.0000000000000009
  0
SPLINE
  5
AAB
330
2
100
AcDbEntity
  8
1
  6
Continuous
 62
     0
370
    20
100
AcDbSpline
210
0.0000000000002846
220
0.0000000000000154
230
-1.0
 70
     8
 71
     3
 72
    11
 73
     7
 74
     0
 42
0.0000000001
 43
0.0000000001
 40
0.0
 40
0.0
 40
0.0
 40
0.0
 40
0.1572394974277213
 40
0.3935825317536778
 40
0.6696041161156577
 40
1.0
 40
1.0
 40
1.0
 40
1.0
 10
2728.81193432195
 20
-2769.725525575009
 30
-0.0000000000000027
 10
2728.794675636337
 20
-2769.191999838485
 30
-0.0000000000000018
 10
2728.745878135538
 20
-2767.850466921579
 30
-0.0000000000000018
 10
2728.633833532386
 20
-2765.536341611057
 30
0.0000000000000009
 10
2728.467911945771
 20
-2762.597461355755
 30
0.0000000000000018
 10
2728.332254638399
 20
-2760.465946935935
 30
-0.0000000000000018
 10
2728.253056671226
 20
-2759.299117135336
 30
-0.0000000000000018
  0
SPLINE
  5
AAC
330
2
100
AcDbEntity
  8
1
  6
Continuous
 62
     0
370
    20
100
AcDbSpline
210
-0.0000000000003436
220
-0.0000000000000448
230
-1.0
 70
     8
 71
     3
 72
    10
 73
     6
 74
     0
 42
0.0000000001
 43
0.0000000001
 40
0.0
 40
0.0
 40
0.0
 40
0.0
 40
0.2873802627620581
 40
0.9194304133465715
 40
1.0
 40
1.0
 40
1.0
 40
1.0
 10
2728.249679483591
 20
-2759.303124051377
 30
0.0
 10
2728.246491706081
 20
-2759.23150942931
 30
0.0
 10
2728.231044534924
 20
-2759.007395940122
 30
-0.0000000000000036
 10
2728.203203785171
 20
-2758.775248619878
 30
-0.0000000000000018
 10
2728.167473674137
 20
-2758.624112564007
 30
-0.0000000000000018
 10
2728.163289703841
 20
-2758.607160316617
 30
-0.0000000000000018
  0
SPLINE
  5
AAD
330
2
100
AcDbEntity
  8
1
  6
Continuous
 62
     0
370
    20
100
AcDbSpline
210
0.000000000004455
220
0.0000000000009449
230
-1.0
 70
     8
 71
     3
 72
    10
 73
     6
 74
     0
 42
0.0000000001
 43
0.0000000001
 40
0.0
 40
0.0
 40
0.0
 40
0.0
 40
0.2922109619173376
 40
0.8496704772270639
 40
1.0
 40
1.0
 40
1.0
 40
1.0
 10
2728.168484391026
 20
-2758.6201358391
 30
-0.0000000000000018
 10
2728.123083162442
 20
-2758.388112376053
 30
-0.0000000000000018
 10
2727.986920895193
 20
-2757.708779300182
 30
-0.0000000000000036
 10
2727.812349876761
 20
-2756.892728040441
 30
-0.0000000000000018
 10
2727.680532427973
 20
-2756.306194298249
 30
0.0
 10
2727.652159128728
 20
-2756.181199261316
 30
-0.0000000000000018
  0
SPLINE
  5
AAE
330
2
100
AcDbEntity
  8
1
  6
Continuous
 62
     0
370
    20
100
AcDbSpline
210
0.0
220
0.0
230
1.0
 70
    24
 71
     1
 72
     4
 73
     2
 74
     0
 42
0.0000000001
 43
0.0000000001
 40
0.0
 40
0.0
 40
1.0
 40
1.0
 10
2727.653638372122
 20
-2756.187724729264
 30
-0.0000000000000036
 10
2727.64435240221
 20
-2756.148368669054
 30
0.0000000000000018
  0
SPLINE
  5
AAF
330
2
100
AcDbEntity
  8
1
  6
Continuous
 62
     0
370
    20
100
AcDbSpline
210
0.0000000000000002
220
0.000000000000002
230
-1.0
 70
     8
 71
     3
 72
    24
 73
    20
 74
     0
 42
0.0000000001
 43
0.0000000001
 40
0.0
 40
0.0
 40
0.0
 40
0.0
 40
0.0338404972938578
 40
0.0985802466360101
 40
0.1634519416719926
 40
0.2280367038434536
 40
0.2922087953258932
 40
0.3559970202580937
 40
0.4194718325414559
 40
0.4827049834114728
 40
0.5457586641393102
 40
0.6086846526517057
 40
0.6715263288947125
 40
0.7343212218417046
 40
0.7971034433919884
 40
0.8599003215533878
 40
0.9227401242894664
 40
0.9824162578240807
 40
1.0
 40
1.0
 40
1.0
 40
1.0
 10
2662.424284348905
 20
-2798.611710103913
 30
-0.0000000000000013
 10
2662.484187323144
 20
-2798.659197014059
 30
-0.0000000000000013
 10
2662.666152377227
 20
-2798.794363562008
 30
-0.0000000000000004
 10
2663.004801301657
 20
-2799.002768354206
 30
-0.0000000000000027
 10
2663.461323798999
 20
-2799.227461907064
 30
-0.0000000000000013
 10
2663.967693869077
 20
-2799.428798077604
 30
-0.0000000000000022
 10
2664.518152939295
 20
-2799.606072734493
 30
-0.0000000000000071
 10
2665.107515012919
 20
-2799.758822353431
 30
-0.0000000000000044
 10
2665.730726359614
 20
-2799.886625045294
 30
-0.0000000000000036
 10
2666.382576454457
 20
-2799.989032403312
 30
-0.0000000000000027
 10
2667.05758552805
 20
-2800.065611891697
 30
0.0000000000000036
 10
2667.750007723423
 20
-2800.116001801985
 30
-0.0000000000000027
 10
2668.453877651925
 20
-2800.139957183472
 30
-0.0000000000000053
 10
2669.163079678558
 20
-2800.13738065008
 30
-0.0000000000000009
 10
2669.871392879624
 20
-2800.108342584628
 30
-0.0000000000000027
 10
2670.572601113157
 20
-2800.053085731786
 30
-0.0000000000000036
 10
2671.248644674135
 20
-2799.973436637368
 30
-0.0000000000000027
 10
2671.745344616781
 20
-2799.895032825916
 30
-0.0000000000000044
 10
2672.012501280171
 20
-2799.845734714994
 30
-0.0000000000000018
 10
2672.072993574744
 20
-2799.834194936734
 30
-0.0000000000000027
  0
SPLINE
  5
AB0
330
2
100
AcDbEntity
  8
1
  6
Continuous
 62
     0
370
    20
100
AcDbSpline
210
0.0000000000000001
220
-0.0000000000000005
230
-1.0
 70
     8
 71
     2
 72
    16
 73
    13
 74
     0
 42
0.0000000001
 43
0.0000000001
 40
0.0
 40
0.0
 40
0.0
 40
0.125
 40
0.25
 40
0.375
 40
0.5
 40
0.625
 40
0.75
 40
0.875
 40
0.875
 40
0.9375
 40
0.9375
 40
1.0
 40
1.0
 40
1.0
 10
2675.292605700379
 20
-2723.893747588662
 30
0.0000000000000036
 10
2674.107693464399
 20
-2722.930058139556
 30
0.0
 10
2673.906803115161
 20
-2720.767364397256
 30
-0.0000000000000036
 10
2675.913483894065
 20
-2718.698193396522
 30
-0.0000000000000036
 10
2679.821783244863
 20
-2717.039781665068
 30
-0.0000000000000036
 10
2685.036600645113
 20
-2716.044754482739
 30
0.0
 10
2690.763029041697
 20
-2715.864761191385
 30
-0.0000000000000036
 10
2696.128710082946
 20
-2716.527146833182
 30
0.0000000000000036
 10
2698.223038375308
 20
-2717.2292612447
 30
-0.0000000000000036
 10
2699.254010500083
 20
-2717.574890146013
 30
0.0
 10
2700.086557282324
 20
-2717.998278820949
 30
0.0
 10
2700.915815364914
 20
-2718.419995039494
 30
0.0
 10
2701.498847636556
 20
-2718.894175343533
 30
0.0000000000000036
  0
SPLINE
  5
AB1
330
2
100
AcDbEntity
  8
1
  6
Continuous
 62
     0
370
    20
100
AcDbSpline
210
0.0
220
0.0000000000000005
230
-1.0
 70
     8
 71
     3
 72
    33
 73
    29
 74
     0
 42
0.0000000001
 43
0.0000000001
 40
0.0
 40
0.0
 40
0.0
 40
0.0
 40
0.02950867727072
 40
0.0584365658807005
 40
0.0867836447640442
 40
0.1145498934162975
 40
0.1417352919034469
 40
0.1683398208718961
 40
0.1943634615595534
 40
0.2198061958081838
 40
0.2446680060772022
 40
0.2689488754591168
 40
0.2926487876968611
 40
0.315767727203304
 40
0.3383056790832719
 40
0.3602626291584833
 40
0.3816385639958717
 40
0.4024334709398623
 40
0.4226473381492868
 40
0.442280154639761
 40
0.4613319103325205
 40
0.4798025961109398
 40
0.4976922038862277
 40
0.515000726674148
 40
0.6169695561229602
 40
0.73624776044917
 40
0.8727504380776608
 40
1.0
 40
1.0
 40
1.0
 40
1.0
 10
2700.608521615927
 20
-2719.992958613462
 30
-0.0000000000000071
 10
2700.432604806961
 20
-2719.85918346361
 30
-0.0000000000000036
 10
2700.084233576955
 20
-2719.594266121303
 30
0.0
 10
2699.449135170664
 20
-2719.226974465791
 30
-0.0000000000000036
 10
2698.750198049546
 20
-2718.889027945185
 30
0.0
 10
2697.988924470133
 20
-2718.583133196237
 30
-0.0000000000000036
 10
2697.17750877247
 20
-2718.309493682533
 30
0.0000000000000036
 10
2696.324994230278
 20
-2718.068429246528
 30
0.0
 10
2695.440747521159
 20
-2717.859744813857
 30
0.0
 10
2694.533456611647
 20
-2717.682945020287
 30
0.0000000000000036
 10
2693.61131121957
 20
-2717.537229715895
 30
0.0
 10
2692.681895756235
 20
-2717.421545848016
 30
-0.0000000000000036
 10
2691.752174544727
 20
-2717.334623485707
 30
0.0
 10
2690.828469278697
 20
-2717.275014056437
 30
0.0
 10
2689.916452947711
 20
-2717.241125594394
 30
0.0
 10
2689.02115229802
 20
-2717.231255927402
 30
0.0
 10
2688.14695908228
 20
-2717.243623308174
 30
-0.0000000000000036
 10
2687.297648816466
 20
-2717.276394258457
 30
0.0
 10
2686.476404309352
 20
-2717.327709136697
 30
-0.0000000000000036
 10
2685.685848563107
 20
-2717.395703234743
 30
-0.0000000000000036
 10
2684.928065304044
 20
-2717.478531225979
 30
0.0
 10
2684.204679951133
 20
-2717.574367223718
 30
0.0
 10
2683.516737142944
 20
-2717.681479685892
 30
-0.0000000000000036
 10
2681.795922268184
 20
-2717.989355936995
 30
0.0
 10
2679.032408562358
 20
-2718.727606564038
 30
0.0
 10
2676.024800074705
 20
-2720.285163958291
 30
0.0
 10
2674.658137499531
 20
-2722.276739447262
 30
0.0
 10
2675.223273384057
 20
-2723.660404577201
 30
-0.0000000000000029
 10
2675.812118794414
 20
-2724.270847181226
 30
-0.0000000000000054
  0
SPLINE
  5
AB2
330
2
100
AcDbEntity
  8
1
  6
Continuous
 62
     0
370
    20
100
AcDbSpline
210
0.0
220
0.0
230
1.0
 70
    24
 71
     1
 72
     4
 73
     2
 74
     0
 42
0.0000000001
 43
0.0000000001
 40
0.0
 40
0.0
 40
1.0
 40
1.0
 10
2700.608521615927
 20
-2719.992958613462
 30
0.0
 10
2701.498847636556
 20
-2718.894175343533
 30
0.0000000000000036
  0
SPLINE
  5
AB3
330
2
100
AcDbEntity
  8
1
  6
Continuous
 62
     0
370
    20
100
AcDbSpline
210
0.0000000000000013
220
0.0000000000000012
230
-1.0
 70
     8
 71
     3
 72
    12
 73
     8
 74
     0
 42
0.0000000001
 43
0.0000000001
 40
0.0
 40
0.0
 40
0.0
 40
0.0
 40
0.1408140111065832
 40
0.3420319864738042
 40
0.5523040394463949
 40
0.7716276057112712
 40
1.0
 40
1.0
 40
1.0
 40
1.0
 10
2700.985733591703
 20
-2723.987978118331
 30
-0.0000000000000027
 10
2701.15506689854
 20
-2723.805141000908
 30
-0.0000000000000018
 10
2701.505102886569
 20
-2723.352945212457
 30
0.0
 10
2701.822370457702
 20
-2722.601341974119
 30
0.0
 10
2701.826392727213
 20
-2721.736415485846
 30
0.0
 10
2701.473318698088
 20
-2720.845392993232
 30
0.0000000000000036
 10
2700.900647139363
 20
-2720.280993127362
 30
0.0
 10
2700.608523942975
 20
-2719.993089371104
 30
0.0000000000000036
  0
SPLINE
  5
AB4
330
2
100
AcDbEntity
  8
1
  6
Continuous
 62
     0
370
    20
100
AcDbSpline
210
0.0
220
0.0000000000000003
230
-1.0
 70
     8
 71
     2
 72
    15
 73
    12
 74
     0
 42
0.0000000001
 43
0.0000000001
 40
0.0
 40
0.0
 40
0.0
 40
0.125
 40
0.125
 40
0.25
 40
0.375
 40
0.5
 40
0.625
 40
0.75
 40
0.875
 40
0.875
 40
1.0
 40
1.0
 40
1.0
 10
2701.498857266149
 20
-2718.894173511788
 30
-0.0000000000000036
 10
2702.684088883411
 20
-2719.906786768073
 30
-0.0000000000000036
 10
2702.785571868727
 20
-2721.025690977683
 30
0.0
 10
2702.887517355617
 20
-2722.149694514613
 30
0.0
 10
2700.88554778695
 20
-2724.283355279123
 30
-0.0000000000000036
 10
2696.982737209095
 20
-2725.977166982461
 30
-0.0000000000000036
 10
2691.772824513482
 20
-2726.97344115556
 30
-0.0000000000000036
 10
2686.048931407099
 20
-2727.120457585628
 30
0.0
 10
2680.68207112452
 20
-2726.395872959981
 30
-0.0000000000000071
 10
2678.585051361312
 20
-2725.652639073241
 30
-0.0000000000000071
 10
2676.492671451766
 20
-2724.911049661451
 30
0.0
 10
2675.302812355611
 20
-2723.902419469019
 30
0.0000000000000036
  0
SPLINE
  5
AB5
330
2
100
AcDbEntity
  8
1
  6
Continuous
 62
     0
370
    20
100
AcDbSpline
210
-0.0000000000001911
220
-0.0000000000005683
230
-1.0
 70
     8
 71
     3
 72
    10
 73
     6
 74
     0
 42
0.0000000001
 43
0.0000000001
 40
0.0
 40
0.0
 40
0.0
 40
0.0
 40
0.2899916159100505
 40
0.7995952908030514
 40
1.0
 40
1.0
 40
1.0
 40
1.0
 10
2649.908933438219
 20
-2757.42217095177
 30
-0.0000000000000026
 10
2649.908761449259
 20
-2757.424801751742
 30
-0.0000000000000025
 10
2649.917826289373
 20
-2757.433173350595
 30
-0.0000000000000018
 10
2649.955801429748
 20
-2757.446442521108
 30
-0.0000000000000018
 10
2650.003272653904
 20
-2757.457699506958
 30
-0.0000000000000036
 10
2650.016671730711
 20
-2757.460876867995
 30
0.0
  0
SPLINE
  5
AB6
330
2
100
AcDbEntity
  8
1
  6
Continuous
 62
     0
370
    20
100
AcDbSpline
210
-0.0000000000001948
220
0.0000000000000481
230
-1.0
 70
     8
 71
     3
 72
     9
 73
     5
 74
     0
 42
0.0000000001
 43
0.0000000001
 40
0.0
 40
0.0
 40
0.0
 40
0.0
 40
0.4860158514553719
 40
1.0
 40
1.0
 40
1.0
 40
1.0
 10
2728.165417440048
 20
-2758.605153664947
 30
0.0000000000000015
 10
2728.175380333553
 20
-2758.65501199379
 30
0.0000000000000018
 10
2728.179701613975
 20
-2758.760851177141
 30
0.0000000000000017
 10
2728.137897491137
 20
-2758.867105570225
 30
-0.0000000000000018
 10
2728.116410834656
 20
-2758.921718643983
 30
-0.0000000000000036
  0
SPLINE
  5
AB7
330
2
100
AcDbEntity
  8
1
  6
Continuous
 62
     0
370
    20
100
AcDbSpline
210
-0.0000000000641799
220
-0.0000000000336412
230
-1.0
 70
     8
 71
     3
 72
     9
 73
     5
 74
     0
 42
0.0000000001
 43
0.0000000001
 40
0.0
 40
0.0
 40
0.0
 40
0.0
 40
0.546642837385877
 40
1.0
 40
1.0
 40
1.0
 40
1.0
 10
2727.316267615876
 20
-2756.162763726141
 30
0.0
 10
2727.359361337553
 20
-2756.242793654609
 30
-0.0000000000000018
 10
2727.43819475259
 20
-2756.389196246931
 30
0.0
 10
2727.507477119706
 20
-2756.525728816792
 30
0.0000000000000018
 10
2727.538886777082
 20
-2756.587626835268
 30
0.0000000000000018
  0
SPLINE
  5
AB8
330
2
100
AcDbEntity
  8
1
  6
Continuous
 62
     0
370
    20
100
AcDbSpline
210
-0.0000000000023438
220
-0.0000000000003444
230
-1.0
 70
     8
 71
     3
 72
    10
 73
     6
 74
     0
 42
0.0000000001
 43
0.0000000001
 40
0.0
 40
0.0
 40
0.0
 40
0.0
 40
0.5
 40
0.5
 40
1.0
 40
1.0
 40
1.0
 40
1.0
 10
2728.116402802645
 20
-2758.92173591544
 30
0.0
 10
2728.135383807418
 20
-2759.005140599621
 30
0.0000000000000018
 10
2728.15165119079
 20
-2759.093279668545
 30
-0.0000000000000036
 10
2728.178718861017
 20
-2759.280555122578
 30
0.0000000000000018
 10
2728.189366695957
 20
-2759.378641122758
 30
0.0000000000000036
 10
2728.197120735365
 20
-2759.481621263656
 30
0.0000000000000036
  0
SPLINE
  5
AB9
330
2
100
AcDbEntity
  8
1
  6
Continuous
 62
     0
370
    20
100
AcDbSpline
210
0.0000000000051626
220
0.000000000001278
230
-1.0
 70
     8
 71
     3
 72
    16
 73
    12
 74
     0
 42
0.0000000001
 43
0.0000000001
 40
0.0
 40
0.0
 40
0.0
 40
0.0
 40
0.1382238956554155
 40
0.2552502147332671
 40
0.3510920326803348
 40
0.4257604772805112
 40
0.4792644761226245
 40
0.511610563924779
 40
0.5228027467241378
 40
0.7854972653146027
 40
1.0
 40
1.0
 40
1.0
 40
1.0
 10
2727.540301405575
 20
-2756.590433353821
 30
0.0000000000000036
 10
2727.569351669188
 20
-2756.700555231836
 30
-0.0000000000000018
 10
2727.622997140472
 20
-2756.903911047248
 30
-0.0000000000000036
 10
2727.694493011382
 20
-2757.181330067846
 30
-0.0000000000000018
 10
2727.751929653064
 20
-2757.407401687864
 30
-0.0000000000000018
 10
2727.795893920925
 20
-2757.582735171693
 30
0.0
 10
2727.82698692777
 20
-2757.707953618288
 30
-0.0000000000000018
 10
2727.845617282557
 20
-2757.783483816376
 30
-0.0000000000000053
 10
2727.904135602719
 20
-2758.021551732728
 30
0.0
 10
2727.995394555705
 20
-2758.398398144491
 30
-0.0000000000000018
 10
2728.079103365212
 20
-2758.759474067293
 30
-0.0000000000000036
 10
2728.116730925794
 20
-2758.921779638706
 30
0.0
  0
SPLINE
  5
ABA
330
2
100
AcDbEntity
  8
1
  6
Continuous
 62
     0
370
    20
100
AcDbSpline
210
0.0000000000003684
220
-0.0000000000000326
230
-1.0
 70
     8
 71
     3
 72
    10
 73
     6
 74
     0
 42
0.0000000001
 43
0.0000000001
 40
0.0
 40
0.0
 40
0.0
 40
0.0
 40
0.5
 40
0.5
 40
1.0
 40
1.0
 40
1.0
 40
1.0
 10
2649.942793064497
 20
-2758.321175178552
 30
-0.0000000000000018
 10
2649.947732485596
 20
-2758.179938233627
 30
0.0000000000000018
 10
2649.956375616708
 20
-2758.03709105098
 30
-0.0000000000000018
 10
2649.981166190701
 20
-2757.748400967121
 30
0.0000000000000036
 10
2649.997154523668
 20
-2757.604421257346
 30
0.0
 10
2650.016670943335
 20
-2757.460882922032
 30
-0.0000000000000036
  0
SPLINE
  5
ABB
330
2
100
AcDbEntity
  8
1
  6
Continuous
 62
     0
370
    20
100
AcDbSpline
210
0.0000000000000015
220
-0.0000000000000162
230
-1.0
 70
     8
 71
     3
 72
    24
 73
    20
 74
     0
 42
0.0000000001
 43
0.0000000001
 40
0.0
 40
0.0
 40
0.0
 40
0.0
 40
0.2048372449626584
 40
0.2048372449626584
 40
0.3373643708021964
 40
0.3373643708021964
 40
0.4036279337219754
 40
0.4036279337219754
 40
0.4698914966417544
 40
0.4698914966417544
 40
0.6024186224813044
 40
0.6024186224813044
 40
0.7349457483208547
 40
0.7349457483208547
 40
0.8012093112406404
 40
0.8012093112406404
 40
0.8674728741604262
 40
0.8674728741604262
 40
1.0
 40
1.0
 40
1.0
 40
1.0
 10
2727.64444602638
 20
-2756.147339390995
 30
-0.0000000000000026
 10
2727.64179472477
 20
-2756.13536185149
 30
-0.0000000000000018
 10
2727.6359935362
 20
-2756.125356393225
 30
-0.000000000000002
 10
2727.620532868926
 20
-2756.112575271857
 30
-0.0000000000000036
 10
2727.612949179158
 20
-2756.108499998808
 30
0.0000000000000018
 10
2727.599001663994
 20
-2756.103997354806
 30
-0.0000000000000036
 10
2727.593922681645
 20
-2756.10276556931
 30
-0.0000000000000036
 10
2727.582836251206
 20
-2756.100883292155
 30
0.0
 10
2727.576818434574
 20
-2756.100233822334
 30
-0.0000000000000018
 10
2727.557449816071
 20
-2756.09923790849
 30
-0.0000000000000036
 10
2727.542745936083
 20
-2756.099828053024
 30
0.0000000000000053
 10
2727.509322074098
 20
-2756.103819747429
 30
-0.0000000000000018
 10
2727.490606733161
 20
-2756.107218048401
 30
0.0
 10
2727.459009753053
 20
-2756.114782395467
 30
0.0000000000000036
 10
2727.44784919068
 20
-2756.117728786462
 30
-0.0000000000000018
 10
2727.424513487462
 20
-2756.124447546312
 30
-0.0000000000000036
 10
2727.412324124094
 20
-2756.128221535169
 30
-0.0000000000000018
 10
2727.374105136853
 20
-2756.140855987383
 30
0.0000000000000018
 10
2727.346437797477
 20
-2756.151018432492
 30
0.0000000000000018
 10
2727.316225630326
 20
-2756.163204074558
 30
0.0
  0
SPLINE
  5
ABC
330
2
100
AcDbEntity
  8
1
  6
Continuous
 62
     0
370
    20
100
AcDbSpline
210
0.0
220
0.0
230
1.0
 70
    24
 71
     1
 72
     4
 73
     2
 74
     0
 42
0.0000000001
 43
0.0000000001
 40
0.0
 40
0.0
 40
1.0
 40
1.0
 10
2707.211372580295
 20
-2755.363553442524
 30
0.0000000000000018
 10
2707.418584374433
 20
-2755.536046064799
 30
0.0
  0
SPLINE
  5
ABD
330
2
100
AcDbEntity
  8
1
  6
Continuous
 62
     0
370
    20
100
AcDbSpline
210
0.0
220
0.0
230
1.0
 70
    24
 71
     1
 72
     4
 73
     2
 74
     0
 42
0.0000000001
 43
0.0000000001
 40
0.0
 40
0.0
 40
1.0
 40
1.0
 10
2706.099583139402
 20
-2755.156860541593
 30
0.0
 10
2705.892371345963
 20
-2754.984367918282
 30
0.0
  0
SPLINE
  5
ABE
330
2
100
AcDbEntity
  8
1
  6
Continuous
 62
     0
370
    20
100
AcDbSpline
210
0.0
220
0.0
230
1.0
 70
    24
 71
     1
 72
     4
 73
     2
 74
     0
 42
0.0000000001
 43
0.0000000001
 40
0.0
 40
0.0
 40
1.0
 40
1.0
 10
2705.41539695578
 20
-2756.46654920357
 30
-0.0000000000000018
 10
2705.62260895727
 20
-2756.639042000248
 30
0.0000000000000036
  0
SPLINE
  5
ABF
330
2
100
AcDbEntity
  8
1
  6
Continuous
 62
     0
370
    20
100
AcDbSpline
210
0.0000000000000039
220
0.0000000000000151
230
-1.0
 70
     8
 71
     3
 72
    22
 73
    18
 74
     0
 42
0.0000000001
 43
0.0000000001
 40
0.0
 40
0.0
 40
0.0
 40
0.0
 40
0.2010858636637959
 40
0.2010858636637959
 40
0.4021717273275918
 40
0.4021717273275918
 40
0.4524431932435364
 40
0.4524431932435364
 40
0.5027146591594808
 40
0.6032575909913655
 40
0.6032575909913655
 40
0.8043434546551287
 40
0.8043434546551287
 40
0.8546149205710737
 40
0.8546149205710737
 40
0.9048863864870183
 40
1.0
 40
1.0
 40
1.0
 40
1.0
 10
2708.78761384858
 20
-2717.503639926045
 30
0.0
 10
2708.887595237127
 20
-2717.48431188305
 30
0.0
 10
2708.986362812538
 20
-2717.473612655564
 30
-0.0000000000000036
 10
2709.181521434496
 20
-2717.468725436324
 30
0.0
 10
2709.277916192551
 20
-2717.474537808842
 30
0.0
 10
2709.396858982157
 20
-2717.492510257637
 30
0.0
 10
2709.420536502054
 20
-2717.496641462767
 30
0.0000000000000036
 10
2709.467302724201
 20
-2717.505902903619
 30
0.0
 10
2709.536725331354
 20
-2717.521317200846
 30
0.0
 10
2709.604002141463
 20
-2717.54122273562
 30
-0.0000000000000036
 10
2709.735731444244
 20
-2717.586937700202
 30
-0.0000000000000036
 10
2709.819804570747
 20
-2717.625245841667
 30
0.0
 10
2709.920048920984
 20
-2717.683240045424
 30
0.0
 10
2709.939886206239
 20
-2717.69537084937
 30
-0.0000000000000036
 10
2709.978722469223
 20
-2717.720442183875
 30
0.0000000000000036
 10
2710.033774533092
 20
-2717.757923193552
 30
0.0000000000000001
 10
2710.085685685785
 20
-2717.798892234282
 30
-0.0000000000000033
 10
2710.11832253289
 20
-2717.827164397752
 30
-0.0000000000000025
  0
SPLINE
  5
AC0
330
2
100
AcDbEntity
  8
1
  6
Continuous
 62
     0
370
    20
100
AcDbSpline
210
-0.0000000000000003
220
0.0
230
-1.0
 70
     8
 71
     3
 72
     9
 73
     5
 74
     0
 42
0.0000000001
 43
0.0000000001
 40
0.0
 40
0.0
 40
0.0
 40
0.0
 40
0.5
 40
1.0
 40
1.0
 40
1.0
 40
1.0
 10
2657.477297917525
 20
-2764.715768895195
 30
-0.0000000000000018
 10
2657.486498611111
 20
-2764.579577777312
 30
-0.0000000000000036
 10
2657.51638894251
 20
-2764.307057757668
 30
-0.0000000000000053
 10
2657.568995776017
 20
-2764.034265226078
 30
-0.0000000000000036
 10
2657.601043619029
 20
-2763.897800029331
 30
-0.0000000000000018
  0
SPLINE
  5
AC1
330
2
100
AcDbEntity
  8
1
  6
Continuous
 62
     0
370
    20
100
AcDbSpline
210
0.0000000000004593
220
-0.0000000000001067
230
-1.0
 70
     8
 71
     3
 72
    10
 73
     6
 74
     0
 42
0.0000000001
 43
0.0000000001
 40
0.0
 40
0.0
 40
0.0
 40
0.0
 40
0.5
 40
0.5
 40
1.0
 40
1.0
 40
1.0
 40
1.0
 10
2665.479172072512
 20
-2770.332559169214
 30
0.0
 10
2665.435523971524
 20
-2770.456013148233
 30
-0.0000000000000044
 10
2665.398539159745
 20
-2770.582521262439
 30
0.0000000000000009
 10
2665.339289813304
 20
-2770.842530968043
 30
0.0000000000000044
 10
2665.317414434898
 20
-2770.97436552585
 30
-0.0000000000000027
 10
2665.303596796944
 20
-2771.108214460029
 30
0.0000000000000009
  0
SPLINE
  5
AC2
330
2
100
AcDbEntity
  8
1
  6
Continuous
 62
     0
370
    20
100
AcDbSpline
210
-0.0000000000001323
220
0.0000000000001631
230
-1.0
 70
     8
 71
     3
 72
    18
 73
    14
 74
     0
 42
0.0000000001
 43
0.0000000001
 40
0.0
 40
0.0
 40
0.0
 40
0.0
 40
0.2500000000000098
 40
0.2500000000000098
 40
0.3750000000000098
 40
0.3750000000000098
 40
0.5000000000000098
 40
0.5000000000000098
 40
0.7499999999999907
 40
0.7499999999999907
 40
0.8749999999999953
 40
0.8749999999999953
 40
1.0
 40
1.0
 40
1.0
 40
1.0
 10
2679.959353733313
 20
-2723.99774347741
 30
-0.0000000000000036
 10
2680.011382912847
 20
-2723.980318556526
 30
0.0
 10
2680.062813586853
 20
-2723.957483471139
 30
-0.0000000000000036
 10
2680.139053375705
 20
-2723.915310100192
 30
-0.0000000000000036
 10
2680.164314065625
 20
-2723.899922711337
 30
-0.0000000000000036
 10
2680.214509648005
 20
-2723.866405170003
 30
0.0
 10
2680.239553880313
 20
-2723.84817716395
 30
-0.0000000000000036
 10
2680.312645515188
 20
-2723.790380131834
 30
-0.0000000000000036
 10
2680.35906466159
 20
-2723.747518983289
 30
0.0
 10
2680.425110938046
 20
-2723.676667841383
 30
0.0
 10
2680.446525093199
 20
-2723.651950128981
 30
0.0
 10
2680.488074424019
 20
-2723.600204228088
 30
0.0
 10
2680.508021737566
 20
-2723.573405249866
 30
0.0
 10
2680.527056741994
 20
-2723.545752461057
 30
-0.0000000000000036
  0
SPLINE
  5
AC3
330
2
100
AcDbEntity
  8
1
  6
Continuous
 62
     0
370
    20
100
AcDbSpline
210
0.0000000000000773
220
-0.0000000000001207
230
-1.0
 70
     8
 71
     3
 72
    18
 73
    14
 74
     0
 42
0.0000000001
 43
0.0000000001
 40
0.0
 40
0.0
 40
0.0
 40
0.0
 40
0.2500000000000223
 40
0.2500000000000223
 40
0.3750000000000188
 40
0.3750000000000188
 40
0.5000000000000153
 40
0.5000000000000153
 40
0.7500000000000076
 40
0.7500000000000076
 40
0.8750000000000037
 40
0.8750000000000037
 40
1.0
 40
1.0
 40
1.0
 40
1.0
 10
2681.698155272834
 20
-2721.918537098256
 30
0.0000000000000036
 10
2681.737843338489
 20
-2721.865727836119
 30
0.0
 10
2681.781000685011
 20
-2721.817155989751
 30
0.0
 10
2681.850818483174
 20
-2721.750448271637
 30
0.0000000000000036
 10
2681.874944158986
 20
-2721.729244918546
 30
-0.0000000000000036
 10
2681.92495502021
 20
-2721.688959320829
 30
-0.0000000000000071
 10
2681.950933482197
 20
-2721.669831439124
 30
-0.0000000000000036
 10
2682.029891276032
 20
-2721.616900171938
 30
0.0
 10
2682.084359574425
 20
-2721.587078178318
 30
0.0
 10
2682.168838459546
 20
-2721.550512669097
 30
-0.0000000000000036
 10
2682.197518818794
 20
-2721.539677260307
 30
0.0000000000000036
 10
2682.255613583457
 20
-2721.520937964028
 30
0.0
 10
2682.284821997842
 20
-2721.513094511621
 30
0.0
 10
2682.314192632109
 20
-2721.506781817526
 30
-0.0000000000000036
  0
SPLINE
  5
AC4
330
2
100
AcDbEntity
  8
1
  6
Continuous
 62
     0
370
    20
100
AcDbSpline
210
-0.0000000000024442
220
0.0000000000016176
230
-1.0
 70
     8
 71
     3
 72
     9
 73
     5
 74
     0
 42
0.0000000001
 43
0.0000000001
 40
0.0
 40
0.0
 40
0.0
 40
0.0
 40
0.5207479172802333
 40
1.0
 40
1.0
 40
1.0
 40
1.0
 10
2667.495532417419
 20
-2767.575608711825
 30
0.0000000000000036
 10
2667.435524312021
 20
-2767.671137190398
 30
0.0
 10
2667.320289851339
 20
-2767.854581953981
 30
-0.0000000000000044
 10
2667.199626498302
 20
-2768.02745142052
 30
0.0000000000000018
 10
2667.14179833505
 20
-2768.110299472397
 30
0.0000000000000018
  0
SPLINE
  5
AC5
330
2
100
AcDbEntity
  8
1
  6
Continuous
 62
     0
370
    20
100
AcDbSpline
210
0.000000000000383
220
0.0000000000004816
230
-1.0
 70
     8
 71
     3
 72
    14
 73
    10
 74
     0
 42
0.0000000001
 43
0.0000000001
 40
0.0
 40
0.0
 40
0.0
 40
0.0
 40
0.25
 40
0.25
 40
0.5
 40
0.5
 40
0.75
 40
0.75
 40
1.0
 40
1.0
 40
1.0
 40
1.0
 10
2666.018651876953
 20
-2770.768587109878
 30
0.0000000000000036
 10
2665.958102272083
 20
-2770.738775633929
 30
-0.0000000000000089
 10
2665.899948921399
 20
-2770.706373437463
 30
-0.000000000000008
 10
2665.790867976336
 20
-2770.637743373658
 30
0.0000000000000018
 10
2665.739943598715
 20
-2770.601517530195
 30
0.0
 10
2665.647457807101
 20
-2770.526759979043
 30
-0.0000000000000044
 10
2665.605899120482
 20
-2770.488230475929
 30
0.0
 10
2665.533889060919
 20
-2770.410482163064
 30
0.0000000000000036
 10
2665.503439811526
 20
-2770.371265646084
 30
0.0000000000000018
 10
2665.479183370072
 20
-2770.332527215768
 30
-0.0000000000000018
  0
SPLINE
  5
AC6
330
2
100
AcDbEntity
  8
1
  6
Continuous
 62
     0
370
    20
100
AcDbSpline
210
-0.0000000000159847
220
0.0000000000067474
230
-1.0
 70
     8
 71
     3
 72
    12
 73
     8
 74
     0
 42
0.0000000001
 43
0.0000000001
 40
0.0
 40
0.0
 40
0.0
 40
0.0
 40
0.214524399976592
 40
0.4217693063748823
 40
0.6217510606625282
 40
0.8144878518309372
 40
1.0
 40
1.0
 40
1.0
 40
1.0
 10
2667.139358738953
 20
-2768.113725336699
 30
-0.000000000000008
 10
2667.061852333822
 20
-2768.307711086043
 30
-0.0000000000000027
 10
2666.909469561813
 20
-2768.689100032735
 30
0.0000000000000027
 10
2666.680423173927
 20
-2769.244693611811
 30
-0.0000000000000018
 10
2666.456130592394
 20
-2769.775600117791
 30
-0.0000000000000044
 10
2666.236800647646
 20
-2770.28212330474
 30
-0.0000000000000062
 10
2666.090436845234
 20
-2770.608510848151
 30
-0.0000000000000089
 10
2666.018652735417
 20
-2770.768587580736
 30
-0.0000000000000089
  0
SPLINE
  5
AC7
330
2
100
AcDbEntity
  8
1
  6
Continuous
 62
     0
370
    20
100
AcDbSpline
210
-0.0000000000004527
220
0.0000000000001341
230
-1.0
 70
     8
 71
     3
 72
    10
 73
     6
 74
     0
 42
0.0000000001
 43
0.0000000001
 40
0.0
 40
0.0
 40
0.0
 40
0.0
 40
0.5
 40
0.5
 40
1.0
 40
1.0
 40
1.0
 40
1.0
 10
2665.842901147541
 20
-2771.377424570416
 30
0.0000000000000027
 10
2665.857114134915
 20
-2771.270368735385
 30
-0.0000000000000027
 10
2665.879338857954
 20
-2771.166117309037
 30
-0.0000000000000009
 10
2665.938632506883
 20
-2770.962562261818
 30
-0.0000000000000027
 10
2665.975431680037
 20
-2770.8641538445
 30
0.0000000000000018
 10
2666.018651876953
 20
-2770.768587109878
 30
0.0000000000000036
  0
SPLINE
  5
AC8
330
2
100
AcDbEntity
  8
1
  6
Continuous
 62
     0
370
    20
100
AcDbSpline
210
0.0000000000045127
220
-0.0000000000075783
230
-1.0
 70
     8
 71
     3
 72
    10
 73
     6
 74
     0
 42
0.0000000001
 43
0.0000000001
 40
0.0
 40
0.0
 40
0.0
 40
0.0
 40
0.5
 40
0.5
 40
1.0
 40
1.0
 40
1.0
 40
1.0
 10
2666.585491514144
 20
-2767.807746816913
 30
-0.0000000000000089
 10
2666.539549356101
 20
-2767.830400346086
 30
-0.0000000000000062
 10
2666.496784515029
 20
-2767.853684352677
 30
0.0000000000000009
 10
2666.416980906832
 20
-2767.901387560652
 30
-0.0000000000000053
 10
2666.379946017072
 20
-2767.925807803149
 30
-0.0000000000000044
 10
2666.345660437612
 20
-2767.950773357967
 30
-0.0000000000000027
  0
SPLINE
  5
AC9
330
2
100
AcDbEntity
  8
1
  6
Continuous
 62
     0
370
    20
100
AcDbSpline
210
-0.0000000000000533
220
0.0000000000002134
230
-1.0
 70
     8
 71
     3
 72
    24
 73
    20
 74
     0
 42
0.0000000001
 43
0.0000000001
 40
0.0
 40
0.0
 40
0.0
 40
0.0
 40
0.1249999999999992
 40
0.1249999999999992
 40
0.2499999999999984
 40
0.2499999999999984
 40
0.3124999999999935
 40
0.3124999999999935
 40
0.3749999999999885
 40
0.3749999999999885
 40
0.4999999999999858
 40
0.4999999999999858
 40
0.6249999999999832
 40
0.6249999999999832
 40
0.6874999999999817
 40
0.6874999999999817
 40
0.7499999999999804
 40
0.7499999999999804
 40
1.0
 40
1.0
 40
1.0
 40
1.0
 10
2667.49525311355
 20
-2767.575653584663
 30
0.0000000000000071
 10
2667.449124266467
 20
-2767.578021102614
 30
-0.0000000000000027
 10
2667.403933217386
 20
-2767.58178729959
 30
-0.0000000000000018
 10
2667.315120626085
 20
-2767.591660054771
 30
-0.0000000000000018
 10
2667.271501588786
 20
-2767.597770479279
 30
-0.0000000000000044
 10
2667.207121896284
 20
-2767.60850029748
 30
-0.0000000000000089
 10
2667.185830436545
 20
-2767.612340139885
 30
0.0000000000000009
 10
2667.143613249304
 20
-2767.620516484303
 30
0.0000000000000009
 10
2667.122902753227
 20
-2767.624810849655
 30
-0.0000000000000027
 10
2667.061857669363
 20
-2767.638256644812
 30
-0.0000000000000018
 10
2667.022604308144
 20
-2767.647968091898
 30
-0.0000000000000053
 10
2666.946578458028
 20
-2767.668675944666
 30
-0.0000000000000036
 10
2666.90980838349
 20
-2767.679673600854
 30
-0.0000000000000053
 10
2666.856319844213
 20
-2767.697033280183
 30
-0.0000000000000053
 10
2666.838768974703
 20
-2767.702964162367
 30
0.0000000000000018
 10
2666.804200424099
 20
-2767.715102089693
 30
0.0000000000000009
 10
2666.787177427905
 20
-2767.721312038387
 30
-0.0000000000000018
 10
2666.703875266537
 20
-2767.752818270212
 30
-0.0000000000000062
 10
2666.642514875089
 20
-2767.779624876821
 30
-0.0000000000000062
 10
2666.585492697997
 20
-2767.807747092529
 30
-0.0000000000000009
  0
ENDSEC
  0
SECTION
  2
OBJECTS
  0
DICTIONARY
  5
B
330
0
100
AcDbDictionary
281
     1
  3
ACAD_COLOR
350
48
  3
ACAD_GROUP
350
33
  3
ACAD_LAYOUT
350
13
  3
ACAD_MATERIAL
350
D
  3
ACAD_MLEADERSTYLE
350
43C
  3
ACAD_MLINESTYLE
350
34
  3
ACAD_PLOTSETTINGS
350
35
  3
ACAD_PLOTSTYLENAME
350
A
  3
ACAD_SCALELIST
350
49
  3
ACAD_TABLESTYLE
350
4A
  3
ACAD_VISUALSTYLE
350
29
  3
ACDB_RECOMPOSE_DATA
350
42C
  3
AcDbVariableDictionary
350
40C
  0
DICTIONARY
  5
2A
330
26
100
AcDbDictionary
280
     1
281
     1
  0
DICTIONARY
  5
19
330
18
100
AcDbDictionary
280
     1
281
     1
  3
ACAD_LAYERFILTERS
360
1A
  3
ACAD_LAYERSTATES
360
1B
  3
ACLYDICTIONARY
360
1C
  0
DICTIONARY
  5
7
330
6
100
AcDbDictionary
280
     1
281
     1
  3
ADSK_XREC_LAYER_RECONCILED
360
8
  0
DICTIONARY
  5
1BE
330
1BD
100
AcDbDictionary
280
     1
281
     1
  3
ADSK_XREC_LAYER_RECONCILED
360
1BF
  0
DICTIONARY
  5
4C
330
4B
100
AcDbDictionary
280
     1
281
     1
  0
DICTIONARY
  5
3
330
2
100
AcDbDictionary
280
     1
281
     1
  3
ACAD_SORTENTS
360
402
  0
DICTIONARY
  5
BC0
330
1C2
100
AcDbDictionary
280
     1
281
     1
  0
DICTIONARY
  5
BCF
330
B2B
100
AcDbDictionary
280
     1
281
     1
  3
ACAD_MTEXT_2008_RT
360
BD0
  0
DICTIONARY
  5
BD1
330
B6F
100
AcDbDictionary
280
     1
281
     1
  3
ACAD_MTEXT_2008_RT
360
BD2
  0
DICTIONARY
  5
BD3
330
B70
100
AcDbDictionary
280
     1
281
     1
  3
ACAD_MTEXT_2008_RT
360
BD4
  0
DICTIONARY
  5
BD5
330
B95
100
AcDbDictionary
280
     1
281
     1
  3
ACAD_MTEXT_2008_RT
360
BD6
  0
DICTIONARY
  5
BD7
330
B98
100
AcDbDictionary
280
     1
281
     1
  3
ACAD_MTEXT_2008_RT
360
BD8
  0
DICTIONARY
  5
BD9
330
B99
100
AcDbDictionary
280
     1
281
     1
  3
ACAD_MTEXT_2008_RT
360
BDA
  0
DICTIONARY
  5
BDB
330
BA3
100
AcDbDictionary
280
     1
281
     1
  3
ACAD_MTEXT_2008_RT
360
BDC
  0
DICTIONARY
  5
BDD
330
BA4
100
AcDbDictionary
280
     1
281
     1
  3
ACAD_MTEXT_2008_RT
360
BDE
  0
DICTIONARY
  5
BDF
330
BA5
100
AcDbDictionary
280
     1
281
     1
  3
ACAD_MTEXT_2008_RT
360
BE0
  0
DICTIONARY
  5
BE1
330
BB3
100
AcDbDictionary
280
     1
281
     1
  3
ACAD_MTEXT_2008_RT
360
BE2
  0
DICTIONARY
  5
BE3
330
BB4
100
AcDbDictionary
280
     1
281
     1
  3
ACAD_MTEXT_2008_RT
360
BE4
  0
DICTIONARY
  5
BE5
330
BB5
100
AcDbDictionary
280
     1
281
     1
  3
ACAD_MTEXT_2008_RT
360
BE6
  0
DICTIONARY
  5
260
330
25F
100
AcDbDictionary
280
     1
281
     1
  3
ACAD_DIMASSOC
360
261
  0
DICTIONARY
  5
270
330
26F
100
AcDbDictionary
280
     1
281
     1
  3
ACAD_DIMASSOC
360
271
  0
DICTIONARY
  5
27F
330
27E
100
AcDbDictionary
280
     1
281
     1
  3
ACAD_DIMASSOC
360
280
  0
DICTIONARY
  5
BCD
330
29A
100
AcDbDictionary
280
     1
281
     1
  3
ACAD_MTEXT_2008_RT
360
BCE
  0
DICTIONARY
  5
2A5
330
2A4
100
AcDbDictionary
280
     1
281
     1
  3
ACAD_DIMASSOC
360
2A6
  0
DICTIONARY
  5
48
102
{ACAD_REACTORS
330
B
102
}
330
B
100
AcDbDictionary
281
     1
  0
DICTIONARY
  5
33
102
{ACAD_REACTORS
330
B
102
}
330
B
100
AcDbDictionary
281
     1
  0
DICTIONARY
  5
13
102
{ACAD_REACTORS
330
B
102
}
330
B
100
AcDbDictionary
281
     1
  3
Layout1
350
17
  3
Model
350
12
  0
DICTIONARY
  5
D
102
{ACAD_REACTORS
330
B
102
}
330
B
100
AcDbDictionary
281
     1
  3
ByBlock
350
3F
  3
ByLayer
350
36
  3
Global
350
C
  0
DICTIONARY
  5
43C
102
{ACAD_REACTORS
330
B
102
}
330
B
100
AcDbDictionary
281
     1
  3
Standard
350
43D
  0
DICTIONARY
  5
34
102
{ACAD_REACTORS
330
B
102
}
330
B
100
AcDbDictionary
281
     1
  3
Standard
350
4D
  0
DICTIONARY
  5
35
102
{ACAD_REACTORS
330
B
102
}
330
B
100
AcDbDictionary
281
     1
  0
ACDBDICTIONARYWDFLT
  5
A
102
{ACAD_REACTORS
330
B
102
}
330
B
100
AcDbDictionary
281
     1
  3
Normal
350
9
100
AcDbDictionaryWithDefault
340
9
  0
DICTIONARY
  5
49
102
{ACAD_REACTORS
330
B
102
}
330
B
100
AcDbDictionary
281
     1
  3
A0
350
52
  3
A1
350
53
  3
A2
350
54
  3
A3
350
55
  3
A4
350
56
  3
A5
350
57
  3
A6
350
58
  3
A7
350
59
  3
A8
350
5A
  3
A9
350
5B
  3
B0
350
5C
  3
B1
350
5D
  3
B2
350
5E
  3
B3
350
5F
  3
B4
350
60
  3
B5
350
61
  3
B6
350
62
  3
B7
350
63
  3
B8
350
64
  3
B9
350
65
  3
C0
350
66
  3
C1
350
67
  3
C2
350
68
  3
C3
350
69
  3
C4
350
6A
  3
C5
350
6B
  3
C6
350
6C
  3
C7
350
6D
  3
C8
350
6E
  3
C9
350
6F
  3
D0
350
70
  3
D1
350
71
  3
D2
350
72
  0
DICTIONARY
  5
4A
102
{ACAD_REACTORS
330
B
102
}
330
B
100
AcDbDictionary
281
     1
  3
Standard
350
4E
  0
DICTIONARY
  5
29
102
{ACAD_REACTORS
330
B
102
}
330
B
100
AcDbDictionary
281
     1
  3
2dWireframe
350
28
  3
3D Hidden
350
434
  3
3dWireframe
350
51
  3
Basic
350
433
  3
Brighten
350
437
  3
ColorChange
350
43B
  3
Conceptual
350
435
  3
Dim
350
436
  3
Facepattern
350
43A
  3
Flat
350
42F
  3
FlatWithEdges
350
430
  3
Gouraud
350
431
  3
GouraudWithEdges
350
432
  3
Linepattern
350
439
  3
Realistic
350
50
  3
Thicken
350
438
  0
XRECORD
  5
42C
102
{ACAD_REACTORS
330
B
102
}
330
B
100
AcDbXrecord
280
     1
 90
        1
330
4E
330
29A
330
B2B
330
B6F
330
B70
330
B95
330
B98
330
B99
330
BA3
330
BA4
330
BA5
330
BB3
330
BB4
330
BB5
  0
DICTIONARY
  5
40C
102
{ACAD_REACTORS
330
B
102
}
330
B
100
AcDbDictionary
281
     1
  3
CANNOSCALE
350
40F
  3
CMLEADERSTYLE
350
40E
  3
CTABLESTYLE
350
40D
  3
LIGHTINGUNITS
350
410
  3
MSLTSCALE
350
44B
  0
DICTIONARY
  5
1A
102
{ACAD_REACTORS
330
19
102
}
330
19
100
AcDbDictionary
281
     1
  0
DICTIONARY
  5
1B
102
{ACAD_REACTORS
330
19
102
}
330
19
100
AcDbDictionary
281
     1
  0
DICTIONARY
  5
1C
102
{ACAD_REACTORS
330
19
102
}
330
19
100
AcDbDictionary
281
     1
1001
ACAD
1000
<All
  0
XRECORD
  5
8
102
{ACAD_REACTORS
330
7
102
}
330
7
100
AcDbXrecord
280
     1
290
     1
  0
XRECORD
  5
1BF
102
{ACAD_REACTORS
330
1BE
102
}
330
1BE
100
AcDbXrecord
280
     1
290
     1
  0
SORTENTSTABLE
  5
402
102
{ACAD_REACTORS
330
3
102
}
330
3
100
AcDbSortentsTable
330
2
  0
XRECORD
  5
BD0
102
{ACAD_REACTORS
330
BCF
102
}
330
BCF
100
AcDbXrecord
280
     1
 40
2562.0
  1
\pxqc;GY HUANG
  0
XRECORD
  5
BD2
102
{ACAD_REACTORS
330
BD1
102
}
330
BD1
100
AcDbXrecord
280
     1
 40
1262561.0
  1
\pxqc;档案员{\H0.7x;\P\Fromans|c134;Filing Clerk\fFangSong_GB2312|b0|i0|c134|p49; }
  0
XRECORD
  5
BD4
102
{ACAD_REACTORS
330
BD3
102
}
330
BD3
100
AcDbXrecord
280
     1
 40
650528.0
  1
\pxqc;日期{\Fromans|c134;/Date}
  0
XRECORD
  5
BD6
102
{ACAD_REACTORS
330
BD5
102
}
330
BD5
100
AcDbXrecord
280
     1
 40
2318748.0
  1
\pxsm0.7;{\f仿宋_GB2312|b0|i0|c134|p49;标准化}\PStand.
  0
XRECORD
  5
BD8
102
{ACAD_REACTORS
330
BD7
102
}
330
BD7
100
AcDbXrecord
280
     1
 40
118135.0
  1
\pxsm0.7;签名\P{\Fromans|c134;Signature} 
  0
XRECORD
  5
BDA
102
{ACAD_REACTORS
330
BD9
102
}
330
BD9
100
AcDbXrecord
280
     1
 40
108939.0
  1
\pxsm0.7,qc;处数\P{\Fromans|c134;Number }
  0
XRECORD
  5
BDC
102
{ACAD_REACTORS
330
BDB
102
}
330
BDB
100
AcDbXrecord
280
     1
 40
125762.0
  1
\pxsm0.7;标记\P{\Fromans|c134;Mark}
  0
XRECORD
  5
BDE
102
{ACAD_REACTORS
330
BDD
102
}
330
BDD
100
AcDbXrecord
280
     1
 40
111973.0
  1
\pxsm0.7;审核\P{\Fromans|c134;Checked}
  0
XRECORD
  5
BE0
102
{ACAD_REACTORS
330
BDF
102
}
330
BDF
100
AcDbXrecord
280
     1
 40
137968.0
  1
\pxsm0.7;绘图\P{\Fromans|c134;Drawn\Ftxt|c134; }
  0
XRECORD
  5
BE2
102
{ACAD_REACTORS
330
BE1
102
}
330
BE1
100
AcDbXrecord
280
     1
 40
106320.0
  1
\pxsm0.7;批准\P{\Fromans|c134;Approved}
  0
XRECORD
  5
BE4
102
{ACAD_REACTORS
330
BE3
102
}
330
BE3
100
AcDbXrecord
280
     1
 40
127283.0
  1
\pxsm0.7;工艺\P{\Fromans|c134;Process}
  0
XRECORD
  5
BE6
102
{ACAD_REACTORS
330
BE5
102
}
330
BE5
100
AcDbXrecord
280
     1
 40
106220.0
  1
\pxsm0.7;日期\P{\Fromans|c134;Date}
  0
DIMASSOC
  5
261
102
{ACAD_REACTORS
330
260
102
}
330
260
100
AcDbDimAssoc
330
25F
 90
        3
 70
     0
 71
     0
  1
AcDbOsnapPointRef
 72
    13
331
145
 73
     2
 91
        0
 40
1.570844985186893
 10
0.0
 20
0.0
 30
2.000000000000000E+50
 75
     0
  1
AcDbOsnapPointRef
 72
    13
331
78
 73
     2
 91
        0
 40
0.0
 10
0.0
 20
0.0
 30
2.000000000000000E+50
 75
     0
  0
DIMASSOC
  5
271
102
{ACAD_REACTORS
330
270
102
}
330
270
100
AcDbDimAssoc
330
26F
 90
        3
 70
     0
 71
     0
  1
AcDbOsnapPointRef
 72
    13
331
B2
 73
     2
 91
        0
 40
0.0
 10
0.0
 20
0.0
 30
2.000000000000000E+50
 75
     0
  1
AcDbOsnapPointRef
 72
    13
331
104
 73
     2
 91
        0
 40
0.0
 10
0.0
 20
0.0
 30
2.000000000000000E+50
 75
     0
  0
DIMASSOC
  5
280
102
{ACAD_REACTORS
330
27F
102
}
330
27F
100
AcDbDimAssoc
330
27E
 90
        3
 70
     0
 71
     0
  1
AcDbOsnapPointRef
 72
    13
331
15D
 73
     2
 91
        0
 40
3.141592380723193
 10
0.0
 20
0.0
 30
2.000000000000000E+50
 75
     0
  1
AcDbOsnapPointRef
 72
     1
331
18C
 73
     2
 91
        0
 40
1.0
 10
0.0
 20
0.0
 30
2.000000000000000E+50
 75
     0
  0
XRECORD
  5
BCE
102
{ACAD_REACTORS
330
BCD
102
}
330
BCD
100
AcDbXrecord
280
     1
 40
846024667.0
  1
\A1;\pxql;{\f仿宋_GB2312|b0|i0|c134|p49;技术参数：}\P- {\f仿宋_GB2312|b0|i0|c134|p49;材料}: {\f仿宋_GB2312|b0|i0|c134|p49;压铸铝}\P- {\f仿宋_GB2312|b0|i0|c134|p49;表面处理}: {\f仿宋_GB2312|b0|i0|c134|p49;粉末喷涂}\P- {\f仿宋_GB2312|b0|i0|c134|p49;颜色}: RAL 7037{\f仿宋_GB2312|b0|i0|c
  1
134|p49;（灰色）} \P- {\f仿宋_GB2312|b0|i0|c134|p49;温度范围}: -40{\f仿宋_GB2312|b0|i0|c134|p49;℃} - +125{\f仿宋_GB2312|b0|i0|c134|p49;℃}\P- {\f仿宋_GB2312|b0|i0|c134|p49;防护等级}: IP67{\f仿宋_GB2312|b0|i0|c134|p49;（联锁状态},IEC 60529)    \P- {\f仿宋_GB2312|b0|i0|c134|p49;出线方
  1
向}: {\f仿宋_GB2312|b0|i0|c134|p49;顶出线}\P- {\f仿宋_GB2312|b0|i0|c134|p49;出线孔数}: 1\P- {\f仿宋_GB2312|b0|i0|c134|p49;螺纹规格}: PG21\P\PTechnical specification:\P- Material: aluminium die-cast\P- Surface: powder-coated\P- Colour: RAL 7037(grey)\P- Temperature ran
  1
ge: -40{\f仿宋_GB2312|b0|i0|c134|p49;℃} - +125{\f仿宋_GB2312|b0|i0|c134|p49;℃}\P- Degree of protection: IP67\P  (acc.to IEC 60529 for coupled connector)\P- Cable entry: top entry\P- No. of cable entries: 1\P- Thread size: PG21
  0
DIMASSOC
  5
2A6
102
{ACAD_REACTORS
330
2A5
102
}
330
2A5
100
AcDbDimAssoc
330
2A4
 90
        2
 70
     0
 71
     0
  1
AcDbOsnapPointRef
 72
     1
331
2A1
 73
     2
 91
        0
 40
1.0
 10
0.0
 20
0.0
 30
2.000000000000000E+50
 75
     0
  0
LAYOUT
  5
17
102
{ACAD_REACTORS
330
13
102
}
330
13
100
AcDbPlotSettings
  1

  2

  4

  6

 40
0.0
 41
0.0
 42
0.0
 43
0.0
 44
0.0
 45
0.0
 46
0.0
 47
0.0
 48
0.0
 49
0.0
140
0.0
141
0.0
142
1.0
143
1.0
 70
     0
 72
     0
 73
     0
 74
     0
  7

 75
     0
147
1.0
 76
     0
 77
     2
 78
   300
148
0.0
149
0.0
100
AcDbLayout
  1
Layout1
 70
     0
 71
     1
 10
0.0
 20
0.0
 11
12.0
 21
9.0
 12
0.0
 22
0.0
 32
0.0
 14
1.000000000000000E+20
 24
1.000000000000000E+20
 34
1.000000000000000E+20
 15
-1.000000000000000E+20
 25
-1.000000000000000E+20
 35
-1.000000000000000E+20
146
0.0
 13
0.0
 23
0.0
 33
0.0
 16
1.0
 26
0.0
 36
0.0
 17
0.0
 27
1.0
 37
0.0
 76
     0
330
14
  0
LAYOUT
  5
12
102
{ACAD_REACTORS
330
13
102
}
330
13
100
AcDbPlotSettings
  1

  2
HP LaserJet P1007
  4
A4
  6

 40
4.519083499908447
 41
4.349743366241455
 42
4.561416625976558
 43
4.349761962890625
 44
210.0156707763672
 45
297.0106506347656
 46
0.9399999999999998
 47
0.0
 48
539.6520813660868
 49
389.7291651948218
140
673.7347763208747
141
583.9261819808298
142
1.0
143
0.6735674979895184
 70
 15028
 72
     1
 73
     0
 74
     4
  7
monochrome.ctb
 75
     0
147
1.484632205361489
 76
     1
 77
     2
 78
   300
148
-539.6520813660868
149
-389.7291651948218
100
AcDbLayout
  1
Model
 70
     0
 71
     0
 10
0.0
 20
0.0
 11
0.0
 21
0.0
 12
0.0
 22
0.0
 32
0.0
 14
0.0
 24
0.0
 34
0.0
 15
0.0
 25
0.0
 35
0.0
146
0.0
 13
0.0
 23
0.0
 33
0.0
 16
0.0
 26
0.0
 36
0.0
 17
0.0
 27
0.0
 37
0.0
 76
     0
330
2
331
27
  0
MATERIAL
  5
3F
102
{ACAD_XDICTIONARY
360
40
102
}
102
{ACAD_REACTORS
330
D
102
}
330
D
100
AcDbMaterial
  1
ByBlock
 72
     0
 43
0.0008202099737533
 43
0.0
 43
0.0
 43
0.0
 43
0.0
 43
0.0008202099737533
 43
0.0
 43
0.0
 43
0.0
 43
0.0
 43
1.0
 43
0.0
 43
0.0
 43
0.0
 43
0.0
 43
1.0
 77
     0
 47
0.0008202099737533
 47
0.0
 47
0.0
 47
0.0
 47
0.0
 47
0.0008202099737533
 47
0.0
 47
0.0
 47
0.0
 47
0.0
 47
1.0
 47
0.0
 47
0.0
 47
0.0
 47
0.0
 47
1.0
171
     0
 49
0.0008202099737533
 49
0.0
 49
0.0
 49
0.0
 49
0.0
 49
0.0008202099737533
 49
0.0
 49
0.0
 49
0.0
 49
0.0
 49
1.0
 49
0.0
 49
0.0
 49
0.0
 49
0.0
 49
1.0
175
     0
142
0.0008202099737533
142
0.0
142
0.0
142
0.0
142
0.0
142
0.0008202099737533
142
0.0
142
0.0
142
0.0
142
0.0
142
1.0
142
0.0
142
0.0
142
0.0
142
0.0
142
1.0
179
     0
144
0.0008202099737533
144
0.0
144
0.0
144
0.0
144
0.0
144
0.0008202099737533
144
0.0
144
0.0
144
0.0
144
0.0
144
1.0
144
0.0
144
0.0
144
0.0
144
0.0
144
1.0
147
0.0008202099737533
147
0.0
147
0.0
147
0.0
147
0.0
147
0.0008202099737533
147
0.0
147
0.0
147
0.0
147
0.0
147
1.0
147
0.0
147
0.0
147
0.0
147
0.0
147
1.0
  0
MATERIAL
  5
36
102
{ACAD_XDICTIONARY
360
37
102
}
102
{ACAD_REACTORS
330
D
102
}
330
D
100
AcDbMaterial
  1
ByLayer
 72
     0
 43
0.0008202099737533
 43
0.0
 43
0.0
 43
0.0
 43
0.0
 43
0.0008202099737533
 43
0.0
 43
0.0
 43
0.0
 43
0.0
 43
1.0
 43
0.0
 43
0.0
 43
0.0
 43
0.0
 43
1.0
 77
     0
 47
0.0008202099737533
 47
0.0
 47
0.0
 47
0.0
 47
0.0
 47
0.0008202099737533
 47
0.0
 47
0.0
 47
0.0
 47
0.0
 47
1.0
 47
0.0
 47
0.0
 47
0.0
 47
0.0
 47
1.0
171
     0
 49
0.0008202099737533
 49
0.0
 49
0.0
 49
0.0
 49
0.0
 49
0.0008202099737533
 49
0.0
 49
0.0
 49
0.0
 49
0.0
 49
1.0
 49
0.0
 49
0.0
 49
0.0
 49
0.0
 49
1.0
175
     0
142
0.0008202099737533
142
0.0
142
0.0
142
0.0
142
0.0
142
0.0008202099737533
142
0.0
142
0.0
142
0.0
142
0.0
142
1.0
142
0.0
142
0.0
142
0.0
142
0.0
142
1.0
179
     0
144
0.0008202099737533
144
0.0
144
0.0
144
0.0
144
0.0
144
0.0008202099737533
144
0.0
144
0.0
144
0.0
144
0.0
144
1.0
144
0.0
144
0.0
144
0.0
144
0.0
144
1.0
147
0.0008202099737533
147
0.0
147
0.0
147
0.0
147
0.0
147
0.0008202099737533
147
0.0
147
0.0
147
0.0
147
0.0
147
1.0
147
0.0
147
0.0
147
0.0
147
0.0
147
1.0
  0
MATERIAL
  5
C
102
{ACAD_XDICTIONARY
360
E
102
}
102
{ACAD_REACTORS
330
D
102
}
330
D
100
AcDbMaterial
  1
Global
 73
     1
 78
     1
172
     1
176
     1
270
     1
274
     1
  0
MLEADERSTYLE
  5
43D
102
{ACAD_REACTORS
330
43C
102
}
330
43C
100
AcDbMLeaderStyle
170
     2
171
     1
172
     0
 90
        2
 40
0.0
 41
0.0
173
     1
 91
-1056964608
340
22
 92
       -2
290
     1
 42
2.0
291
     1
 43
0.36
  3
Standard
 44
4.0
300

342
1F
174
     1
178
     6
175
     1
176
     0
 93
-1056964608
 45
4.0
292
     0
297
     0
 46
4.0
 94
-1056964608
 47
1.0
 49
1.0
140
1.0
293
     1
141
0.0
294
     1
177
     0
142
1.0
295
     0
296
     0
143
0.125
1001
ACAD_MLEADERVER
1070
     2
  0
MLINESTYLE
  5
4D
102
{ACAD_REACTORS
330
34
102
}
330
34
100
AcDbMlineStyle
  2
STANDARD
 70
     0
  3

 62
   256
 51
90.0
 52
90.0
 71
     2
 49
0.5
 62
   256
  6
BYLAYER
 49
-0.5
 62
   256
  6
BYLAYER
  0
ACDBPLACEHOLDER
  5
9
102
{ACAD_REACTORS
330
A
102
}
330
A
  0
SCALE
  5
52
102
{ACAD_REACTORS
330
49
102
}
330
49
100
AcDbScale
 70
     0
300
1:1
140
1.0
141
1.0
290
     1
  0
SCALE
  5
53
102
{ACAD_REACTORS
330
49
102
}
330
49
100
AcDbScale
 70
     0
300
1:2
140
1.0
141
2.0
290
     0
  0
SCALE
  5
54
102
{ACAD_REACTORS
330
49
102
}
330
49
100
AcDbScale
 70
     0
300
1:4
140
1.0
141
4.0
290
     0
  0
SCALE
  5
55
102
{ACAD_REACTORS
330
49
102
}
330
49
100
AcDbScale
 70
     0
300
1:5
140
1.0
141
5.0
290
     0
  0
SCALE
  5
56
102
{ACAD_REACTORS
330
49
102
}
330
49
100
AcDbScale
 70
     0
300
1:8
140
1.0
141
8.0
290
     0
  0
SCALE
  5
57
102
{ACAD_REACTORS
330
49
102
}
330
49
100
AcDbScale
 70
     0
300
1:10
140
1.0
141
10.0
290
     0
  0
SCALE
  5
58
102
{ACAD_REACTORS
330
49
102
}
330
49
100
AcDbScale
 70
     0
300
1:16
140
1.0
141
16.0
290
     0
  0
SCALE
  5
59
102
{ACAD_REACTORS
330
49
102
}
330
49
100
AcDbScale
 70
     0
300
1:20
140
1.0
141
20.0
290
     0
  0
SCALE
  5
5A
102
{ACAD_REACTORS
330
49
102
}
330
49
100
AcDbScale
 70
     0
300
1:30
140
1.0
141
30.0
290
     0
  0
SCALE
  5
5B
102
{ACAD_REACTORS
330
49
102
}
330
49
100
AcDbScale
 70
     0
300
1:40
140
1.0
141
40.0
290
     0
  0
SCALE
  5
5C
102
{ACAD_REACTORS
330
49
102
}
330
49
100
AcDbScale
 70
     0
300
1:50
140
1.0
141
50.0
290
     0
  0
SCALE
  5
5D
102
{ACAD_REACTORS
330
49
102
}
330
49
100
AcDbScale
 70
     0
300
1:100
140
1.0
141
100.0
290
     0
  0
SCALE
  5
5E
102
{ACAD_REACTORS
330
49
102
}
330
49
100
AcDbScale
 70
     0
300
2:1
140
2.0
141
1.0
290
     0
  0
SCALE
  5
5F
102
{ACAD_REACTORS
330
49
102
}
330
49
100
AcDbScale
 70
     0
300
4:1
140
4.0
141
1.0
290
     0
  0
SCALE
  5
60
102
{ACAD_REACTORS
330
49
102
}
330
49
100
AcDbScale
 70
     0
300
8:1
140
8.0
141
1.0
290
     0
  0
SCALE
  5
61
102
{ACAD_REACTORS
330
49
102
}
330
49
100
AcDbScale
 70
     0
300
10:1
140
10.0
141
1.0
290
     0
  0
SCALE
  5
62
102
{ACAD_REACTORS
330
49
102
}
330
49
100
AcDbScale
 70
     0
300
100:1
140
100.0
141
1.0
290
     0
  0
SCALE
  5
63
102
{ACAD_REACTORS
330
49
102
}
330
49
100
AcDbScale
 70
     0
300
1/128" = 1'-0"
140
0.0078125
141
12.0
290
     0
  0
SCALE
  5
64
102
{ACAD_REACTORS
330
49
102
}
330
49
100
AcDbScale
 70
     0
300
1/64" = 1'-0"
140
0.015625
141
12.0
290
     0
  0
SCALE
  5
65
102
{ACAD_REACTORS
330
49
102
}
330
49
100
AcDbScale
 70
     0
300
1/32" = 1'-0"
140
0.03125
141
12.0
290
     0
  0
SCALE
  5
66
102
{ACAD_REACTORS
330
49
102
}
330
49
100
AcDbScale
 70
     0
300
1/16" = 1'-0"
140
0.0625
141
12.0
290
     0
  0
SCALE
  5
67
102
{ACAD_REACTORS
330
49
102
}
330
49
100
AcDbScale
 70
     0
300
3/32" = 1'-0"
140
0.09375
141
12.0
290
     0
  0
SCALE
  5
68
102
{ACAD_REACTORS
330
49
102
}
330
49
100
AcDbScale
 70
     0
300
1/8" = 1'-0"
140
0.125
141
12.0
290
     0
  0
SCALE
  5
69
102
{ACAD_REACTORS
330
49
102
}
330
49
100
AcDbScale
 70
     0
300
3/16" = 1'-0"
140
0.1875
141
12.0
290
     0
  0
SCALE
  5
6A
102
{ACAD_REACTORS
330
49
102
}
330
49
100
AcDbScale
 70
     0
300
1/4" = 1'-0"
140
0.25
141
12.0
290
     0
  0
SCALE
  5
6B
102
{ACAD_REACTORS
330
49
102
}
330
49
100
AcDbScale
 70
     0
300
3/8" = 1'-0"
140
0.375
141
12.0
290
     0
  0
SCALE
  5
6C
102
{ACAD_REACTORS
330
49
102
}
330
49
100
AcDbScale
 70
     0
300
1/2" = 1'-0"
140
0.5
141
12.0
290
     0
  0
SCALE
  5
6D
102
{ACAD_REACTORS
330
49
102
}
330
49
100
AcDbScale
 70
     0
300
3/4" = 1'-0"
140
0.75
141
12.0
290
     0
  0
SCALE
  5
6E
102
{ACAD_REACTORS
330
49
102
}
330
49
100
AcDbScale
 70
     0
300
1" = 1'-0"
140
1.0
141
12.0
290
     0
  0
SCALE
  5
6F
102
{ACAD_REACTORS
330
49
102
}
330
49
100
AcDbScale
 70
     0
300
1-1/2" = 1'-0"
140
1.5
141
12.0
290
     0
  0
SCALE
  5
70
102
{ACAD_REACTORS
330
49
102
}
330
49
100
AcDbScale
 70
     0
300
3" = 1'-0"
140
3.0
141
12.0
290
     0
  0
SCALE
  5
71
102
{ACAD_REACTORS
330
49
102
}
330
49
100
AcDbScale
 70
     0
300
6" = 1'-0"
140
6.0
141
12.0
290
     0
  0
SCALE
  5
72
102
{ACAD_REACTORS
330
49
102
}
330
49
100
AcDbScale
 70
     0
300
1'-0" = 1'-0"
140
12.0
141
12.0
290
     0
  0
TABLESTYLE
  5
4E
102
{ACAD_XDICTIONARY
360
4F
102
}
102
{ACAD_REACTORS
330
4A
102
}
330
4A
100
AcDbTableStyle
  3
Standard
 70
     0
 71
     0
 40
1.5
 41
1.5
280
     0
281
     0
  7
STANDARD
140
4.5
170
     2
 62
     0
 63
     7
283
     0
 90
      512
 91
        0
  1

274
    -2
284
     1
 64
     0
275
    -2
285
     1
 65
     0
276
    -2
286
     1
 66
     0
277
    -2
287
     1
 67
     0
278
    -2
288
     1
 68
     0
279
    -2
289
     1
 69
     0
  7
STANDARD
140
6.0
170
     5
 62
     0
 63
     7
283
     0
 90
      512
 91
        0
  1

274
    -2
284
     1
 64
     0
275
    -2
285
     1
 65
     0
276
    -2
286
     1
 66
     0
277
    -2
287
     1
 67
     0
278
    -2
288
     1
 68
     0
279
    -2
289
     1
 69
     0
  7
STANDARD
140
4.5
170
     5
 62
     0
 63
     7
283
     0
 90
      512
 91
        0
  1

274
    -2
284
     1
 64
     0
275
    -2
285
     1
 65
     0
276
    -2
286
     1
 66
     0
277
    -2
287
     1
 67
     0
278
    -2
288
     1
 68
     0
279
    -2
289
     1
 69
     0
  0
VISUALSTYLE
  5
28
102
{ACAD_REACTORS
330
29
102
}
330
29
100
AcDbVisualStyle
  2
2dWireframe
 70
     4
 71
     0
 72
     2
 73
     0
 90
        0
 40
-0.6
 41
-30.0
 62
     5
 63
     7
 74
     1
 91
        4
 64
     7
 65
   257
 75
     1
175
     1
 42
1.0
 92
        0
 66
   257
 43
1.0
 76
     1
 77
     6
 78
     2
 67
     7
 79
     5
170
     0
171
     0
290
     0
174
     0
 93
        1
 44
0.0
173
     0
291
     0
 45
0.0
1001
ACAD
1000
AcDbSavedByObjectVersion
1070
     0
1000
AcDbSavedByObjectVersion
1070
     0
1000
AcDbSavedByObjectVersion
1070
     0
  0
VISUALSTYLE
  5
434
102
{ACAD_REACTORS
330
29
102
}
330
29
100
AcDbVisualStyle
  2
3D Hidden
 70
     6
 71
     1
 72
     2
 73
     2
 90
        0
 40
-0.6
 41
-30.0
 62
     5
 63
     7
421
 16777215
 74
     2
 91
        2
 64
     7
 65
   257
 75
     2
175
     1
 42
40.0
 92
        0
 66
   257
 43
1.0
 76
     1
 77
     6
 78
     2
 67
     7
 79
     3
170
     0
171
     0
290
     0
174
     0
 93
        1
 44
0.0
173
     0
291
     0
 45
0.0
1001
ACAD
1000
AcDbSavedByObjectVersion
1070
     0
1000
AcDbSavedByObjectVersion
1070
     0
  0
VISUALSTYLE
  5
51
102
{ACAD_REACTORS
330
29
102
}
330
29
100
AcDbVisualStyle
  2
3dWireframe
 70
     5
 71
     0
 72
     2
 73
     0
 90
        0
 40
-0.6
 41
-30.0
 62
     5
 63
     7
 74
     1
 91
        4
 64
     7
 65
   257
 75
     1
175
     1
 42
1.0
 92
        0
 66
   257
 43
1.0
 76
     1
 77
     6
 78
     2
 67
     7
 79
     5
170
     0
171
     0
290
     0
174
     0
 93
        1
 44
0.0
173
     0
291
     0
 45
0.0
1001
ACAD
1000
AcDbSavedByObjectVersion
1070
     0
1000
AcDbSavedByObjectVersion
1070
     0
  0
VISUALSTYLE
  5
433
102
{ACAD_REACTORS
330
29
102
}
330
29
100
AcDbVisualStyle
  2
Basic
 70
     7
 71
     1
 72
     0
 73
     1
 90
        0
 40
-0.6
 41
-30.0
 62
     5
 63
     7
421
 16777215
 74
     0
 91
        4
 64
     7
 65
   257
 75
     1
175
     1
 42
1.0
 92
        8
 66
     7
 43
1.0
 76
     1
 77
     6
 78
     2
 67
     7
 79
     5
170
     0
171
     0
290
     0
174
     0
 93
        1
 44
0.0
173
     0
291
     1
 45
0.0
1001
ACAD
1000
AcDbSavedByObjectVersion
1070
     0
1000
AcDbSavedByObjectVersion
1070
     0
  0
VISUALSTYLE
  5
437
102
{ACAD_REACTORS
330
29
102
}
330
29
100
AcDbVisualStyle
  2
Brighten
 70
    12
 71
     2
 72
     2
 73
     0
 90
        0
 40
-0.6
 41
-30.0
 62
     5
 63
     7
421
 16777215
 74
     1
 91
        4
 64
     7
 65
   257
 75
     1
175
     1
 42
1.0
 92
        8
 66
     7
 43
1.0
 76
     1
 77
     6
 78
     2
 67
     7
 79
     5
170
     0
171
     0
290
     0
174
     0
 93
        1
 44
50.0
173
     0
291
     1
 45
0.0
1001
ACAD
1000
AcDbSavedByObjectVersion
1070
     0
1000
AcDbSavedByObjectVersion
1070
     0
  0
VISUALSTYLE
  5
43B
102
{ACAD_REACTORS
330
29
102
}
330
29
100
AcDbVisualStyle
  2
ColorChange
 70
    16
 71
     2
 72
     2
 73
     3
 90
        0
 40
-0.6
 41
-30.0
 62
     5
 63
     8
421
  8421504
 74
     1
 91
        4
 64
     7
 65
   257
 75
     1
175
     1
 42
1.0
 92
        8
 66
     8
424
  8421504
 43
1.0
 76
     1
 77
     6
 78
     2
 67
     7
 79
     5
170
     0
171
     0
290
     0
174
     0
 93
        1
 44
0.0
173
     0
291
     1
 45
0.0
1001
ACAD
1000
AcDbSavedByObjectVersion
1070
     0
1000
AcDbSavedByObjectVersion
1070
     0
  0
VISUALSTYLE
  5
435
102
{ACAD_REACTORS
330
29
102
}
330
29
100
AcDbVisualStyle
  2
Conceptual
 70
     9
 71
     3
 72
     2
 73
     0
 90
        0
 40
-0.6
 41
-30.0
 62
     5
 63
     7
421
 16777215
 74
     2
 91
        2
 64
     7
 65
   257
 75
     1
175
     1
 42
40.0
 92
        8
 66
     7
 43
1.0
 76
     1
 77
     6
 78
     2
 67
     7
 79
     3
170
     0
171
     0
290
     0
174
     0
 93
        1
 44
0.0
173
     0
291
     0
 45
0.0
1001
ACAD
1000
AcDbSavedByObjectVersion
1070
     0
1000
AcDbSavedByObjectVersion
1070
     0
  0
VISUALSTYLE
  5
436
102
{ACAD_REACTORS
330
29
102
}
330
29
100
AcDbVisualStyle
  2
Dim
 70
    11
 71
     2
 72
     2
 73
     0
 90
        0
 40
-0.6
 41
-30.0
 62
     5
 63
     7
421
 16777215
 74
     1
 91
        4
 64
     7
 65
   257
 75
     1
175
     1
 42
1.0
 92
        8
 66
     7
 43
1.0
 76
     1
 77
     6
 78
     2
 67
     7
 79
     5
170
     0
171
     0
290
     0
174
     0
 93
        1
 44
-50.0
173
     0
291
     1
 45
0.0
1001
ACAD
1000
AcDbSavedByObjectVersion
1070
     0
1000
AcDbSavedByObjectVersion
1070
     0
  0
VISUALSTYLE
  5
43A
102
{ACAD_REACTORS
330
29
102
}
330
29
100
AcDbVisualStyle
  2
Facepattern
 70
    15
 71
     2
 72
     2
 73
     0
 90
        0
 40
-0.6
 41
-30.0
 62
     5
 63
     7
421
 16777215
 74
     1
 91
        4
 64
     7
 65
   257
 75
     1
175
     1
 42
1.0
 92
        8
 66
     7
 43
1.0
 76
     1
 77
     6
 78
     2
 67
     7
 79
     5
170
     0
171
     0
290
     0
174
     0
 93
        1
 44
0.0
173
     0
291
     1
 45
0.0
1001
ACAD
1000
AcDbSavedByObjectVersion
1070
     0
1000
AcDbSavedByObjectVersion
1070
     0
  0
VISUALSTYLE
  5
42F
102
{ACAD_REACTORS
330
29
102
}
330
29
100
AcDbVisualStyle
  2
Flat
 70
     0
 71
     2
 72
     1
 73
     1
 90
        2
 40
-0.6
 41
30.0
 62
     5
 63
     7
421
 16777215
 74
     0
 91
        4
 64
     7
 65
   257
 75
     1
175
     1
 42
1.0
 92
        8
 66
     7
 43
1.0
 76
     1
 77
     6
 78
     2
 67
     7
 79
     5
170
     0
171
     0
290
     0
174
     0
 93
       13
 44
0.0
173
     0
291
     1
 45
0.0
1001
ACAD
1000
AcDbSavedByObjectVersion
1070
     0
1000
AcDbSavedByObjectVersion
1070
     0
  0
VISUALSTYLE
  5
430
102
{ACAD_REACTORS
330
29
102
}
330
29
100
AcDbVisualStyle
  2
FlatWithEdges
 70
     1
 71
     2
 72
     1
 73
     1
 90
        2
 40
-0.6
 41
30.0
 62
     5
 63
     7
421
 16777215
 74
     1
 91
        4
 64
     7
 65
   257
 75
     1
175
     1
 42
1.0
 92
        0
 66
   257
 43
1.0
 76
     1
 77
     6
 78
     2
 67
     7
 79
     5
170
     0
171
     0
290
     0
174
     0
 93
       13
 44
0.0
173
     0
291
     1
 45
0.0
1001
ACAD
1000
AcDbSavedByObjectVersion
1070
     0
1000
AcDbSavedByObjectVersion
1070
     0
  0
VISUALSTYLE
  5
431
102
{ACAD_REACTORS
330
29
102
}
330
29
100
AcDbVisualStyle
  2
Gouraud
 70
     2
 71
     2
 72
     2
 73
     1
 90
        2
 40
-0.6
 41
30.0
 62
     5
 63
     7
421
 16777215
 74
     0
 91
        4
 64
     7
 65
   257
 75
     1
175
     1
 42
1.0
 92
        0
 66
     7
 43
1.0
 76
     1
 77
     6
 78
     2
 67
     7
 79
     5
170
     0
171
     0
290
     0
174
     0
 93
       13
 44
0.0
173
     0
291
     1
 45
0.0
1001
ACAD
1000
AcDbSavedByObjectVersion
1070
     0
1000
AcDbSavedByObjectVersion
1070
     0
  0
VISUALSTYLE
  5
432
102
{ACAD_REACTORS
330
29
102
}
330
29
100
AcDbVisualStyle
  2
GouraudWithEdges
 70
     3
 71
     2
 72
     2
 73
     1
 90
        2
 40
-0.6
 41
30.0
 62
     5
 63
     7
421
 16777215
 74
     1
 91
        4
 64
     7
 65
   257
 75
     1
175
     1
 42
1.0
 92
        0
 66
   257
 43
1.0
 76
     1
 77
     6
 78
     2
 67
     7
 79
     5
170
     0
171
     0
290
     0
174
     0
 93
       13
 44
0.0
173
     0
291
     1
 45
0.0
1001
ACAD
1000
AcDbSavedByObjectVersion
1070
     0
1000
AcDbSavedByObjectVersion
1070
     0
  0
VISUALSTYLE
  5
439
102
{ACAD_REACTORS
330
29
102
}
330
29
100
AcDbVisualStyle
  2
Linepattern
 70
    14
 71
     2
 72
     2
 73
     0
 90
        0
 40
-0.6
 41
-30.0
 62
     5
 63
     7
421
 16777215
 74
     1
 91
        4
 64
     7
 65
   257
 75
     7
175
     7
 42
1.0
 92
        8
 66
     7
 43
1.0
 76
     1
 77
     6
 78
     2
 67
     7
 79
     5
170
     0
171
     0
290
     0
174
     0
 93
        1
 44
0.0
173
     0
291
     1
 45
0.0
1001
ACAD
1000
AcDbSavedByObjectVersion
1070
     0
1000
AcDbSavedByObjectVersion
1070
     0
  0
VISUALSTYLE
  5
50
102
{ACAD_REACTORS
330
29
102
}
330
29
100
AcDbVisualStyle
  2
Realistic
 70
     8
 71
     2
 72
     2
 73
     0
 90
        0
 40
-0.6
 41
-30.0
 62
     5
 63
     7
 74
     1
 91
        0
 64
     7
 65
   257
 75
     1
175
     1
 42
1.0
 92
        8
 66
     8
 43
1.0
 76
     1
 77
     6
 78
     2
 67
     7
 79
     5
170
     0
171
     0
290
     0
174
     0
 93
       13
 44
0.0
173
     0
291
     0
 45
0.0
1001
ACAD
1000
AcDbSavedByObjectVersion
1070
     0
1000
AcDbSavedByObjectVersion
1070
     0
  0
VISUALSTYLE
  5
438
102
{ACAD_REACTORS
330
29
102
}
330
29
100
AcDbVisualStyle
  2
Thicken
 70
    13
 71
     2
 72
     2
 73
     0
 90
        0
 40
-0.6
 41
-30.0
 62
     5
 63
     7
421
 16777215
 74
     1
 91
        4
 64
     7
 65
   257
 75
     1
175
     1
 42
1.0
 92
       12
 66
     7
 43
1.0
 76
     1
 77
     6
 78
     2
 67
     7
 79
     5
170
     0
171
     0
290
     0
174
     0
 93
        1
 44
0.0
173
     0
291
     1
 45
0.0
1001
ACAD
1000
AcDbSavedByObjectVersion
1070
     0
1000
AcDbSavedByObjectVersion
1070
     0
  0
DICTIONARYVAR
  5
40F
102
{ACAD_REACTORS
330
40C
102
}
330
40C
100
DictionaryVariables
280
     0
  1
1:1
  0
DICTIONARYVAR
  5
40E
102
{ACAD_REACTORS
330
40C
102
}
330
40C
100
DictionaryVariables
280
     0
  1
STANDARD
  0
DICTIONARYVAR
  5
40D
102
{ACAD_REACTORS
330
40C
102
}
330
40C
100
DictionaryVariables
280
     0
  1
STANDARD
  0
DICTIONARYVAR
  5
410
102
{ACAD_REACTORS
330
40C
102
}
330
40C
100
DictionaryVariables
280
     0
  1
0
  0
DICTIONARYVAR
  5
44B
102
{ACAD_REACTORS
330
40C
102
}
330
40C
100
DictionaryVariables
280
     0
  1
1
  0
DICTIONARY
  5
40
330
3F
100
AcDbDictionary
280
     1
281
     1
  3
ACAD_XREC_ROUNDTRIP
360
41
  3
BUMPTILE
360
42
  3
DIFFUSETILE
360
43
  3
OPACITYTILE
360
44
  3
REFLECTIONTILE
360
45
  3
REFRACTIONTILE
360
46
  3
SPECULARTILE
360
47
  0
DICTIONARY
  5
37
330
36
100
AcDbDictionary
280
     1
281
     1
  3
ACAD_XREC_ROUNDTRIP
360
38
  3
BUMPTILE
360
39
  3
DIFFUSETILE
360
3A
  3
OPACITYTILE
360
3B
  3
REFLECTIONTILE
360
3C
  3
REFRACTIONTILE
360
3D
  3
SPECULARTILE
360
3E
  0
DICTIONARY
  5
E
330
C
100
AcDbDictionary
280
     1
281
     1
  3
ACAD_XREC_ROUNDTRIP
360
F
  0
DICTIONARY
  5
4F
330
4E
100
AcDbDictionary
280
     1
281
     1
  3
ACAD_ROUNDTRIP_2008_TABLESTYLE_CELLSTYLEMAP
360
BCC
  0
XRECORD
  5
41
102
{ACAD_REACTORS
330
40
102
}
330
40
100
AcDbXrecord
280
     1
102
MATERIAL
148
0.0
149
0.0
149
0.0
 93
        0
 94
      127
282
     0
 72
     0
 77
     0
171
     0
175
     0
179
     0
273
     0
  0
XRECORD
  5
42
102
{ACAD_REACTORS
330
40
102
}
330
40
100
AcDbXrecord
280
     1
270
     1
271
     1
  0
XRECORD
  5
43
102
{ACAD_REACTORS
330
40
102
}
330
40
100
AcDbXrecord
280
     1
270
     1
271
     1
  0
XRECORD
  5
44
102
{ACAD_REACTORS
330
40
102
}
330
40
100
AcDbXrecord
280
     1
270
     1
271
     1
  0
XRECORD
  5
45
102
{ACAD_REACTORS
330
40
102
}
330
40
100
AcDbXrecord
280
     1
270
     1
271
     1
  0
XRECORD
  5
46
102
{ACAD_REACTORS
330
40
102
}
330
40
100
AcDbXrecord
280
     1
270
     1
271
     1
  0
XRECORD
  5
47
102
{ACAD_REACTORS
330
40
102
}
330
40
100
AcDbXrecord
280
     1
270
     1
271
     1
  0
XRECORD
  5
38
102
{ACAD_REACTORS
330
37
102
}
330
37
100
AcDbXrecord
280
     1
102
MATERIAL
148
0.0
149
0.0
149
0.0
 93
        0
 94
      127
282
     0
 72
     0
 77
     0
171
     0
175
     0
179
     0
273
     0
  0
XRECORD
  5
39
102
{ACAD_REACTORS
330
37
102
}
330
37
100
AcDbXrecord
280
     1
270
     1
271
     1
  0
XRECORD
  5
3A
102
{ACAD_REACTORS
330
37
102
}
330
37
100
AcDbXrecord
280
     1
270
     1
271
     1
  0
XRECORD
  5
3B
102
{ACAD_REACTORS
330
37
102
}
330
37
100
AcDbXrecord
280
     1
270
     1
271
     1
  0
XRECORD
  5
3C
102
{ACAD_REACTORS
330
37
102
}
330
37
100
AcDbXrecord
280
     1
270
     1
271
     1
  0
XRECORD
  5
3D
102
{ACAD_REACTORS
330
37
102
}
330
37
100
AcDbXrecord
280
     1
270
     1
271
     1
  0
XRECORD
  5
3E
102
{ACAD_REACTORS
330
37
102
}
330
37
100
AcDbXrecord
280
     1
270
     1
271
     1
  0
XRECORD
  5
F
102
{ACAD_REACTORS
330
E
102
}
330
E
100
AcDbXrecord
280
     1
102
MATERIAL
148
0.0
149
0.0
149
0.0
 93
        0
 94
      127
282
     0
 72
     1
 77
     1
171
     1
175
     1
179
     1
273
     0
  0
CELLSTYLEMAP
  5
BCC
102
{ACAD_REACTORS
330
4F
102
}
330
4F
100
AcDbCellStyleMap
 90
        3
300
CELLSTYLE
  1
TABLEFORMAT_BEGIN
 90
        5
170
     1
 91
        0
 92
    32768
 62
   257
 93
        1
300
CONTENTFORMAT
  1
CONTENTFORMAT_BEGIN
 90
        0
 91
        0
 92
      512
 93
        0
300

 40
0.0
140
1.0
 94
        5
 62
     0
340
1F
144
6.0
309
CONTENTFORMAT_END
171
     1
301
MARGIN
  1
CELLMARGIN_BEGIN
 40
1.5
 40
1.5
 40
1.5
 40
1.5
 40
0.18
 40
0.18
309
CELLMARGIN_END
 94
        6
 95
        1
302
GRIDFORMAT
  1
GRIDFORMAT_BEGIN
 90
        0
 91
        1
 62
     0
 92
       -2
340
0
 93
        0
 40
1.125
309
GRIDFORMAT_END
 95
        2
302
GRIDFORMAT
  1
GRIDFORMAT_BEGIN
 90
        0
 91
        1
 62
     0
 92
       -2
340
0
 93
        0
 40
1.125
309
GRIDFORMAT_END
 95
        4
302
GRIDFORMAT
  1
GRIDFORMAT_BEGIN
 90
        0
 91
        1
 62
     0
 92
       -2
340
0
 93
        0
 40
1.125
309
GRIDFORMAT_END
 95
        8
302
GRIDFORMAT
  1
GRIDFORMAT_BEGIN
 90
        0
 91
        1
 62
     0
 92
       -2
340
0
 93
        0
 40
1.125
309
GRIDFORMAT_END
 95
       16
302
GRIDFORMAT
  1
GRIDFORMAT_BEGIN
 90
        0
 91
        1
 62
     0
 92
       -2
340
0
 93
        0
 40
1.125
309
GRIDFORMAT_END
 95
       32
302
GRIDFORMAT
  1
GRIDFORMAT_BEGIN
 90
        0
 91
        1
 62
     0
 92
       -2
340
0
 93
        0
 40
1.125
309
GRIDFORMAT_END
309
TABLEFORMAT_END
  1
CELLSTYLE_BEGIN
 90
        1
 91
        1
300
_TITLE
309
CELLSTYLE_END
300
CELLSTYLE
  1
TABLEFORMAT_BEGIN
 90
        5
170
     1
 91
        0
 92
        0
 62
   257
 93
        1
300
CONTENTFORMAT
  1
CONTENTFORMAT_BEGIN
 90
        0
 91
        0
 92
      512
 93
        0
300

 40
0.0
140
1.0
 94
        5
 62
     0
340
1F
144
4.5
309
CONTENTFORMAT_END
171
     1
301
MARGIN
  1
CELLMARGIN_BEGIN
 40
1.5
 40
1.5
 40
1.5
 40
1.5
 40
0.18
 40
0.18
309
CELLMARGIN_END
 94
        6
 95
        1
302
GRIDFORMAT
  1
GRIDFORMAT_BEGIN
 90
        0
 91
        1
 62
     0
 92
       -2
340
0
 93
        0
 40
1.125
309
GRIDFORMAT_END
 95
        2
302
GRIDFORMAT
  1
GRIDFORMAT_BEGIN
 90
        0
 91
        1
 62
     0
 92
       -2
340
0
 93
        0
 40
1.125
309
GRIDFORMAT_END
 95
        4
302
GRIDFORMAT
  1
GRIDFORMAT_BEGIN
 90
        0
 91
        1
 62
     0
 92
       -2
340
0
 93
        0
 40
1.125
309
GRIDFORMAT_END
 95
        8
302
GRIDFORMAT
  1
GRIDFORMAT_BEGIN
 90
        0
 91
        1
 62
     0
 92
       -2
340
0
 93
        0
 40
1.125
309
GRIDFORMAT_END
 95
       16
302
GRIDFORMAT
  1
GRIDFORMAT_BEGIN
 90
        0
 91
        1
 62
     0
 92
       -2
340
0
 93
        0
 40
1.125
309
GRIDFORMAT_END
 95
       32
302
GRIDFORMAT
  1
GRIDFORMAT_BEGIN
 90
        0
 91
        1
 62
     0
 92
       -2
340
0
 93
        0
 40
1.125
309
GRIDFORMAT_END
309
TABLEFORMAT_END
  1
CELLSTYLE_BEGIN
 90
        2
 91
        1
300
_HEADER
309
CELLSTYLE_END
300
CELLSTYLE
  1
TABLEFORMAT_BEGIN
 90
        5
170
     1
 91
        0
 92
        0
 62
   257
 93
        1
300
CONTENTFORMAT
  1
CONTENTFORMAT_BEGIN
 90
        0
 91
        0
 92
      512
 93
        0
300

 40
0.0
140
1.0
 94
        2
 62
     0
340
1F
144
4.5
309
CONTENTFORMAT_END
171
     1
301
MARGIN
  1
CELLMARGIN_BEGIN
 40
1.5
 40
1.5
 40
1.5
 40
1.5
 40
0.18
 40
0.18
309
CELLMARGIN_END
 94
        6
 95
        1
302
GRIDFORMAT
  1
GRIDFORMAT_BEGIN
 90
        0
 91
        1
 62
     0
 92
       -2
340
0
 93
        0
 40
1.125
309
GRIDFORMAT_END
 95
        2
302
GRIDFORMAT
  1
GRIDFORMAT_BEGIN
 90
        0
 91
        1
 62
     0
 92
       -2
340
0
 93
        0
 40
1.125
309
GRIDFORMAT_END
 95
        4
302
GRIDFORMAT
  1
GRIDFORMAT_BEGIN
 90
        0
 91
        1
 62
     0
 92
       -2
340
0
 93
        0
 40
1.125
309
GRIDFORMAT_END
 95
        8
302
GRIDFORMAT
  1
GRIDFORMAT_BEGIN
 90
        0
 91
        1
 62
     0
 92
       -2
340
0
 93
        0
 40
1.125
309
GRIDFORMAT_END
 95
       16
302
GRIDFORMAT
  1
GRIDFORMAT_BEGIN
 90
        0
 91
        1
 62
     0
 92
       -2
340
0
 93
        0
 40
1.125
309
GRIDFORMAT_END
 95
       32
302
GRIDFORMAT
  1
GRIDFORMAT_BEGIN
 90
        0
 91
        1
 62
     0
 92
       -2
340
0
 93
        0
 40
1.125
309
GRIDFORMAT_END
309
TABLEFORMAT_END
  1
CELLSTYLE_BEGIN
 90
        3
 91
        2
300
_DATA
309
CELLSTYLE_END
  0
ENDSEC
  0
EOF
