  0
SECTION
  2
HEADER
  9
$ACADVER
  1
AC1018
  9
$ACADMAINTVER
 70
   104
  9
$DWGCODEPAGE
  3
ANSI_936
  9
$LASTSAVEDBY
  1
wl.kang
  9
$INSBASE
 10
0.0
 20
0.0
 30
0.0
  9
$EXTMIN
 10
424.9331685893658
 20
214.9735924431647
 30
0.0
  9
$EXTMAX
 10
622.932335213166
 20
354.9735924431682
 30
0.0
  9
$LIMMIN
 10
0.0
 20
0.0
  9
$LIMMAX
 10
12.0
 20
9.0
  9
$ORTHOMODE
 70
     0
  9
$REGENMODE
 70
     1
  9
$FILLMODE
 70
     1
  9
$QTEXTMODE
 70
     0
  9
$MIRRTEXT
 70
     1
  9
$LTSCALE
 40
1.0
  9
$ATTMODE
 70
     1
  9
$TEXTSIZE
 40
0.2
  9
$TRACEWID
 40
0.05
  9
$TEXTSTYLE
  7
Standard
  9
$CLAYER
  8
0
  9
$CELTYPE
  6
ByLayer
  9
$CECOLOR
 62
   256
  9
$CELTSCALE
 40
1.0
  9
$DISPSILH
 70
     0
  9
$DIMSCALE
 40
1.0
  9
$DIMASZ
 40
3.0
  9
$DIMEXO
 40
0.2
  9
$DIMDLI
 40
0.2
  9
$DIMRND
 40
0.0
  9
$DIMDLE
 40
0.0
  9
$DIMEXE
 40
1.199999999999999
  9
$DIMTP
 40
0.0
  9
$DIMTM
 40
0.0
  9
$DIMTXT
 40
3.5
  9
$DIMCEN
 40
0.0
  9
$DIMTSZ
 40
0.0
  9
$DIMTOL
 70
     0
  9
$DIMLIM
 70
     0
  9
$DIMTIH
 70
     0
  9
$DIMTOH
 70
     0
  9
$DIMSE1
 70
     0
  9
$DIMSE2
 70
     0
  9
$DIMTAD
 70
     1
  9
$DIMZIN
 70
     8
  9
$DIMBLK
  1

  9
$DIMASO
 70
     1
  9
$DIMSHO
 70
     1
  9
$DIMPOST
  1

  9
$DIMAPOST
  1

  9
$DIMALT
 70
     0
  9
$DIMALTD
 70
     2
  9
$DIMALTF
 40
25.4
  9
$DIMLFAC
 40
1.0
  9
$DIMTOFL
 70
     0
  9
$DIMTVP
 40
0.0
  9
$DIMTIX
 70
     0
  9
$DIMSOXD
 70
     0
  9
$DIMSAH
 70
     0
  9
$DIMBLK1
  1

  9
$DIMBLK2
  1

  9
$DIMSTYLE
  2
01
  9
$DIMCLRD
 70
     1
  9
$DIMCLRE
 70
     6
  9
$DIMCLRT
 70
     4
  9
$DIMTFAC
 40
1.0
  9
$DIMGAP
 40
0.5
  9
$DIMJUST
 70
     0
  9
$DIMSD1
 70
     0
  9
$DIMSD2
 70
     0
  9
$DIMTOLJ
 70
     1
  9
$DIMTZIN
 70
     0
  9
$DIMALTZ
 70
     0
  9
$DIMALTTZ
 70
     0
  9
$DIMUPT
 70
     0
  9
$DIMDEC
 70
     1
  9
$DIMTDEC
 70
     1
  9
$DIMALTU
 70
     2
  9
$DIMALTTD
 70
     2
  9
$DIMTXSTY
  7
Romans字体
  9
$DIMAUNIT
 70
     0
  9
$DIMADEC
 70
     2
  9
$DIMALTRND
 40
0.0
  9
$DIMAZIN
 70
     2
  9
$DIMDSEP
 70
    46
  9
$DIMATFIT
 70
     3
  9
$DIMFRAC
 70
     0
  9
$DIMLDRBLK
  1

  9
$DIMLUNIT
 70
     2
  9
$DIMLWD
 70
    -2
  9
$DIMLWE
 70
    -2
  9
$DIMTMOVE
 70
     0
  9
$LUNITS
 70
     2
  9
$LUPREC
 70
     4
  9
$SKETCHINC
 40
0.1
  9
$FILLETRAD
 40
0.5
  9
$AUNITS
 70
     0
  9
$AUPREC
 70
     0
  9
$MENU
  1
.
  9
$ELEVATION
 40
0.0
  9
$PELEVATION
 40
0.0
  9
$THICKNESS
 40
0.0
  9
$LIMCHECK
 70
     0
  9
$CHAMFERA
 40
0.5
  9
$CHAMFERB
 40
0.5
  9
$CHAMFERC
 40
1.0
  9
$CHAMFERD
 40
0.0
  9
$SKPOLY
 70
     0
  9
$TDCREATE
 40
2456524.383632987
  9
$TDUCREATE
 40
2456524.050299653
  9
$TDUPDATE
 40
2457834.667429283
  9
$TDUUPDATE
 40
2457834.334095949
  9
$TDINDWG
 40
0.9414097454
  9
$TDUSRTIMER
 40
0.9413927199
  9
$USRTIMER
 70
     1
  9
$ANGBASE
 50
0.0
  9
$ANGDIR
 70
     0
  9
$PDMODE
 70
     0
  9
$PDSIZE
 40
0.0
  9
$PLINEWID
 40
0.0
  9
$SPLFRAME
 70
     0
  9
$SPLINETYPE
 70
     6
  9
$SPLINESEGS
 70
     8
  9
$HANDSEED
  5
1A01B
  9
$SURFTAB1
 70
     6
  9
$SURFTAB2
 70
     6
  9
$SURFTYPE
 70
     6
  9
$SURFU
 70
     6
  9
$SURFV
 70
     6
  9
$UCSBASE
  2

  9
$UCSNAME
  2

  9
$UCSORG
 10
0.0
 20
0.0
 30
0.0
  9
$UCSXDIR
 10
1.0
 20
0.0
 30
0.0
  9
$UCSYDIR
 10
0.0
 20
1.0
 30
0.0
  9
$UCSORTHOREF
  2

  9
$UCSORTHOVIEW
 70
     0
  9
$UCSORGTOP
 10
0.0
 20
0.0
 30
0.0
  9
$UCSORGBOTTOM
 10
0.0
 20
0.0
 30
0.0
  9
$UCSORGLEFT
 10
0.0
 20
0.0
 30
0.0
  9
$UCSORGRIGHT
 10
0.0
 20
0.0
 30
0.0
  9
$UCSORGFRONT
 10
0.0
 20
0.0
 30
0.0
  9
$UCSORGBACK
 10
0.0
 20
0.0
 30
0.0
  9
$PUCSBASE
  2

  9
$PUCSNAME
  2

  9
$PUCSORG
 10
0.0
 20
0.0
 30
0.0
  9
$PUCSXDIR
 10
1.0
 20
0.0
 30
0.0
  9
$PUCSYDIR
 10
0.0
 20
1.0
 30
0.0
  9
$PUCSORTHOREF
  2

  9
$PUCSORTHOVIEW
 70
     0
  9
$PUCSORGTOP
 10
0.0
 20
0.0
 30
0.0
  9
$PUCSORGBOTTOM
 10
0.0
 20
0.0
 30
0.0
  9
$PUCSORGLEFT
 10
0.0
 20
0.0
 30
0.0
  9
$PUCSORGRIGHT
 10
0.0
 20
0.0
 30
0.0
  9
$PUCSORGFRONT
 10
0.0
 20
0.0
 30
0.0
  9
$PUCSORGBACK
 10
0.0
 20
0.0
 30
0.0
  9
$USERI1
 70
     0
  9
$USERI2
 70
     0
  9
$USERI3
 70
     0
  9
$USERI4
 70
     0
  9
$USERI5
 70
     0
  9
$USERR1
 40
0.0
  9
$USERR2
 40
0.0
  9
$USERR3
 40
0.0
  9
$USERR4
 40
0.0
  9
$USERR5
 40
2.5
  9
$WORLDVIEW
 70
     1
  9
$SHADEDGE
 70
     3
  9
$SHADEDIF
 70
    70
  9
$TILEMODE
 70
     1
  9
$MAXACTVP
 70
    64
  9
$PINSBASE
 10
0.0
 20
0.0
 30
0.0
  9
$PLIMCHECK
 70
     0
  9
$PEXTMIN
 10
1.000000000000000E+20
 20
1.000000000000000E+20
 30
1.000000000000000E+20
  9
$PEXTMAX
 10
-1.000000000000000E+20
 20
-1.000000000000000E+20
 30
-1.000000000000000E+20
  9
$PLIMMIN
 10
0.0
 20
0.0
  9
$PLIMMAX
 10
12.0
 20
9.0
  9
$UNITMODE
 70
     0
  9
$VISRETAIN
 70
     1
  9
$PLINEGEN
 70
     0
  9
$PSLTSCALE
 70
     1
  9
$TREEDEPTH
 70
  3020
  9
$CMLSTYLE
  2
Standard
  9
$CMLJUST
 70
     0
  9
$CMLSCALE
 40
1.0
  9
$PROXYGRAPHICS
 70
     1
  9
$MEASUREMENT
 70
     0
  9
$CELWEIGHT
370
    -1
  9
$ENDCAPS
280
     0
  9
$JOINSTYLE
280
     0
  9
$LWDISPLAY
290
     0
  9
$INSUNITS
 70
     4
  9
$HYPERLINKBASE
  1

  9
$STYLESHEET
  1
MONOCHROME.CTB
  9
$XEDIT
290
     1
  9
$CEPSNTYPE
380
     0
  9
$PSTYLEMODE
290
     1
  9
$FINGERPRINTGUID
  2
{4A02065B-8BB3-4A96-9036-502DC906C165}
  9
$VERSIONGUID
  2
{40AAE8AB-30E8-4DCB-BB72-F9ED951D6B2A}
  9
$EXTNAMES
290
     1
  9
$PSVPSCALE
 40
0.0
  9
$OLESTARTUP
290
     0
  9
$SORTENTS
280
   127
  9
$INDEXCTL
280
     0
  9
$HIDETEXT
280
     0
  9
$XCLIPFRAME
290
     0
  9
$HALOGAP
280
     0
  9
$OBSCOLOR
 70
   257
  9
$OBSLTYPE
280
     0
  9
$INTERSECTIONDISPLAY
280
     0
  9
$INTERSECTIONCOLOR
 70
   257
  9
$DIMASSOC
280
     1
  9
$PROJECTNAME
  1

  0
ENDSEC
  0
SECTION
  2
CLASSES
  0
CLASS
  1
ACDBDICTIONARYWDFLT
  2
AcDbDictionaryWithDefault
  3
ObjectDBX Classes
 90
        0
 91
        1
280
     0
281
     0
  0
CLASS
  1
VISUALSTYLE
  2
AcDbVisualStyle
  3
ObjectDBX Classes
 90
     4095
 91
       16
280
     0
281
     0
  0
CLASS
  1
MATERIAL
  2
AcDbMaterial
  3
ObjectDBX Classes
 90
     1153
 91
        3
280
     0
281
     0
  0
CLASS
  1
TABLESTYLE
  2
AcDbTableStyle
  3
ObjectDBX Classes
 90
     4095
 91
        1
280
     0
281
     0
  0
CLASS
  1
SCALE
  2
AcDbScale
  3
ObjectDBX Classes
 90
     1153
 91
       33
280
     0
281
     0
  0
CLASS
  1
MLEADERSTYLE
  2
AcDbMLeaderStyle
  3
ACDB_MLEADERSTYLE_CLASS
 90
     4095
 91
        1
280
     0
281
     0
  0
CLASS
  1
CELLSTYLEMAP
  2
AcDbCellStyleMap
  3
ObjectDBX Classes
 90
     1152
 91
        2
280
     0
281
     0
  0
CLASS
  1
DICTIONARYVAR
  2
AcDbDictionaryVar
  3
ObjectDBX Classes
 90
        0
 91
        8
280
     0
281
     0
  0
CLASS
  1
SORTENTSTABLE
  2
AcDbSortentsTable
  3
ObjectDBX Classes
 90
        0
 91
        1
280
     0
281
     0
  0
CLASS
  1
ACAD_EVALUATION_GRAPH
  2
AcDbEvalGraph
  3
ObjectDBX Classes
 90
     1153
 91
        0
280
     0
281
     0
  0
CLASS
  1
ACAECUSTOBJ
  2
AcAeEditorObj
  3
AcAeEditorObj
 90
     1024
 91
        0
280
     0
281
     0
  0
CLASS
  1
ACDB_DYNAMICBLOCKPURGEPREVENTER_VERSION
  2
AcDbDynamicBlockPurgePreventer
  3
ObjectDBX Classes
 90
     1153
 91
        0
280
     0
281
     0
  0
CLASS
  1
MENTALRAYRENDERSETTINGS
  2
AcDbMentalRayRenderSettings
  3
SCENEOE
 90
     1024
 91
        1
280
     0
281
     0
  0
CLASS
  1
ACDB_BLOCKREPRESENTATION_DATA
  2
AcDbBlockRepresentationData
  3
ObjectDBX Classes
 90
     1153
 91
        0
280
     0
281
     0
  0
CLASS
  1
VLO-VL
  2
vlo_VL
  3
VL|AutoLISP based application
 90
      129
 91
        1
280
     0
281
     0
  0
CLASS
  1
DIMASSOC
  2
AcDbDimAssoc
  3
"AcDbDimAssoc|Product Desc:     AcDim ARX App For Dimension|Company:          Autodesk, Inc.|WEB Address:      www.autodesk.com"
 90
        0
 91
        3
280
     0
281
     0
  0
ENDSEC
  0
SECTION
  2
TABLES
  0
TABLE
  2
VPORT
  5
8
102
{ACAD_XDICTIONARY
360
50EE
102
}
330
0
100
AcDbSymbolTable
 70
     1
  0
VPORT
  5
29
330
8
100
AcDbSymbolTableRecord
100
AcDbViewportTableRecord
  2
*Active
 70
     0
 10
0.0
 20
0.0
 11
1.0
 21
1.0
 12
457.9271212824273
 22
136.4801256699667
 13
0.0
 23
0.0
 14
0.5
 24
0.5
 15
0.5
 25
0.5
 16
0.0
 26
0.0
 36
1.0
 17
104.9654968719086
 27
148.5022307685978
 37
0.0
 40
141.3415197263562
 41
2.500974658869395
 42
50.0
 43
0.0
 44
0.0
 50
0.0
 51
0.0
 71
     0
 72
   100
 73
     1
 74
     3
 75
     0
 76
     0
 77
     0
 78
     0
281
     0
 65
     1
110
0.0
120
0.0
130
0.0
111
1.0
121
0.0
131
0.0
112
0.0
122
1.0
132
0.0
 79
     0
146
0.0
  0
ENDTAB
  0
TABLE
  2
LTYPE
  5
5
330
0
100
AcDbSymbolTable
 70
     2
  0
LTYPE
  5
14
330
5
100
AcDbSymbolTableRecord
100
AcDbLinetypeTableRecord
  2
ByBlock
 70
     0
  3

 72
    65
 73
     0
 40
0.0
  0
LTYPE
  5
15
330
5
100
AcDbSymbolTableRecord
100
AcDbLinetypeTableRecord
  2
ByLayer
 70
     0
  3

 72
    65
 73
     0
 40
0.0
  0
LTYPE
  5
16
330
5
100
AcDbSymbolTableRecord
100
AcDbLinetypeTableRecord
  2
Continuous
 70
     0
  3
Solid line
 72
    65
 73
     0
 40
0.0
  0
LTYPE
  5
67BA
330
5
100
AcDbSymbolTableRecord
100
AcDbLinetypeTableRecord
  2
CENTER
 70
     0
  3
Center ____ _ ____ _ ____ _ ____ _ ____ _ ____
 72
    65
 73
     4
 40
2.0
 49
1.25
 74
     0
 49
-0.25
 74
     0
 49
0.25
 74
     0
 49
-0.25
 74
     0
  0
ENDTAB
  0
TABLE
  2
LAYER
  5
2
102
{ACAD_XDICTIONARY
360
50B8
102
}
330
0
100
AcDbSymbolTable
 70
     6
  0
LAYER
  5
10
102
{ACAD_XDICTIONARY
360
50D0
102
}
330
2
100
AcDbSymbolTableRecord
100
AcDbLayerTableRecord
  2
0
 70
     0
 62
     7
  6
Continuous
370
    25
390
F
  0
LAYER
  5
3B
102
{ACAD_XDICTIONARY
360
50D2
102
}
330
2
100
AcDbSymbolTableRecord
100
AcDbLayerTableRecord
  2
图层 1
 70
     0
 62
     7
  6
Continuous
370
    -3
390
F
  0
LAYER
  5
50AE
102
{ACAD_XDICTIONARY
360
50AF
102
}
330
2
100
AcDbSymbolTableRecord
100
AcDbLayerTableRecord
  2
图框
 70
     0
 62
     7
  6
Continuous
370
    20
390
F
  0
LAYER
  5
5141
330
2
100
AcDbSymbolTableRecord
100
AcDbLayerTableRecord
  2
Defpoints
 70
     0
 62
     7
  6
Continuous
290
     0
370
    -3
390
F
  0
LAYER
  5
52F3
330
2
100
AcDbSymbolTableRecord
100
AcDbLayerTableRecord
  2
打标文字
 70
     0
 62
     3
  6
Continuous
370
    20
390
F
  0
LAYER
  5
161BC
330
2
100
AcDbSymbolTableRecord
100
AcDbLayerTableRecord
  2
Hat
 70
     0
 62
     6
  6
Continuous
370
    13
390
F
  0
ENDTAB
  0
TABLE
  2
STYLE
  5
3
330
0
100
AcDbSymbolTable
 70
     4
  0
STYLE
  5
11
330
3
100
AcDbSymbolTableRecord
100
AcDbTextStyleTableRecord
  2
Standard
 70
     0
 40
0.0
 41
0.75
 50
0.0
 71
     0
 42
0.2
  3
仿宋_GB2312.ttf
  4

1001
ACAD
1000
FangSong_GB2312
1071
    34353
  0
STYLE
  5
FD48
330
3
100
AcDbSymbolTableRecord
100
AcDbTextStyleTableRecord
  2
Romans字体
 70
     0
 40
0.0
 41
0.75
 50
0.0
 71
     0
 42
0.2
  3
romans.shx
  4

  0
STYLE
  5
11080
330
3
100
AcDbSymbolTableRecord
100
AcDbTextStyleTableRecord
  2
工程字
 70
     0
 40
0.0
 41
1.0
 50
0.0
 71
     0
 42
3.5
  3
gbenor.shx
  4
gbcbig.shx
  0
STYLE
  5
11081
330
3
100
AcDbSymbolTableRecord
100
AcDbTextStyleTableRecord
  2
Chinese
 70
     0
 40
0.0
 41
1.0
 50
0.0
 71
     0
 42
2.5
  3
PMingLiU.ttf
  4

1001
ACAD
1000
PMingLiU
1071
    34834
  0
ENDTAB
  0
TABLE
  2
VIEW
  5
6
330
0
100
AcDbSymbolTable
 70
     0
  0
ENDTAB
  0
TABLE
  2
UCS
  5
7
330
0
100
AcDbSymbolTable
 70
     0
  0
ENDTAB
  0
TABLE
  2
APPID
  5
9
330
0
100
AcDbSymbolTable
 70
    17
  0
APPID
  5
12
330
9
100
AcDbSymbolTableRecord
100
AcDbRegAppTableRecord
  2
ACAD
 70
     0
  0
APPID
  5
5024
330
9
100
AcDbSymbolTableRecord
100
AcDbRegAppTableRecord
  2
ACAD_MLEADERVER
 70
     0
  0
APPID
  5
50B5
330
9
100
AcDbSymbolTableRecord
100
AcDbRegAppTableRecord
  2
AcDbDynamicBlockGUID
 70
     0
  0
APPID
  5
50B6
330
9
100
AcDbSymbolTableRecord
100
AcDbRegAppTableRecord
  2
AcDbBlockRepETag
 70
     0
  0
APPID
  5
50B7
330
9
100
AcDbSymbolTableRecord
100
AcDbRegAppTableRecord
  2
ACAD_PSEXT
 70
     0
  0
APPID
  5
50CF
330
9
100
AcDbSymbolTableRecord
100
AcDbRegAppTableRecord
  2
AcadAnnoPO
 70
     0
  0
APPID
  5
5146
330
9
100
AcDbSymbolTableRecord
100
AcDbRegAppTableRecord
  2
AcAecLayerStandard
 70
     0
  0
APPID
  5
5147
330
9
100
AcDbSymbolTableRecord
100
AcDbRegAppTableRecord
  2
ACAD_DSTYLE_DIMJAG
 70
     0
  0
APPID
  5
5148
330
9
100
AcDbSymbolTableRecord
100
AcDbRegAppTableRecord
  2
ACAD_DSTYLE_DIMTALN
 70
     0
  0
APPID
  5
52AD
330
9
100
AcDbSymbolTableRecord
100
AcDbRegAppTableRecord
  2
ACAUTHENVIRON
 70
     0
  0
APPID
  5
52B0
330
9
100
AcDbSymbolTableRecord
100
AcDbRegAppTableRecord
  2
AcDbDynamicBlockTrueName
 70
     0
  0
APPID
  5
67C6
330
9
100
AcDbSymbolTableRecord
100
AcDbRegAppTableRecord
  2
ACAD_EXEMPT_FROM_CAD_STANDARDS
 70
     0
  0
APPID
  5
6838
330
9
100
AcDbSymbolTableRecord
100
AcDbRegAppTableRecord
  2
ACAD_NAV_VCDISPLAY
 70
     0
  0
APPID
  5
70A9
330
9
100
AcDbSymbolTableRecord
100
AcDbRegAppTableRecord
  2
DCO15
 70
     0
  0
APPID
  5
8725
330
9
100
AcDbSymbolTableRecord
100
AcDbRegAppTableRecord
  2
AcDbBlockRepBTag
 70
     0
  0
APPID
  5
FE64
330
9
100
AcDbSymbolTableRecord
100
AcDbRegAppTableRecord
  2
ACAD_DSTYLE_DIMRADIAL_EXTENSION
 70
     0
  0
APPID
  5
FF93
330
9
100
AcDbSymbolTableRecord
100
AcDbRegAppTableRecord
  2
ACAD_DSTYLE_DIMBREAK
 70
     0
  0
ENDTAB
  0
TABLE
  2
DIMSTYLE
  5
A
330
0
100
AcDbSymbolTable
 70
     2
100
AcDbDimStyleTable
 71
     2
340
5145
340
27
  0
DIMSTYLE
105
27
330
A
100
AcDbSymbolTableRecord
100
AcDbDimStyleTableRecord
  2
Standard
 70
     0
340
11
  0
DIMSTYLE
105
5145
102
{ACAD_REACTORS
330
19711
330
19714
330
19717
102
}
330
A
100
AcDbSymbolTableRecord
100
AcDbDimStyleTableRecord
  2
01
 70
     0
 41
3.0
 42
0.2
 43
0.2
 44
1.199999999999999
 73
     0
 74
     0
 77
     1
 78
     8
 79
     2
140
3.5
141
0.0
147
0.5
176
     1
177
     6
178
     4
179
     2
271
     1
272
     1
340
FD48
1001
ACAD_DSTYLE_DIMJAG
1070
   388
1040
1.5
1001
ACAD_DSTYLE_DIMTALN
1070
   392
1070
     0
  0
ENDTAB
  0
TABLE
  2
BLOCK_RECORD
  5
1
330
0
100
AcDbSymbolTable
 70
     5
  0
BLOCK_RECORD
  5
1F
102
{ACAD_XDICTIONARY
360
67C0
102
}
330
1
100
AcDbSymbolTableRecord
100
AcDbBlockTableRecord
  2
*Model_Space
340
22
  0
BLOCK_RECORD
  5
1B
330
1
100
AcDbSymbolTableRecord
100
AcDbBlockTableRecord
  2
*Paper_Space
340
1E
  0
BLOCK_RECORD
  5
23
330
1
100
AcDbSymbolTableRecord
100
AcDbBlockTableRecord
  2
*Paper_Space0
340
26
  0
BLOCK_RECORD
  5
15DB3
330
1
100
AcDbSymbolTableRecord
100
AcDbBlockTableRecord
  2
GFFHGF
340
0
310
2800000020000000200000000100080000000000000400000000000000000000000000000000000000000000000080000080000000808000800000008000800080800000C0C0C000C0DCC000F0CAA6000020400000206000002080000020A0000020C0000020E00000400000004020000040400000406000004080000040A0
310
000040C0000040E00000600000006020000060400000606000006080000060A0000060C0000060E00000800000008020000080400000806000008080000080A0000080C0000080E00000A0000000A0200000A0400000A0600000A0800000A0A00000A0C00000A0E00000C0000000C0200000C0400000C0600000C0800000C0
310
A00000C0C00000C0E00000E0000000E0200000E0400000E0600000E0800000E0A00000E0C00000E0E00040000000400020004000400040006000400080004000A0004000C0004000E00040200000402020004020400040206000402080004020A0004020C0004020E000404000004040200040404000404060004040800040
310
40A0004040C0004040E00040600000406020004060400040606000406080004060A0004060C0004060E00040800000408020004080400040806000408080004080A0004080C0004080E00040A0000040A0200040A0400040A0600040A0800040A0A00040A0C00040A0E00040C0000040C0200040C0400040C0600040C08000
310
40C0A00040C0C00040C0E00040E0000040E0200040E0400040E0600040E0800040E0A00040E0C00040E0E00080000000800020008000400080006000800080008000A0008000C0008000E00080200000802020008020400080206000802080008020A0008020C0008020E00080400000804020008040400080406000804080
310
008040A0008040C0008040E00080600000806020008060400080606000806080008060A0008060C0008060E00080800000808020008080400080806000808080008080A0008080C0008080E00080A0000080A0200080A0400080A0600080A0800080A0A00080A0C00080A0E00080C0000080C0200080C0400080C0600080C0
310
800080C0A00080C0C00080C0E00080E0000080E0200080E0400080E0600080E0800080E0A00080E0C00080E0E000C0000000C0002000C0004000C0006000C0008000C000A000C000C000C000E000C0200000C0202000C0204000C0206000C0208000C020A000C020C000C020E000C0400000C0402000C0404000C0406000C0
310
408000C040A000C040C000C040E000C0600000C0602000C0604000C0606000C0608000C060A000C060C000C060E000C0800000C0802000C0804000C0806000C0808000C080A000C080C000C080E000C0A00000C0A02000C0A04000C0A06000C0A08000C0A0A000C0A0C000C0A0E000C0C00000C0C02000C0C04000C0C06000
310
C0C08000C0C0A000F0FBFF00A4A0A000808080000000FF0000FF000000FFFF00FF000000FF00FF00FFFF0000FFFFFF0000000000000000000000000000000000000000000000000000000000000000000000000000000000000000000000000000000000000000000000000000000000000000000000000000000000000000
310
000000000000000000000000000000000000000000000000000000000000000000000000000000000000000000000000000000000000000000000000000000000000000000000000000000000000000000000000000000000000000000000000000000000000000000000000000000000000F9F9F9F9F9F9F9F9F9F9F9F9F9
310
F9F9F9F9F9F9F9F9F9F9F9F9F9F9FF00000000F9FF000000000000000000FFFFFFFFFFFFFFFFFFFAFFFFF9FAFAFAFF00000000F9FF000000000000000000FFFFFFFFFFFFFFFFFFFAFFFFFFFFFFFFFF00000000F9FD000000000000000000FFFFFFFFFFFFFFFFFFFFFFFFFFFFFFFFFF00000000F9FF000000000000000000FF
310
FFFFFFFFFFFFFFFFFFFFFFFFFFFFFFFF00000000F9FD000000000000000000FFFFFFFFFFFFFFFFFFFFFFFFFFFFFFFFFF00000000F9FF00000000000000000000000000000000000000000000000000FF00000000F9FD00000000000000000000000000000000000000000000000000FF00000000F9FF000000000000000000
310
00000000000000000000000000000000FF00000000F9FD00000000000000000000000000000000000000000000000000FF00000000F9FF00000000000000000000000000000000000000000000000000FF00000000F9FD00000000000000000000000000000000000000000000000000FF00000000F9FD0000000000000000
310
0000000000000000000000000000000000FF00000000F9FF00000000000000000000000000000000000000000000000000FF00000000F9FD00000000000000000000000000000000000000000000000000FF00000000F9FF00000000000000000000000000000000000000000000000000FF00000000F9FD00000000000000
310
000000000000000000000000000000000000FF00000000F9FF00000000000000000000000000000000000000000000000000FF00000000F9FFFFFFFFFFFFFFFFFFFFFFFFFFFFFFFFFFFFFFFFFFFFFFFFFFFFFF00000000F9FFFFFFF9F9F9F9F9F9F9F9F9F9F9F9F9F9F9F9F9F9F9F9F9F9F9F9000000000000000000000000
310
00000000000000000000000000000000000000000000000000000000000000000000000000000000000000000000000000000000000000000000000000000000000000000000000000000000000000000000000000000000000000000000000000000000000000000000000000000000000000000000000000000000000000
310
0000000000000000000000000000000000000000000000000000000000000000000000000000000000000000000000000000000000000000
102
{BLKREFS
331
15E4A
102
}
1001
ACAD
1000
DesignCenter Data
1002
{
1070
     1
1070
     1
1002
}
  0
BLOCK_RECORD
  5
19738
330
1
100
AcDbSymbolTableRecord
100
AcDbBlockTableRecord
  2
*D2
340
0
  0
BLOCK_RECORD
  5
19744
330
1
100
AcDbSymbolTableRecord
100
AcDbBlockTableRecord
  2
*D3
340
0
  0
BLOCK_RECORD
  5
19750
330
1
100
AcDbSymbolTableRecord
100
AcDbBlockTableRecord
  2
*D4
340
0
  0
ENDTAB
  0
ENDSEC
  0
SECTION
  2
BLOCKS
  0
BLOCK
  5
20
330
1F
100
AcDbEntity
  8
0
100
AcDbBlockBegin
  2
*Model_Space
 70
     0
 10
0.0
 20
0.0
 30
0.0
  3
*Model_Space
  1

  0
ENDBLK
  5
21
330
1F
100
AcDbEntity
  8
0
100
AcDbBlockEnd
  0
BLOCK
  5
1C
330
1B
100
AcDbEntity
 67
     1
  8
0
100
AcDbBlockBegin
  2
*Paper_Space
 70
     0
 10
0.0
 20
0.0
 30
0.0
  3
*Paper_Space
  1

  0
ENDBLK
  5
1D
330
1B
100
AcDbEntity
 67
     1
  8
0
100
AcDbBlockEnd
  0
BLOCK
  5
24
330
23
100
AcDbEntity
 67
     1
  8
0
100
AcDbBlockBegin
  2
*Paper_Space0
 70
     0
 10
0.0
 20
0.0
 30
0.0
  3
*Paper_Space0
  1

  0
ENDBLK
  5
25
330
23
100
AcDbEntity
 67
     1
  8
0
100
AcDbBlockEnd
  0
BLOCK
  5
15DB4
330
15DB3
100
AcDbEntity
  8
0
100
AcDbBlockBegin
  2
GFFHGF
 70
     0
 10
0.0
 20
0.0
 30
0.0
  3
GFFHGF
  1

  0
MTEXT
  5
15DB6
102
{ACAD_XDICTIONARY
360
19FED
102
}
330
15DB3
100
AcDbEntity
  8
图框
 62
     3
100
AcDbMText
 10
1053.832096028344
 20
203.8050663259601
 30
0.0
 40
2.985513575034151
 41
15.50176341157864
 71
     5
 72
     5
  1
WL KANG
  7
Romans字体
 73
     1
 44
1.0
1001
AcDbBlockRepETag
1070
     1
1071
        0
1005
15DB6
1001
ACAD
1000
ACAD_MTEXT_DEFINED_HEIGHT_BEGIN
1070
    46
1040
6.292658374511018
1000
ACAD_MTEXT_DEFINED_HEIGHT_END
  0
MTEXT
  5
15DB7
330
15DB3
100
AcDbEntity
  8
图框
 62
     3
100
AcDbMText
 10
1069.214169686578
 20
203.8050663259601
 30
0.0
 40
2.487927979195124
 41
15.26238390489051
 71
     5
 72
     5
  1
{\W0.7;27.02.2017}
  7
Romans字体
 73
     1
 44
1.0
1001
AcDbBlockRepETag
1070
     1
1071
        1
1005
15DB7
1001
ACAD
1000
ACAD_MTEXT_DEFINED_HEIGHT_BEGIN
1070
    46
1040
6.292658374511042
1000
ACAD_MTEXT_DEFINED_HEIGHT_END
  0
MTEXT
  5
15DB8
330
15DB3
100
AcDbEntity
  8
图框
 62
     3
100
AcDbMText
 10
1098.649855082307
 20
191.2197495769379
 30
0.0
 40
2.985513575034151
 41
17.64876416884615
 71
     5
 72
     5
  1
YY LUO
  7
Romans字体
 73
     1
 44
1.0
1001
AcDbBlockRepETag
1070
     1
1071
        2
1005
15DB8
1001
ACAD
1000
ACAD_MTEXT_DEFINED_HEIGHT_BEGIN
1070
    46
1040
6.292658374511455
1000
ACAD_MTEXT_DEFINED_HEIGHT_END
  0
MTEXT
  5
15DB9
330
15DB3
100
AcDbEntity
  8
图框
 62
     3
100
AcDbMText
 10
1115.150402493217
 20
191.2197495769379
 30
0.0
 40
2.487927979195124
 41
15.35233065297276
 71
     5
 72
     5
  1
{\W0.7;27.02.2017}
  7
Romans字体
 73
     1
 44
1.0
1001
AcDbBlockRepETag
1070
     1
1071
        3
1005
15DB9
1001
ACAD
1000
ACAD_MTEXT_DEFINED_HEIGHT_BEGIN
1070
    46
1040
6.292658374511495
1000
ACAD_MTEXT_DEFINED_HEIGHT_END
  0
MTEXT
  5
15DBA
330
15DB3
100
AcDbEntity
  8
图框
 62
     3
100
AcDbMText
 10
1149.895265840539
 20
229.4532477834139
 30
0.0
 40
2.985513575034151
 41
32.4973914334545
 71
     5
 72
     5
  1
-
  7
Romans字体
 73
     1
 44
1.0
1001
AcDbBlockRepETag
1070
     1
1071
        4
1005
15DBA
1001
ACAD
1000
ACAD_MTEXT_DEFINED_HEIGHT_BEGIN
1070
    46
1040
11.82914190181707
1000
ACAD_MTEXT_DEFINED_HEIGHT_END
  0
MTEXT
  5
15DBB
330
15DB3
100
AcDbEntity
  8
图框
 62
     3
100
AcDbMText
 10
1149.89993890568
 20
217.624105881595
 30
0.0
 40
2.985513575034151
 41
32.48804530317308
 71
     5
 72
     5
  1
-
  7
Romans字体
 73
     1
 44
1.0
1001
AcDbBlockRepETag
1070
     1
1071
        5
1005
15DBB
1001
ACAD
1000
ACAD_MTEXT_DEFINED_HEIGHT_BEGIN
1070
    46
1040
11.82914190182139
1000
ACAD_MTEXT_DEFINED_HEIGHT_END
  0
MTEXT
  5
15DBC
330
15DB3
100
AcDbEntity
  8
图框
 62
     3
100
AcDbMText
 10
1196.294906967483
 20
230.8393350608015
 30
0.0
 40
2.985513575034151
 41
33.61239199242139
 71
     5
 72
     5
  1
-
  7
Romans字体
 73
     1
 44
1.0
1001
AcDbBlockRepETag
1070
     1
1071
        6
1005
15DBC
1001
ACAD
1000
ACAD_MTEXT_DEFINED_HEIGHT_BEGIN
1070
    46
1040
9.05696734704178
1000
ACAD_MTEXT_DEFINED_HEIGHT_END
  0
MTEXT
  5
15DBD
330
15DB3
100
AcDbEntity
  8
图框
 62
     3
100
AcDbMText
 10
1196.294906967483
 20
204.316171681247
 30
0.0
 40
2.985513575034151
 41
33.61239199242139
 71
     5
 72
     5
  1
-
  7
Romans字体
 73
     1
 44
1.0
1001
AcDbBlockRepETag
1070
     1
1071
        7
1005
15DBD
1001
ACAD
1000
ACAD_MTEXT_DEFINED_HEIGHT_BEGIN
1070
    46
1040
8.871557304763419
1000
ACAD_MTEXT_DEFINED_HEIGHT_END
  0
MTEXT
  5
15DBE
330
15DB3
100
AcDbEntity
  8
图框
 62
     3
100
AcDbMText
 10
1053.832096028344
 20
197.512407951449
 30
0.0
 40
2.985513575034151
 41
15.50176341157864
 71
     5
 72
     5
  1
ZW WU
  7
Romans字体
 73
     1
 44
1.0
1001
AcDbBlockRepETag
1070
     1
1071
        8
1005
15DBE
1001
ACAD
1000
ACAD_MTEXT_DEFINED_HEIGHT_BEGIN
1070
    46
1040
6.292658374510335
1000
ACAD_MTEXT_DEFINED_HEIGHT_END
  0
MTEXT
  5
15DBF
330
15DB3
100
AcDbEntity
  8
图框
 62
     3
100
AcDbMText
 10
1069.214169686578
 20
197.2828481745713
 30
0.0
 40
2.487927979195124
 41
15.26238390489051
 71
     5
 72
     5
  1
{\W0.7;27.02.2017}
  7
Romans字体
 73
     1
 44
1.0
1001
AcDbBlockRepETag
1070
     1
1071
        9
1005
15DBF
1001
ACAD
1000
ACAD_MTEXT_DEFINED_HEIGHT_BEGIN
1070
    46
1040
6.751777928266487
1000
ACAD_MTEXT_DEFINED_HEIGHT_END
  0
MTEXT
  5
15DC0
330
15DB3
100
AcDbEntity
  8
图框
 62
     3
100
AcDbMText
 10
1098.649855082307
 20
203.8050663259599
 30
0.0
 40
2.985513575034151
 41
17.64876416884615
 71
     5
 72
     5
  1
-
  7
Romans字体
 73
     1
 44
1.0
1001
AcDbBlockRepETag
1070
     1
1071
       10
1005
15DC0
1001
ACAD
1000
ACAD_MTEXT_DEFINED_HEIGHT_BEGIN
1070
    46
1040
6.292658374511397
1000
ACAD_MTEXT_DEFINED_HEIGHT_END
  0
MTEXT
  5
15DC1
330
15DB3
100
AcDbEntity
  8
图框
 62
     3
100
AcDbMText
 10
1115.150402493217
 20
203.8050663259597
 30
0.0
 40
2.487927979195124
 41
15.35233065297265
 71
     5
 72
     5
  1
-
  7
Romans字体
 73
     1
 44
1.0
1001
AcDbBlockRepETag
1070
     1
1071
       11
1005
15DC1
1001
ACAD
1000
ACAD_MTEXT_DEFINED_HEIGHT_BEGIN
1070
    46
1040
6.292658374511382
1000
ACAD_MTEXT_DEFINED_HEIGHT_END
  0
MTEXT
  5
15DC2
330
15DB3
100
AcDbEntity
  8
图框
 62
     3
100
AcDbMText
 10
1053.832096028344
 20
191.2197495769379
 30
0.0
 40
2.985513575034151
 41
15.50176341157863
 71
     5
 72
     5
  1
-
  7
Romans字体
 73
     1
 44
1.0
1001
AcDbBlockRepETag
1070
     1
1071
       12
1005
15DC2
1001
ACAD
1000
ACAD_MTEXT_DEFINED_HEIGHT_BEGIN
1070
    46
1040
6.292658374511478
1000
ACAD_MTEXT_DEFINED_HEIGHT_END
  0
MTEXT
  5
15DC3
330
15DB3
100
AcDbEntity
  8
图框
 62
     3
100
AcDbMText
 10
1069.214169686578
 20
191.2197495769379
 30
0.0
 40
2.487927979195124
 41
15.26238390489062
 71
     5
 72
     5
  1
-
  7
Romans字体
 73
     1
 44
1.0
1001
AcDbBlockRepETag
1070
     1
1071
       13
1005
15DC3
1001
ACAD
1000
ACAD_MTEXT_DEFINED_HEIGHT_BEGIN
1070
    46
1040
6.292658374511495
1000
ACAD_MTEXT_DEFINED_HEIGHT_END
  0
MTEXT
  5
15DC4
330
15DB3
100
AcDbEntity
  8
图框
 62
     3
100
AcDbMText
 10
1160.729287340072
 20
199.8803930288669
 30
0.0
 40
2.985513575034151
 41
10.82934843438978
 71
     5
 72
     5
  1
-
  7
Romans字体
 73
     1
 44
1.0
1001
AcDbBlockRepETag
1070
     1
1071
       14
1005
15DC4
1001
ACAD
1000
ACAD_MTEXT_DEFINED_HEIGHT_BEGIN
1070
    46
1040
7.886094601210428
1000
ACAD_MTEXT_DEFINED_HEIGHT_END
  0
LINE
  5
15DC5
330
15DB3
100
AcDbEntity
  8
图框
370
    -3
100
AcDbLine
 10
1122.826567819703
 20
203.8234403294721
 30
0.0
 11
1166.143961557267
 21
203.8234403294721
 31
0.0
1001
AcDbBlockRepETag
1070
     1
1071
       15
1005
15DC5
  0
MTEXT
  5
15DC6
330
15DB3
100
AcDbEntity
  8
图框
 62
     1
370
    20
100
AcDbMText
 10
1194.435964792401
 20
195.554910737619
 30
0.0
 40
2.699054613030988
 41
82.30831305643079
 71
     5
 72
     5
  1
{\fSimHei|b0|i0|c134|p2;厦门唯恩电气有限公司}
 73
     1
 44
1.0
1001
AcDbBlockRepETag
1070
     1
1071
       16
1005
15DC6
  0
MTEXT
  5
15DC7
330
15DB3
100
AcDbEntity
  8
图框
 62
     3
370
    20
100
AcDbMText
 10
1194.60805181324
 20
191.3376188555948
 30
0.0
 40
1.652482416141417
 41
68.08558693693567
 71
     5
 72
     5
  1
{\fArial Narrow|b0|i0|c0|p34;XIAMEN WAIN ELECTRICAL CO.LTD}
  7
工程字
 73
     1
 44
1.0
1001
AcDbBlockRepETag
1070
     1
1071
       17
1005
15DC7
  0
MTEXT
  5
15DC8
330
15DB3
100
AcDbEntity
  8
图框
 62
     1
370
    20
100
AcDbMText
 10
1171.884417252718
 20
195.1331314291164
 30
0.0
 40
2.005930044038334
 41
5.047240019334847
 71
     1
 72
     5
  1
{\fArial|b0|i0|c0|p34;A}
  7
Chinese
 73
     1
 44
1.0
1001
AcDbBlockRepETag
1070
     1
1071
       18
1005
15DC8
  0
MTEXT
  5
15DC9
330
15DB3
100
AcDbEntity
  8
图框
 62
     1
370
    20
100
AcDbMText
 10
1174.386086289047
 20
195.1331314291164
 30
0.0
 40
2.005930044038334
 41
5.047240019334847
 71
     1
 72
     5
  1
{\fArial|b0|i0|c0|p34;I}
  7
Chinese
 73
     1
 44
1.0
1001
AcDbBlockRepETag
1070
     1
1071
       19
1005
15DC9
  0
MTEXT
  5
15DCA
330
15DB3
100
AcDbEntity
  8
图框
 62
     1
370
    20
100
AcDbMText
 10
1175.314975576195
 20
195.1209377622116
 30
0.0
 40
2.005930044038334
 41
5.047240019334847
 71
     1
 72
     5
  1
{\fArial|b0|i0|c0|p34;N}
  7
Chinese
 73
     1
 44
1.0
1001
AcDbBlockRepETag
1070
     1
1071
       20
1005
15DCA
  0
MTEXT
  5
15DCB
330
15DB3
100
AcDbEntity
  8
图框
100
AcDbMText
 10
1155.314613122876
 20
192.0053830589717
 30
0.0
 40
2.252848170144607
 41
21.65869686878327
 71
     5
 72
     5
  1
{\W0.5;\C1;All Dimensions in mm\POriginal Size DIN A 4}
  7
Romans字体
 73
     1
 44
1.0
1001
AcDbBlockRepETag
1070
     1
1071
       21
1005
15DCB
1001
ACAD
1000
ACAD_MTEXT_DEFINED_HEIGHT_BEGIN
1070
    46
1040
7.863925338579296
1000
ACAD_MTEXT_DEFINED_HEIGHT_END
  0
MTEXT
  5
15DCC
330
15DB3
100
AcDbEntity
  8
图框
  6
ByBlock
 62
     6
370
    18
100
AcDbMText
 10
1213.576949776411
 20
212.8283047051283
 30
0.0
 40
2.651776162684904
 41
2.557913877927211
 71
     1
 72
     5
  1
A
  7
Romans字体
 11
0.0000000000000001
 21
1.0
 31
0.0
 73
     1
 44
1.0
1001
AcDbBlockRepETag
1070
     1
1071
       22
1005
15DCC
  0
MTEXT
  5
15DCD
330
15DB3
100
AcDbEntity
  8
图框
 62
     6
100
AcDbMText
 10
1213.576949776411
 20
260.4133084528194
 30
0.0
 40
2.651776162684904
 41
2.557913877927211
 71
     1
 72
     5
  1
B
  7
Romans字体
 11
0.0000000000000001
 21
1.0
 31
0.0
 73
     1
 44
1.0
1001
AcDbBlockRepETag
1070
     1
1071
       23
1005
15DCD
  0
MTEXT
  5
15DCE
330
15DB3
100
AcDbEntity
  8
图框
 62
     6
100
AcDbMText
 10
1213.576949776411
 20
311.5925883926306
 30
0.0
 40
2.651776162684904
 41
2.557913877927211
 71
     1
 72
     5
  1
C
  7
Romans字体
 11
0.0000000000000001
 21
1.0
 31
0.0
 73
     1
 44
1.0
1001
AcDbBlockRepETag
1070
     1
1071
       24
1005
15DCE
  0
MTEXT
  5
15DCF
330
15DB3
100
AcDbEntity
  8
图框
 62
     6
100
AcDbMText
 10
1213.576949776411
 20
362.7718683324423
 30
0.0
 40
2.651776162684904
 41
2.557913877927211
 71
     1
 72
     5
  1
D
  7
Romans字体
 11
0.0000000000000001
 21
1.0
 31
0.0
 73
     1
 44
1.0
1001
AcDbBlockRepETag
1070
     1
1071
       25
1005
15DCF
  0
LINE
  5
15DD0
330
15DB3
100
AcDbEntity
  8
图框
 62
     6
100
AcDbLine
 10
1216.584202134572
 20
338.1112602091391
 30
0.0
 11
1213.101102963694
 21
338.1112602091391
 31
0.0
1001
AcDbBlockRepETag
1070
     1
1071
       26
1005
15DD0
  0
LINE
  5
15DD1
330
15DB3
100
AcDbEntity
  8
图框
 62
     6
100
AcDbLine
 10
1216.584202134572
 20
286.9319802693208
 30
0.0
 11
1213.101102963694
 21
286.9319802693208
 31
0.0
1001
AcDbBlockRepETag
1070
     1
1071
       27
1005
15DD1
  0
MTEXT
  5
15DD2
330
15DB3
100
AcDbEntity
  8
图框
 62
     6
100
AcDbMText
 10
1191.502304391721
 20
187.6551054306471
 30
0.0
 40
2.651776162684904
 41
2.557913877927211
 71
     1
 72
     5
  1
6
  7
Romans字体
 73
     1
 44
1.0
1001
AcDbBlockRepETag
1070
     1
1071
       28
1005
15DD2
  0
LINE
  5
15DD3
330
15DB3
100
AcDbEntity
  8
图框
 62
     6
100
AcDbLine
 10
1167.261165508615
 20
188.0734203896823
 30
0.0
 11
1167.261165508615
 21
184.5734203896786
 31
0.0
1001
AcDbBlockRepETag
1070
     1
1071
       29
1005
15DD3
  0
MTEXT
  5
15DD4
330
15DB3
100
AcDbEntity
  8
图框
 62
     6
100
AcDbMText
 10
1142.073196719272
 20
187.5587042385238
 30
0.0
 40
2.651776162684904
 41
2.557913877927211
 71
     1
 72
     5
  1
5
  7
Romans字体
 73
     1
 44
1.0
1001
AcDbBlockRepETag
1070
     1
1071
       30
1005
15DD4
  0
LINE
  5
15DD5
330
15DB3
100
AcDbEntity
  8
图框
 62
     6
100
AcDbLine
 10
1117.72598678968
 20
188.0734203896823
 30
0.0
 11
1117.72598678968
 21
184.5734203896786
 31
0.0
1001
AcDbBlockRepETag
1070
     1
1071
       31
1005
15DD5
  0
MTEXT
  5
15DD6
330
15DB3
100
AcDbEntity
  8
图框
 62
     6
100
AcDbMText
 10
1092.555780928528
 20
187.6074469511204
 30
0.0
 40
2.651776162684904
 41
2.557913877927211
 71
     1
 72
     5
  1
4
  7
Romans字体
 73
     1
 44
1.0
1001
AcDbBlockRepETag
1070
     1
1071
       32
1005
15DD6
  0
LINE
  5
15DD7
330
15DB3
100
AcDbEntity
  8
图框
 62
     6
100
AcDbLine
 10
1068.19080807072
 20
188.0734203896823
 30
0.0
 11
1068.19080807072
 21
184.5734203896786
 31
0.0
1001
AcDbBlockRepETag
1070
     1
1071
       33
1005
15DD7
  0
MTEXT
  5
15DD8
330
15DB3
100
AcDbEntity
  8
图框
 62
     6
100
AcDbMText
 10
1043.002839281367
 20
187.6376191593256
 30
0.0
 40
2.651776162684904
 41
2.557913877927211
 71
     1
 72
     5
  1
3
  7
Romans字体
 73
     1
 44
1.0
1001
AcDbBlockRepETag
1070
     1
1071
       34
1005
15DD8
  0
LINE
  5
15DD9
330
15DB3
100
AcDbEntity
  8
图框
 62
     6
100
AcDbLine
 10
1018.655629351756
 20
188.0734203896823
 30
0.0
 11
1018.655629351756
 21
184.5734203896786
 31
0.0
1001
AcDbBlockRepETag
1070
     1
1071
       35
1005
15DD9
  0
MTEXT
  5
15DDA
330
15DB3
100
AcDbEntity
  8
图框
 62
     6
100
AcDbMText
 10
992.197835335968
 20
187.6861761308464
 30
0.0
 40
2.651776162684904
 41
2.557913877927211
 71
     1
 72
     5
  1
2
  7
Romans字体
 73
     1
 44
1.0
1001
AcDbBlockRepETag
1070
     1
1071
       36
1005
15DDA
  0
LINE
  5
15DDB
330
15DB3
100
AcDbEntity
  8
图框
 62
     6
100
AcDbLine
 10
969.1204506327963
 20
188.0734203896823
 30
0.0
 11
969.1204506327963
 21
184.5734203896786
 31
0.0
1001
AcDbBlockRepETag
1070
     1
1071
       37
1005
15DDB
  0
MTEXT
  5
15DDC
330
15DB3
100
AcDbEntity
  8
图框
 62
     6
100
AcDbMText
 10
943.9324818434506
 20
187.6904806242848
 30
0.0
 40
2.651776162684904
 41
2.557913877927211
 71
     1
 72
     5
  1
1
  7
Romans字体
 73
     1
 44
1.0
1001
AcDbBlockRepETag
1070
     1
1071
       38
1005
15DDC
  0
LINE
  5
15DDD
330
15DB3
100
AcDbEntity
  8
图框
370
    50
100
AcDbLine
 10
923.0274212903912
 20
188.0734203896823
 30
0.0
 11
1213.101102963694
 21
188.0734203896823
 31
0.0
1001
AcDbBlockRepETag
1070
     1
1071
       39
1005
15DDD
  0
LINE
  5
15DDE
330
15DB3
100
AcDbEntity
  8
图框
370
    50
100
AcDbLine
 10
923.0854521988677
 20
188.0565195605554
 30
0.0
 11
923.0854521988709
 21
379.059370642073
 31
0.0
1001
AcDbBlockRepETag
1070
     1
1071
       40
1005
15DDE
  0
MTEXT
  5
15DDF
330
15DB3
100
AcDbEntity
  8
图框
 62
     6
100
AcDbMText
 10
920.0201689322346
 20
362.7718683324423
 30
0.0
 40
2.651776162684904
 41
2.557913877927211
 71
     1
 72
     5
  1
D
  7
Romans字体
 11
0.0000000000000001
 21
1.0
 31
0.0
 73
     1
 44
1.0
1001
AcDbBlockRepETag
1070
     1
1071
       41
1005
15DDF
  0
LINE
  5
15DE0
330
15DB3
100
AcDbEntity
  8
图框
 62
     6
100
AcDbLine
 10
923.0854521988701
 20
338.1112602091391
 30
0.0
 11
919.585452198868
 21
338.1112602091391
 31
0.0
1001
AcDbBlockRepETag
1070
     1
1071
       42
1005
15DE0
  0
MTEXT
  5
15DE1
330
15DB3
100
AcDbEntity
  8
图框
 62
     6
100
AcDbMText
 10
920.0765181013457
 20
311.5925883926306
 30
0.0
 40
2.651776162684904
 41
2.557913877927211
 71
     1
 72
     5
  1
C
  7
Romans字体
 11
0.0000000000000001
 21
1.0
 31
0.0
 73
     1
 44
1.0
1001
AcDbBlockRepETag
1070
     1
1071
       43
1005
15DE1
  0
LINE
  5
15DE2
330
15DB3
100
AcDbEntity
  8
图框
 62
     6
100
AcDbLine
 10
923.0854521988693
 20
286.9319802693208
 30
0.0
 11
919.585452198868
 21
286.9319802693208
 31
0.0
1001
AcDbBlockRepETag
1070
     1
1071
       44
1005
15DE2
  0
MTEXT
  5
15DE3
330
15DB3
100
AcDbEntity
  8
图框
 62
     6
100
AcDbMText
 10
920.0765181013457
 20
260.4133084528194
 30
0.0
 40
2.651776162684904
 41
2.557913877927211
 71
     1
 72
     5
  1
B
  7
Romans字体
 11
0.0000000000000001
 21
1.0
 31
0.0
 73
     1
 44
1.0
1001
AcDbBlockRepETag
1070
     1
1071
       45
1005
15DE3
  0
LINE
  5
15DE4
330
15DB3
100
AcDbEntity
  8
图框
 62
     6
100
AcDbLine
 10
923.0854521988684
 20
235.7527003294999
 30
0.0
 11
919.585452198868
 21
235.7527003294999
 31
0.0
1001
AcDbBlockRepETag
1070
     1
1071
       46
1005
15DE4
  0
MTEXT
  5
15DE5
330
15DB3
100
AcDbEntity
  8
图框
 62
     6
100
AcDbMText
 10
920.0765181013457
 20
212.8283047051283
 30
0.0
 40
2.651776162684904
 41
2.557913877927211
 71
     1
 72
     5
  1
A
  7
Romans字体
 11
0.0000000000000001
 21
1.0
 31
0.0
 73
     1
 44
1.0
1001
AcDbBlockRepETag
1070
     1
1071
       47
1005
15DE5
  0
LINE
  5
15DE6
330
15DB3
100
AcDbEntity
  8
图框
370
    -3
100
AcDbLine
 10
923.0854521988709
 20
379.059370642073
 30
0.0
 11
923.0854521988709
 21
388.5407896217873
 31
0.0
1001
AcDbBlockRepETag
1070
     1
1071
       48
1005
15DE6
  0
LINE
  5
15DE7
330
15DB3
100
AcDbEntity
  8
图框
370
    -3
100
AcDbLine
 10
928.7963325009096
 20
379.5734203896823
 30
0.0
 11
928.7963325009096
 21
389.0548393693966
 31
0.0
1001
AcDbBlockRepETag
1070
     1
1071
       49
1005
15DE7
  0
LINE
  5
15DE8
330
15DB3
100
AcDbEntity
  8
图框
370
    -3
100
AcDbLine
 10
934.5072128029494
 20
379.5734203896823
 30
0.0
 11
934.5072128029494
 21
389.0548393693966
 31
0.0
1001
AcDbBlockRepETag
1070
     1
1071
       50
1005
15DE8
  0
LINE
  5
15DE9
330
15DB3
100
AcDbEntity
  8
图框
370
    -3
100
AcDbLine
 10
940.2180931049903
 20
379.5734203896823
 30
0.0
 11
940.2180931049903
 21
389.0548393693966
 31
0.0
1001
AcDbBlockRepETag
1070
     1
1071
       51
1005
15DE9
  0
LINE
  5
15DEA
330
15DB3
100
AcDbEntity
  8
图框
370
    -3
100
AcDbLine
 10
947.7077878072497
 20
379.5734203896823
 30
0.0
 11
947.7077878072497
 21
390.8288469657791
 31
0.0
1001
AcDbBlockRepETag
1070
     1
1071
       52
1005
15DEA
  0
MTEXT
  5
15DEB
330
15DB3
100
AcDbEntity
  8
图框
 62
     6
100
AcDbMText
 10
1191.502304391721
 20
382.8985701889798
 30
0.0
 40
2.651776162684904
 41
2.557913877927211
 71
     1
 72
     5
  1
6
  7
Romans字体
 73
     1
 44
1.0
1001
AcDbBlockRepETag
1070
     1
1071
       53
1005
15DEB
  0
LINE
  5
15DEC
330
15DB3
100
AcDbEntity
  8
图框
 62
     6
100
AcDbLine
 10
1167.261165508615
 20
383.0734203896824
 30
0.0
 11
1167.261165508615
 21
379.5734203896823
 31
0.0
1001
AcDbBlockRepETag
1070
     1
1071
       54
1005
15DEC
  0
MTEXT
  5
15DED
330
15DB3
100
AcDbEntity
  8
图框
 62
     6
100
AcDbMText
 10
1142.073196719272
 20
382.8985701889798
 30
0.0
 40
2.651776162684904
 41
2.557913877927211
 71
     1
 72
     5
  1
5
  7
Romans字体
 73
     1
 44
1.0
1001
AcDbBlockRepETag
1070
     1
1071
       55
1005
15DED
  0
LINE
  5
15DEE
330
15DB3
100
AcDbEntity
  8
图框
 62
     6
100
AcDbLine
 10
1117.72598678968
 20
383.0734203896824
 30
0.0
 11
1117.72598678968
 21
379.5734203896823
 31
0.0
1001
AcDbBlockRepETag
1070
     1
1071
       56
1005
15DEE
  0
MTEXT
  5
15DEF
330
15DB3
100
AcDbEntity
  8
图框
 62
     6
100
AcDbMText
 10
1092.538018000311
 20
382.7698594951456
 30
0.0
 40
2.651776162684904
 41
2.557913877927211
 71
     1
 72
     5
  1
4
  7
Romans字体
 73
     1
 44
1.0
1001
AcDbBlockRepETag
1070
     1
1071
       57
1005
15DEF
  0
LINE
  5
15DF0
330
15DB3
100
AcDbEntity
  8
图框
 62
     6
100
AcDbLine
 10
1068.19080807072
 20
383.0734203896824
 30
0.0
 11
1068.19080807072
 21
379.5734203896823
 31
0.0
1001
AcDbBlockRepETag
1070
     1
1071
       58
1005
15DF0
  0
MTEXT
  5
15DF1
330
15DB3
100
AcDbEntity
  8
图框
 62
     6
100
AcDbMText
 10
1043.002839281367
 20
382.8985701889798
 30
0.0
 40
2.651776162684904
 41
2.557913877927211
 71
     1
 72
     5
  1
3
  7
Romans字体
 73
     1
 44
1.0
1001
AcDbBlockRepETag
1070
     1
1071
       59
1005
15DF1
  0
LINE
  5
15DF2
330
15DB3
100
AcDbEntity
  8
图框
 62
     6
100
AcDbLine
 10
1018.655629351756
 20
383.0734203896824
 30
0.0
 11
1018.655629351756
 21
379.5734203896823
 31
0.0
1001
AcDbBlockRepETag
1070
     1
1071
       60
1005
15DF2
  0
MTEXT
  5
15DF3
330
15DB3
100
AcDbEntity
  8
图框
 62
     6
100
AcDbMText
 10
993.4676605624135
 20
382.8985701889798
 30
0.0
 40
2.651776162684904
 41
2.557913877927211
 71
     1
 72
     5
  1
2
  7
Romans字体
 73
     1
 44
1.0
1001
AcDbBlockRepETag
1070
     1
1071
       61
1005
15DF3
  0
LINE
  5
15DF4
330
15DB3
100
AcDbEntity
  8
图框
 62
     6
100
AcDbLine
 10
969.1204506327963
 20
382.8348946427123
 30
0.0
 11
969.1204506327963
 21
379.5734203896823
 31
0.0
1001
AcDbBlockRepETag
1070
     1
1071
       62
1005
15DF4
  0
MTEXT
  5
15DF5
330
15DB3
100
AcDbEntity
  8
图框
 62
     6
100
AcDbMText
 10
948.8012633177048
 20
382.8985701889798
 30
0.0
 40
2.651776162684904
 41
2.557913877927211
 71
     1
 72
     5
  1
1
  7
Romans字体
 73
     1
 44
1.0
1001
AcDbBlockRepETag
1070
     1
1071
       63
1005
15DF5
  0
LINE
  5
15DF6
330
15DB3
100
AcDbEntity
  8
图框
370
    -3
100
AcDbLine
 10
923.0854521988709
 20
379.059370642073
 30
0.0
 11
923.0854521988709
 21
390.8288469657791
 31
0.0
1001
AcDbBlockRepETag
1070
     1
1071
       64
1005
15DF6
  0
LINE
  5
15DF7
330
15DB3
100
AcDbEntity
  8
图框
370
    50
100
AcDbLine
 10
923.0854521988709
 20
379.5734203896823
 30
0.0
 11
1213.101102963694
 21
379.5734203896823
 31
0.0
1001
AcDbBlockRepETag
1070
     1
1071
       65
1005
15DF7
  0
LINE
  5
15DF8
330
15DB3
100
AcDbEntity
  8
图框
370
    -3
100
AcDbLine
 10
928.7963325009096
 20
379.5734203896823
 30
0.0
 11
928.7963325009096
 21
390.8288469657791
 31
0.0
1001
AcDbBlockRepETag
1070
     1
1071
       66
1005
15DF8
  0
LINE
  5
15DF9
330
15DB3
100
AcDbEntity
  8
图框
370
    -3
100
AcDbLine
 10
934.5072128029494
 20
379.5734203896823
 30
0.0
 11
934.5072128029494
 21
390.8288469657791
 31
0.0
1001
AcDbBlockRepETag
1070
     1
1071
       67
1005
15DF9
  0
MTEXT
  5
15DFA
102
{ACAD_XDICTIONARY
360
19FEF
102
}
330
15DB3
100
AcDbEntity
  8
图框
100
AcDbMText
 10
943.9629404561204
 20
390.8288469657791
 30
0.0
 40
1.958998408821398
 41
11.25542657609672
 71
     4
 72
     5
  1
\pi2.8203;档案员{\H0.7x;\P\pi1.4159;\Fromans|c134;Filing Clerk\fFangSong_GB2312|b0|i0|c134|p49; }
 11
-0.0000000000000002
 21
-1.0
 31
0.0
 73
     1
 44
1.0
1001
AcDbBlockRepETag
1070
     1
1071
       68
1005
15DFA
1001
ACAD
1000
ACAD_MTEXT_DEFINED_HEIGHT_BEGIN
1070
    46
1040
7.489694702258906
1000
ACAD_MTEXT_DEFINED_HEIGHT_END
  0
MTEXT
  5
15DFB
102
{ACAD_XDICTIONARY
360
19FF1
102
}
330
15DB3
100
AcDbEntity
  8
图框
100
AcDbMText
 10
931.6517726519295
 20
390.8288469657791
 30
0.0
 40
1.958998408821398
 41
11.25542657609672
 71
     4
 72
     5
  1
\pi0.7115;日期{\Fromans|c134;/Date}
 11
-0.0000000000000002
 21
-1.0
 31
0.0
 73
     1
 44
1.0
1001
AcDbBlockRepETag
1070
     1
1071
       69
1005
15DFB
1001
ACAD
1000
ACAD_MTEXT_DEFINED_HEIGHT_BEGIN
1070
    46
1040
5.710880302039671
1000
ACAD_MTEXT_DEFINED_HEIGHT_END
  0
LINE
  5
15DFC
330
15DB3
100
AcDbEntity
  8
图框
370
    -3
100
AcDbLine
 10
940.2180931049903
 20
379.5734203896823
 30
0.0
 11
940.2180931049903
 21
390.8288469657791
 31
0.0
1001
AcDbBlockRepETag
1070
     1
1071
       70
1005
15DFC
  0
LINE
  5
15DFD
330
15DB3
100
AcDbEntity
  8
图框
370
    -3
100
AcDbLine
 10
1122.826567819703
 20
235.3678187343223
 30
0.0
 11
1122.826567819703
 21
188.0512531048469
 31
0.0
1001
AcDbBlockRepETag
1070
     1
1071
       71
1005
15DFD
  0
LINE
  5
15DFE
330
15DB3
100
AcDbEntity
  8
图框
370
    -3
100
AcDbLine
 10
1133.655916254094
 20
211.7095349306841
 30
0.0
 11
1133.655916254094
 21
195.9373457282616
 31
0.0
1001
AcDbBlockRepETag
1070
     1
1071
       72
1005
15DFE
  0
LINE
  5
15DFF
330
15DB3
100
AcDbEntity
  8
图框
370
    -3
100
AcDbLine
 10
1144.485264688484
 20
211.7095349306841
 30
0.0
 11
1144.485264688484
 21
188.0734203896823
 31
0.0
1001
AcDbBlockRepETag
1070
     1
1071
       73
1005
15DFF
  0
LINE
  5
15E00
330
15DB3
100
AcDbEntity
  8
图框
370
    25
100
AcDbLine
 10
1134.646735567787
 20
192.1482139625234
 30
0.0
 11
1141.11902064179
 21
192.1482139625234
 31
0.0
1001
AcDbBlockRepETag
1070
     1
1071
       74
1005
15E00
  0
LINE
  5
15E01
330
15DB3
100
AcDbEntity
  8
图框
370
    25
100
AcDbLine
 10
1140.40512771932
 20
191.1148228137943
 30
0.0
 11
1135.329091267839
 21
190.4962785046308
 31
0.0
1001
AcDbBlockRepETag
1070
     1
1071
       75
1005
15E01
  0
LINE
  5
15E02
330
15DB3
100
AcDbEntity
  8
图框
370
    25
100
AcDbLine
 10
1140.40512771932
 20
193.1816051112517
 30
0.0
 11
1135.329091267839
 21
193.8001494204154
 31
0.0
1001
AcDbBlockRepETag
1070
     1
1071
       76
1005
15E02
  0
LINE
  5
15E03
330
15DB3
100
AcDbEntity
  8
图框
370
    25
100
AcDbLine
 10
1135.329091267839
 20
193.8001494204154
 30
0.0
 11
1135.329091267839
 21
190.4962785046308
 31
0.0
1001
AcDbBlockRepETag
1070
     1
1071
       77
1005
15E03
  0
LINE
  5
15E04
330
15DB3
100
AcDbEntity
  8
图框
370
    25
100
AcDbLine
 10
1140.40512771932
 20
193.1816051112517
 30
0.0
 11
1140.40512771932
 21
191.1148228137943
 31
0.0
1001
AcDbBlockRepETag
1070
     1
1071
       78
1005
15E04
  0
CIRCLE
  5
15E05
330
15DB3
100
AcDbEntity
  8
图框
370
    25
100
AcDbCircle
 10
1128.67530081191
 20
192.1482139625234
 30
0.0
 40
1.651935457891863
1001
AcDbBlockRepETag
1070
     1
1071
       79
1005
15E05
  0
CIRCLE
  5
15E06
330
15DB3
100
AcDbEntity
  8
图框
370
    25
100
AcDbCircle
 10
1128.67530081191
 20
192.1482139625234
 30
0.0
 40
1.033391148728775
1001
AcDbBlockRepETag
1070
     1
1071
       80
1005
15E06
  0
LINE
  5
15E07
330
15DB3
100
AcDbEntity
  8
图框
370
    25
100
AcDbLine
 10
1126.309472431547
 20
192.1482139625234
 30
0.0
 11
1131.041129192274
 21
192.1482139625234
 31
0.0
1001
AcDbBlockRepETag
1070
     1
1071
       81
1005
15E07
  0
LINE
  5
15E08
330
15DB3
100
AcDbEntity
  8
图框
370
    25
100
AcDbLine
 10
1128.67530081191
 20
194.5140423428858
 30
0.0
 11
1128.67530081191
 21
189.7823855821598
 31
0.0
1001
AcDbBlockRepETag
1070
     1
1071
       82
1005
15E08
  0
LINE
  5
15E09
330
15DB3
100
AcDbEntity
  8
图框
370
    -3
100
AcDbLine
 10
1155.314613122877
 20
211.7095349306841
 30
0.0
 11
1155.314613122877
 21
195.9373457282616
 31
0.0
1001
AcDbBlockRepETag
1070
     1
1071
       83
1005
15E09
  0
MTEXT
  5
15E0A
330
15DB3
100
AcDbEntity
  8
图框
100
AcDbMText
 10
1172.81633626427
 20
230.8393350608015
 30
0.0
 40
2.154898249703542
 41
13.34474941400573
 71
     5
 72
     5
  1
图号{\Ftxt|c134;\P\Fromans|c134;\W0.65;Drawing No.}
 73
     1
 44
1.0
1001
AcDbBlockRepETag
1070
     1
1071
       84
1005
15E0A
1001
ACAD
1000
ACAD_MTEXT_DEFINED_HEIGHT_BEGIN
1070
    46
1040
9.056967347041776
1000
ACAD_MTEXT_DEFINED_HEIGHT_END
  0
LINE
  5
15E0B
330
15DB3
100
AcDbEntity
  8
图框
370
    -3
100
AcDbLine
 10
1179.488710971273
 20
235.3678187343223
 30
0.0
 11
1179.488710971273
 21
199.8803930288655
 31
0.0
1001
AcDbBlockRepETag
1070
     1
1071
       85
1005
15E0B
  0
LINE
  5
15E0C
330
15DB3
100
AcDbEntity
  8
图框
370
    -3
100
AcDbLine
 10
1133.646570123812
 20
235.3678187343223
 30
0.0
 11
1133.646570123812
 21
211.7095349306841
 31
0.0
1001
AcDbBlockRepETag
1070
     1
1071
       86
1005
15E0C
  0
MTEXT
  5
15E0D
330
15DB3
100
AcDbEntity
  8
图框
100
AcDbMText
 10
1149.899938905681
 20
207.7664876300781
 30
0.0
 40
2.252848170144607
 41
10.82934843439208
 71
     5
 72
     5
  1
重量\P{\Fromans|c134;Weight}
 73
     1
 44
1.0
1001
AcDbBlockRepETag
1070
     1
1071
       87
1005
15E0D
1001
ACAD
1000
ACAD_MTEXT_DEFINED_HEIGHT_BEGIN
1070
    46
1040
7.886094601212128
1000
ACAD_MTEXT_DEFINED_HEIGHT_END
  0
LINE
  5
15E0E
330
15DB3
100
AcDbEntity
  8
图框
370
    -3
100
AcDbLine
 10
1122.826567819703
 20
223.5386768325055
 30
0.0
 11
1166.143961557267
 21
223.5386768325055
 31
0.0
1001
AcDbBlockRepETag
1070
     1
1071
       88
1005
15E0E
  0
MTEXT
  5
15E0F
330
15DB3
100
AcDbEntity
  8
图框
100
AcDbMText
 10
1160.729287340072
 20
207.7664876300781
 30
0.0
 40
2.252848170144607
 41
10.82934843438984
 71
     5
 72
     5
  1
数量\P{\Fromans|c134;Qty.}
 73
     1
 44
1.0
1001
AcDbBlockRepETag
1070
     1
1071
       89
1005
15E0F
1001
ACAD
1000
ACAD_MTEXT_DEFINED_HEIGHT_BEGIN
1070
    46
1040
7.886094601212141
1000
ACAD_MTEXT_DEFINED_HEIGHT_END
  0
LINE
  5
15E10
330
15DB3
100
AcDbEntity
  8
图框
370
    -3
100
AcDbLine
 10
1166.143961557267
 20
199.8803930288655
 30
0.0
 11
1213.101102963694
 21
199.8803930288651
 31
0.0
1001
AcDbBlockRepETag
1070
     1
1071
       90
1005
15E10
  0
LINE
  5
15E11
330
15DB3
100
AcDbEntity
  8
图框
370
    -3
100
AcDbLine
 10
1166.143961557267
 20
208.7519503336286
 30
0.0
 11
1213.101102963694
 21
208.7519503336286
 31
0.0
1001
AcDbBlockRepETag
1070
     1
1071
       91
1005
15E11
  0
MTEXT
  5
15E12
330
15DB3
100
AcDbEntity
  8
图框
100
AcDbMText
 10
1139.065917406149
 20
207.7664876300781
 30
0.0
 40
2.252848170144607
 41
10.83869456467139
 71
     5
 72
     5
  1
版本\P{\Fromans|c134;REV.}
 73
     1
 44
1.0
1001
AcDbBlockRepETag
1070
     1
1071
       92
1005
15E12
1001
ACAD
1000
ACAD_MTEXT_DEFINED_HEIGHT_BEGIN
1070
    46
1040
7.886094601212101
1000
ACAD_MTEXT_DEFINED_HEIGHT_END
  0
MTEXT
  5
15E13
330
15DB3
100
AcDbEntity
  8
图框
100
AcDbMText
 10
1128.241242036899
 20
207.7664876300781
 30
0.0
 40
2.252848170144607
 41
10.8293484343908
 71
     5
 72
     5
  1
比例\P{\Fromans|c134;Scale}
 73
     1
 44
1.0
1001
AcDbBlockRepETag
1070
     1
1071
       93
1005
15E13
1001
ACAD
1000
ACAD_MTEXT_DEFINED_HEIGHT_BEGIN
1070
    46
1040
7.886094601212136
1000
ACAD_MTEXT_DEFINED_HEIGHT_END
  0
LINE
  5
15E14
330
15DB3
100
AcDbEntity
  8
图框
370
    -3
100
AcDbLine
 10
1122.826567819703
 20
211.7095349306841
 30
0.0
 11
1166.143961557267
 21
211.7095349306841
 31
0.0
1001
AcDbBlockRepETag
1070
     1
1071
       94
1005
15E14
  0
LINE
  5
15E15
330
15DB3
100
AcDbEntity
  8
图框
370
    -3
100
AcDbLine
 10
1122.826567819703
 20
195.9373457282616
 30
0.0
 11
1166.143961557267
 21
195.9373457282616
 31
0.0
1001
AcDbBlockRepETag
1070
     1
1071
       95
1005
15E15
  0
LINE
  5
15E16
330
15DB3
100
AcDbEntity
  8
图框
370
    -3
100
AcDbLine
 10
1166.143961557267
 20
235.3678187343223
 30
0.0
 11
1166.143961557267
 21
188.0512511270476
 31
0.0
1001
AcDbBlockRepETag
1070
     1
1071
       96
1005
15E16
  0
MTEXT
  5
15E17
330
15DB3
100
AcDbEntity
  8
图框
100
AcDbMText
 10
1128.236568971757
 20
229.453247783414
 30
0.0
 40
2.252848170144607
 41
10.82000230410933
 71
     5
 72
     5
  1
表面处理\P{\Fromans|c134;Finish}
 73
     1
 44
1.0
1001
AcDbBlockRepETag
1070
     1
1071
       97
1005
15E17
1001
ACAD
1000
ACAD_MTEXT_DEFINED_HEIGHT_BEGIN
1070
    46
1040
11.82914190181708
1000
ACAD_MTEXT_DEFINED_HEIGHT_END
  0
MTEXT
  5
15E18
330
15DB3
100
AcDbEntity
  8
图框
100
AcDbMText
 10
1128.236568971757
 20
217.6241058815947
 30
0.0
 40
2.252848170144607
 41
10.82000230410933
 71
     5
 72
     5
  1
材料\P{\Fromans|c134;Material}
 73
     1
 44
1.0
1001
AcDbBlockRepETag
1070
     1
1071
       98
1005
15E18
1001
ACAD
1000
ACAD_MTEXT_DEFINED_HEIGHT_BEGIN
1070
    46
1040
11.8291419018212
1000
ACAD_MTEXT_DEFINED_HEIGHT_END
  0
LINE
  5
15E19
330
15DB3
100
AcDbEntity
  8
图框
370
    -3
100
AcDbLine
 10
1166.143961557267
 20
226.3108513872808
 30
0.0
 11
1213.101102963694
 21
226.3108513872808
 31
0.0
1001
AcDbBlockRepETag
1070
     1
1071
       99
1005
15E19
  0
LINE
  5
15E1A
330
15DB3
100
AcDbEntity
  8
图框
370
    -3
100
AcDbLine
 10
1166.143961557267
 20
217.624105881595
 30
0.0
 11
1213.101102963694
 21
217.6241058815947
 31
0.0
1001
AcDbBlockRepETag
1070
     1
1071
      100
1005
15E1A
  0
MTEXT
  5
15E1B
330
15DB3
100
AcDbEntity
  8
图框
100
AcDbMText
 10
1172.81633626427
 20
221.967478634438
 30
0.0
 40
1.958998408821398
 41
13.34474941400573
 71
     5
 72
     5
  1
产品代号\P{\Fromans|c134;Part Code}
 73
     1
 44
1.0
1001
AcDbBlockRepETag
1070
     1
1071
      101
1005
15E1B
1001
ACAD
1000
ACAD_MTEXT_DEFINED_HEIGHT_BEGIN
1070
    46
1040
8.686745505685811
1000
ACAD_MTEXT_DEFINED_HEIGHT_END
  0
LINE
  5
15E1C
330
15DB3
100
AcDbEntity
  8
图框
370
    -3
100
AcDbLine
 10
1033.101102963694
 20
229.836877522672
 30
0.0
 11
1122.826567819703
 21
229.836877522672
 31
0.0
1001
AcDbBlockRepETag
1070
     1
1071
      102
1005
15E1C
  0
LINE
  5
15E1D
330
15DB3
100
AcDbEntity
  8
图框
370
    -3
100
AcDbLine
 10
1033.101102963694
 20
224.3059363110268
 30
0.0
 11
1122.826567819703
 21
224.3059363110268
 31
0.0
1001
AcDbBlockRepETag
1070
     1
1071
      103
1005
15E1D
  0
LINE
  5
15E1E
330
15DB3
100
AcDbEntity
  8
图框
370
    35
100
AcDbLine
 10
1033.101102963694
 20
235.3678187343223
 30
0.0
 11
1213.101102963694
 21
235.3678187343223
 31
0.0
1001
AcDbBlockRepETag
1070
     1
1071
      104
1005
15E1E
  0
LINE
  5
15E1F
330
15DB3
100
AcDbEntity
  8
图框
370
    -3
100
AcDbLine
 10
1076.845361639024
 20
213.2440538877267
 30
0.0
 11
1076.845361639024
 21
188.0734203896823
 31
0.0
1001
AcDbBlockRepETag
1070
     1
1071
      105
1005
15E1F
  0
MTEXT
  5
15E20
102
{ACAD_XDICTIONARY
360
19FF3
102
}
330
15DB3
100
AcDbEntity
  8
图框
100
AcDbMText
 10
1083.335417318455
 20
203.8552411082528
 30
0.0
 40
2.252848170144607
 41
12.98011135886052
 71
     5
 72
     5
  1
{\fFangSong_GB2312|b0|i0|c134|p49;标准化}\PStand.
  7
Romans字体
 73
     1
 44
1.0
1001
AcDbBlockRepETag
1070
     1
1071
      106
1005
15E20
1001
ACAD
1000
ACAD_MTEXT_DEFINED_HEIGHT_BEGIN
1070
    46
1040
6.19230880992475
1000
ACAD_MTEXT_DEFINED_HEIGHT_END
  0
LINE
  5
15E21
330
15DB3
100
AcDbEntity
  8
图框
370
    -3
100
AcDbLine
 10
1061.582977734133
 20
213.2440538877267
 30
0.0
 11
1061.582977734133
 21
188.0734203896823
 31
0.0
1001
AcDbBlockRepETag
1070
     1
1071
      107
1005
15E21
  0
MTEXT
  5
15E22
330
15DB3
100
AcDbEntity
  8
图框
100
AcDbMText
 10
1070.681523333538
 20
216.0095244935511
 30
0.0
 40
2.448748011026752
 41
38.287899328693
 71
     5
 72
     5
  1
  变更描述{\Fromans|c134;/Description}
 73
     1
 44
1.0
1001
AcDbBlockRepETag
1070
     1
1071
      108
1005
15E22
1001
ACAD
1000
ACAD_MTEXT_DEFINED_HEIGHT_BEGIN
1070
    46
1040
5.530941211648832
1000
ACAD_MTEXT_DEFINED_HEIGHT_END
  0
MTEXT
  5
15E23
102
{ACAD_XDICTIONARY
360
19FF5
102
}
330
15DB3
100
AcDbEntity
  8
图框
100
AcDbMText
 10
1098.638686402558
 20
216.009524493551
 30
0.0
 40
1.958998408821398
 41
17.6264268093469
 71
     5
 72
     5
  1
签名\P{\Fromans|c134;Signature} 
 73
     1
 44
1.0
1001
AcDbBlockRepETag
1070
     1
1071
      109
1005
15E23
1001
ACAD
1000
ACAD_MTEXT_DEFINED_HEIGHT_BEGIN
1070
    46
1040
5.530941211648825
1000
ACAD_MTEXT_DEFINED_HEIGHT_END
  0
MTEXT
  5
15E24
102
{ACAD_XDICTIONARY
360
19FF7
102
}
330
15DB3
100
AcDbEntity
  8
图框
100
AcDbMText
 10
1046.928455992817
 20
216.009524493551
 30
0.0
 40
1.958998408821398
 41
9.218235352749283
 71
     5
 72
     5
  1
处数\P{\Fromans|c134;Number }
 73
     1
 44
1.0
1001
AcDbBlockRepETag
1070
     1
1071
      110
1005
15E24
1001
ACAD
1000
ACAD_MTEXT_DEFINED_HEIGHT_BEGIN
1070
    46
1040
5.530941211648841
1000
ACAD_MTEXT_DEFINED_HEIGHT_END
  0
LINE
  5
15E25
330
15DB3
100
AcDbEntity
  8
图框
370
    -3
100
AcDbLine
 10
1033.101102963694
 20
218.7749950993758
 30
0.0
 11
1122.826567819703
 21
218.7749950993758
 31
0.0
1001
AcDbBlockRepETag
1070
     1
1071
      111
1005
15E25
  0
LINE
  5
15E26
330
15DB3
100
AcDbEntity
  8
图框
370
    -3
100
AcDbLine
 10
1033.101102963694
 20
213.2440538877267
 30
0.0
 11
1122.826567819703
 21
213.2440538877267
 31
0.0
1001
AcDbBlockRepETag
1070
     1
1071
      112
1005
15E26
  0
LINE
  5
15E27
330
15DB3
100
AcDbEntity
  8
图框
370
    -3
100
AcDbLine
 10
1033.101102963694
 20
206.9513955132156
 30
0.0
 11
1122.826567819703
 21
206.9513955132156
 31
0.0
1001
AcDbBlockRepETag
1070
     1
1071
      113
1005
15E27
  0
LINE
  5
15E28
330
15DB3
100
AcDbEntity
  8
图框
370
    -3
100
AcDbLine
 10
1033.101102963694
 20
200.658737138704
 30
0.0
 11
1122.826567819703
 21
200.658737138704
 31
0.0
1001
AcDbBlockRepETag
1070
     1
1071
      114
1005
15E28
  0
LINE
  5
15E29
330
15DB3
100
AcDbEntity
  8
图框
370
    35
380
     1
100
AcDbLine
 10
1033.101102963694
 20
235.3678187343223
 30
0.0
 11
1033.101102963694
 21
188.0734203896823
 31
0.0
1001
AcDbBlockRepETag
1070
     1
1071
      115
1005
15E29
  0
LINE
  5
15E2A
330
15DB3
100
AcDbEntity
  8
图框
370
    -3
100
AcDbLine
 10
1107.47423716673
 20
235.3678187343223
 30
0.0
 11
1107.47423716673
 21
188.0734203896823
 31
0.0
1001
AcDbBlockRepETag
1070
     1
1071
      116
1005
15E2A
  0
LINE
  5
15E2B
330
15DB3
100
AcDbEntity
  8
图框
370
    -3
100
AcDbLine
 10
1089.825472997884
 20
235.3678187343223
 30
0.0
 11
1089.825472997884
 21
188.0734203896823
 31
0.0
1001
AcDbBlockRepETag
1070
     1
1071
      117
1005
15E2B
  0
LINE
  5
15E2C
330
15DB3
100
AcDbEntity
  8
图框
370
    -3
100
AcDbLine
 10
1051.537573669192
 20
235.3678187343223
 30
0.0
 11
1051.537573669192
 21
213.2440538877267
 31
0.0
1001
AcDbBlockRepETag
1070
     1
1071
      118
1005
15E2C
  0
LINE
  5
15E2D
330
15DB3
100
AcDbEntity
  8
图框
370
    -3
100
AcDbLine
 10
1042.319338316442
 20
235.3678187343223
 30
0.0
 11
1042.319338316442
 21
213.2440538877267
 31
0.0
1001
AcDbBlockRepETag
1070
     1
1071
      119
1005
15E2D
  0
MTEXT
  5
15E2E
102
{ACAD_XDICTIONARY
360
19FF9
102
}
330
15DB3
100
AcDbEntity
  8
图框
100
AcDbMText
 10
1037.710220640069
 20
216.0095244935511
 30
0.0
 40
1.958998408821398
 41
9.218235352747692
 71
     5
 72
     5
  1
标记\P{\Fromans|c134;Mark}
 73
     1
 44
1.0
1001
AcDbBlockRepETag
1070
     1
1071
      120
1005
15E2E
1001
ACAD
1000
ACAD_MTEXT_DEFINED_HEIGHT_BEGIN
1070
    46
1040
5.530941211648832
1000
ACAD_MTEXT_DEFINED_HEIGHT_END
  0
MTEXT
  5
15E2F
102
{ACAD_XDICTIONARY
360
19FFB
102
}
330
15DB3
100
AcDbEntity
  8
图框
100
AcDbMText
 10
1039.591158643125
 20
197.512407951449
 30
0.0
 40
2.252848170144607
 41
12.98011135886041
 71
     5
 72
     5
  1
审核\P{\Fromans|c134;Checked}
 73
     1
 44
1.0
1001
AcDbBlockRepETag
1070
     1
1071
      121
1005
15E2F
1001
ACAD
1000
ACAD_MTEXT_DEFINED_HEIGHT_BEGIN
1070
    46
1040
6.292658374510382
1000
ACAD_MTEXT_DEFINED_HEIGHT_END
  0
MTEXT
  5
15E30
102
{ACAD_XDICTIONARY
360
19FFD
102
}
330
15DB3
100
AcDbEntity
  8
图框
100
AcDbMText
 10
1039.591158643125
 20
203.9162146672085
 30
0.0
 40
2.252848170144607
 41
12.98011135886041
 71
     5
 72
     5
  1
绘图\P{\Fromans|c134;Drawn\Ftxt|c134; }
 73
     1
 44
1.0
1001
AcDbBlockRepETag
1070
     1
1071
      122
1005
15E30
1001
ACAD
1000
ACAD_MTEXT_DEFINED_HEIGHT_BEGIN
1070
    46
1040
6.070361692014189
1000
ACAD_MTEXT_DEFINED_HEIGHT_END
  0
ARC
  5
15E31
330
15DB3
100
AcDbEntity
  8
图框
 62
     4
370
    35
100
AcDbCircle
 10
1173.073227370752
 20
194.0566455446503
 30
0.0
 40
4.063310408393665
100
AcDbArc
 50
18.95237904564832
 51
161.0476209543517
1001
AcDbBlockRepETag
1070
     1
1071
      123
1005
15E31
  0
ARC
  5
15E32
330
15DB3
100
AcDbEntity
  8
图框
 62
     4
370
    35
100
AcDbCircle
 10
1173.073227370752
 20
194.0566455446503
 30
0.0
 40
4.063310408393665
100
AcDbArc
 50
198.9523790456483
 51
341.0476209543517
1001
AcDbBlockRepETag
1070
     1
1071
      124
1005
15E32
  0
LINE
  5
15E33
330
15DB3
100
AcDbEntity
  8
图框
 62
     4
370
    35
100
AcDbLine
 10
1169.230193722879
 20
192.736954726206
 30
0.0
 11
1176.916261018621
 21
192.736954726206
 31
0.0
1001
AcDbBlockRepETag
1070
     1
1071
      125
1005
15E33
  0
LINE
  5
15E34
330
15DB3
100
AcDbEntity
  8
图框
 62
     4
370
    35
100
AcDbLine
 10
1169.230193722879
 20
195.376336363096
 30
0.0
 11
1176.916261018621
 21
195.376336363096
 31
0.0
1001
AcDbBlockRepETag
1070
     1
1071
      126
1005
15E34
  0
MTEXT
  5
15E35
330
15DB3
100
AcDbEntity
  8
图框
 62
     1
370
    20
100
AcDbMText
 10
1169.207183233
 20
195.0892799376998
 30
0.0
 40
2.005930044038334
 41
5.047240019334847
 71
     1
 72
     5
  1
{\fArial|b0|i0|c0|p34;W}
  7
Chinese
 73
     1
 44
1.0
1001
AcDbBlockRepETag
1070
     1
1071
      127
1005
15E35
  0
LINE
  5
15E36
330
15DB3
100
AcDbEntity
  8
图框
370
    -3
100
AcDbLine
 10
1033.101102963694
 20
194.3660787641938
 30
0.0
 11
1122.826567819703
 21
194.3660787641938
 31
0.0
1001
AcDbBlockRepETag
1070
     1
1071
      128
1005
15E36
  0
LINE
  5
15E37
330
15DB3
100
AcDbEntity
  8
图框
370
    -3
100
AcDbLine
 10
1046.081214322555
 20
213.2440538877267
 30
0.0
 11
1046.081214322555
 21
188.0734203896823
 31
0.0
1001
AcDbBlockRepETag
1070
     1
1071
      129
1005
15E37
  0
MTEXT
  5
15E38
330
15DB3
100
AcDbEntity
  8
图框
100
AcDbMText
 10
1053.832096028344
 20
210.0977247004711
 30
0.0
 40
2.252848170144607
 41
15.50176341157869
 71
     5
 72
     5
  1
姓名{\Fromans|c134;/Name\Ftxt|c134; }
 73
     1
 44
1.0
1001
AcDbBlockRepETag
1070
     1
1071
      130
1005
15E38
1001
ACAD
1000
ACAD_MTEXT_DEFINED_HEIGHT_BEGIN
1070
    46
1040
6.292658374511246
1000
ACAD_MTEXT_DEFINED_HEIGHT_END
  0
MTEXT
  5
15E39
330
15DB3
100
AcDbEntity
  8
图框
100
AcDbMText
 10
1069.214169686579
 20
210.0977247004711
 30
0.0
 40
2.252848170144607
 41
15.26238390489042
 71
     5
 72
     5
  1
日期{\Fromans|c134;/Date}
 73
     1
 44
1.0
1001
AcDbBlockRepETag
1070
     1
1071
      131
1005
15E39
1001
ACAD
1000
ACAD_MTEXT_DEFINED_HEIGHT_BEGIN
1070
    46
1040
6.2926583745112
1000
ACAD_MTEXT_DEFINED_HEIGHT_END
  0
LINE
  5
15E3A
330
15DB3
100
AcDbEntity
  8
图框
370
    -3
100
AcDbLine
 10
1033.101102963694
 20
213.2440538877267
 30
0.0
 11
1046.081214322555
 21
206.9513955132156
 31
0.0
1001
AcDbBlockRepETag
1070
     1
1071
      132
1005
15E3A
  0
MTEXT
  5
15E3B
330
15DB3
100
AcDbEntity
  8
图框
100
AcDbMText
 10
1099.104005463417
 20
210.0572227136033
 30
0.0
 40
2.252848170144607
 41
16.93492221063566
 71
     5
 72
     5
  1
姓名{\Fromans|c134;/Name}
 73
     1
 44
1.0
1001
AcDbBlockRepETag
1070
     1
1071
      133
1005
15E3B
  0
MTEXT
  5
15E3C
330
15DB3
100
AcDbEntity
  8
图框
100
AcDbMText
 10
1115.150402493217
 20
210.0977247004711
 30
0.0
 40
2.252848170144607
 41
15.35233065297283
 71
     5
 72
     5
  1
日期{\Fromans|c134;/Date}
 73
     1
 44
1.0
1001
AcDbBlockRepETag
1070
     1
1071
      134
1005
15E3C
1001
ACAD
1000
ACAD_MTEXT_DEFINED_HEIGHT_BEGIN
1070
    46
1040
6.292658374511256
1000
ACAD_MTEXT_DEFINED_HEIGHT_END
  0
LINE
  5
15E3D
330
15DB3
100
AcDbEntity
  8
图框
370
    -3
100
AcDbLine
 10
1089.825472997884
 20
206.9513955132156
 30
0.0
 11
1076.845361639024
 21
213.2440538877267
 31
0.0
1001
AcDbBlockRepETag
1070
     1
1071
      135
1005
15E3D
  0
MTEXT
  5
15E3E
102
{ACAD_XDICTIONARY
360
19FFF
102
}
330
15DB3
100
AcDbEntity
  8
图框
100
AcDbMText
 10
1083.335417318455
 20
191.2197495769379
 30
0.0
 40
2.252848170144607
 41
12.98011135886052
 71
     5
 72
     5
  1
批准\P{\Fromans|c134;Approved}
 73
     1
 44
1.0
1001
AcDbBlockRepETag
1070
     1
1071
      136
1005
15E3E
1001
ACAD
1000
ACAD_MTEXT_DEFINED_HEIGHT_BEGIN
1070
    46
1040
6.292658374511517
1000
ACAD_MTEXT_DEFINED_HEIGHT_END
  0
MTEXT
  5
15E3F
102
{ACAD_XDICTIONARY
360
1A001
102
}
330
15DB3
100
AcDbEntity
  8
图框
100
AcDbMText
 10
1039.591158643125
 20
191.2197495769379
 30
0.0
 40
2.252848170144607
 41
12.98011135886041
 71
     5
 72
     5
  1
工艺\P{\Fromans|c134;Process}
 73
     1
 44
1.0
1001
AcDbBlockRepETag
1070
     1
1071
      137
1005
15E3F
1001
ACAD
1000
ACAD_MTEXT_DEFINED_HEIGHT_BEGIN
1070
    46
1040
6.292658374511495
1000
ACAD_MTEXT_DEFINED_HEIGHT_END
  0
MTEXT
  5
15E40
102
{ACAD_XDICTIONARY
360
1A003
102
}
330
15DB3
100
AcDbEntity
  8
图框
100
AcDbMText
 10
1115.150402493217
 20
215.8674476602972
 30
0.0
 40
1.958998408821398
 41
15.3523306529728
 71
     5
 72
     5
  1
日期\P{\Fromans|c134;Date}
 73
     1
 44
1.0
1001
AcDbBlockRepETag
1070
     1
1071
      138
1005
15E40
1001
ACAD
1000
ACAD_MTEXT_DEFINED_HEIGHT_BEGIN
1070
    46
1040
5.246787545140668
1000
ACAD_MTEXT_DEFINED_HEIGHT_END
  0
MTEXT
  5
15E41
330
15DB3
100
AcDbEntity
  8
图框
100
AcDbMText
 10
1172.81633626427
 20
213.1880281076117
 30
0.0
 40
2.154898249703542
 41
13.34474941400573
 71
     5
 72
     5
  1
产品料号\P{\Fromans|c134;Part No.}
 73
     1
 44
1.0
1001
AcDbBlockRepETag
1070
     1
1071
      139
1005
15E41
1001
ACAD
1000
ACAD_MTEXT_DEFINED_HEIGHT_BEGIN
1070
    46
1040
8.87215554796615
1000
ACAD_MTEXT_DEFINED_HEIGHT_END
  0
MTEXT
  5
15E42
330
15DB3
100
AcDbEntity
  8
图框
100
AcDbMText
 10
1172.81633626427
 20
204.3161716812471
 30
0.0
 40
1.958998408821398
 41
13.34474941400573
 71
     5
 72
     5
  1
产品名称\P{\Fromans|c134;Part Name}
 73
     1
 44
1.0
1001
AcDbBlockRepETag
1070
     1
1071
      140
1005
15E42
1001
ACAD
1000
ACAD_MTEXT_DEFINED_HEIGHT_BEGIN
1070
    46
1040
8.871557304763321
1000
ACAD_MTEXT_DEFINED_HEIGHT_END
  0
LINE
  5
15E43
330
15DB3
100
AcDbEntity
  8
图框
 62
     1
370
    18
100
AcDbLine
 10
919.585452198868
 20
394.5734203896823
 30
0.0
 11
919.585452198868
 21
184.5734203896823
 31
0.0
1001
AcDbBlockRepETag
1070
     1
1071
      141
1005
15E43
  0
LINE
  5
15E44
330
15DB3
100
AcDbEntity
  8
图框
 62
     1
370
    18
100
AcDbLine
 10
919.585452198868
 20
184.5734203896823
 30
0.0
 11
1216.584202134567
 21
184.5734203896823
 31
0.0
1001
AcDbBlockRepETag
1070
     1
1071
      142
1005
15E44
  0
LINE
  5
15E45
330
15DB3
100
AcDbEntity
  8
图框
 62
     1
370
    18
100
AcDbLine
 10
919.585452198868
 20
394.5734203896823
 30
0.0
 11
1216.584202134567
 21
394.5734203896823
 31
0.0
1001
AcDbBlockRepETag
1070
     1
1071
      143
1005
15E45
  0
LINE
  5
15E46
330
15DB3
100
AcDbEntity
  8
图框
 62
     1
370
    18
100
AcDbLine
 10
1216.584202134567
 20
184.5734203896823
 30
0.0
 11
1216.584202134567
 21
394.5734203896823
 31
0.0
1001
AcDbBlockRepETag
1070
     1
1071
      144
1005
15E46
  0
LINE
  5
15E47
330
15DB3
100
AcDbEntity
  8
图框
370
    18
100
AcDbLine
 10
923.0854521988709
 20
390.8288469657791
 30
0.0
 11
947.7077878072497
 21
390.8288469657791
 31
0.0
1001
AcDbBlockRepETag
1070
     1
1071
      145
1005
15E47
  0
LINE
  5
15E48
330
15DB3
100
AcDbEntity
  8
图框
370
    50
100
AcDbLine
 10
1213.101102963694
 20
188.3796565988386
 30
0.0
 11
1213.101102963694
 21
379.5734203896823
 31
0.0
1001
AcDbBlockRepETag
1070
     1
1071
      146
1005
15E48
  0
MTEXT
  5
15E49
330
15DB3
100
AcDbEntity
  8
图框
 62
     3
100
AcDbMText
 10
1139.070590471289
 20
199.8803930288672
 30
0.0
 40
2.985513575034151
 41
10.82934843439114
 71
     5
 72
     5
  1
V1.0
  7
Romans字体
 73
     1
 44
1.0
1001
AcDbBlockRepETag
1070
     1
1071
      147
1005
15E49
1001
ACAD
1000
ACAD_MTEXT_DEFINED_HEIGHT_BEGIN
1070
    46
1040
7.886094601211307
1000
ACAD_MTEXT_DEFINED_HEIGHT_END
  0
ENDBLK
  5
15DB5
330
15DB3
100
AcDbEntity
  8
0
100
AcDbBlockEnd
  0
BLOCK
  5
19739
330
19738
100
AcDbEntity
  8
0
100
AcDbBlockBegin
  2
*D2
 70
     1
 10
0.0
 20
0.0
 30
0.0
  3
*D2
  1

  0
LINE
  5
19EDD
330
19738
100
AcDbEntity
  8
0
 62
     6
370
    -2
100
AcDbLine
 10
466.7673469460468
 20
317.4059490156128
 30
0.0
 11
466.7673469460468
 21
327.1836315987291
 31
0.0
  0
LINE
  5
19EDE
330
19738
100
AcDbEntity
  8
0
 62
     6
370
    -2
100
AcDbLine
 10
487.7673469460468
 20
317.4059490156128
 30
0.0
 11
487.7673469460468
 21
327.1836315987291
 31
0.0
  0
LINE
  5
19EDF
330
19738
100
AcDbEntity
  8
0
 62
     1
370
    -2
100
AcDbLine
 10
469.7673469460467
 20
325.9836315987291
 30
0.0
 11
484.7673469460468
 21
325.9836315987291
 31
0.0
  0
SOLID
  5
19EE0
330
19738
100
AcDbEntity
  8
0
 62
     1
100
AcDbTrace
 10
469.7673469460467
 20
326.4836315987291
 30
0.0
 11
469.7673469460467
 21
325.4836315987291
 31
0.0
 12
466.7673469460468
 22
325.9836315987291
 32
0.0
 13
466.7673469460468
 23
325.9836315987291
 33
0.0
  0
SOLID
  5
19EE1
330
19738
100
AcDbEntity
  8
0
 62
     1
100
AcDbTrace
 10
484.7673469460468
 20
326.4836315987291
 30
0.0
 11
484.7673469460468
 21
325.4836315987291
 31
0.0
 12
487.7673469460468
 22
325.9836315987291
 32
0.0
 13
487.7673469460468
 23
325.9836315987291
 33
0.0
  0
MTEXT
  5
19EE2
330
19738
100
AcDbEntity
  8
0
 62
     4
100
AcDbMText
 10
477.2673469460467
 20
328.2336315987291
 30
0.0
 40
3.5
 41
0.0
 71
     5
 72
     1
  1
\A1;{\fFangSong_GB2312|b0|i0|c134|p49;□}21
  7
Romans字体
 73
     1
 44
1.0
  0
POINT
  5
19EE3
330
19738
100
AcDbEntity
  8
Defpoints
 62
     0
100
AcDbPoint
 10
466.7673469460468
 20
317.2059490156128
 30
0.0
  0
POINT
  5
19EE4
330
19738
100
AcDbEntity
  8
Defpoints
 62
     0
100
AcDbPoint
 10
487.7673469460468
 20
317.2059490156128
 30
0.0
  0
POINT
  5
19EE5
330
19738
100
AcDbEntity
  8
Defpoints
 62
     0
100
AcDbPoint
 10
487.7673469460468
 20
325.9836315987291
 30
0.0
  0
ENDBLK
  5
1973A
330
19738
100
AcDbEntity
  8
0
100
AcDbBlockEnd
  0
BLOCK
  5
19745
330
19744
100
AcDbEntity
  8
0
100
AcDbBlockBegin
  2
*D3
 70
     1
 10
0.0
 20
0.0
 30
0.0
  3
*D3
  1

  0
LINE
  5
19EE6
330
19744
100
AcDbEntity
  8
0
 62
     6
370
    -2
100
AcDbLine
 10
511.962672464136
 20
319.705949015613
 30
0.0
 11
511.962672464136
 21
327.0543082914167
 31
0.0
  0
LINE
  5
19EE7
330
19744
100
AcDbEntity
  8
0
 62
     6
370
    -2
100
AcDbLine
 10
544.962672464136
 20
309.9059490156128
 30
0.0
 11
544.962672464136
 21
327.0543082914167
 31
0.0
  0
LINE
  5
19EE8
330
19744
100
AcDbEntity
  8
0
 62
     1
370
    -2
100
AcDbLine
 10
514.962672464136
 20
325.8543082914167
 30
0.0
 11
541.962672464136
 21
325.8543082914167
 31
0.0
  0
SOLID
  5
19EE9
330
19744
100
AcDbEntity
  8
0
 62
     1
100
AcDbTrace
 10
514.962672464136
 20
326.3543082914166
 30
0.0
 11
514.962672464136
 21
325.3543082914167
 31
0.0
 12
511.962672464136
 22
325.8543082914167
 32
0.0
 13
511.962672464136
 23
325.8543082914167
 33
0.0
  0
SOLID
  5
19EEA
330
19744
100
AcDbEntity
  8
0
 62
     1
100
AcDbTrace
 10
541.962672464136
 20
326.3543082914166
 30
0.0
 11
541.962672464136
 21
325.3543082914167
 31
0.0
 12
544.962672464136
 22
325.8543082914167
 32
0.0
 13
544.962672464136
 23
325.8543082914167
 33
0.0
  0
MTEXT
  5
19EEB
330
19744
100
AcDbEntity
  8
0
 62
     4
100
AcDbMText
 10
528.462672464136
 20
328.1043082914167
 30
0.0
 40
3.5
 41
0.0
 71
     5
 72
     1
  1
\A1;33
  7
Romans字体
 73
     1
 44
1.0
  0
POINT
  5
19EEC
330
19744
100
AcDbEntity
  8
Defpoints
 62
     0
100
AcDbPoint
 10
511.962672464136
 20
319.505949015613
 30
0.0
  0
POINT
  5
19EED
330
19744
100
AcDbEntity
  8
Defpoints
 62
     0
100
AcDbPoint
 10
544.962672464136
 20
309.7059490156128
 30
0.0
  0
POINT
  5
19EEE
330
19744
100
AcDbEntity
  8
Defpoints
 62
     0
100
AcDbPoint
 10
544.962672464136
 20
325.8543082914167
 30
0.0
  0
ENDBLK
  5
19746
330
19744
100
AcDbEntity
  8
0
100
AcDbBlockEnd
  0
BLOCK
  5
19751
330
19750
100
AcDbEntity
  8
0
100
AcDbBlockBegin
  2
*D4
 70
     1
 10
0.0
 20
0.0
 30
0.0
  3
*D4
  1

  0
LINE
  5
19EEF
330
19750
100
AcDbEntity
  8
0
 62
     6
370
    -2
100
AcDbLine
 10
511.962672464136
 20
299.7059490156126
 30
0.0
 11
511.962672464136
 21
288.5383359707091
 31
0.0
  0
LINE
  5
19EF0
330
19750
100
AcDbEntity
  8
0
 62
     6
370
    -2
100
AcDbLine
 10
536.3626724641356
 20
299.0059490156128
 30
0.0
 11
536.3626724641356
 21
288.5383359707091
 31
0.0
  0
LINE
  5
19EF1
330
19750
100
AcDbEntity
  8
0
 62
     1
370
    -2
100
AcDbLine
 10
514.962672464136
 20
289.7383359707091
 30
0.0
 11
533.3626724641357
 21
289.7383359707091
 31
0.0
  0
SOLID
  5
19EF2
330
19750
100
AcDbEntity
  8
0
 62
     1
100
AcDbTrace
 10
514.962672464136
 20
290.2383359707091
 30
0.0
 11
514.962672464136
 21
289.2383359707091
 31
0.0
 12
511.962672464136
 22
289.7383359707091
 32
0.0
 13
511.962672464136
 23
289.7383359707091
 33
0.0
  0
SOLID
  5
19EF3
330
19750
100
AcDbEntity
  8
0
 62
     1
100
AcDbTrace
 10
533.3626724641357
 20
290.2383359707091
 30
0.0
 11
533.3626724641357
 21
289.2383359707091
 31
0.0
 12
536.3626724641356
 22
289.7383359707091
 32
0.0
 13
536.3626724641356
 23
289.7383359707091
 33
0.0
  0
MTEXT
  5
19EF4
330
19750
100
AcDbEntity
  8
0
 62
     4
100
AcDbMText
 10
524.1626724641358
 20
291.9883359707091
 30
0.0
 40
3.5
 41
0.0
 71
     5
 72
     1
  1
\A1;24.4
  7
Romans字体
 73
     1
 44
1.0
  0
POINT
  5
19EF5
330
19750
100
AcDbEntity
  8
Defpoints
 62
     0
100
AcDbPoint
 10
511.962672464136
 20
299.9059490156126
 30
0.0
  0
POINT
  5
19EF6
330
19750
100
AcDbEntity
  8
Defpoints
 62
     0
100
AcDbPoint
 10
536.3626724641356
 20
299.2059490156128
 30
0.0
  0
POINT
  5
19EF7
330
19750
100
AcDbEntity
  8
Defpoints
 62
     0
100
AcDbPoint
 10
536.3626724641356
 20
289.7383359707091
 30
0.0
  0
ENDBLK
  5
19752
330
19750
100
AcDbEntity
  8
0
100
AcDbBlockEnd
  0
ENDSEC
  0
SECTION
  2
ENTITIES
  0
HATCH
  5
28AE
330
1F
100
AcDbEntity
  8
图层 1
 62
     7
100
AcDbHatch
 10
0.0
 20
0.0
 30
0.0
210
0.0
220
0.0
230
1.0
  2
SOLID
 70
     1
 71
     0
 91
        1
 92
        1
 93
        2
 72
     4
 94
        3
 73
     0
 74
     0
 95
       17
 96
       13
 40
0.0
 40
0.0
 40
0.0
 40
0.0
 40
0.3527780104152769
 40
0.3527780104152769
 40
0.3527780104152769
 40
0.7055560208305538
 40
0.7055560208305538
 40
0.7055560208305538
 40
1.058334031245828
 40
1.058334031245828
 40
1.058334031245828
 40
1.411112041661104
 40
1.411112041661104
 40
1.411112041661104
 40
1.411112041661104
 10
11.07013262565829
 20
29.50312817963231
 10
11.07013262565829
 20
29.50312817963231
 10
10.9431807732774
 20
29.50312817963231
 10
10.9431807732774
 20
29.50312817963231
 10
10.9431807732774
 20
29.50312817963231
 10
10.85843136843155
 20
29.22786486877117
 10
10.85843136843155
 20
29.22786486877117
 10
10.85843136843155
 20
29.22786486877117
 10
10.90080607085448
 20
29.2068497724476
 10
10.90080607085448
 20
29.2068497724476
 10
10.94455881238059
 20
29.31571486159919
 10
11.00346998404173
 20
29.40907701083995
 10
11.07013262565829
 20
29.50312817963231
 72
     1
 10
11.07013262565829
 20
29.50312817963231
 11
11.07013262565829
 21
29.50312817963231
 97
        0
 75
     0
 76
     1
 98
        0
450
        0
451
        0
460
0.0
461
0.0
452
        0
462
0.0
453
        0
470

  0
HATCH
  5
2C65
330
1F
100
AcDbEntity
  8
图层 1
 62
     7
100
AcDbHatch
 10
0.0
 20
0.0
 30
0.0
210
0.0
220
0.0
230
1.0
  2
SOLID
 70
     1
 71
     0
 91
        1
 92
        1
 93
        2
 72
     4
 94
        3
 73
     0
 74
     0
 95
       47
 96
       43
 40
0.0
 40
0.0
 40
0.0
 40
0.0
 40
0.3527780104152769
 40
0.3527780104152769
 40
0.3527780104152769
 40
0.7055560208305538
 40
0.7055560208305538
 40
0.7055560208305538
 40
1.058334031245828
 40
1.058334031245828
 40
1.058334031245828
 40
1.411112041661104
 40
1.411112041661104
 40
1.411112041661104
 40
1.763890052076384
 40
1.763890052076384
 40
1.763890052076384
 40
2.116668062491659
 40
2.116668062491659
 40
2.116668062491659
 40
2.469446072906936
 40
2.469446072906936
 40
2.469446072906936
 40
2.822224083322215
 40
2.822224083322215
 40
2.822224083322215
 40
3.175002093737492
 40
3.175002093737492
 40
3.175002093737492
 40
3.527780104152768
 40
3.527780104152768
 40
3.527780104152768
 40
3.880558114568044
 40
3.880558114568044
 40
3.880558114568044
 40
4.233336124983321
 40
4.233336124983321
 40
4.233336124983321
 40
4.586114135398599
 40
4.586114135398599
 40
4.586114135398599
 40
4.938892145813873
 40
4.938892145813873
 40
4.938892145813873
 40
4.938892145813873
 10
162.8986914070121
 20
257.4895347631509
 10
162.8986914070121
 20
257.4895347631509
 10
162.9200510131114
 20
257.4471600607279
 10
162.9200510131114
 20
257.4471600607279
 10
162.9200510131114
 20
257.4471600607279
 10
162.9200510131114
 20
257.404785358305
 10
162.9200510131114
 20
257.404785358305
 10
162.9200510131114
 20
257.404785358305
 10
162.8986914070121
 20
257.36258291077
 10
162.8986914070121
 20
257.36258291077
 10
162.8986914070121
 20
257.36258291077
 10
162.8986914070121
 20
257.320208208347
 10
162.8986914070121
 20
257.320208208347
 10
162.8986914070121
 20
257.320208208347
 10
162.8563167045891
 20
257.2990208571356
 10
162.8563167045891
 20
257.2990208571356
 10
162.8563167045891
 20
257.2990208571356
 10
162.8139420021662
 20
257.2563016449369
 10
162.8139420021662
 20
257.2563016449369
 10
162.8139420021662
 20
257.2563016449369
 10
162.7295371070961
 20
257.2563016449369
 10
162.7295371070961
 20
257.2563016449369
 10
162.7295371070961
 20
257.2563016449369
 10
162.6658027985738
 20
257.2778335059241
 10
162.6658027985738
 20
257.2778335059241
 10
162.6658027985738
 20
257.2778335059241
 10
162.6237726059267
 20
257.2990208571356
 10
162.6237726059267
 20
257.2990208571356
 10
162.6237726059267
 20
257.2990208571356
 10
162.5813979035038
 20
257.3413955595585
 10
162.5813979035038
 20
257.3413955595585
 10
162.5813979035038
 20
257.3413955595585
 10
162.5813979035038
 20
257.4895347631509
 10
162.5813979035038
 20
257.4895347631509
 10
162.5813979035038
 20
257.4895347631509
 10
162.6447877022503
 20
257.5525800521216
 10
162.6447877022503
 20
257.5525800521216
 10
162.6447877022503
 20
257.5525800521216
 10
162.7081775009967
 20
257.5525800521216
 10
162.7081775009967
 20
257.5525800521216
 10
162.8749202324821
 20
257.5424170137356
 10
162.7918933765152
 20
257.5939212252171
 10
162.8986914070121
 20
257.4895347631509
 72
     1
 10
162.8986914070121
 20
257.4895347631509
 11
162.8986914070121
 21
257.4895347631509
 97
        0
 75
     0
 76
     1
 98
        0
450
        0
451
        0
460
0.0
461
0.0
452
        0
462
0.0
453
        0
470

  0
HATCH
  5
2EE7
330
1F
100
AcDbEntity
  8
图层 1
 62
     7
100
AcDbHatch
 10
0.0
 20
0.0
 30
0.0
210
0.0
220
0.0
230
1.0
  2
SOLID
 70
     1
 71
     0
 91
        1
 92
        1
 93
        2
 72
     4
 94
        3
 73
     0
 74
     0
 95
       56
 96
       52
 40
0.0
 40
0.0
 40
0.0
 40
0.0
 40
0.3527780104152769
 40
0.3527780104152769
 40
0.3527780104152769
 40
0.7055560208305538
 40
0.7055560208305538
 40
0.7055560208305538
 40
1.058334031245828
 40
1.058334031245828
 40
1.058334031245828
 40
1.411112041661104
 40
1.411112041661104
 40
1.411112041661104
 40
1.763890052076384
 40
1.763890052076384
 40
1.763890052076384
 40
2.116668062491659
 40
2.116668062491659
 40
2.116668062491659
 40
2.469446072906936
 40
2.469446072906936
 40
2.469446072906936
 40
2.822224083322215
 40
2.822224083322215
 40
2.822224083322215
 40
3.175002093737492
 40
3.175002093737492
 40
3.175002093737492
 40
3.527780104152768
 40
3.527780104152768
 40
3.527780104152768
 40
3.880558114568044
 40
3.880558114568044
 40
3.880558114568044
 40
4.233336124983321
 40
4.233336124983321
 40
4.233336124983321
 40
4.586114135398599
 40
4.586114135398599
 40
4.586114135398599
 40
4.938892145813873
 40
4.938892145813873
 40
4.938892145813873
 40
5.291670156229153
 40
5.291670156229153
 40
5.291670156229153
 40
5.64444816664443
 40
5.64444816664443
 40
5.64444816664443
 40
5.997226177059705
 40
5.997226177059705
 40
5.997226177059705
 40
5.997226177059705
 10
185.4837187788815
 20
241.4451977396596
 10
185.4837187788815
 20
241.4451977396596
 10
185.4837187788815
 20
241.4028230372367
 10
185.4837187788815
 20
241.4028230372367
 10
185.4837187788815
 20
241.4028230372367
 10
185.5047338752051
 20
241.3604483348137
 10
185.5047338752051
 20
241.3604483348137
 10
185.4520238795082
 20
241.2782827532863
 10
185.4671823096433
 20
241.1897437409066
 10
185.335579575289
 20
241.2119646214456
 10
185.335579575289
 20
241.2119646214456
 10
185.2932048728662
 20
241.2119646214456
 10
185.2932048728662
 20
241.2119646214456
 10
185.2932048728662
 20
241.2119646214456
 10
185.2294705643439
 20
241.2334964824328
 10
185.2294705643439
 20
241.2334964824328
 10
185.2294705643439
 20
241.2334964824328
 10
185.1660807655974
 20
241.2543393238685
 10
185.1660807655974
 20
241.2543393238685
 10
185.1660807655974
 20
241.2543393238685
 10
185.1450656692739
 20
241.2758711848558
 10
185.1450656692739
 20
241.2758711848558
 10
185.1450656692739
 20
241.2758711848558
 10
185.1450656692739
 20
241.2967140262914
 10
185.1450656692739
 20
241.2967140262914
 10
185.1450656692739
 20
241.2967140262914
 10
185.1237060631745
 20
241.3604483348137
 10
185.1237060631745
 20
241.3604483348137
 10
185.1237060631745
 20
241.3604483348137
 10
185.1237060631745
 20
241.4028230372367
 10
185.1237060631745
 20
241.4028230372367
 10
185.1237060631745
 20
241.4028230372367
 10
185.1660807655974
 20
241.4875724420825
 10
185.1660807655974
 20
241.4875724420825
 10
185.1660807655974
 20
241.4875724420825
 10
185.2084554680203
 20
241.5085875384061
 10
185.2084554680203
 20
241.5085875384061
 10
185.2084554680203
 20
241.5085875384061
 10
185.2718452667668
 20
241.5297748896175
 10
185.2718452667668
 20
241.5297748896175
 10
185.2718452667668
 20
241.5297748896175
 10
185.3565946716127
 20
241.5297748896175
 10
185.3565946716127
 20
241.5297748896175
 10
185.3565946716127
 20
241.5297748896175
 10
185.4199844703592
 20
241.5085875384061
 10
185.4199844703592
 20
241.5085875384061
 10
185.4199844703592
 20
241.5085875384061
 10
185.4623591727821
 20
241.4875724420825
 10
185.4623591727821
 20
241.4875724420825
 10
185.4623591727821
 20
241.4875724420825
 10
185.4837187788815
 20
241.4451977396596
 10
185.4837187788815
 20
241.4451977396596
 72
     1
 10
185.4837187788815
 20
241.4451977396596
 11
185.4837187788815
 21
241.4451977396596
 97
        0
 75
     0
 76
     1
 98
        0
450
        0
451
        0
460
0.0
461
0.0
452
        0
462
0.0
453
        0
470

  0
HATCH
  5
2F93
330
1F
100
AcDbEntity
  8
图层 1
 62
     7
100
AcDbHatch
 10
0.0
 20
0.0
 30
0.0
210
0.0
220
0.0
230
1.0
  2
SOLID
 70
     1
 71
     0
 91
        1
 92
        1
 93
        2
 72
     4
 94
        3
 73
     0
 74
     0
 95
       38
 96
       34
 40
0.0
 40
0.0
 40
0.0
 40
0.0
 40
0.3527780104152769
 40
0.3527780104152769
 40
0.3527780104152769
 40
0.7055560208305538
 40
0.7055560208305538
 40
0.7055560208305538
 40
1.058334031245828
 40
1.058334031245828
 40
1.058334031245828
 40
1.411112041661104
 40
1.411112041661104
 40
1.411112041661104
 40
1.763890052076384
 40
1.763890052076384
 40
1.763890052076384
 40
2.116668062491659
 40
2.116668062491659
 40
2.116668062491659
 40
2.469446072906936
 40
2.469446072906936
 40
2.469446072906936
 40
2.822224083322215
 40
2.822224083322215
 40
2.822224083322215
 40
3.175002093737492
 40
3.175002093737492
 40
3.175002093737492
 40
3.527780104152768
 40
3.527780104152768
 40
3.527780104152768
 40
3.880558114568044
 40
3.880558114568044
 40
3.880558114568044
 40
3.880558114568044
 10
185.907121293335
 20
220.1937677098971
 10
185.9005756075949
 20
220.0449394867532
 10
185.9329595265197
 20
220.1136691870245
 10
185.864746590912
 20
219.9817219428946
 10
185.864746590912
 20
219.9817219428946
 10
185.822371888489
 20
219.9605345916831
 10
185.822371888489
 20
219.9605345916831
 10
185.822371888489
 20
219.9605345916831
 10
185.6528730787974
 20
219.9605345916831
 10
185.6528730787974
 20
219.9605345916831
 10
185.6528730787974
 20
219.9605345916831
 10
185.5894832800509
 20
220.002909294106
 10
185.5894832800509
 20
220.002909294106
 10
185.5894832800509
 20
220.002909294106
 10
185.5681236739515
 20
220.0240966453175
 10
185.5681236739515
 20
220.0240966453175
 10
185.5681236739515
 20
220.0240966453175
 10
185.5681236739515
 20
220.045283996529
 10
185.5681236739515
 20
220.045283996529
 10
185.5681236739515
 20
220.045283996529
 10
185.547108577628
 20
220.0876586989519
 10
185.547108577628
 20
220.0876586989519
 10
185.547108577628
 20
220.0876586989519
 10
185.547108577628
 20
220.1513930074742
 10
185.547108577628
 20
220.1513930074742
 10
185.547108577628
 20
220.1513930074742
 10
185.5894832800509
 20
220.23614241232
 10
185.5894832800509
 20
220.23614241232
 10
185.5894832800509
 20
220.23614241232
 10
185.6318579824738
 20
220.2573297635315
 10
185.6318579824738
 20
220.2573297635315
 10
185.7055830744942
 20
220.2566407439799
 10
185.8416644359337
 20
220.3310548555519
 10
185.907121293335
 20
220.1937677098971
 72
     1
 10
185.907121293335
 20
220.1937677098971
 11
185.907121293335
 21
220.1937677098971
 97
        0
 75
     0
 76
     1
 98
        0
450
        0
451
        0
460
0.0
461
0.0
452
        0
462
0.0
453
        0
470

  0
HATCH
  5
2FDE
330
1F
100
AcDbEntity
  8
图层 1
 62
     7
100
AcDbHatch
 10
0.0
 20
0.0
 30
0.0
210
0.0
220
0.0
230
1.0
  2
SOLID
 70
     1
 71
     0
 91
        1
 92
        1
 93
        2
 72
     4
 94
        3
 73
     0
 74
     0
 95
       50
 96
       46
 40
0.0
 40
0.0
 40
0.0
 40
0.0
 40
0.3527780104152769
 40
0.3527780104152769
 40
0.3527780104152769
 40
0.7055560208305538
 40
0.7055560208305538
 40
0.7055560208305538
 40
1.058334031245828
 40
1.058334031245828
 40
1.058334031245828
 40
1.411112041661104
 40
1.411112041661104
 40
1.411112041661104
 40
1.763890052076384
 40
1.763890052076384
 40
1.763890052076384
 40
2.116668062491659
 40
2.116668062491659
 40
2.116668062491659
 40
2.469446072906936
 40
2.469446072906936
 40
2.469446072906936
 40
2.822224083322215
 40
2.822224083322215
 40
2.822224083322215
 40
3.175002093737492
 40
3.175002093737492
 40
3.175002093737492
 40
3.527780104152768
 40
3.527780104152768
 40
3.527780104152768
 40
3.880558114568044
 40
3.880558114568044
 40
3.880558114568044
 40
4.233336124983321
 40
4.233336124983321
 40
4.233336124983321
 40
4.586114135398599
 40
4.586114135398599
 40
4.586114135398599
 40
4.938892145813873
 40
4.938892145813873
 40
4.938892145813873
 40
5.291670156229153
 40
5.291670156229153
 40
5.291670156229153
 40
5.291670156229153
 10
180.9117295442905
 20
208.9327766684477
 10
180.9117295442905
 20
208.9327766684477
 10
180.9117295442905
 20
208.7637946234197
 10
180.9117295442905
 20
208.7637946234197
 10
181.2273004989198
 20
208.6749111012643
 10
181.3833634273555
 20
208.6776671794706
 10
181.6948002646751
 20
208.5097186637701
 10
181.9542161258496
 20
208.4294478860095
 10
182.1388733656765
 20
208.2134402565853
 10
182.3297317814676
 20
208.02292635057
 10
182.3297317814676
 20
208.02292635057
 10
182.435496282637
 20
208.065301052993
 10
182.435496282637
 20
208.065301052993
 10
182.288390608372
 20
208.2733849575739
 10
182.3752070718726
 20
208.2134402565853
 10
182.1605774815516
 20
208.3824223016133
 10
182.1605774815516
 20
208.3824223016133
 10
182.1182027791287
 20
208.4247970040363
 10
182.1182027791287
 20
208.4247970040363
 10
182.1182027791287
 20
208.4247970040363
 10
182.0968431730294
 20
208.467516216235
 10
182.0968431730294
 20
208.467516216235
 10
182.0968431730294
 20
208.467516216235
 10
182.0544684706064
 20
208.4883590576707
 10
182.0544684706064
 20
208.4883590576707
 10
182.0544684706064
 20
208.4883590576707
 10
181.9910786718599
 20
208.5305615052057
 10
181.9910786718599
 20
208.5305615052057
 10
181.9910786718599
 20
208.5305615052057
 10
181.948703969437
 20
208.552093366193
 10
181.948703969437
 20
208.552093366193
 10
181.948703969437
 20
208.552093366193
 10
181.9063292670141
 20
208.5729362076286
 10
181.9063292670141
 20
208.5729362076286
 10
181.9063292670141
 20
208.5729362076286
 10
181.8639545645911
 20
208.6156554198274
 10
181.8639545645911
 20
208.6156554198274
 10
181.8639545645911
 20
208.6156554198274
 10
181.821924371944
 20
208.6368427710388
 10
181.821924371944
 20
208.6368427710388
 10
181.6637943848536
 20
208.6742220817127
 10
181.5452830219797
 20
208.8092699138248
 10
181.3771622513911
 20
208.8061693258427
 10
181.2803550043924
 20
208.8573290275484
 10
181.0126709085988
 20
208.8971199066528
 10
180.9117295442905
 20
208.9327766684477
 72
     1
 10
180.9117295442905
 20
208.9327766684477
 11
180.9117295442905
 21
208.9327766684477
 97
        0
 75
     0
 76
     1
 98
        0
450
        0
451
        0
460
0.0
461
0.0
452
        0
462
0.0
453
        0
470

  0
HATCH
  5
35C8
330
1F
100
AcDbEntity
  8
图层 1
 62
     7
100
AcDbHatch
 10
0.0
 20
0.0
 30
0.0
210
0.0
220
0.0
230
1.0
  2
SOLID
 70
     1
 71
     0
 91
        1
 92
        1
 93
        2
 72
     4
 94
        3
 73
     0
 74
     0
 95
       38
 96
       34
 40
0.0
 40
0.0
 40
0.0
 40
0.0
 40
0.3527780104152769
 40
0.3527780104152769
 40
0.3527780104152769
 40
0.7055560208305538
 40
0.7055560208305538
 40
0.7055560208305538
 40
1.058334031245828
 40
1.058334031245828
 40
1.058334031245828
 40
1.411112041661104
 40
1.411112041661104
 40
1.411112041661104
 40
1.763890052076384
 40
1.763890052076384
 40
1.763890052076384
 40
2.116668062491659
 40
2.116668062491659
 40
2.116668062491659
 40
2.469446072906936
 40
2.469446072906936
 40
2.469446072906936
 40
2.822224083322215
 40
2.822224083322215
 40
2.822224083322215
 40
3.175002093737492
 40
3.175002093737492
 40
3.175002093737492
 40
3.527780104152768
 40
3.527780104152768
 40
3.527780104152768
 40
3.880558114568044
 40
3.880558114568044
 40
3.880558114568044
 40
3.880558114568044
 10
189.145513185819
 20
166.8326485368285
 10
189.207869455238
 20
166.740492171803
 10
189.1317327947871
 20
166.6833035490209
 10
189.103138483396
 20
166.6209472796017
 10
189.103138483396
 20
166.6209472796017
 10
189.0607637809731
 20
166.5997599283903
 10
189.0607637809731
 20
166.5997599283903
 10
189.0607637809731
 20
166.5997599283903
 10
188.9973739822266
 20
166.5785725771788
 10
188.9973739822266
 20
166.5785725771788
 10
188.9973739822266
 20
166.5785725771788
 10
188.9549992798037
 20
166.5997599283903
 10
188.9549992798037
 20
166.5997599283903
 10
188.9549992798037
 20
166.5997599283903
 10
188.8916094810572
 20
166.5997599283903
 10
188.8916094810572
 20
166.5997599283903
 10
188.8916094810572
 20
166.5997599283903
 10
188.8492347786343
 20
166.6209472796017
 10
188.8492347786343
 20
166.6209472796017
 10
188.8492347786343
 20
166.6209472796017
 10
188.8278751725349
 20
166.6633219820247
 10
188.8278751725349
 20
166.6633219820247
 10
188.8278751725349
 20
166.6633219820247
 10
188.8068600762114
 20
166.6845093332361
 10
188.8068600762114
 20
166.6845093332361
 10
188.8068600762114
 20
166.6845093332361
 10
188.8068600762114
 20
166.8326485368285
 10
188.8068600762114
 20
166.8326485368285
 10
188.8068600762114
 20
166.8326485368285
 10
188.8702498749578
 20
166.896038335575
 10
188.8702498749578
 20
166.896038335575
 10
189.0228677056355
 20
166.8819134347673
 10
189.0686875058164
 20
166.9411691162043
 10
189.145513185819
 20
166.8326485368285
 72
     1
 10
189.145513185819
 20
166.8326485368285
 11
189.145513185819
 21
166.8326485368285
 97
        0
 75
     0
 76
     1
 98
        0
450
        0
451
        0
460
0.0
461
0.0
452
        0
462
0.0
453
        0
470

  0
HATCH
  5
35D8
330
1F
100
AcDbEntity
  8
图层 1
 62
     7
100
AcDbHatch
 10
0.0
 20
0.0
 30
0.0
210
0.0
220
0.0
230
1.0
  2
SOLID
 70
     1
 71
     0
 91
        1
 92
        1
 93
        2
 72
     4
 94
        3
 73
     0
 74
     0
 95
       68
 96
       64
 40
0.0
 40
0.0
 40
0.0
 40
0.0
 40
0.3527780104152769
 40
0.3527780104152769
 40
0.3527780104152769
 40
0.7055560208305538
 40
0.7055560208305538
 40
0.7055560208305538
 40
1.058334031245828
 40
1.058334031245828
 40
1.058334031245828
 40
1.411112041661104
 40
1.411112041661104
 40
1.411112041661104
 40
1.763890052076384
 40
1.763890052076384
 40
1.763890052076384
 40
2.116668062491659
 40
2.116668062491659
 40
2.116668062491659
 40
2.469446072906936
 40
2.469446072906936
 40
2.469446072906936
 40
2.822224083322215
 40
2.822224083322215
 40
2.822224083322215
 40
3.175002093737492
 40
3.175002093737492
 40
3.175002093737492
 40
3.527780104152768
 40
3.527780104152768
 40
3.527780104152768
 40
3.880558114568044
 40
3.880558114568044
 40
3.880558114568044
 40
4.233336124983321
 40
4.233336124983321
 40
4.233336124983321
 40
4.586114135398599
 40
4.586114135398599
 40
4.586114135398599
 40
4.938892145813873
 40
4.938892145813873
 40
4.938892145813873
 40
5.291670156229153
 40
5.291670156229153
 40
5.291670156229153
 40
5.64444816664443
 40
5.64444816664443
 40
5.64444816664443
 40
5.997226177059705
 40
5.997226177059705
 40
5.997226177059705
 40
6.350004187474984
 40
6.350004187474984
 40
6.350004187474984
 40
6.702782197890257
 40
6.702782197890257
 40
6.702782197890257
 40
7.055560208305537
 40
7.055560208305537
 40
7.055560208305537
 40
7.408338218720808
 40
7.408338218720808
 40
7.408338218720808
 40
7.408338218720808
 10
174.7732543591544
 20
135.4846705078077
 10
174.7732543591544
 20
135.4846705078077
 10
174.7732543591544
 20
135.3789060066383
 10
174.7732543591544
 20
135.3789060066383
 10
174.7732543591544
 20
135.3789060066383
 10
174.8156290615773
 20
135.3789060066383
 10
174.8156290615773
 20
135.3789060066383
 10
174.8156290615773
 20
135.3789060066383
 10
174.8580037640002
 20
135.3578909103147
 10
174.8580037640002
 20
135.3578909103147
 10
174.8580037640002
 20
135.3578909103147
 10
174.9213935627468
 20
135.3578909103147
 10
174.9213935627468
 20
135.3578909103147
 10
174.9213935627468
 20
135.3578909103147
 10
174.9637682651697
 20
135.3365313042154
 10
174.9637682651697
 20
135.3365313042154
 10
174.9637682651697
 20
135.3365313042154
 10
174.9847833614933
 20
135.3365313042154
 10
174.9847833614933
 20
135.3365313042154
 10
174.9847833614933
 20
135.3365313042154
 10
175.0271580639162
 20
135.3155162078918
 10
175.0271580639162
 20
135.3155162078918
 10
175.0271580639162
 20
135.3155162078918
 10
175.0485176700155
 20
135.2941566017924
 10
175.0485176700155
 20
135.2941566017924
 10
175.0485176700155
 20
135.2941566017924
 10
175.0695327663391
 20
135.2941566017924
 10
175.0695327663391
 20
135.2941566017924
 10
175.0695327663391
 20
135.2941566017924
 10
175.0908923724385
 20
135.2731415054689
 10
175.0908923724385
 20
135.2731415054689
 10
175.0908923724385
 20
135.2731415054689
 10
175.1332670748614
 20
135.2731415054689
 10
175.1332670748614
 20
135.2731415054689
 10
175.1332670748614
 20
135.2731415054689
 10
175.154282171185
 20
135.2517818993695
 10
175.154282171185
 20
135.2517818993695
 10
175.154282171185
 20
135.2517818993695
 10
175.154282171185
 20
135.3578909103147
 10
175.154282171185
 20
135.3578909103147
 10
175.154282171185
 20
135.3578909103147
 10
175.1332670748614
 20
135.3789060066383
 10
175.1332670748614
 20
135.3789060066383
 10
175.1332670748614
 20
135.3789060066383
 10
175.0908923724385
 20
135.3789060066383
 10
175.0908923724385
 20
135.3789060066383
 10
175.0908923724385
 20
135.3789060066383
 10
175.0908923724385
 20
135.3999211029619
 10
175.0908923724385
 20
135.3999211029619
 10
175.0908923724385
 20
135.3999211029619
 10
175.0695327663391
 20
135.3999211029619
 10
175.0695327663391
 20
135.3999211029619
 10
175.0695327663391
 20
135.3999211029619
 10
175.0271580639162
 20
135.4212807090612
 10
175.0271580639162
 20
135.4212807090612
 10
175.0271580639162
 20
135.4212807090612
 10
175.0061429675926
 20
135.4212807090612
 10
175.0061429675926
 20
135.4212807090612
 10
175.0061429675926
 20
135.4212807090612
 10
174.9637682651697
 20
135.4422958053848
 10
174.9637682651697
 20
135.4422958053848
 10
174.8996894468716
 20
135.4498750204523
 10
174.8394002361073
 20
135.4860485469109
 10
174.7732543591544
 20
135.4846705078077
 72
     1
 10
174.7732543591544
 20
135.4846705078077
 11
174.7732543591544
 21
135.4846705078077
 97
        0
 75
     0
 76
     1
 98
        0
450
        0
451
        0
460
0.0
461
0.0
452
        0
462
0.0
453
        0
470

  0
HATCH
  5
3807
330
1F
100
AcDbEntity
  8
图层 1
 62
     7
100
AcDbHatch
 10
0.0
 20
0.0
 30
0.0
210
0.0
220
0.0
230
1.0
  2
SOLID
 70
     1
 71
     0
 91
        1
 92
        1
 93
        2
 72
     4
 94
        3
 73
     0
 74
     0
 95
       29
 96
       25
 40
0.0
 40
0.0
 40
0.0
 40
0.0
 40
0.3527780104152769
 40
0.3527780104152769
 40
0.3527780104152769
 40
0.7055560208305538
 40
0.7055560208305538
 40
0.7055560208305538
 40
1.058334031245828
 40
1.058334031245828
 40
1.058334031245828
 40
1.411112041661104
 40
1.411112041661104
 40
1.411112041661104
 40
1.763890052076384
 40
1.763890052076384
 40
1.763890052076384
 40
2.116668062491659
 40
2.116668062491659
 40
2.116668062491659
 40
2.469446072906936
 40
2.469446072906936
 40
2.469446072906936
 40
2.822224083322215
 40
2.822224083322215
 40
2.822224083322215
 40
2.822224083322215
 10
175.4929352807925
 20
164.0174869039101
 10
175.4929352807925
 20
164.0174869039101
 10
175.5139503771161
 20
163.9751122014871
 10
175.5139503771161
 20
163.9751122014871
 10
175.5139503771161
 20
163.9751122014871
 10
175.5139503771161
 20
163.9327374990642
 10
175.5139503771161
 20
163.9327374990642
 10
175.5139503771161
 20
163.9327374990642
 10
175.4929352807925
 20
163.8903627966413
 10
175.4929352807925
 20
163.8903627966413
 10
175.4929352807925
 20
163.8903627966413
 10
175.471920184469
 20
163.8691754454298
 10
175.471920184469
 20
163.8691754454298
 10
175.471920184469
 20
163.8691754454298
 10
175.4505605783696
 20
163.8269729978948
 10
175.4505605783696
 20
163.8269729978948
 10
175.3571984291289
 20
163.7715069239916
 10
175.272449024283
 20
163.8195660377152
 10
175.1966568736079
 20
163.8691754454298
 10
175.208370205985
 20
163.9930267098286
 10
175.1563492298397
 20
164.0216210212197
 10
175.2600466723544
 20
164.0596893514451
 10
175.3330827448232
 20
164.1094710140476
 10
175.4357466580104
 20
164.0753645462439
 10
175.4929352807925
 20
164.0174869039101
 72
     1
 10
175.4929352807925
 20
164.0174869039101
 11
175.4929352807925
 21
164.0174869039101
 97
        0
 75
     0
 76
     1
 98
        0
450
        0
451
        0
460
0.0
461
0.0
452
        0
462
0.0
453
        0
470

  0
HATCH
  5
3895
330
1F
100
AcDbEntity
  8
图层 1
 62
     7
100
AcDbHatch
 10
0.0
 20
0.0
 30
0.0
210
0.0
220
0.0
230
1.0
  2
SOLID
 70
     1
 71
     0
 91
        1
 92
        1
 93
        2
 72
     4
 94
        3
 73
     0
 74
     0
 95
       11
 96
        7
 40
0.0
 40
0.0
 40
0.0
 40
0.0
 40
0.3527780104152769
 40
0.3527780104152769
 40
0.3527780104152769
 40
0.7055560208305538
 40
0.7055560208305538
 40
0.7055560208305538
 40
0.7055560208305538
 10
174.9213935627468
 20
174.5369206529582
 10
174.9213935627468
 20
174.5369206529582
 10
174.9213935627468
 20
174.3043765542958
 10
174.9213935627468
 20
174.3043765542958
 10
174.9213935627468
 20
174.3043765542958
 10
174.9213935627468
 20
174.5369206529582
 10
174.9213935627468
 20
174.5369206529582
 72
     1
 10
174.9213935627468
 20
174.5369206529582
 11
174.9213935627468
 21
174.5369206529582
 97
        0
 75
     0
 76
     1
 98
        0
450
        0
451
        0
460
0.0
461
0.0
452
        0
462
0.0
453
        0
470

  0
HATCH
  5
3943
330
1F
100
AcDbEntity
  8
图层 1
 62
     7
100
AcDbHatch
 10
0.0
 20
0.0
 30
0.0
210
0.0
220
0.0
230
1.0
  2
SOLID
 70
     1
 71
     0
 91
        1
 92
        1
 93
        2
 72
     4
 94
        3
 73
     0
 74
     0
 95
      131
 96
      127
 40
0.0
 40
0.0
 40
0.0
 40
0.0
 40
0.3527780104152769
 40
0.3527780104152769
 40
0.3527780104152769
 40
0.7055560208305538
 40
0.7055560208305538
 40
0.7055560208305538
 40
1.058334031245828
 40
1.058334031245828
 40
1.058334031245828
 40
1.411112041661104
 40
1.411112041661104
 40
1.411112041661104
 40
1.763890052076384
 40
1.763890052076384
 40
1.763890052076384
 40
2.116668062491659
 40
2.116668062491659
 40
2.116668062491659
 40
2.469446072906936
 40
2.469446072906936
 40
2.469446072906936
 40
2.822224083322215
 40
2.822224083322215
 40
2.822224083322215
 40
3.175002093737492
 40
3.175002093737492
 40
3.175002093737492
 40
3.527780104152768
 40
3.527780104152768
 40
3.527780104152768
 40
3.880558114568044
 40
3.880558114568044
 40
3.880558114568044
 40
4.233336124983321
 40
4.233336124983321
 40
4.233336124983321
 40
4.586114135398599
 40
4.586114135398599
 40
4.586114135398599
 40
4.938892145813873
 40
4.938892145813873
 40
4.938892145813873
 40
5.291670156229153
 40
5.291670156229153
 40
5.291670156229153
 40
5.64444816664443
 40
5.64444816664443
 40
5.64444816664443
 40
5.997226177059705
 40
5.997226177059705
 40
5.997226177059705
 40
6.350004187474984
 40
6.350004187474984
 40
6.350004187474984
 40
6.702782197890257
 40
6.702782197890257
 40
6.702782197890257
 40
7.055560208305537
 40
7.055560208305537
 40
7.055560208305537
 40
7.408338218720808
 40
7.408338218720808
 40
7.408338218720808
 40
7.76111622913609
 40
7.76111622913609
 40
7.76111622913609
 40
8.113894239551369
 40
8.113894239551369
 40
8.113894239551369
 40
8.466672249966642
 40
8.466672249966642
 40
8.466672249966642
 40
8.819450260381922
 40
8.819450260381922
 40
8.819450260381922
 40
9.172228270797198
 40
9.172228270797198
 40
9.172228270797198
 40
9.525006281212476
 40
9.525006281212476
 40
9.525006281212476
 40
9.877784291627751
 40
9.877784291627751
 40
9.877784291627751
 40
10.23056230204303
 40
10.23056230204303
 40
10.23056230204303
 40
10.58334031245831
 40
10.58334031245831
 40
10.58334031245831
 40
10.93611832287358
 40
10.93611832287358
 40
10.93611832287358
 40
11.28889633328886
 40
11.28889633328886
 40
11.28889633328886
 40
11.64167434370414
 40
11.64167434370414
 40
11.64167434370414
 40
11.99445235411941
 40
11.99445235411941
 40
11.99445235411941
 40
12.34723036453469
 40
12.34723036453469
 40
12.34723036453469
 40
12.70000837494997
 40
12.70000837494997
 40
12.70000837494997
 40
13.05278638536524
 40
13.05278638536524
 40
13.05278638536524
 40
13.40556439578052
 40
13.40556439578052
 40
13.40556439578052
 40
13.7583424061958
 40
13.7583424061958
 40
13.7583424061958
 40
14.11112041661107
 40
14.11112041661107
 40
14.11112041661107
 40
14.46389842702635
 40
14.46389842702635
 40
14.46389842702635
 40
14.81667643744163
 40
14.81667643744163
 40
14.81667643744163
 40
14.81667643744163
 10
173.3972823146245
 20
126.8274843518258
 10
173.3972823146245
 20
126.8274843518258
 10
173.3972823146245
 20
126.7217198506564
 10
173.3972823146245
 20
126.7217198506564
 10
173.3972823146245
 20
126.7217198506564
 10
173.4186419207238
 20
126.7217198506564
 10
173.4186419207238
 20
126.7217198506564
 10
173.4186419207238
 20
126.7217198506564
 10
173.4820317194703
 20
126.7007047543328
 10
173.4820317194703
 20
126.7007047543328
 10
173.4820317194703
 20
126.7007047543328
 10
173.5244064218933
 20
126.6793451482334
 10
173.5244064218933
 20
126.6793451482334
 10
173.5244064218933
 20
126.6793451482334
 10
173.5877962206398
 20
126.6793451482334
 10
173.5877962206398
 20
126.6793451482334
 10
173.5877962206398
 20
126.6793451482334
 10
173.6301709230627
 20
126.6583300519099
 10
173.6301709230627
 20
126.6583300519099
 10
173.7955356154449
 20
126.5911506456296
 10
173.759706598762
 20
126.6380039751379
 10
173.9478089363468
 20
126.5525655507404
 10
173.9478089363468
 20
126.5525655507404
 10
173.9688240326703
 20
126.4464565397952
 10
173.9688240326703
 20
126.4464565397952
 10
173.9688240326703
 20
126.4464565397952
 10
174.0325583411926
 20
126.5101908483175
 10
174.0325583411926
 20
126.5101908483175
 10
174.0325583411926
 20
126.5101908483175
 10
174.0749330436156
 20
126.5101908483175
 10
174.0749330436156
 20
126.5101908483175
 10
174.0749330436156
 20
126.5101908483175
 10
174.1593379386856
 20
126.4678161458946
 10
174.1593379386856
 20
126.4678161458946
 10
174.1593379386856
 20
126.4678161458946
 10
174.180697544785
 20
126.4464565397952
 10
174.180697544785
 20
126.4464565397952
 10
174.2464989119621
 20
126.3982251711837
 10
174.3298702777047
 20
126.3716979184474
 10
174.3922265471239
 20
126.3196769423022
 10
174.608234176548
 20
126.2059887162895
 10
174.7749769080334
 20
126.0278771622029
 10
174.9637682651697
 20
125.8749148217494
 10
174.9637682651697
 20
125.8749148217494
 10
175.0061429675926
 20
125.9172895241723
 10
175.0061429675926
 20
125.9172895241723
 10
174.961356696739
 20
125.9631093243532
 10
174.782211613325
 20
126.1246844092016
 10
174.7308796567315
 20
126.1501781326105
 10
174.7308796567315
 20
126.1501781326105
 10
174.6885049543085
 20
126.1925528350335
 10
174.6885049543085
 20
126.1925528350335
 10
174.6885049543085
 20
126.1925528350335
 10
174.667489857985
 20
126.2349275374564
 10
174.667489857985
 20
126.2349275374564
 10
174.667489857985
 20
126.2349275374564
 10
174.625115155562
 20
126.2559426337799
 10
174.625115155562
 20
126.2559426337799
 10
174.625115155562
 20
126.2559426337799
 10
174.5827404531391
 20
126.2983173362029
 10
174.5827404531391
 20
126.2983173362029
 10
174.5827404531391
 20
126.2983173362029
 10
174.5403657507162
 20
126.3196769423022
 10
174.5403657507162
 20
126.3196769423022
 10
174.5403657507162
 20
126.3196769423022
 10
174.4979910482932
 20
126.3620516447252
 10
174.4979910482932
 20
126.3620516447252
 10
174.4735308542117
 20
126.3875453681341
 10
174.3247026310678
 20
126.4695386947736
 10
174.2864620459544
 20
126.4888312422181
 10
174.2864620459544
 20
126.4888312422181
 10
174.2654469496308
 20
126.5101908483175
 10
174.2654469496308
 20
126.5101908483175
 10
174.2654469496308
 20
126.5101908483175
 10
174.2230722472079
 20
126.5312059446411
 10
174.2230722472079
 20
126.5312059446411
 10
174.2230722472079
 20
126.5312059446411
 10
174.2017126411085
 20
126.5525655507404
 10
174.2017126411085
 20
126.5525655507404
 10
174.2017126411085
 20
126.5525655507404
 10
174.1383228423621
 20
126.573580647064
 10
174.1383228423621
 20
126.573580647064
 10
174.1383228423621
 20
126.573580647064
 10
174.1169632362627
 20
126.5945957433876
 10
174.1169632362627
 20
126.5945957433876
 10
174.1169632362627
 20
126.5945957433876
 10
174.0959481399391
 20
126.7007047543328
 10
174.0959481399391
 20
126.7007047543328
 10
174.0959481399391
 20
126.7007047543328
 10
174.0325583411926
 20
126.6369704458105
 10
174.0325583411926
 20
126.6369704458105
 10
174.0325583411926
 20
126.6369704458105
 10
173.9901836387697
 20
126.6369704458105
 10
173.9901836387697
 20
126.6369704458105
 10
173.9901836387697
 20
126.6369704458105
 10
173.9054342339239
 20
126.6793451482334
 10
173.9054342339239
 20
126.6793451482334
 10
173.9054342339239
 20
126.6793451482334
 10
173.8420444351773
 20
126.7007047543328
 10
173.8420444351773
 20
126.7007047543328
 10
173.8420444351773
 20
126.7007047543328
 10
173.7996697327544
 20
126.7217198506564
 10
173.7996697327544
 20
126.7217198506564
 10
173.7996697327544
 20
126.7217198506564
 10
173.7572950303315
 20
126.7217198506564
 10
173.7572950303315
 20
126.7217198506564
 10
173.7572950303315
 20
126.7217198506564
 10
173.6725456254856
 20
126.7640945530793
 10
173.6725456254856
 20
126.7640945530793
 10
173.6725456254856
 20
126.7640945530793
 10
173.6515305291621
 20
126.7640945530793
 10
173.6515305291621
 20
126.7640945530793
 10
173.6515305291621
 20
126.7640945530793
 10
173.5667811243162
 20
126.7851096494029
 10
173.5667811243162
 20
126.7851096494029
 10
173.5667811243162
 20
126.7851096494029
 10
173.5033913255697
 20
126.8064692555022
 10
173.5033913255697
 20
126.8064692555022
 10
173.5033913255697
 20
126.8064692555022
 10
173.4396570170474
 20
126.8064692555022
 10
173.4396570170474
 20
126.8064692555022
 10
173.4396570170474
 20
126.8064692555022
 10
173.4186419207238
 20
126.8274843518258
 10
173.4186419207238
 20
126.8274843518258
 10
173.4186419207238
 20
126.8274843518258
 10
173.3972823146245
 20
126.8274843518258
 10
173.3972823146245
 20
126.8274843518258
 72
     1
 10
173.3972823146245
 20
126.8274843518258
 11
173.3972823146245
 21
126.8274843518258
 97
        0
 75
     0
 76
     1
 98
        0
450
        0
451
        0
460
0.0
461
0.0
452
        0
462
0.0
453
        0
470

  0
HATCH
  5
4842
330
1F
100
AcDbEntity
  8
图层 1
 62
     7
100
AcDbHatch
 10
0.0
 20
0.0
 30
0.0
210
0.0
220
0.0
230
1.0
  2
SOLID
 70
     1
 71
     0
 91
        1
 92
        1
 93
        2
 72
     4
 94
        3
 73
     0
 74
     0
 95
       47
 96
       43
 40
0.0
 40
0.0
 40
0.0
 40
0.0
 40
0.3527780104152769
 40
0.3527780104152769
 40
0.3527780104152769
 40
0.7055560208305538
 40
0.7055560208305538
 40
0.7055560208305538
 40
1.058334031245828
 40
1.058334031245828
 40
1.058334031245828
 40
1.411112041661104
 40
1.411112041661104
 40
1.411112041661104
 40
1.763890052076384
 40
1.763890052076384
 40
1.763890052076384
 40
2.116668062491659
 40
2.116668062491659
 40
2.116668062491659
 40
2.469446072906936
 40
2.469446072906936
 40
2.469446072906936
 40
2.822224083322215
 40
2.822224083322215
 40
2.822224083322215
 40
3.175002093737492
 40
3.175002093737492
 40
3.175002093737492
 40
3.527780104152768
 40
3.527780104152768
 40
3.527780104152768
 40
3.880558114568044
 40
3.880558114568044
 40
3.880558114568044
 40
4.233336124983321
 40
4.233336124983321
 40
4.233336124983321
 40
4.586114135398599
 40
4.586114135398599
 40
4.586114135398599
 40
4.938892145813873
 40
4.938892145813873
 40
4.938892145813873
 40
4.938892145813873
 10
180.1920486226523
 20
255.6479577566324
 10
180.1920486226523
 20
255.6479577566324
 10
180.2130637189759
 20
255.6055830542095
 10
180.2130637189759
 20
255.6055830542095
 10
180.2130637189759
 20
255.6055830542095
 10
180.2130637189759
 20
255.5210059042515
 10
180.2130637189759
 20
255.5210059042515
 10
180.2130637189759
 20
255.5210059042515
 10
180.1920486226523
 20
255.4786312018286
 10
180.1920486226523
 20
255.4786312018286
 10
180.1920486226523
 20
255.4786312018286
 10
180.1496739202294
 20
255.4359119896299
 10
180.1496739202294
 20
255.4359119896299
 10
180.1496739202294
 20
255.4359119896299
 10
180.1283143141301
 20
255.4147246384184
 10
180.1283143141301
 20
255.4147246384184
 10
180.1283143141301
 20
255.4147246384184
 10
180.0225498129606
 20
255.4147246384184
 10
180.0225498129606
 20
255.4147246384184
 10
180.0225498129606
 20
255.4147246384184
 10
179.9591600142141
 20
255.4359119896299
 10
179.9591600142141
 20
255.4359119896299
 10
179.9591600142141
 20
255.4359119896299
 10
179.9167853117912
 20
255.4570993408414
 10
179.9167853117912
 20
255.4570993408414
 10
179.9167853117912
 20
255.4570993408414
 10
179.8957702154676
 20
255.4786312018286
 10
179.8957702154676
 20
255.4786312018286
 10
179.8957702154676
 20
255.4786312018286
 10
179.8744106093683
 20
255.4994740432643
 10
179.8744106093683
 20
255.4994740432643
 10
179.8744106093683
 20
255.4994740432643
 10
179.8744106093683
 20
255.6479577566324
 10
179.8744106093683
 20
255.6479577566324
 10
179.9608825630931
 20
255.7323626517025
 10
180.045631967939
 20
255.7085914771726
 10
180.1496739202294
 20
255.7115198102668
 10
180.1496739202294
 20
255.7115198102668
 10
180.170689016553
 20
255.6688005980681
 10
180.170689016553
 20
255.6688005980681
 10
180.170689016553
 20
255.6688005980681
 10
180.1920486226523
 20
255.6479577566324
 10
180.1920486226523
 20
255.6479577566324
 72
     1
 10
180.1920486226523
 20
255.6479577566324
 11
180.1920486226523
 21
255.6479577566324
 97
        0
 75
     0
 76
     1
 98
        0
450
        0
451
        0
460
0.0
461
0.0
452
        0
462
0.0
453
        0
470

  0
MTEXT
  5
65A0
330
1F
100
AcDbEntity
  8
图框
 62
     3
100
AcDbMText
 10
609.4061384351182
 20
239.9029646063366
 30
0.0
 40
1.9903423833561
 41
22.40826132828091
 71
     5
 72
     5
  1
HASC-004-MC
  7
Romans字体
 73
     1
 44
1.0
1001
ACAD
1000
ACAD_MTEXT_DEFINED_HEIGHT_BEGIN
1070
    46
1040
5.791163670457244
1000
ACAD_MTEXT_DEFINED_HEIGHT_END
  0
MTEXT
  5
65A1
330
1F
100
AcDbEntity
  8
图框
 62
     3
100
AcDbMText
 10
609.4061384351182
 20
234.0499975884526
 30
0.0
 40
1.9903423833561
 41
22.40826132828091
 71
     5
 72
     5
  1
1210040100001
  7
Romans字体
 73
     1
 44
1.0
1001
ACAD
1000
ACAD_MTEXT_DEFINED_HEIGHT_BEGIN
1070
    46
1040
5.914770365310737
1000
ACAD_MTEXT_DEFINED_HEIGHT_END
  0
MTEXT
  5
65A3
330
1F
100
AcDbEntity
  8
图框
 62
     3
100
AcDbMText
 10
564.0370284813949
 20
225.1782408692893
 30
0.0
 40
1.9903423833561
 41
7.219565622926979
 71
     5
 72
     5
  1
3:2 
  7
Romans字体
 73
     1
 44
1.0
1001
ACAD
1000
ACAD_MTEXT_DEFINED_HEIGHT_BEGIN
1070
    46
1040
5.257396400806997
1000
ACAD_MTEXT_DEFINED_HEIGHT_END
  0
MTEXT
  5
65A4
330
1F
100
AcDbEntity
  8
图框
 62
     3
100
AcDbMText
 10
571.2565941043221
 20
225.1782408692893
 30
0.0
 40
1.9903423833561
 41
7.219565622927506
 71
     5
 72
     5
  1
V1.0 
  7
Romans字体
 73
     1
 44
1.0
1001
ACAD
1000
ACAD_MTEXT_DEFINED_HEIGHT_BEGIN
1070
    46
1040
5.257396400806972
1000
ACAD_MTEXT_DEFINED_HEIGHT_END
  0
MTEXT
  5
65B2
330
1F
100
AcDbEntity
  8
图框
 62
     3
100
AcDbMText
 10
578.4761597272501
 20
225.1782408692893
 30
0.0
 40
1.9903423833561
 41
7.219565622928112
 71
     5
 72
     5
  1
5.8g 
  7
Romans字体
 73
     1
 44
1.0
1001
ACAD
1000
ACAD_MTEXT_DEFINED_HEIGHT_BEGIN
1070
    46
1040
5.257396400806934
1000
ACAD_MTEXT_DEFINED_HEIGHT_END
  0
INSERT
  5
15E4A
330
1F
100
AcDbEntity
  8
0
100
AcDbBlockReference
  2
GFFHGF
 10
-188.123799543204
 20
91.92464551671141
 30
0.0
 41
0.6666666666666572
 42
0.6666666666666714
 43
0.6666666666666666
  0
MTEXT
  5
16019
102
{ACAD_XDICTIONARY
360
1A005
102
}
330
1F
100
AcDbEntity
  8
打标文字
 62
     3
100
AcDbMText
 10
565.9842163047583
 20
325.650268110855
 30
0.0
 40
1.912985285738284
 41
55.18345123699972
 71
     1
 72
     5
  3
\A1;技术参数:\P- 类型：SC光纤\P- 插针数: {\Fromans|c134;4}\P- 材料：聚碳酸酯\P- 颜色：{\Fromans|c134;RAL 7032}（浅灰色）\P- 温度范围：{\Fromans|c134;-40}℃{\Fromans|c134; - +85}℃{\Fromans|c134;\P}- 依据UL 94的阻燃等级：{\Fromans|c134;V0}\P- 可插拔次数：≥{\Fromans|c134;500\P}- 插入损耗：＜{\Fromans|c134
  1
;0.5dB}
 73
     1
 44
1.0
1001
ACAD
1000
ACAD_MTEXT_DEFINED_HEIGHT_BEGIN
1070
    46
1040
8.294818561909686
1000
ACAD_MTEXT_DEFINED_HEIGHT_END
  0
MTEXT
  5
1601A
102
{ACAD_XDICTIONARY
360
1A007
102
}
330
1F
100
AcDbEntity
  8
打标文字
 62
     3
100
AcDbMText
 10
565.9842163047583
 20
287.9171387109687
 30
0.0
 40
1.912985285738284
 41
67.09538717665188
 71
     1
 72
     5
  3
\A1;Technical specification:\P- Type: SC fiber\P- No. of contact: 4\P- Material: polycarbonate\P- Colour: RAL 7032(light grey) \P- Temperature range: -40{\fArial|b0|i0|c0|p34;\U+2103} - +85{\fArial|b0|i0|c0|p34;\U+2103}\P- Flammability acc.to UL 94: 
  1
V0\P- Mating cycles: {\fFangSong_GB2312|b0|i0|c134|p49;≥}500\P- Insertion loss:{\fFangSong_GB2312|b0|i0|c134|p49;＜}0.5dB
  7
Romans字体
 73
     1
 44
1.0
1001
ACAD
1000
ACAD_MTEXT_DEFINED_HEIGHT_BEGIN
1070
    46
1040
8.294818561909686
1000
ACAD_MTEXT_DEFINED_HEIGHT_END
  0
LINE
  5
195E7
330
1F
100
AcDbEntity
  8
Hat
  6
CENTER
 62
     1
 48
8.0
370
     0
100
AcDbLine
 10
510.0638668723599
 20
309.7059487283126
 30
0.0
 11
547.1584828539538
 21
309.7059487283126
 31
0.0
  0
LINE
  5
195E8
102
{ACAD_REACTORS
330
19716
102
}
330
1F
100
AcDbEntity
  8
0
  6
Continuous
 62
     7
370
    15
100
AcDbLine
 10
544.962672464136
 20
309.030304833613
 30
0.0
 11
544.962672464136
 21
310.3815931976126
 31
0.0
  0
LINE
  5
195E9
330
1F
100
AcDbEntity
  8
0
  6
Continuous
 62
     7
370
    15
100
AcDbLine
 10
544.6642432533357
 20
308.7303089459131
 30
0.0
 11
544.6642432533357
 21
310.6815890853125
 31
0.0
  0
LINE
  5
195EA
330
1F
100
AcDbEntity
  8
0
  6
Continuous
 62
     7
370
    15
100
AcDbLine
 10
536.3626724641356
 20
299.2059490156128
 30
0.0
 11
536.3626724641356
 21
320.2059490156128
 31
0.0
  0
LINE
  5
195EB
330
1F
100
AcDbEntity
  8
0
  6
Continuous
 62
     7
370
    15
100
AcDbLine
 10
536.0921486016353
 20
320.0084435114125
 30
0.0
 11
536.0921486016353
 21
311.7354251531127
 31
0.0
  0
LINE
  5
195EC
330
1F
100
AcDbEntity
  8
0
  6
Continuous
 62
     7
370
    15
100
AcDbLine
 10
536.0921486016353
 20
307.676472878113
 30
0.0
 11
536.0921486016353
 21
299.4034545198131
 31
0.0
  0
LINE
  5
195ED
330
1F
100
AcDbEntity
  8
0
  6
Continuous
 62
     7
370
    15
100
AcDbLine
 10
544.6642432533357
 20
308.7303089459131
 30
0.0
 11
544.962672464136
 21
309.030304833613
 31
0.0
  0
LINE
  5
195EE
330
1F
100
AcDbEntity
  8
0
  6
Continuous
 62
     7
370
    15
100
AcDbLine
 10
531.6011573258359
 20
299.2059490156128
 30
0.0
 11
531.601126302436
 21
299.2118740081126
 31
0.0
  0
LINE
  5
195EF
330
1F
100
AcDbEntity
  8
0
  6
Continuous
 62
     7
370
    15
100
AcDbLine
 10
530.6626724641358
 20
315.9559490156128
 30
0.0
 11
530.6626724641358
 21
313.4559490156128
 31
0.0
  0
LINE
  5
195F0
330
1F
100
AcDbEntity
  8
0
  6
Continuous
 62
     7
370
    15
100
AcDbLine
 10
530.6626724641358
 20
305.9209490156129
 30
0.0
 11
530.6626724641358
 21
303.4509490156127
 31
0.0
  0
LINE
  5
195F1
330
1F
100
AcDbEntity
  8
0
  6
Continuous
 62
     7
370
    15
100
AcDbLine
 10
531.601126302436
 20
320.2000240232131
 30
0.0
 11
531.6011573258359
 21
320.2059490156128
 31
0.0
  0
LINE
  5
195F2
330
1F
100
AcDbEntity
  8
0
  6
Continuous
 62
     7
370
    15
100
AcDbLine
 10
530.4242186259356
 20
320.2000240232131
 30
0.0
 11
530.4241876024356
 21
320.2059490156128
 31
0.0
  0
LINE
  5
195F3
330
1F
100
AcDbEntity
  8
0
  6
Continuous
 62
     7
370
    15
100
AcDbLine
 10
530.462672464136
 20
299.4148924684126
 30
0.0
 11
530.462672464136
 21
319.997005562813
 31
0.0
  0
LINE
  5
195F4
330
1F
100
AcDbEntity
  8
0
  6
Continuous
 62
     7
370
    15
100
AcDbLine
 10
528.3636343584361
 20
299.2059490156128
 30
0.0
 11
528.3636343584361
 21
299.2209867043133
 31
0.0
  0
LINE
  5
195F5
330
1F
100
AcDbEntity
  8
0
  6
Continuous
 62
     7
370
    15
100
AcDbLine
 10
528.3636343584361
 20
299.9559490156128
 30
0.0
 11
528.3636343584361
 21
300.6559490156127
 31
0.0
  0
LINE
  5
195F6
330
1F
100
AcDbEntity
  8
0
  6
Continuous
 62
     7
370
    15
100
AcDbLine
 10
528.3636343584361
 20
318.755949015613
 30
0.0
 11
528.3636343584361
 21
319.4559490156128
 31
0.0
  0
LINE
  5
195F7
330
1F
100
AcDbEntity
  8
0
  6
Continuous
 62
     7
370
    15
100
AcDbLine
 10
528.3636343584361
 20
320.1909113269124
 30
0.0
 11
528.3636343584361
 21
320.2059490156128
 31
0.0
  0
LINE
  5
195F8
330
1F
100
AcDbEntity
  8
0
  6
Continuous
 62
     7
370
    15
100
AcDbLine
 10
528.3575783617355
 20
319.4559500882127
 30
0.0
 11
528.3575562481359
 21
318.7553093281124
 31
0.0
  0
LINE
  5
195F9
330
1F
100
AcDbEntity
  8
0
  6
Continuous
 62
     7
370
    15
100
AcDbLine
 10
528.3575783617355
 20
299.955947943013
 30
0.0
 11
528.3575562481359
 21
300.6565887031132
 31
0.0
  0
LINE
  5
195FA
330
1F
100
AcDbEntity
  8
0
  6
Continuous
 62
     7
370
    15
100
AcDbLine
 10
530.4241876024356
 20
299.2059490156128
 30
0.0
 11
530.4242186259356
 21
299.2118740081126
 31
0.0
  0
LINE
  5
195FB
330
1F
100
AcDbEntity
  8
0
  6
Continuous
 62
     7
370
    15
100
AcDbLine
 10
525.7626724641353
 20
299.2118740081126
 30
0.0
 11
525.7626724641353
 21
299.2209867043133
 31
0.0
  0
LINE
  5
195FC
330
1F
100
AcDbEntity
  8
0
  6
Continuous
 62
     7
370
    15
100
AcDbLine
 10
525.7626724641353
 20
305.0305580958132
 30
0.0
 11
525.7626724641353
 21
306.7059487283125
 31
0.0
  0
LINE
  5
195FD
330
1F
100
AcDbEntity
  8
0
  6
Continuous
 62
     7
370
    15
100
AcDbLine
 10
525.7626724641353
 20
312.7059487283125
 30
0.0
 11
525.7626724641353
 21
314.3813393609128
 31
0.0
  0
LINE
  5
195FE
330
1F
100
AcDbEntity
  8
0
  6
Continuous
 62
     7
370
    15
100
AcDbLine
 10
525.7626724641353
 20
320.1909113269124
 30
0.0
 11
525.7626724641353
 21
320.2000240232131
 31
0.0
  0
LINE
  5
195FF
330
1F
100
AcDbEntity
  8
0
  6
Continuous
 62
     7
370
    15
100
AcDbLine
 10
520.2626724641353
 20
299.2059490156128
 30
0.0
 11
522.2636324641356
 21
299.2059490156128
 31
0.0
  0
LINE
  5
19600
102
{ACAD_REACTORS
330
19719
102
}
330
1F
100
AcDbEntity
  8
0
  6
Continuous
 62
     7
370
    15
100
AcDbLine
 10
536.3626724641356
 20
299.2059490156128
 30
0.0
 11
528.3636343584361
 21
299.2059490156128
 31
0.0
  0
LINE
  5
19601
330
1F
100
AcDbEntity
  8
0
  6
Continuous
 62
     7
370
    15
100
AcDbLine
 10
531.601126302436
 20
299.2118740081126
 30
0.0
 11
530.4242186259356
 21
299.2118740081126
 31
0.0
  0
LINE
  5
19602
330
1F
100
AcDbEntity
  8
0
  6
Continuous
 62
     7
370
    15
100
AcDbLine
 10
525.7626724641353
 20
299.2118740081126
 30
0.0
 11
520.7636324641356
 21
299.2118740081126
 31
0.0
  0
LINE
  5
19603
330
1F
100
AcDbEntity
  8
0
  6
Continuous
 62
     7
370
    15
100
AcDbLine
 10
528.4404466061354
 20
299.2209867043133
 30
0.0
 11
525.7626724641353
 21
299.2209867043133
 31
0.0
  0
LINE
  5
19604
330
1F
100
AcDbEntity
  8
0
  6
Continuous
 62
     7
370
    15
100
AcDbLine
 10
528.3915624623354
 20
299.5526491833128
 30
0.0
 11
522.2357043602354
 21
299.5526491833128
 31
0.0
  0
LINE
  5
19605
330
1F
100
AcDbEntity
  8
0
  6
Continuous
 62
     7
370
    15
100
AcDbLine
 10
520.7636324641356
 20
299.9059490156126
 30
0.0
 11
511.962672464136
 21
299.9059490156126
 31
0.0
  0
LINE
  5
19606
330
1F
100
AcDbEntity
  8
0
  6
Continuous
 62
     7
370
    15
100
AcDbLine
 10
528.3816306788361
 20
299.9559490156128
 30
0.0
 11
522.2456360130357
 21
299.9559490156128
 31
0.0
  0
LINE
  5
19607
330
1F
100
AcDbEntity
  8
0
  6
Continuous
 62
     7
370
    15
100
AcDbLine
 10
528.3711651733359
 20
300.6559490156127
 30
0.0
 11
522.2561016493358
 21
300.6559490156127
 31
0.0
  0
LINE
  5
19608
330
1F
100
AcDbEntity
  8
0
  6
Continuous
 62
     7
370
    15
100
AcDbLine
 10
522.2705393574354
 20
300.6559490156127
 30
0.0
 11
522.2705201661359
 21
299.9559480611127
 31
0.0
  0
LINE
  5
19609
330
1F
100
AcDbEntity
  8
0
  6
Continuous
 62
     7
370
    15
100
AcDbLine
 10
522.2705393574354
 20
318.755949015613
 30
0.0
 11
522.2705201661359
 21
319.455949970113
 31
0.0
  0
LINE
  5
1960A
330
1F
100
AcDbEntity
  8
0
  6
Continuous
 62
     7
370
    15
100
AcDbLine
 10
522.2636324641356
 20
300.6559490156127
 30
0.0
 11
522.2636324641356
 21
299.9559490156128
 31
0.0
  0
LINE
  5
1960B
330
1F
100
AcDbEntity
  8
0
  6
Continuous
 62
     7
370
    15
100
AcDbLine
 10
522.2636324641356
 20
299.2118740081126
 30
0.0
 11
522.2636324641356
 21
299.2059490156128
 31
0.0
  0
LINE
  5
1960C
330
1F
100
AcDbEntity
  8
0
  6
Continuous
 62
     7
370
    15
100
AcDbLine
 10
522.2636324641356
 20
318.755949015613
 30
0.0
 11
522.2636324641356
 21
319.4559490156128
 31
0.0
  0
LINE
  5
1960D
330
1F
100
AcDbEntity
  8
0
  6
Continuous
 62
     7
370
    15
100
AcDbLine
 10
522.2636324641356
 20
320.2000240232131
 30
0.0
 11
522.2636324641356
 21
320.2059490156128
 31
0.0
  0
LINE
  5
1960E
330
1F
100
AcDbEntity
  8
0
  6
Continuous
 62
     7
370
    15
100
AcDbLine
 10
520.7636324641356
 20
301.9059490156126
 30
0.0
 11
511.962672464136
 21
301.9059490156126
 31
0.0
  0
LINE
  5
1960F
330
1F
100
AcDbEntity
  8
0
  6
Continuous
 62
     7
370
    15
100
AcDbLine
 10
520.7636324641356
 20
299.2118740081126
 30
0.0
 11
520.7636324641356
 21
305.7059487284126
 31
0.0
  0
LINE
  5
19610
330
1F
100
AcDbEntity
  8
0
  6
Continuous
 62
     7
370
    15
100
AcDbLine
 10
520.7636324641356
 20
313.7059487283125
 30
0.0
 11
520.7636324641356
 21
320.2000240232131
 31
0.0
  0
LINE
  5
19611
330
1F
100
AcDbEntity
  8
0
  6
Continuous
 62
     7
370
    15
100
AcDbLine
 10
520.2626724641353
 20
320.2059490156128
 30
0.0
 11
520.2626724641353
 21
319.505949015613
 31
0.0
  0
LINE
  5
19612
330
1F
100
AcDbEntity
  8
0
  6
Continuous
 62
     7
370
    15
100
AcDbLine
 10
520.2626724641353
 20
299.2059490156128
 30
0.0
 11
520.2626724641353
 21
299.9059490156126
 31
0.0
  0
LINE
  5
19613
330
1F
100
AcDbEntity
  8
0
  6
Continuous
 62
     7
370
    15
100
AcDbLine
 10
530.462672464136
 20
303.4509490156127
 30
0.0
 11
530.6626724641358
 21
303.4509490156127
 31
0.0
  0
LINE
  5
19614
330
1F
100
AcDbEntity
  8
0
  6
Continuous
 62
     7
370
    15
100
AcDbLine
 10
530.462672464136
 20
305.1326510900129
 30
0.0
 11
530.6626724641358
 21
305.1326510900129
 31
0.0
  0
LINE
  5
19615
330
1F
100
AcDbEntity
  8
0
  6
Continuous
 62
     7
370
    15
100
AcDbLine
 10
525.7626724641353
 20
305.0305580958132
 30
0.0
 11
520.7636324641356
 21
305.0567332472131
 31
0.0
  0
LINE
  5
19616
330
1F
100
AcDbEntity
  8
0
  6
Continuous
 62
     7
370
    15
100
AcDbLine
 10
530.462672464136
 20
305.5530767190124
 30
0.0
 11
530.6626724641358
 21
305.5530767190124
 31
0.0
  0
LINE
  5
19617
330
1F
100
AcDbEntity
  8
0
  6
Continuous
 62
     7
370
    15
100
AcDbLine
 10
520.7636324641356
 20
305.7059487284126
 30
0.0
 11
511.962672464136
 21
305.7059487284126
 31
0.0
  0
LINE
  5
19618
330
1F
100
AcDbEntity
  8
0
  6
Continuous
 62
     7
370
    15
100
AcDbLine
 10
530.462672464136
 20
305.9209490156129
 30
0.0
 11
530.6626724641358
 21
305.9209490156129
 31
0.0
  0
LINE
  5
19619
330
1F
100
AcDbEntity
  8
0
  6
Continuous
 62
     7
370
    15
100
AcDbLine
 10
525.7626724641353
 20
306.7059487283125
 30
0.0
 11
511.962672464136
 21
306.7059487283125
 31
0.0
  0
LINE
  5
1961A
330
1F
100
AcDbEntity
  8
0
  6
Continuous
 62
     7
370
    15
100
AcDbLine
 10
536.3626724641356
 20
308.6868416257124
 30
0.0
 11
544.6642432533357
 21
308.7303089459131
 31
0.0
  0
LINE
  5
1961B
330
1F
100
AcDbEntity
  8
0
  6
Continuous
 62
     7
370
    15
100
AcDbLine
 10
530.462672464136
 20
307.7059490156128
 30
0.0
 11
536.3626724641356
 21
307.6750564055131
 31
0.0
  0
LINE
  5
1961C
330
1F
100
AcDbEntity
  8
0
  6
Continuous
 62
     7
370
    15
100
AcDbLine
 10
536.3626724641356
 20
311.7368416257126
 30
0.0
 11
530.462672464136
 21
311.7059490156128
 31
0.0
  0
LINE
  5
1961D
330
1F
100
AcDbEntity
  8
0
  6
Continuous
 62
     7
370
    15
100
AcDbLine
 10
536.3626724641356
 20
310.7250564055133
 30
0.0
 11
544.6642432533357
 21
310.6815890853125
 31
0.0
  0
LINE
  5
1961E
102
{ACAD_REACTORS
330
19719
102
}
330
1F
100
AcDbEntity
  8
0
  6
Continuous
 62
     7
370
    15
100
AcDbLine
 10
511.962672464136
 20
299.9059490156126
 30
0.0
 11
511.962672464136
 21
319.505949015613
 31
0.0
  0
LINE
  5
1961F
330
1F
100
AcDbEntity
  8
0
  6
Continuous
 62
     7
370
    15
100
AcDbLine
 10
525.7626724641353
 20
314.3813393609128
 30
0.0
 11
520.7636324641356
 21
314.3551642095129
 31
0.0
  0
LINE
  5
19620
330
1F
100
AcDbEntity
  8
0
  6
Continuous
 62
     7
370
    15
100
AcDbLine
 10
525.7626724641353
 20
312.7059487283125
 30
0.0
 11
511.962672464136
 21
312.7059487283125
 31
0.0
  0
LINE
  5
19621
330
1F
100
AcDbEntity
  8
0
  6
Continuous
 62
     7
370
    15
100
AcDbLine
 10
530.462672464136
 20
313.4559490156128
 30
0.0
 11
530.6626724641358
 21
313.4559490156128
 31
0.0
  0
LINE
  5
19622
330
1F
100
AcDbEntity
  8
0
  6
Continuous
 62
     7
370
    15
100
AcDbLine
 10
511.962672464136
 20
313.7059487283125
 30
0.0
 11
520.7636324641356
 21
313.7059487283125
 31
0.0
  0
LINE
  5
19623
330
1F
100
AcDbEntity
  8
0
  6
Continuous
 62
     7
370
    15
100
AcDbLine
 10
530.462672464136
 20
314.2006298524132
 30
0.0
 11
530.6626724641358
 21
314.2006298524132
 31
0.0
  0
LINE
  5
19624
330
1F
100
AcDbEntity
  8
0
  6
Continuous
 62
     7
370
    15
100
AcDbLine
 10
530.462672464136
 20
314.5197788250128
 30
0.0
 11
530.6626724641358
 21
314.5197788250128
 31
0.0
  0
LINE
  5
19625
330
1F
100
AcDbEntity
  8
0
  6
Continuous
 62
     7
370
    15
100
AcDbLine
 10
530.462672464136
 20
315.9559490156128
 30
0.0
 11
530.6626724641358
 21
315.9559490156128
 31
0.0
  0
LINE
  5
19626
330
1F
100
AcDbEntity
  8
0
  6
Continuous
 62
     7
370
    15
100
AcDbLine
 10
511.962672464136
 20
317.505949015613
 30
0.0
 11
520.7636324641356
 21
317.505949015613
 31
0.0
  0
LINE
  5
19627
330
1F
100
AcDbEntity
  8
0
  6
Continuous
 62
     7
370
    15
100
AcDbLine
 10
528.3711651733359
 20
318.755949015613
 30
0.0
 11
522.2561016493358
 21
318.755949015613
 31
0.0
  0
LINE
  5
19628
330
1F
100
AcDbEntity
  8
0
  6
Continuous
 62
     7
370
    15
100
AcDbLine
 10
528.3816306788361
 20
319.4559490156128
 30
0.0
 11
522.2456360130357
 21
319.4559490156128
 31
0.0
  0
LINE
  5
19629
102
{ACAD_REACTORS
330
19716
102
}
330
1F
100
AcDbEntity
  8
0
  6
Continuous
 62
     7
370
    15
100
AcDbLine
 10
511.962672464136
 20
319.505949015613
 30
0.0
 11
520.7636324641356
 21
319.505949015613
 31
0.0
  0
LINE
  5
1962A
330
1F
100
AcDbEntity
  8
0
  6
Continuous
 62
     7
370
    15
100
AcDbLine
 10
528.3915624623354
 20
319.8592488479129
 30
0.0
 11
522.2357043602354
 21
319.8592488479129
 31
0.0
  0
LINE
  5
1962B
330
1F
100
AcDbEntity
  8
0
  6
Continuous
 62
     7
370
    15
100
AcDbLine
 10
528.4404466061354
 20
320.1909113269124
 30
0.0
 11
525.7626724641353
 21
320.1909113269124
 31
0.0
  0
LINE
  5
1962C
330
1F
100
AcDbEntity
  8
0
  6
Continuous
 62
     7
370
    15
100
AcDbLine
 10
531.601126302436
 20
320.2000240232131
 30
0.0
 11
530.4242186259356
 21
320.2000240232131
 31
0.0
  0
LINE
  5
1962D
330
1F
100
AcDbEntity
  8
0
  6
Continuous
 62
     7
370
    15
100
AcDbLine
 10
525.7626724641353
 20
320.2000240232131
 30
0.0
 11
520.7636324641356
 21
320.2000240232131
 31
0.0
  0
LINE
  5
1962E
330
1F
100
AcDbEntity
  8
0
  6
Continuous
 62
     7
370
    15
100
AcDbLine
 10
520.2626724641353
 20
320.2059490156128
 30
0.0
 11
522.2636324641356
 21
320.2059490156128
 31
0.0
  0
LINE
  5
1962F
330
1F
100
AcDbEntity
  8
0
  6
Continuous
 62
     7
370
    15
100
AcDbLine
 10
536.3626724641356
 20
320.2059490156128
 30
0.0
 11
528.3636343584361
 21
320.2059490156128
 31
0.0
  0
LINE
  5
19630
330
1F
100
AcDbEntity
  8
0
  6
Continuous
 62
     7
370
    15
100
AcDbLine
 10
544.6642432533357
 20
310.6815890853125
 30
0.0
 11
544.962672464136
 21
310.3815931976126
 31
0.0
  0
LINE
  5
19631
330
1F
100
AcDbEntity
  8
0
  6
Continuous
 62
     7
370
    15
100
AcDbLine
 10
487.5456803191472
 20
315.3708427024124
 30
0.0
 11
487.5040135729467
 21
315.5836086345128
 31
0.0
  0
LINE
  5
19632
330
1F
100
AcDbEntity
  8
0
  6
Continuous
 62
     7
370
    15
100
AcDbLine
 10
487.5873469460474
 20
314.2538213354131
 30
0.0
 11
487.5456803191472
 21
314.4665873420129
 31
0.0
  0
LINE
  5
19633
330
1F
100
AcDbEntity
  8
0
  6
Continuous
 62
     7
370
    15
100
AcDbLine
 10
487.5456802237466
 20
305.0316936552129
 30
0.0
 11
487.5873468506468
 21
305.2444595873124
 31
0.0
  0
LINE
  5
19634
330
1F
100
AcDbEntity
  8
0
  6
Continuous
 62
     7
370
    15
100
AcDbLine
 10
487.3373468506469
 20
305.2444595873124
 30
0.0
 11
487.2540134776471
 21
305.0316936552129
 31
0.0
  0
LINE
  5
19635
330
1F
100
AcDbEntity
  8
0
  6
Continuous
 62
     7
370
    15
100
AcDbLine
 10
487.4623468506468
 20
304.8721192062124
 30
0.0
 11
487.5456802237466
 21
305.0316936552129
 31
0.0
  0
LINE
  5
19636
330
1F
100
AcDbEntity
  8
0
  6
Continuous
 62
     7
370
    15
100
AcDbLine
 10
486.420680193947
 20
303.7019064680129
 30
0.0
 11
487.4623468506468
 21
304.8721192062124
 31
0.0
  0
LINE
  5
19637
330
1F
100
AcDbEntity
  8
0
  6
Continuous
 62
     7
370
    15
100
AcDbLine
 10
469.7673469460467
 20
299.2059490156128
 30
0.0
 11
470.1788620843471
 21
299.2059490156128
 31
0.0
  0
LINE
  5
19638
330
1F
100
AcDbEntity
  8
0
  6
Continuous
 62
     7
370
    15
100
AcDbLine
 10
475.9558318077469
 20
299.2059490156128
 30
0.0
 11
478.5788620843467
 21
299.2059490156128
 31
0.0
  0
LINE
  5
19639
330
1F
100
AcDbEntity
  8
0
  6
Continuous
 62
     7
370
    15
100
AcDbLine
 10
484.7673469460468
 20
299.2059490156128
 30
0.0
 11
484.3558318077474
 21
299.2059490156128
 31
0.0
  0
LINE
  5
1963A
330
1F
100
AcDbEntity
  8
0
  6
Continuous
 62
     7
370
    15
100
AcDbLine
 10
486.0873469460474
 20
314.0410554033127
 30
0.0
 11
486.1290136139468
 21
313.8814809170129
 31
0.0
  0
LINE
  5
1963B
330
1F
100
AcDbEntity
  8
0
  6
Continuous
 62
     7
370
    15
100
AcDbLine
 10
487.7673469460468
 20
302.2059490156128
 30
0.0
 11
487.7673469460468
 21
317.2059490156128
 31
0.0
  0
LINE
  5
1963C
330
1F
100
AcDbEntity
  8
0
  6
Continuous
 62
     7
370
    15
100
AcDbLine
 10
487.5873468506468
 20
303.4359490156124
 30
0.0
 11
487.5873468506468
 21
303.7019064680129
 31
0.0
  0
LINE
  5
1963D
330
1F
100
AcDbEntity
  8
0
  6
Continuous
 62
     7
370
    15
100
AcDbLine
 10
487.5873468506468
 20
305.2444595873124
 30
0.0
 11
487.5873468506468
 21
305.3508427024129
 31
0.0
  0
LINE
  5
1963E
330
1F
100
AcDbEntity
  8
0
  6
Continuous
 62
     7
370
    15
100
AcDbLine
 10
487.5873469460474
 20
314.0410554033127
 30
0.0
 11
487.5873469460474
 21
314.2538213354131
 31
0.0
  0
LINE
  5
1963F
330
1F
100
AcDbEntity
  8
0
  6
Continuous
 62
     7
370
    15
100
AcDbLine
 10
487.5456803191472
 20
315.2644595873129
 30
0.0
 11
487.5456803191472
 21
315.3708427024124
 31
0.0
  0
LINE
  5
19640
330
1F
100
AcDbEntity
  8
0
  6
Continuous
 62
     7
370
    15
100
AcDbLine
 10
487.3790135729467
 20
314.2538213354131
 30
0.0
 11
487.3790135729467
 21
314.0410554033127
 31
0.0
  0
LINE
  5
19641
330
1F
100
AcDbEntity
  8
0
  6
Continuous
 62
     7
370
    15
100
AcDbLine
 10
487.3373469460474
 20
315.3708427024124
 30
0.0
 11
487.3373469460474
 21
315.2644595873129
 31
0.0
  0
LINE
  5
19642
330
1F
100
AcDbEntity
  8
0
  6
Continuous
 62
     7
370
    15
100
AcDbLine
 10
487.3373468506469
 20
305.3508427024129
 30
0.0
 11
487.3373468506469
 21
305.2444595873124
 31
0.0
  0
LINE
  5
19643
330
1F
100
AcDbEntity
  8
0
  6
Continuous
 62
     7
370
    15
100
AcDbLine
 10
486.3373468506469
 20
305.3508427024129
 30
0.0
 11
486.420680193947
 21
305.5104171514125
 31
0.0
  0
LINE
  5
19644
330
1F
100
AcDbEntity
  8
0
  6
Continuous
 62
     7
370
    15
100
AcDbLine
 10
487.2540134776471
 20
305.0316936552129
 30
0.0
 11
486.0873468506468
 21
303.7019064680129
 31
0.0
  0
LINE
  5
19645
330
1F
100
AcDbEntity
  8
0
  6
Continuous
 62
     7
370
    15
100
AcDbLine
 10
475.9479777543473
 20
300.7059490156128
 30
0.0
 11
478.5867161377471
 21
300.7059490156128
 31
0.0
  0
LINE
  5
19646
330
1F
100
AcDbEntity
  8
0
  6
Continuous
 62
     7
370
    15
100
AcDbLine
 10
487.5873468506468
 20
305.3508427024129
 30
0.0
 11
487.5456802237466
 21
305.5636086345124
 31
0.0
  0
LINE
  5
19647
330
1F
100
AcDbEntity
  8
0
  6
Continuous
 62
     7
370
    15
100
AcDbLine
 10
485.8380153990473
 20
311.9852790397129
 30
0.0
 11
485.8378692856475
 21
312.0133308840125
 31
0.0
  0
LINE
  5
19648
330
1F
100
AcDbEntity
  8
0
  6
Continuous
 62
     7
370
    15
100
AcDbLine
 10
486.7540136325468
 20
314.838927723213
 30
0.0
 11
486.7540136325468
 21
314.6261617911126
 31
0.0
  0
LINE
  5
19649
330
1F
100
AcDbEntity
  8
0
  6
Continuous
 62
     7
370
    15
100
AcDbLine
 10
486.1657787248467
 20
308.3575157139124
 30
0.0
 11
486.1657787248467
 21
311.0543823173133
 31
0.0
  0
LINE
  5
1964A
330
1F
100
AcDbEntity
  8
0
  6
Continuous
 62
     7
370
    15
100
AcDbLine
 10
486.0873468506468
 20
303.7019064680129
 30
0.0
 11
486.0873468506468
 21
303.4359490156124
 31
0.0
  0
LINE
  5
1964B
330
1F
100
AcDbEntity
  8
0
  6
Continuous
 62
     7
370
    15
100
AcDbLine
 10
485.8673454231474
 20
319.9970067632124
 30
0.0
 11
485.8673454231474
 21
311.9559490156128
 31
0.0
  0
LINE
  5
1964C
330
1F
100
AcDbEntity
  8
0
  6
Continuous
 62
     7
370
    15
100
AcDbLine
 10
485.8673454231474
 20
299.4148912680133
 30
0.0
 11
485.8673454231474
 21
307.4559490156128
 31
0.0
  0
LINE
  5
1964D
330
1F
100
AcDbEntity
  8
0
  6
Continuous
 62
     7
370
    15
100
AcDbLine
 10
485.8657828371469
 20
308.6575116016132
 30
0.0
 11
485.8657828371469
 21
310.7543864296125
 31
0.0
  0
LINE
  5
1964E
330
1F
100
AcDbEntity
  8
0
  6
Continuous
 62
     7
370
    15
100
AcDbLine
 10
485.8378692856475
 20
299.4034533563129
 30
0.0
 11
485.8378692856475
 21
307.3985671472131
 31
0.0
  0
LINE
  5
1964F
330
1F
100
AcDbEntity
  8
0
  6
Continuous
 62
     7
370
    15
100
AcDbLine
 10
485.8378692856475
 20
312.0133308840125
 30
0.0
 11
485.8378692856475
 21
320.0084446749127
 31
0.0
  0
LINE
  5
19650
330
1F
100
AcDbEntity
  8
0
  6
Continuous
 62
     7
370
    15
100
AcDbLine
 10
485.8380153990473
 20
307.4266189915127
 30
0.0
 11
485.8378692856475
 21
307.3985671472131
 31
0.0
  0
LINE
  5
19651
330
1F
100
AcDbEntity
  8
0
  6
Continuous
 62
     7
370
    15
100
AcDbLine
 10
486.1706801864474
 20
305.5636086345124
 30
0.0
 11
486.1290135185471
 21
305.3508427024129
 31
0.0
  0
LINE
  5
19652
330
1F
100
AcDbEntity
  8
0
  6
Continuous
 62
     7
370
    15
100
AcDbLine
 10
487.5040135729467
 20
315.0516936552124
 30
0.0
 11
487.5456803191472
 21
315.2644595873129
 31
0.0
  0
LINE
  5
19653
330
1F
100
AcDbEntity
  8
0
  6
Continuous
 62
     7
370
    15
100
AcDbLine
 10
487.5456803191472
 20
313.8814809170129
 30
0.0
 11
487.5873469460474
 21
314.0410554033127
 31
0.0
  0
LINE
  5
19654
330
1F
100
AcDbEntity
  8
0
  6
Continuous
 62
     7
370
    15
100
AcDbLine
 10
486.3373468506469
 20
305.7763745665127
 30
0.0
 11
486.1706801864474
 21
305.5636086345124
 31
0.0
  0
LINE
  5
19655
330
1F
100
AcDbEntity
  8
0
  6
Continuous
 62
     7
370
    15
100
AcDbLine
 10
486.420680193947
 20
305.5104171514125
 30
0.0
 11
486.5456801939471
 21
305.6168001175131
 31
0.0
  0
LINE
  5
19656
330
1F
100
AcDbEntity
  8
0
  6
Continuous
 62
     7
370
    15
100
AcDbLine
 10
485.8051510278472
 20
308.7181434109128
 30
0.0
 11
485.8051510278472
 21
310.6937546203129
 31
0.0
  0
LINE
  5
19657
330
1F
100
AcDbEntity
  8
0
  6
Continuous
 62
     7
370
    15
100
AcDbLine
 10
485.5673454231472
 20
320.0973158959126
 30
0.0
 11
485.5673454231472
 21
312.2852749274128
 31
0.0
  0
LINE
  5
19658
330
1F
100
AcDbEntity
  8
0
  6
Continuous
 62
     7
370
    15
100
AcDbLine
 10
485.5673454231472
 20
307.1266231038129
 30
0.0
 11
485.5673454231472
 21
299.3145821353131
 31
0.0
  0
LINE
  5
19659
330
1F
100
AcDbEntity
  8
0
  6
Continuous
 62
     7
370
    15
100
AcDbLine
 10
486.170680281847
 20
315.5836086345128
 30
0.0
 11
486.1290136139468
 21
315.3708427024124
 31
0.0
  0
LINE
  5
1965A
330
1F
100
AcDbEntity
  8
0
  6
Continuous
 62
     7
370
    15
100
AcDbLine
 10
487.3790135729467
 20
314.0410554033127
 30
0.0
 11
487.3373469460474
 21
313.934672437313
 31
0.0
  0
LINE
  5
1965B
330
1F
100
AcDbEntity
  8
0
  6
Continuous
 62
     7
370
    15
100
AcDbLine
 10
485.8378692856475
 20
307.3985671472131
 30
0.0
 11
485.5673454231472
 21
307.1266231038129
 31
0.0
  0
LINE
  5
1965C
330
1F
100
AcDbEntity
  8
0
  6
Continuous
 62
     7
370
    15
100
AcDbLine
 10
485.8380153990473
 20
307.4266189915127
 30
0.0
 11
485.8673454231474
 21
307.4559490156128
 31
0.0
  0
LINE
  5
1965D
330
1F
100
AcDbEntity
  8
0
  6
Continuous
 62
     7
370
    15
100
AcDbLine
 10
486.5040135074467
 20
305.8827575326125
 30
0.0
 11
486.3373468506469
 21
305.7763745665127
 31
0.0
  0
LINE
  5
1965E
330
1F
100
AcDbEntity
  8
0
  6
Continuous
 62
     7
370
    15
100
AcDbLine
 10
468.6673454231466
 20
307.7059490156128
 30
0.0
 11
468.6968215606474
 21
307.676472878113
 31
0.0
  0
LINE
  5
1965F
330
1F
100
AcDbEntity
  8
0
  6
Continuous
 62
     7
370
    15
100
AcDbLine
 10
484.3558318077474
 20
299.2059490156128
 30
0.0
 11
484.3173469460469
 21
306.5559490156132
 31
0.0
  0
LINE
  5
19660
330
1F
100
AcDbEntity
  8
0
  6
Continuous
 62
     7
370
    15
100
AcDbLine
 10
484.2914229068473
 20
309.030304833613
 30
0.0
 11
484.2914229068473
 21
310.3815931976126
 31
0.0
  0
LINE
  5
19661
330
1F
100
AcDbEntity
  8
0
  6
Continuous
 62
     7
370
    15
100
AcDbLine
 10
484.3173469460469
 20
312.8559490156125
 30
0.0
 11
484.3558318077474
 21
320.2059490156128
 31
0.0
  0
LINE
  5
19662
330
1F
100
AcDbEntity
  8
0
  6
Continuous
 62
     7
370
    15
100
AcDbLine
 10
487.3373469460474
 20
315.2644595873129
 30
0.0
 11
487.2540135729467
 21
315.0516936552124
 31
0.0
  0
LINE
  5
19663
330
1F
100
AcDbEntity
  8
0
  6
Continuous
 62
     7
370
    15
100
AcDbLine
 10
487.4623469460474
 20
313.7219064680124
 30
0.0
 11
487.5456803191472
 21
313.8814809170129
 31
0.0
  0
LINE
  5
19664
330
1F
100
AcDbEntity
  8
0
  6
Continuous
 62
     7
370
    15
100
AcDbLine
 10
487.4206803191472
 20
314.8921192062128
 30
0.0
 11
487.5040135729467
 21
315.0516936552124
 31
0.0
  0
LINE
  5
19665
330
1F
100
AcDbEntity
  8
0
  6
Continuous
 62
     7
370
    15
100
AcDbLine
 10
486.0873468506468
 20
303.4359490156124
 30
0.0
 11
487.5873468506468
 21
303.4359490156124
 31
0.0
  0
LINE
  5
19666
330
1F
100
AcDbEntity
  8
0
  6
Continuous
 62
     7
370
    15
100
AcDbLine
 10
467.6973468239474
 20
303.4509490156127
 30
0.0
 11
467.9443468239468
 21
303.4509490156127
 31
0.0
  0
LINE
  5
19667
330
1F
100
AcDbEntity
  8
0
  6
Continuous
 62
     7
370
    15
100
AcDbLine
 10
487.5873468506468
 20
303.7019064680129
 30
0.0
 11
486.420680193947
 21
303.7019064680129
 31
0.0
  0
LINE
  5
19668
330
1F
100
AcDbEntity
  8
0
  6
Continuous
 62
     7
370
    15
100
AcDbLine
 10
484.4637210920471
 20
310.6815890853125
 30
0.0
 11
484.2914229068473
 21
310.3815931976126
 31
0.0
  0
LINE
  5
19669
330
1F
100
AcDbEntity
  8
0
  6
Continuous
 62
     7
370
    15
100
AcDbLine
 10
486.5456801939471
 20
305.6168001175131
 30
0.0
 11
486.7540135372472
 21
305.669991600513
 31
0.0
  0
LINE
  5
1966A
330
1F
100
AcDbEntity
  8
0
  6
Continuous
 62
     7
370
    15
100
AcDbLine
 10
486.3373469460474
 20
315.3708427024124
 30
0.0
 11
486.4206802893467
 21
315.5304171514129
 31
0.0
  0
LINE
  5
1966B
330
1F
100
AcDbEntity
  8
0
  6
Continuous
 62
     7
370
    15
100
AcDbLine
 10
487.3373469460474
 20
313.934672437313
 30
0.0
 11
487.2540135729467
 21
313.828289434013
 31
0.0
  0
LINE
  5
1966C
330
1F
100
AcDbEntity
  8
0
  6
Continuous
 62
     7
370
    15
100
AcDbLine
 10
485.8051510278472
 20
310.6937546203129
 30
0.0
 11
486.1657787248467
 21
311.0543823173133
 31
0.0
  0
LINE
  5
1966D
330
1F
100
AcDbEntity
  8
0
  6
Continuous
 62
     7
370
    15
100
AcDbLine
 10
486.7956801641475
 20
305.9359490156124
 30
0.0
 11
486.5040135074467
 21
305.8827575326125
 31
0.0
  0
LINE
  5
1966E
330
1F
100
AcDbEntity
  8
0
  6
Continuous
 62
     7
370
    15
100
AcDbLine
 10
486.1290135185471
 20
305.3508427024129
 30
0.0
 11
486.3373468506469
 21
305.3508427024129
 31
0.0
  0
LINE
  5
1966F
330
1F
100
AcDbEntity
  8
0
  6
Continuous
 62
     7
370
    15
100
AcDbLine
 10
486.7540135372472
 20
305.669991600513
 30
0.0
 11
486.9206801641475
 21
305.669991600513
 31
0.0
  0
LINE
  5
19670
330
1F
100
AcDbEntity
  8
0
  6
Continuous
 62
     7
370
    15
100
AcDbLine
 10
487.2540135729467
 20
315.0516936552124
 30
0.0
 11
487.1706803191472
 21
314.9453106892127
 31
0.0
  0
LINE
  5
19671
330
1F
100
AcDbEntity
  8
0
  6
Continuous
 62
     7
370
    15
100
AcDbLine
 10
467.9443468239468
 20
305.9209490156129
 30
0.0
 11
467.6973468239474
 21
305.9209490156129
 31
0.0
  0
LINE
  5
19672
330
1F
100
AcDbEntity
  8
0
  6
Continuous
 62
     7
370
    15
100
AcDbLine
 10
486.9623468506468
 20
305.9359490156124
 30
0.0
 11
486.7956801641475
 21
305.9359490156124
 31
0.0
  0
LINE
  5
19673
330
1F
100
AcDbEntity
  8
0
  6
Continuous
 62
     7
370
    15
100
AcDbLine
 10
484.3173469460469
 20
306.5559490156132
 30
0.0
 11
478.6173469460472
 21
306.5559490156132
 31
0.0
  0
LINE
  5
19674
330
1F
100
AcDbEntity
  8
0
  6
Continuous
 62
     7
370
    15
100
AcDbLine
 10
475.9173469460473
 20
306.5559490156132
 30
0.0
 11
470.2173469460475
 21
306.5559490156132
 31
0.0
  0
LINE
  5
19675
330
1F
100
AcDbEntity
  8
0
  6
Continuous
 62
     7
370
    15
100
AcDbLine
 10
466.7673469460468
 20
311.8865042839128
 30
0.0
 11
465.9673469460475
 21
312.4309487283129
 31
0.0
  0
LINE
  5
19676
330
1F
100
AcDbEntity
  8
0
  6
Continuous
 62
     7
370
    15
100
AcDbLine
 10
474.1173454231474
 20
307.7059490156128
 30
0.0
 11
474.1482380332471
 21
307.6750564055131
 31
0.0
  0
LINE
  5
19677
330
1F
100
AcDbEntity
  8
0
  6
Continuous
 62
     7
370
    15
100
AcDbLine
 10
486.3373469460474
 20
315.7963745665132
 30
0.0
 11
486.170680281847
 21
315.5836086345128
 31
0.0
  0
LINE
  5
19678
330
1F
100
AcDbEntity
  8
0
  6
Continuous
 62
     7
370
    15
100
AcDbLine
 10
487.2540135729467
 20
314.7325447571132
 30
0.0
 11
487.4206803191472
 21
314.8921192062128
 31
0.0
  0
LINE
  5
19679
330
1F
100
AcDbEntity
  8
0
  6
Continuous
 62
     7
370
    15
100
AcDbLine
 10
487.3373469460474
 20
313.6155234833125
 30
0.0
 11
487.4623469460474
 21
313.7219064680124
 31
0.0
  0
LINE
  5
1967A
330
1F
100
AcDbEntity
  8
0
  6
Continuous
 62
     7
370
    15
100
AcDbLine
 10
475.2880195113474
 20
307.1266231038129
 30
0.0
 11
485.5673454231472
 21
307.1266231038129
 31
0.0
  0
LINE
  5
1967B
330
1F
100
AcDbEntity
  8
0
  6
Continuous
 62
     7
370
    15
100
AcDbLine
 10
475.5880153990473
 20
307.4266189915127
 30
0.0
 11
485.8380153990473
 21
307.4266189915127
 31
0.0
  0
LINE
  5
1967C
330
1F
100
AcDbEntity
  8
0
  6
Continuous
 62
     7
370
    15
100
AcDbLine
 10
485.8673454231474
 20
307.4559490156128
 30
0.0
 11
475.6173454231474
 21
307.4559490156128
 31
0.0
  0
LINE
  5
1967D
330
1F
100
AcDbEntity
  8
0
  6
Continuous
 62
     7
370
    15
100
AcDbLine
 10
468.9673454231468
 20
307.6750564055131
 30
0.0
 11
474.1482380332471
 21
307.6750564055131
 31
0.0
  0
LINE
  5
1967E
330
1F
100
AcDbEntity
  8
0
  6
Continuous
 62
     7
370
    15
100
AcDbLine
 10
474.1173454231474
 20
307.7059490156128
 30
0.0
 11
468.6673454231466
 21
307.7059490156128
 31
0.0
  0
LINE
  5
1967F
330
1F
100
AcDbEntity
  8
0
  6
Continuous
 62
     7
370
    15
100
AcDbLine
 10
468.6968215606474
 20
307.676472878113
 30
0.0
 11
468.9673454231468
 21
307.6750564055131
 31
0.0
  0
LINE
  5
19680
330
1F
100
AcDbEntity
  8
0
  6
Continuous
 62
     7
370
    15
100
AcDbLine
 10
487.1706803191472
 20
313.509140503313
 30
0.0
 11
487.3373469460474
 21
313.6155234833125
 31
0.0
  0
LINE
  5
19681
330
1F
100
AcDbEntity
  8
0
  6
Continuous
 62
     7
370
    15
100
AcDbLine
 10
487.2540135729467
 20
313.828289434013
 30
0.0
 11
487.1706803191472
 21
313.7750979510132
 31
0.0
  0
LINE
  5
19682
330
1F
100
AcDbEntity
  8
0
  6
Continuous
 62
     7
370
    15
100
AcDbLine
 10
486.1657787248467
 20
308.3575157139124
 30
0.0
 11
476.768912121447
 21
308.3575157139124
 31
0.0
  0
LINE
  5
19683
330
1F
100
AcDbEntity
  8
0
  6
Continuous
 62
     7
370
    15
100
AcDbLine
 10
485.8657828371469
 20
308.6575116016132
 30
0.0
 11
477.0689080091468
 21
308.6575116016132
 31
0.0
  0
LINE
  5
19684
330
1F
100
AcDbEntity
  8
0
  6
Continuous
 62
     7
370
    15
100
AcDbLine
 10
484.4637210920471
 20
308.7303089459131
 30
0.0
 11
477.1417053534467
 21
308.7303089459131
 31
0.0
  0
LINE
  5
19685
330
1F
100
AcDbEntity
  8
0
  6
Continuous
 62
     7
370
    15
100
AcDbLine
 10
485.8051510278472
 20
308.7181434109128
 30
0.0
 11
484.4637210920471
 21
308.7303089459131
 31
0.0
  0
LINE
  5
19686
330
1F
100
AcDbEntity
  8
0
  6
Continuous
 62
     7
370
    15
100
AcDbLine
 10
487.2123468506469
 20
305.8827575326125
 30
0.0
 11
486.9623468506468
 21
305.9359490156124
 31
0.0
  0
LINE
  5
19687
330
1F
100
AcDbEntity
  8
0
  6
Continuous
 62
     7
370
    15
100
AcDbLine
 10
486.9206801641475
 20
305.669991600513
 30
0.0
 11
487.1290134776471
 21
305.6168001175131
 31
0.0
  0
LINE
  5
19688
330
1F
100
AcDbEntity
  8
0
  6
Continuous
 62
     7
370
    15
100
AcDbLine
 10
478.5788620843467
 20
320.2059490156128
 30
0.0
 11
478.6173469460472
 21
312.8559490156125
 31
0.0
  0
LINE
  5
19689
330
1F
100
AcDbEntity
  8
0
  6
Continuous
 62
     7
370
    15
100
AcDbLine
 10
478.6173469460472
 20
306.5559490156132
 30
0.0
 11
478.5788620843467
 21
299.2059490156128
 31
0.0
  0
LINE
  5
1968A
330
1F
100
AcDbEntity
  8
0
  6
Continuous
 62
     7
370
    15
100
AcDbLine
 10
477.4417012411467
 20
309.030304833613
 30
0.0
 11
476.768912121447
 21
308.3575157139124
 31
0.0
  0
LINE
  5
1968B
330
1F
100
AcDbEntity
  8
0
  6
Continuous
 62
     7
370
    15
100
AcDbLine
 10
486.4206802893467
 20
315.5304171514129
 30
0.0
 11
486.5456802893467
 21
315.6368001175127
 31
0.0
  0
LINE
  5
1968C
330
1F
100
AcDbEntity
  8
0
  6
Continuous
 62
     7
370
    15
100
AcDbLine
 10
484.2914229068473
 20
309.030304833613
 30
0.0
 11
477.4417012411467
 21
309.030304833613
 31
0.0
  0
LINE
  5
1968D
330
1F
100
AcDbEntity
  8
0
  6
Continuous
 62
     7
370
    15
100
AcDbLine
 10
477.4417012411467
 20
309.030304833613
 30
0.0
 11
477.4417012411467
 21
310.3815931976126
 31
0.0
  0
LINE
  5
1968E
330
1F
100
AcDbEntity
  8
0
  6
Continuous
 62
     7
370
    15
100
AcDbLine
 10
477.1417053534467
 20
308.7303089459131
 30
0.0
 11
477.1417053534467
 21
310.6815890853125
 31
0.0
  0
LINE
  5
1968F
330
1F
100
AcDbEntity
  8
0
  6
Continuous
 62
     7
370
    15
100
AcDbLine
 10
477.0689080091468
 20
308.6575116016132
 30
0.0
 11
477.0689080091468
 21
310.7543864296125
 31
0.0
  0
LINE
  5
19690
330
1F
100
AcDbEntity
  8
0
  6
Continuous
 62
     7
370
    15
100
AcDbLine
 10
476.768912121447
 20
308.3575157139124
 30
0.0
 11
476.768912121447
 21
311.0543823173133
 31
0.0
  0
LINE
  5
19691
330
1F
100
AcDbEntity
  8
0
  6
Continuous
 62
     7
370
    15
100
AcDbLine
 10
475.6173454231474
 20
307.4559490156128
 30
0.0
 11
475.2880195113474
 21
307.1266231038129
 31
0.0
  0
LINE
  5
19692
330
1F
100
AcDbEntity
  8
0
  6
Continuous
 62
     7
370
    15
100
AcDbLine
 10
486.5040136027472
 20
315.9027575326129
 30
0.0
 11
486.3373469460474
 21
315.7963745665132
 31
0.0
  0
LINE
  5
19693
330
1F
100
AcDbEntity
  8
0
  6
Continuous
 62
     7
370
    15
100
AcDbLine
 10
484.4637210920471
 20
310.6815890853125
 30
0.0
 11
485.8051510278472
 21
310.6937546203129
 31
0.0
  0
LINE
  5
19694
330
1F
100
AcDbEntity
  8
0
  6
Continuous
 62
     7
370
    15
100
AcDbLine
 10
477.4417012411467
 20
310.3815931976126
 30
0.0
 11
484.2914229068473
 21
310.3815931976126
 31
0.0
  0
LINE
  5
19695
330
1F
100
AcDbEntity
  8
0
  6
Continuous
 62
     7
370
    15
100
AcDbLine
 10
477.1417053534467
 20
310.6815890853125
 30
0.0
 11
484.4637210920471
 21
310.6815890853125
 31
0.0
  0
LINE
  5
19696
330
1F
100
AcDbEntity
  8
0
  6
Continuous
 62
     7
370
    15
100
AcDbLine
 10
477.0689080091468
 20
310.7543864296125
 30
0.0
 11
485.8657828371469
 21
310.7543864296125
 31
0.0
  0
LINE
  5
19697
330
1F
100
AcDbEntity
  8
0
  6
Continuous
 62
     7
370
    15
100
AcDbLine
 10
475.6173454231474
 20
311.9559490156128
 30
0.0
 11
475.2880195113474
 21
312.2852749274128
 31
0.0
  0
LINE
  5
19698
330
1F
100
AcDbEntity
  8
0
  6
Continuous
 62
     7
370
    15
100
AcDbLine
 10
477.4417012411467
 20
310.3815931976126
 30
0.0
 11
476.768912121447
 21
311.0543823173133
 31
0.0
  0
LINE
  5
19699
330
1F
100
AcDbEntity
  8
0
  6
Continuous
 62
     7
370
    15
100
AcDbLine
 10
475.9558318077469
 20
299.2059490156128
 30
0.0
 11
475.9173469460473
 21
306.5559490156132
 31
0.0
  0
LINE
  5
1969A
330
1F
100
AcDbEntity
  8
0
  6
Continuous
 62
     7
370
    15
100
AcDbLine
 10
475.9173469460473
 20
312.8559490156125
 30
0.0
 11
475.9558318077469
 21
320.2059490156128
 31
0.0
  0
LINE
  5
1969B
330
1F
100
AcDbEntity
  8
0
  6
Continuous
 62
     7
370
    15
100
AcDbLine
 10
487.1706803191472
 20
314.9453106892127
 30
0.0
 11
486.9206802595471
 21
314.838927723213
 31
0.0
  0
LINE
  5
1969C
330
1F
100
AcDbEntity
  8
0
  6
Continuous
 62
     7
370
    15
100
AcDbLine
 10
487.0040136325468
 20
313.4559490156128
 30
0.0
 11
487.1706803191472
 21
313.509140503313
 31
0.0
  0
LINE
  5
1969D
330
1F
100
AcDbEntity
  8
0
  6
Continuous
 62
     7
370
    15
100
AcDbLine
 10
468.9673454231468
 20
311.7368416257126
 30
0.0
 11
468.6968215606474
 21
311.7354251531127
 31
0.0
  0
LINE
  5
1969E
330
1F
100
AcDbEntity
  8
0
  6
Continuous
 62
     7
370
    15
100
AcDbLine
 10
476.768912121447
 20
311.0543823173133
 30
0.0
 11
486.1657787248467
 21
311.0543823173133
 31
0.0
  0
LINE
  5
1969F
330
1F
100
AcDbEntity
  8
0
  6
Continuous
 62
     7
370
    15
100
AcDbLine
 10
468.6673454231466
 20
311.7059490156128
 30
0.0
 11
474.1173454231474
 21
311.7059490156128
 31
0.0
  0
LINE
  5
196A0
330
1F
100
AcDbEntity
  8
0
  6
Continuous
 62
     7
370
    15
100
AcDbLine
 10
474.1482380332471
 20
311.7368416257126
 30
0.0
 11
468.9673454231468
 21
311.7368416257126
 31
0.0
  0
LINE
  5
196A1
330
1F
100
AcDbEntity
  8
0
  6
Continuous
 62
     7
370
    15
100
AcDbLine
 10
475.6173454231474
 20
307.4559490156128
 30
0.0
 11
475.6173454231474
 21
311.9559490156128
 31
0.0
  0
LINE
  5
196A2
330
1F
100
AcDbEntity
  8
0
  6
Continuous
 62
     7
370
    15
100
AcDbLine
 10
475.5880153990473
 20
311.9852790397129
 30
0.0
 11
475.5880153990473
 21
307.4266189915127
 31
0.0
  0
LINE
  5
196A3
330
1F
100
AcDbEntity
  8
0
  6
Continuous
 62
     7
370
    15
100
AcDbLine
 10
475.2880195113474
 20
312.2852749274128
 30
0.0
 11
475.2880195113474
 21
307.1266231038129
 31
0.0
  0
LINE
  5
196A4
330
1F
100
AcDbEntity
  8
0
  6
Continuous
 62
     7
370
    15
100
AcDbLine
 10
487.1706803191472
 20
313.7750979510132
 30
0.0
 11
486.9623469460474
 21
313.7219064680124
 31
0.0
  0
LINE
  5
196A5
330
1F
100
AcDbEntity
  8
0
  6
Continuous
 62
     7
370
    15
100
AcDbLine
 10
475.6173454231474
 20
311.9559490156128
 30
0.0
 11
485.8673454231474
 21
311.9559490156128
 31
0.0
  0
LINE
  5
196A6
330
1F
100
AcDbEntity
  8
0
  6
Continuous
 62
     7
370
    15
100
AcDbLine
 10
485.8380153990473
 20
311.9852790397129
 30
0.0
 11
475.5880153990473
 21
311.9852790397129
 31
0.0
  0
LINE
  5
196A7
330
1F
100
AcDbEntity
  8
0
  6
Continuous
 62
     7
370
    15
100
AcDbLine
 10
485.5673454231472
 20
312.2852749274128
 30
0.0
 11
475.2880195113474
 21
312.2852749274128
 31
0.0
  0
LINE
  5
196A8
330
1F
100
AcDbEntity
  8
0
  6
Continuous
 62
     7
370
    15
100
AcDbLine
 10
470.2173469460475
 20
312.8559490156125
 30
0.0
 11
475.9173469460473
 21
312.8559490156125
 31
0.0
  0
LINE
  5
196A9
330
1F
100
AcDbEntity
  8
0
  6
Continuous
 62
     7
370
    15
100
AcDbLine
 10
478.6173469460472
 20
312.8559490156125
 30
0.0
 11
484.3173469460469
 21
312.8559490156125
 31
0.0
  0
LINE
  5
196AA
330
1F
100
AcDbEntity
  8
0
  6
Continuous
 62
     7
370
    15
100
AcDbLine
 10
487.3790134776471
 20
305.7763745665127
 30
0.0
 11
487.2123468506469
 21
305.8827575326125
 31
0.0
  0
LINE
  5
196AB
330
1F
100
AcDbEntity
  8
0
  6
Continuous
 62
     7
370
    15
100
AcDbLine
 10
474.1482380332471
 20
307.6750564055131
 30
0.0
 11
474.1482380332471
 21
311.7368416257126
 31
0.0
  0
LINE
  5
196AC
330
1F
100
AcDbEntity
  8
0
  6
Continuous
 62
     7
370
    15
100
AcDbLine
 10
474.1173454231474
 20
311.7059490156128
 30
0.0
 11
474.1173454231474
 21
307.7059490156128
 31
0.0
  0
LINE
  5
196AD
330
1F
100
AcDbEntity
  8
0
  6
Continuous
 62
     7
370
    15
100
AcDbLine
 10
467.8640137398469
 20
313.4559490156128
 30
0.0
 11
468.1140137398468
 21
313.4559490156128
 31
0.0
  0
LINE
  5
196AE
330
1F
100
AcDbEntity
  8
0
  6
Continuous
 62
     7
370
    15
100
AcDbLine
 10
486.6706802595471
 20
313.4559490156128
 30
0.0
 11
487.0040136325468
 21
313.4559490156128
 31
0.0
  0
LINE
  5
196AF
330
1F
100
AcDbEntity
  8
0
  6
Continuous
 62
     7
370
    15
100
AcDbLine
 10
486.9623469460474
 20
313.7219064680124
 30
0.0
 11
486.7123469460474
 21
313.7219064680124
 31
0.0
  0
LINE
  5
196B0
330
1F
100
AcDbEntity
  8
0
  6
Continuous
 62
     7
370
    15
100
AcDbLine
 10
487.1290134776471
 20
305.6168001175131
 30
0.0
 11
487.2540134776471
 21
305.5104171514125
 31
0.0
  0
LINE
  5
196B1
330
1F
100
AcDbEntity
  8
0
  6
Continuous
 62
     7
370
    15
100
AcDbLine
 10
474.1173454231474
 20
311.7059490156128
 30
0.0
 11
474.1482380332471
 21
311.7368416257126
 31
0.0
  0
LINE
  5
196B2
330
1F
100
AcDbEntity
  8
0
  6
Continuous
 62
     7
370
    15
100
AcDbLine
 10
466.7673469460468
 20
307.5253931728124
 30
0.0
 11
465.9673469460475
 21
306.9809487283131
 31
0.0
  0
LINE
  5
196B3
330
1F
100
AcDbEntity
  8
0
  6
Continuous
 62
     7
370
    15
100
AcDbLine
 10
486.5456802893467
 20
315.6368001175127
 30
0.0
 11
486.7540136325468
 21
315.6899916005126
 31
0.0
  0
LINE
  5
196B4
330
1F
100
AcDbEntity
  8
0
  6
Continuous
 62
     7
370
    15
100
AcDbLine
 10
486.2956802744474
 20
314.0410554033127
 30
0.0
 11
486.0873469460474
 21
314.0410554033127
 31
0.0
  0
LINE
  5
196B5
330
1F
100
AcDbEntity
  8
0
  6
Continuous
 62
     7
370
    15
100
AcDbLine
 10
466.8640137398468
 20
314.2006298524132
 30
0.0
 11
467.8640137398469
 21
314.2006298524132
 31
0.0
  0
LINE
  5
196B6
330
1F
100
AcDbEntity
  8
0
  6
Continuous
 62
     7
370
    15
100
AcDbLine
 10
468.1140137398468
 20
314.2006298524132
 30
0.0
 11
468.530680366747
 21
314.2006298524132
 31
0.0
  0
LINE
  5
196B7
330
1F
100
AcDbEntity
  8
0
  6
Continuous
 62
     7
370
    15
100
AcDbLine
 10
468.530680366747
 20
314.5197788250128
 30
0.0
 11
468.1140137398468
 21
314.5197788250128
 31
0.0
  0
LINE
  5
196B8
330
1F
100
AcDbEntity
  8
0
  6
Continuous
 62
     7
370
    15
100
AcDbLine
 10
467.8640137398469
 20
314.5197788250128
 30
0.0
 11
467.1556803965467
 21
314.5197788250128
 31
0.0
  0
LINE
  5
196B9
330
1F
100
AcDbEntity
  8
0
  6
Continuous
 62
     7
370
    15
100
AcDbLine
 10
486.7540136325468
 20
314.6261617911126
 30
0.0
 11
486.9206802595471
 21
314.6261617911126
 31
0.0
  0
LINE
  5
196BA
330
1F
100
AcDbEntity
  8
0
  6
Continuous
 62
     7
370
    15
100
AcDbLine
 10
486.9206802595471
 20
314.838927723213
 30
0.0
 11
486.7540136325468
 21
314.838927723213
 31
0.0
  0
LINE
  5
196BB
330
1F
100
AcDbEntity
  8
0
  6
Continuous
 62
     7
370
    15
100
AcDbLine
 10
486.7956802595471
 20
315.9559490156128
 30
0.0
 11
486.5040136027472
 21
315.9027575326129
 31
0.0
  0
LINE
  5
196BC
330
1F
100
AcDbEntity
  8
0
  6
Continuous
 62
     7
370
    15
100
AcDbLine
 10
486.1290136139468
 20
315.3708427024124
 30
0.0
 11
486.3373469460474
 21
315.3708427024124
 31
0.0
  0
LINE
  5
196BD
330
1F
100
AcDbEntity
  8
0
  6
Continuous
 62
     7
370
    15
100
AcDbLine
 10
486.7540136325468
 20
315.6899916005126
 30
0.0
 11
486.9206802595471
 21
315.6899916005126
 31
0.0
  0
LINE
  5
196BE
330
1F
100
AcDbEntity
  8
0
  6
Continuous
 62
     7
370
    15
100
AcDbLine
 10
486.1657787248467
 20
308.3575157139124
 30
0.0
 11
485.8051510278472
 21
308.7181434109128
 31
0.0
  0
LINE
  5
196BF
330
1F
100
AcDbEntity
  8
0
  6
Continuous
 62
     7
370
    15
100
AcDbLine
 10
487.5456802237466
 20
305.5636086345124
 30
0.0
 11
487.3790134776471
 21
305.7763745665127
 31
0.0
  0
LINE
  5
196C0
330
1F
100
AcDbEntity
  8
0
  6
Continuous
 62
     7
370
    15
100
AcDbLine
 10
484.2914229068473
 20
309.030304833613
 30
0.0
 11
484.4637210920471
 21
308.7303089459131
 31
0.0
  0
LINE
  5
196C1
330
1F
100
AcDbEntity
  8
0
  6
Continuous
 62
     7
370
    15
100
AcDbLine
 10
467.4503468239471
 20
305.1326510900129
 30
0.0
 11
467.6973468239474
 21
305.5005235338124
 31
0.0
  0
LINE
  5
196C2
330
1F
100
AcDbEntity
  8
0
  6
Continuous
 62
     7
370
    15
100
AcDbLine
 10
467.6973468239474
 20
305.9209490156129
 30
0.0
 11
467.4503468239471
 21
305.5530767190124
 31
0.0
  0
LINE
  5
196C3
330
1F
100
AcDbEntity
  8
0
  6
Continuous
 62
     7
370
    15
100
AcDbLine
 10
486.8790136325468
 20
315.9559490156128
 30
0.0
 11
486.7956802595471
 21
315.9559490156128
 31
0.0
  0
LINE
  5
196C4
330
1F
100
AcDbEntity
  8
0
  6
Continuous
 62
     7
370
    15
100
AcDbLine
 10
468.1140137398468
 20
315.9559490156128
 30
0.0
 11
467.8640137398469
 21
315.9559490156128
 31
0.0
  0
LINE
  5
196C5
330
1F
100
AcDbEntity
  8
0
  6
Continuous
 62
     7
370
    15
100
AcDbLine
 10
486.9206802595471
 20
314.6261617911126
 30
0.0
 11
487.1706803191472
 21
314.5729703081127
 31
0.0
  0
LINE
  5
196C6
330
1F
100
AcDbEntity
  8
0
  6
Continuous
 62
     7
370
    15
100
AcDbLine
 10
486.7123469460474
 20
313.7219064680124
 30
0.0
 11
486.5040136027472
 21
313.7750979510132
 31
0.0
  0
LINE
  5
196C7
330
1F
100
AcDbEntity
  8
0
  6
Continuous
 62
     7
370
    15
100
AcDbLine
 10
486.5040136027472
 20
313.509140503313
 30
0.0
 11
486.6706802595471
 21
313.4559490156128
 31
0.0
  0
LINE
  5
196C8
330
1F
100
AcDbEntity
  8
0
  6
Continuous
 62
     7
370
    15
100
AcDbLine
 10
470.1788620843471
 20
320.2059490156128
 30
0.0
 11
470.2173469460475
 21
312.8559490156125
 31
0.0
  0
LINE
  5
196C9
330
1F
100
AcDbEntity
  8
0
  6
Continuous
 62
     7
370
    15
100
AcDbLine
 10
470.2173469460475
 20
306.5559490156132
 30
0.0
 11
470.1788620843471
 21
299.2059490156128
 31
0.0
  0
LINE
  5
196CA
330
1F
100
AcDbEntity
  8
0
  6
Continuous
 62
     7
370
    15
100
AcDbLine
 10
487.1706803191472
 20
315.9027575326129
 30
0.0
 11
486.8790136325468
 21
315.9559490156128
 31
0.0
  0
LINE
  5
196CB
330
1F
100
AcDbEntity
  8
0
  6
Continuous
 62
     7
370
    15
100
AcDbLine
 10
485.8673454231474
 20
311.9559490156128
 30
0.0
 11
485.8380153990473
 21
311.9852790397129
 31
0.0
  0
LINE
  5
196CC
330
1F
100
AcDbEntity
  8
0
  6
Continuous
 62
     7
370
    15
100
AcDbLine
 10
485.8378692856475
 20
312.0133308840125
 30
0.0
 11
485.5673454231472
 21
312.2852749274128
 31
0.0
  0
LINE
  5
196CD
330
1F
100
AcDbEntity
  8
0
  6
Continuous
 62
     7
370
    15
100
AcDbLine
 10
487.2540134776471
 20
305.5104171514125
 30
0.0
 11
487.3373468506469
 21
305.3508427024129
 31
0.0
  0
LINE
  5
196CE
330
1F
100
AcDbEntity
  8
0
  6
Continuous
 62
     7
370
    15
100
AcDbLine
 10
468.9673454231468
 20
299.3145829780126
 30
0.0
 11
468.9673454231468
 21
307.6750564055131
 31
0.0
  0
LINE
  5
196CF
330
1F
100
AcDbEntity
  8
0
  6
Continuous
 62
     7
370
    15
100
AcDbLine
 10
468.9673454231468
 20
311.7368416257126
 30
0.0
 11
468.9673454231468
 21
320.097315053213
 31
0.0
  0
LINE
  5
196D0
330
1F
100
AcDbEntity
  8
0
  6
Continuous
 62
     7
370
    15
100
AcDbLine
 10
468.6968215606474
 20
320.0084435114125
 30
0.0
 11
468.6968215606474
 21
311.7354251531127
 31
0.0
  0
LINE
  5
196D1
330
1F
100
AcDbEntity
  8
0
  6
Continuous
 62
     7
370
    15
100
AcDbLine
 10
468.6968215606474
 20
307.676472878113
 30
0.0
 11
468.6968215606474
 21
299.4034545198131
 31
0.0
  0
LINE
  5
196D2
330
1F
100
AcDbEntity
  8
0
  6
Continuous
 62
     7
370
    15
100
AcDbLine
 10
468.6673454231466
 20
319.997005562813
 30
0.0
 11
468.6673454231466
 21
311.7059490156128
 31
0.0
  0
LINE
  5
196D3
330
1F
100
AcDbEntity
  8
0
  6
Continuous
 62
     7
370
    15
100
AcDbLine
 10
468.6673454231466
 20
299.4148924684126
 30
0.0
 11
468.6673454231466
 21
307.7059490156128
 31
0.0
  0
LINE
  5
196D4
330
1F
100
AcDbEntity
  8
0
  6
Continuous
 62
     7
370
    15
100
AcDbLine
 10
468.6968215606474
 20
311.7354251531127
 30
0.0
 11
468.6673454231466
 21
311.7059490156128
 31
0.0
  0
LINE
  5
196D5
330
1F
100
AcDbEntity
  8
0
  6
Continuous
 62
     7
370
    15
100
AcDbLine
 10
486.9206802595471
 20
315.6899916005126
 30
0.0
 11
487.1290135729467
 21
315.6368001175127
 31
0.0
  0
LINE
  5
196D6
330
1F
100
AcDbEntity
  8
0
  6
Continuous
 62
     7
370
    15
100
AcDbLine
 10
487.4623469460474
 20
314.6261617911126
 30
0.0
 11
487.2540135729467
 21
314.7325447571132
 31
0.0
  0
LINE
  5
196D7
330
1F
100
AcDbEntity
  8
0
  6
Continuous
 62
     7
370
    15
100
AcDbLine
 10
486.3373469460474
 20
313.6155234833125
 30
0.0
 11
486.5040136027472
 21
313.509140503313
 31
0.0
  0
LINE
  5
196D8
330
1F
100
AcDbEntity
  8
0
  6
Continuous
 62
     7
370
    15
100
AcDbLine
 10
486.5040136027472
 20
313.7750979510132
 30
0.0
 11
486.4206802893467
 21
313.828289434013
 31
0.0
  0
LINE
  5
196D9
330
1F
100
AcDbEntity
  8
0
  6
Continuous
 62
     7
370
    15
100
AcDbLine
 10
486.2123469460474
 20
313.7219064680124
 30
0.0
 11
486.3373469460474
 21
313.6155234833125
 31
0.0
  0
LINE
  5
196DA
330
1F
100
AcDbEntity
  8
0
  6
Continuous
 62
     7
370
    15
100
AcDbLine
 10
468.530680366747
 20
314.2006298524132
 30
0.0
 11
468.530680366747
 21
314.5197788250128
 31
0.0
  0
LINE
  5
196DB
330
1F
100
AcDbEntity
  8
0
  6
Continuous
 62
     7
370
    15
100
AcDbLine
 10
468.1140137398468
 20
313.4559490156128
 30
0.0
 11
468.1140137398468
 21
314.2006298524132
 31
0.0
  0
LINE
  5
196DC
330
1F
100
AcDbEntity
  8
0
  6
Continuous
 62
     7
370
    15
100
AcDbLine
 10
468.1140137398468
 20
314.5197788250128
 30
0.0
 11
468.1140137398468
 21
315.9559490156128
 31
0.0
  0
LINE
  5
196DD
330
1F
100
AcDbEntity
  8
0
  6
Continuous
 62
     7
370
    15
100
AcDbLine
 10
467.9443468239468
 20
303.4509490156127
 30
0.0
 11
467.9443468239468
 21
305.9209490156129
 31
0.0
  0
LINE
  5
196DE
330
1F
100
AcDbEntity
  8
0
  6
Continuous
 62
     7
370
    15
100
AcDbLine
 10
467.8640137398469
 20
315.5304171514129
 30
0.0
 11
467.8640137398469
 21
314.5197788250128
 31
0.0
  0
LINE
  5
196DF
330
1F
100
AcDbEntity
  8
0
  6
Continuous
 62
     7
370
    15
100
AcDbLine
 10
467.8640137398469
 20
314.2006298524132
 30
0.0
 11
467.8640137398469
 21
313.4559490156128
 31
0.0
  0
LINE
  5
196E0
330
1F
100
AcDbEntity
  8
0
  6
Continuous
 62
     7
370
    15
100
AcDbLine
 10
467.6973468239474
 20
305.5005235338124
 30
0.0
 11
467.6973468239474
 21
303.4509490156127
 31
0.0
  0
LINE
  5
196E1
330
1F
100
AcDbEntity
  8
0
  6
Continuous
 62
     7
370
    15
100
AcDbLine
 10
486.4206802893467
 20
313.828289434013
 30
0.0
 11
486.3373469460474
 21
313.934672437313
 31
0.0
  0
LINE
  5
196E2
330
1F
100
AcDbEntity
  8
0
  6
Continuous
 62
     7
370
    15
100
AcDbLine
 10
486.1290136139468
 20
313.8814809170129
 30
0.0
 11
486.2123469460474
 21
313.7219064680124
 31
0.0
  0
LINE
  5
196E3
330
1F
100
AcDbEntity
  8
0
  6
Continuous
 62
     7
370
    15
100
AcDbLine
 10
467.4503468239471
 20
305.5530767190124
 30
0.0
 11
467.4503468239471
 21
305.1326510900129
 31
0.0
  0
LINE
  5
196E4
330
1F
100
AcDbEntity
  8
0
  6
Continuous
 62
     7
370
    15
100
AcDbLine
 10
466.8640137398468
 20
314.5197788250128
 30
0.0
 11
466.8640137398468
 21
314.2006298524132
 31
0.0
  0
LINE
  5
196E5
330
1F
100
AcDbEntity
  8
0
  6
Continuous
 62
     7
370
    15
100
AcDbLine
 10
466.7673469460468
 20
302.2059490156128
 30
0.0
 11
466.7673469460468
 21
317.2059490156128
 31
0.0
  0
LINE
  5
196E6
330
1F
100
AcDbEntity
  8
0
  6
Continuous
 62
     7
370
    15
100
AcDbLine
 10
469.7673469460467
 20
320.2059490156128
 30
0.0
 11
470.1788620843471
 21
320.2059490156128
 31
0.0
  0
LINE
  5
196E7
330
1F
100
AcDbEntity
  8
0
  6
Continuous
 62
     7
370
    15
100
AcDbLine
 10
484.7673469460468
 20
320.2059490156128
 30
0.0
 11
484.3558318077474
 21
320.2059490156128
 31
0.0
  0
LINE
  5
196E8
330
1F
100
AcDbEntity
  8
0
  6
Continuous
 62
     7
370
    15
100
AcDbLine
 10
478.5788620843467
 20
320.2059490156128
 30
0.0
 11
475.9558318077469
 21
320.2059490156128
 31
0.0
  0
LINE
  5
196E9
330
1F
100
AcDbEntity
  8
0
  6
Continuous
 62
     7
370
    15
100
AcDbLine
 10
487.3373469460474
 20
315.7963745665132
 30
0.0
 11
487.1706803191472
 21
315.9027575326129
 31
0.0
  0
LINE
  5
196EA
330
1F
100
AcDbEntity
  8
0
  6
Continuous
 62
     7
370
    15
100
AcDbLine
 10
487.1706803191472
 20
314.5729703081127
 30
0.0
 11
487.2956803191471
 21
314.4665873420129
 31
0.0
  0
LINE
  5
196EB
330
1F
100
AcDbEntity
  8
0
  6
Continuous
 62
     7
370
    15
100
AcDbLine
 10
487.1290135729467
 20
315.6368001175127
 30
0.0
 11
487.2540135729467
 21
315.5304171514129
 31
0.0
  0
LINE
  5
196EC
330
1F
100
AcDbEntity
  8
0
  6
Continuous
 62
     7
370
    15
100
AcDbLine
 10
486.3373469460474
 20
313.934672437313
 30
0.0
 11
486.2956802744474
 21
314.0410554033127
 31
0.0
  0
LINE
  5
196ED
330
1F
100
AcDbEntity
  8
0
  6
Continuous
 62
     7
370
    15
100
AcDbLine
 10
465.9673469460475
 20
312.4309487283129
 30
0.0
 11
465.9673469460475
 21
306.9809505990127
 31
0.0
  0
LINE
  5
196EE
330
1F
100
AcDbEntity
  8
0
  6
Continuous
 62
     7
370
    15
100
AcDbLine
 10
467.8640137398469
 20
315.9559490156128
 30
0.0
 11
466.8640137398468
 21
314.5197788250128
 31
0.0
  0
LINE
  5
196EF
330
1F
100
AcDbEntity
  8
0
  6
Continuous
 62
     7
370
    15
100
AcDbLine
 10
467.1556803965467
 20
314.5197788250128
 30
0.0
 11
467.8640137398469
 21
315.5304171514129
 31
0.0
  0
LINE
  5
196F0
330
1F
100
AcDbEntity
  8
0
  6
Continuous
 62
     7
370
    15
100
AcDbLine
 10
487.5040135729467
 20
315.5836086345128
 30
0.0
 11
487.3373469460474
 21
315.7963745665132
 31
0.0
  0
LINE
  5
196F1
330
1F
100
AcDbEntity
  8
0
  6
Continuous
 62
     7
370
    15
100
AcDbLine
 10
487.5456803191472
 20
314.4665873420129
 30
0.0
 11
487.4623469460474
 21
314.6261617911126
 31
0.0
  0
LINE
  5
196F2
330
1F
100
AcDbEntity
  8
0
  6
Continuous
 62
     7
370
    15
100
AcDbLine
 10
487.2540135729467
 20
315.5304171514129
 30
0.0
 11
487.3373469460474
 21
315.3708427024124
 31
0.0
  0
LINE
  5
196F3
330
1F
100
AcDbEntity
  8
0
  6
Continuous
 62
     7
370
    15
100
AcDbLine
 10
487.2956803191471
 20
314.4665873420129
 30
0.0
 11
487.3790135729467
 21
314.2538213354131
 31
0.0
  0
ARC
  5
196F4
330
1F
100
AcDbEntity
  8
0
  6
Continuous
 62
     7
370
    15
100
AcDbCircle
 10
525.7626724641353
 20
309.7059487283126
 30
0.0
 40
2.999998506299999
100
AcDbArc
 50
270.0
 51
90.0
  0
ARC
  5
196F5
330
1F
100
AcDbEntity
  8
0
  6
Continuous
 62
     7
370
    15
100
AcDbCircle
 10
473.0673469460469
 20
303.507032289713
 30
0.0
 40
3.465916726
100
AcDbArc
 50
118.3955499577199
 51
145.7735653563623
  0
ARC
  5
196F6
330
1F
100
AcDbEntity
  8
0
  6
Continuous
 62
     7
370
    15
100
AcDbCircle
 10
473.0673469460469
 20
303.507032289713
 30
0.0
 40
3.465916726
100
AcDbArc
 50
34.22643464363773
 51
61.60445004228003
  0
ARC
  5
196F7
330
1F
100
AcDbEntity
  8
0
  6
Continuous
 62
     7
370
    15
100
AcDbCircle
 10
481.4673469460475
 20
303.507032289713
 30
0.0
 40
3.465916726
100
AcDbArc
 50
34.22643464363773
 51
61.60445004228003
  0
ARC
  5
196F8
330
1F
100
AcDbEntity
  8
0
  6
Continuous
 62
     7
370
    15
100
AcDbCircle
 10
481.4673469460475
 20
303.507032289713
 30
0.0
 40
3.465916726
100
AcDbArc
 50
118.3955499577199
 51
145.7735653563623
  0
ARC
  5
196F9
330
1F
100
AcDbEntity
  8
0
  6
Continuous
 62
     7
370
    15
100
AcDbCircle
 10
473.0673469460469
 20
315.9048657416127
 30
0.0
 40
3.465916726
100
AcDbArc
 50
214.2264346436377
 51
241.60445004228
  0
ARC
  5
196FA
330
1F
100
AcDbEntity
  8
0
  6
Continuous
 62
     7
370
    15
100
AcDbCircle
 10
473.0673469460469
 20
315.9048657416127
 30
0.0
 40
3.465916726
100
AcDbArc
 50
298.3955499577198
 51
325.7735653563622
  0
ARC
  5
196FB
330
1F
100
AcDbEntity
  8
0
  6
Continuous
 62
     7
370
    15
100
AcDbCircle
 10
481.4673469460475
 20
315.9048657416127
 30
0.0
 40
3.465916726
100
AcDbArc
 50
298.3955499577198
 51
325.7735653563622
  0
ARC
  5
196FC
330
1F
100
AcDbEntity
  8
0
  6
Continuous
 62
     7
370
    15
100
AcDbCircle
 10
481.4673469460475
 20
315.9048657416127
 30
0.0
 40
3.465916726
100
AcDbArc
 50
214.2264346436377
 51
241.60445004228
  0
ARC
  5
196FD
330
1F
100
AcDbEntity
  8
0
  6
Continuous
 62
     7
370
    15
100
AcDbCircle
 10
484.7673469460468
 20
302.2059490156128
 30
0.0
 40
3.0
100
AcDbArc
 50
270.0
 51
0.0
  0
ARC
  5
196FE
102
{ACAD_REACTORS
330
19713
102
}
330
1F
100
AcDbEntity
  8
0
  6
Continuous
 62
     7
370
    15
100
AcDbCircle
 10
484.7673469460468
 20
317.2059490156128
 30
0.0
 40
3.0
100
AcDbArc
 50
0.0
 51
90.0
  0
ARC
  5
196FF
330
1F
100
AcDbEntity
  8
0
  6
Continuous
 62
     7
370
    15
100
AcDbCircle
 10
469.7673469460467
 20
302.2059490156128
 30
0.0
 40
3.0
100
AcDbArc
 50
180.0
 51
270.0
  0
ARC
  5
19700
102
{ACAD_REACTORS
330
19713
102
}
330
1F
100
AcDbEntity
  8
0
  6
Continuous
 62
     7
370
    15
100
AcDbCircle
 10
469.7673469460467
 20
317.2059490156128
 30
0.0
 40
3.0
100
AcDbArc
 50
90.0
 51
180.0
  0
ELLIPSE
  5
19701
330
1F
100
AcDbEntity
  8
0
  6
Continuous
 62
     7
370
    15
100
AcDbEllipse
 10
528.9288031105355
 20
302.2059490156128
 30
0.0
 11
-5.1962236571
 21
0.0272053746000003
 31
0.0
210
0.0
220
0.0
230
0.9999999999999998
 40
0.5773186144000001
 41
1.4796974881
 42
1.579864909299999
  0
ELLIPSE
  5
19702
330
1F
100
AcDbEntity
  8
0
  6
Continuous
 62
     7
370
    15
100
AcDbEllipse
 10
528.4159995532357
 20
302.2059490156128
 30
0.0
 11
0.0000000000000002
 21
3.0
 31
0.0
210
0.0
220
0.0
230
1.0
 40
0.0174550649
 41
2.113749451399999
 42
2.656074531299999
  0
ELLIPSE
  5
19703
330
1F
100
AcDbEntity
  8
0
  6
Continuous
 62
     7
370
    15
100
AcDbEllipse
 10
528.4159995532357
 20
317.2059490156128
 30
0.0
 11
0.0000000000000002
 21
3.0
 31
0.0
210
0.0
220
0.0
230
1.0
 40
0.0174550649
 41
0.4855181223000001
 42
1.027843202199999
  0
ELLIPSE
  5
19704
330
1F
100
AcDbEntity
  8
0
  6
Continuous
 62
     7
370
    15
100
AcDbEllipse
 10
522.2112672693359
 20
302.2059490156128
 30
0.0
 11
0.0000000000000002
 21
3.0
 31
0.0
210
0.0
220
0.0
230
1.0
 40
0.0174550649
 41
3.627110775899999
 42
4.169435855799999
  0
ELLIPSE
  5
19705
330
1F
100
AcDbEntity
  8
0
  6
Continuous
 62
     7
370
    15
100
AcDbEllipse
 10
522.2112672693359
 20
317.2059490156128
 30
0.0
 11
0.0000000000000002
 21
3.0
 31
0.0
210
0.0
220
0.0
230
1.0
 40
0.0174550649
 41
5.2553421049
 42
5.797667184899999
  0
ELLIPSE
  5
19706
330
1F
100
AcDbEntity
  8
0
  6
Continuous
 62
     7
370
    15
100
AcDbEllipse
 10
528.9288031105355
 20
317.2059490156128
 30
0.0
 11
-5.1962236571
 21
-0.0272053745999997
 31
0.0
210
0.0
220
0.0
230
0.9999999999999998
 40
0.5773186144000001
 41
-1.579864909299999
 42
-1.4796974881
  0
ELLIPSE
  5
19707
330
1F
100
AcDbEntity
  8
0
  6
Continuous
 62
     7
370
    15
100
AcDbEllipse
 10
537.1626739870356
 20
317.2059490156128
 30
0.0
 11
0.0189862010000002
 21
2.9999399201
 31
0.0
210
0.0
220
0.0
230
1.0
 40
1.0
 41
0.2762620985
 42
0.371213698
  0
ELLIPSE
  5
19708
330
1F
100
AcDbEntity
  8
0
  6
Continuous
 62
     7
370
    15
100
AcDbEllipse
 10
-42.48988666926436
 20
302.2059490156128
 30
0.0
 11
-572.9525591335
 21
0.0000000000000351
 31
0.0
210
0.0
220
0.0
230
1.0
 40
0.0052360356
 41
-3.325854153699999
 42
-3.1415926536
  0
ELLIPSE
  5
19709
330
1F
100
AcDbEntity
  8
0
  6
Continuous
 62
     7
370
    15
100
AcDbEllipse
 10
-42.48988666926436
 20
317.2059490156128
 30
0.0
 11
-572.9525591335
 21
0.0000000000000351
 31
0.0
210
0.0
220
0.0
230
1.0
 40
0.0052360356
 41
-3.1415926536
 42
-2.9573311535
  0
ELLIPSE
  5
1970A
330
1F
100
AcDbEntity
  8
0
  6
Continuous
 62
     7
370
    15
100
AcDbEllipse
 10
525.787153647136
 20
309.7059487283126
 30
0.0
 11
-4.6755188169
 21
-0.0000000003999997
 31
0.0
210
0.0
220
0.0
230
1.0
 40
0.9999862918999998
 41
1.565560267299999
 42
4.717625039799999
  0
ELLIPSE
  5
1970B
330
1F
100
AcDbEntity
  8
0
  6
Continuous
 62
     7
370
    15
100
AcDbEllipse
 10
740.545568329336
 20
317.2059490156128
 30
0.0
 11
-572.9525591335
 21
0.0000000000000351
 31
0.0
210
0.0
220
0.0
230
1.0
 40
0.0052360356
 41
-1.205911404699999
 42
-1.195372173199999
  0
ELLIPSE
  5
1970C
330
1F
100
AcDbEntity
  8
0
  6
Continuous
 62
     7
370
    15
100
AcDbEllipse
 10
740.545568329336
 20
302.2059490156128
 30
0.0
 11
-572.9525591335
 21
0.0000000000000351
 31
0.0
210
0.0
220
0.0
230
1.0
 40
0.0052360356
 41
1.195372173199999
 42
1.205911404699999
  0
ELLIPSE
  5
1970D
330
1F
100
AcDbEntity
  8
0
  6
Continuous
 62
     7
370
    15
100
AcDbEllipse
 10
537.1626739870356
 20
302.2059490156128
 30
0.0
 11
0.0000000000000002
 21
3.0
 31
0.0
210
0.0
220
0.0
230
1.0
 40
1.0
 41
2.7767077315
 42
2.8716593311
  0
LINE
  5
1970E
330
1F
100
AcDbEntity
  8
Hat
  6
CENTER
 62
     1
 48
8.0
370
     0
100
AcDbLine
 10
464.8415165044169
 20
309.7059487986817
 30
0.0
 11
489.479325519338
 21
309.7059487986817
 31
0.0
  0
LINE
  5
1970F
330
1F
100
AcDbEntity
  8
Hat
  6
CENTER
 62
     1
 48
8.0
370
     0
100
AcDbLine
 10
473.0673468999565
 20
322.353704826551
 30
0.0
 11
473.0673468999565
 21
298.5319361706403
 31
0.0
  0
LINE
  5
19710
330
1F
100
AcDbEntity
  8
Hat
  6
CENTER
 62
     1
 48
8.0
370
     0
100
AcDbLine
 10
481.4673468999561
 20
322.3918051155229
 30
0.0
 11
481.4673468999561
 21
298.4327561213316
 31
0.0
  0
DIMENSION
  5
19711
102
{ACAD_XDICTIONARY
360
19712
102
}
102
{ACAD_REACTORS
330
19713
102
}
330
1F
100
AcDbEntity
  8
0
100
AcDbDimension
  2
*D2
 10
487.7673469460468
 20
325.9836315987291
 30
0.0
 11
477.2673469460467
 21
328.2336315987291
 31
0.0
 70
    32
  1
{\fFangSong_GB2312|b0|i0|c134|p49;□}<>
 71
     5
 42
21.0
  3
01
100
AcDbAlignedDimension
 13
466.7673469460468
 23
317.2059490156128
 33
0.0
 14
487.7673469460468
 24
317.2059490156128
 34
0.0
100
AcDbRotatedDimension
  0
DIMENSION
  5
19714
102
{ACAD_XDICTIONARY
360
19715
102
}
102
{ACAD_REACTORS
330
19716
102
}
330
1F
100
AcDbEntity
  8
0
100
AcDbDimension
  2
*D3
 10
544.962672464136
 20
325.8543082914167
 30
0.0
 11
528.462672464136
 21
328.1043082914167
 31
0.0
 70
    32
 71
     5
 42
33.0
  3
01
100
AcDbAlignedDimension
 13
511.962672464136
 23
319.505949015613
 33
0.0
 14
544.962672464136
 24
309.7059490156128
 34
0.0
100
AcDbRotatedDimension
  0
DIMENSION
  5
19717
102
{ACAD_XDICTIONARY
360
19718
102
}
102
{ACAD_REACTORS
330
19719
102
}
330
1F
100
AcDbEntity
  8
0
100
AcDbDimension
  2
*D4
 10
536.3626724641356
 20
289.7383359707091
 30
0.0
 11
524.1626724641358
 21
291.9883359707091
 31
0.0
 70
    32
 71
     5
 42
24.39999999999964
  3
01
100
AcDbAlignedDimension
 13
511.962672464136
 23
299.9059490156126
 33
0.0
 14
536.3626724641356
 24
299.2059490156128
 34
0.0
100
AcDbRotatedDimension
  0
LINE
  5
1971A
330
1F
100
AcDbEntity
  8
0
  6
Continuous
 62
     7
370
    15
100
AcDbLine
 10
525.8624881601366
 20
311.7061329103629
 30
0.0
 11
525.2624881609366
 21
311.7061329087631
 31
0.0
  0
LINE
  5
1971B
330
1F
100
AcDbEntity
  8
0
  6
Continuous
 62
     7
370
    15
100
AcDbLine
 10
527.3624881580366
 20
310.206132916663
 30
0.0
 11
526.3624881594363
 21
310.2061329138626
 31
0.0
  0
LINE
  5
1971C
330
1F
100
AcDbEntity
  8
0
  6
Continuous
 62
     7
370
    15
100
AcDbLine
 10
524.762488161636
 20
310.2061329094625
 30
0.0
 11
523.7624881630366
 21
310.2061329066631
 31
0.0
  0
LINE
  5
1971D
330
1F
100
AcDbEntity
  8
0
  6
Continuous
 62
     7
370
    15
100
AcDbLine
 10
523.7624881630366
 20
309.2061329080628
 30
0.0
 11
524.762488161636
 21
309.2061329107631
 31
0.0
  0
LINE
  5
1971E
330
1F
100
AcDbEntity
  8
0
  6
Continuous
 62
     7
370
    15
100
AcDbLine
 10
526.3624881594363
 20
309.2061329152623
 30
0.0
 11
527.3624881580366
 21
309.2061329179626
 31
0.0
  0
LINE
  5
1971F
330
1F
100
AcDbEntity
  8
0
  6
Continuous
 62
     7
370
    15
100
AcDbLine
 10
525.2624881609366
 20
307.7061329142628
 30
0.0
 11
525.8624881601366
 21
307.7061329159627
 31
0.0
  0
LINE
  5
19720
330
1F
100
AcDbEntity
  8
0
  6
Continuous
 62
     7
370
    15
100
AcDbLine
 10
523.562488163336
 20
310.0061329063631
 30
0.0
 11
523.562488163336
 21
309.4061329071631
 31
0.0
  0
LINE
  5
19721
330
1F
100
AcDbEntity
  8
0
  6
Continuous
 62
     7
370
    15
100
AcDbLine
 10
525.062488161236
 20
311.5061329084631
 30
0.0
 11
525.062488161236
 21
310.5061329098628
 31
0.0
  0
LINE
  5
19722
330
1F
100
AcDbEntity
  8
0
  6
Continuous
 62
     7
370
    15
100
AcDbLine
 10
525.062488161236
 20
308.9061329120625
 30
0.0
 11
525.062488161236
 21
307.9061329134632
 31
0.0
  0
LINE
  5
19723
330
1F
100
AcDbEntity
  8
0
  6
Continuous
 62
     7
370
    15
100
AcDbLine
 10
526.0624881598363
 20
307.9061329161626
 30
0.0
 11
526.0624881598363
 21
308.9061329148629
 31
0.0
  0
LINE
  5
19724
330
1F
100
AcDbEntity
  8
0
  6
Continuous
 62
     7
370
    15
100
AcDbLine
 10
526.0624881598363
 20
310.5061329125632
 30
0.0
 11
526.0624881598363
 21
311.5061329112626
 31
0.0
  0
LINE
  5
19725
330
1F
100
AcDbEntity
  8
0
  6
Continuous
 62
     7
370
    15
100
AcDbLine
 10
527.5624881578363
 20
309.4061329182626
 30
0.0
 11
527.5624881578363
 21
310.0061329174626
 31
0.0
  0
CIRCLE
  5
19726
330
1F
100
AcDbEntity
  8
0
  6
Continuous
 62
     7
370
    15
100
AcDbCircle
 10
525.5625671409364
 20
309.706053931963
 30
0.0
 40
2.9
  0
CIRCLE
  5
19727
330
1F
100
AcDbEntity
  8
0
  6
Continuous
 62
     7
370
    15
100
AcDbCircle
 10
525.5624881605366
 20
309.7061329123629
 30
0.0
 40
2.725
  0
ARC
  5
19728
330
1F
100
AcDbEntity
  8
0
  6
Continuous
 62
     7
370
    15
100
AcDbCircle
 10
525.5625250180368
 20
309.7060960548627
 30
0.0
 40
1.0
100
AcDbArc
 50
240.0000000397131
 51
300.0000000397126
  0
ARC
  5
19729
330
1F
100
AcDbEntity
  8
0
  6
Continuous
 62
     7
370
    15
100
AcDbCircle
 10
525.5625250180368
 20
309.7060960548627
 30
0.0
 40
1.0
100
AcDbArc
 50
150.0000001190805
 51
210.0000001190638
  0
ARC
  5
1972A
330
1F
100
AcDbEntity
  8
0
  6
Continuous
 62
     7
370
    15
100
AcDbCircle
 10
525.5625250180368
 20
309.7060960548627
 30
0.0
 40
1.0
100
AcDbArc
 50
60.00000003971308
 51
120.0000000397126
  0
ARC
  5
1972B
330
1F
100
AcDbEntity
  8
0
  6
Continuous
 62
     7
370
    15
100
AcDbCircle
 10
525.5625250180368
 20
309.7060960548627
 30
0.0
 40
1.0
100
AcDbArc
 50
330.0000001190805
 51
30.0000001190638
  0
ARC
  5
1972C
330
1F
100
AcDbEntity
  8
0
  6
Continuous
 62
     7
370
    15
100
AcDbCircle
 10
526.3624881594363
 20
310.5061329134626
 30
0.0
 40
0.3
100
AcDbArc
 50
180.0000001587798
 51
270.0
  0
ARC
  5
1972D
330
1F
100
AcDbEntity
  8
0
  6
Continuous
 62
     7
370
    15
100
AcDbCircle
 10
524.762488161636
 20
310.5061329089624
 30
0.0
 40
0.3
100
AcDbArc
 50
270.0
 51
0.0000001587798035
  0
ARC
  5
1972E
330
1F
100
AcDbEntity
  8
0
  6
Continuous
 62
     7
370
    15
100
AcDbCircle
 10
524.762488161636
 20
308.9061329112631
 30
0.0
 40
0.3
100
AcDbArc
 50
0.0000001587798035
 51
90.0
  0
ARC
  5
1972F
330
1F
100
AcDbEntity
  8
0
  6
Continuous
 62
     7
370
    15
100
AcDbCircle
 10
526.3624881594363
 20
308.9061329156623
 30
0.0
 40
0.3
100
AcDbArc
 50
90.0
 51
180.0000001587798
  0
ARC
  5
19730
330
1F
100
AcDbEntity
  8
0
  6
Continuous
 62
     7
370
    15
100
AcDbCircle
 10
525.8624881601366
 20
307.9061329156624
 30
0.0
 40
0.2
100
AcDbArc
 50
270.0
 51
0.0000001587798035
  0
ARC
  5
19731
330
1F
100
AcDbEntity
  8
0
  6
Continuous
 62
     7
370
    15
100
AcDbCircle
 10
525.2624881609366
 20
307.9061329139625
 30
0.0
 40
0.2
100
AcDbArc
 50
180.0000001587798
 51
270.0
  0
ARC
  5
19732
330
1F
100
AcDbEntity
  8
0
  6
Continuous
 62
     7
370
    15
100
AcDbCircle
 10
523.7624881630366
 20
309.4061329077625
 30
0.0
 40
0.2
100
AcDbArc
 50
180.0000001587798
 51
270.0
  0
ARC
  5
19733
330
1F
100
AcDbEntity
  8
0
  6
Continuous
 62
     7
370
    15
100
AcDbCircle
 10
523.7624881630366
 20
310.0061329069625
 30
0.0
 40
0.2
100
AcDbArc
 50
90.0
 51
180.0000001587798
  0
ARC
  5
19734
330
1F
100
AcDbEntity
  8
0
  6
Continuous
 62
     7
370
    15
100
AcDbCircle
 10
525.2624881609366
 20
311.5061329089625
 30
0.0
 40
0.2
100
AcDbArc
 50
90.0
 51
180.0000001587798
  0
ARC
  5
19735
330
1F
100
AcDbEntity
  8
0
  6
Continuous
 62
     7
370
    15
100
AcDbCircle
 10
525.8624881601366
 20
311.5061329106623
 30
0.0
 40
0.2
100
AcDbArc
 50
0.0000001587798035
 51
90.0
  0
ARC
  5
19736
330
1F
100
AcDbEntity
  8
0
  6
Continuous
 62
     7
370
    15
100
AcDbCircle
 10
527.3624881580366
 20
310.0061329168623
 30
0.0
 40
0.2
100
AcDbArc
 50
0.0000001587798035
 51
90.0
  0
ARC
  5
19737
330
1F
100
AcDbEntity
  8
0
  6
Continuous
 62
     7
370
    15
100
AcDbCircle
 10
527.3624881580366
 20
309.4061329177624
 30
0.0
 40
0.2
100
AcDbArc
 50
270.0
 51
0.0000001587798035
  0
LINE
  5
19C16
330
1F
100
AcDbEntity
  8
0
  6
Continuous
 62
     7
370
    15
100
AcDbLine
 10
463.2486447676361
 20
261.9027819290196
 30
0.0
 11
463.6926589971359
 21
262.1649985408195
 31
0.0
  0
LINE
  5
19C17
330
1F
100
AcDbEntity
  8
0
  6
Continuous
 62
     7
370
    15
100
AcDbLine
 10
463.6926589971359
 20
262.1649985408195
 30
0.0
 11
467.9510825137364
 21
263.9454886752195
 31
0.0
  0
LINE
  5
19C18
330
1F
100
AcDbEntity
  8
0
  6
Continuous
 62
     7
370
    15
100
AcDbLine
 10
469.0087007827356
 20
263.5425906466195
 30
0.0
 11
464.750277266136
 21
261.7621005122195
 31
0.0
  0
LINE
  5
19C19
330
1F
100
AcDbEntity
  8
0
  6
Continuous
 62
     7
370
    15
100
AcDbLine
 10
469.3257786202362
 20
263.2233580704195
 30
0.0
 11
464.7758609993358
 21
261.3209912896194
 31
0.0
  0
LINE
  5
19C1A
330
1F
100
AcDbEntity
  8
0
  6
Continuous
 62
     7
370
    15
100
AcDbLine
 10
459.862156439936
 20
259.0943530449195
 30
0.0
 11
459.6081743480359
 21
258.9881605520196
 31
0.0
  0
LINE
  5
19C1B
330
1F
100
AcDbEntity
  8
0
  6
Continuous
 62
     7
370
    15
100
AcDbLine
 10
456.0426995482363
 20
257.4973993159196
 30
0.0
 11
454.423797459736
 21
256.8205199060195
 31
0.0
  0
LINE
  5
19C1C
330
1F
100
AcDbEntity
  8
0
  6
Continuous
 62
     7
370
    15
100
AcDbLine
 10
450.6043405680363
 20
255.2235661770195
 30
0.0
 11
450.8583226599363
 21
255.3297586699194
 31
0.0
  0
LINE
  5
19C1D
330
1F
100
AcDbEntity
  8
0
  6
Continuous
 62
     7
370
    15
100
AcDbLine
 10
456.6347289436358
 20
253.1482252603194
 30
0.0
 11
460.152698974936
 21
254.6191242701196
 31
0.0
  0
LINE
  5
19C1E
330
1F
100
AcDbEntity
  8
0
  6
Continuous
 62
     7
370
    15
100
AcDbLine
 10
461.8191058319358
 20
255.3158659063195
 30
0.0
 11
462.6513663308356
 21
255.6638424760195
 31
0.0
  0
LINE
  5
19C1F
330
1F
100
AcDbEntity
  8
0
  6
Continuous
 62
     7
370
    15
100
AcDbLine
 10
462.6157741260364
 20
255.2920600754195
 30
0.0
 11
460.2109375786364
 21
254.2865734837195
 31
0.0
  0
LINE
  5
19C20
330
1F
100
AcDbEntity
  8
0
  6
Continuous
 62
     7
370
    15
100
AcDbLine
 10
459.9367229273362
 20
253.8289300550194
 30
0.0
 11
456.7391396049357
 21
252.4919879831194
 31
0.0
  0
LINE
  5
19C21
330
1F
100
AcDbEntity
  8
0
  6
Continuous
 62
     7
370
    15
100
AcDbLine
 10
462.5707174409359
 20
254.8214153762195
 30
0.0
 11
460.7763604931356
 21
254.0711765071195
 31
0.0
  0
LINE
  5
19C22
330
1F
100
AcDbEntity
  8
0
  6
Continuous
 62
     7
370
    15
100
AcDbLine
 10
449.3514811292357
 20
246.1189323625194
 30
0.0
 11
449.4911460142362
 21
246.3520168553195
 31
0.0
  0
LINE
  5
19C23
330
1F
100
AcDbEntity
  8
0
  6
Continuous
 62
     7
370
    15
100
AcDbLine
 10
452.4587765926359
 20
248.3835000587195
 30
0.0
 11
452.3044796614364
 21
248.3189869442195
 31
0.0
  0
LINE
  5
19C24
330
1F
100
AcDbEntity
  8
0
  6
Continuous
 62
     7
370
    15
100
AcDbLine
 10
459.9181932899361
 20
251.2809324444196
 30
0.0
 11
463.1157766124357
 21
252.6178745164196
 31
0.0
  0
LINE
  5
19C25
330
1F
100
AcDbEntity
  8
0
  6
Continuous
 62
     7
370
    15
100
AcDbLine
 10
464.2484802356363
 20
252.7484779114196
 30
0.0
 11
470.5927540075359
 21
255.4010832281195
 31
0.0
  0
LINE
  5
19C26
330
1F
100
AcDbEntity
  8
0
  6
Continuous
 62
     7
370
    15
100
AcDbLine
 10
453.8399911877364
 20
248.0628156445194
 30
0.0
 11
453.5828296602363
 21
247.9552937973194
 31
0.0
  0
LINE
  5
19C27
330
1F
100
AcDbEntity
  8
0
  6
Continuous
 62
     7
370
    15
100
AcDbLine
 10
453.4285327290359
 20
247.8907806828194
 30
0.0
 11
452.9913580845365
 21
247.7079935226195
 31
0.0
  0
LINE
  5
19C28
330
1F
100
AcDbEntity
  8
0
  6
Continuous
 62
     7
370
    15
100
AcDbLine
 10
470.2679220627357
 20
254.9083667538194
 30
0.0
 11
466.7499520314364
 21
253.4374677439194
 31
0.0
  0
LINE
  5
19C29
330
1F
100
AcDbEntity
  8
0
  6
Continuous
 62
     7
370
    15
100
AcDbLine
 10
465.0835451744357
 20
252.7407261077195
 30
0.0
 11
461.5655751431364
 21
251.2698270979195
 31
0.0
  0
LINE
  5
19C2A
330
1F
100
AcDbEntity
  8
0
  6
Continuous
 62
     7
370
    15
100
AcDbLine
 10
453.0611346072361
 20
247.5375712656195
 30
0.0
 11
453.6783223320359
 21
247.7956237235196
 31
0.0
  0
LINE
  5
19C2B
330
1F
100
AcDbEntity
  8
0
  6
Continuous
 62
     7
370
    15
100
AcDbLine
 10
453.8326192632363
 20
247.8601368379195
 30
0.0
 11
454.0897807907364
 21
247.9676586851195
 31
0.0
  0
LINE
  5
19C2C
330
1F
100
AcDbEntity
  8
0
  6
Continuous
 62
     7
370
    15
100
AcDbLine
 10
453.0369464903357
 20
247.2618795125195
 30
0.0
 11
453.6541342151364
 21
247.5199319704195
 31
0.0
  0
LINE
  5
19C2D
330
1F
100
AcDbEntity
  8
0
  6
Continuous
 62
     7
370
    15
100
AcDbLine
 10
454.2611646612364
 20
247.5735908480194
 30
0.0
 11
454.4154615924359
 21
247.6381039625196
 31
0.0
  0
LINE
  5
19C2E
330
1F
100
AcDbEntity
  8
0
  6
Continuous
 62
     7
370
    15
100
AcDbLine
 10
454.236976544336
 20
247.2978990950196
 30
0.0
 11
454.3912734755364
 21
247.3624122094195
 31
0.0
  0
LINE
  5
19C2F
330
1F
100
AcDbEntity
  8
0
  6
Continuous
 62
     7
370
    15
100
AcDbLine
 10
456.1024624981361
 20
246.9834235430196
 30
0.0
 11
459.4661355982358
 21
248.3898094383195
 31
0.0
  0
LINE
  5
19C30
330
1F
100
AcDbEntity
  8
0
  6
Continuous
 62
     7
370
    15
100
AcDbLine
 10
455.2979189975363
 20
246.3528924841196
 30
0.0
 11
456.3703628930357
 21
246.7827342252194
 31
0.0
  0
LINE
  5
19C31
330
1F
100
AcDbEntity
  8
0
  6
Continuous
 62
     7
370
    15
100
AcDbLine
 10
449.4881431330364
 20
249.1693540982195
 30
0.0
 11
449.3211368806356
 21
247.2658472351195
 31
0.0
  0
LINE
  5
19C32
330
1F
100
AcDbEntity
  8
0
  6
Continuous
 62
     7
370
    15
100
AcDbLine
 10
448.8248456624356
 20
241.6092102735195
 30
0.0
 11
448.706138089136
 21
240.2562029625196
 31
0.0
  0
LINE
  5
19C33
330
1F
100
AcDbEntity
  8
0
  6
Continuous
 62
     7
370
    15
100
AcDbLine
 10
449.3426210279364
 20
247.1336677312194
 30
0.0
 11
448.8731592875361
 21
241.7828282744195
 31
0.0
  0
LINE
  5
19C34
330
1F
100
AcDbEntity
  8
0
  6
Continuous
 62
     7
370
    15
100
AcDbLine
 10
449.5301860518362
 20
246.7969880970195
 30
0.0
 11
449.0315685497359
 21
241.1138365760195
 31
0.0
  0
LINE
  5
19C35
330
1F
100
AcDbEntity
  8
0
  6
Continuous
 62
     7
370
    15
100
AcDbLine
 10
448.5727573420359
 20
232.0929941041195
 30
0.0
 11
449.2253725405358
 21
239.5313833358195
 31
0.0
  0
LINE
  5
19C36
330
1F
100
AcDbEntity
  8
0
  6
Continuous
 62
     7
370
    15
100
AcDbLine
 10
448.9987353225357
 20
242.4342861491196
 30
0.0
 11
449.3514811292357
 21
246.1189323625194
 31
0.0
  0
LINE
  5
19C37
330
1F
100
AcDbEntity
  8
0
  6
Continuous
 62
     7
370
    15
100
AcDbLine
 10
448.8248351609359
 20
241.6088827018195
 30
0.0
 11
448.8731592875361
 21
241.7828282744195
 31
0.0
  0
LINE
  5
19C38
330
1F
100
AcDbEntity
  8
0
  6
Continuous
 62
     7
370
    15
100
AcDbLine
 10
456.7391396049357
 20
252.4919879831194
 30
0.0
 11
456.5514726912357
 21
252.1731523092195
 31
0.0
  0
LINE
  5
19C39
330
1F
100
AcDbEntity
  8
0
  6
Continuous
 62
     7
370
    15
100
AcDbLine
 10
457.692390523936
 20
245.4407222941195
 30
0.0
 11
458.7183848928358
 21
245.8882589098196
 31
0.0
  0
LINE
  5
19C3A
330
1F
100
AcDbEntity
  8
0
  6
Continuous
 62
     7
370
    15
100
AcDbLine
 10
469.6810930328362
 20
251.0044035980196
 30
0.0
 11
471.3096899720364
 21
251.6853365235196
 31
0.0
  0
LINE
  5
19C3B
330
1F
100
AcDbEntity
  8
0
  6
Continuous
 62
     7
370
    15
100
AcDbLine
 10
476.2983104383362
 20
252.8330258370196
 30
0.0
 11
476.0443283464361
 21
252.7268333442195
 31
0.0
  0
LINE
  5
19C3C
330
1F
100
AcDbEntity
  8
0
  6
Continuous
 62
     7
370
    15
100
AcDbLine
 10
467.0404945663364
 20
248.9622389691195
 30
0.0
 11
467.2944766583364
 21
249.0684314620195
 31
0.0
  0
LINE
  5
19C3D
330
1F
100
AcDbEntity
  8
0
  6
Continuous
 62
     7
370
    15
100
AcDbLine
 10
450.6250997613356
 20
248.1329956776195
 30
0.0
 11
449.8430947174361
 21
239.2198445420195
 31
0.0
  0
LINE
  5
19C3E
330
1F
100
AcDbEntity
  8
0
  6
Continuous
 62
     7
370
    15
100
AcDbLine
 10
449.3307284275357
 20
231.4020884904195
 30
0.0
 11
450.0110153878364
 21
239.1558754247196
 31
0.0
  0
LINE
  5
19C3F
330
1F
100
AcDbEntity
  8
0
  6
Continuous
 62
     7
370
    15
100
AcDbLine
 10
452.2802915445359
 20
248.0432951911194
 30
0.0
 11
452.3044796614364
 21
248.3189869442195
 31
0.0
  0
LINE
  5
19C40
330
1F
100
AcDbEntity
  8
0
  6
Continuous
 62
     7
370
    15
100
AcDbLine
 10
459.7283091038358
 20
250.9629414371196
 30
0.0
 11
459.9181932899361
 21
251.2809324444196
 31
0.0
  0
LINE
  5
19C41
330
1F
100
AcDbEntity
  8
0
  6
Continuous
 62
     7
370
    15
100
AcDbLine
 10
457.3151027294358
 20
244.2265678433195
 30
0.0
 11
457.1871062820361
 21
244.1730512284196
 31
0.0
  0
LINE
  5
19C42
330
1F
100
AcDbEntity
  8
0
  6
Continuous
 62
     7
370
    15
100
AcDbLine
 10
457.4092776997364
 20
244.2607950675194
 30
0.0
 11
457.1929433663359
 21
244.1703434850194
 31
0.0
  0
LINE
  5
19C43
330
1F
100
AcDbEntity
  8
0
  6
Continuous
 62
     7
370
    15
100
AcDbLine
 10
457.5063238756362
 20
244.2870685078194
 30
0.0
 11
457.2091594766358
 21
244.1628210536196
 31
0.0
  0
LINE
  5
19C44
330
1F
100
AcDbEntity
  8
0
  6
Continuous
 62
     7
370
    15
100
AcDbLine
 10
457.6058582602359
 20
244.3052844748194
 30
0.0
 11
457.235690615336
 21
244.1505136219195
 31
0.0
  0
LINE
  5
19C45
330
1F
100
AcDbEntity
  8
0
  6
Continuous
 62
     7
370
    15
100
AcDbLine
 10
457.6460076617364
 20
244.2896655091194
 30
0.0
 11
457.2724320762359
 21
244.1334697616196
 31
0.0
  0
LINE
  5
19C46
330
1F
100
AcDbEntity
  8
0
  6
Continuous
 62
     7
370
    15
100
AcDbLine
 10
460.2081938441357
 20
245.3476971640196
 30
0.0
 11
460.0557484760362
 21
245.2839582069195
 31
0.0
  0
LINE
  5
19C47
330
1F
100
AcDbEntity
  8
0
  6
Continuous
 62
     7
370
    15
100
AcDbLine
 10
455.3601239313362
 20
242.9906297747195
 30
0.0
 11
455.5978254625357
 21
243.0900151997196
 31
0.0
  0
LINE
  5
19C48
330
1F
100
AcDbEntity
  8
0
  6
Continuous
 62
     7
370
    15
100
AcDbLine
 10
454.065172347036
 20
242.0594086670195
 30
0.0
 11
454.3028738782364
 21
242.1587940921195
 31
0.0
  0
LINE
  5
19C49
330
1F
100
AcDbEntity
  8
0
  6
Continuous
 62
     7
370
    15
100
AcDbLine
 10
455.7115282824358
 20
242.2522939849195
 30
0.0
 11
455.2794968750364
 21
242.0716572644195
 31
0.0
  0
LINE
  5
19C4A
330
1F
100
AcDbEntity
  8
0
  6
Continuous
 62
     7
370
    15
100
AcDbLine
 10
454.0167961132361
 20
241.5080251609195
 30
0.0
 11
454.4488275206364
 21
241.6886618814194
 31
0.0
  0
LINE
  5
19C4B
330
1F
100
AcDbEntity
  8
0
  6
Continuous
 62
     7
370
    15
100
AcDbLine
 10
455.5924510397359
 20
242.0649604943196
 30
0.0
 11
455.1604196323356
 21
241.8843237737195
 31
0.0
  0
LINE
  5
19C4C
330
1F
100
AcDbEntity
  8
0
  6
Continuous
 62
     7
370
    15
100
AcDbLine
 10
470.6504762212358
 20
248.1716320804195
 30
0.0
 11
472.2693783097362
 21
248.8485114903195
 31
0.0
  0
LINE
  5
19C4D
330
1F
100
AcDbEntity
  8
0
  6
Continuous
 62
     7
370
    15
100
AcDbLine
 10
461.9889532558359
 20
244.5475068638195
 30
0.0
 11
462.1413986239364
 21
244.6112458209195
 31
0.0
  0
LINE
  5
19C4E
330
1F
100
AcDbEntity
  8
0
  6
Continuous
 62
     7
370
    15
100
AcDbLine
 10
454.1572055019356
 20
241.2645989711195
 30
0.0
 11
454.5892369093358
 21
241.4452356916195
 31
0.0
  0
LINE
  5
19C4F
330
1F
100
AcDbEntity
  8
0
  6
Continuous
 62
     7
370
    15
100
AcDbLine
 10
461.9647651390356
 20
244.2718151108195
 30
0.0
 11
462.117210507036
 21
244.3355540679195
 31
0.0
  0
LINE
  5
19C50
330
1F
100
AcDbEntity
  8
0
  6
Continuous
 62
     7
370
    15
100
AcDbLine
 10
455.3719109092359
 20
241.1470772532195
 30
0.0
 11
454.9398795019357
 21
240.9664405327195
 31
0.0
  0
LINE
  5
19C51
330
1F
100
AcDbEntity
  8
0
  6
Continuous
 62
     7
370
    15
100
AcDbLine
 10
452.7871568874358
 20
247.3570364719196
 30
0.0
 11
452.8113450043361
 21
247.6327282249194
 31
0.0
  0
LINE
  5
19C52
330
1F
100
AcDbEntity
  8
0
  6
Continuous
 62
     7
370
    15
100
AcDbLine
 10
452.4376400215357
 20
242.9789811661194
 30
0.0
 11
452.0345821420356
 21
238.3850008286195
 31
0.0
  0
LINE
  5
19C53
330
1F
100
AcDbEntity
  8
0
  6
Continuous
 62
     7
370
    15
100
AcDbLine
 10
453.0369464903357
 20
247.2618795125195
 30
0.0
 11
453.0611346072361
 21
247.5375712656195
 31
0.0
  0
LINE
  5
19C54
330
1F
100
AcDbEntity
  8
0
  6
Continuous
 62
     7
370
    15
100
AcDbLine
 10
454.423797459736
 20
256.8205199060195
 30
0.0
 11
454.1828469387361
 21
254.0742097301196
 31
0.0
  0
LINE
  5
19C55
330
1F
100
AcDbEntity
  8
0
  6
Continuous
 62
     7
370
    15
100
AcDbLine
 10
453.6541342151364
 20
247.5199319704195
 30
0.0
 11
453.6783223320359
 21
247.7956237235196
 31
0.0
  0
LINE
  5
19C56
330
1F
100
AcDbEntity
  8
0
  6
Continuous
 62
     7
370
    15
100
AcDbLine
 10
452.3048898521361
 20
230.2690863385195
 30
0.0
 11
453.0144853493363
 21
238.3569266422195
 31
0.0
  0
LINE
  5
19C57
330
1F
100
AcDbEntity
  8
0
  6
Continuous
 62
     7
370
    15
100
AcDbLine
 10
454.0723352346364
 20
247.7688174128195
 30
0.0
 11
454.0897807907364
 21
247.9676586851195
 31
0.0
  0
LINE
  5
19C58
330
1F
100
AcDbEntity
  8
0
  6
Continuous
 62
     7
370
    15
100
AcDbLine
 10
454.236976544336
 20
247.2978990950196
 30
0.0
 11
454.2611646612364
 21
247.5735908480194
 31
0.0
  0
LINE
  5
19C59
330
1F
100
AcDbEntity
  8
0
  6
Continuous
 62
     7
370
    15
100
AcDbLine
 10
454.3912734755364
 20
247.3624122094195
 30
0.0
 11
454.4154615924359
 21
247.6381039625196
 31
0.0
  0
LINE
  5
19C5A
330
1F
100
AcDbEntity
  8
0
  6
Continuous
 62
     7
370
    15
100
AcDbLine
 10
454.065172347036
 20
242.0594086670195
 30
0.0
 11
454.0167961132361
 21
241.5080251609195
 31
0.0
  0
LINE
  5
19C5B
330
1F
100
AcDbEntity
  8
0
  6
Continuous
 62
     7
370
    15
100
AcDbLine
 10
455.582524992336
 20
240.7819379686195
 30
0.0
 11
455.1504935850358
 21
240.6013012481195
 31
0.0
  0
LINE
  5
19C5C
330
1F
100
AcDbEntity
  8
0
  6
Continuous
 62
     7
370
    15
100
AcDbLine
 10
456.4842762350359
 20
240.6711130208195
 30
0.0
 11
456.0522448276357
 21
240.4904763003195
 31
0.0
  0
LINE
  5
19C5D
330
1F
100
AcDbEntity
  8
0
  6
Continuous
 62
     7
370
    15
100
AcDbLine
 10
456.6241893091361
 20
240.6700237516195
 30
0.0
 11
456.1921579017358
 21
240.4893870311195
 31
0.0
  0
LINE
  5
19C5E
330
1F
100
AcDbEntity
  8
0
  6
Continuous
 62
     7
370
    15
100
AcDbLine
 10
472.094946597536
 20
246.8603705889195
 30
0.0
 11
471.724633962736
 21
246.7055391142196
 31
0.0
  0
LINE
  5
19C5F
330
1F
100
AcDbEntity
  8
0
  6
Continuous
 62
     7
370
    15
100
AcDbLine
 10
470.8463571439357
 20
246.3383226537196
 30
0.0
 11
470.4760445091356
 21
246.1834911790194
 31
0.0
  0
LINE
  5
19C60
330
1F
100
AcDbEntity
  8
0
  6
Continuous
 62
     7
370
    15
100
AcDbLine
 10
466.6565876173359
 20
244.5865374500194
 30
0.0
 11
466.910569709236
 21
244.6927299428196
 31
0.0
  0
LINE
  5
19C61
330
1F
100
AcDbEntity
  8
0
  6
Continuous
 62
     7
370
    15
100
AcDbLine
 10
475.6604213973356
 20
248.3511318250195
 30
0.0
 11
475.9144034893357
 21
248.4573243179196
 31
0.0
  0
LINE
  5
19C62
330
1F
100
AcDbEntity
  8
0
  6
Continuous
 62
     7
370
    15
100
AcDbLine
 10
455.069866528736
 20
239.6823287378195
 30
0.0
 11
455.5018979360362
 21
239.8629654583194
 31
0.0
  0
LINE
  5
19C63
330
1F
100
AcDbEntity
  8
0
  6
Continuous
 62
     7
370
    15
100
AcDbLine
 10
456.9748319017358
 20
240.1912285927195
 30
0.0
 11
457.1312555282362
 21
240.2566309000195
 31
0.0
  0
LINE
  5
19C64
330
1F
100
AcDbEntity
  8
0
  6
Continuous
 62
     7
370
    15
100
AcDbLine
 10
455.2102759174364
 20
239.4389025481195
 30
0.0
 11
455.6423073248358
 21
239.6195392686196
 31
0.0
  0
LINE
  5
19C65
330
1F
100
AcDbEntity
  8
0
  6
Continuous
 62
     7
370
    15
100
AcDbLine
 10
455.6798803174357
 20
239.2600074850196
 30
0.0
 11
455.8363039439361
 21
239.3254097924195
 31
0.0
  0
LINE
  5
19C66
330
1F
100
AcDbEntity
  8
0
  6
Continuous
 62
     7
370
    15
100
AcDbLine
 10
475.8195078851364
 20
247.3757214967195
 30
0.0
 11
475.5655257932363
 21
247.2695290038195
 31
0.0
  0
LINE
  5
19C67
330
1F
100
AcDbEntity
  8
0
  6
Continuous
 62
     7
370
    15
100
AcDbLine
 10
466.8156741051358
 20
243.6111271217196
 30
0.0
 11
466.5616920132357
 21
243.5049346288194
 31
0.0
  0
LINE
  5
19C68
330
1F
100
AcDbEntity
  8
0
  6
Continuous
 62
     7
370
    15
100
AcDbLine
 10
470.3811489049363
 20
245.1018883578194
 30
0.0
 11
470.7514615398364
 21
245.2567198325195
 31
0.0
  0
LINE
  5
19C69
330
1F
100
AcDbEntity
  8
0
  6
Continuous
 62
     7
370
    15
100
AcDbLine
 10
471.6297383585357
 20
245.6239362930196
 30
0.0
 11
472.0000509934358
 21
245.7787677677195
 31
0.0
  0
LINE
  5
19C6A
330
1F
100
AcDbEntity
  8
0
  6
Continuous
 62
     7
370
    15
100
AcDbLine
 10
458.8661583489361
 20
240.2256529538195
 30
0.0
 11
458.8414790246357
 21
240.2153342775195
 31
0.0
  0
LINE
  5
19C6B
330
1F
100
AcDbEntity
  8
0
  6
Continuous
 62
     7
370
    15
100
AcDbLine
 10
456.5514726912357
 20
252.1731523092195
 30
0.0
 11
456.1024624981361
 21
246.9834235430196
 31
0.0
  0
LINE
  5
19C6C
330
1F
100
AcDbEntity
  8
0
  6
Continuous
 62
     7
370
    15
100
AcDbLine
 10
454.4840206286359
 20
242.0897865203194
 30
0.0
 11
454.4488275206364
 21
241.6886618814194
 31
0.0
  0
LINE
  5
19C6D
330
1F
100
AcDbEntity
  8
0
  6
Continuous
 62
     7
370
    15
100
AcDbLine
 10
454.4980869766365
 20
239.2712728280195
 30
0.0
 11
453.7047515768359
 21
230.2289803579195
 31
0.0
  0
LINE
  5
19C6E
330
1F
100
AcDbEntity
  8
0
  6
Continuous
 62
     7
370
    15
100
AcDbLine
 10
455.2979189975363
 20
246.3528924841196
 30
0.0
 11
455.2772871956364
 21
246.1177349619195
 31
0.0
  0
LINE
  5
19C6F
330
1F
100
AcDbEntity
  8
0
  6
Continuous
 62
     7
370
    15
100
AcDbLine
 10
455.3601239313362
 20
242.9906297747195
 30
0.0
 11
455.2794968750364
 21
242.0716572644195
 31
0.0
  0
LINE
  5
19C70
330
1F
100
AcDbEntity
  8
0
  6
Continuous
 62
     7
370
    15
100
AcDbLine
 10
455.1504935850358
 20
240.6013012481195
 30
0.0
 11
455.069866528736
 21
239.6823287378195
 31
0.0
  0
LINE
  5
19C71
330
1F
100
AcDbEntity
  8
0
  6
Continuous
 62
     7
370
    15
100
AcDbLine
 10
455.582524992336
 20
240.7819379686195
 30
0.0
 11
455.5018979360362
 21
239.8629654583194
 31
0.0
  0
LINE
  5
19C72
330
1F
100
AcDbEntity
  8
0
  6
Continuous
 62
     7
370
    15
100
AcDbLine
 10
455.7115282824358
 20
242.2522939849195
 30
0.0
 11
455.7789722129361
 21
243.0210076279195
 31
0.0
  0
LINE
  5
19C73
330
1F
100
AcDbEntity
  8
0
  6
Continuous
 62
     7
370
    15
100
AcDbLine
 10
456.3703628930357
 20
246.7827342252194
 30
0.0
 11
456.200890952036
 21
244.8511238924195
 31
0.0
  0
LINE
  5
19C74
330
1F
100
AcDbEntity
  8
0
  6
Continuous
 62
     7
370
    15
100
AcDbLine
 10
455.852540528636
 20
239.3841702994195
 30
0.0
 11
455.9331675849358
 21
240.3031428096195
 31
0.0
  0
LINE
  5
19C75
330
1F
100
AcDbEntity
  8
0
  6
Continuous
 62
     7
370
    15
100
AcDbLine
 10
456.0621708749364
 20
241.7734988260195
 30
0.0
 11
456.1427979312362
 21
242.6924713362196
 31
0.0
  0
LINE
  5
19C76
330
1F
100
AcDbEntity
  8
0
  6
Continuous
 62
     7
370
    15
100
AcDbLine
 10
474.5667290952357
 20
245.8394459567196
 30
0.0
 11
471.767976868136
 21
244.6692592175195
 31
0.0
  0
LINE
  5
19C77
330
1F
100
AcDbEntity
  8
0
  6
Continuous
 62
     7
370
    15
100
AcDbLine
 10
469.6609741097359
 20
243.7882999588196
 30
0.0
 11
466.583599979836
 21
242.5016185715195
 31
0.0
  0
LINE
  5
19C78
330
1F
100
AcDbEntity
  8
0
  6
Continuous
 62
     7
370
    15
100
AcDbLine
 10
471.3673493508364
 20
243.6901002887196
 30
0.0
 11
470.6815778628357
 21
243.4033722627196
 31
0.0
  0
LINE
  5
19C79
330
1F
100
AcDbEntity
  8
0
  6
Continuous
 62
     7
370
    15
100
AcDbLine
 10
466.9726537044359
 20
241.8280180915195
 30
0.0
 11
475.5745278295359
 21
245.4245490512196
 31
0.0
  0
LINE
  5
19C7A
330
1F
100
AcDbEntity
  8
0
  6
Continuous
 62
     7
370
    15
100
AcDbLine
 10
459.4661355982358
 20
248.3898094383195
 30
0.0
 11
459.9367229273362
 21
253.8289300550194
 31
0.0
  0
LINE
  5
19C7B
330
1F
100
AcDbEntity
  8
0
  6
Continuous
 62
     7
370
    15
100
AcDbLine
 10
457.1474921129362
 20
240.3153914070195
 30
0.0
 11
457.1958683467361
 21
240.8667749131195
 31
0.0
  0
LINE
  5
19C7C
330
1F
100
AcDbEntity
  8
0
  6
Continuous
 62
     7
370
    15
100
AcDbLine
 10
457.692390523936
 20
245.4407222941195
 30
0.0
 11
457.6717587380358
 21
245.2055649535195
 31
0.0
  0
LINE
  5
19C7D
330
1F
100
AcDbEntity
  8
0
  6
Continuous
 62
     7
370
    15
100
AcDbLine
 10
459.6081743480359
 20
258.9881605520196
 30
0.0
 11
459.3672238270361
 21
256.2418503761195
 31
0.0
  0
LINE
  5
19C7E
330
1F
100
AcDbEntity
  8
0
  6
Continuous
 62
     7
370
    15
100
AcDbLine
 10
459.2331584978361
 20
245.7907897891196
 30
0.0
 11
459.7283091038358
 21
250.9629414371196
 31
0.0
  0
LINE
  5
19C7F
330
1F
100
AcDbEntity
  8
0
  6
Continuous
 62
     7
370
    15
100
AcDbLine
 10
449.3307284275357
 20
231.4020884904195
 30
0.0
 11
452.3048898521361
 21
230.2690863385195
 31
0.0
  0
LINE
  5
19C80
330
1F
100
AcDbEntity
  8
0
  6
Continuous
 62
     7
370
    15
100
AcDbLine
 10
458.5662818514362
 20
227.8838188308195
 30
0.0
 11
461.540442826336
 21
226.7508168503195
 31
0.0
  0
LINE
  5
19C81
330
1F
100
AcDbEntity
  8
0
  6
Continuous
 62
     7
370
    15
100
AcDbLine
 10
453.7047515768359
 20
230.2289803579195
 30
0.0
 11
458.400795576336
 21
228.4400297271195
 31
0.0
  0
LINE
  5
19C82
330
1F
100
AcDbEntity
  8
0
  6
Continuous
 62
     7
370
    15
100
AcDbLine
 10
458.5662818514362
 20
227.8838188308195
 30
0.0
 11
458.400795576336
 21
228.4400297271195
 31
0.0
  0
LINE
  5
19C83
330
1F
100
AcDbEntity
  8
0
  6
Continuous
 62
     7
370
    15
100
AcDbLine
 10
459.513448953036
 20
241.1218503683195
 30
0.0
 11
458.400795576336
 21
228.4400297271195
 31
0.0
  0
LINE
  5
19C84
330
1F
100
AcDbEntity
  8
0
  6
Continuous
 62
     7
370
    15
100
AcDbLine
 10
460.0315603591358
 20
245.0082664538195
 30
0.0
 11
460.0557484760362
 21
245.2839582069195
 31
0.0
  0
LINE
  5
19C85
330
1F
100
AcDbEntity
  8
0
  6
Continuous
 62
     7
370
    15
100
AcDbLine
 10
459.2758773486362
 20
235.9716591344195
 30
0.0
 11
458.5662818514362
 21
227.8838188308195
 31
0.0
  0
LINE
  5
19C86
330
1F
100
AcDbEntity
  8
0
  6
Continuous
 62
     7
370
    15
100
AcDbLine
 10
460.1670390729365
 20
244.8348432672196
 30
0.0
 11
460.191227189836
 21
245.1105350203195
 31
0.0
  0
LINE
  5
19C87
330
1F
100
AcDbEntity
  8
0
  6
Continuous
 62
     7
370
    15
100
AcDbLine
 10
459.7947756206364
 20
240.1762918446196
 30
0.0
 11
459.3917177412364
 21
235.5823115070195
 31
0.0
  0
LINE
  5
19C88
330
1F
100
AcDbEntity
  8
0
  6
Continuous
 62
     7
370
    15
100
AcDbLine
 10
460.4960952817361
 20
244.7094898182195
 30
0.0
 11
460.5202833986364
 21
244.9851815712195
 31
0.0
  0
LINE
  5
19C89
330
1F
100
AcDbEntity
  8
0
  6
Continuous
 62
     7
370
    15
100
AcDbLine
 10
462.4382842261362
 20
253.4380692554194
 30
0.0
 11
463.2486447676361
 21
261.9027819290196
 31
0.0
  0
LINE
  5
19C8A
330
1F
100
AcDbEntity
  8
0
  6
Continuous
 62
     7
370
    15
100
AcDbLine
 10
464.8985528050358
 20
241.3593591191196
 30
0.0
 11
464.3377553441356
 21
240.4099345948195
 31
0.0
  0
LINE
  5
19C8B
330
1F
100
AcDbEntity
  8
0
  6
Continuous
 62
     7
370
    15
100
AcDbLine
 10
463.9874849278363
 20
240.5433695631196
 30
0.0
 11
464.4773173372365
 21
241.3608430370195
 31
0.0
  0
LINE
  5
19C8C
330
1F
100
AcDbEntity
  8
0
  6
Continuous
 62
     7
370
    15
100
AcDbLine
 10
463.1310620122364
 20
235.7410929310195
 30
0.0
 11
464.2383471640356
 21
236.2120013788195
 31
0.0
  0
LINE
  5
19C8D
330
1F
100
AcDbEntity
  8
0
  6
Continuous
 62
     7
370
    15
100
AcDbLine
 10
466.4940903189359
 20
236.2967089898196
 30
0.0
 11
475.1347438468362
 21
239.9094540118195
 31
0.0
  0
LINE
  5
19C8E
330
1F
100
AcDbEntity
  8
0
  6
Continuous
 62
     7
370
    15
100
AcDbLine
 10
470.0935000014356
 20
237.7573939922195
 30
0.0
 11
470.9717768201358
 21
238.1246104527195
 31
0.0
  0
LINE
  5
19C8F
330
1F
100
AcDbEntity
  8
0
  6
Continuous
 62
     7
370
    15
100
AcDbLine
 10
449.1327418452361
 20
242.2669913812195
 30
0.0
 11
448.9987353225357
 21
242.4342861491196
 31
0.0
  0
LINE
  5
19C90
330
1F
100
AcDbEntity
  8
0
  6
Continuous
 62
     7
370
    15
100
AcDbLine
 10
464.0410135835359
 20
252.8275120087195
 30
0.0
 11
464.7758609993358
 21
261.3209912896194
 31
0.0
  0
LINE
  5
19C91
330
1F
100
AcDbEntity
  8
0
  6
Continuous
 62
     7
370
    15
100
AcDbLine
 10
461.9647651390356
 20
244.2718151108195
 30
0.0
 11
461.9889532558359
 21
244.5475068638195
 31
0.0
  0
LINE
  5
19C92
330
1F
100
AcDbEntity
  8
0
  6
Continuous
 62
     7
370
    15
100
AcDbLine
 10
462.117210507036
 20
244.3355540679195
 30
0.0
 11
462.1413986239364
 21
244.6112458209195
 31
0.0
  0
LINE
  5
19C93
330
1F
100
AcDbEntity
  8
0
  6
Continuous
 62
     7
370
    15
100
AcDbLine
 10
462.3652097601357
 20
243.6606191006194
 30
0.0
 11
461.5832047162363
 21
234.7474679649195
 31
0.0
  0
LINE
  5
19C94
330
1F
100
AcDbEntity
  8
0
  6
Continuous
 62
     7
370
    15
100
AcDbLine
 10
462.2250930068363
 20
234.5543349743195
 30
0.0
 11
461.540442826336
 21
226.7508168503195
 31
0.0
  0
LINE
  5
19C95
330
1F
100
AcDbEntity
  8
0
  6
Continuous
 62
     7
370
    15
100
AcDbLine
 10
463.6299450125358
 20
241.4272705521195
 30
0.0
 11
463.1310620122364
 21
235.7410929310195
 31
0.0
  0
LINE
  5
19C96
330
1F
100
AcDbEntity
  8
0
  6
Continuous
 62
     7
370
    15
100
AcDbLine
 10
466.443656560436
 20
242.1595880252195
 30
0.0
 11
466.7551068064364
 21
242.9207920766196
 31
0.0
  0
LINE
  5
19C97
330
1F
100
AcDbEntity
  8
0
  6
Continuous
 62
     7
370
    15
100
AcDbLine
 10
470.8508362357357
 20
236.7461516873195
 30
0.0
 11
469.9725594170364
 21
236.3789352268196
 31
0.0
  0
LINE
  5
19C98
330
1F
100
AcDbEntity
  8
0
  6
Continuous
 62
     7
370
    15
100
AcDbLine
 10
453.7047515768359
 20
230.2289803579195
 30
0.0
 11
452.3048898521361
 21
230.2690863385195
 31
0.0
  0
LINE
  5
19C99
330
1F
100
AcDbEntity
  8
0
  6
Continuous
 62
     7
370
    15
100
AcDbLine
 10
468.7128299880356
 20
228.4988600098195
 30
0.0
 11
465.8684562612357
 21
229.5730739778195
 31
0.0
  0
LINE
  5
19C9A
330
1F
100
AcDbEntity
  8
0
  6
Continuous
 62
     7
370
    15
100
AcDbLine
 10
459.3917177412364
 20
235.5823115070195
 30
0.0
 11
459.2758773486362
 21
235.9716591344195
 31
0.0
  0
LINE
  5
19C9B
330
1F
100
AcDbEntity
  8
0
  6
Continuous
 62
     7
370
    15
100
AcDbLine
 10
459.7947756206364
 20
240.1762918446196
 30
0.0
 11
459.513448953036
 21
241.1218503683195
 31
0.0
  0
LINE
  5
19C9C
330
1F
100
AcDbEntity
  8
0
  6
Continuous
 62
     7
370
    15
100
AcDbLine
 10
464.017880015536
 20
236.7127664241196
 30
0.0
 11
464.3377553441356
 21
240.4099345948195
 31
0.0
  0
LINE
  5
19C9D
330
1F
100
AcDbEntity
  8
0
  6
Continuous
 62
     7
370
    15
100
AcDbLine
 10
464.8439678497358
 20
250.0100673729194
 30
0.0
 11
465.0835451744357
 21
252.7407261077195
 31
0.0
  0
LINE
  5
19C9E
330
1F
100
AcDbEntity
  8
0
  6
Continuous
 62
     7
370
    15
100
AcDbLine
 10
464.9345892316356
 20
241.3608712072195
 30
0.0
 11
464.4508079127359
 21
235.8468198018195
 31
0.0
  0
LINE
  5
19C9F
330
1F
100
AcDbEntity
  8
0
  6
Continuous
 62
     7
370
    15
100
AcDbLine
 10
465.2619968684363
 20
241.3746092289195
 30
0.0
 11
464.7664572337358
 21
235.7265386805195
 31
0.0
  0
LINE
  5
19CA0
330
1F
100
AcDbEntity
  8
0
  6
Continuous
 62
     7
370
    15
100
AcDbLine
 10
465.0204620802356
 20
234.4244926278196
 30
0.0
 11
464.3401662757356
 21
226.6706048890196
 31
0.0
  0
LINE
  5
19CA1
330
1F
100
AcDbEntity
  8
0
  6
Continuous
 62
     7
370
    15
100
AcDbLine
 10
464.4112541821365
 20
226.7003274649195
 30
0.0
 11
465.0899660852361
 21
234.4361621847195
 31
0.0
  0
LINE
  5
19CA2
330
1F
100
AcDbEntity
  8
0
  6
Continuous
 62
     7
370
    15
100
AcDbLine
 10
466.1725537153357
 20
241.5391818860195
 30
0.0
 11
465.9589217161361
 21
239.1042432478195
 31
0.0
  0
LINE
  5
19CA3
330
1F
100
AcDbEntity
  8
0
  6
Continuous
 62
     7
370
    15
100
AcDbLine
 10
463.6347391210362
 20
236.8587233498195
 30
0.0
 11
463.9874849278363
 21
240.5433695631196
 31
0.0
  0
LINE
  5
19CA4
330
1F
100
AcDbEntity
  8
0
  6
Continuous
 62
     7
370
    15
100
AcDbLine
 10
449.8430947174361
 20
239.2198445420195
 30
0.0
 11
452.0345821420356
 21
238.3850008286195
 31
0.0
  0
LINE
  5
19CA5
330
1F
100
AcDbEntity
  8
0
  6
Continuous
 62
     7
370
    15
100
AcDbLine
 10
461.5832047162363
 20
234.7474679649195
 30
0.0
 11
459.3917177412364
 21
235.5823115070195
 31
0.0
  0
LINE
  5
19CA6
330
1F
100
AcDbEntity
  8
0
  6
Continuous
 62
     7
370
    15
100
AcDbLine
 10
452.2802915445359
 20
248.0432951911194
 30
0.0
 11
452.7871568874358
 21
247.3570364719196
 31
0.0
  0
LINE
  5
19CA7
330
1F
100
AcDbEntity
  8
0
  6
Continuous
 62
     7
370
    15
100
AcDbLine
 10
452.3044796614364
 20
248.3189869442195
 30
0.0
 11
452.8113450043361
 21
247.6327282249194
 31
0.0
  0
LINE
  5
19CA8
330
1F
100
AcDbEntity
  8
0
  6
Continuous
 62
     7
370
    15
100
AcDbLine
 10
452.9913580845365
 20
247.7079935226195
 30
0.0
 11
452.637532387636
 21
248.1921110281195
 31
0.0
  0
LINE
  5
19CA9
330
1F
100
AcDbEntity
  8
0
  6
Continuous
 62
     7
370
    15
100
AcDbLine
 10
464.7758609993358
 20
261.3209912896194
 30
0.0
 11
464.750277266136
 21
261.7621005122195
 31
0.0
  0
LINE
  5
19CAA
330
1F
100
AcDbEntity
  8
0
  6
Continuous
 62
     7
370
    15
100
AcDbLine
 10
469.4572083310364
 20
254.9263000446195
 30
0.0
 11
469.9758834557356
 21
261.4307265814194
 31
0.0
  0
LINE
  5
19CAB
330
1F
100
AcDbEntity
  8
0
  6
Continuous
 62
     7
370
    15
100
AcDbLine
 10
466.5813209959357
 20
241.9770956759195
 30
0.0
 11
466.1027576103357
 21
236.4457865742195
 31
0.0
  0
LINE
  5
19CAC
330
1F
100
AcDbEntity
  8
0
  6
Continuous
 62
     7
370
    15
100
AcDbLine
 10
466.4940903189359
 20
236.2967089898196
 30
0.0
 11
466.9726537044359
 21
241.8280180915195
 31
0.0
  0
LINE
  5
19CAD
330
1F
100
AcDbEntity
  8
0
  6
Continuous
 62
     7
370
    15
100
AcDbLine
 10
466.5356363828364
 20
244.5396445506194
 30
0.0
 11
466.4407457813364
 21
243.4580987488196
 31
0.0
  0
LINE
  5
19CAE
330
1F
100
AcDbEntity
  8
0
  6
Continuous
 62
     7
370
    15
100
AcDbLine
 10
466.0497043926357
 20
239.0010801847195
 30
0.0
 11
465.6618411572359
 21
234.5802856335195
 31
0.0
  0
LINE
  5
19CAF
330
1F
100
AcDbEntity
  8
0
  6
Continuous
 62
     7
370
    15
100
AcDbLine
 10
466.443656560436
 20
242.1595880252195
 30
0.0
 11
466.5616920132357
 21
243.5049346288194
 31
0.0
  0
LINE
  5
19CB0
330
1F
100
AcDbEntity
  8
0
  6
Continuous
 62
     7
370
    15
100
AcDbLine
 10
466.6565876173359
 20
244.5865374500194
 30
0.0
 11
467.0404945663364
 21
248.9622389691195
 31
0.0
  0
LINE
  5
19CB1
330
1F
100
AcDbEntity
  8
0
  6
Continuous
 62
     7
370
    15
100
AcDbLine
 10
467.2944766583364
 20
249.0684314620195
 30
0.0
 11
466.910569709236
 21
244.6927299428196
 31
0.0
  0
LINE
  5
19CB2
330
1F
100
AcDbEntity
  8
0
  6
Continuous
 62
     7
370
    15
100
AcDbLine
 10
466.8156741051358
 20
243.6111271217196
 30
0.0
 11
466.7551068064364
 21
242.9207920766196
 31
0.0
  0
LINE
  5
19CB3
330
1F
100
AcDbEntity
  8
0
  6
Continuous
 62
     7
370
    15
100
AcDbLine
 10
466.3925321270359
 20
235.5463952943195
 30
0.0
 11
465.8684562612357
 21
229.5730739778195
 31
0.0
  0
LINE
  5
19CB4
330
1F
100
AcDbEntity
  8
0
  6
Continuous
 62
     7
370
    15
100
AcDbLine
 10
471.3673493508364
 20
243.6901002887196
 30
0.0
 11
471.9394836947364
 21
245.0884327226194
 31
0.0
  0
LINE
  5
19CB5
330
1F
100
AcDbEntity
  8
0
  6
Continuous
 62
     7
370
    15
100
AcDbLine
 10
466.1027576103357
 20
236.4457865742195
 30
0.0
 11
465.8262080632363
 21
236.4537097073195
 31
0.0
  0
LINE
  5
19CB6
330
1F
100
AcDbEntity
  8
0
  6
Continuous
 62
     7
370
    15
100
AcDbLine
 10
473.8972068763356
 20
230.6665006559195
 30
0.0
 11
471.0528331495358
 21
231.7407146238195
 31
0.0
  0
LINE
  5
19CB7
330
1F
100
AcDbEntity
  8
0
  6
Continuous
 62
     7
370
    15
100
AcDbLine
 10
465.7673200284358
 20
235.7825146069195
 30
0.0
 11
466.3925321270359
 21
235.5463952943195
 31
0.0
  0
LINE
  5
19CB8
330
1F
100
AcDbEntity
  8
0
  6
Continuous
 62
     7
370
    15
100
AcDbLine
 10
448.8731592875361
 20
241.7828282744195
 30
0.0
 11
449.083239719636
 21
241.7027751641195
 31
0.0
  0
LINE
  5
19CB9
330
1F
100
AcDbEntity
  8
0
  6
Continuous
 62
     7
370
    15
100
AcDbLine
 10
464.7664572337358
 20
235.7265386805195
 30
0.0
 11
464.4508079127359
 21
235.8468198018195
 31
0.0
  0
LINE
  5
19CBA
330
1F
100
AcDbEntity
  8
0
  6
Continuous
 62
     7
370
    15
100
AcDbLine
 10
455.2102759174364
 20
239.4389025481195
 30
0.0
 11
455.6798803174357
 21
239.2600074850196
 31
0.0
  0
LINE
  5
19CBB
330
1F
100
AcDbEntity
  8
0
  6
Continuous
 62
     7
370
    15
100
AcDbLine
 10
464.474939895436
 20
236.1218717472195
 30
0.0
 11
464.1548259517363
 21
236.2438186543196
 31
0.0
  0
LINE
  5
19CBC
330
1F
100
AcDbEntity
  8
0
  6
Continuous
 62
     7
370
    15
100
AcDbLine
 10
464.4761045436358
 20
236.1467773977195
 30
0.0
 11
464.0859754483359
 21
236.2953964676195
 31
0.0
  0
LINE
  5
19CBD
330
1F
100
AcDbEntity
  8
0
  6
Continuous
 62
     7
370
    15
100
AcDbLine
 10
455.6423073248358
 20
239.6195392686196
 30
0.0
 11
455.8657236543364
 21
239.5344291666195
 31
0.0
  0
LINE
  5
19CBE
330
1F
100
AcDbEntity
  8
0
  6
Continuous
 62
     7
370
    15
100
AcDbLine
 10
464.017880015536
 20
236.7127664241196
 30
0.0
 11
464.4761045436358
 21
236.1467773977195
 31
0.0
  0
LINE
  5
19CBF
330
1F
100
AcDbEntity
  8
0
  6
Continuous
 62
     7
370
    15
100
AcDbLine
 10
464.0859754483359
 20
236.2953964676195
 30
0.0
 11
463.6347391210362
 21
236.8587233498195
 31
0.0
  0
LINE
  5
19CC0
330
1F
100
AcDbEntity
  8
0
  6
Continuous
 62
     7
370
    15
100
AcDbLine
 10
470.0283447380358
 20
252.1777080190196
 30
0.0
 11
470.2679220627357
 21
254.9083667538194
 31
0.0
  0
LINE
  5
19CC1
330
1F
100
AcDbEntity
  8
0
  6
Continuous
 62
     7
370
    15
100
AcDbLine
 10
469.5296714045358
 20
243.7334009638195
 30
0.0
 11
469.5390076143363
 21
243.8398133834196
 31
0.0
  0
LINE
  5
19CC2
330
1F
100
AcDbEntity
  8
0
  6
Continuous
 62
     7
370
    15
100
AcDbLine
 10
468.7128299880356
 20
228.4988600098195
 30
0.0
 11
469.4224254852357
 21
236.5867003135195
 31
0.0
  0
LINE
  5
19CC3
330
1F
100
AcDbEntity
  8
0
  6
Continuous
 62
     7
370
    15
100
AcDbLine
 10
470.320581606236
 20
244.4115533127194
 30
0.0
 11
470.3811489049363
 21
245.1018883578194
 31
0.0
  0
LINE
  5
19CC4
330
1F
100
AcDbEntity
  8
0
  6
Continuous
 62
     7
370
    15
100
AcDbLine
 10
470.4760445091356
 20
246.1834911790194
 30
0.0
 11
470.6504762212358
 21
248.1716320804195
 31
0.0
  0
LINE
  5
19CC5
330
1F
100
AcDbEntity
  8
0
  6
Continuous
 62
     7
370
    15
100
AcDbLine
 10
469.9725594170364
 20
236.3789352268196
 30
0.0
 11
470.0935000014356
 21
237.7573939922195
 31
0.0
  0
LINE
  5
19CC6
330
1F
100
AcDbEntity
  8
0
  6
Continuous
 62
     7
370
    15
100
AcDbLine
 10
470.7514615398364
 20
245.2567198325195
 30
0.0
 11
470.8463571439357
 21
246.3383226537196
 31
0.0
  0
LINE
  5
19CC7
330
1F
100
AcDbEntity
  8
0
  6
Continuous
 62
     7
370
    15
100
AcDbLine
 10
469.5956310704365
 20
228.8679681109195
 30
0.0
 11
470.2653546803364
 21
236.5013559010195
 31
0.0
  0
LINE
  5
19CC8
330
1F
100
AcDbEntity
  8
0
  6
Continuous
 62
     7
370
    15
100
AcDbLine
 10
473.9430712500357
 20
230.6856770165194
 30
0.0
 11
473.8972068763356
 21
230.6665006559195
 31
0.0
  0
LINE
  5
19CC9
330
1F
100
AcDbEntity
  8
0
  6
Continuous
 62
     7
370
    15
100
AcDbLine
 10
464.3401662757356
 20
226.6706048890196
 30
0.0
 11
464.4112541821365
 21
226.7003274649195
 31
0.0
  0
LINE
  5
19CCA
330
1F
100
AcDbEntity
  8
0
  6
Continuous
 62
     7
370
    15
100
AcDbLine
 10
468.7128299880356
 20
228.4988600098195
 30
0.0
 11
469.5956310704365
 21
228.8679681109195
 31
0.0
  0
LINE
  5
19CCB
330
1F
100
AcDbEntity
  8
0
  6
Continuous
 62
     7
370
    15
100
AcDbLine
 10
453.0144853493363
 20
238.3569266422195
 30
0.0
 11
452.0345821420356
 21
238.3850008286195
 31
0.0
  0
LINE
  5
19CCC
330
1F
100
AcDbEntity
  8
0
  6
Continuous
 62
     7
370
    15
100
AcDbLine
 10
469.9725594170364
 20
236.3789352268196
 30
0.0
 11
469.4224254852357
 21
236.5867003135195
 31
0.0
  0
LINE
  5
19CCD
330
1F
100
AcDbEntity
  8
0
  6
Continuous
 62
     7
370
    15
100
AcDbLine
 10
464.017880015536
 20
236.7127664241196
 30
0.0
 11
463.6347391210362
 21
236.8587233498195
 31
0.0
  0
LINE
  5
19CCE
330
1F
100
AcDbEntity
  8
0
  6
Continuous
 62
     7
370
    15
100
AcDbLine
 10
449.1426108917363
 20
242.3794769757195
 30
0.0
 11
448.9987353225357
 21
242.4342861491196
 31
0.0
  0
LINE
  5
19CCF
330
1F
100
AcDbEntity
  8
0
  6
Continuous
 62
     7
370
    15
100
AcDbLine
 10
466.4940903189359
 20
236.2967089898196
 30
0.0
 11
466.1027576103357
 21
236.4457865742195
 31
0.0
  0
LINE
  5
19CD0
330
1F
100
AcDbEntity
  8
0
  6
Continuous
 62
     7
370
    15
100
AcDbLine
 10
454.1572055019356
 20
241.2645989711195
 30
0.0
 11
454.9398795019357
 21
240.9664405327195
 31
0.0
  0
LINE
  5
19CD1
330
1F
100
AcDbEntity
  8
0
  6
Continuous
 62
     7
370
    15
100
AcDbLine
 10
456.1921579017358
 20
240.4893870311195
 30
0.0
 11
456.9748319017358
 21
240.1912285927195
 31
0.0
  0
LINE
  5
19CD2
330
1F
100
AcDbEntity
  8
0
  6
Continuous
 62
     7
370
    15
100
AcDbLine
 10
456.6241893091361
 20
240.6700237516195
 30
0.0
 11
457.1606752386356
 21
240.4656502743195
 31
0.0
  0
LINE
  5
19CD3
330
1F
100
AcDbEntity
  8
0
  6
Continuous
 62
     7
370
    15
100
AcDbLine
 10
455.3719109092359
 20
241.1470772532195
 30
0.0
 11
454.5892369093358
 21
241.4452356916195
 31
0.0
  0
LINE
  5
19CD4
330
1F
100
AcDbEntity
  8
0
  6
Continuous
 62
     7
370
    15
100
AcDbLine
 10
457.0554589580357
 20
241.1102011029195
 30
0.0
 11
456.2727849580356
 21
241.4083595414195
 31
0.0
  0
LINE
  5
19CD5
330
1F
100
AcDbEntity
  8
0
  6
Continuous
 62
     7
370
    15
100
AcDbLine
 10
455.0205065582364
 20
241.8854130429195
 30
0.0
 11
454.2378325582363
 21
242.1835714814195
 31
0.0
  0
LINE
  5
19CD6
330
1F
100
AcDbEntity
  8
0
  6
Continuous
 62
     7
370
    15
100
AcDbLine
 10
460.0315603591358
 20
245.0082664538195
 30
0.0
 11
460.1670390729365
 21
244.8348432672196
 31
0.0
  0
LINE
  5
19CD7
330
1F
100
AcDbEntity
  8
0
  6
Continuous
 62
     7
370
    15
100
AcDbLine
 10
460.0557484760362
 20
245.2839582069195
 30
0.0
 11
460.191227189836
 21
245.1105350203195
 31
0.0
  0
LINE
  5
19CD8
330
1F
100
AcDbEntity
  8
0
  6
Continuous
 62
     7
370
    15
100
AcDbLine
 10
460.5202833986364
 20
244.9851815712195
 30
0.0
 11
460.3848045695364
 21
245.1586048017195
 31
0.0
  0
LINE
  5
19CD9
330
1F
100
AcDbEntity
  8
0
  6
Continuous
 62
     7
370
    15
100
AcDbLine
 10
471.724633962736
 20
246.7055391142196
 30
0.0
 11
471.6297383585357
 21
245.6239362930196
 31
0.0
  0
LINE
  5
19CDA
330
1F
100
AcDbEntity
  8
0
  6
Continuous
 62
     7
370
    15
100
AcDbLine
 10
470.9717768201358
 20
238.1246104527195
 30
0.0
 11
470.8508362357357
 21
236.7461516873195
 31
0.0
  0
LINE
  5
19CDB
330
1F
100
AcDbEntity
  8
0
  6
Continuous
 62
     7
370
    15
100
AcDbLine
 10
472.2693783097362
 20
248.8485114903195
 30
0.0
 11
472.094946597536
 21
246.8603705889195
 31
0.0
  0
LINE
  5
19CDC
330
1F
100
AcDbEntity
  8
0
  6
Continuous
 62
     7
370
    15
100
AcDbLine
 10
472.0000509934358
 20
245.7787677677195
 30
0.0
 11
471.9394836947364
 21
245.0884327226194
 31
0.0
  0
LINE
  5
19CDD
330
1F
100
AcDbEntity
  8
0
  6
Continuous
 62
     7
370
    15
100
AcDbLine
 10
471.5769090153359
 20
237.7140359403195
 30
0.0
 11
471.0528331495358
 21
231.7407146238195
 31
0.0
  0
LINE
  5
19CDE
330
1F
100
AcDbEntity
  8
0
  6
Continuous
 62
     7
370
    15
100
AcDbLine
 10
470.0378751452359
 20
237.7784014276195
 30
0.0
 11
470.0935000014356
 21
237.7573939922195
 31
0.0
  0
LINE
  5
19CDF
330
1F
100
AcDbEntity
  8
0
  6
Continuous
 62
     7
370
    15
100
AcDbLine
 10
470.9563176949365
 20
237.9484101572195
 30
0.0
 11
471.5769090153359
 21
237.7140359403195
 31
0.0
  0
LINE
  5
19CE0
330
1F
100
AcDbEntity
  8
0
  6
Continuous
 62
     7
370
    15
100
AcDbLine
 10
456.0023885425358
 20
242.9358975259194
 30
0.0
 11
455.5327841425357
 21
243.1147925890195
 31
0.0
  0
LINE
  5
19CE1
330
1F
100
AcDbEntity
  8
0
  6
Continuous
 62
     7
370
    15
100
AcDbLine
 10
449.3514811292357
 20
246.1189323625194
 30
0.0
 11
449.4668404458358
 21
246.0749864109196
 31
0.0
  0
LINE
  5
19CE2
330
1F
100
AcDbEntity
  8
0
  6
Continuous
 62
     7
370
    15
100
AcDbLine
 10
463.9874849278363
 20
240.5433695631196
 30
0.0
 11
464.3377553441356
 21
240.4099345948195
 31
0.0
  0
LINE
  5
19CE3
330
1F
100
AcDbEntity
  8
0
  6
Continuous
 62
     7
370
    15
100
AcDbLine
 10
470.9166094190364
 20
238.1458091547195
 30
0.0
 11
470.9717768201358
 21
238.1246104527195
 31
0.0
  0
LINE
  5
19CE4
330
1F
100
AcDbEntity
  8
0
  6
Continuous
 62
     7
370
    15
100
AcDbLine
 10
475.5745278295359
 20
245.4245490512196
 30
0.0
 11
475.1347438468362
 21
239.9094540118195
 31
0.0
  0
LINE
  5
19CE5
330
1F
100
AcDbEntity
  8
0
  6
Continuous
 62
     7
370
    15
100
AcDbLine
 10
474.459522028536
 20
245.7946215930194
 30
0.0
 11
474.4860246593358
 21
246.0966937543194
 31
0.0
  0
LINE
  5
19CE6
330
1F
100
AcDbEntity
  8
0
  6
Continuous
 62
     7
370
    15
100
AcDbLine
 10
474.6766804110363
 20
246.0509555077194
 30
0.0
 11
474.6625995104365
 21
245.8904639657196
 31
0.0
  0
LINE
  5
19CE7
330
1F
100
AcDbEntity
  8
0
  6
Continuous
 62
     7
370
    15
100
AcDbLine
 10
474.6109396016359
 20
238.8014963328195
 30
0.0
 11
473.8972068763356
 21
230.6665006559195
 31
0.0
  0
LINE
  5
19CE8
330
1F
100
AcDbEntity
  8
0
  6
Continuous
 62
     7
370
    15
100
AcDbLine
 10
474.6537274880362
 20
238.7856074500195
 30
0.0
 11
473.9430712500357
 21
230.6856770165194
 31
0.0
  0
LINE
  5
19CE9
330
1F
100
AcDbEntity
  8
0
  6
Continuous
 62
     7
370
    15
100
AcDbLine
 10
475.504958494536
 20
246.5791939588195
 30
0.0
 11
475.5655257932363
 21
247.2695290038195
 31
0.0
  0
LINE
  5
19CEA
330
1F
100
AcDbEntity
  8
0
  6
Continuous
 62
     7
370
    15
100
AcDbLine
 10
475.6604213973356
 20
248.3511318250195
 30
0.0
 11
476.0443283464361
 21
252.7268333442195
 31
0.0
  0
LINE
  5
19CEB
330
1F
100
AcDbEntity
  8
0
  6
Continuous
 62
     7
370
    15
100
AcDbLine
 10
475.031438039036
 20
238.6453481570195
 30
0.0
 11
474.3700697853361
 21
231.1071931954195
 31
0.0
  0
LINE
  5
19CEC
330
1F
100
AcDbEntity
  8
0
  6
Continuous
 62
     7
370
    15
100
AcDbLine
 10
475.7014724324359
 20
246.0303748931194
 30
0.0
 11
475.8195078851364
 21
247.3757214967195
 31
0.0
  0
LINE
  5
19CED
330
1F
100
AcDbEntity
  8
0
  6
Continuous
 62
     7
370
    15
100
AcDbLine
 10
475.9144034893357
 20
248.4573243179196
 30
0.0
 11
476.2983104383362
 21
252.8330258370196
 31
0.0
  0
LINE
  5
19CEE
330
1F
100
AcDbEntity
  8
0
  6
Continuous
 62
     7
370
    15
100
AcDbLine
 10
476.0260750461362
 20
248.5076933708195
 30
0.0
 11
475.9311844446362
 21
247.4261475691196
 31
0.0
  0
LINE
  5
19CEF
330
1F
100
AcDbEntity
  8
0
  6
Continuous
 62
     7
370
    15
100
AcDbLine
 10
475.2687901617361
 20
239.8762981145195
 30
0.0
 11
475.1567100635362
 21
238.5988295582195
 31
0.0
  0
LINE
  5
19CF0
330
1F
100
AcDbEntity
  8
0
  6
Continuous
 62
     7
370
    15
100
AcDbLine
 10
466.3690323873358
 20
241.9831777358195
 30
0.0
 11
466.5813209959357
 21
241.9770956759195
 31
0.0
  0
LINE
  5
19CF1
330
1F
100
AcDbEntity
  8
0
  6
Continuous
 62
     7
370
    15
100
AcDbLine
 10
453.745920103836
 20
242.9414989958195
 30
0.0
 11
452.4376400215357
 21
242.9789811661194
 31
0.0
  0
LINE
  5
19CF2
330
1F
100
AcDbEntity
  8
0
  6
Continuous
 62
     7
370
    15
100
AcDbLine
 10
474.6109396016359
 20
238.8014963328195
 30
0.0
 11
475.1567100635362
 21
238.5988295582195
 31
0.0
  0
LINE
  5
19CF3
330
1F
100
AcDbEntity
  8
0
  6
Continuous
 62
     7
370
    15
100
AcDbLine
 10
466.9726537044359
 20
241.8280180915195
 30
0.0
 11
466.5813209959357
 21
241.9770956759195
 31
0.0
  0
LINE
  5
19CF4
330
1F
100
AcDbEntity
  8
0
  6
Continuous
 62
     7
370
    15
100
AcDbLine
 10
450.6250997613356
 20
248.1329956776195
 30
0.0
 11
455.2979189975363
 21
246.3528924841196
 31
0.0
  0
LINE
  5
19CF5
330
1F
100
AcDbEntity
  8
0
  6
Continuous
 62
     7
370
    15
100
AcDbLine
 10
462.3652097601357
 20
243.6606191006194
 30
0.0
 11
457.692390523936
 21
245.4407222941195
 31
0.0
  0
LINE
  5
19CF6
330
1F
100
AcDbEntity
  8
0
  6
Continuous
 62
     7
370
    15
100
AcDbLine
 10
452.7871568874358
 20
247.3570364719196
 30
0.0
 11
453.0369464903357
 21
247.2618795125195
 31
0.0
  0
LINE
  5
19CF7
330
1F
100
AcDbEntity
  8
0
  6
Continuous
 62
     7
370
    15
100
AcDbLine
 10
452.8113450043361
 20
247.6327282249194
 30
0.0
 11
453.0611346072361
 21
247.5375712656195
 31
0.0
  0
LINE
  5
19CF8
330
1F
100
AcDbEntity
  8
0
  6
Continuous
 62
     7
370
    15
100
AcDbLine
 10
460.1670390729365
 20
244.8348432672196
 30
0.0
 11
460.4960952817361
 21
244.7094898182195
 31
0.0
  0
LINE
  5
19CF9
330
1F
100
AcDbEntity
  8
0
  6
Continuous
 62
     7
370
    15
100
AcDbLine
 10
460.506437008336
 20
244.8273629356195
 30
0.0
 11
461.9647651390356
 21
244.2718151108195
 31
0.0
  0
LINE
  5
19CFA
330
1F
100
AcDbEntity
  8
0
  6
Continuous
 62
     7
370
    15
100
AcDbLine
 10
452.9261066828363
 20
247.7972729224195
 30
0.0
 11
453.0719804323358
 21
247.7417025452196
 31
0.0
  0
LINE
  5
19CFB
330
1F
100
AcDbEntity
  8
0
  6
Continuous
 62
     7
370
    15
100
AcDbLine
 10
453.6541342151364
 20
247.5199319704195
 30
0.0
 11
454.236976544336
 21
247.2978990950196
 31
0.0
  0
LINE
  5
19CFC
330
1F
100
AcDbEntity
  8
0
  6
Continuous
 62
     7
370
    15
100
AcDbLine
 10
460.191227189836
 20
245.1105350203195
 30
0.0
 11
460.5202833986364
 21
244.9851815712195
 31
0.0
  0
LINE
  5
19CFD
330
1F
100
AcDbEntity
  8
0
  6
Continuous
 62
     7
370
    15
100
AcDbLine
 10
460.3848045695364
 20
245.1586048017195
 30
0.0
 11
461.9889532558359
 21
244.5475068638195
 31
0.0
  0
LINE
  5
19CFE
330
1F
100
AcDbEntity
  8
0
  6
Continuous
 62
     7
370
    15
100
AcDbLine
 10
452.637532387636
 20
248.1921110281195
 30
0.0
 11
453.4285327290359
 21
247.8907806828194
 31
0.0
  0
LINE
  5
19CFF
330
1F
100
AcDbEntity
  8
0
  6
Continuous
 62
     7
370
    15
100
AcDbLine
 10
453.6783223320359
 20
247.7956237235196
 30
0.0
 11
454.2611646612364
 21
247.5735908480194
 31
0.0
  0
LINE
  5
19D00
330
1F
100
AcDbEntity
  8
0
  6
Continuous
 62
     7
370
    15
100
AcDbLine
 10
458.7183848928358
 20
245.8882589098196
 30
0.0
 11
456.3703628930357
 21
246.7827342252194
 31
0.0
  0
LINE
  5
19D01
330
1F
100
AcDbEntity
  8
0
  6
Continuous
 62
     7
370
    15
100
AcDbLine
 10
462.1413986239364
 20
244.6112458209195
 30
0.0
 11
460.2081938441357
 21
245.3476971640196
 31
0.0
  0
LINE
  5
19D02
330
1F
100
AcDbEntity
  8
0
  6
Continuous
 62
     7
370
    15
100
AcDbLine
 10
449.6132681067361
 20
249.4554720164195
 30
0.0
 11
452.4437338185358
 21
248.3772105220194
 31
0.0
  0
LINE
  5
19D03
330
1F
100
AcDbEntity
  8
0
  6
Continuous
 62
     7
370
    15
100
AcDbLine
 10
454.4114628713356
 20
247.6276072110195
 30
0.0
 11
456.1024624981361
 21
246.9834235430196
 31
0.0
  0
LINE
  5
19D04
330
1F
100
AcDbEntity
  8
0
  6
Continuous
 62
     7
370
    15
100
AcDbLine
 10
465.722352889136
 20
243.3187413157195
 30
0.0
 11
459.2331584978361
 21
245.7907897891196
 31
0.0
  0
LINE
  5
19D05
330
1F
100
AcDbEntity
  8
0
  6
Continuous
 62
     7
370
    15
100
AcDbLine
 10
454.4154615924359
 20
247.6381039625196
 30
0.0
 11
453.8326192632363
 21
247.8601368379195
 31
0.0
  0
LINE
  5
19D06
330
1F
100
AcDbEntity
  8
0
  6
Continuous
 62
     7
370
    15
100
AcDbLine
 10
453.5828296602363
 20
247.9552937973194
 30
0.0
 11
452.4587765926359
 21
248.3835000587195
 31
0.0
  0
LINE
  5
19D07
330
1F
100
AcDbEntity
  8
0
  6
Continuous
 62
     7
370
    15
100
AcDbLine
 10
469.5412898157361
 20
243.8334397101196
 30
0.0
 11
469.5390076143363
 21
243.8398133834196
 31
0.0
  0
LINE
  5
19D08
330
1F
100
AcDbEntity
  8
0
  6
Continuous
 62
     7
370
    15
100
AcDbLine
 10
470.320581606236
 20
244.4115533127194
 30
0.0
 11
470.6815778628357
 21
243.4033722627196
 31
0.0
  0
LINE
  5
19D09
330
1F
100
AcDbEntity
  8
0
  6
Continuous
 62
     7
370
    15
100
AcDbLine
 10
476.2053647377357
 20
245.9355132633195
 30
0.0
 11
475.7755412451357
 21
240.5453273874194
 31
0.0
  0
LINE
  5
19D0A
330
1F
100
AcDbEntity
  8
0
  6
Continuous
 62
     7
370
    15
100
AcDbLine
 10
476.4631086092363
 20
248.0433622951194
 30
0.0
 11
476.2980538045363
 21
246.1620976780195
 31
0.0
  0
LINE
  5
19D0B
330
1F
100
AcDbEntity
  8
0
  6
Continuous
 62
     7
370
    15
100
AcDbLine
 10
475.7978577620357
 20
240.4609542404195
 30
0.0
 11
475.6852899529364
 21
239.1779268439195
 31
0.0
  0
LINE
  5
19D0C
330
1F
100
AcDbEntity
  8
0
  6
Continuous
 62
     7
370
    15
100
AcDbLine
 10
466.9220606771365
 20
244.8237019022194
 30
0.0
 11
469.5390076143363
 21
243.8398133834196
 31
0.0
  0
LINE
  5
19D0D
330
1F
100
AcDbEntity
  8
0
  6
Continuous
 62
     7
370
    15
100
AcDbLine
 10
470.6815778628357
 20
243.4033722627196
 30
0.0
 11
469.5412898157361
 21
243.8334397101196
 31
0.0
  0
LINE
  5
19D0E
330
1F
100
AcDbEntity
  8
0
  6
Continuous
 62
     7
370
    15
100
AcDbLine
 10
454.0897807907364
 20
247.9676586851195
 30
0.0
 11
453.8399911877364
 21
248.0628156445194
 31
0.0
  0
LINE
  5
19D0F
330
1F
100
AcDbEntity
  8
0
  6
Continuous
 62
     7
370
    15
100
AcDbLine
 10
475.1550547910361
 20
239.9199715404195
 30
0.0
 11
475.2687901617361
 21
239.8762981145195
 31
0.0
  0
LINE
  5
19D10
330
1F
100
AcDbEntity
  8
0
  6
Continuous
 62
     7
370
    15
100
AcDbLine
 10
466.8156741051358
 20
243.6111271217196
 30
0.0
 11
466.4661513589359
 21
243.7476668972194
 31
0.0
  0
LINE
  5
19D11
330
1F
100
AcDbEntity
  8
0
  6
Continuous
 62
     7
370
    15
100
AcDbLine
 10
470.6504762212358
 20
248.1716320804195
 30
0.0
 11
469.6810930328362
 21
251.0044035980196
 31
0.0
  0
LINE
  5
19D12
330
1F
100
AcDbEntity
  8
0
  6
Continuous
 62
     7
370
    15
100
AcDbLine
 10
470.4760445091356
 20
246.1834911790194
 30
0.0
 11
467.1497343904362
 21
247.4186854412196
 31
0.0
  0
LINE
  5
19D13
330
1F
100
AcDbEntity
  8
0
  6
Continuous
 62
     7
370
    15
100
AcDbLine
 10
470.320581606236
 20
244.4115533127194
 30
0.0
 11
466.995578813036
 21
245.6616482331194
 31
0.0
  0
LINE
  5
19D14
330
1F
100
AcDbEntity
  8
0
  6
Continuous
 62
     7
370
    15
100
AcDbLine
 10
459.4661355982358
 20
248.3898094383195
 30
0.0
 11
459.4814157036359
 21
248.3839885060195
 31
0.0
  0
LINE
  5
19D15
330
1F
100
AcDbEntity
  8
0
  6
Continuous
 62
     7
370
    15
100
AcDbLine
 10
470.3811489049363
 20
245.1018883578194
 30
0.0
 11
467.0584104660362
 21
246.3777919752194
 31
0.0
  0
LINE
  5
19D16
330
1F
100
AcDbEntity
  8
0
  6
Continuous
 62
     7
370
    15
100
AcDbLine
 10
470.7514615398364
 20
245.2567198325195
 30
0.0
 11
467.0836212293358
 21
246.6651396664194
 31
0.0
  0
LINE
  5
19D17
330
1F
100
AcDbEntity
  8
0
  6
Continuous
 62
     7
370
    15
100
AcDbLine
 10
472.0000509934358
 20
245.7787677677195
 30
0.0
 11
471.6551439361361
 21
245.9135044414195
 31
0.0
  0
LINE
  5
19D18
330
1F
100
AcDbEntity
  8
0
  6
Continuous
 62
     7
370
    15
100
AcDbLine
 10
471.3096899720364
 20
251.6853365235196
 30
0.0
 11
472.2693783097362
 21
248.8485114903195
 31
0.0
  0
LINE
  5
19D19
330
1F
100
AcDbEntity
  8
0
  6
Continuous
 62
     7
370
    15
100
AcDbLine
 10
474.4763921645358
 20
246.1256058079195
 30
0.0
 11
475.837973824036
 21
245.6181248079194
 31
0.0
  0
LINE
  5
19D1A
330
1F
100
AcDbEntity
  8
0
  6
Continuous
 62
     7
370
    15
100
AcDbLine
 10
472.1064375654365
 20
246.9913425483196
 30
0.0
 11
474.4860246593358
 21
246.0966937543194
 31
0.0
  0
LINE
  5
19D1B
330
1F
100
AcDbEntity
  8
0
  6
Continuous
 62
     7
370
    15
100
AcDbLine
 10
475.504958494536
 20
246.5791939588195
 30
0.0
 11
472.1799557013361
 21
247.8292888791195
 31
0.0
  0
LINE
  5
19D1C
330
1F
100
AcDbEntity
  8
0
  6
Continuous
 62
     7
370
    15
100
AcDbLine
 10
450.8583226599363
 20
255.3297586699194
 30
0.0
 11
456.6347289436358
 21
253.1482252603194
 31
0.0
  0
LINE
  5
19D1D
330
1F
100
AcDbEntity
  8
0
  6
Continuous
 62
     7
370
    15
100
AcDbLine
 10
450.0763963213363
 20
254.6398225444196
 30
0.0
 11
456.5514726912357
 21
252.1731523092195
 31
0.0
  0
LINE
  5
19D1E
330
1F
100
AcDbEntity
  8
0
  6
Continuous
 62
     7
370
    15
100
AcDbLine
 10
459.7283091038358
 20
250.9629414371196
 30
0.0
 11
466.2033854738361
 21
248.4962712019195
 31
0.0
  0
LINE
  5
19D1F
330
1F
100
AcDbEntity
  8
0
  6
Continuous
 62
     7
370
    15
100
AcDbLine
 10
466.4617184687364
 20
248.7881867424195
 30
0.0
 11
459.9181932899361
 21
251.2809324444196
 31
0.0
  0
LINE
  5
19D20
330
1F
100
AcDbEntity
  8
0
  6
Continuous
 62
     7
370
    15
100
AcDbLine
 10
456.7391396049357
 20
252.4919879831194
 30
0.0
 11
450.1956144261363
 21
254.9847336851195
 31
0.0
  0
LINE
  5
19D21
330
1F
100
AcDbEntity
  8
0
  6
Continuous
 62
     7
370
    15
100
AcDbLine
 10
461.5655751431364
 20
251.2698270979195
 30
0.0
 11
467.2944766583364
 21
249.0684314620195
 31
0.0
  0
LINE
  5
19D22
330
1F
100
AcDbEntity
  8
0
  6
Continuous
 62
     7
370
    15
100
AcDbLine
 10
469.9758834557356
 20
261.4307265814194
 30
0.0
 11
469.3257786202362
 21
263.2233580704195
 31
0.0
  0
LINE
  5
19D23
330
1F
100
AcDbEntity
  8
0
  6
Continuous
 62
     7
370
    15
100
AcDbLine
 10
475.7014724324359
 20
246.0303748931194
 30
0.0
 11
475.504958494536
 21
246.5791939588195
 31
0.0
  0
LINE
  5
19D24
330
1F
100
AcDbEntity
  8
0
  6
Continuous
 62
     7
370
    15
100
AcDbLine
 10
475.6604213973356
 20
248.3511318250195
 30
0.0
 11
471.974617301336
 21
249.7198208253195
 31
0.0
  0
LINE
  5
19D25
330
1F
100
AcDbEntity
  8
0
  6
Continuous
 62
     7
370
    15
100
AcDbLine
 10
469.6810930328362
 20
251.0044035980196
 30
0.0
 11
465.0835451744357
 21
252.7407261077195
 31
0.0
  0
LINE
  5
19D26
330
1F
100
AcDbEntity
  8
0
  6
Continuous
 62
     7
370
    15
100
AcDbLine
 10
463.1157766124357
 20
252.6178745164196
 30
0.0
 11
459.9367229273362
 21
253.8289300550194
 31
0.0
  0
LINE
  5
19D27
330
1F
100
AcDbEntity
  8
0
  6
Continuous
 62
     7
370
    15
100
AcDbLine
 10
460.2109375786364
 20
254.2865734837195
 30
0.0
 11
464.2484802356363
 21
252.7484779114196
 31
0.0
  0
LINE
  5
19D28
330
1F
100
AcDbEntity
  8
0
  6
Continuous
 62
     7
370
    15
100
AcDbLine
 10
475.5655257932363
 20
247.2695290038195
 30
0.0
 11
472.2427873543361
 21
248.5454326212194
 31
0.0
  0
LINE
  5
19D29
330
1F
100
AcDbEntity
  8
0
  6
Continuous
 62
     7
370
    15
100
AcDbLine
 10
475.9311844446362
 20
247.4261475691196
 30
0.0
 11
472.2639365464361
 21
248.8343399216195
 31
0.0
  0
LINE
  5
19D2A
330
1F
100
AcDbEntity
  8
0
  6
Continuous
 62
     7
370
    15
100
AcDbLine
 10
460.152698974936
 20
254.6191242701196
 30
0.0
 11
454.423797459736
 21
256.8205199060195
 31
0.0
  0
LINE
  5
19D2B
330
1F
100
AcDbEntity
  8
0
  6
Continuous
 62
     7
370
    15
100
AcDbLine
 10
456.0426995482363
 20
257.4973993159196
 30
0.0
 11
461.8191058319358
 21
255.3158659063195
 31
0.0
  0
LINE
  5
19D2C
330
1F
100
AcDbEntity
  8
0
  6
Continuous
 62
     7
370
    15
100
AcDbLine
 10
466.7499520314364
 20
253.4374677439194
 30
0.0
 11
471.3096899720364
 21
251.6853365235196
 31
0.0
  0
LINE
  5
19D2D
330
1F
100
AcDbEntity
  8
0
  6
Continuous
 62
     7
370
    15
100
AcDbLine
 10
476.0443283464361
 20
252.7268333442195
 30
0.0
 11
470.2679220627357
 21
254.9083667538194
 31
0.0
  0
LINE
  5
19D2E
330
1F
100
AcDbEntity
  8
0
  6
Continuous
 62
     7
370
    15
100
AcDbLine
 10
460.4409299981358
 20
259.2684047369195
 30
0.0
 11
462.9065258277356
 21
258.3291398546195
 31
0.0
  0
LINE
  5
19D2F
330
1F
100
AcDbEntity
  8
0
  6
Continuous
 62
     7
370
    15
100
AcDbLine
 10
470.5927540075359
 20
255.4010832281195
 30
0.0
 11
476.7070353599361
 21
253.0718572917195
 31
0.0
  0
LINE
  5
19D30
330
1F
100
AcDbEntity
  8
0
  6
Continuous
 62
     7
370
    15
100
AcDbLine
 10
462.8503471144364
 20
257.7423187515195
 30
0.0
 11
459.6081743480359
 21
258.9881605520196
 31
0.0
  0
LINE
  5
19D31
330
1F
100
AcDbEntity
  8
0
  6
Continuous
 62
     7
370
    15
100
AcDbLine
 10
464.7758609993358
 20
261.3209912896194
 30
0.0
 11
463.2486447676361
 21
261.9027819290196
 31
0.0
  0
LINE
  5
19D32
330
1F
100
AcDbEntity
  8
0
  6
Continuous
 62
     7
370
    15
100
AcDbLine
 10
469.0087007827356
 20
263.5425906466195
 30
0.0
 11
469.3257786202362
 21
263.2233580704195
 31
0.0
  0
LINE
  5
19D33
330
1F
100
AcDbEntity
  8
0
  6
Continuous
 62
     7
370
    15
100
AcDbLine
 10
464.750277266136
 20
261.7621005122195
 30
0.0
 11
463.6926589971359
 21
262.1649985408195
 31
0.0
  0
LINE
  5
19D34
330
1F
100
AcDbEntity
  8
0
  6
Continuous
 62
     7
370
    15
100
AcDbLine
 10
469.0087007827356
 20
263.5425906466195
 30
0.0
 11
467.9510825137364
 21
263.9454886752195
 31
0.0
  0
ARC
  5
19D35
330
1F
100
AcDbEntity
  8
0
  6
Continuous
 62
     7
370
    15
100
AcDbCircle
 10
456.8494852154359
 20
243.0323067009194
 30
0.0
 40
1.960116818899999
100
AcDbArc
 50
139.6765275252194
 51
144.6372195938
  0
ARC
  5
19D36
330
1F
100
AcDbEntity
  8
0
  6
Continuous
 62
     7
370
    15
100
AcDbCircle
 10
456.2330021748363
 20
241.1713193663195
 30
0.0
 40
0.7729318237000001
100
AcDbArc
 50
249.1371748881967
 51
251.5027907702991
  0
ARC
  5
19D37
330
1F
100
AcDbEntity
  8
0
  6
Continuous
 62
     7
370
    15
100
AcDbCircle
 10
457.316673409036
 20
244.1482007278195
 30
0.0
 40
0.0783828542
100
AcDbArc
 50
84.1240099960124
 51
91.148201784589
  0
SPLINE
  5
19D38
330
1F
100
AcDbEntity
  8
0
  6
Continuous
 62
     7
370
    15
100
AcDbSpline
210
0.0
220
0.0
230
1.0
 70
     8
 71
     3
 72
    11
 73
     7
 74
     0
 42
0.0000000001
 43
0.0000000001
 40
0.0
 40
0.0
 40
0.0
 40
0.0
 40
0.2533912487999999
 40
0.5037883317000001
 40
0.7523251854000001
 40
1.0
 40
1.0
 40
1.0
 40
1.0
 10
457.0137608293358
 20
244.2534638086194
 30
0.0
 10
456.8845143690356
 20
244.3027000459194
 30
0.0
 10
456.6186920805363
 20
244.3792370493195
 30
0.0
 10
456.207710074636
 20
244.4198931947196
 30
0.0
 10
455.7994550786357
 20
244.3814497228195
 30
0.0
 10
455.5381860808362
 20
244.3021836895195
 30
0.0
 10
455.4134611514361
 20
244.2500377500196
 30
0.0
  0
SPLINE
  5
19D39
330
1F
100
AcDbEntity
  8
0
  6
Continuous
 62
     7
370
    15
100
AcDbSpline
210
0.0
220
0.0
230
1.0
 70
     8
 71
     3
 72
    11
 73
     7
 74
     0
 42
0.0000000001
 43
0.0000000001
 40
0.0
 40
0.0
 40
0.0
 40
0.0
 40
0.2493896501
 40
0.4990146852000001
 40
0.7491305668000001
 40
1.0
 40
1.0
 40
1.0
 40
1.0
 10
455.4134611514361
 20
244.2500377500196
 30
0.0
 10
455.3467921891357
 20
244.2221642873196
 30
0.0
 10
455.2163060603358
 20
244.1591078616195
 30
0.0
 10
455.0318281288361
 20
244.0439638916195
 30
0.0
 10
454.8603066199363
 20
243.9095989452196
 30
0.0
 10
454.7558049926362
 20
243.8084083757196
 30
0.0
 10
454.706219922136
 20
243.7552562166195
 30
0.0
  0
SPLINE
  5
19D3A
330
1F
100
AcDbEntity
  8
0
  6
Continuous
 62
     7
370
    15
100
AcDbSpline
210
0.0
220
0.0
230
1.0
 70
     8
 71
     3
 72
    11
 73
     7
 74
     0
 42
0.0000000001
 43
0.0000000001
 40
0.0
 40
0.0
 40
0.0
 40
0.0
 40
0.2508636038
 40
0.5009735601
 40
0.7506003764
 40
1.0
 40
1.0
 40
1.0
 40
1.0
 10
456.8051370533363
 20
238.7429738228195
 30
0.0
 10
456.877522842136
 20
238.7410530340195
 30
0.0
 10
457.0223860659358
 20
238.7445442355195
 30
0.0
 10
457.2376447686361
 20
238.7723580202195
 30
0.0
 10
457.4483422745357
 20
238.8227221506195
 30
0.0
 10
457.5843489341365
 20
238.8711513477195
 30
0.0
 10
457.6507664829356
 20
238.8989196976195
 30
0.0
  0
SPLINE
  5
19D3B
330
1F
100
AcDbEntity
  8
0
  6
Continuous
 62
     7
370
    15
100
AcDbSpline
210
0.0
220
0.0
230
1.0
 70
     8
 71
     3
 72
    26
 73
    22
 74
     0
 42
0.0000000001
 43
0.0000000001
 40
0.0
 40
0.0
 40
0.0
 40
0.0
 40
0.0294117946
 40
0.0588464299
 40
0.0883282885
 40
0.1178821709
 40
0.1772618686
 40
0.2373048439
 40
0.267679679
 40
0.2983081844
 40
0.3292099648
 40
0.3603982011
 40
0.423602262
 40
0.4878699666000001
 40
0.5529576846000001
 40
0.6185035524
 40
0.7489944444
 40
0.8133810779
 40
0.8767261259999999
 40
0.9389157263999999
 40
1.0
 40
1.0
 40
1.0
 40
1.0
 10
457.6507664829356
 20
238.8989196976195
 30
0.0
 10
457.711256648036
 20
238.9242098821195
 30
0.0
 10
457.8298768128357
 20
238.9808028985195
 30
0.0
 10
457.9987094417361
 20
239.0826890140195
 30
0.0
 10
458.1571541581357
 20
239.2006544247195
 30
0.0
 10
458.3531548109363
 20
239.3779716585195
 30
0.0
 10
458.5670680112358
 20
239.6346005504195
 30
0.0
 10
458.7331150968362
 20
239.9262795527195
 30
0.0
 10
458.8368570522358
 20
240.1756282205195
 30
0.0
 10
458.9003594179363
 20
240.3706407695195
 30
0.0
 10
458.949164432736
 20
240.5716863449195
 30
0.0
 10
458.9948917641364
 20
240.8474337750195
 30
0.0
 10
459.015104343736
 20
241.2017830120195
 30
0.0
 10
458.9821142124361
 20
241.6309202431195
 30
0.0
 10
458.8938413035362
 20
242.0575745485195
 30
0.0
 10
458.7064290939357
 20
242.6097761276195
 30
0.0
 10
458.4200726732357
 20
243.1229242635195
 30
0.0
 10
458.0489243875359
 20
243.5645587165195
 30
0.0
 10
457.735038471436
 20
243.8507557673194
 30
0.0
 10
457.3901189967361
 20
244.0857877870196
 30
0.0
 10
457.141008043936
 20
244.2049891809194
 30
0.0
 10
457.0137608293358
 20
244.2534638086194
 30
0.0
  0
SPLINE
  5
19D3C
330
1F
100
AcDbEntity
  8
0
  6
Continuous
 62
     7
370
    15
100
AcDbSpline
210
0.0
220
0.0
230
1.0
 70
     8
 71
     3
 72
     9
 73
     5
 74
     0
 42
0.0000000001
 43
0.0000000001
 40
0.0
 40
0.0
 40
0.0
 40
0.0
 40
0.2613983442999999
 40
1.0
 40
1.0
 40
1.0
 40
1.0
 10
457.6430521447361
 20
244.2888126393195
 30
0.0
 10
457.6401240519358
 20
244.2908323215195
 30
0.0
 10
457.6286021199363
 20
244.2980687986196
 30
0.0
 10
457.6156940942361
 20
244.3032167796195
 30
0.0
 10
457.6058582602359
 20
244.3052844748194
 30
0.0
  0
SPLINE
  5
19D3D
330
1F
100
AcDbEntity
  8
0
  6
Continuous
 62
     7
370
    15
100
AcDbSpline
210
0.0
220
0.0
230
1.0
 70
     8
 71
     3
 72
     9
 73
     5
 74
     0
 42
0.0000000001
 43
0.0000000001
 40
0.0
 40
0.0
 40
0.0
 40
0.0
 40
0.2594436166
 40
1.0
 40
1.0
 40
1.0
 40
1.0
 10
457.5370688332364
 20
244.2771184564194
 30
0.0
 10
457.5345788385362
 20
244.2784038189195
 30
0.0
 10
457.5247995982359
 20
244.2829890241196
 30
0.0
 10
457.5142511780365
 20
244.2860032415194
 30
0.0
 10
457.5063238756362
 20
244.2870685078194
 30
0.0
  0
SPLINE
  5
19D3E
330
1F
100
AcDbEntity
  8
0
  6
Continuous
 62
     7
370
    15
100
AcDbSpline
210
0.0
220
0.0
230
1.0
 70
     8
 71
     3
 72
     9
 73
     5
 74
     0
 42
0.0000000001
 43
0.0000000001
 40
0.0
 40
0.0
 40
0.0
 40
0.0
 40
0.2567211589
 40
1.0
 40
1.0
 40
1.0
 40
1.0
 10
457.4321553296364
 20
244.2562322112194
 30
0.0
 10
457.4302620216363
 20
244.2568756074194
 30
0.0
 10
457.4228113758359
 20
244.2591493455195
 30
0.0
 10
457.4150576558364
 20
244.2604624012194
 30
0.0
 10
457.4092776997364
 20
244.2607950675194
 30
0.0
  0
SPLINE
  5
19D3F
330
1F
100
AcDbEntity
  8
0
  6
Continuous
 62
     7
370
    15
100
AcDbSpline
210
0.0
220
0.0
230
1.0
 70
     8
 71
     3
 72
     9
 73
     5
 74
     0
 42
0.0000000001
 43
0.0000000001
 40
0.0
 40
0.0
 40
0.0
 40
0.0
 40
0.4910450827
 40
1.0
 40
1.0
 40
1.0
 40
1.0
 10
455.8260409583359
 20
243.6916001274196
 30
0.0
 10
455.9137467535362
 20
243.6581887416195
 30
0.0
 10
456.0880477644364
 20
243.5784058637195
 30
0.0
 10
456.2515305052362
 20
243.4784941354196
 30
0.0
 10
456.3316401209363
 20
243.4233094745195
 30
0.0
  0
SPLINE
  5
19D40
330
1F
100
AcDbEntity
  8
0
  6
Continuous
 62
     7
370
    15
100
AcDbSpline
210
0.0
220
0.0
230
1.0
 70
     8
 71
     3
 72
    28
 73
    24
 74
     0
 42
0.0000000001
 43
0.0000000001
 40
0.0
 40
0.0
 40
0.0
 40
0.0
 40
0.0614855789
 40
0.1264700785
 40
0.1944676204
 40
0.2646144411
 40
0.3358098106
 40
0.4068430634000001
 40
0.4765202572
 40
0.5437913167000001
 40
0.6078795933
 40
0.6684135525000001
 40
0.6974161279000001
 40
0.7256366148000001
 40
0.7531867326999999
 40
0.7802132581
 40
0.8068923743999999
 40
0.833420525
 40
0.8600031954
 40
0.886843185
 40
0.9141267459999999
 40
0.9420140568
 40
1.0
 40
1.0
 40
1.0
 40
1.0
 10
455.3866235016363
 20
238.6831999466195
 30
0.0
 10
455.2430855399357
 20
238.7378805091195
 30
0.0
 10
454.9593251134361
 20
238.8822348150196
 30
0.0
 10
454.5722618392361
 20
239.1796043923195
 30
0.0
 10
454.2249452987358
 20
239.5525709354195
 30
0.0
 10
453.9302964316362
 20
239.9869785198195
 30
0.0
 10
453.6990663534358
 20
240.4665655003195
 30
0.0
 10
453.5398887731359
 20
240.9734169002195
 30
0.0
 10
453.4587487291361
 20
241.4886249903196
 30
0.0
 10
453.4588905687356
 20
241.9930913215195
 30
0.0
 10
453.5406436678364
 20
242.4679526744196
 30
0.0
 10
453.6771002504361
 20
242.8297774976194
 30
0.0
 10
453.8244735854365
 20
243.0849942398194
 30
0.0
 10
453.9507634412363
 20
243.2556080531194
 30
0.0
 10
454.0931676526358
 20
243.4063313682195
 30
0.0
 10
454.2503338542361
 20
243.5356658887194
 30
0.0
 10
454.4207297357358
 20
243.6422958752196
 30
0.0
 10
454.602674056036
 20
243.7251245044194
 30
0.0
 10
454.794346911936
 20
243.7833128786194
 30
0.0
 10
454.993808462436
 20
243.8163067404195
 30
0.0
 10
455.1991097733358
 20
243.8238010819195
 30
0.0
 10
455.4812744145362
 20
243.7995436428195
 30
0.0
 10
455.6906728891359
 20
243.7431683820196
 30
0.0
 10
455.8260409583359
 20
243.6916001274196
 30
0.0
  0
SPLINE
  5
19D41
330
1F
100
AcDbEntity
  8
0
  6
Continuous
 62
     7
370
    15
100
AcDbSpline
210
0.0
220
0.0
230
1.0
 70
     8
 71
     3
 72
    10
 73
     6
 74
     0
 42
0.0000000001
 43
0.0000000001
 40
0.0
 40
0.0
 40
0.0
 40
0.0
 40
0.514994203
 40
0.7597035512
 40
1.0
 40
1.0
 40
1.0
 40
1.0
 10
455.0205065582364
 20
241.8854130429195
 30
0.0
 10
455.0434345089358
 20
241.8766786759195
 30
0.0
 10
455.0798675205356
 20
241.8690052884195
 30
0.0
 10
455.1275708011359
 20
241.8732139095195
 30
0.0
 10
455.1498931019365
 20
241.8799235345195
 30
0.0
 10
455.1604548947358
 20
241.8843404490194
 30
0.0
  0
SPLINE
  5
19D42
330
1F
100
AcDbEntity
  8
0
  6
Continuous
 62
     7
370
    15
100
AcDbSpline
210
0.0
220
0.0
230
1.0
 70
     8
 71
     3
 72
    14
 73
    10
 74
     0
 42
0.0000000001
 43
0.0000000001
 40
0.0
 40
0.0
 40
0.0
 40
0.0
 40
0.1238202949
 40
0.2520981904
 40
0.3828460673
 40
0.5139025024000001
 40
0.6430282149000001
 40
0.7681889567
 40
1.0
 40
1.0
 40
1.0
 40
1.0
 10
456.0621708749364
 20
241.7734988260195
 30
0.0
 10
456.060553998636
 20
241.7550699642195
 30
0.0
 10
456.060543218036
 20
241.7172039048195
 30
0.0
 10
456.0694724218361
 20
241.6604972265195
 30
0.0
 10
456.0870043650362
 20
241.6046918637195
 30
0.0
 10
456.1124469463362
 20
241.5518998357195
 30
0.0
 10
456.1449247283359
 20
241.5040549149195
 30
0.0
 10
456.1944584920362
 20
241.4507770524195
 30
0.0
 10
456.2404196241365
 20
241.4206890648195
 30
0.0
 10
456.2727849580356
 20
241.4083595414195
 30
0.0
  0
SPLINE
  5
19D43
330
1F
100
AcDbEntity
  8
0
  6
Continuous
 62
     7
370
    15
100
AcDbSpline
210
0.0
220
0.0
230
1.0
 70
     8
 71
     3
 72
    10
 73
     6
 74
     0
 42
0.0000000001
 43
0.0000000001
 40
0.0
 40
0.0
 40
0.0
 40
0.0
 40
0.2402566146
 40
0.4849936281
 40
1.0
 40
1.0
 40
1.0
 40
1.0
 10
454.1445865246356
 20
242.1843068783195
 30
0.0
 10
454.1516230343364
 20
242.1872477980195
 30
0.0
 10
454.1664977104361
 20
242.1917109862195
 30
0.0
 10
454.1982815290363
 20
242.1945068984195
 30
0.0
 10
454.2225558726364
 20
242.1893911109195
 30
0.0
 10
454.2378325582363
 20
242.1835714814195
 30
0.0
  0
SPLINE
  5
19D44
330
1F
100
AcDbEntity
  8
0
  6
Continuous
 62
     7
370
    15
100
AcDbSpline
210
0.0
220
0.0
230
1.0
 70
     8
 71
     3
 72
    10
 73
     6
 74
     0
 42
0.0000000001
 43
0.0000000001
 40
0.0
 40
0.0
 40
0.0
 40
0.0
 40
0.2402566146
 40
0.4849936281
 40
1.0
 40
1.0
 40
1.0
 40
1.0
 10
455.4395381089358
 20
243.1155279860195
 30
0.0
 10
455.4465746186357
 20
243.1184689056194
 30
0.0
 10
455.4614492947363
 20
243.1229320939194
 30
0.0
 10
455.4932331133365
 20
243.1257280060195
 30
0.0
 10
455.5175074569357
 20
243.1206122186195
 30
0.0
 10
455.5327841425357
 20
243.1147925890195
 30
0.0
  0
SPLINE
  5
19D45
330
1F
100
AcDbEntity
  8
0
  6
Continuous
 62
     7
370
    15
100
AcDbSpline
210
0.0
220
0.0
230
1.0
 70
     8
 71
     3
 72
    11
 73
     7
 74
     0
 42
0.0000000001
 43
0.0000000001
 40
0.0
 40
0.0
 40
0.0
 40
0.0
 40
0.2297375998
 40
0.4692838679
 40
0.7252982294
 40
1.0
 40
1.0
 40
1.0
 40
1.0
 10
456.0522095652364
 20
240.4904596251195
 30
0.0
 10
456.0357725102363
 20
240.4835856911196
 30
0.0
 10
456.004308609136
 20
240.4638698576195
 30
0.0
 10
455.967633619936
 20
240.4201981879195
 30
0.0
 10
455.9427719857364
 20
240.3651838931195
 30
0.0
 10
455.9350295219361
 20
240.3243648289195
 30
0.0
 10
455.9331675849358
 20
240.3031428096195
 30
0.0
  0
SPLINE
  5
19D46
330
1F
100
AcDbEntity
  8
0
  6
Continuous
 62
     7
370
    15
100
AcDbSpline
210
0.0
220
0.0
230
1.0
 70
     8
 71
     3
 72
    10
 73
     6
 74
     0
 42
0.0000000001
 43
0.0000000001
 40
0.0
 40
0.0
 40
0.0
 40
0.0
 40
0.2402964488
 40
0.485005797
 40
1.0
 40
1.0
 40
1.0
 40
1.0
 10
456.4842409726358
 20
240.6710963456195
 30
0.0
 10
456.4948027654359
 20
240.6755132600195
 30
0.0
 10
456.5171250661356
 20
240.6822228850195
 30
0.0
 10
456.5648283467359
 20
240.6864315061195
 30
0.0
 10
456.6012613584359
 20
240.6787581187195
 30
0.0
 10
456.6241893091361
 20
240.6700237516195
 30
0.0
  0
SPLINE
  5
19D47
330
1F
100
AcDbEntity
  8
0
  6
Continuous
 62
     7
370
    15
100
AcDbSpline
210
0.0
220
0.0
230
1.0
 70
     8
 71
     3
 72
    11
 73
     7
 74
     0
 42
0.0000000001
 43
0.0000000001
 40
0.0
 40
0.0
 40
0.0
 40
0.0
 40
0.2747017706
 40
0.5307161321000001
 40
0.7702624002
 40
1.0
 40
1.0
 40
1.0
 40
1.0
 10
455.7115282824358
 20
242.2522939849195
 30
0.0
 10
455.7096663453363
 20
242.2310719656195
 30
0.0
 10
455.7019238816361
 20
242.1902529015195
 30
0.0
 10
455.6770622474356
 20
242.1352386066196
 30
0.0
 10
455.6403872582365
 20
242.0915669369195
 30
0.0
 10
455.6089233571362
 20
242.0718511035195
 30
0.0
 10
455.592486302036
 20
242.0649771695195
 30
0.0
  0
SPLINE
  5
19D48
330
1F
100
AcDbEntity
  8
0
  6
Continuous
 62
     7
370
    15
100
AcDbSpline
210
0.0
220
0.0
230
1.0
 70
     8
 71
     3
 72
    14
 73
    10
 74
     0
 42
0.0000000001
 43
0.0000000001
 40
0.0
 40
0.0
 40
0.0
 40
0.0
 40
0.2318110433
 40
0.3569717851
 40
0.4860974976
 40
0.6171539327000001
 40
0.7479018096
 40
0.8761797051
 40
1.0
 40
1.0
 40
1.0
 40
1.0
 10
455.3719109092359
 20
241.1470772532195
 30
0.0
 10
455.404276243236
 20
241.1347477297195
 30
0.0
 10
455.4502373752362
 20
241.1046597421195
 30
0.0
 10
455.4997711390357
 20
241.0513818797195
 30
0.0
 10
455.5322489209362
 20
241.0035369588195
 30
0.0
 10
455.5576915023363
 20
240.9507449309195
 30
0.0
 10
455.5752234455363
 20
240.8949395681196
 30
0.0
 10
455.5841526492364
 20
240.8382328898195
 30
0.0
 10
455.5841418686364
 20
240.8003668304196
 30
0.0
 10
455.582524992336
 20
240.7819379686195
 30
0.0
  0
SPLINE
  5
19D49
330
1F
100
AcDbEntity
  8
0
  6
Continuous
 62
     7
370
    15
100
AcDbSpline
210
0.0
220
0.0
230
1.0
 70
     8
 71
     3
 72
    12
 73
     8
 74
     0
 42
0.0000000001
 43
0.0000000001
 40
0.0
 40
0.0
 40
0.0
 40
0.0
 40
0.2321821317
 40
0.4860862306
 40
0.6173497447999999
 40
0.7482838324
 40
1.0
 40
1.0
 40
1.0
 40
1.0
 10
456.0023885425358
 20
242.9358975259194
 30
0.0
 10
456.0239665297364
 20
242.9276774254194
 30
0.0
 10
456.0655104793364
 20
242.9004842584195
 30
0.0
 10
456.1038797771358
 20
242.8513838921194
 30
0.0
 10
456.1262440426359
 20
242.8050005224195
 30
0.0
 10
456.1416057092361
 20
242.7561454824195
 30
0.0
 10
456.1449858553356
 20
242.7174088961194
 30
0.0
 10
456.1427979312362
 20
242.6924713362196
 30
0.0
  0
SPLINE
  5
19D4A
330
1F
100
AcDbEntity
  8
0
  6
Continuous
 62
     7
370
    15
100
AcDbSpline
210
0.0
220
0.0
230
1.0
 70
     8
 71
     3
 72
    11
 73
     7
 74
     0
 42
0.0000000001
 43
0.0000000001
 40
0.0
 40
0.0
 40
0.0
 40
0.0
 40
0.2746761633
 40
0.5307340815
 40
0.7702527830000001
 40
1.0
 40
1.0
 40
1.0
 40
1.0
 10
455.852540528636
 20
239.3841702994195
 30
0.0
 10
455.8512989115357
 20
239.3700185735195
 30
0.0
 10
455.846131953536
 20
239.3427959834195
 30
0.0
 10
455.8295509826363
 20
239.3061072258195
 30
0.0
 10
455.8050799324361
 20
239.2769887611195
 30
0.0
 10
455.7840897038365
 20
239.2638542376195
 30
0.0
 10
455.7731263510365
 20
239.2592720881195
 30
0.0
  0
SPLINE
  5
19D4B
330
1F
100
AcDbEntity
  8
0
  6
Continuous
 62
     7
370
    15
100
AcDbSpline
210
0.0
220
0.0
230
1.0
 70
     8
 71
     3
 72
    11
 73
     7
 74
     0
 42
0.0000000001
 43
0.0000000001
 40
0.0
 40
0.0
 40
0.0
 40
0.0
 40
0.2746761633
 40
0.5307340815
 40
0.7702527830000001
 40
1.0
 40
1.0
 40
1.0
 40
1.0
 10
457.1474921129362
 20
240.3153914070195
 30
0.0
 10
457.1462504958359
 20
240.3012396812195
 30
0.0
 10
457.1410835378361
 20
240.2740170910195
 30
0.0
 10
457.1245025669364
 20
240.2373283335195
 30
0.0
 10
457.1000315167363
 20
240.2082098687195
 30
0.0
 10
457.0790412881357
 20
240.1950753452195
 30
0.0
 10
457.0680779353357
 20
240.1904931957195
 30
0.0
  0
SPLINE
  5
19D4C
330
1F
100
AcDbEntity
  8
0
  6
Continuous
 62
     7
370
    15
100
AcDbSpline
210
0.0
220
0.0
230
1.0
 70
     8
 71
     3
 72
    12
 73
     8
 74
     0
 42
0.0000000001
 43
0.0000000001
 40
0.0
 40
0.0
 40
0.0
 40
0.0
 40
0.2321821317
 40
0.4860862306
 40
0.6173497447999999
 40
0.7482838324
 40
1.0
 40
1.0
 40
1.0
 40
1.0
 10
457.0554589580357
 20
241.1102011029195
 30
0.0
 10
457.0770369452362
 20
241.1019810023195
 30
0.0
 10
457.1185808948363
 20
241.0747878353195
 30
0.0
 10
457.1569501926356
 20
241.0256874690194
 30
0.0
 10
457.1793144580357
 20
240.9793040993196
 30
0.0
 10
457.1946761247359
 20
240.9304490593195
 30
0.0
 10
457.1980562707364
 20
240.8917124731195
 30
0.0
 10
457.1958683467361
 20
240.8667749131195
 30
0.0
  0
SPLINE
  5
19D4D
330
1F
100
AcDbEntity
  8
0
  6
Continuous
 62
     7
370
    15
100
AcDbSpline
210
0.0
220
0.0
230
1.0
 70
     8
 71
     3
 72
    20
 73
    16
 74
     0
 42
0.0000000001
 43
0.0000000001
 40
0.0
 40
0.0
 40
0.0
 40
0.0
 40
0.1381584505
 40
0.2689296873
 40
0.3318297856
 40
0.3932585565
 40
0.4534796718
 40
0.5128141099
 40
0.5716278085999999
 40
0.6303142710000001
 40
0.6892740671
 40
0.7488939033
 40
0.809521817
 40
0.8714595933
 40
1.0
 40
1.0
 40
1.0
 40
1.0
 10
457.7072424452359
 20
240.1329846313195
 30
0.0
 10
457.6816955302361
 20
239.9889937274195
 30
0.0
 10
457.6087889483357
 20
239.7120894248196
 30
0.0
 10
457.4563301895365
 20
239.3928869745195
 30
0.0
 10
457.3024821662362
 20
239.1704024378195
 30
0.0
 10
457.1740578757359
 20
239.0226419193195
 30
0.0
 10
457.0322343568364
 20
238.8932034217195
 30
0.0
 10
456.878197270336
 20
238.7832276779195
 30
0.0
 10
456.7132734761359
 20
238.6937045120195
 30
0.0
 10
456.5389085405364
 20
238.6254143636195
 30
0.0
 10
456.3566226740364
 20
238.5789691024195
 30
0.0
 10
456.1680303460358
 20
238.5547531132195
 30
0.0
 10
455.9747397556362
 20
238.5529373660195
 30
0.0
 10
455.7099700275363
 20
238.5806438986195
 30
0.0
 10
455.513769128836
 20
238.6347640184195
 30
0.0
 10
455.3866235016363
 20
238.6831999466195
 30
0.0
  0
SPLINE
  5
19D4E
330
1F
100
AcDbEntity
  8
0
  6
Continuous
 62
     7
370
    15
100
AcDbSpline
210
0.0
220
0.0
230
1.0
 70
     8
 71
     3
 72
    10
 73
     6
 74
     0
 42
0.0000000001
 43
0.0000000001
 40
0.0
 40
0.0
 40
0.0
 40
0.0
 40
0.2402566146
 40
0.4849936281
 40
1.0
 40
1.0
 40
1.0
 40
1.0
 10
455.7731263510365
 20
239.2592720881195
 30
0.0
 10
455.7660898413356
 20
239.2563311684195
 30
0.0
 10
455.751215165236
 20
239.2518679802195
 30
0.0
 10
455.7194313466358
 20
239.2490720680195
 30
0.0
 10
455.6951570030356
 20
239.2541878555195
 30
0.0
 10
455.6798803174357
 20
239.2600074850196
 30
0.0
  0
SPLINE
  5
19D4F
330
1F
100
AcDbEntity
  8
0
  6
Continuous
 62
     7
370
    15
100
AcDbSpline
210
0.0
220
0.0
230
1.0
 70
     8
 71
     3
 72
    14
 73
    10
 74
     0
 42
0.0000000001
 43
0.0000000001
 40
0.0
 40
0.0
 40
0.0
 40
0.0
 40
0.1238202949
 40
0.2520981904
 40
0.3828460673
 40
0.5139025024000001
 40
0.6430282149000001
 40
0.7681889567
 40
1.0
 40
1.0
 40
1.0
 40
1.0
 10
455.1504935850358
 20
240.6013012481195
 30
0.0
 10
455.1521104613363
 20
240.6197301099195
 30
0.0
 10
455.1521212419362
 20
240.6575961693195
 30
0.0
 10
455.1431920381361
 20
240.7143028476195
 30
0.0
 10
455.125660094936
 20
240.7701082104195
 30
0.0
 10
455.100217513636
 20
240.8229002383195
 30
0.0
 10
455.0677397316364
 20
240.8707451592195
 30
0.0
 10
455.018205967936
 20
240.9240230216195
 30
0.0
 10
454.9722448358358
 20
240.9541110092195
 30
0.0
 10
454.9398795019357
 20
240.9664405327195
 30
0.0
  0
SPLINE
  5
19D50
330
1F
100
AcDbEntity
  8
0
  6
Continuous
 62
     7
370
    15
100
AcDbSpline
210
0.0
220
0.0
230
1.0
 70
     8
 71
     3
 72
    11
 73
     7
 74
     0
 42
0.0000000001
 43
0.0000000001
 40
0.0
 40
0.0
 40
0.0
 40
0.0
 40
0.2401318086
 40
0.4854062089000001
 40
0.7381257947
 40
1.0
 40
1.0
 40
1.0
 40
1.0
 10
455.716851716336
 20
242.3129695160195
 30
0.0
 10
455.7474780110356
 20
242.3215532940195
 30
0.0
 10
455.8109998700362
 20
242.3335945631195
 30
0.0
 10
455.9091516982358
 20
242.3357472281195
 30
0.0
 10
456.009255927736
 20
242.3221234857194
 30
0.0
 10
456.074980566436
 20
242.3030957787195
 30
0.0
 10
456.1075828756362
 20
242.2912538477195
 30
0.0
  0
SPLINE
  5
19D51
330
1F
100
AcDbEntity
  8
0
  6
Continuous
 62
     7
370
    15
100
AcDbSpline
210
0.0
220
0.0
230
1.0
 70
     8
 71
     3
 72
    11
 73
     7
 74
     0
 42
0.0000000001
 43
0.0000000001
 40
0.0
 40
0.0
 40
0.0
 40
0.0
 40
0.2651334626000001
 40
0.5226898122
 40
0.7684944968
 40
1.0
 40
1.0
 40
1.0
 40
1.0
 10
455.3202345424357
 20
241.1667632845195
 30
0.0
 10
455.2973311560359
 20
241.2340769939194
 30
0.0
 10
455.2626518810362
 20
241.3706400714195
 30
0.0
 10
455.2455211041356
 20
241.5770145652194
 30
0.0
 10
455.264452156936
 20
241.7742765196194
 30
0.0
 10
455.3020861101364
 20
241.8978459266196
 30
0.0
 10
455.3269965277364
 20
241.9547144756196
 30
0.0
  0
SPLINE
  5
19D52
330
1F
100
AcDbEntity
  8
0
  6
Continuous
 62
     7
370
    15
100
AcDbSpline
210
0.0
220
0.0
230
1.0
 70
     8
 71
     3
 72
    12
 73
     8
 74
     0
 42
0.0000000001
 43
0.0000000001
 40
0.0
 40
0.0
 40
0.0
 40
0.0
 40
0.2517161676000001
 40
0.3826502552
 40
0.5139137694000001
 40
0.7678178683
 40
1.0
 40
1.0
 40
1.0
 40
1.0
 10
454.4488275206364
 20
241.6886618814194
 30
0.0
 10
454.446639596536
 20
241.6637243214196
 30
0.0
 10
454.4500197426365
 20
241.6249877352195
 30
0.0
 10
454.4653814092359
 20
241.5761326952195
 30
0.0
 10
454.4877456747359
 20
241.5297493255195
 30
0.0
 10
454.5261149725361
 20
241.4806489592195
 30
0.0
 10
454.5676589221362
 20
241.4534557922196
 30
0.0
 10
454.5892369093358
 20
241.4452356916195
 30
0.0
  0
SPLINE
  5
19D53
330
1F
100
AcDbEntity
  8
0
  6
Continuous
 62
     7
370
    15
100
AcDbSpline
210
0.0
220
0.0
230
1.0
 70
     8
 71
     3
 72
    12
 73
     8
 74
     0
 42
0.0000000001
 43
0.0000000001
 40
0.0
 40
0.0
 40
0.0
 40
0.0
 40
0.2517161676000001
 40
0.3826502552
 40
0.5139137694000001
 40
0.7678178683
 40
1.0
 40
1.0
 40
1.0
 40
1.0
 10
455.5018979360362
 20
239.8629654583194
 30
0.0
 10
455.4997100120359
 20
239.8380278984195
 30
0.0
 10
455.5030901581363
 20
239.7992913121195
 30
0.0
 10
455.5184518247357
 20
239.7504362722195
 30
0.0
 10
455.5408160901357
 20
239.7040529025195
 30
0.0
 10
455.579185387936
 20
239.6549525362196
 30
0.0
 10
455.6207293375361
 20
239.6277593692195
 30
0.0
 10
455.6423073248358
 20
239.6195392686196
 30
0.0
  0
SPLINE
  5
19D54
330
1F
100
AcDbEntity
  8
0
  6
Continuous
 62
     7
370
    15
100
AcDbSpline
210
0.0
220
0.0
230
1.0
 70
     8
 71
     3
 72
     9
 73
     5
 74
     0
 42
0.0000000001
 43
0.0000000001
 40
0.0
 40
0.0
 40
0.0
 40
0.0
 40
0.4825213196
 40
1.0
 40
1.0
 40
1.0
 40
1.0
 10
455.9577365810361
 20
240.4490642473195
 30
0.0
 10
455.8869112106363
 20
240.4760450616195
 30
0.0
 10
455.7478252485358
 20
240.5532498451195
 30
0.0
 10
455.6311804999364
 20
240.6604930093195
 30
0.0
 10
455.5772015584358
 20
240.7212624375195
 30
0.0
  0
SPLINE
  5
19D55
330
1F
100
AcDbEntity
  8
0
  6
Continuous
 62
     7
370
    15
100
AcDbSpline
210
0.0
220
0.0
230
1.0
 70
     8
 71
     3
 72
    11
 73
     7
 74
     0
 42
0.0000000001
 43
0.0000000001
 40
0.0
 40
0.0
 40
0.0
 40
0.0
 40
0.267218183
 40
0.5233955274000001
 40
0.7675738966
 40
1.0
 40
1.0
 40
1.0
 40
1.0
 10
456.8247067067365
 20
241.1984379189195
 30
0.0
 10
456.8261761461359
 20
241.1470427593195
 30
0.0
 10
456.8223740129357
 20
241.0460223992195
 30
0.0
 10
456.7953311359357
 20
240.9002577951195
 30
0.0
 10
456.7477023989364
 20
240.7668850838195
 30
0.0
 10
456.7018290879365
 20
240.6867510961195
 30
0.0
 10
456.6758656760363
 20
240.6503377203195
 30
0.0
  0
SPLINE
  5
19D56
330
1F
100
AcDbEntity
  8
0
  6
Continuous
 62
     7
370
    15
100
AcDbSpline
210
0.0
220
0.0
230
1.0
 70
     8
 71
     3
 72
    10
 73
     6
 74
     0
 42
0.0000000001
 43
0.0000000001
 40
0.0
 40
0.0
 40
0.0
 40
0.0
 40
0.514994203
 40
0.7597035512
 40
1.0
 40
1.0
 40
1.0
 40
1.0
 10
456.1921579017358
 20
240.4893870311195
 30
0.0
 10
456.1692299510365
 20
240.4981213982195
 30
0.0
 10
456.1327969394357
 20
240.5057947856195
 30
0.0
 10
456.0850936588364
 20
240.5015861645195
 30
0.0
 10
456.0627713580357
 20
240.4948765395195
 30
0.0
 10
456.0522095652364
 20
240.4904596251195
 30
0.0
  0
SPLINE
  5
19D57
330
1F
100
AcDbEntity
  8
0
  6
Continuous
 62
     7
370
    15
100
AcDbSpline
210
0.0
220
0.0
230
1.0
 70
     8
 71
     3
 72
    11
 73
     7
 74
     0
 42
0.0000000001
 43
0.0000000001
 40
0.0
 40
0.0
 40
0.0
 40
0.0
 40
0.2297375998
 40
0.4692838679
 40
0.7252982294
 40
1.0
 40
1.0
 40
1.0
 40
1.0
 10
455.1604548947358
 20
241.8843404490194
 30
0.0
 10
455.1768919497359
 20
241.8912143830195
 30
0.0
 10
455.2083558508362
 20
241.9109302164195
 30
0.0
 10
455.2450308400363
 20
241.9546018861195
 30
0.0
 10
455.2698924742359
 20
242.0096161810195
 30
0.0
 10
455.2776349380361
 20
242.0504352451195
 30
0.0
 10
455.2794968750364
 20
242.0716572644195
 30
0.0
  0
SPLINE
  5
19D58
330
1F
100
AcDbEntity
  8
0
  6
Continuous
 62
     7
370
    15
100
AcDbSpline
210
0.0
220
0.0
230
1.0
 70
     8
 71
     3
 72
    11
 73
     7
 74
     0
 42
0.0000000001
 43
0.0000000001
 40
0.0
 40
0.0
 40
0.0
 40
0.0
 40
0.2746761633
 40
0.5307340815
 40
0.7702527830000001
 40
1.0
 40
1.0
 40
1.0
 40
1.0
 10
455.3601239313362
 20
242.9906297747195
 30
0.0
 10
455.3613655484356
 20
243.0047815005195
 30
0.0
 10
455.3665325064363
 20
243.0320040907195
 30
0.0
 10
455.383113477336
 20
243.0686928482196
 30
0.0
 10
455.4075845275361
 20
243.0978113130195
 30
0.0
 10
455.4285747561358
 20
243.1109458365194
 30
0.0
 10
455.4395381089358
 20
243.1155279860195
 30
0.0
  0
SPLINE
  5
19D59
330
1F
100
AcDbEntity
  8
0
  6
Continuous
 62
     7
370
    15
100
AcDbSpline
210
0.0
220
0.0
230
1.0
 70
     8
 71
     3
 72
    11
 73
     7
 74
     0
 42
0.0000000001
 43
0.0000000001
 40
0.0
 40
0.0
 40
0.0
 40
0.0
 40
0.2746761633
 40
0.5307340815
 40
0.7702527830000001
 40
1.0
 40
1.0
 40
1.0
 40
1.0
 10
454.065172347036
 20
242.0594086670195
 30
0.0
 10
454.0664139641363
 20
242.0735603929195
 30
0.0
 10
454.0715809221361
 20
242.1007829830195
 30
0.0
 10
454.0881618930358
 20
242.1374717406195
 30
0.0
 10
454.1126329432359
 20
242.1665902053195
 30
0.0
 10
454.1336231718356
 20
242.1797247288195
 30
0.0
 10
454.1445865246356
 20
242.1843068783195
 30
0.0
  0
SPLINE
  5
19D5A
330
1F
100
AcDbEntity
  8
0
  6
Continuous
 62
     7
370
    15
100
AcDbSpline
210
0.0
220
0.0
230
1.0
 70
     8
 71
     3
 72
    12
 73
     8
 74
     0
 42
0.0000000001
 43
0.0000000001
 40
0.0
 40
0.0
 40
0.0
 40
0.0
 40
0.2321821317
 40
0.4860862306
 40
0.6173497447999999
 40
0.7482838324
 40
1.0
 40
1.0
 40
1.0
 40
1.0
 10
454.1572055019356
 20
241.2645989711195
 30
0.0
 10
454.135627514736
 20
241.2728190717195
 30
0.0
 10
454.0940835651359
 20
241.3000122387195
 30
0.0
 10
454.0557142673357
 20
241.3491126050196
 30
0.0
 10
454.0333500019356
 20
241.3954959747194
 30
0.0
 10
454.0179883352362
 20
241.4443510147195
 30
0.0
 10
454.0146081892358
 20
241.4830876009195
 30
0.0
 10
454.0167961132361
 20
241.5080251609195
 30
0.0
  0
SPLINE
  5
19D5B
330
1F
100
AcDbEntity
  8
0
  6
Continuous
 62
     7
370
    15
100
AcDbSpline
210
0.0
220
0.0
230
1.0
 70
     8
 71
     3
 72
    12
 73
     8
 74
     0
 42
0.0000000001
 43
0.0000000001
 40
0.0
 40
0.0
 40
0.0
 40
0.0
 40
0.2321821317
 40
0.4860862306
 40
0.6173497447999999
 40
0.7482838324
 40
1.0
 40
1.0
 40
1.0
 40
1.0
 10
455.2102759174364
 20
239.4389025481195
 30
0.0
 10
455.1886979302358
 20
239.4471226487195
 30
0.0
 10
455.1471539806358
 20
239.4743158157195
 30
0.0
 10
455.1087846828364
 20
239.5234161820195
 30
0.0
 10
455.0864204173364
 20
239.5697995517195
 30
0.0
 10
455.0710587507361
 20
239.6186545916195
 30
0.0
 10
455.0676786046357
 20
239.6573911779196
 30
0.0
 10
455.069866528736
 20
239.6823287378195
 30
0.0
  0
SPLINE
  5
19D5C
330
1F
100
AcDbEntity
  8
0
  6
Continuous
 62
     7
370
    15
100
AcDbSpline
210
0.0
220
0.0
230
1.0
 70
     8
 71
     3
 72
    10
 73
     6
 74
     0
 42
0.0000000001
 43
0.0000000001
 40
0.0
 40
0.0
 40
0.0
 40
0.0
 40
0.2402566146
 40
0.4849936281
 40
1.0
 40
1.0
 40
1.0
 40
1.0
 10
457.0680779353357
 20
240.1904931957195
 30
0.0
 10
457.0610414256358
 20
240.1875522760195
 30
0.0
 10
457.0461667495361
 20
240.1830890878195
 30
0.0
 10
457.0143829309359
 20
240.1802931757195
 30
0.0
 10
456.9901085873358
 20
240.1854089631195
 30
0.0
 10
456.9748319017358
 20
240.1912285927195
 30
0.0
  0
SPLINE
  5
19D5D
330
1F
100
AcDbEntity
  8
0
  6
Continuous
 62
     7
370
    15
100
AcDbSpline
210
0.0
220
0.0
230
1.0
 70
     8
 71
     3
 72
    17
 73
    13
 74
     0
 42
0.0000000001
 43
0.0000000001
 40
0.0
 40
0.0
 40
0.0
 40
0.0
 40
0.1191938858
 40
0.2431920689
 40
0.3066260879
 40
0.3707292298
 40
0.5000018711
 40
0.6292741672
 40
0.6933767297
 40
0.7568099979000001
 40
0.8808062225
 40
1.0
 40
1.0
 40
1.0
 40
1.0
 10
456.3316401209363
 20
243.4233094745195
 30
0.0
 10
456.4542595536364
 20
243.3388413149196
 30
0.0
 10
456.6903235768364
 20
243.1453164990196
 30
0.0
 10
456.9480228782364
 20
242.8601284741196
 30
0.0
 10
457.1335110630358
 20
242.6062349963195
 30
0.0
 10
457.3047449661358
 20
242.3346891934194
 30
0.0
 10
457.4849291793358
 20
241.9727479562195
 30
0.0
 10
457.6159775246357
 20
241.5902636727195
 30
0.0
 10
457.688960545736
 20
241.2776452864195
 30
0.0
 10
457.7393790610364
 20
240.9672857016195
 30
0.0
 10
457.7613383315362
 20
240.5835451756196
 30
0.0
 10
457.7332536069357
 20
240.2795921838194
 30
0.0
 10
457.7072424452359
 20
240.1329846313195
 30
0.0
  0
SPLINE
  5
19D5E
330
1F
100
AcDbEntity
  8
0
  6
Continuous
 62
     7
370
    15
100
AcDbSpline
210
0.0
220
0.0
230
1.0
 70
     8
 71
     3
 72
     9
 73
     5
 74
     0
 42
0.0000000001
 43
0.0000000001
 40
0.0
 40
0.0
 40
0.0
 40
0.0
 40
0.4790133924
 40
1.0
 40
1.0
 40
1.0
 40
1.0
 10
449.4881418415358
 20
249.1693400388195
 30
0.0
 10
449.4925485863364
 20
249.2195933608196
 30
0.0
 10
449.5203320501365
 20
249.3234646269196
 30
0.0
 10
449.5784269692363
 20
249.4130877566195
 30
0.0
 10
449.6132681067361
 20
249.4554720164195
 30
0.0
  0
SPLINE
  5
19D5F
330
1F
100
AcDbEntity
  8
0
  6
Continuous
 62
     7
370
    15
100
AcDbSpline
210
0.0
220
0.0
230
1.0
 70
     8
 71
     3
 72
    11
 73
     7
 74
     0
 42
0.0000000001
 43
0.0000000001
 40
0.0
 40
0.0
 40
0.0
 40
0.0
 40
0.1982725866
 40
0.4217705807
 40
0.6869191852
 40
1.0
 40
1.0
 40
1.0
 40
1.0
 10
474.3700748572361
 20
231.1073265414195
 30
0.0
 10
474.3664560502362
 20
231.0660175131195
 30
0.0
 10
474.3392171557358
 20
230.9792002373195
 30
0.0
 10
474.2480911191356
 20
230.8652720372195
 30
0.0
 10
474.1124688121359
 20
230.7645941792195
 30
0.0
 10
474.0034819566359
 20
230.7109353466195
 30
0.0
 10
473.9430712500357
 20
230.6856770165194
 30
0.0
  0
SPLINE
  5
19D60
330
1F
100
AcDbEntity
  8
0
  6
Continuous
 62
     7
370
    15
100
AcDbSpline
210
0.0
220
0.0
230
1.0
 70
     8
 71
     3
 72
     9
 73
     5
 74
     0
 42
0.0000000001
 43
0.0000000001
 40
0.0
 40
0.0
 40
0.0
 40
0.0
 40
0.5031153475
 40
1.0
 40
1.0
 40
1.0
 40
1.0
 10
458.5489129785361
 20
243.9566488818195
 30
0.0
 10
458.409672225636
 20
244.1714371665196
 30
0.0
 10
458.121028895936
 20
244.5906201044194
 30
0.0
 10
457.8218448874364
 20
245.0021360649195
 30
0.0
 10
457.6717587380358
 20
245.2055649535195
 30
0.0
  0
SPLINE
  5
19D61
330
1F
100
AcDbEntity
  8
0
  6
Continuous
 62
     7
370
    15
100
AcDbSpline
210
0.0
220
0.0
230
1.0
 70
     8
 71
     3
 72
     9
 73
     5
 74
     0
 42
0.0000000001
 43
0.0000000001
 40
0.0
 40
0.0
 40
0.0
 40
0.0
 40
0.4650588881
 40
1.0
 40
1.0
 40
1.0
 40
1.0
 10
450.1956144261363
 20
254.9847336851195
 30
0.0
 10
450.2516898863365
 20
255.0323993932196
 30
0.0
 10
450.3832999818356
 20
255.1219989995196
 30
0.0
 10
450.5262368818363
 20
255.1909102323196
 30
0.0
 10
450.6043405680363
 20
255.2235661770195
 30
0.0
  0
SPLINE
  5
19D62
330
1F
100
AcDbEntity
  8
0
  6
Continuous
 62
     7
370
    15
100
AcDbSpline
210
0.0
220
0.0
230
1.0
 70
     8
 71
     3
 72
     9
 73
     5
 74
     0
 42
0.0000000001
 43
0.0000000001
 40
0.0
 40
0.0
 40
0.0
 40
0.0
 40
0.4744116497000001
 40
1.0
 40
1.0
 40
1.0
 40
1.0
 10
459.862156439936
 20
259.0943530449195
 30
0.0
 10
459.9504296878364
 20
259.1312609866196
 30
0.0
 10
460.141270038736
 20
259.1977850575196
 30
0.0
 10
460.337204859236
 20
259.2465639115195
 30
0.0
 10
460.4409299981358
 20
259.2684047369195
 30
0.0
  0
SPLINE
  5
19D63
330
1F
100
AcDbEntity
  8
0
  6
Continuous
 62
     7
370
    15
100
AcDbSpline
210
0.0
220
0.0
230
1.0
 70
     8
 71
     3
 72
     9
 73
     5
 74
     0
 42
0.0000000001
 43
0.0000000001
 40
0.0
 40
0.0
 40
0.0
 40
0.0
 40
0.5211303655
 40
1.0
 40
1.0
 40
1.0
 40
1.0
 10
476.3895545509363
 20
248.3471862411196
 30
0.0
 10
476.4165391628363
 20
248.2993361137195
 30
0.0
 10
476.4582296380364
 20
248.2008876851195
 30
0.0
 10
476.4675190133362
 20
248.0936603479196
 30
0.0
 10
476.4631092153364
 20
248.0433736709195
 30
0.0
  0
SPLINE
  5
19D64
330
1F
100
AcDbEntity
  8
0
  6
Continuous
 62
     7
370
    15
100
AcDbSpline
210
0.0
220
0.0
230
1.0
 70
     8
 71
     3
 72
    14
 73
    10
 74
     0
 42
0.0000000001
 43
0.0000000001
 40
0.0
 40
0.0
 40
0.0
 40
0.0
 40
0.3343308049
 40
0.4798514841
 40
0.609900409
 40
0.7247768358
 40
0.8258508473
 40
0.9160046851
 40
1.0
 40
1.0
 40
1.0
 40
1.0
 10
449.3307284275357
 20
231.4020884904195
 30
0.0
 10
449.217619704436
 20
231.4451770819195
 30
0.0
 10
449.0582029786361
 20
231.5164797079194
 30
0.0
 10
448.8705005865364
 20
231.6333405063195
 30
0.0
 10
448.759060676936
 20
231.7208778325195
 30
0.0
 10
448.6717782526362
 20
231.8114128086195
 30
0.0
 10
448.6097832892361
 20
231.9041984760195
 30
0.0
 10
448.5745688731364
 20
231.9985469150195
 30
0.0
 10
448.5700989868361
 20
232.0625643763194
 30
0.0
 10
448.5727525777361
 20
232.0928572658195
 30
0.0
  0
SPLINE
  5
19D65
330
1F
100
AcDbEntity
  8
0
  6
Continuous
 62
     7
370
    15
100
AcDbSpline
210
0.0
220
0.0
230
1.0
 70
     8
 71
     3
 72
    15
 73
    11
 74
     0
 42
0.0000000001
 43
0.0000000001
 40
0.0
 40
0.0
 40
0.0
 40
0.0
 40
0.0999727388
 40
0.2145279277
 40
0.3406088688
 40
0.4744309202000001
 40
0.6117061075
 40
0.7479445097000001
 40
0.8787612647999999
 40
1.0
 40
1.0
 40
1.0
 40
1.0
 10
464.3401662757356
 20
226.6706048890196
 30
0.0
 10
464.2524614547361
 20
226.6339346123196
 30
0.0
 10
464.057210747636
 20
226.5720009262195
 30
0.0
 10
463.7385193904361
 20
226.5115043281195
 30
0.0
 10
463.3834557226361
 20
226.4789004982195
 30
0.0
 10
463.005419045036
 20
226.4755040415195
 30
0.0
 10
462.6186045691362
 20
226.5015625358195
 30
0.0
 10
462.2376294082356
 20
226.5560591026194
 30
0.0
 10
461.8769894961356
 20
226.6369353893195
 30
0.0
 10
461.6481742490365
 20
226.7097767330195
 30
0.0
 10
461.540442826336
 20
226.7508168503195
 30
0.0
  0
SPLINE
  5
19D66
330
1F
100
AcDbEntity
  8
0
  6
Continuous
 62
     7
370
    15
100
AcDbSpline
210
0.0
220
0.0
230
1.0
 70
     8
 71
     3
 72
    15
 73
    11
 74
     0
 42
0.0000000001
 43
0.0000000001
 40
0.0
 40
0.0
 40
0.0
 40
0.0
 40
0.1035627317
 40
0.2202645702
 40
0.347128781
 40
0.4805577472
 40
0.6165933267
 40
0.7511408177
 40
0.8801831012
 40
1.0
 40
1.0
 40
1.0
 40
1.0
 10
465.6618411572359
 20
234.5802856335195
 30
0.0
 10
465.5270231616364
 20
234.5318799475195
 30
0.0
 10
465.2323484585364
 20
234.4507724290195
 30
0.0
 10
464.757809148036
 20
234.3735934082195
 30
0.0
 10
464.237125662236
 20
234.3356253764195
 30
0.0
 10
463.6884419094363
 20
234.3383553209196
 30
0.0
 10
463.1308313630357
 20
234.3817576091196
 30
0.0
 10
462.583766856536
 20
234.4643320875195
 30
0.0
 10
462.066407785736
 20
234.5831219781195
 30
0.0
 10
461.7380745645355
 20
234.6884705380195
 30
0.0
 10
461.5832047162363
 20
234.7474679649195
 30
0.0
  0
SPLINE
  5
19D67
330
1F
100
AcDbEntity
  8
0
  6
Continuous
 62
     7
370
    15
100
AcDbSpline
210
0.0
220
0.0
230
1.0
 70
     8
 71
     3
 72
    14
 73
    10
 74
     0
 42
0.0000000001
 43
0.0000000001
 40
0.0
 40
0.0
 40
0.0
 40
0.0
 40
0.3343567468
 40
0.4798562999
 40
0.6099145531
 40
0.7248008652
 40
0.8258551254
 40
0.9160033045
 40
1.0
 40
1.0
 40
1.0
 40
1.0
 10
449.8430947174361
 20
239.2198445420195
 30
0.0
 10
449.6733929777361
 20
239.2844921548194
 30
0.0
 10
449.4342344630364
 20
239.3914712366195
 30
0.0
 10
449.1526304018358
 20
239.5667960300196
 30
0.0
 10
448.9854787252357
 20
239.6981568813195
 30
0.0
 10
448.8545092274359
 20
239.8339605141195
 30
0.0
 10
448.7615903444362
 20
239.9732082723195
 30
0.0
 10
448.708791073736
 20
240.1147514356195
 30
0.0
 10
448.7021506964362
 20
240.2107938624195
 30
0.0
 10
448.706141258736
 20
240.2562399357195
 30
0.0
  0
SPLINE
  5
19D68
330
1F
100
AcDbEntity
  8
0
  6
Continuous
 62
     7
370
    15
100
AcDbSpline
210
0.0
220
0.0
230
1.0
 70
     8
 71
     3
 72
     9
 73
     5
 74
     0
 42
0.0000000001
 43
0.0000000001
 40
0.0
 40
0.0
 40
0.0
 40
0.0
 40
0.4814997774
 40
1.0
 40
1.0
 40
1.0
 40
1.0
 10
465.8684562612357
 20
229.5730739778195
 30
0.0
 10
465.6852059045364
 20
229.6422808091195
 30
0.0
 10
465.2967154144358
 20
229.7653971582195
 30
0.0
 10
464.8993402716356
 20
229.8547049747194
 30
0.0
 10
464.6919420368363
 20
229.8931743381195
 30
0.0
  0
SPLINE
  5
19D69
330
1F
100
AcDbEntity
  8
0
  6
Continuous
 62
     7
370
    15
100
AcDbSpline
210
0.0
220
0.0
230
1.0
 70
     8
 71
     3
 72
     9
 73
     5
 74
     0
 42
0.0000000001
 43
0.0000000001
 40
0.0
 40
0.0
 40
0.0
 40
0.0
 40
0.4814997774
 40
1.0
 40
1.0
 40
1.0
 40
1.0
 10
471.0528331495358
 20
231.7407146238195
 30
0.0
 10
470.8695827928364
 20
231.8099214551195
 30
0.0
 10
470.4810923027358
 20
231.9330378042195
 30
0.0
 10
470.0837171599356
 20
232.0223456208195
 30
0.0
 10
469.8763189251364
 20
232.0608149841195
 30
0.0
  0
SPLINE
  5
19D6A
330
1F
100
AcDbEntity
  8
0
  6
Continuous
 62
     7
370
    15
100
AcDbSpline
210
0.0
220
0.0
230
1.0
 70
     8
 71
     3
 72
    12
 73
     8
 74
     0
 42
0.0000000001
 43
0.0000000001
 40
0.0
 40
0.0
 40
0.0
 40
0.0
 40
0.2437223952
 40
0.5045663047
 40
0.7630102995
 40
0.8853227916999999
 40
1.0
 40
1.0
 40
1.0
 40
1.0
 10
465.722352889136
 20
243.3187413157195
 30
0.0
 10
465.4488181422363
 20
243.2772101002194
 30
0.0
 10
464.875491614736
 20
243.2355150213195
 30
0.0
 10
464.0086806031364
 20
243.2747880892195
 30
0.0
 10
463.2873801730362
 20
243.3889418483195
 30
0.0
 10
462.7423860525365
 20
243.5291093244195
 30
0.0
 10
462.4868612362357
 20
243.6142761607195
 30
0.0
 10
462.3652097601357
 20
243.6606191006194
 30
0.0
  0
SPLINE
  5
19D6B
330
1F
100
AcDbEntity
  8
0
  6
Continuous
 62
     7
370
    15
100
AcDbSpline
210
0.0
220
0.0
230
1.0
 70
     8
 71
     3
 72
    14
 73
    10
 74
     0
 42
0.0000000001
 43
0.0000000001
 40
0.0
 40
0.0
 40
0.0
 40
0.0
 40
0.3343528229
 40
0.4798497324000001
 40
0.6099196843
 40
0.7248010996
 40
0.8258592686
 40
0.9160110249999998
 40
1.0
 40
1.0
 40
1.0
 40
1.0
 10
450.6250997613356
 20
248.1329956776195
 30
0.0
 10
450.4554051503361
 20
248.1976405748195
 30
0.0
 10
450.2162552224359
 20
248.3046127008195
 30
0.0
 10
449.9346607414359
 20
248.4799365428195
 30
0.0
 10
449.7674983906359
 20
248.6112789202194
 30
0.0
 10
449.6365408519364
 20
248.7470933841194
 30
0.0
 10
449.5436066411363
 20
248.8863254539195
 30
0.0
 10
449.4908032388362
 20
249.0278632965195
 30
0.0
 10
449.4841570933364
 20
249.1238990509195
 30
0.0
 10
449.4881418415358
 20
249.1693400388195
 30
0.0
  0
SPLINE
  5
19D6C
330
1F
100
AcDbEntity
  8
0
  6
Continuous
 62
     7
370
    15
100
AcDbSpline
210
0.0
220
0.0
230
1.0
 70
     8
 71
     3
 72
     9
 73
     5
 74
     0
 42
0.0000000001
 43
0.0000000001
 40
0.0
 40
0.0
 40
0.0
 40
0.0
 40
0.4940783823
 40
1.0
 40
1.0
 40
1.0
 40
1.0
 10
456.200890952036
 20
244.8511238924195
 30
0.0
 10
456.0390499531364
 20
244.8057639165194
 30
0.0
 10
455.7236425625356
 20
244.6628276999195
 30
0.0
 10
455.4664813422355
 20
244.4318955533194
 30
0.0
 10
455.355085696036
 20
244.3007025461195
 30
0.0
  0
SPLINE
  5
19D6D
330
1F
100
AcDbEntity
  8
0
  6
Continuous
 62
     7
370
    15
100
AcDbSpline
210
0.0
220
0.0
230
1.0
 70
     8
 71
     3
 72
    11
 73
     7
 74
     0
 42
0.0000000001
 43
0.0000000001
 40
0.0
 40
0.0
 40
0.0
 40
0.0
 40
0.2424769769
 40
0.4948459217
 40
0.7499170478
 40
1.0
 40
1.0
 40
1.0
 40
1.0
 10
459.513448953036
 20
241.1218503683195
 30
0.0
 10
459.5351308813357
 20
241.3689770407196
 30
0.0
 10
459.5203557839364
 20
241.8796916365195
 30
0.0
 10
459.3426603698359
 20
242.6308868938195
 30
0.0
 10
459.0214044895361
 20
243.3412339768195
 30
0.0
 10
458.7188281234363
 20
243.7653586481194
 30
0.0
 10
458.5489129785361
 20
243.9566488818195
 30
0.0
  0
SPLINE
  5
19D6E
330
1F
100
AcDbEntity
  8
0
  6
Continuous
 62
     7
370
    15
100
AcDbSpline
210
0.0
220
0.0
230
1.0
 70
     8
 71
     3
 72
    11
 73
     7
 74
     0
 42
0.0000000001
 43
0.0000000001
 40
0.0
 40
0.0
 40
0.0
 40
0.0
 40
0.2445609696
 40
0.499696544
 40
0.7549946122
 40
1.0
 40
1.0
 40
1.0
 40
1.0
 10
457.6717587380358
 20
245.2055649535195
 30
0.0
 10
458.0291302130359
 20
244.9146813232196
 30
0.0
 10
458.6784202416362
 20
244.2164349531194
 30
0.0
 10
459.3813096925356
 20
242.9661054414196
 30
0.0
 10
459.7871171901357
 20
241.5894934910195
 30
0.0
 10
459.8351220344362
 20
240.6361529244195
 30
0.0
 10
459.7947756206364
 20
240.1762918446196
 30
0.0
  0
SPLINE
  5
19D6F
330
1F
100
AcDbEntity
  8
0
  6
Continuous
 62
     7
370
    15
100
AcDbSpline
210
0.0
220
0.0
230
1.0
 70
     8
 71
     3
 72
    15
 73
    11
 74
     0
 42
0.0000000001
 43
0.0000000001
 40
0.0
 40
0.0
 40
0.0
 40
0.0
 40
0.1413967894
 40
0.2766889836
 40
0.4058463093000001
 40
0.5294479941
 40
0.6487205954000001
 40
0.7654570181999999
 40
0.8818105278
 40
1.0
 40
1.0
 40
1.0
 40
1.0
 10
452.4376400215357
 20
242.9789811661194
 30
0.0
 10
452.4568007698359
 20
243.1973718882195
 30
0.0
 10
452.522662126236
 20
243.6229536176194
 30
0.0
 10
452.7093952398359
 20
244.2263412818195
 30
0.0
 10
452.9782472018356
 20
244.7677980934195
 30
0.0
 10
453.3235612753356
 20
245.2339202245195
 30
0.0
 10
453.7376400077361
 20
245.6127659292194
 30
0.0
 10
454.2106402641362
 20
245.8940466733195
 30
0.0
 10
454.7301234427364
 20
246.0700205944195
 30
0.0
 10
455.0940854498363
 20
246.1136310603194
 30
0.0
 10
455.2772871956364
 20
246.1177349619195
 30
0.0
  0
SPLINE
  5
19D70
330
1F
100
AcDbEntity
  8
0
  6
Continuous
 62
     7
370
    15
100
AcDbSpline
210
0.0
220
0.0
230
1.0
 70
     8
 71
     3
 72
     9
 73
     5
 74
     0
 42
0.0000000001
 43
0.0000000001
 40
0.0
 40
0.0
 40
0.0
 40
0.0
 40
0.2402648253
 40
1.0
 40
1.0
 40
1.0
 40
1.0
 10
466.3925321270359
 20
235.5463952943195
 30
0.0
 10
466.3434049200365
 20
235.5649488097195
 30
0.0
 10
466.1377882792363
 20
235.6391231498196
 30
0.0
 10
465.9280874999364
 20
235.7017943500195
 30
0.0
 10
465.7674487745358
 20
235.7438514917195
 30
0.0
  0
SPLINE
  5
19D71
330
1F
100
AcDbEntity
  8
0
  6
Continuous
 62
     7
370
    15
100
AcDbSpline
210
0.0
220
0.0
230
1.0
 70
     8
 71
     3
 72
     9
 73
     5
 74
     0
 42
0.0000000001
 43
0.0000000001
 40
0.0
 40
0.0
 40
0.0
 40
0.0
 40
0.2403173195
 40
1.0
 40
1.0
 40
1.0
 40
1.0
 10
471.5769090153359
 20
237.7140359403195
 30
0.0
 10
471.5281247185363
 20
237.7324599514195
 30
0.0
 10
471.3239958039363
 20
237.8061215296196
 30
0.0
 10
471.1158368927359
 20
237.8684381719195
 30
0.0
 10
470.9563928360363
 20
237.9102947900196
 30
0.0
  0
SPLINE
  5
19D72
330
1F
100
AcDbEntity
  8
0
  6
Continuous
 62
     7
370
    15
100
AcDbSpline
210
0.0
220
0.0
230
1.0
 70
     8
 71
     3
 72
     9
 73
     5
 74
     0
 42
0.0000000001
 43
0.0000000001
 40
0.0
 40
0.0
 40
0.0
 40
0.0
 40
0.4972350417
 40
1.0
 40
1.0
 40
1.0
 40
1.0
 10
455.2772871956364
 20
246.1177349619195
 30
0.0
 10
455.4352103827365
 20
245.9113838127195
 30
0.0
 10
455.7499283483362
 20
245.4941900381195
 30
0.0
 10
456.0540434034361
 20
245.0689920063196
 30
0.0
 10
456.200890952036
 20
244.8511238924195
 30
0.0
  0
SPLINE
  5
19D73
330
1F
100
AcDbEntity
  8
0
  6
Continuous
 62
     7
370
    15
100
AcDbSpline
210
0.0
220
0.0
230
1.0
 70
     8
 71
     3
 72
     9
 73
     5
 74
     0
 42
0.0000000001
 43
0.0000000001
 40
0.0
 40
0.0
 40
0.0
 40
0.0
 40
0.4650590374
 40
1.0
 40
1.0
 40
1.0
 40
1.0
 10
476.7070353599361
 20
253.0718572917195
 30
0.0
 10
476.6509599947363
 20
253.0241918173195
 30
0.0
 10
476.5193502696361
 20
252.9345926369195
 30
0.0
 10
476.3764138403363
 20
252.8656816629194
 30
0.0
 10
476.2983104383362
 20
252.8330258370196
 30
0.0
  0
SPLINE
  5
19D74
330
1F
100
AcDbEntity
  8
0
  6
Continuous
 62
     7
370
    15
100
AcDbSpline
210
0.0
220
0.0
230
1.0
 70
     8
 71
     3
 72
     9
 73
     5
 74
     0
 42
0.0000000001
 43
0.0000000001
 40
0.0
 40
0.0
 40
0.0
 40
0.0
 40
0.4744115694
 40
1.0
 40
1.0
 40
1.0
 40
1.0
 10
467.0404945663364
 20
248.9622389691195
 30
0.0
 10
466.9522209551356
 20
248.9253308755195
 30
0.0
 10
466.7613797676364
 20
248.8588065647194
 30
0.0
 10
466.5654440812365
 20
248.8100276022195
 30
0.0
 10
466.4617184687364
 20
248.7881867424195
 30
0.0
  0
SPLINE
  5
19D75
330
1F
100
AcDbEntity
  8
0
  6
Continuous
 62
     7
370
    15
100
AcDbSpline
210
0.0
220
0.0
230
1.0
 70
     8
 71
     3
 72
     9
 73
     5
 74
     0
 42
0.0000000001
 43
0.0000000001
 40
0.0
 40
0.0
 40
0.0
 40
0.0
 40
0.4790153713000001
 40
1.0
 40
1.0
 40
1.0
 40
1.0
 10
476.4631092153364
 20
248.0433736709195
 30
0.0
 10
476.4587023439359
 20
247.9931203669194
 30
0.0
 10
476.4309184861364
 20
247.8892496611194
 30
0.0
 10
476.3728236389357
 20
247.7996270792196
 30
0.0
 10
476.3379826952365
 20
247.7572432331194
 30
0.0
  0
ELLIPSE
  5
19D76
330
1F
100
AcDbEntity
  8
0
  6
Continuous
 62
     7
370
    15
100
AcDbEllipse
 10
464.3346311271358
 20
236.7103739530195
 30
0.0
 11
0.1805794496
 21
0.4662579154
 31
0.0
210
0.0
220
0.0
230
1.0
 40
0.5443397647000001
 41
-3.4476329362
 42
-3.138866803399999
  0
ELLIPSE
  5
19D77
330
1F
100
AcDbEntity
  8
0
  6
Continuous
 62
     7
370
    15
100
AcDbEllipse
 10
473.3144064562362
 20
246.3164946782194
 30
0.0
 11
1.593920448699999
 21
-0.1398383903
 31
0.0
210
0.0
220
0.0
230
1.0
 40
0.3859805779
 41
-0.6338675651
 42
-0.3040115121
  0
ELLIPSE
  5
19D78
330
1F
100
AcDbEntity
  8
0
  6
Continuous
 62
     7
370
    15
100
AcDbEllipse
 10
472.7866388986363
 20
240.8039203646195
 30
0.0
 11
2.988600841299999
 21
-0.2621969818
 31
0.0
210
0.0
220
0.0
230
1.0
 40
0.3859805779
 41
-0.6338675651
 42
0.0031232043
  0
ELLIPSE
  5
19D79
330
1F
100
AcDbEntity
  8
0
  6
Continuous
 62
     7
370
    15
100
AcDbEllipse
 10
473.2264228813361
 20
246.3190154040196
 30
0.0
 11
2.988600841299999
 21
-0.2621969818
 31
0.0
210
0.0
220
0.0
230
1.0
 40
0.3859805779
 41
5.6493177421
 42
6.0827518195
  0
ELLIPSE
  5
19D7A
330
1F
100
AcDbEntity
  8
0
  6
Continuous
 62
     7
370
    15
100
AcDbEllipse
 10
472.6957500086361
 20
239.4285005023195
 30
0.0
 11
2.989711262799999
 21
-0.2485685847
 31
0.0
210
0.0
220
0.0
230
1.0
 40
0.38312305
 41
-0.5727640235
 42
-0.001728841
  0
ELLIPSE
  5
19D7B
330
1F
100
AcDbEntity
  8
0
  6
Continuous
 62
     7
370
    15
100
AcDbEllipse
 10
473.308515789036
 20
246.4126933209195
 30
0.0
 11
2.989711262799999
 21
-0.2485685847
 31
0.0
210
0.0
220
0.0
230
1.0
 40
0.38312305
 41
-0.5312180067
 42
-0.0016538958
  0
ELLIPSE
  5
19D7C
330
1F
100
AcDbEntity
  8
0
  6
Continuous
 62
     7
370
    15
100
AcDbEllipse
 10
464.0474010477361
 20
242.5043065398195
 30
0.0
 11
2.9856107742
 21
-0.2950688771
 31
0.0
210
0.0
220
0.0
230
0.9999999999999998
 40
0.3729276302000001
 41
-1.6741429433
 42
-1.1152921161
  0
ELLIPSE
  5
19D7D
330
1F
100
AcDbEntity
  8
0
  6
Continuous
 62
     7
370
    15
100
AcDbEllipse
 10
452.3071805148362
 20
246.9754232698194
 30
0.0
 11
2.9856107742
 21
-0.2950688771
 31
0.0
210
0.0
220
0.0
230
0.9999999999999998
 40
0.3729276302000001
 41
-3.137280663
 42
-2.7269976979
  0
ELLIPSE
  5
19D7E
330
1F
100
AcDbEntity
  8
0
  6
Continuous
 62
     7
370
    15
100
AcDbEllipse
 10
463.8099646420356
 20
239.7980496102195
 30
0.0
 11
2.792739522299999
 21
-2.060498578399999
 31
0.0
210
0.0
220
0.0
230
0.9999999999999998
 40
0.2627012086
 41
0.8557720768999999
 42
0.9059488602
  0
ELLIPSE
  5
19D7F
330
1F
100
AcDbEntity
  8
0
  6
Continuous
 62
     7
370
    15
100
AcDbEllipse
 10
474.014789960836
 20
254.4626777611196
 30
0.0
 11
2.7934807826
 21
-2.041666452099999
 31
0.0
210
0.0
220
0.0
230
0.9999999999999998
 40
0.2686068017
 41
0.4299278060000001
 42
0.5248793721000001
  0
ELLIPSE
  5
19D80
330
1F
100
AcDbEntity
  8
0
  6
Continuous
 62
     7
370
    15
100
AcDbEllipse
 10
453.016864335536
 20
255.0642702693195
 30
0.0
 11
2.442644240499999
 21
3.3421128792
 31
0.0
210
0.0
220
0.0
230
0.9999999999999998
 40
0.5931045634000001
 41
-4.281519766299999
 42
-4.186568166799999
  0
ELLIPSE
  5
19D81
330
1F
100
AcDbEntity
  8
0
  6
Continuous
 62
     7
370
    15
100
AcDbEllipse
 10
469.4150284039356
 20
441.9675592210195
 30
0.0
 11
48.0439966212
 21
527.3025218423
 31
0.0
210
0.0
220
0.0
230
1.0
 40
0.00456952
 41
-4.348784040199999
 42
-4.338244808699999
  0
ELLIPSE
  5
19D82
330
1F
100
AcDbEntity
  8
0
  6
Continuous
 62
     7
370
    15
100
AcDbEllipse
 10
490.4129073740356
 20
441.3654349464193
 30
0.0
 11
44.34078831859995
 21
525.7542158616001
 31
0.0
210
0.0
220
0.0
230
1.0
 40
0.004576941
 41
-1.9475347006
 42
-1.936995473499999
  0
ELLIPSE
  5
19D83
330
1F
100
AcDbEntity
  8
0
  6
Continuous
 62
     7
370
    15
100
AcDbEllipse
 10
464.0931015638358
 20
243.0251927039196
 30
0.0
 11
2.3123834827
 21
5.532828890000001
 31
0.0
210
0.0
220
0.0
230
1.0
 40
0.4173954002000001
 41
-1.6658620911
 42
-1.5528266633
  0
ELLIPSE
  5
19D84
330
1F
100
AcDbEntity
  8
0
  6
Continuous
 62
     7
370
    15
100
AcDbEllipse
 10
464.3072991191362
 20
245.4665774470195
 30
0.0
 11
2.989711262799999
 21
-0.2485685847
 31
0.0
210
0.0
220
0.0
230
1.0
 40
0.38312305
 41
-0.6984826912000001
 42
-0.6356233573
  0
ELLIPSE
  5
19D85
330
1F
100
AcDbEntity
  8
0
  6
Continuous
 62
     7
370
    15
100
AcDbEllipse
 10
473.565114991136
 20
249.3373643150195
 30
0.0
 11
2.989711262799999
 21
-0.2485685847
 31
0.0
210
0.0
220
0.0
230
1.0
 40
0.38312305
 41
-0.6356233573
 42
-0.5727640235
  0
ELLIPSE
  5
19D86
330
1F
100
AcDbEntity
  8
0
  6
Continuous
 62
     7
370
    15
100
AcDbEllipse
 10
472.810358100936
 20
240.7347826759195
 30
0.0
 11
2.987312805099999
 21
-0.2759036289
 31
0.0
210
0.0
220
0.0
230
1.0
 40
0.3888445647
 41
-0.5692334799000001
 42
0.1044311849
  0
ELLIPSE
  5
19D87
330
1F
100
AcDbEntity
  8
0
  6
Continuous
 62
     7
370
    15
100
AcDbEllipse
 10
451.815841633636
 20
241.3752321453195
 30
0.0
 11
2.991442482799999
 21
-0.22854239
 31
0.0
210
0.0
220
0.0
230
1.0
 40
0.3989723392
 41
3.137309723399999
 42
3.5475927051
  0
ELLIPSE
  5
19D88
330
1F
100
AcDbEntity
  8
0
  6
Continuous
 62
     7
370
    15
100
AcDbEllipse
 10
463.5558410984364
 20
236.9015957212195
 30
0.0
 11
2.991442482799999
 21
-0.22854239
 31
0.0
210
0.0
220
0.0
230
1.0
 40
0.3989723392
 41
-1.6827378474
 42
-1.123887020199999
  0
ELLIPSE
  5
19D89
330
1F
100
AcDbEntity
  8
0
  6
Continuous
 62
     7
370
    15
100
AcDbEllipse
 10
464.7569743344361
 20
250.5918936922195
 30
0.0
 11
2.442644240499999
 21
3.3421128792
 31
0.0
210
0.0
220
0.0
230
0.9999999999999998
 40
0.5931045634000001
 41
-1.7747453574
 42
-1.679793757799999
  0
ELLIPSE
  5
19D8A
330
1F
100
AcDbEntity
  8
0
  6
Continuous
 62
     7
370
    15
100
AcDbEllipse
 10
481.1551384028359
 20
437.4951826439194
 30
0.0
 11
48.0439966212
 21
527.3025218423
 31
0.0
210
0.0
220
0.0
230
1.0
 40
0.00456952
 41
-1.947500462299999
 42
-1.9369612308
  0
ELLIPSE
  5
19D8B
330
1F
100
AcDbEntity
  8
0
  6
Continuous
 62
     7
370
    15
100
AcDbEllipse
 10
464.2149365118362
 20
244.4138452625195
 30
0.0
 11
2.987312805099999
 21
-0.2759036289
 31
0.0
210
0.0
220
0.0
230
1.0
 40
0.3888445647
 41
-0.6949521477
 42
-0.6320928138000001
  0
ELLIPSE
  5
19D8C
330
1F
100
AcDbEntity
  8
0
  6
Continuous
 62
     7
370
    15
100
AcDbEllipse
 10
473.4727523838361
 20
248.2846321305195
 30
0.0
 11
2.987312805099999
 21
-0.2759036289
 31
0.0
210
0.0
220
0.0
230
1.0
 40
0.3888445647
 41
-0.6320928138000001
 42
-0.5692334799000001
  0
ELLIPSE
  5
19D8D
330
1F
100
AcDbEntity
  8
0
  6
Continuous
 62
     7
370
    15
100
AcDbEllipse
 10
473.5144687192356
 20
246.5342005052196
 30
0.0
 11
-0.9125133175
 21
1.599214437899999
 31
0.0
210
0.0
220
0.0
230
1.0
 40
0.3853218295
 41
-2.0576979492
 42
-2.039419892899999
  0
ELLIPSE
  5
19D8E
330
1F
100
AcDbEntity
  8
0
  6
Continuous
 62
     7
370
    15
100
AcDbEllipse
 10
473.3509174358356
 20
246.8959795718194
 30
0.0
 11
-2.2812832938
 21
3.9980360948
 31
0.0
210
0.0
220
0.0
230
1.0
 40
0.3853218295
 41
-2.104688457099999
 42
-2.000283106499999
  0
ENDSEC
  0
SECTION
  2
OBJECTS
  0
DICTIONARY
  5
C
330
0
100
AcDbDictionary
281
     1
  3
ACAD_COLOR
350
4FFE
  3
ACAD_GROUP
350
D
  3
ACAD_LAYOUT
350
1A
  3
ACAD_MATERIAL
350
4FE5
  3
ACAD_MLEADERSTYLE
350
5022
  3
ACAD_MLINESTYLE
350
17
  3
ACAD_PLOTSETTINGS
350
19
  3
ACAD_PLOTSTYLENAME
350
E
  3
ACAD_RENDER_PLOT_SETTINGS
350
6537
  3
ACAD_SCALELIST
350
5000
  3
ACAD_TABLESTYLE
350
4FE3
  3
ACAD_VISUALSTYLE
350
2A
  3
ACDB_RECOMPOSE_DATA
350
50EC
  3
AcDbVariableDictionary
350
5108
  3
ASE_INDEX_DICTIONARY
350
19FBF
  3
lxx_dict
350
11734
  0
DICTIONARY
  5
50EE
330
8
100
AcDbDictionary
280
     1
281
     1
  0
DICTIONARY
  5
50B8
330
2
100
AcDbDictionary
280
     1
281
     1
  3
ACAD_LAYERFILTERS
360
67BE
  3
ACAD_LAYERSTATES
360
50B9
  3
ACLYDICTIONARY
360
67BD
  0
DICTIONARY
  5
50D0
330
10
100
AcDbDictionary
280
     1
281
     1
  3
ADSK_XREC_LAYER_RECONCILED
360
50D1
  0
DICTIONARY
  5
50D2
330
3B
100
AcDbDictionary
280
     1
281
     1
  3
ADSK_XREC_LAYER_RECONCILED
360
50D3
  0
DICTIONARY
  5
50AF
330
50AE
100
AcDbDictionary
280
     1
281
     1
  3
ADSK_XREC_LAYER_RECONCILED
360
50D4
  0
DICTIONARY
  5
67C0
330
1F
100
AcDbDictionary
280
     1
281
     1
  3
ACAD_SORTENTS
360
67C1
  0
DICTIONARY
  5
19FED
330
15DB6
100
AcDbDictionary
280
     1
281
     1
  3
ACAD_MTEXT_2008_RT
360
1A00D
  0
DICTIONARY
  5
19FEF
330
15DFA
100
AcDbDictionary
280
     1
281
     1
  3
ACAD_MTEXT_2008_RT
360
1A00E
  0
DICTIONARY
  5
19FF1
330
15DFB
100
AcDbDictionary
280
     1
281
     1
  3
ACAD_MTEXT_2008_RT
360
1A00F
  0
DICTIONARY
  5
19FF3
330
15E20
100
AcDbDictionary
280
     1
281
     1
  3
ACAD_MTEXT_2008_RT
360
1A010
  0
DICTIONARY
  5
19FF5
330
15E23
100
AcDbDictionary
280
     1
281
     1
  3
ACAD_MTEXT_2008_RT
360
1A011
  0
DICTIONARY
  5
19FF7
330
15E24
100
AcDbDictionary
280
     1
281
     1
  3
ACAD_MTEXT_2008_RT
360
1A012
  0
DICTIONARY
  5
19FF9
330
15E2E
100
AcDbDictionary
280
     1
281
     1
  3
ACAD_MTEXT_2008_RT
360
1A013
  0
DICTIONARY
  5
19FFB
330
15E2F
100
AcDbDictionary
280
     1
281
     1
  3
ACAD_MTEXT_2008_RT
360
1A014
  0
DICTIONARY
  5
19FFD
330
15E30
100
AcDbDictionary
280
     1
281
     1
  3
ACAD_MTEXT_2008_RT
360
1A015
  0
DICTIONARY
  5
19FFF
330
15E3E
100
AcDbDictionary
280
     1
281
     1
  3
ACAD_MTEXT_2008_RT
360
1A016
  0
DICTIONARY
  5
1A001
330
15E3F
100
AcDbDictionary
280
     1
281
     1
  3
ACAD_MTEXT_2008_RT
360
1A017
  0
DICTIONARY
  5
1A003
330
15E40
100
AcDbDictionary
280
     1
281
     1
  3
ACAD_MTEXT_2008_RT
360
1A018
  0
DICTIONARY
  5
1A005
330
16019
100
AcDbDictionary
280
     1
281
     1
  3
ACAD_MTEXT_2008_RT
360
1A019
  0
DICTIONARY
  5
1A007
330
1601A
100
AcDbDictionary
280
     1
281
     1
  3
ACAD_MTEXT_2008_RT
360
1A01A
  0
DICTIONARY
  5
19712
330
19711
100
AcDbDictionary
280
     1
281
     1
  3
ACAD_DIMASSOC
360
19713
  0
DICTIONARY
  5
19715
330
19714
100
AcDbDictionary
280
     1
281
     1
  3
ACAD_DIMASSOC
360
19716
  0
DICTIONARY
  5
19718
330
19717
100
AcDbDictionary
280
     1
281
     1
  3
ACAD_DIMASSOC
360
19719
  0
DICTIONARY
  5
4FFE
102
{ACAD_REACTORS
330
C
102
}
330
C
100
AcDbDictionary
281
     1
  0
DICTIONARY
  5
D
102
{ACAD_REACTORS
330
C
102
}
330
C
100
AcDbDictionary
281
     1
  0
DICTIONARY
  5
1A
102
{ACAD_REACTORS
330
C
102
}
330
C
100
AcDbDictionary
281
     1
  3
Layout1
350
1E
  3
Layout2
350
26
  3
Model
350
22
  0
DICTIONARY
  5
4FE5
102
{ACAD_REACTORS
330
C
102
}
330
C
100
AcDbDictionary
281
     1
  3
ByBlock
350
4FEE
  3
ByLayer
350
4FE6
  3
Global
350
4FF6
  0
DICTIONARY
  5
5022
102
{ACAD_REACTORS
330
C
102
}
330
C
100
AcDbDictionary
281
     1
  3
Standard
350
5023
  0
DICTIONARY
  5
17
102
{ACAD_REACTORS
330
C
102
}
330
C
100
AcDbDictionary
281
     1
  3
Standard
350
18
  0
DICTIONARY
  5
19
102
{ACAD_REACTORS
330
C
102
}
330
C
100
AcDbDictionary
281
     1
  0
ACDBDICTIONARYWDFLT
  5
E
102
{ACAD_REACTORS
330
C
102
}
330
C
100
AcDbDictionary
281
     1
  3
Normal
350
F
100
AcDbDictionaryWithDefault
340
F
  0
DICTIONARY
  5
6537
102
{ACAD_REACTORS
330
C
102
}
330
C
100
AcDbDictionary
281
     1
  3
{1DC63513-1B1A-422F-9880-65CFD2B8D533}
350
6538
  0
DICTIONARY
  5
5000
102
{ACAD_REACTORS
330
C
102
}
330
C
100
AcDbDictionary
281
     1
  3
A0
350
5001
  3
A1
350
5002
  3
A2
350
5003
  3
A3
350
5004
  3
A4
350
5005
  3
A5
350
5006
  3
A6
350
5007
  3
A7
350
5008
  3
A8
350
5009
  3
A9
350
500A
  3
B0
350
500B
  3
B1
350
500C
  3
B2
350
500D
  3
B3
350
500E
  3
B4
350
500F
  3
B5
350
5010
  3
B6
350
5011
  3
B7
350
5012
  3
B8
350
5013
  3
B9
350
5014
  3
C0
350
5015
  3
C1
350
5016
  3
C2
350
5017
  3
C3
350
5018
  3
C4
350
5019
  3
C5
350
501A
  3
C6
350
501B
  3
C7
350
501C
  3
C8
350
501D
  3
C9
350
501E
  3
D0
350
501F
  3
D1
350
5020
  3
D2
350
5021
  0
DICTIONARY
  5
4FE3
102
{ACAD_REACTORS
330
C
102
}
330
C
100
AcDbDictionary
281
     1
  3
Standard
350
4FFF
  0
DICTIONARY
  5
2A
102
{ACAD_REACTORS
330
C
102
}
330
C
100
AcDbDictionary
281
     1
  3
2dWireframe
350
2F
  3
3D Hidden
350
31
  3
3dWireframe
350
30
  3
Basic
350
32
  3
Brighten
350
36
  3
ColorChange
350
3A
  3
Conceptual
350
34
  3
Dim
350
35
  3
Facepattern
350
39
  3
Flat
350
2B
  3
FlatWithEdges
350
2C
  3
Gouraud
350
2D
  3
GouraudWithEdges
350
2E
  3
Linepattern
350
38
  3
Realistic
350
33
  3
Thicken
350
37
  0
XRECORD
  5
50EC
102
{ACAD_REACTORS
330
C
102
}
330
C
100
AcDbXrecord
280
     1
 90
        1
330
4FFF
330
15DB6
330
15DFA
330
15DFB
330
15E20
330
15E23
330
15E24
330
15E2E
330
15E2F
330
15E30
330
15E3E
330
15E3F
330
15E40
330
16019
330
1601A
  0
DICTIONARY
  5
5108
102
{ACAD_REACTORS
330
C
102
}
330
C
100
AcDbDictionary
281
     1
  3
CANNOSCALE
350
510B
  3
CMLEADERSTYLE
350
510A
  3
CTABLESTYLE
350
5109
  3
DIMASSOC
350
510E
  3
INDEXCTL
350
510D
  3
LIGHTINGUNITS
350
12E81
  3
MSLTSCALE
350
12E80
  3
SORTENTS
350
510C
  0
DICTIONARY
  5
19FBF
102
{ACAD_REACTORS
330
C
102
}
330
C
100
AcDbDictionary
281
     1
  3
ASEBlockHierarchyIndexRecord
350
19FC0
1001
DCO15
1040
1903517761.89
  0
DICTIONARY
  5
11734
102
{ACAD_REACTORS
330
C
102
}
330
C
100
AcDbDictionary
281
     1
  3
lxx_dimth
350
11735
  0
DICTIONARY
  5
67BE
102
{ACAD_REACTORS
330
50B8
102
}
330
50B8
100
AcDbDictionary
281
     1
  0
DICTIONARY
  5
50B9
102
{ACAD_REACTORS
330
50B8
102
}
330
50B8
100
AcDbDictionary
281
     1
  0
DICTIONARY
  5
67BD
102
{ACAD_REACTORS
330
50B8
102
}
330
50B8
100
AcDbDictionary
281
     1
1001
ACAD
1000
<All
  0
XRECORD
  5
50D1
102
{ACAD_REACTORS
330
50D0
102
}
330
50D0
100
AcDbXrecord
280
     1
290
     1
  0
XRECORD
  5
50D3
102
{ACAD_REACTORS
330
50D2
102
}
330
50D2
100
AcDbXrecord
280
     1
290
     1
  0
XRECORD
  5
50D4
102
{ACAD_REACTORS
330
50AF
102
}
330
50AF
100
AcDbXrecord
280
     1
290
     1
  0
SORTENTSTABLE
  5
67C1
102
{ACAD_REACTORS
330
67C0
102
}
330
67C0
100
AcDbSortentsTable
330
1F
331
3943
  5
4842
331
2EE7
  5
2F93
331
35C8
  5
35D8
331
28AE
  5
2A38
331
2FDE
  5
35C8
331
65B2
  5
65B3
331
3895
  5
3943
331
4842
  5
4E94
331
2C65
  5
2EE7
331
3807
  5
3895
331
65A4
  5
65A5
331
65A0
  5
65A1
331
35D8
  5
3807
331
65A3
  5
65A4
331
2F93
  5
2FDE
331
65A1
  5
65A2
  0
XRECORD
  5
1A00D
102
{ACAD_REACTORS
330
19FED
102
}
330
19FED
100
AcDbXrecord
280
     1
 40
1925.0
  1
\pxqc;WL KANG
  0
XRECORD
  5
1A00E
102
{ACAD_REACTORS
330
19FEF
102
}
330
19FEF
100
AcDbXrecord
280
     1
 40
382080.0
  1
\pxqc;档案员{\H0.7x;\P\Fromans|c134;Filing Clerk\fFangSong_GB2312|b0|i0|c134|p49; }
  0
XRECORD
  5
1A00F
102
{ACAD_REACTORS
330
19FF1
102
}
330
19FF1
100
AcDbXrecord
280
     1
 40
48245.0
  1
\pxqc;日期{\Fromans|c134;/Date}
  0
XRECORD
  5
1A010
102
{ACAD_REACTORS
330
19FF3
102
}
330
19FF3
100
AcDbXrecord
280
     1
 40
71634.0
  1
\pxsm0.7;{\fFangSong_GB2312|b0|i0|c134|p49;标准化}\PStand.
  0
XRECORD
  5
1A011
102
{ACAD_REACTORS
330
19FF5
102
}
330
19FF5
100
AcDbXrecord
280
     1
 40
48353.0
  1
\pxsm0.7;签名\P{\Fromans|c134;Signature} 
  0
XRECORD
  5
1A012
102
{ACAD_REACTORS
330
19FF7
102
}
330
19FF7
100
AcDbXrecord
280
     1
 40
38427.0
  1
\pxsm0.7,qc;处数\P{\Fromans|c134;Number }
  0
XRECORD
  5
1A013
102
{ACAD_REACTORS
330
19FF9
102
}
330
19FF9
100
AcDbXrecord
280
     1
 40
31190.0
  1
\pxsm0.7;标记\P{\Fromans|c134;Mark}
  0
XRECORD
  5
1A014
102
{ACAD_REACTORS
330
19FFB
102
}
330
19FFB
100
AcDbXrecord
280
     1
 40
39355.0
  1
\pxsm0.7;审核\P{\Fromans|c134;Checked}
  0
XRECORD
  5
1A015
102
{ACAD_REACTORS
330
19FFD
102
}
330
19FFD
100
AcDbXrecord
280
     1
 40
66730.0
  1
\pxsm0.7;绘图\P{\Fromans|c134;Drawn\Ftxt|c134; }
  0
XRECORD
  5
1A016
102
{ACAD_REACTORS
330
19FFF
102
}
330
19FFF
100
AcDbXrecord
280
     1
 40
43787.0
  1
\pxsm0.7;批准\P{\Fromans|c134;Approved}
  0
XRECORD
  5
1A017
102
{ACAD_REACTORS
330
1A001
102
}
330
1A001
100
AcDbXrecord
280
     1
 40
40691.0
  1
\pxsm0.7;工艺\P{\Fromans|c134;Process}
  0
XRECORD
  5
1A018
102
{ACAD_REACTORS
330
1A003
102
}
330
1A003
100
AcDbXrecord
280
     1
 40
30977.0
  1
\pxsm0.7;日期\P{\Fromans|c134;Date}
  0
XRECORD
  5
1A019
102
{ACAD_REACTORS
330
1A005
102
}
330
1A005
100
AcDbXrecord
280
     1
 40
1809516.0
  1
\A1;\pxql;技术参数:\P- 类型：SC光纤\P- 插针数: {\Fromans|c134;4}\P- 材料：聚碳酸酯\P- 颜色：{\Fromans|c134;RAL 7032}（浅灰色）\P- 温度范围：{\Fromans|c134;-40}℃{\Fromans|c134; - +85}℃{\Fromans|c134;\P}- 依据UL 94的阻燃等级：{\Fromans|c134;V0}\P\pq*;- 可插拔次数：≥{\Fromans|c134;500\P}- 插入损耗：＜{\F
  1
romans|c134;0.5dB}
  0
XRECORD
  5
1A01A
102
{ACAD_REACTORS
330
1A007
102
}
330
1A007
100
AcDbXrecord
280
     1
 40
5558981.0
  1
\A1;\pxql;Technical specification:\P- Type: SC fiber\P- No. of contact: 4\P- Material: polycarbonate\P- Colour: RAL 7032(light grey) \P- Temperature range: -40{\fArial|b0|i0|c0|p34;℃} - +85{\fArial|b0|i0|c0|p34;℃}\P- Flammability acc.to UL 94: V0\P- 
  1
Mating cycles: {\fFangSong_GB2312|b0|i0|c134|p49;≥}500\P- Insertion loss:{\fFangSong_GB2312|b0|i0|c134|p49;＜}0.5dB
  0
DIMASSOC
  5
19713
102
{ACAD_REACTORS
330
19712
102
}
330
19712
100
AcDbDimAssoc
330
19711
 90
        3
 70
     0
 71
     0
  1
AcDbOsnapPointRef
 72
     1
331
19700
 73
     2
 91
        0
 40
3.141592653589793
 10
0.0
 20
0.0
 30
2.000000000000000E+50
 75
     0
  1
AcDbOsnapPointRef
 72
    13
331
196FE
 73
     2
 91
        0
 40
0.0
 10
0.0
 20
0.0
 30
2.000000000000000E+50
 75
     0
  0
DIMASSOC
  5
19716
102
{ACAD_REACTORS
330
19715
102
}
330
19715
100
AcDbDimAssoc
330
19714
 90
        3
 70
     0
 71
     0
  1
AcDbOsnapPointRef
 72
    13
331
19629
 73
     2
 91
        0
 40
0.0
 10
0.0
 20
0.0
 30
2.000000000000000E+50
 75
     0
  1
AcDbOsnapPointRef
 72
     2
331
195E8
 73
     2
 91
        0
 40
0.5
 10
0.0
 20
0.0
 30
0.0
 75
     0
  0
DIMASSOC
  5
19719
102
{ACAD_REACTORS
330
19718
102
}
330
19718
100
AcDbDimAssoc
330
19717
 90
        3
 70
     0
 71
     0
  1
AcDbOsnapPointRef
 72
    13
331
1961E
 73
     2
 91
        0
 40
0.0
 10
0.0
 20
0.0
 30
2.000000000000000E+50
 75
     0
  1
AcDbOsnapPointRef
 72
    13
331
19600
 73
     2
 91
        0
 40
0.0
 10
0.0
 20
0.0
 30
2.000000000000000E+50
 75
     0
  0
LAYOUT
  5
1E
102
{ACAD_REACTORS
330
1A
102
}
330
1A
100
AcDbPlotSettings
  1

  2
none_device
  4

  6

 40
0.0
 41
0.0
 42
0.0
 43
0.0
 44
0.0
 45
0.0
 46
0.0
 47
0.0
 48
0.0
 49
0.0
140
0.0
141
0.0
142
1.0
143
1.0
 70
   688
 72
     0
 73
     0
 74
     5
  7

 75
    16
147
1.0
 76
     0
 77
     2
 78
   300
148
0.0
149
0.0
100
AcDbLayout
  1
Layout1
 70
     1
 71
     1
 10
0.0
 20
0.0
 11
12.0
 21
9.0
 12
0.0
 22
0.0
 32
0.0
 14
1.000000000000000E+20
 24
1.000000000000000E+20
 34
1.000000000000000E+20
 15
-1.000000000000000E+20
 25
-1.000000000000000E+20
 35
-1.000000000000000E+20
146
0.0
 13
0.0
 23
0.0
 33
0.0
 16
1.0
 26
0.0
 36
0.0
 17
0.0
 27
1.0
 37
0.0
 76
     0
330
1B
  0
LAYOUT
  5
26
102
{ACAD_REACTORS
330
1A
102
}
330
1A
100
AcDbPlotSettings
  1

  2
none_device
  4

  6

 40
0.0
 41
0.0
 42
0.0
 43
0.0
 44
0.0
 45
0.0
 46
0.0
 47
0.0
 48
0.0
 49
0.0
140
0.0
141
0.0
142
1.0
143
1.0
 70
   688
 72
     0
 73
     0
 74
     5
  7

 75
    16
147
1.0
 76
     0
 77
     2
 78
   300
148
0.0
149
0.0
100
AcDbLayout
  1
Layout2
 70
     1
 71
     2
 10
0.0
 20
0.0
 11
0.0
 21
0.0
 12
0.0
 22
0.0
 32
0.0
 14
0.0
 24
0.0
 34
0.0
 15
0.0
 25
0.0
 35
0.0
146
0.0
 13
0.0
 23
0.0
 33
0.0
 16
1.0
 26
0.0
 36
0.0
 17
0.0
 27
1.0
 37
0.0
 76
     0
330
23
  0
LAYOUT
  5
22
102
{ACAD_REACTORS
330
1A
102
}
330
1A
100
AcDbPlotSettings
  1

  2
Adobe PDF Converter.pc3
  4
A4
  6

 40
3.174999952316281
 41
3.174999952316281
 42
3.17498779296875
 43
3.175003051757812
 44
297.0318298339844
 45
209.9733276367186
 46
0.0000000000000076
 47
1.630241740247063
 48
246.9897427644609
 49
39.36804549891383
140
544.952097801264
141
244.7492402188181
142
1.0
143
1.025046328645055
 70
  3764
 72
     1
 73
     0
 74
     4
  7
monochrome.ctb
 75
     0
147
0.9755656618192436
 76
     1
 77
     2
 78
   300
148
-246.9897427644609
149
-39.36804549891383
100
AcDbLayout
  1
Model
 70
     1
 71
     0
 10
0.0
 20
0.0
 11
12.0
 21
9.0
 12
0.0
 22
0.0
 32
0.0
 14
1.000000000000000E+20
 24
1.000000000000000E+20
 34
1.000000000000000E+20
 15
-1.000000000000000E+20
 25
-1.000000000000000E+20
 35
-1.000000000000000E+20
146
0.0
 13
0.0
 23
0.0
 33
0.0
 16
1.0
 26
0.0
 36
0.0
 17
0.0
 27
1.0
 37
0.0
 76
     0
330
1F
331
29
1001
ACAD_PSEXT
1000
Adobe PDF Converter.pc3
1000
Adobe PDF Converter
1000
桌面\*.pdf
1000

1070
     0
  0
MATERIAL
  5
4FEE
102
{ACAD_XDICTIONARY
360
4FEF
102
}
102
{ACAD_REACTORS
330
4FE5
102
}
330
4FE5
100
AcDbMaterial
  1
ByBlock
 72
     0
 43
0.0208333333333333
 43
0.0
 43
0.0
 43
0.0
 43
0.0
 43
0.0208333333333333
 43
0.0
 43
0.0
 43
0.0
 43
0.0
 43
1.0
 43
0.0
 43
0.0
 43
0.0
 43
0.0
 43
1.0
 77
     0
 47
0.0208333333333333
 47
0.0
 47
0.0
 47
0.0
 47
0.0
 47
0.0208333333333333
 47
0.0
 47
0.0
 47
0.0
 47
0.0
 47
1.0
 47
0.0
 47
0.0
 47
0.0
 47
0.0
 47
1.0
171
     0
 49
0.0208333333333333
 49
0.0
 49
0.0
 49
0.0
 49
0.0
 49
0.0208333333333333
 49
0.0
 49
0.0
 49
0.0
 49
0.0
 49
1.0
 49
0.0
 49
0.0
 49
0.0
 49
0.0
 49
1.0
175
     0
142
0.0208333333333333
142
0.0
142
0.0
142
0.0
142
0.0
142
0.0208333333333333
142
0.0
142
0.0
142
0.0
142
0.0
142
1.0
142
0.0
142
0.0
142
0.0
142
0.0
142
1.0
179
     0
144
0.0208333333333333
144
0.0
144
0.0
144
0.0
144
0.0
144
0.0208333333333333
144
0.0
144
0.0
144
0.0
144
0.0
144
1.0
144
0.0
144
0.0
144
0.0
144
0.0
144
1.0
147
0.0208333333333333
147
0.0
147
0.0
147
0.0
147
0.0
147
0.0208333333333333
147
0.0
147
0.0
147
0.0
147
0.0
147
1.0
147
0.0
147
0.0
147
0.0
147
0.0
147
1.0
  0
MATERIAL
  5
4FE6
102
{ACAD_XDICTIONARY
360
4FE7
102
}
102
{ACAD_REACTORS
330
4FE5
102
}
330
4FE5
100
AcDbMaterial
  1
ByLayer
 72
     0
 43
0.0208333333333333
 43
0.0
 43
0.0
 43
0.0
 43
0.0
 43
0.0208333333333333
 43
0.0
 43
0.0
 43
0.0
 43
0.0
 43
1.0
 43
0.0
 43
0.0
 43
0.0
 43
0.0
 43
1.0
 77
     0
 47
0.0208333333333333
 47
0.0
 47
0.0
 47
0.0
 47
0.0
 47
0.0208333333333333
 47
0.0
 47
0.0
 47
0.0
 47
0.0
 47
1.0
 47
0.0
 47
0.0
 47
0.0
 47
0.0
 47
1.0
171
     0
 49
0.0208333333333333
 49
0.0
 49
0.0
 49
0.0
 49
0.0
 49
0.0208333333333333
 49
0.0
 49
0.0
 49
0.0
 49
0.0
 49
1.0
 49
0.0
 49
0.0
 49
0.0
 49
0.0
 49
1.0
175
     0
142
0.0208333333333333
142
0.0
142
0.0
142
0.0
142
0.0
142
0.0208333333333333
142
0.0
142
0.0
142
0.0
142
0.0
142
1.0
142
0.0
142
0.0
142
0.0
142
0.0
142
1.0
179
     0
144
0.0208333333333333
144
0.0
144
0.0
144
0.0
144
0.0
144
0.0208333333333333
144
0.0
144
0.0
144
0.0
144
0.0
144
1.0
144
0.0
144
0.0
144
0.0
144
0.0
144
1.0
147
0.0208333333333333
147
0.0
147
0.0
147
0.0
147
0.0
147
0.0208333333333333
147
0.0
147
0.0
147
0.0
147
0.0
147
1.0
147
0.0
147
0.0
147
0.0
147
0.0
147
1.0
  0
MATERIAL
  5
4FF6
102
{ACAD_XDICTIONARY
360
4FF7
102
}
102
{ACAD_REACTORS
330
4FE5
102
}
330
4FE5
100
AcDbMaterial
  1
Global
 72
     0
 43
0.0208333333333333
 43
0.0
 43
0.0
 43
0.0
 43
0.0
 43
0.0208333333333333
 43
0.0
 43
0.0
 43
0.0
 43
0.0
 43
1.0
 43
0.0
 43
0.0
 43
0.0
 43
0.0
 43
1.0
 77
     0
 47
0.0208333333333333
 47
0.0
 47
0.0
 47
0.0
 47
0.0
 47
0.0208333333333333
 47
0.0
 47
0.0
 47
0.0
 47
0.0
 47
1.0
 47
0.0
 47
0.0
 47
0.0
 47
0.0
 47
1.0
171
     0
 49
0.0208333333333333
 49
0.0
 49
0.0
 49
0.0
 49
0.0
 49
0.0208333333333333
 49
0.0
 49
0.0
 49
0.0
 49
0.0
 49
1.0
 49
0.0
 49
0.0
 49
0.0
 49
0.0
 49
1.0
175
     0
142
0.0208333333333333
142
0.0
142
0.0
142
0.0
142
0.0
142
0.0208333333333333
142
0.0
142
0.0
142
0.0
142
0.0
142
1.0
142
0.0
142
0.0
142
0.0
142
0.0
142
1.0
179
     0
144
0.0208333333333333
144
0.0
144
0.0
144
0.0
144
0.0
144
0.0208333333333333
144
0.0
144
0.0
144
0.0
144
0.0
144
1.0
144
0.0
144
0.0
144
0.0
144
0.0
144
1.0
147
0.0208333333333333
147
0.0
147
0.0
147
0.0
147
0.0
147
0.0208333333333333
147
0.0
147
0.0
147
0.0
147
0.0
147
1.0
147
0.0
147
0.0
147
0.0
147
0.0
147
1.0
  0
MLEADERSTYLE
  5
5023
102
{ACAD_REACTORS
330
5022
102
}
330
5022
100
AcDbMLeaderStyle
170
     2
171
     1
172
     0
 90
        2
 40
0.0
 41
0.0
173
     1
 91
-1056964608
340
14
 92
       -2
290
     1
 42
0.09
291
     1
 43
0.36
  3
Standard
 44
0.18
300

342
11
174
     1
178
     6
175
     1
176
     0
 93
-1056964608
 45
0.18
292
     0
297
     0
 46
0.18
 94
-1056964608
 47
1.0
 49
1.0
140
1.0
293
     1
141
0.0
294
     1
177
     0
142
1.0
295
     0
296
     0
143
0.125
1001
ACAD_MLEADERVER
1070
     2
  0
MLINESTYLE
  5
18
102
{ACAD_REACTORS
330
17
102
}
330
17
100
AcDbMlineStyle
  2
STANDARD
 70
     0
  3

 62
   256
 51
90.0
 52
90.0
 71
     2
 49
0.5
 62
   256
  6
BYLAYER
 49
-0.5
 62
   256
  6
BYLAYER
  0
ACDBPLACEHOLDER
  5
F
102
{ACAD_REACTORS
330
E
102
}
330
E
  0
MENTALRAYRENDERSETTINGS
  5
6538
102
{ACAD_REACTORS
330
6537
102
}
330
6537
100
AcDbRenderSettings
 90
        2
  1
中
290
     1
290
     1
290
     1
290
     1
  1

  1
渲染质量好于“低级”。包括纹理过滤并且强制双面处于激活状态。处理中等级反锯齿和 5 反射/折射的光线跟踪深度。
 90
        0
100
AcDbMentalRayRenderSettings
 90
        2
 90
        0
 90
        1
 70
     2
 40
3.0
 40
3.0
 40
0.0500000007450581
 40
0.0500000007450581
 40
0.0500000007450581
 40
0.0500000007450581
 70
     0
290
     0
290
     1
 90
        5
 90
        5
 90
        5
290
     0
 90
      500
290
     0
 40
1.0
 90
    10000
 90
        5
 90
        5
 90
        5
290
     0
 90
      200
290
     0
290
     0
290
     0
 40
0.1
 40
1.0
 40
1500.0
 70
     0
 70
     0
 40
10.0
 70
     0
 70
     0
290
     0
  1

 90
       32
 70
     0
 90
     1048
290
     0
 40
1.0
  0
SCALE
  5
5001
102
{ACAD_REACTORS
330
5000
102
}
330
5000
100
AcDbScale
 70
     0
300
1:1
140
1.0
141
1.0
290
     1
  0
SCALE
  5
5002
102
{ACAD_REACTORS
330
5000
102
}
330
5000
100
AcDbScale
 70
     0
300
1:2
140
1.0
141
2.0
290
     0
  0
SCALE
  5
5003
102
{ACAD_REACTORS
330
5000
102
}
330
5000
100
AcDbScale
 70
     0
300
1:4
140
1.0
141
4.0
290
     0
  0
SCALE
  5
5004
102
{ACAD_REACTORS
330
5000
102
}
330
5000
100
AcDbScale
 70
     0
300
1:5
140
1.0
141
5.0
290
     0
  0
SCALE
  5
5005
102
{ACAD_REACTORS
330
5000
102
}
330
5000
100
AcDbScale
 70
     0
300
1:8
140
1.0
141
8.0
290
     0
  0
SCALE
  5
5006
102
{ACAD_REACTORS
330
5000
102
}
330
5000
100
AcDbScale
 70
     0
300
1:10
140
1.0
141
10.0
290
     0
  0
SCALE
  5
5007
102
{ACAD_REACTORS
330
5000
102
}
330
5000
100
AcDbScale
 70
     0
300
1:16
140
1.0
141
16.0
290
     0
  0
SCALE
  5
5008
102
{ACAD_REACTORS
330
5000
102
}
330
5000
100
AcDbScale
 70
     0
300
1:20
140
1.0
141
20.0
290
     0
  0
SCALE
  5
5009
102
{ACAD_REACTORS
330
5000
102
}
330
5000
100
AcDbScale
 70
     0
300
1:30
140
1.0
141
30.0
290
     0
  0
SCALE
  5
500A
102
{ACAD_REACTORS
330
5000
102
}
330
5000
100
AcDbScale
 70
     0
300
1:40
140
1.0
141
40.0
290
     0
  0
SCALE
  5
500B
102
{ACAD_REACTORS
330
5000
102
}
330
5000
100
AcDbScale
 70
     0
300
1:50
140
1.0
141
50.0
290
     0
  0
SCALE
  5
500C
102
{ACAD_REACTORS
330
5000
102
}
330
5000
100
AcDbScale
 70
     0
300
1:100
140
1.0
141
100.0
290
     0
  0
SCALE
  5
500D
102
{ACAD_REACTORS
330
5000
102
}
330
5000
100
AcDbScale
 70
     0
300
2:1
140
2.0
141
1.0
290
     0
  0
SCALE
  5
500E
102
{ACAD_REACTORS
330
5000
102
}
330
5000
100
AcDbScale
 70
     0
300
4:1
140
4.0
141
1.0
290
     0
  0
SCALE
  5
500F
102
{ACAD_REACTORS
330
5000
102
}
330
5000
100
AcDbScale
 70
     0
300
8:1
140
8.0
141
1.0
290
     0
  0
SCALE
  5
5010
102
{ACAD_REACTORS
330
5000
102
}
330
5000
100
AcDbScale
 70
     0
300
10:1
140
10.0
141
1.0
290
     0
  0
SCALE
  5
5011
102
{ACAD_REACTORS
330
5000
102
}
330
5000
100
AcDbScale
 70
     0
300
100:1
140
100.0
141
1.0
290
     0
  0
SCALE
  5
5012
102
{ACAD_REACTORS
330
5000
102
}
330
5000
100
AcDbScale
 70
     0
300
1/128" = 1'-0"
140
0.0078125
141
12.0
290
     0
  0
SCALE
  5
5013
102
{ACAD_REACTORS
330
5000
102
}
330
5000
100
AcDbScale
 70
     0
300
1/64" = 1'-0"
140
0.015625
141
12.0
290
     0
  0
SCALE
  5
5014
102
{ACAD_REACTORS
330
5000
102
}
330
5000
100
AcDbScale
 70
     0
300
1/32" = 1'-0"
140
0.03125
141
12.0
290
     0
  0
SCALE
  5
5015
102
{ACAD_REACTORS
330
5000
102
}
330
5000
100
AcDbScale
 70
     0
300
1/16" = 1'-0"
140
0.0625
141
12.0
290
     0
  0
SCALE
  5
5016
102
{ACAD_REACTORS
330
5000
102
}
330
5000
100
AcDbScale
 70
     0
300
3/32" = 1'-0"
140
0.09375
141
12.0
290
     0
  0
SCALE
  5
5017
102
{ACAD_REACTORS
330
5000
102
}
330
5000
100
AcDbScale
 70
     0
300
1/8" = 1'-0"
140
0.125
141
12.0
290
     0
  0
SCALE
  5
5018
102
{ACAD_REACTORS
330
5000
102
}
330
5000
100
AcDbScale
 70
     0
300
3/16" = 1'-0"
140
0.1875
141
12.0
290
     0
  0
SCALE
  5
5019
102
{ACAD_REACTORS
330
5000
102
}
330
5000
100
AcDbScale
 70
     0
300
1/4" = 1'-0"
140
0.25
141
12.0
290
     0
  0
SCALE
  5
501A
102
{ACAD_REACTORS
330
5000
102
}
330
5000
100
AcDbScale
 70
     0
300
3/8" = 1'-0"
140
0.375
141
12.0
290
     0
  0
SCALE
  5
501B
102
{ACAD_REACTORS
330
5000
102
}
330
5000
100
AcDbScale
 70
     0
300
1/2" = 1'-0"
140
0.5
141
12.0
290
     0
  0
SCALE
  5
501C
102
{ACAD_REACTORS
330
5000
102
}
330
5000
100
AcDbScale
 70
     0
300
3/4" = 1'-0"
140
0.75
141
12.0
290
     0
  0
SCALE
  5
501D
102
{ACAD_REACTORS
330
5000
102
}
330
5000
100
AcDbScale
 70
     0
300
1" = 1'-0"
140
1.0
141
12.0
290
     0
  0
SCALE
  5
501E
102
{ACAD_REACTORS
330
5000
102
}
330
5000
100
AcDbScale
 70
     0
300
1-1/2" = 1'-0"
140
1.5
141
12.0
290
     0
  0
SCALE
  5
501F
102
{ACAD_REACTORS
330
5000
102
}
330
5000
100
AcDbScale
 70
     0
300
3" = 1'-0"
140
3.0
141
12.0
290
     0
  0
SCALE
  5
5020
102
{ACAD_REACTORS
330
5000
102
}
330
5000
100
AcDbScale
 70
     0
300
6" = 1'-0"
140
6.0
141
12.0
290
     0
  0
SCALE
  5
5021
102
{ACAD_REACTORS
330
5000
102
}
330
5000
100
AcDbScale
 70
     0
300
1'-0" = 1'-0"
140
12.0
141
12.0
290
     0
  0
TABLESTYLE
  5
4FFF
102
{ACAD_XDICTIONARY
360
50D6
102
}
102
{ACAD_REACTORS
330
4FE3
102
}
330
4FE3
100
AcDbTableStyle
  3
Standard
 70
     0
 71
     0
 40
0.06
 41
0.06
280
     0
281
     0
  7
Standard
140
0.18
170
     2
 62
     0
 63
     7
283
     0
274
    -2
284
     1
 64
     0
275
    -2
285
     1
 65
     0
276
    -2
286
     1
 66
     0
277
    -2
287
     1
 67
     0
278
    -2
288
     1
 68
     0
279
    -2
289
     1
 69
     0
  7
Standard
140
0.25
170
     5
 62
     0
 63
     7
283
     0
274
    -2
284
     1
 64
     0
275
    -2
285
     1
 65
     0
276
    -2
286
     1
 66
     0
277
    -2
287
     1
 67
     0
278
    -2
288
     1
 68
     0
279
    -2
289
     1
 69
     0
  7
Standard
140
0.18
170
     5
 62
     0
 63
     7
283
     0
274
    -2
284
     1
 64
     0
275
    -2
285
     1
 65
     0
276
    -2
286
     1
 66
     0
277
    -2
287
     1
 67
     0
278
    -2
288
     1
 68
     0
279
    -2
289
     1
 69
     0
  0
VISUALSTYLE
  5
2F
102
{ACAD_REACTORS
330
2A
102
}
330
2A
100
AcDbVisualStyle
  2
2dWireframe
 70
     4
 71
     0
 72
     2
 73
     0
 90
        0
 40
-0.6
 41
-30.0
 62
     5
 63
     7
 74
     1
 91
        4
 64
     7
 65
   257
 75
     1
175
     1
 42
1.0
 92
        0
 66
   257
 43
1.0
 76
     1
 77
     6
 78
     2
 67
     7
 79
     5
170
     0
171
     0
290
     0
174
     0
 93
        1
 44
0.0
173
     0
291
     0
 45
0.0
1001
ACAD
1000
AcDbSavedByObjectVersion
1070
     0
1000
AcDbSavedByObjectVersion
1070
     0
1000
AcDbSavedByObjectVersion
1070
     0
1000
AcDbSavedByObjectVersion
1070
     0
1000
AcDbSavedByObjectVersion
1070
     0
1000
AcDbSavedByObjectVersion
1070
     0
1000
AcDbSavedByObjectVersion
1070
     0
1000
AcDbSavedByObjectVersion
1070
     0
1000
AcDbSavedByObjectVersion
1070
     0
1000
AcDbSavedByObjectVersion
1070
     0
1000
AcDbSavedByObjectVersion
1070
     0
1000
AcDbSavedByObjectVersion
1070
     0
1000
AcDbSavedByObjectVersion
1070
     0
1000
AcDbSavedByObjectVersion
1070
     0
1000
AcDbSavedByObjectVersion
1070
     0
1000
AcDbSavedByObjectVersion
1070
     0
1000
AcDbSavedByObjectVersion
1070
     0
1000
AcDbSavedByObjectVersion
1070
     0
1000
AcDbSavedByObjectVersion
1070
     0
1000
AcDbSavedByObjectVersion
1070
     0
  0
VISUALSTYLE
  5
31
102
{ACAD_REACTORS
330
2A
102
}
330
2A
100
AcDbVisualStyle
  2
3D Hidden
 70
     6
 71
     1
 72
     2
 73
     2
 90
        0
 40
-0.6
 41
-30.0
 62
     5
 63
     7
 74
     2
 91
        2
 64
     7
 65
   257
 75
     2
175
     1
 42
40.0
 92
        0
 66
   257
 43
1.0
 76
     1
 77
     6
 78
     2
 67
     7
 79
     3
170
     0
171
     0
290
     0
174
     0
 93
        1
 44
0.0
173
     0
291
     0
 45
0.0
1001
ACAD
1000
AcDbSavedByObjectVersion
1070
     0
1000
AcDbSavedByObjectVersion
1070
     0
1000
AcDbSavedByObjectVersion
1070
     0
1000
AcDbSavedByObjectVersion
1070
     0
1000
AcDbSavedByObjectVersion
1070
     0
1000
AcDbSavedByObjectVersion
1070
     0
1000
AcDbSavedByObjectVersion
1070
     0
1000
AcDbSavedByObjectVersion
1070
     0
1000
AcDbSavedByObjectVersion
1070
     0
1000
AcDbSavedByObjectVersion
1070
     0
1000
AcDbSavedByObjectVersion
1070
     0
1000
AcDbSavedByObjectVersion
1070
     0
1000
AcDbSavedByObjectVersion
1070
     0
1000
AcDbSavedByObjectVersion
1070
     0
1000
AcDbSavedByObjectVersion
1070
     0
1000
AcDbSavedByObjectVersion
1070
     0
1000
AcDbSavedByObjectVersion
1070
     0
1000
AcDbSavedByObjectVersion
1070
     0
1000
AcDbSavedByObjectVersion
1070
     0
1000
AcDbSavedByObjectVersion
1070
     0
  0
VISUALSTYLE
  5
30
102
{ACAD_REACTORS
330
2A
102
}
330
2A
100
AcDbVisualStyle
  2
3dWireframe
 70
     5
 71
     0
 72
     2
 73
     0
 90
        0
 40
-0.6
 41
-30.0
 62
     5
 63
     7
 74
     1
 91
        4
 64
     7
 65
   257
 75
     1
175
     1
 42
1.0
 92
        0
 66
   257
 43
1.0
 76
     1
 77
     6
 78
     2
 67
     7
 79
     5
170
     0
171
     0
290
     0
174
     0
 93
        1
 44
0.0
173
     0
291
     0
 45
0.0
1001
ACAD
1000
AcDbSavedByObjectVersion
1070
     0
1000
AcDbSavedByObjectVersion
1070
     0
1000
AcDbSavedByObjectVersion
1070
     0
1000
AcDbSavedByObjectVersion
1070
     0
1000
AcDbSavedByObjectVersion
1070
     0
1000
AcDbSavedByObjectVersion
1070
     0
1000
AcDbSavedByObjectVersion
1070
     0
1000
AcDbSavedByObjectVersion
1070
     0
1000
AcDbSavedByObjectVersion
1070
     0
1000
AcDbSavedByObjectVersion
1070
     0
1000
AcDbSavedByObjectVersion
1070
     0
1000
AcDbSavedByObjectVersion
1070
     0
1000
AcDbSavedByObjectVersion
1070
     0
1000
AcDbSavedByObjectVersion
1070
     0
1000
AcDbSavedByObjectVersion
1070
     0
1000
AcDbSavedByObjectVersion
1070
     0
1000
AcDbSavedByObjectVersion
1070
     0
1000
AcDbSavedByObjectVersion
1070
     0
1000
AcDbSavedByObjectVersion
1070
     0
1000
AcDbSavedByObjectVersion
1070
     0
  0
VISUALSTYLE
  5
32
102
{ACAD_REACTORS
330
2A
102
}
330
2A
100
AcDbVisualStyle
  2
Basic
 70
     7
 71
     1
 72
     0
 73
     1
 90
        0
 40
-0.6
 41
-30.0
 62
     5
 63
     7
 74
     0
 91
        4
 64
     7
 65
   257
 75
     1
175
     1
 42
1.0
 92
        8
 66
     7
 43
1.0
 76
     1
 77
     6
 78
     2
 67
     7
 79
     5
170
     0
171
     0
290
     0
174
     0
 93
        1
 44
0.0
173
     0
291
     1
 45
0.0
1001
ACAD
1000
AcDbSavedByObjectVersion
1070
     0
1000
AcDbSavedByObjectVersion
1070
     0
1000
AcDbSavedByObjectVersion
1070
     0
1000
AcDbSavedByObjectVersion
1070
     0
1000
AcDbSavedByObjectVersion
1070
     0
1000
AcDbSavedByObjectVersion
1070
     0
1000
AcDbSavedByObjectVersion
1070
     0
1000
AcDbSavedByObjectVersion
1070
     0
1000
AcDbSavedByObjectVersion
1070
     0
1000
AcDbSavedByObjectVersion
1070
     0
1000
AcDbSavedByObjectVersion
1070
     0
1000
AcDbSavedByObjectVersion
1070
     0
1000
AcDbSavedByObjectVersion
1070
     0
1000
AcDbSavedByObjectVersion
1070
     0
1000
AcDbSavedByObjectVersion
1070
     0
1000
AcDbSavedByObjectVersion
1070
     0
1000
AcDbSavedByObjectVersion
1070
     0
1000
AcDbSavedByObjectVersion
1070
     0
1000
AcDbSavedByObjectVersion
1070
     0
1000
AcDbSavedByObjectVersion
1070
     0
  0
VISUALSTYLE
  5
36
102
{ACAD_REACTORS
330
2A
102
}
330
2A
100
AcDbVisualStyle
  2
Brighten
 70
    12
 71
     2
 72
     2
 73
     0
 90
        0
 40
-0.6
 41
-30.0
 62
     5
 63
     7
 74
     1
 91
        4
 64
     7
 65
   257
 75
     1
175
     1
 42
1.0
 92
        8
 66
     7
 43
1.0
 76
     1
 77
     6
 78
     2
 67
     7
 79
     5
170
     0
171
     0
290
     0
174
     0
 93
        1
 44
50.0
173
     0
291
     1
 45
0.0
1001
ACAD
1000
AcDbSavedByObjectVersion
1070
     0
1000
AcDbSavedByObjectVersion
1070
     0
1000
AcDbSavedByObjectVersion
1070
     0
1000
AcDbSavedByObjectVersion
1070
     0
1000
AcDbSavedByObjectVersion
1070
     0
1000
AcDbSavedByObjectVersion
1070
     0
1000
AcDbSavedByObjectVersion
1070
     0
1000
AcDbSavedByObjectVersion
1070
     0
1000
AcDbSavedByObjectVersion
1070
     0
1000
AcDbSavedByObjectVersion
1070
     0
1000
AcDbSavedByObjectVersion
1070
     0
1000
AcDbSavedByObjectVersion
1070
     0
1000
AcDbSavedByObjectVersion
1070
     0
1000
AcDbSavedByObjectVersion
1070
     0
1000
AcDbSavedByObjectVersion
1070
     0
1000
AcDbSavedByObjectVersion
1070
     0
1000
AcDbSavedByObjectVersion
1070
     0
1000
AcDbSavedByObjectVersion
1070
     0
1000
AcDbSavedByObjectVersion
1070
     0
1000
AcDbSavedByObjectVersion
1070
     0
  0
VISUALSTYLE
  5
3A
102
{ACAD_REACTORS
330
2A
102
}
330
2A
100
AcDbVisualStyle
  2
ColorChange
 70
    16
 71
     2
 72
     2
 73
     3
 90
        0
 40
-0.6
 41
-30.0
 62
     5
 63
     8
 74
     1
 91
        4
 64
     7
 65
   257
 75
     1
175
     1
 42
1.0
 92
        8
 66
     8
 43
1.0
 76
     1
 77
     6
 78
     2
 67
     7
 79
     5
170
     0
171
     0
290
     0
174
     0
 93
        1
 44
0.0
173
     0
291
     1
 45
0.0
1001
ACAD
1000
AcDbSavedByObjectVersion
1070
     0
1000
AcDbSavedByObjectVersion
1070
     0
1000
AcDbSavedByObjectVersion
1070
     0
1000
AcDbSavedByObjectVersion
1070
     0
1000
AcDbSavedByObjectVersion
1070
     0
1000
AcDbSavedByObjectVersion
1070
     0
1000
AcDbSavedByObjectVersion
1070
     0
1000
AcDbSavedByObjectVersion
1070
     0
1000
AcDbSavedByObjectVersion
1070
     0
1000
AcDbSavedByObjectVersion
1070
     0
1000
AcDbSavedByObjectVersion
1070
     0
1000
AcDbSavedByObjectVersion
1070
     0
1000
AcDbSavedByObjectVersion
1070
     0
1000
AcDbSavedByObjectVersion
1070
     0
1000
AcDbSavedByObjectVersion
1070
     0
1000
AcDbSavedByObjectVersion
1070
     0
1000
AcDbSavedByObjectVersion
1070
     0
1000
AcDbSavedByObjectVersion
1070
     0
1000
AcDbSavedByObjectVersion
1070
     0
1000
AcDbSavedByObjectVersion
1070
     0
  0
VISUALSTYLE
  5
34
102
{ACAD_REACTORS
330
2A
102
}
330
2A
100
AcDbVisualStyle
  2
Conceptual
 70
     9
 71
     3
 72
     2
 73
     0
 90
        0
 40
-0.6
 41
-30.0
 62
     5
 63
     7
 74
     2
 91
        2
 64
     7
 65
   257
 75
     1
175
     1
 42
40.0
 92
        8
 66
     7
 43
1.0
 76
     1
 77
     6
 78
     2
 67
     7
 79
     3
170
     0
171
     0
290
     0
174
     0
 93
        1
 44
0.0
173
     0
291
     0
 45
0.0
1001
ACAD
1000
AcDbSavedByObjectVersion
1070
     0
1000
AcDbSavedByObjectVersion
1070
     0
1000
AcDbSavedByObjectVersion
1070
     0
1000
AcDbSavedByObjectVersion
1070
     0
1000
AcDbSavedByObjectVersion
1070
     0
1000
AcDbSavedByObjectVersion
1070
     0
1000
AcDbSavedByObjectVersion
1070
     0
1000
AcDbSavedByObjectVersion
1070
     0
1000
AcDbSavedByObjectVersion
1070
     0
1000
AcDbSavedByObjectVersion
1070
     0
1000
AcDbSavedByObjectVersion
1070
     0
1000
AcDbSavedByObjectVersion
1070
     0
1000
AcDbSavedByObjectVersion
1070
     0
1000
AcDbSavedByObjectVersion
1070
     0
1000
AcDbSavedByObjectVersion
1070
     0
1000
AcDbSavedByObjectVersion
1070
     0
1000
AcDbSavedByObjectVersion
1070
     0
1000
AcDbSavedByObjectVersion
1070
     0
1000
AcDbSavedByObjectVersion
1070
     0
1000
AcDbSavedByObjectVersion
1070
     0
  0
VISUALSTYLE
  5
35
102
{ACAD_REACTORS
330
2A
102
}
330
2A
100
AcDbVisualStyle
  2
Dim
 70
    11
 71
     2
 72
     2
 73
     0
 90
        0
 40
-0.6
 41
-30.0
 62
     5
 63
     7
 74
     1
 91
        4
 64
     7
 65
   257
 75
     1
175
     1
 42
1.0
 92
        8
 66
     7
 43
1.0
 76
     1
 77
     6
 78
     2
 67
     7
 79
     5
170
     0
171
     0
290
     0
174
     0
 93
        1
 44
-50.0
173
     0
291
     1
 45
0.0
1001
ACAD
1000
AcDbSavedByObjectVersion
1070
     0
1000
AcDbSavedByObjectVersion
1070
     0
1000
AcDbSavedByObjectVersion
1070
     0
1000
AcDbSavedByObjectVersion
1070
     0
1000
AcDbSavedByObjectVersion
1070
     0
1000
AcDbSavedByObjectVersion
1070
     0
1000
AcDbSavedByObjectVersion
1070
     0
1000
AcDbSavedByObjectVersion
1070
     0
1000
AcDbSavedByObjectVersion
1070
     0
1000
AcDbSavedByObjectVersion
1070
     0
1000
AcDbSavedByObjectVersion
1070
     0
1000
AcDbSavedByObjectVersion
1070
     0
1000
AcDbSavedByObjectVersion
1070
     0
1000
AcDbSavedByObjectVersion
1070
     0
1000
AcDbSavedByObjectVersion
1070
     0
1000
AcDbSavedByObjectVersion
1070
     0
1000
AcDbSavedByObjectVersion
1070
     0
1000
AcDbSavedByObjectVersion
1070
     0
1000
AcDbSavedByObjectVersion
1070
     0
1000
AcDbSavedByObjectVersion
1070
     0
  0
VISUALSTYLE
  5
39
102
{ACAD_REACTORS
330
2A
102
}
330
2A
100
AcDbVisualStyle
  2
Facepattern
 70
    15
 71
     2
 72
     2
 73
     0
 90
        0
 40
-0.6
 41
-30.0
 62
     5
 63
     7
 74
     1
 91
        4
 64
     7
 65
   257
 75
     1
175
     1
 42
1.0
 92
        8
 66
     7
 43
1.0
 76
     1
 77
     6
 78
     2
 67
     7
 79
     5
170
     0
171
     0
290
     0
174
     0
 93
        1
 44
0.0
173
     0
291
     1
 45
0.0
1001
ACAD
1000
AcDbSavedByObjectVersion
1070
     0
1000
AcDbSavedByObjectVersion
1070
     0
1000
AcDbSavedByObjectVersion
1070
     0
1000
AcDbSavedByObjectVersion
1070
     0
1000
AcDbSavedByObjectVersion
1070
     0
1000
AcDbSavedByObjectVersion
1070
     0
1000
AcDbSavedByObjectVersion
1070
     0
1000
AcDbSavedByObjectVersion
1070
     0
1000
AcDbSavedByObjectVersion
1070
     0
1000
AcDbSavedByObjectVersion
1070
     0
1000
AcDbSavedByObjectVersion
1070
     0
1000
AcDbSavedByObjectVersion
1070
     0
1000
AcDbSavedByObjectVersion
1070
     0
1000
AcDbSavedByObjectVersion
1070
     0
1000
AcDbSavedByObjectVersion
1070
     0
1000
AcDbSavedByObjectVersion
1070
     0
1000
AcDbSavedByObjectVersion
1070
     0
1000
AcDbSavedByObjectVersion
1070
     0
1000
AcDbSavedByObjectVersion
1070
     0
1000
AcDbSavedByObjectVersion
1070
     0
  0
VISUALSTYLE
  5
2B
102
{ACAD_REACTORS
330
2A
102
}
330
2A
100
AcDbVisualStyle
  2
Flat
 70
     0
 71
     2
 72
     1
 73
     1
 90
        2
 40
-0.6
 41
30.0
 62
     5
 63
     7
 74
     0
 91
        4
 64
     7
 65
   257
 75
     1
175
     1
 42
1.0
 92
        8
 66
     7
 43
1.0
 76
     1
 77
     6
 78
     2
 67
     7
 79
     5
170
     0
171
     0
290
     0
174
     0
 93
       13
 44
0.0
173
     0
291
     1
 45
0.0
1001
ACAD
1000
AcDbSavedByObjectVersion
1070
     0
1000
AcDbSavedByObjectVersion
1070
     0
1000
AcDbSavedByObjectVersion
1070
     0
1000
AcDbSavedByObjectVersion
1070
     0
1000
AcDbSavedByObjectVersion
1070
     0
1000
AcDbSavedByObjectVersion
1070
     0
1000
AcDbSavedByObjectVersion
1070
     0
1000
AcDbSavedByObjectVersion
1070
     0
1000
AcDbSavedByObjectVersion
1070
     0
1000
AcDbSavedByObjectVersion
1070
     0
1000
AcDbSavedByObjectVersion
1070
     0
1000
AcDbSavedByObjectVersion
1070
     0
1000
AcDbSavedByObjectVersion
1070
     0
1000
AcDbSavedByObjectVersion
1070
     0
1000
AcDbSavedByObjectVersion
1070
     0
1000
AcDbSavedByObjectVersion
1070
     0
1000
AcDbSavedByObjectVersion
1070
     0
1000
AcDbSavedByObjectVersion
1070
     0
1000
AcDbSavedByObjectVersion
1070
     0
1000
AcDbSavedByObjectVersion
1070
     0
  0
VISUALSTYLE
  5
2C
102
{ACAD_REACTORS
330
2A
102
}
330
2A
100
AcDbVisualStyle
  2
FlatWithEdges
 70
     1
 71
     2
 72
     1
 73
     1
 90
        2
 40
-0.6
 41
30.0
 62
     5
 63
     7
 74
     1
 91
        4
 64
     7
 65
   257
 75
     1
175
     1
 42
1.0
 92
        0
 66
   257
 43
1.0
 76
     1
 77
     6
 78
     2
 67
     7
 79
     5
170
     0
171
     0
290
     0
174
     0
 93
       13
 44
0.0
173
     0
291
     1
 45
0.0
1001
ACAD
1000
AcDbSavedByObjectVersion
1070
     0
1000
AcDbSavedByObjectVersion
1070
     0
1000
AcDbSavedByObjectVersion
1070
     0
1000
AcDbSavedByObjectVersion
1070
     0
1000
AcDbSavedByObjectVersion
1070
     0
1000
AcDbSavedByObjectVersion
1070
     0
1000
AcDbSavedByObjectVersion
1070
     0
1000
AcDbSavedByObjectVersion
1070
     0
1000
AcDbSavedByObjectVersion
1070
     0
1000
AcDbSavedByObjectVersion
1070
     0
1000
AcDbSavedByObjectVersion
1070
     0
1000
AcDbSavedByObjectVersion
1070
     0
1000
AcDbSavedByObjectVersion
1070
     0
1000
AcDbSavedByObjectVersion
1070
     0
1000
AcDbSavedByObjectVersion
1070
     0
1000
AcDbSavedByObjectVersion
1070
     0
1000
AcDbSavedByObjectVersion
1070
     0
1000
AcDbSavedByObjectVersion
1070
     0
1000
AcDbSavedByObjectVersion
1070
     0
1000
AcDbSavedByObjectVersion
1070
     0
  0
VISUALSTYLE
  5
2D
102
{ACAD_REACTORS
330
2A
102
}
330
2A
100
AcDbVisualStyle
  2
Gouraud
 70
     2
 71
     2
 72
     2
 73
     1
 90
        2
 40
-0.6
 41
30.0
 62
     5
 63
     7
 74
     0
 91
        4
 64
     7
 65
   257
 75
     1
175
     1
 42
1.0
 92
        0
 66
     7
 43
1.0
 76
     1
 77
     6
 78
     2
 67
     7
 79
     5
170
     0
171
     0
290
     0
174
     0
 93
       13
 44
0.0
173
     0
291
     1
 45
0.0
1001
ACAD
1000
AcDbSavedByObjectVersion
1070
     0
1000
AcDbSavedByObjectVersion
1070
     0
1000
AcDbSavedByObjectVersion
1070
     0
1000
AcDbSavedByObjectVersion
1070
     0
1000
AcDbSavedByObjectVersion
1070
     0
1000
AcDbSavedByObjectVersion
1070
     0
1000
AcDbSavedByObjectVersion
1070
     0
1000
AcDbSavedByObjectVersion
1070
     0
1000
AcDbSavedByObjectVersion
1070
     0
1000
AcDbSavedByObjectVersion
1070
     0
1000
AcDbSavedByObjectVersion
1070
     0
1000
AcDbSavedByObjectVersion
1070
     0
1000
AcDbSavedByObjectVersion
1070
     0
1000
AcDbSavedByObjectVersion
1070
     0
1000
AcDbSavedByObjectVersion
1070
     0
1000
AcDbSavedByObjectVersion
1070
     0
1000
AcDbSavedByObjectVersion
1070
     0
1000
AcDbSavedByObjectVersion
1070
     0
1000
AcDbSavedByObjectVersion
1070
     0
1000
AcDbSavedByObjectVersion
1070
     0
  0
VISUALSTYLE
  5
2E
102
{ACAD_REACTORS
330
2A
102
}
330
2A
100
AcDbVisualStyle
  2
GouraudWithEdges
 70
     3
 71
     2
 72
     2
 73
     1
 90
        2
 40
-0.6
 41
30.0
 62
     5
 63
     7
 74
     1
 91
        4
 64
     7
 65
   257
 75
     1
175
     1
 42
1.0
 92
        0
 66
   257
 43
1.0
 76
     1
 77
     6
 78
     2
 67
     7
 79
     5
170
     0
171
     0
290
     0
174
     0
 93
       13
 44
0.0
173
     0
291
     1
 45
0.0
1001
ACAD
1000
AcDbSavedByObjectVersion
1070
     0
1000
AcDbSavedByObjectVersion
1070
     0
1000
AcDbSavedByObjectVersion
1070
     0
1000
AcDbSavedByObjectVersion
1070
     0
1000
AcDbSavedByObjectVersion
1070
     0
1000
AcDbSavedByObjectVersion
1070
     0
1000
AcDbSavedByObjectVersion
1070
     0
1000
AcDbSavedByObjectVersion
1070
     0
1000
AcDbSavedByObjectVersion
1070
     0
1000
AcDbSavedByObjectVersion
1070
     0
1000
AcDbSavedByObjectVersion
1070
     0
1000
AcDbSavedByObjectVersion
1070
     0
1000
AcDbSavedByObjectVersion
1070
     0
1000
AcDbSavedByObjectVersion
1070
     0
1000
AcDbSavedByObjectVersion
1070
     0
1000
AcDbSavedByObjectVersion
1070
     0
1000
AcDbSavedByObjectVersion
1070
     0
1000
AcDbSavedByObjectVersion
1070
     0
1000
AcDbSavedByObjectVersion
1070
     0
1000
AcDbSavedByObjectVersion
1070
     0
  0
VISUALSTYLE
  5
38
102
{ACAD_REACTORS
330
2A
102
}
330
2A
100
AcDbVisualStyle
  2
Linepattern
 70
    14
 71
     2
 72
     2
 73
     0
 90
        0
 40
-0.6
 41
-30.0
 62
     5
 63
     7
 74
     1
 91
        4
 64
     7
 65
   257
 75
     7
175
     7
 42
1.0
 92
        8
 66
     7
 43
1.0
 76
     1
 77
     6
 78
     2
 67
     7
 79
     5
170
     0
171
     0
290
     0
174
     0
 93
        1
 44
0.0
173
     0
291
     1
 45
0.0
1001
ACAD
1000
AcDbSavedByObjectVersion
1070
     0
1000
AcDbSavedByObjectVersion
1070
     0
1000
AcDbSavedByObjectVersion
1070
     0
1000
AcDbSavedByObjectVersion
1070
     0
1000
AcDbSavedByObjectVersion
1070
     0
1000
AcDbSavedByObjectVersion
1070
     0
1000
AcDbSavedByObjectVersion
1070
     0
1000
AcDbSavedByObjectVersion
1070
     0
1000
AcDbSavedByObjectVersion
1070
     0
1000
AcDbSavedByObjectVersion
1070
     0
1000
AcDbSavedByObjectVersion
1070
     0
1000
AcDbSavedByObjectVersion
1070
     0
1000
AcDbSavedByObjectVersion
1070
     0
1000
AcDbSavedByObjectVersion
1070
     0
1000
AcDbSavedByObjectVersion
1070
     0
1000
AcDbSavedByObjectVersion
1070
     0
1000
AcDbSavedByObjectVersion
1070
     0
1000
AcDbSavedByObjectVersion
1070
     0
1000
AcDbSavedByObjectVersion
1070
     0
1000
AcDbSavedByObjectVersion
1070
     0
  0
VISUALSTYLE
  5
33
102
{ACAD_REACTORS
330
2A
102
}
330
2A
100
AcDbVisualStyle
  2
Realistic
 70
     8
 71
     2
 72
     2
 73
     0
 90
        0
 40
-0.6
 41
-30.0
 62
     5
 63
     7
 74
     1
 91
        0
 64
     7
 65
   257
 75
     1
175
     1
 42
1.0
 92
        8
 66
     8
 43
1.0
 76
     1
 77
     6
 78
     2
 67
     7
 79
     5
170
     0
171
     0
290
     0
174
     0
 93
       13
 44
0.0
173
     0
291
     0
 45
0.0
1001
ACAD
1000
AcDbSavedByObjectVersion
1070
     0
1000
AcDbSavedByObjectVersion
1070
     0
1000
AcDbSavedByObjectVersion
1070
     0
1000
AcDbSavedByObjectVersion
1070
     0
1000
AcDbSavedByObjectVersion
1070
     0
1000
AcDbSavedByObjectVersion
1070
     0
1000
AcDbSavedByObjectVersion
1070
     0
1000
AcDbSavedByObjectVersion
1070
     0
1000
AcDbSavedByObjectVersion
1070
     0
1000
AcDbSavedByObjectVersion
1070
     0
1000
AcDbSavedByObjectVersion
1070
     0
1000
AcDbSavedByObjectVersion
1070
     0
1000
AcDbSavedByObjectVersion
1070
     0
1000
AcDbSavedByObjectVersion
1070
     0
1000
AcDbSavedByObjectVersion
1070
     0
1000
AcDbSavedByObjectVersion
1070
     0
1000
AcDbSavedByObjectVersion
1070
     0
1000
AcDbSavedByObjectVersion
1070
     0
1000
AcDbSavedByObjectVersion
1070
     0
1000
AcDbSavedByObjectVersion
1070
     0
  0
VISUALSTYLE
  5
37
102
{ACAD_REACTORS
330
2A
102
}
330
2A
100
AcDbVisualStyle
  2
Thicken
 70
    13
 71
     2
 72
     2
 73
     0
 90
        0
 40
-0.6
 41
-30.0
 62
     5
 63
     7
 74
     1
 91
        4
 64
     7
 65
   257
 75
     1
175
     1
 42
1.0
 92
       12
 66
     7
 43
1.0
 76
     1
 77
     6
 78
     2
 67
     7
 79
     5
170
     0
171
     0
290
     0
174
     0
 93
        1
 44
0.0
173
     0
291
     1
 45
0.0
1001
ACAD
1000
AcDbSavedByObjectVersion
1070
     0
1000
AcDbSavedByObjectVersion
1070
     0
1000
AcDbSavedByObjectVersion
1070
     0
1000
AcDbSavedByObjectVersion
1070
     0
1000
AcDbSavedByObjectVersion
1070
     0
1000
AcDbSavedByObjectVersion
1070
     0
1000
AcDbSavedByObjectVersion
1070
     0
1000
AcDbSavedByObjectVersion
1070
     0
1000
AcDbSavedByObjectVersion
1070
     0
1000
AcDbSavedByObjectVersion
1070
     0
1000
AcDbSavedByObjectVersion
1070
     0
1000
AcDbSavedByObjectVersion
1070
     0
1000
AcDbSavedByObjectVersion
1070
     0
1000
AcDbSavedByObjectVersion
1070
     0
1000
AcDbSavedByObjectVersion
1070
     0
1000
AcDbSavedByObjectVersion
1070
     0
1000
AcDbSavedByObjectVersion
1070
     0
1000
AcDbSavedByObjectVersion
1070
     0
1000
AcDbSavedByObjectVersion
1070
     0
1000
AcDbSavedByObjectVersion
1070
     0
  0
DICTIONARYVAR
  5
510B
102
{ACAD_REACTORS
330
5108
102
}
330
5108
100
DictionaryVariables
280
     0
  1
1:1
  0
DICTIONARYVAR
  5
510A
102
{ACAD_REACTORS
330
5108
102
}
330
5108
100
DictionaryVariables
280
     0
  1
STANDARD
  0
DICTIONARYVAR
  5
5109
102
{ACAD_REACTORS
330
5108
102
}
330
5108
100
DictionaryVariables
280
     0
  1
STANDARD
  0
DICTIONARYVAR
  5
510E
102
{ACAD_REACTORS
330
5108
102
}
330
5108
100
DictionaryVariables
280
     0
  1
1
  0
DICTIONARYVAR
  5
510D
102
{ACAD_REACTORS
330
5108
102
}
330
5108
100
DictionaryVariables
280
     0
  1
0
  0
DICTIONARYVAR
  5
12E81
102
{ACAD_REACTORS
330
5108
102
}
330
5108
100
DictionaryVariables
280
     0
  1
0
  0
DICTIONARYVAR
  5
12E80
102
{ACAD_REACTORS
330
5108
102
}
330
5108
100
DictionaryVariables
280
     0
  1
0
  0
DICTIONARYVAR
  5
510C
102
{ACAD_REACTORS
330
5108
102
}
330
5108
100
DictionaryVariables
280
     0
  1
127
  0
XRECORD
  5
19FC0
102
{ACAD_REACTORS
330
19FBF
102
}
330
19FBF
100
AcDbXrecord
280
     1
330
15E4A
  0
VLO-VL
  5
11735
102
{ACAD_REACTORS
330
11734
102
}
330
11734
100
vlo_VL
 90
   -64512
 91
       12
 92
        1
 40
2.5
300
(&VLO-R . 0)
  0
DICTIONARY
  5
4FEF
330
4FEE
100
AcDbDictionary
280
     1
281
     1
  3
ACAD_XREC_ROUNDTRIP
360
1A00A
  3
BUMPTILE
360
4FF1
  3
DIFFUSETILE
360
4FF0
  3
OPACITYTILE
360
4FF4
  3
REFLECTIONTILE
360
4FF3
  3
REFRACTIONTILE
360
4FF5
  3
SPECULARTILE
360
4FF2
  0
DICTIONARY
  5
4FE7
330
4FE6
100
AcDbDictionary
280
     1
281
     1
  3
ACAD_XREC_ROUNDTRIP
360
1A009
  3
BUMPTILE
360
4FE9
  3
DIFFUSETILE
360
4FE8
  3
OPACITYTILE
360
4FEC
  3
REFLECTIONTILE
360
4FEB
  3
REFRACTIONTILE
360
4FED
  3
SPECULARTILE
360
4FEA
  0
DICTIONARY
  5
4FF7
330
4FF6
100
AcDbDictionary
280
     1
281
     1
  3
ACAD_XREC_ROUNDTRIP
360
1A00B
  3
BUMPTILE
360
4FF9
  3
DIFFUSETILE
360
4FF8
  3
OPACITYTILE
360
4FFC
  3
REFLECTIONTILE
360
4FFB
  3
REFRACTIONTILE
360
4FFD
  3
SPECULARTILE
360
4FFA
  0
DICTIONARY
  5
50D6
330
4FFF
100
AcDbDictionary
280
     1
281
     1
  3
ACAD_ROUNDTRIP_2008_TABLESTYLE_CELLSTYLEMAP
360
19FEC
  3
ACAD_XREC_ROUNDTRIP
360
1A00C
  0
XRECORD
  5
1A00A
102
{ACAD_REACTORS
330
4FEF
102
}
330
4FEF
100
AcDbXrecord
280
     1
102
MATERIAL
148
0.0
149
0.0
149
0.0
 93
        0
 94
      127
282
     0
 72
     0
 77
     0
171
     0
175
     0
179
     0
273
     0
  0
XRECORD
  5
4FF1
102
{ACAD_REACTORS
330
4FEF
102
}
330
4FEF
100
AcDbXrecord
280
     1
270
     1
271
     1
  0
XRECORD
  5
4FF0
102
{ACAD_REACTORS
330
4FEF
102
}
330
4FEF
100
AcDbXrecord
280
     1
270
     1
271
     1
  0
XRECORD
  5
4FF4
102
{ACAD_REACTORS
330
4FEF
102
}
330
4FEF
100
AcDbXrecord
280
     1
270
     1
271
     1
  0
XRECORD
  5
4FF3
102
{ACAD_REACTORS
330
4FEF
102
}
330
4FEF
100
AcDbXrecord
280
     1
270
     1
271
     1
  0
XRECORD
  5
4FF5
102
{ACAD_REACTORS
330
4FEF
102
}
330
4FEF
100
AcDbXrecord
280
     1
270
     1
271
     1
  0
XRECORD
  5
4FF2
102
{ACAD_REACTORS
330
4FEF
102
}
330
4FEF
100
AcDbXrecord
280
     1
270
     1
271
     1
  0
XRECORD
  5
1A009
102
{ACAD_REACTORS
330
4FE7
102
}
330
4FE7
100
AcDbXrecord
280
     1
102
MATERIAL
148
0.0
149
0.0
149
0.0
 93
        0
 94
      127
282
     0
 72
     0
 77
     0
171
     0
175
     0
179
     0
273
     0
  0
XRECORD
  5
4FE9
102
{ACAD_REACTORS
330
4FE7
102
}
330
4FE7
100
AcDbXrecord
280
     1
270
     1
271
     1
  0
XRECORD
  5
4FE8
102
{ACAD_REACTORS
330
4FE7
102
}
330
4FE7
100
AcDbXrecord
280
     1
270
     1
271
     1
  0
XRECORD
  5
4FEC
102
{ACAD_REACTORS
330
4FE7
102
}
330
4FE7
100
AcDbXrecord
280
     1
270
     1
271
     1
  0
XRECORD
  5
4FEB
102
{ACAD_REACTORS
330
4FE7
102
}
330
4FE7
100
AcDbXrecord
280
     1
270
     1
271
     1
  0
XRECORD
  5
4FED
102
{ACAD_REACTORS
330
4FE7
102
}
330
4FE7
100
AcDbXrecord
280
     1
270
     1
271
     1
  0
XRECORD
  5
4FEA
102
{ACAD_REACTORS
330
4FE7
102
}
330
4FE7
100
AcDbXrecord
280
     1
270
     1
271
     1
  0
XRECORD
  5
1A00B
102
{ACAD_REACTORS
330
4FF7
102
}
330
4FF7
100
AcDbXrecord
280
     1
102
MATERIAL
148
0.0
149
0.0
149
0.0
 93
        0
 94
      127
282
     0
 72
     0
 77
     0
171
     0
175
     0
179
     0
273
     0
  0
XRECORD
  5
4FF9
102
{ACAD_REACTORS
330
4FF7
102
}
330
4FF7
100
AcDbXrecord
280
     1
270
     1
271
     1
  0
XRECORD
  5
4FF8
102
{ACAD_REACTORS
330
4FF7
102
}
330
4FF7
100
AcDbXrecord
280
     1
270
     1
271
     1
  0
XRECORD
  5
4FFC
102
{ACAD_REACTORS
330
4FF7
102
}
330
4FF7
100
AcDbXrecord
280
     1
270
     1
271
     1
  0
XRECORD
  5
4FFB
102
{ACAD_REACTORS
330
4FF7
102
}
330
4FF7
100
AcDbXrecord
280
     1
270
     1
271
     1
  0
XRECORD
  5
4FFD
102
{ACAD_REACTORS
330
4FF7
102
}
330
4FF7
100
AcDbXrecord
280
     1
270
     1
271
     1
  0
XRECORD
  5
4FFA
102
{ACAD_REACTORS
330
4FF7
102
}
330
4FF7
100
AcDbXrecord
280
     1
270
     1
271
     1
  0
CELLSTYLEMAP
  5
19FEC
102
{ACAD_REACTORS
330
50D6
102
}
330
50D6
100
AcDbCellStyleMap
 90
        3
300
CELLSTYLE
  1
TABLEFORMAT_BEGIN
 90
        5
170
     1
 91
        0
 92
    32768
 62
   257
 93
        1
300
CONTENTFORMAT
  1
CONTENTFORMAT_BEGIN
 90
        0
 91
        0
 92
      512
 93
        0
300

 40
0.0
140
1.0
 94
        5
 62
     0
340
11
144
0.25
309
CONTENTFORMAT_END
171
     1
301
MARGIN
  1
CELLMARGIN_BEGIN
 40
0.06
 40
0.06
 40
0.06
 40
0.06
 40
0.18
 40
0.18
309
CELLMARGIN_END
 94
        6
 95
        1
302
GRIDFORMAT
  1
GRIDFORMAT_BEGIN
 90
        0
 91
        1
 62
     0
 92
       -2
340
0
 93
        0
 40
0.045
309
GRIDFORMAT_END
 95
        2
302
GRIDFORMAT
  1
GRIDFORMAT_BEGIN
 90
        0
 91
        1
 62
     0
 92
       -2
340
0
 93
        0
 40
0.045
309
GRIDFORMAT_END
 95
        4
302
GRIDFORMAT
  1
GRIDFORMAT_BEGIN
 90
        0
 91
        1
 62
     0
 92
       -2
340
0
 93
        0
 40
0.045
309
GRIDFORMAT_END
 95
        8
302
GRIDFORMAT
  1
GRIDFORMAT_BEGIN
 90
        0
 91
        1
 62
     0
 92
       -2
340
0
 93
        0
 40
0.045
309
GRIDFORMAT_END
 95
       16
302
GRIDFORMAT
  1
GRIDFORMAT_BEGIN
 90
        0
 91
        1
 62
     0
 92
       -2
340
0
 93
        0
 40
0.045
309
GRIDFORMAT_END
 95
       32
302
GRIDFORMAT
  1
GRIDFORMAT_BEGIN
 90
        0
 91
        1
 62
     0
 92
       -2
340
0
 93
        0
 40
0.045
309
GRIDFORMAT_END
309
TABLEFORMAT_END
  1
CELLSTYLE_BEGIN
 90
        1
 91
        1
300
_TITLE
309
CELLSTYLE_END
300
CELLSTYLE
  1
TABLEFORMAT_BEGIN
 90
        5
170
     1
 91
        0
 92
        0
 62
   257
 93
        1
300
CONTENTFORMAT
  1
CONTENTFORMAT_BEGIN
 90
        0
 91
        0
 92
      512
 93
        0
300

 40
0.0
140
1.0
 94
        5
 62
     0
340
11
144
0.18
309
CONTENTFORMAT_END
171
     1
301
MARGIN
  1
CELLMARGIN_BEGIN
 40
0.06
 40
0.06
 40
0.06
 40
0.06
 40
0.18
 40
0.18
309
CELLMARGIN_END
 94
        6
 95
        1
302
GRIDFORMAT
  1
GRIDFORMAT_BEGIN
 90
        0
 91
        1
 62
     0
 92
       -2
340
0
 93
        0
 40
0.045
309
GRIDFORMAT_END
 95
        2
302
GRIDFORMAT
  1
GRIDFORMAT_BEGIN
 90
        0
 91
        1
 62
     0
 92
       -2
340
0
 93
        0
 40
0.045
309
GRIDFORMAT_END
 95
        4
302
GRIDFORMAT
  1
GRIDFORMAT_BEGIN
 90
        0
 91
        1
 62
     0
 92
       -2
340
0
 93
        0
 40
0.045
309
GRIDFORMAT_END
 95
        8
302
GRIDFORMAT
  1
GRIDFORMAT_BEGIN
 90
        0
 91
        1
 62
     0
 92
       -2
340
0
 93
        0
 40
0.045
309
GRIDFORMAT_END
 95
       16
302
GRIDFORMAT
  1
GRIDFORMAT_BEGIN
 90
        0
 91
        1
 62
     0
 92
       -2
340
0
 93
        0
 40
0.045
309
GRIDFORMAT_END
 95
       32
302
GRIDFORMAT
  1
GRIDFORMAT_BEGIN
 90
        0
 91
        1
 62
     0
 92
       -2
340
0
 93
        0
 40
0.045
309
GRIDFORMAT_END
309
TABLEFORMAT_END
  1
CELLSTYLE_BEGIN
 90
        2
 91
        1
300
_HEADER
309
CELLSTYLE_END
300
CELLSTYLE
  1
TABLEFORMAT_BEGIN
 90
        5
170
     1
 91
        0
 92
        0
 62
   257
 93
        1
300
CONTENTFORMAT
  1
CONTENTFORMAT_BEGIN
 90
        0
 91
        0
 92
      512
 93
        0
300

 40
0.0
140
1.0
 94
        2
 62
     0
340
11
144
0.18
309
CONTENTFORMAT_END
171
     1
301
MARGIN
  1
CELLMARGIN_BEGIN
 40
0.06
 40
0.06
 40
0.06
 40
0.06
 40
0.18
 40
0.18
309
CELLMARGIN_END
 94
        6
 95
        1
302
GRIDFORMAT
  1
GRIDFORMAT_BEGIN
 90
        0
 91
        1
 62
     0
 92
       -2
340
0
 93
        0
 40
0.045
309
GRIDFORMAT_END
 95
        2
302
GRIDFORMAT
  1
GRIDFORMAT_BEGIN
 90
        0
 91
        1
 62
     0
 92
       -2
340
0
 93
        0
 40
0.045
309
GRIDFORMAT_END
 95
        4
302
GRIDFORMAT
  1
GRIDFORMAT_BEGIN
 90
        0
 91
        1
 62
     0
 92
       -2
340
0
 93
        0
 40
0.045
309
GRIDFORMAT_END
 95
        8
302
GRIDFORMAT
  1
GRIDFORMAT_BEGIN
 90
        0
 91
        1
 62
     0
 92
       -2
340
0
 93
        0
 40
0.045
309
GRIDFORMAT_END
 95
       16
302
GRIDFORMAT
  1
GRIDFORMAT_BEGIN
 90
        0
 91
        1
 62
     0
 92
       -2
340
0
 93
        0
 40
0.045
309
GRIDFORMAT_END
 95
       32
302
GRIDFORMAT
  1
GRIDFORMAT_BEGIN
 90
        0
 91
        1
 62
     0
 92
       -2
340
0
 93
        0
 40
0.045
309
GRIDFORMAT_END
309
TABLEFORMAT_END
  1
CELLSTYLE_BEGIN
 90
        3
 91
        2
300
_DATA
309
CELLSTYLE_END
  0
XRECORD
  5
1A00C
102
{ACAD_REACTORS
330
50D6
102
}
330
50D6
100
AcDbXrecord
280
     1
102
ACAD_ROUNDTRIP_PRE2007_TABLESTYLE
 90
      512
 91
        0
  1

 92
      512
 93
        0
  2

 94
      512
 95
        0
  3

  0
ENDSEC
  0
EOF
