  0
SECTION
  2
HEADER
  9
$ACADVER
  1
AC1018
  9
$ACADMAINTVER
 70
   104
  9
$DWGCODEPAGE
  3
ANSI_936
  9
$LASTSAVEDBY
  1
zb.ye
  9
$INSBASE
 10
0.0
 20
0.0
 30
0.0
  9
$EXTMIN
 10
3183.372610844407
 20
400.3527551097245
 30
-0.0000000349181977
  9
$EXTMAX
 10
3480.459325504326
 20
610.4230973928038
 30
0.0000000814935717
  9
$LIMMIN
 10
0.0
 20
0.0
  9
$LIMMAX
 10
1189.0
 20
841.0
  9
$ORTHOMODE
 70
     1
  9
$REGENMODE
 70
     1
  9
$FILLMODE
 70
     1
  9
$QTEXTMODE
 70
     0
  9
$MIRRTEXT
 70
     1
  9
$LTSCALE
 40
65.395
  9
$ATTMODE
 70
     1
  9
$TEXTSIZE
 40
0.2
  9
$TRACEWID
 40
0.05
  9
$TEXTSTYLE
  7
STANDARD
  9
$CLAYER
  8
0
  9
$CELTYPE
  6
ByLayer
  9
$CECOLOR
 62
   256
  9
$CELTSCALE
 40
1.0
  9
$DISPSILH
 70
     0
  9
$DIMSCALE
 40
1.0
  9
$DIMASZ
 40
3.0
  9
$DIMEXO
 40
0.2
  9
$DIMDLI
 40
0.2
  9
$DIMRND
 40
0.0
  9
$DIMDLE
 40
0.0
  9
$DIMEXE
 40
0.2
  9
$DIMTP
 40
0.01
  9
$DIMTM
 40
0.01
  9
$DIMTXT
 40
3.5
  9
$DIMCEN
 40
0.2
  9
$DIMTSZ
 40
0.0
  9
$DIMTOL
 70
     0
  9
$DIMLIM
 70
     0
  9
$DIMTIH
 70
     0
  9
$DIMTOH
 70
     0
  9
$DIMSE1
 70
     0
  9
$DIMSE2
 70
     0
  9
$DIMTAD
 70
     1
  9
$DIMZIN
 70
     0
  9
$DIMBLK
  1

  9
$DIMASO
 70
     1
  9
$DIMSHO
 70
     1
  9
$DIMPOST
  1

  9
$DIMAPOST
  1

  9
$DIMALT
 70
     0
  9
$DIMALTD
 70
     2
  9
$DIMALTF
 40
25.4
  9
$DIMLFAC
 40
1.0
  9
$DIMTOFL
 70
     0
  9
$DIMTVP
 40
0.0
  9
$DIMTIX
 70
     0
  9
$DIMSOXD
 70
     0
  9
$DIMSAH
 70
     0
  9
$DIMBLK1
  1

  9
$DIMBLK2
  1

  9
$DIMSTYLE
  2
STANDARD
  9
$DIMCLRD
 70
     5
  9
$DIMCLRE
 70
     5
  9
$DIMCLRT
 70
     0
  9
$DIMTFAC
 40
1.0
  9
$DIMGAP
 40
0.09
  9
$DIMJUST
 70
     0
  9
$DIMSD1
 70
     0
  9
$DIMSD2
 70
     0
  9
$DIMTOLJ
 70
     1
  9
$DIMTZIN
 70
     0
  9
$DIMALTZ
 70
     0
  9
$DIMALTTZ
 70
     0
  9
$DIMUPT
 70
     0
  9
$DIMDEC
 70
     1
  9
$DIMTDEC
 70
     1
  9
$DIMALTU
 70
     2
  9
$DIMALTTD
 70
     2
  9
$DIMTXSTY
  7
Romans字体
  9
$DIMAUNIT
 70
     0
  9
$DIMADEC
 70
     0
  9
$DIMALTRND
 40
0.0
  9
$DIMAZIN
 70
     0
  9
$DIMDSEP
 70
     0
  9
$DIMATFIT
 70
     3
  9
$DIMFRAC
 70
     0
  9
$DIMLDRBLK
  1

  9
$DIMLUNIT
 70
     2
  9
$DIMLWD
 70
    18
  9
$DIMLWE
 70
    30
  9
$DIMTMOVE
 70
     0
  9
$LUNITS
 70
     2
  9
$LUPREC
 70
     4
  9
$SKETCHINC
 40
0.1
  9
$FILLETRAD
 40
0.0
  9
$AUNITS
 70
     0
  9
$AUPREC
 70
     0
  9
$MENU
  1
acad
  9
$ELEVATION
 40
0.0
  9
$PELEVATION
 40
0.0
  9
$THICKNESS
 40
0.0
  9
$LIMCHECK
 70
     0
  9
$CHAMFERA
 40
0.0
  9
$CHAMFERB
 40
0.0
  9
$CHAMFERC
 40
0.0
  9
$CHAMFERD
 40
0.0
  9
$SKPOLY
 70
     0
  9
$TDCREATE
 40
2454351.607387326
  9
$TDUCREATE
 40
2454351.274053993
  9
$TDUPDATE
 40
2458194.409544260
  9
$TDUUPDATE
 40
2458194.076210926
  9
$TDINDWG
 40
0.4940182407
  9
$TDUSRTIMER
 40
0.4940179398
  9
$USRTIMER
 70
     1
  9
$ANGBASE
 50
0.0
  9
$ANGDIR
 70
     0
  9
$PDMODE
 70
     3
  9
$PDSIZE
 40
8.0
  9
$PLINEWID
 40
0.0
  9
$SPLFRAME
 70
     0
  9
$SPLINETYPE
 70
     6
  9
$SPLINESEGS
 70
     8
  9
$HANDSEED
  5
E26C
  9
$SURFTAB1
 70
     6
  9
$SURFTAB2
 70
     6
  9
$SURFTYPE
 70
     6
  9
$SURFU
 70
     6
  9
$SURFV
 70
     6
  9
$UCSBASE
  2

  9
$UCSNAME
  2

  9
$UCSORG
 10
0.0
 20
0.0
 30
0.0
  9
$UCSXDIR
 10
1.0
 20
0.0
 30
0.0
  9
$UCSYDIR
 10
0.0
 20
1.0
 30
0.0
  9
$UCSORTHOREF
  2

  9
$UCSORTHOVIEW
 70
     0
  9
$UCSORGTOP
 10
0.0
 20
0.0
 30
0.0
  9
$UCSORGBOTTOM
 10
0.0
 20
0.0
 30
0.0
  9
$UCSORGLEFT
 10
0.0
 20
0.0
 30
0.0
  9
$UCSORGRIGHT
 10
0.0
 20
0.0
 30
0.0
  9
$UCSORGFRONT
 10
0.0
 20
0.0
 30
0.0
  9
$UCSORGBACK
 10
0.0
 20
0.0
 30
0.0
  9
$PUCSBASE
  2

  9
$PUCSNAME
  2

  9
$PUCSORG
 10
0.0
 20
0.0
 30
0.0
  9
$PUCSXDIR
 10
1.0
 20
0.0
 30
0.0
  9
$PUCSYDIR
 10
0.0
 20
1.0
 30
0.0
  9
$PUCSORTHOREF
  2

  9
$PUCSORTHOVIEW
 70
     0
  9
$PUCSORGTOP
 10
0.0
 20
0.0
 30
0.0
  9
$PUCSORGBOTTOM
 10
0.0
 20
0.0
 30
0.0
  9
$PUCSORGLEFT
 10
0.0
 20
0.0
 30
0.0
  9
$PUCSORGRIGHT
 10
0.0
 20
0.0
 30
0.0
  9
$PUCSORGFRONT
 10
0.0
 20
0.0
 30
0.0
  9
$PUCSORGBACK
 10
0.0
 20
0.0
 30
0.0
  9
$USERI1
 70
     0
  9
$USERI2
 70
     0
  9
$USERI3
 70
     0
  9
$USERI4
 70
     0
  9
$USERI5
 70
     0
  9
$USERR1
 40
0.0
  9
$USERR2
 40
0.0
  9
$USERR3
 40
0.0
  9
$USERR4
 40
0.0
  9
$USERR5
 40
2.5
  9
$WORLDVIEW
 70
     1
  9
$SHADEDGE
 70
     3
  9
$SHADEDIF
 70
    70
  9
$TILEMODE
 70
     1
  9
$MAXACTVP
 70
    16
  9
$PINSBASE
 10
0.0
 20
0.0
 30
0.0
  9
$PLIMCHECK
 70
     0
  9
$PEXTMIN
 10
1.000000000000000E+20
 20
1.000000000000000E+20
 30
1.000000000000000E+20
  9
$PEXTMAX
 10
-1.000000000000000E+20
 20
-1.000000000000000E+20
 30
-1.000000000000000E+20
  9
$PLIMMIN
 10
0.0
 20
0.0
  9
$PLIMMAX
 10
12.0
 20
9.0
  9
$UNITMODE
 70
     0
  9
$VISRETAIN
 70
     0
  9
$PLINEGEN
 70
     1
  9
$PSLTSCALE
 70
     0
  9
$TREEDEPTH
 70
  3020
  9
$CMLSTYLE
  2
Standard
  9
$CMLJUST
 70
     0
  9
$CMLSCALE
 40
1.0
  9
$PROXYGRAPHICS
 70
     0
  9
$MEASUREMENT
 70
     1
  9
$CELWEIGHT
370
     0
  9
$ENDCAPS
280
     0
  9
$JOINSTYLE
280
     0
  9
$LWDISPLAY
290
     0
  9
$INSUNITS
 70
     4
  9
$HYPERLINKBASE
  1

  9
$STYLESHEET
  1
MONOCHROME.CTB
  9
$XEDIT
290
     1
  9
$CEPSNTYPE
380
     0
  9
$PSTYLEMODE
290
     1
  9
$FINGERPRINTGUID
  2

  9
$VERSIONGUID
  2
{A2BADDFE-4E6D-4BFD-8D18-7CD1D19C868C}
  9
$EXTNAMES
290
     1
  9
$PSVPSCALE
 40
0.0
  9
$OLESTARTUP
290
     0
  9
$SORTENTS
280
   127
  9
$INDEXCTL
280
     0
  9
$HIDETEXT
280
     0
  9
$XCLIPFRAME
290
     0
  9
$HALOGAP
280
     0
  9
$OBSCOLOR
 70
   257
  9
$OBSLTYPE
280
     0
  9
$INTERSECTIONDISPLAY
280
     0
  9
$INTERSECTIONCOLOR
 70
   257
  9
$DIMASSOC
280
     1
  9
$PROJECTNAME
  1

  0
ENDSEC
  0
SECTION
  2
CLASSES
  0
CLASS
  1
ACDBDICTIONARYWDFLT
  2
AcDbDictionaryWithDefault
  3
ObjectDBX Classes
 90
        0
 91
        1
280
     0
281
     0
  0
CLASS
  1
IMAGE
  2
AcDbRasterImage
  3
ISM
 90
     2175
 91
        0
280
     0
281
     1
  0
CLASS
  1
DICTIONARYVAR
  2
AcDbDictionaryVar
  3
ObjectDBX Classes
 90
        0
 91
        9
280
     0
281
     0
  0
CLASS
  1
RASTERVARIABLES
  2
AcDbRasterVariables
  3
ISM
 90
        0
 91
        0
280
     0
281
     0
  0
CLASS
  1
IMAGEDEF
  2
AcDbRasterImageDef
  3
ISM
 90
        0
 91
        1
280
     0
281
     0
  0
CLASS
  1
IMAGEDEF_REACTOR
  2
AcDbRasterImageDefReactor
  3
ISM
 90
        1
 91
        0
280
     0
281
     0
  0
CLASS
  1
IDBUFFER
  2
AcDbIdBuffer
  3
ObjectDBX Classes
 90
        0
 91
        0
280
     0
281
     0
  0
CLASS
  1
SPATIAL_FILTER
  2
AcDbSpatialFilter
  3
ObjectDBX Classes
 90
        0
 91
        0
280
     0
281
     0
  0
CLASS
  1
SORTENTSTABLE
  2
AcDbSortentsTable
  3
ObjectDBX Classes
 90
        0
 91
        0
280
     0
281
     0
  0
CLASS
  1
LAYER_INDEX
  2
AcDbLayerIndex
  3
ObjectDBX Classes
 90
        0
 91
        0
280
     0
281
     0
  0
CLASS
  1
SPATIAL_INDEX
  2
AcDbSpatialIndex
  3
ObjectDBX Classes
 90
        0
 91
        0
280
     0
281
     0
  0
CLASS
  1
OBJECT_PTR
  2
CAseDLPNTableRecord
  3
ASE-LPNTableRecord
 90
        1
 91
        0
280
     0
281
     0
  0
CLASS
  1
PLOTSETTINGS
  2
AcDbPlotSettings
  3
ObjectDBX Classes
 90
        0
 91
        1
280
     0
281
     0
  0
CLASS
  1
WIPEOUT
  2
AcDbWipeout
  3
"WipeOut|Product Desc: Object Enabler for WipeOut entity                        |Company: Autodesk, Inc.                        |WEB Address: www.autodesk.com"
 90
     2175
 91
        0
280
     0
281
     1
  0
CLASS
  1
WIPEOUTVARIABLES
  2
AcDbWipeoutVariables
  3
"WipeOut|Product Desc:     WipeOut Dbx Application|Company:          Autodesk, Inc.|WEB Address:      www.autodesk.com"
 90
        0
 91
        0
280
     0
281
     0
  0
CLASS
  1
RTEXT
  2
RText
  3
RText|AutoCAD Express Tool|expresstools@autodesk.com
 90
        0
 91
        0
280
     0
281
     1
  0
CLASS
  1
ARCALIGNEDTEXT
  2
AcDbArcAlignedText
  3
ATEXT|AutoCAD Express Tool|expresstools@autodesk.com
 90
        0
 91
        0
280
     0
281
     1
  0
CLASS
  1
VLO-VL
  2
vlo_VL
  3
VL|AutoLISP based application
 90
      129
 91
        1
280
     0
281
     0
  0
CLASS
  1
DIMASSOC
  2
AcDbDimAssoc
  3
"AcDbDimAssoc|Product Desc:     AcDim ARX App For Dimension|Company:          Autodesk, Inc.|WEB Address:      www.autodesk.com"
 90
        0
 91
        0
280
     0
281
     0
  0
CLASS
  1
MATERIAL
  2
AcDbMaterial
  3
ObjectDBX Classes
 90
     1153
 91
        3
280
     0
281
     0
  0
CLASS
  1
VISUALSTYLE
  2
AcDbVisualStyle
  3
ObjectDBX Classes
 90
     4095
 91
       16
280
     0
281
     0
  0
CLASS
  1
TABLESTYLE
  2
AcDbTableStyle
  3
ObjectDBX Classes
 90
     4095
 91
        1
280
     0
281
     0
  0
CLASS
  1
SCALE
  2
AcDbScale
  3
ObjectDBX Classes
 90
     1153
 91
       33
280
     0
281
     0
  0
CLASS
  1
MLEADERSTYLE
  2
AcDbMLeaderStyle
  3
ACDB_MLEADERSTYLE_CLASS
 90
     4095
 91
        1
280
     0
281
     0
  0
CLASS
  1
CELLSTYLEMAP
  2
AcDbCellStyleMap
  3
ObjectDBX Classes
 90
     1152
 91
        2
280
     0
281
     0
  0
CLASS
  1
ACAD_EVALUATION_GRAPH
  2
AcDbEvalGraph
  3
ObjectDBX Classes
 90
     1153
 91
        1
280
     0
281
     0
  0
CLASS
  1
ACAECUSTOBJ
  2
AcAeEditorObj
  3
AcAeEditorObj
 90
     1024
 91
        1
280
     0
281
     0
  0
CLASS
  1
ACDB_DYNAMICBLOCKPURGEPREVENTER_VERSION
  2
AcDbDynamicBlockPurgePreventer
  3
ObjectDBX Classes
 90
     1153
 91
        1
280
     0
281
     0
  0
ENDSEC
  0
SECTION
  2
TABLES
  0
TABLE
  2
VPORT
  5
8
102
{ACAD_XDICTIONARY
360
C8FC
102
}
330
0
100
AcDbSymbolTable
 70
     1
  0
VPORT
  5
C888
330
8
100
AcDbSymbolTableRecord
100
AcDbViewportTableRecord
  2
*Active
 70
     0
 10
0.0
 20
0.0
 11
1.0
 21
1.0
 12
3331.915968174366
 22
505.3879262512642
 13
0.0
 23
0.0
 14
1.0
 24
1.0
 15
0.0
 25
0.0
 16
0.0
 26
0.0
 36
1.0
 17
0.0
 27
0.0
 37
0.0
 40
212.3661930184135
 41
2.341240875912408
 42
50.0
 43
0.0
 44
0.0
 50
0.0
 51
0.0
 71
     0
 72
   100
 73
     1
 74
     1
 75
     0
 76
     0
 77
     0
 78
     0
281
     0
 65
     0
110
0.0
120
0.0
130
0.0
111
1.0
121
0.0
131
0.0
112
0.0
122
1.0
132
0.0
 79
     0
146
0.0
  0
ENDTAB
  0
TABLE
  2
LTYPE
  5
5
330
0
100
AcDbSymbolTable
 70
     2
  0
LTYPE
  5
14
330
5
100
AcDbSymbolTableRecord
100
AcDbLinetypeTableRecord
  2
ByBlock
 70
     0
  3

 72
    65
 73
     0
 40
0.0
  0
LTYPE
  5
15
330
5
100
AcDbSymbolTableRecord
100
AcDbLinetypeTableRecord
  2
ByLayer
 70
     0
  3

 72
    65
 73
     0
 40
0.0
  0
LTYPE
  5
16
330
5
100
AcDbSymbolTableRecord
100
AcDbLinetypeTableRecord
  2
CONTINUOUS
 70
     0
  3
Solid line
 72
    65
 73
     0
 40
0.0
  0
LTYPE
  5
1F5
330
5
100
AcDbSymbolTableRecord
100
AcDbLinetypeTableRecord
  2
CENTER
 70
     0
  3
____ _ ____ _ ____ _ ____ _ ____ _ ____ _ ____
 72
    65
 73
     4
 40
0.6
 49
0.375
 74
     0
 49
-0.075
 74
     0
 49
0.075
 74
     0
 49
-0.075
 74
     0
  0
ENDTAB
  0
TABLE
  2
LAYER
  5
2
102
{ACAD_XDICTIONARY
360
823
102
}
330
0
100
AcDbSymbolTable
 70
     6
  0
LAYER
  5
10
102
{ACAD_XDICTIONARY
360
C8EF
102
}
330
2
100
AcDbSymbolTableRecord
100
AcDbLayerTableRecord
  2
0
 70
     0
 62
     7
  6
CONTINUOUS
370
    35
390
F
  0
LAYER
  5
200
102
{ACAD_XDICTIONARY
360
C8F1
102
}
330
2
100
AcDbSymbolTableRecord
100
AcDbLayerTableRecord
  2
02___PRT_ALL_AXES
 70
     0
 62
     7
  6
CONTINUOUS
370
    -3
390
F
  0
LAYER
  5
801
330
2
100
AcDbSymbolTableRecord
100
AcDbLayerTableRecord
  2
Defpoints
 70
     0
 62
     7
  6
CONTINUOUS
290
     0
370
    -3
390
F
  0
LAYER
  5
24DA
102
{ACAD_XDICTIONARY
360
C8F3
102
}
330
2
100
AcDbSymbolTableRecord
100
AcDbLayerTableRecord
  2
dim
 70
     0
 62
     3
  6
CONTINUOUS
370
    25
390
F
  0
LAYER
  5
8766
102
{ACAD_XDICTIONARY
360
C8F5
102
}
330
2
100
AcDbSymbolTableRecord
100
AcDbLayerTableRecord
  2
图框
 70
     0
 62
     7
  6
CONTINUOUS
370
    20
390
F
  0
LAYER
  5
D3C4
330
2
100
AcDbSymbolTableRecord
100
AcDbLayerTableRecord
  2
打标文字
 70
     0
 62
     3
  6
CONTINUOUS
370
    20
390
F
  0
ENDTAB
  0
TABLE
  2
STYLE
  5
3
330
0
100
AcDbSymbolTable
 70
     4
  0
STYLE
  5
11
330
3
100
AcDbSymbolTableRecord
100
AcDbTextStyleTableRecord
  2
STANDARD
 70
     0
 40
0.0
 41
0.75
 50
0.0
 71
     0
 42
0.2
  3
simfang_0.ttf
  4

1001
ACAD
1000
FangSong_GB2312
1071
    34353
  0
STYLE
  5
80B
330
3
100
AcDbSymbolTableRecord
100
AcDbTextStyleTableRecord
  2
工程字
 70
     0
 40
0.0
 41
1.0
 50
0.0
 71
     0
 42
3.5
  3
gbenor.shx
  4
gbcbig.shx
  0
STYLE
  5
53AE
330
3
100
AcDbSymbolTableRecord
100
AcDbTextStyleTableRecord
  2
Chinese
 70
     0
 40
0.0
 41
1.0
 50
0.0
 71
     0
 42
2.5
  3
PMingLiU.ttf
  4

1001
ACAD
1000
PMingLiU
1071
    34834
  0
STYLE
  5
D3C5
330
3
100
AcDbSymbolTableRecord
100
AcDbTextStyleTableRecord
  2
Romans字体
 70
     0
 40
0.0
 41
0.75
 50
0.0
 71
     0
 42
0.2
  3
romans.shx
  4

  0
ENDTAB
  0
TABLE
  2
VIEW
  5
6
330
0
100
AcDbSymbolTable
 70
     0
  0
ENDTAB
  0
TABLE
  2
UCS
  5
7
330
0
100
AcDbSymbolTable
 70
     0
  0
ENDTAB
  0
TABLE
  2
APPID
  5
9
330
0
100
AcDbSymbolTable
 70
    27
  0
APPID
  5
209
330
9
100
AcDbSymbolTableRecord
100
AcDbRegAppTableRecord
  2
ACAD
 70
     0
  0
APPID
  5
81B
330
9
100
AcDbSymbolTableRecord
100
AcDbRegAppTableRecord
  2
DCO15
 70
     0
  0
APPID
  5
81C
330
9
100
AcDbSymbolTableRecord
100
AcDbRegAppTableRecord
  2
ACAD_PSEXT
 70
     0
  0
APPID
  5
81D
330
9
100
AcDbSymbolTableRecord
100
AcDbRegAppTableRecord
  2
AcAecLayerStandard
 70
     0
  0
APPID
  5
81E
330
9
100
AcDbSymbolTableRecord
100
AcDbRegAppTableRecord
  2
ACAD_DSTYLE_DIMEXT_LENGTH
 70
     0
  0
APPID
  5
81F
330
9
100
AcDbSymbolTableRecord
100
AcDbRegAppTableRecord
  2
ACAD_DSTYLE_DIMEXT_ENABLED
 70
     0
  0
APPID
  5
820
330
9
100
AcDbSymbolTableRecord
100
AcDbRegAppTableRecord
  2
ACAD_DSTYLE_DIMJOGGED_JOGANGLE_SYMBOL
 70
     0
  0
APPID
  5
821
330
9
100
AcDbSymbolTableRecord
100
AcDbRegAppTableRecord
  2
ACAD_DSTYLE_DIMARC_LENGTH_SYMBOL
 70
     0
  0
APPID
  5
822
330
9
100
AcDbSymbolTableRecord
100
AcDbRegAppTableRecord
  2
ACAD_DSTYLE_DIMTEXT_FILL
 70
     0
  0
APPID
  5
53B5
330
9
100
AcDbSymbolTableRecord
100
AcDbRegAppTableRecord
  2
GENIUS_GENTRA_14
 70
     0
  0
APPID
  5
53B6
330
9
100
AcDbSymbolTableRecord
100
AcDbRegAppTableRecord
  2
GENIUS_GENODEF_13
 70
     0
  0
APPID
  5
53B7
330
9
100
AcDbSymbolTableRecord
100
AcDbRegAppTableRecord
  2
GENIUS_GENOBJ-N-TIT_13
 70
     0
  0
APPID
  5
53B8
330
9
100
AcDbSymbolTableRecord
100
AcDbRegAppTableRecord
  2
GENIUS_GENTITLE_13
 70
     0
  0
APPID
  5
53B9
330
9
100
AcDbSymbolTableRecord
100
AcDbRegAppTableRecord
  2
GENIUS_GENOENT_13
 70
     0
  0
APPID
  5
53BA
330
9
100
AcDbSymbolTableRecord
100
AcDbRegAppTableRecord
  2
GENIUS_GENOREF_13
 70
     0
  0
APPID
  5
53BB
330
9
100
AcDbSymbolTableRecord
100
AcDbRegAppTableRecord
  2
GENIUS_GENOLIS_13
 70
     0
  0
APPID
  5
53BC
330
9
100
AcDbSymbolTableRecord
100
AcDbRegAppTableRecord
  2
GENIUS_GENOBJ-N-SDF_13
 70
     0
  0
APPID
  5
53BD
330
9
100
AcDbSymbolTableRecord
100
AcDbRegAppTableRecord
  2
GENIUS_GENSCREG_13
 70
     0
  0
APPID
  5
7F21
330
9
100
AcDbSymbolTableRecord
100
AcDbRegAppTableRecord
  2
ACAD_EXEMPT_FROM_CAD_STANDARDS
 70
     0
  0
APPID
  5
C8E2
330
9
100
AcDbSymbolTableRecord
100
AcDbRegAppTableRecord
  2
ACAD_MLEADERVER
 70
     0
  0
APPID
  5
C932
330
9
100
AcDbSymbolTableRecord
100
AcDbRegAppTableRecord
  2
AcadAnnoPO
 70
     0
  0
APPID
  5
CA95
330
9
100
AcDbSymbolTableRecord
100
AcDbRegAppTableRecord
  2
ACAD_DSTYLE_DIMJAG
 70
     0
  0
APPID
  5
CA96
330
9
100
AcDbSymbolTableRecord
100
AcDbRegAppTableRecord
  2
ACAD_DSTYLE_DIMTALN
 70
     0
  0
APPID
  5
CA97
330
9
100
AcDbSymbolTableRecord
100
AcDbRegAppTableRecord
  2
AcDbDynamicBlockGUID
 70
     0
  0
APPID
  5
CA98
330
9
100
AcDbSymbolTableRecord
100
AcDbRegAppTableRecord
  2
AcDbBlockRepETag
 70
     0
  0
APPID
  5
D2D0
330
9
100
AcDbSymbolTableRecord
100
AcDbRegAppTableRecord
  2
ACAUTHENVIRON
 70
     0
  0
APPID
  5
D2D3
330
9
100
AcDbSymbolTableRecord
100
AcDbRegAppTableRecord
  2
AcDbDynamicBlockTrueName
 70
     0
  0
ENDTAB
  0
TABLE
  2
DIMSTYLE
  5
A
330
0
100
AcDbSymbolTable
 70
     2
100
AcDbDimStyleTable
 71
     2
340
876B
340
20A
  0
DIMSTYLE
105
20A
330
A
100
AcDbSymbolTableRecord
100
AcDbDimStyleTableRecord
  2
STANDARD
 70
     0
 41
3.5
 47
0.01
 48
0.01
 71
     1
 73
     0
 74
     0
 77
     1
 78
     8
140
3.5
271
     2
272
     2
284
     8
340
11
  0
DIMSTYLE
105
876B
102
{ACAD_REACTORS
330
A6BF
330
397A
330
397F
330
A687
330
DFED
102
}
330
A
100
AcDbSymbolTableRecord
100
AcDbDimStyleTableRecord
  2
01
 70
     0
 41
2.5
 42
0.2
 43
0.2
 44
1.199999999999999
 73
     0
 74
     0
 77
     1
 78
     8
 79
     2
140
4.0
141
0.0
147
0.5
176
     1
177
     6
178
     4
271
     2
272
     2
340
D3C5
1001
ACAD_DSTYLE_DIMJAG
1070
   388
1040
1.5
1001
ACAD_DSTYLE_DIMTALN
1070
   392
1070
     0
  0
ENDTAB
  0
TABLE
  2
BLOCK_RECORD
  5
1
330
0
100
AcDbSymbolTable
 70
     8
  0
BLOCK_RECORD
  5
1F
330
1
100
AcDbSymbolTableRecord
100
AcDbBlockTableRecord
  2
*MODEL_SPACE
340
22
  0
BLOCK_RECORD
  5
1B
330
1
100
AcDbSymbolTableRecord
100
AcDbBlockTableRecord
  2
*PAPER_SPACE
340
1E
  0
BLOCK_RECORD
  5
3596
330
1
100
AcDbSymbolTableRecord
100
AcDbBlockTableRecord
  2
*D0
340
0
  0
BLOCK_RECORD
  5
35D7
330
1
100
AcDbSymbolTableRecord
100
AcDbBlockTableRecord
  2
*D1
340
0
  0
BLOCK_RECORD
  5
A688
330
1
100
AcDbSymbolTableRecord
100
AcDbBlockTableRecord
  2
*D2
340
0
  0
BLOCK_RECORD
  5
A6C0
330
1
100
AcDbSymbolTableRecord
100
AcDbBlockTableRecord
  2
*D3
340
0
  0
BLOCK_RECORD
  5
D32C
102
{ACAD_XDICTIONARY
360
E227
102
}
330
1
100
AcDbSymbolTableRecord
100
AcDbBlockTableRecord
  2
A4图框-NEW
340
0
310
2800000020000000200000000100080000000000000400000000000000000000000000000000000000000000000080000080000000808000800000008000800080800000C0C0C000C0DCC000F0CAA6000020400000206000002080000020A0000020C0000020E00000400000004020000040400000406000004080000040A0
310
000040C0000040E00000600000006020000060400000606000006080000060A0000060C0000060E00000800000008020000080400000806000008080000080A0000080C0000080E00000A0000000A0200000A0400000A0600000A0800000A0A00000A0C00000A0E00000C0000000C0200000C0400000C0600000C0800000C0
310
A00000C0C00000C0E00000E0000000E0200000E0400000E0600000E0800000E0A00000E0C00000E0E00040000000400020004000400040006000400080004000A0004000C0004000E00040200000402020004020400040206000402080004020A0004020C0004020E000404000004040200040404000404060004040800040
310
40A0004040C0004040E00040600000406020004060400040606000406080004060A0004060C0004060E00040800000408020004080400040806000408080004080A0004080C0004080E00040A0000040A0200040A0400040A0600040A0800040A0A00040A0C00040A0E00040C0000040C0200040C0400040C0600040C08000
310
40C0A00040C0C00040C0E00040E0000040E0200040E0400040E0600040E0800040E0A00040E0C00040E0E00080000000800020008000400080006000800080008000A0008000C0008000E00080200000802020008020400080206000802080008020A0008020C0008020E00080400000804020008040400080406000804080
310
008040A0008040C0008040E00080600000806020008060400080606000806080008060A0008060C0008060E00080800000808020008080400080806000808080008080A0008080C0008080E00080A0000080A0200080A0400080A0600080A0800080A0A00080A0C00080A0E00080C0000080C0200080C0400080C0600080C0
310
800080C0A00080C0C00080C0E00080E0000080E0200080E0400080E0600080E0800080E0A00080E0C00080E0E000C0000000C0002000C0004000C0006000C0008000C000A000C000C000C000E000C0200000C0202000C0204000C0206000C0208000C020A000C020C000C020E000C0400000C0402000C0404000C0406000C0
310
408000C040A000C040C000C040E000C0600000C0602000C0604000C0606000C0608000C060A000C060C000C060E000C0800000C0802000C0804000C0806000C0808000C080A000C080C000C080E000C0A00000C0A02000C0A04000C0A06000C0A08000C0A0A000C0A0C000C0A0E000C0C00000C0C02000C0C04000C0C06000
310
C0C08000C0C0A000F0FBFF00A4A0A000808080000000FF0000FF000000FFFF00FF000000FF00FF00FFFF0000FFFFFF0000000000000000000000000000000000000000000000000000000000000000000000000000000000000000000000000000000000000000000000000000000000000000000000000000000000000000
310
000000000000000000000000000000000000000000000000000000000000000000000000000000000000000000000000000000000000000000000000000000000000000000000000000000000000000000000000000000000000000000000000000000000000000000000000000000000000F9F9F9F9F9F9F9F9F9F9F9F9F9
310
F9F9F9F9F9F9F9F9F9F9F9F9F9F9FF00000000F9FF000000000000000000FFFFFFFFFFFFFFFFFFFFFFFFF9FAFAFAFF00000000F9FF000000000000000000FFFFFFFFFFFFFFFFFFFFFFFFFFFFFFFFFF00000000F9FD000000000000000000FFFFFFFFFFFFFFFFFFFFFFFFFFFFFFFFFF00000000F9FF000000000000000000FF
310
FFFFFFFFFFFFFFFFFFFFFFFFFFFFFFFF00000000F9FD000000000000000000FFFFFFFFFFFFFFFFFFFFFFFFFFFFFFFFFF00000000F9FF00000000000000000000000000000000000000000000000000FF00000000F9FD00000000000000000000000000000000000000000000000000FF00000000F9FF000000000000000000
310
00000000000000000000000000000000FF00000000F9FD00000000000000000000000000000000000000000000000000FF00000000F9FF00000000000000000000000000000000000000000000000000FF00000000F9FD00000000000000000000000000000000000000000000000000FF00000000F9FD0000000000000000
310
0000000000000000000000000000000000FF00000000F9FF00000000000000000000000000000000000000000000000000FF00000000F9FD00000000000000000000000000000000000000000000000000FF00000000F9FF00000000000000000000000000000000000000000000000000FF00000000F9FD00000000000000
310
000000000000000000000000000000000000FF00000000F9FF00000000000000000000000000000000000000000000000000FF00000000F9FFFFFFFFFFFFFFFFFFFFFFFFFFFFFFFFFFFFFFFFFFFFFFFFFFFFFF00000000F9FFFFFFF9F9F9F9F9F9F9F9F9F9F9F9F9F9F9F9F9F9F9F9F9F9F9F9000000000000000000000000
310
00000000000000000000000000000000000000000000000000000000000000000000000000000000000000000000000000000000000000000000000000000000000000000000000000000000000000000000000000000000000000000000000000000000000000000000000000000000000000000000000000000000000000
310
0000000000000000000000000000000000000000000000000000000000000000000000000000000000000000000000000000000000000000
102
{BLKREFS
331
DE0C
102
}
1001
AcDbDynamicBlockGUID
1000
{7B32FE88-91C1-4CC3-A211-91C097385D80}
1001
AcDbBlockRepETag
1070
     1
1071
      148
1001
ACAD
1000
DesignCenter Data
1002
{
1070
     1
1070
     4
1002
}
  0
BLOCK_RECORD
  5
DFEE
330
1
100
AcDbSymbolTableRecord
100
AcDbBlockTableRecord
  2
*D5
340
0
  0
BLOCK_RECORD
  5
E144
330
1
100
AcDbSymbolTableRecord
100
AcDbBlockTableRecord
  2
*D6
340
0
  0
ENDTAB
  0
ENDSEC
  0
SECTION
  2
BLOCKS
  0
BLOCK
  5
20
330
1F
100
AcDbEntity
  8
0
100
AcDbBlockBegin
  2
*MODEL_SPACE
 70
     0
 10
0.0
 20
0.0
 30
0.0
  3
*MODEL_SPACE
  1

  0
ENDBLK
  5
21
330
1F
100
AcDbEntity
  8
0
100
AcDbBlockEnd
  0
BLOCK
  5
1C
330
1B
100
AcDbEntity
 67
     1
  8
0
100
AcDbBlockBegin
  2
*PAPER_SPACE
 70
     0
 10
0.0
 20
0.0
 30
0.0
  3
*PAPER_SPACE
  1

  0
ENDBLK
  5
1D
330
1B
100
AcDbEntity
 67
     1
  8
0
100
AcDbBlockEnd
  0
BLOCK
  5
3597
330
3596
100
AcDbEntity
  8
0
370
     0
100
AcDbBlockBegin
  2
*D0
 70
     1
 10
0.0
 20
0.0
 30
0.0
  3
*D0
  1

  0
LINE
  5
DF51
330
3596
100
AcDbEntity
  8
dim
 62
     6
370
    -2
100
AcDbLine
 10
3332.832614967962
 20
567.1785799613052
 30
0.0
 11
3332.832614967962
 21
578.4656864514115
 31
0.0
  0
LINE
  5
DF52
330
3596
100
AcDbEntity
  8
dim
 62
     6
370
    -2
100
AcDbLine
 10
3351.332614967962
 20
567.1785799613052
 30
0.0
 11
3351.332614967962
 21
578.4656864514115
 31
0.0
  0
LINE
  5
DF53
330
3596
100
AcDbEntity
  8
dim
 62
     1
370
    -2
100
AcDbLine
 10
3335.332614967962
 20
577.2656864514114
 30
0.0
 11
3348.832614967963
 21
577.2656864514114
 31
0.0
  0
SOLID
  5
DF54
330
3596
100
AcDbEntity
  8
dim
 62
     1
370
     0
100
AcDbTrace
 10
3335.332614967962
 20
577.6823531180781
 30
0.0
 11
3335.332614967962
 21
576.8490197847446
 31
0.0
 12
3332.832614967962
 22
577.2656864514114
 32
0.0
 13
3332.832614967962
 23
577.2656864514114
 33
0.0
  0
SOLID
  5
DF55
330
3596
100
AcDbEntity
  8
dim
 62
     1
370
     0
100
AcDbTrace
 10
3348.832614967963
 20
577.6823531180781
 30
0.0
 11
3348.832614967963
 21
576.8490197847446
 31
0.0
 12
3351.332614967962
 22
577.2656864514114
 32
0.0
 13
3351.332614967962
 23
577.2656864514114
 33
0.0
  0
MTEXT
  5
DF56
330
3596
100
AcDbEntity
  8
dim
 62
     4
100
AcDbMText
 10
3342.082614967962
 20
579.7656864514115
 30
0.0
 40
4.0
 41
0.0
 71
     5
 72
     1
  1
\A1;PG16
  7
Romans字体
 73
     1
 44
1.0
  0
POINT
  5
DF57
330
3596
100
AcDbEntity
  8
Defpoints
 62
     0
370
     0
100
AcDbPoint
 10
3332.832614967962
 20
566.9785799613053
 30
0.0
  0
POINT
  5
DF58
330
3596
100
AcDbEntity
  8
Defpoints
 62
     0
370
     0
100
AcDbPoint
 10
3351.332614967962
 20
566.9785799613053
 30
0.0
  0
POINT
  5
DF59
330
3596
100
AcDbEntity
  8
Defpoints
 62
     0
370
     0
100
AcDbPoint
 10
3351.332614967962
 20
577.2656864514114
 30
0.0
  0
ENDBLK
  5
35A2
330
3596
100
AcDbEntity
  8
0
370
     0
100
AcDbBlockEnd
  0
BLOCK
  5
35D8
330
35D7
100
AcDbEntity
  8
0
370
     0
100
AcDbBlockBegin
  2
*D1
 70
     1
 10
0.0
 20
0.0
 30
0.0
  3
*D1
  1

  0
LINE
  5
DF3F
330
35D7
100
AcDbEntity
  8
dim
 62
     6
370
    -2
100
AcDbLine
 10
3320.582614967912
 20
513.9785799613052
 30
0.0
 11
3320.582614967912
 21
502.1307939496725
 31
0.0
  0
LINE
  5
DF40
330
35D7
100
AcDbEntity
  8
dim
 62
     6
370
    -2
100
AcDbLine
 10
3363.582614967912
 20
513.9785799613052
 30
0.0
 11
3363.582614967912
 21
502.1307939496725
 31
0.0
  0
LINE
  5
DF41
330
35D7
100
AcDbEntity
  8
dim
 62
     1
370
    -2
100
AcDbLine
 10
3323.082614967912
 20
503.3307939496721
 30
0.0
 11
3361.082614967912
 21
503.3307939496721
 31
0.0
  0
SOLID
  5
DF42
330
35D7
100
AcDbEntity
  8
dim
 62
     1
370
     0
100
AcDbTrace
 10
3323.082614967912
 20
503.7474606163391
 30
0.0
 11
3323.082614967912
 21
502.9141272830058
 31
0.0
 12
3320.582614967912
 22
503.3307939496721
 32
0.0
 13
3320.582614967912
 23
503.3307939496721
 33
0.0
  0
SOLID
  5
DF43
330
35D7
100
AcDbEntity
  8
dim
 62
     1
370
     0
100
AcDbTrace
 10
3361.082614967912
 20
503.7474606163391
 30
0.0
 11
3361.082614967912
 21
502.9141272830058
 31
0.0
 12
3363.582614967912
 22
503.3307939496721
 32
0.0
 13
3363.582614967912
 23
503.3307939496721
 33
0.0
  0
MTEXT
  5
DF44
330
35D7
100
AcDbEntity
  8
dim
 62
     4
100
AcDbMText
 10
3342.082614967913
 20
505.8307939496724
 30
0.0
 40
4.0
 41
0.0
 71
     5
 72
     1
  1
\A1;43
  7
Romans字体
 73
     1
 44
1.0
  0
POINT
  5
DF45
330
35D7
100
AcDbEntity
  8
Defpoints
 62
     0
370
     0
100
AcDbPoint
 10
3320.582614967912
 20
514.178579961305
 30
0.0
  0
POINT
  5
DF46
330
35D7
100
AcDbEntity
  8
Defpoints
 62
     0
370
     0
100
AcDbPoint
 10
3363.582614967912
 20
514.178579961305
 30
0.0
  0
POINT
  5
DF47
330
35D7
100
AcDbEntity
  8
Defpoints
 62
     0
370
     0
100
AcDbPoint
 10
3363.582614967912
 20
503.3307939496721
 30
0.0
  0
ENDBLK
  5
35E3
330
35D7
100
AcDbEntity
  8
0
370
     0
100
AcDbBlockEnd
  0
BLOCK
  5
A692
330
A688
100
AcDbEntity
  8
0
370
     0
100
AcDbBlockBegin
  2
*D2
 70
     1
 10
0.0
 20
0.0
 30
0.0
  3
*D2
  1

  0
LINE
  5
DF48
330
A688
100
AcDbEntity
  8
dim
 62
     6
370
    -2
100
AcDbLine
 10
3359.282614967912
 20
554.1785799613051
 30
0.0
 11
3375.800981104885
 21
554.1785799613051
 31
0.0
  0
LINE
  5
DF49
330
A688
100
AcDbEntity
  8
dim
 62
     6
370
    -2
100
AcDbLine
 10
3359.282614967912
 20
514.178579961305
 30
0.0
 11
3375.800981104885
 21
514.178579961305
 31
0.0
  0
LINE
  5
DF4A
330
A688
100
AcDbEntity
  8
dim
 62
     1
370
    -2
100
AcDbLine
 10
3374.600981104885
 20
551.678579961305
 30
0.0
 11
3374.600981104885
 21
516.678579961305
 31
0.0
  0
SOLID
  5
DF4B
330
A688
100
AcDbEntity
  8
dim
 62
     1
370
     0
100
AcDbTrace
 10
3374.184314438219
 20
551.678579961305
 30
0.0
 11
3375.017647771552
 21
551.678579961305
 31
0.0
 12
3374.600981104885
 22
554.1785799613051
 32
0.0
 13
3374.600981104885
 23
554.1785799613051
 33
0.0
  0
SOLID
  5
DF4C
330
A688
100
AcDbEntity
  8
dim
 62
     1
370
     0
100
AcDbTrace
 10
3374.184314438219
 20
516.678579961305
 30
0.0
 11
3375.017647771552
 21
516.678579961305
 31
0.0
 12
3374.600981104885
 22
514.178579961305
 32
0.0
 13
3374.600981104885
 23
514.178579961305
 33
0.0
  0
MTEXT
  5
DF4D
330
A688
100
AcDbEntity
  8
dim
 62
     4
100
AcDbMText
 10
3372.100981104885
 20
534.1785799613054
 30
0.0
 40
4.0
 41
0.0
 71
     5
 72
     1
  1
\A1;40
  7
Romans字体
 11
0.0000000000000001
 21
1.0
 31
0.0
 73
     1
 44
1.0
  0
POINT
  5
DF4E
330
A688
100
AcDbEntity
  8
Defpoints
 62
     0
370
     0
100
AcDbPoint
 10
3359.082614967912
 20
554.1785799613051
 30
0.0
  0
POINT
  5
DF4F
330
A688
100
AcDbEntity
  8
Defpoints
 62
     0
370
     0
100
AcDbPoint
 10
3359.082614967912
 20
514.178579961305
 30
0.0
  0
POINT
  5
DF50
330
A688
100
AcDbEntity
  8
Defpoints
 62
     0
370
     0
100
AcDbPoint
 10
3374.600981104885
 20
514.178579961305
 30
0.0
  0
ENDBLK
  5
A693
330
A688
100
AcDbEntity
  8
0
370
     0
100
AcDbBlockEnd
  0
BLOCK
  5
A6CA
330
A6C0
100
AcDbEntity
  8
0
370
     0
100
AcDbBlockBegin
  2
*D3
 70
     1
 10
0.0
 20
0.0
 30
0.0
  3
*D3
  1

  0
LINE
  5
DF2D
330
A6C0
100
AcDbEntity
  8
dim
 62
     6
370
    -2
100
AcDbLine
 10
3224.107711025961
 20
513.9785799613052
 30
0.0
 11
3224.107711025961
 21
502.1307939496725
 31
0.0
  0
LINE
  5
DF2E
330
A6C0
100
AcDbEntity
  8
dim
 62
     6
370
    -2
100
AcDbLine
 10
3284.107711025961
 20
513.9785799613052
 30
0.0
 11
3284.107711025961
 21
502.1307939496725
 31
0.0
  0
LINE
  5
DF2F
330
A6C0
100
AcDbEntity
  8
dim
 62
     1
370
    -2
100
AcDbLine
 10
3226.607711025962
 20
503.3307939496721
 30
0.0
 11
3281.607711025961
 21
503.3307939496721
 31
0.0
  0
SOLID
  5
DF30
330
A6C0
100
AcDbEntity
  8
dim
 62
     1
370
     0
100
AcDbTrace
 10
3226.607711025962
 20
503.7474606163391
 30
0.0
 11
3226.607711025962
 21
502.9141272830058
 31
0.0
 12
3224.107711025961
 22
503.3307939496721
 32
0.0
 13
3224.107711025961
 23
503.3307939496721
 33
0.0
  0
SOLID
  5
DF31
330
A6C0
100
AcDbEntity
  8
dim
 62
     1
370
     0
100
AcDbTrace
 10
3281.607711025961
 20
503.7474606163391
 30
0.0
 11
3281.607711025961
 21
502.9141272830058
 31
0.0
 12
3284.107711025961
 22
503.3307939496721
 32
0.0
 13
3284.107711025961
 23
503.3307939496721
 33
0.0
  0
MTEXT
  5
DF32
330
A6C0
100
AcDbEntity
  8
dim
 62
     4
100
AcDbMText
 10
3254.107711025961
 20
505.8307939496724
 30
0.0
 40
4.0
 41
0.0
 71
     5
 72
     1
  1
\A1;60
  7
Romans字体
 73
     1
 44
1.0
  0
POINT
  5
DF33
330
A6C0
100
AcDbEntity
  8
Defpoints
 62
     0
370
     0
100
AcDbPoint
 10
3224.107711025961
 20
514.178579961305
 30
0.0
  0
POINT
  5
DF34
330
A6C0
100
AcDbEntity
  8
Defpoints
 62
     0
370
     0
100
AcDbPoint
 10
3284.107711025961
 20
514.178579961305
 30
0.0
  0
POINT
  5
DF35
330
A6C0
100
AcDbEntity
  8
Defpoints
 62
     0
370
     0
100
AcDbPoint
 10
3284.107711025961
 20
503.3307939496721
 30
0.0
  0
ENDBLK
  5
A6CB
330
A6C0
100
AcDbEntity
  8
0
370
     0
100
AcDbBlockEnd
  0
BLOCK
  5
D32E
330
D32C
100
AcDbEntity
  8
0
100
AcDbBlockBegin
  2
A4图框-NEW
 70
     0
 10
0.0
 20
0.0
 30
0.0
  3
A4图框-NEW
  1

  0
MTEXT
  5
E193
102
{ACAD_XDICTIONARY
360
E22E
102
}
330
D32C
100
AcDbEntity
  8
图框
 62
     3
100
AcDbMText
 10
967.6594956750133
 20
499.7664151964293
 30
0.0
 40
2.985513575034151
 41
15.50176341157864
 71
     5
 72
     5
  1
BQ LUO
  7
Romans字体
 73
     1
 44
1.0
1001
AcDbBlockRepETag
1070
     1
1071
        0
1005
E193
1001
ACAD
1000
ACAD_MTEXT_DEFINED_HEIGHT_BEGIN
1070
    46
1040
6.292658374511018
1000
ACAD_MTEXT_DEFINED_HEIGHT_END
  0
MTEXT
  5
E194
330
D32C
100
AcDbEntity
  8
图框
 62
     3
100
AcDbMText
 10
983.041569333247
 20
499.7664151964293
 30
0.0
 40
2.487927979195124
 41
15.26238390489062
 71
     5
 72
     5
  1
{\W0.7;18.10.2010}
  7
Romans字体
 73
     1
 44
1.0
1001
AcDbBlockRepETag
1070
     1
1071
        1
1005
E194
1001
ACAD
1000
ACAD_MTEXT_DEFINED_HEIGHT_BEGIN
1070
    46
1040
6.292658374511042
1000
ACAD_MTEXT_DEFINED_HEIGHT_END
  0
MTEXT
  5
E195
330
D32C
100
AcDbEntity
  8
图框
 62
     3
100
AcDbMText
 10
1012.477254728976
 20
487.1810984474071
 30
0.0
 40
2.985513575034151
 41
17.64876416884615
 71
     5
 72
     5
  1
YY LIN
  7
Romans字体
 73
     1
 44
1.0
1001
AcDbBlockRepETag
1070
     1
1071
        2
1005
E195
1001
ACAD
1000
ACAD_MTEXT_DEFINED_HEIGHT_BEGIN
1070
    46
1040
6.292658374511455
1000
ACAD_MTEXT_DEFINED_HEIGHT_END
  0
MTEXT
  5
E196
330
D32C
100
AcDbEntity
  8
图框
 62
     3
100
AcDbMText
 10
1028.977802139886
 20
487.1810984474071
 30
0.0
 40
2.487927979195124
 41
15.35233065297276
 71
     5
 72
     5
  1
{\W0.7;18.10.2010}
  7
Romans字体
 73
     1
 44
1.0
1001
AcDbBlockRepETag
1070
     1
1071
        3
1005
E196
1001
ACAD
1000
ACAD_MTEXT_DEFINED_HEIGHT_BEGIN
1070
    46
1040
6.292658374511495
1000
ACAD_MTEXT_DEFINED_HEIGHT_END
  0
MTEXT
  5
E197
330
D32C
100
AcDbEntity
  8
图框
 62
     3
100
AcDbMText
 10
1063.722665487208
 20
525.4145966538831
 30
0.0
 40
2.985513575034151
 41
32.4973914334545
 71
     5
 72
     5
  1
-
  7
Romans字体
 73
     1
 44
1.0
1001
AcDbBlockRepETag
1070
     1
1071
        4
1005
E197
1001
ACAD
1000
ACAD_MTEXT_DEFINED_HEIGHT_BEGIN
1070
    46
1040
11.82914190181707
1000
ACAD_MTEXT_DEFINED_HEIGHT_END
  0
MTEXT
  5
E198
330
D32C
100
AcDbEntity
  8
图框
 62
     3
100
AcDbMText
 10
1063.727338552349
 20
513.5854547520641
 30
0.0
 40
2.985513575034151
 41
32.48804530317308
 71
     5
 72
     5
  1
-
  7
Romans字体
 73
     1
 44
1.0
1001
AcDbBlockRepETag
1070
     1
1071
        5
1005
E198
1001
ACAD
1000
ACAD_MTEXT_DEFINED_HEIGHT_BEGIN
1070
    46
1040
11.82914190182139
1000
ACAD_MTEXT_DEFINED_HEIGHT_END
  0
MTEXT
  5
E199
330
D32C
100
AcDbEntity
  8
图框
 62
     3
100
AcDbMText
 10
1110.122306614152
 20
526.8006839312707
 30
0.0
 40
2.985513575034151
 41
33.61239199242139
 71
     5
 72
     5
  1
-
  7
Romans字体
 73
     1
 44
1.0
1001
AcDbBlockRepETag
1070
     1
1071
        6
1005
E199
1001
ACAD
1000
ACAD_MTEXT_DEFINED_HEIGHT_BEGIN
1070
    46
1040
9.05696734704178
1000
ACAD_MTEXT_DEFINED_HEIGHT_END
  0
MTEXT
  5
E19A
330
D32C
100
AcDbEntity
  8
图框
 62
     3
100
AcDbMText
 10
1110.122306614152
 20
500.2775205517162
 30
0.0
 40
2.985513575034151
 41
33.61239199242139
 71
     5
 72
     5
  1
-
  7
Romans字体
 73
     1
 44
1.0
1001
AcDbBlockRepETag
1070
     1
1071
        7
1005
E19A
1001
ACAD
1000
ACAD_MTEXT_DEFINED_HEIGHT_BEGIN
1070
    46
1040
8.871557304763419
1000
ACAD_MTEXT_DEFINED_HEIGHT_END
  0
MTEXT
  5
E19B
330
D32C
100
AcDbEntity
  8
图框
 62
     3
100
AcDbMText
 10
967.6594956750133
 20
493.4737568219182
 30
0.0
 40
2.985513575034151
 41
15.50176341157864
 71
     5
 72
     5
  1
P RAO
  7
Romans字体
 73
     1
 44
1.0
1001
AcDbBlockRepETag
1070
     1
1071
        8
1005
E19B
1001
ACAD
1000
ACAD_MTEXT_DEFINED_HEIGHT_BEGIN
1070
    46
1040
6.292658374510335
1000
ACAD_MTEXT_DEFINED_HEIGHT_END
  0
MTEXT
  5
E19C
330
D32C
100
AcDbEntity
  8
图框
 62
     3
100
AcDbMText
 10
983.041569333247
 20
493.2441970450405
 30
0.0
 40
2.487927979195124
 41
15.26238390489051
 71
     5
 72
     5
  1
{\W0.7;18.10.2010}
  7
Romans字体
 73
     1
 44
1.0
1001
AcDbBlockRepETag
1070
     1
1071
        9
1005
E19C
1001
ACAD
1000
ACAD_MTEXT_DEFINED_HEIGHT_BEGIN
1070
    46
1040
6.751777928266487
1000
ACAD_MTEXT_DEFINED_HEIGHT_END
  0
MTEXT
  5
E19D
330
D32C
100
AcDbEntity
  8
图框
 62
     3
100
AcDbMText
 10
1012.477254728976
 20
499.7664151964291
 30
0.0
 40
2.985513575034151
 41
17.64876416884615
 71
     5
 72
     5
  1
-
  7
Romans字体
 73
     1
 44
1.0
1001
AcDbBlockRepETag
1070
     1
1071
       10
1005
E19D
1001
ACAD
1000
ACAD_MTEXT_DEFINED_HEIGHT_BEGIN
1070
    46
1040
6.292658374511397
1000
ACAD_MTEXT_DEFINED_HEIGHT_END
  0
MTEXT
  5
E19E
330
D32C
100
AcDbEntity
  8
图框
 62
     3
100
AcDbMText
 10
1028.977802139886
 20
499.7664151964289
 30
0.0
 40
2.487927979195124
 41
15.35233065297265
 71
     5
 72
     5
  1
-
  7
Romans字体
 73
     1
 44
1.0
1001
AcDbBlockRepETag
1070
     1
1071
       11
1005
E19E
1001
ACAD
1000
ACAD_MTEXT_DEFINED_HEIGHT_BEGIN
1070
    46
1040
6.292658374511382
1000
ACAD_MTEXT_DEFINED_HEIGHT_END
  0
MTEXT
  5
E19F
330
D32C
100
AcDbEntity
  8
图框
 62
     3
100
AcDbMText
 10
967.6594956750133
 20
487.1810984474071
 30
0.0
 40
2.985513575034151
 41
15.50176341157863
 71
     5
 72
     5
  1
-
  7
Romans字体
 73
     1
 44
1.0
1001
AcDbBlockRepETag
1070
     1
1071
       12
1005
E19F
1001
ACAD
1000
ACAD_MTEXT_DEFINED_HEIGHT_BEGIN
1070
    46
1040
6.292658374511478
1000
ACAD_MTEXT_DEFINED_HEIGHT_END
  0
MTEXT
  5
E1A0
330
D32C
100
AcDbEntity
  8
图框
 62
     3
100
AcDbMText
 10
983.041569333247
 20
487.1810984474071
 30
0.0
 40
2.487927979195124
 41
15.26238390489062
 71
     5
 72
     5
  1
-
  7
Romans字体
 73
     1
 44
1.0
1001
AcDbBlockRepETag
1070
     1
1071
       13
1005
E1A0
1001
ACAD
1000
ACAD_MTEXT_DEFINED_HEIGHT_BEGIN
1070
    46
1040
6.292658374511495
1000
ACAD_MTEXT_DEFINED_HEIGHT_END
  0
MTEXT
  5
E1A1
330
D32C
100
AcDbEntity
  8
图框
 62
     3
100
AcDbMText
 10
1074.556686986741
 20
495.8417418993361
 30
0.0
 40
2.985513575034151
 41
10.82934843438978
 71
     5
 72
     5
  1
-
  7
Romans字体
 73
     1
 44
1.0
1001
AcDbBlockRepETag
1070
     1
1071
       14
1005
E1A1
1001
ACAD
1000
ACAD_MTEXT_DEFINED_HEIGHT_BEGIN
1070
    46
1040
7.886094601210427
1000
ACAD_MTEXT_DEFINED_HEIGHT_END
  0
LINE
  5
E1A2
330
D32C
100
AcDbEntity
  8
图框
370
    -3
100
AcDbLine
 10
1036.653967466372
 20
499.7847891999413
 30
0.0
 11
1079.971361203936
 21
499.7847891999413
 31
0.0
1001
AcDbBlockRepETag
1070
     1
1071
       15
1005
E1A2
  0
MTEXT
  5
E1A3
330
D32C
100
AcDbEntity
  8
图框
 62
     1
370
    20
100
AcDbMText
 10
1108.26336443907
 20
491.5162596080882
 30
0.0
 40
2.699054613030988
 41
82.30831305643079
 71
     5
 72
     5
  1
{\fSimHei|b0|i0|c134|p2;厦门唯恩电气有限公司}
 73
     1
 44
1.0
1001
AcDbBlockRepETag
1070
     1
1071
       16
1005
E1A3
  0
MTEXT
  5
E1A4
330
D32C
100
AcDbEntity
  8
图框
 62
     3
370
    20
100
AcDbMText
 10
1108.435451459908
 20
487.298967726064
 30
0.0
 40
1.652482416141417
 41
68.08558693693567
 71
     5
 72
     5
  1
{\fArial Narrow|b0|i0|c0|p34;XIAMEN WAIN ELECTRICAL CO.LTD}
  7
工程字
 73
     1
 44
1.0
1001
AcDbBlockRepETag
1070
     1
1071
       17
1005
E1A4
  0
MTEXT
  5
E1A5
330
D32C
100
AcDbEntity
  8
图框
 62
     1
370
    20
100
AcDbMText
 10
1085.711816899387
 20
491.0944802995856
 30
0.0
 40
2.005930044038334
 41
5.047240019334847
 71
     1
 72
     5
  1
{\fArial|b0|i0|c0|p34;A}
  7
Chinese
 73
     1
 44
1.0
1001
AcDbBlockRepETag
1070
     1
1071
       18
1005
E1A5
  0
MTEXT
  5
E1A6
330
D32C
100
AcDbEntity
  8
图框
 62
     1
370
    20
100
AcDbMText
 10
1088.213485935716
 20
491.0944802995856
 30
0.0
 40
2.005930044038334
 41
5.047240019334847
 71
     1
 72
     5
  1
{\fArial|b0|i0|c0|p34;I}
  7
Chinese
 73
     1
 44
1.0
1001
AcDbBlockRepETag
1070
     1
1071
       19
1005
E1A6
  0
MTEXT
  5
E1A7
330
D32C
100
AcDbEntity
  8
图框
 62
     1
370
    20
100
AcDbMText
 10
1089.142375222864
 20
491.0822866326808
 30
0.0
 40
2.005930044038334
 41
5.047240019334847
 71
     1
 72
     5
  1
{\fArial|b0|i0|c0|p34;N}
  7
Chinese
 73
     1
 44
1.0
1001
AcDbBlockRepETag
1070
     1
1071
       20
1005
E1A7
  0
MTEXT
  5
E1A8
330
D32C
100
AcDbEntity
  8
图框
100
AcDbMText
 10
1069.142012769545
 20
487.9667319294409
 30
0.0
 40
2.252848170144607
 41
21.65869686878327
 71
     5
 72
     5
  1
{\W0.5;\C1;All Dimensions in mm\POriginal Size DIN A 4}
  7
Romans字体
 73
     1
 44
1.0
1001
AcDbBlockRepETag
1070
     1
1071
       21
1005
E1A8
1001
ACAD
1000
ACAD_MTEXT_DEFINED_HEIGHT_BEGIN
1070
    46
1040
7.863925338579296
1000
ACAD_MTEXT_DEFINED_HEIGHT_END
  0
MTEXT
  5
E1A9
330
D32C
100
AcDbEntity
  8
图框
  6
ByBlock
 62
     6
370
    18
100
AcDbMText
 10
1127.40434942308
 20
508.7896535755975
 30
0.0
 40
2.651776162684904
 41
2.557913877927211
 71
     1
 72
     5
  1
A
  7
Romans字体
 11
0.0000000000000001
 21
1.0
 31
0.0
 73
     1
 44
1.0
1001
AcDbBlockRepETag
1070
     1
1071
       22
1005
E1A9
  0
MTEXT
  5
E1AA
330
D32C
100
AcDbEntity
  8
图框
 62
     6
100
AcDbMText
 10
1127.40434942308
 20
556.3746573232886
 30
0.0
 40
2.651776162684904
 41
2.557913877927211
 71
     1
 72
     5
  1
B
  7
Romans字体
 11
0.0000000000000001
 21
1.0
 31
0.0
 73
     1
 44
1.0
1001
AcDbBlockRepETag
1070
     1
1071
       23
1005
E1AA
  0
MTEXT
  5
E1AB
330
D32C
100
AcDbEntity
  8
图框
 62
     6
100
AcDbMText
 10
1127.40434942308
 20
607.5539372630998
 30
0.0
 40
2.651776162684904
 41
2.557913877927211
 71
     1
 72
     5
  1
C
  7
Romans字体
 11
0.0000000000000001
 21
1.0
 31
0.0
 73
     1
 44
1.0
1001
AcDbBlockRepETag
1070
     1
1071
       24
1005
E1AB
  0
MTEXT
  5
E1AC
330
D32C
100
AcDbEntity
  8
图框
 62
     6
100
AcDbMText
 10
1127.40434942308
 20
658.7332172029115
 30
0.0
 40
2.651776162684904
 41
2.557913877927211
 71
     1
 72
     5
  1
D
  7
Romans字体
 11
0.0000000000000001
 21
1.0
 31
0.0
 73
     1
 44
1.0
1001
AcDbBlockRepETag
1070
     1
1071
       25
1005
E1AC
  0
LINE
  5
E1AD
330
D32C
100
AcDbEntity
  8
图框
 62
     6
100
AcDbLine
 10
1130.411601781241
 20
634.0726090796082
 30
0.0
 11
1126.928502610363
 21
634.0726090796082
 31
0.0
1001
AcDbBlockRepETag
1070
     1
1071
       26
1005
E1AD
  0
LINE
  5
E1AE
330
D32C
100
AcDbEntity
  8
图框
 62
     6
100
AcDbLine
 10
1130.411601781241
 20
582.89332913979
 30
0.0
 11
1126.928502610363
 21
582.89332913979
 31
0.0
1001
AcDbBlockRepETag
1070
     1
1071
       27
1005
E1AE
  0
MTEXT
  5
E1AF
330
D32C
100
AcDbEntity
  8
图框
 62
     6
100
AcDbMText
 10
1105.329704038389
 20
483.6164543011163
 30
0.0
 40
2.651776162684904
 41
2.557913877927211
 71
     1
 72
     5
  1
6
  7
Romans字体
 73
     1
 44
1.0
1001
AcDbBlockRepETag
1070
     1
1071
       28
1005
E1AF
  0
LINE
  5
E1B0
330
D32C
100
AcDbEntity
  8
图框
 62
     6
100
AcDbLine
 10
1081.088565155284
 20
484.0347692601515
 30
0.0
 11
1081.088565155284
 21
480.5347692601475
 31
0.0
1001
AcDbBlockRepETag
1070
     1
1071
       29
1005
E1B0
  0
MTEXT
  5
E1B1
330
D32C
100
AcDbEntity
  8
图框
 62
     6
100
AcDbMText
 10
1055.900596365941
 20
483.520053108993
 30
0.0
 40
2.651776162684904
 41
2.557913877927211
 71
     1
 72
     5
  1
5
  7
Romans字体
 73
     1
 44
1.0
1001
AcDbBlockRepETag
1070
     1
1071
       30
1005
E1B1
  0
LINE
  5
E1B2
330
D32C
100
AcDbEntity
  8
图框
 62
     6
100
AcDbLine
 10
1031.553386436349
 20
484.0347692601515
 30
0.0
 11
1031.553386436349
 21
480.5347692601475
 31
0.0
1001
AcDbBlockRepETag
1070
     1
1071
       31
1005
E1B2
  0
MTEXT
  5
E1B3
330
D32C
100
AcDbEntity
  8
图框
 62
     6
100
AcDbMText
 10
1006.383180575197
 20
483.5687958215896
 30
0.0
 40
2.651776162684904
 41
2.557913877927211
 71
     1
 72
     5
  1
4
  7
Romans字体
 73
     1
 44
1.0
1001
AcDbBlockRepETag
1070
     1
1071
       32
1005
E1B3
  0
LINE
  5
E1B4
330
D32C
100
AcDbEntity
  8
图框
 62
     6
100
AcDbLine
 10
982.0182077173887
 20
484.0347692601515
 30
0.0
 11
982.0182077173887
 21
480.5347692601475
 31
0.0
1001
AcDbBlockRepETag
1070
     1
1071
       33
1005
E1B4
  0
MTEXT
  5
E1B5
330
D32C
100
AcDbEntity
  8
图框
 62
     6
100
AcDbMText
 10
956.8302389280352
 20
483.5989680297948
 30
0.0
 40
2.651776162684904
 41
2.557913877927211
 71
     1
 72
     5
  1
3
  7
Romans字体
 73
     1
 44
1.0
1001
AcDbBlockRepETag
1070
     1
1071
       34
1005
E1B5
  0
LINE
  5
E1B6
330
D32C
100
AcDbEntity
  8
图框
 62
     6
100
AcDbLine
 10
932.4830289984245
 20
484.0347692601515
 30
0.0
 11
932.4830289984245
 21
480.5347692601475
 31
0.0
1001
AcDbBlockRepETag
1070
     1
1071
       35
1005
E1B6
  0
MTEXT
  5
E1B7
330
D32C
100
AcDbEntity
  8
图框
 62
     6
100
AcDbMText
 10
906.0252349826365
 20
483.6475250013156
 30
0.0
 40
2.651776162684904
 41
2.557913877927211
 71
     1
 72
     5
  1
2
  7
Romans字体
 73
     1
 44
1.0
1001
AcDbBlockRepETag
1070
     1
1071
       36
1005
E1B7
  0
LINE
  5
E1B8
330
D32C
100
AcDbEntity
  8
图框
 62
     6
100
AcDbLine
 10
882.9478502794648
 20
484.0347692601515
 30
0.0
 11
882.9478502794648
 21
480.5347692601475
 31
0.0
1001
AcDbBlockRepETag
1070
     1
1071
       37
1005
E1B8
  0
MTEXT
  5
E1B9
330
D32C
100
AcDbEntity
  8
图框
 62
     6
100
AcDbMText
 10
857.7598814901191
 20
483.651829494754
 30
0.0
 40
2.651776162684904
 41
2.557913877927211
 71
     1
 72
     5
  1
1
  7
Romans字体
 73
     1
 44
1.0
1001
AcDbBlockRepETag
1070
     1
1071
       38
1005
E1B9
  0
LINE
  5
E1BA
330
D32C
100
AcDbEntity
  8
图框
370
    50
100
AcDbLine
 10
836.8548209370597
 20
484.0347692601515
 30
0.0
 11
1126.928502610363
 21
484.0347692601515
 31
0.0
1001
AcDbBlockRepETag
1070
     1
1071
       39
1005
E1BA
  0
LINE
  5
E1BB
330
D32C
100
AcDbEntity
  8
图框
370
    50
100
AcDbLine
 10
836.9128518455362
 20
484.0178684310246
 30
0.0
 11
836.9128518455394
 21
675.0207195125422
 31
0.0
1001
AcDbBlockRepETag
1070
     1
1071
       40
1005
E1BB
  0
MTEXT
  5
E1BC
330
D32C
100
AcDbEntity
  8
图框
 62
     6
100
AcDbMText
 10
833.8475685789031
 20
658.7332172029115
 30
0.0
 40
2.651776162684904
 41
2.557913877927211
 71
     1
 72
     5
  1
D
  7
Romans字体
 11
0.0000000000000001
 21
1.0
 31
0.0
 73
     1
 44
1.0
1001
AcDbBlockRepETag
1070
     1
1071
       41
1005
E1BC
  0
LINE
  5
E1BD
330
D32C
100
AcDbEntity
  8
图框
 62
     6
100
AcDbLine
 10
836.9128518455386
 20
634.0726090796082
 30
0.0
 11
833.4128518455365
 21
634.0726090796082
 31
0.0
1001
AcDbBlockRepETag
1070
     1
1071
       42
1005
E1BD
  0
MTEXT
  5
E1BE
330
D32C
100
AcDbEntity
  8
图框
 62
     6
100
AcDbMText
 10
833.9039177480142
 20
607.5539372630998
 30
0.0
 40
2.651776162684904
 41
2.557913877927211
 71
     1
 72
     5
  1
C
  7
Romans字体
 11
0.0000000000000001
 21
1.0
 31
0.0
 73
     1
 44
1.0
1001
AcDbBlockRepETag
1070
     1
1071
       43
1005
E1BE
  0
LINE
  5
E1BF
330
D32C
100
AcDbEntity
  8
图框
 62
     6
100
AcDbLine
 10
836.9128518455378
 20
582.89332913979
 30
0.0
 11
833.4128518455365
 21
582.89332913979
 31
0.0
1001
AcDbBlockRepETag
1070
     1
1071
       44
1005
E1BF
  0
MTEXT
  5
E1C0
330
D32C
100
AcDbEntity
  8
图框
 62
     6
100
AcDbMText
 10
833.9039177480142
 20
556.3746573232886
 30
0.0
 40
2.651776162684904
 41
2.557913877927211
 71
     1
 72
     5
  1
B
  7
Romans字体
 11
0.0000000000000001
 21
1.0
 31
0.0
 73
     1
 44
1.0
1001
AcDbBlockRepETag
1070
     1
1071
       45
1005
E1C0
  0
LINE
  5
E1C1
330
D32C
100
AcDbEntity
  8
图框
 62
     6
100
AcDbLine
 10
836.9128518455367
 20
531.714049199969
 30
0.0
 11
833.4128518455365
 21
531.714049199969
 31
0.0
1001
AcDbBlockRepETag
1070
     1
1071
       46
1005
E1C1
  0
MTEXT
  5
E1C2
330
D32C
100
AcDbEntity
  8
图框
 62
     6
100
AcDbMText
 10
833.9039177480142
 20
508.7896535755975
 30
0.0
 40
2.651776162684904
 41
2.557913877927211
 71
     1
 72
     5
  1
A
  7
Romans字体
 11
0.0000000000000001
 21
1.0
 31
0.0
 73
     1
 44
1.0
1001
AcDbBlockRepETag
1070
     1
1071
       47
1005
E1C2
  0
LINE
  5
E1C3
330
D32C
100
AcDbEntity
  8
图框
370
    -3
100
AcDbLine
 10
836.9128518455394
 20
675.0207195125422
 30
0.0
 11
836.9128518455394
 21
684.5021384922564
 31
0.0
1001
AcDbBlockRepETag
1070
     1
1071
       48
1005
E1C3
  0
LINE
  5
E1C4
330
D32C
100
AcDbEntity
  8
图框
370
    -3
100
AcDbLine
 10
842.6237321475781
 20
675.5347692601515
 30
0.0
 11
842.6237321475781
 21
685.0161882398658
 31
0.0
1001
AcDbBlockRepETag
1070
     1
1071
       49
1005
E1C4
  0
LINE
  5
E1C5
330
D32C
100
AcDbEntity
  8
图框
370
    -3
100
AcDbLine
 10
848.3346124496179
 20
675.5347692601515
 30
0.0
 11
848.3346124496179
 21
685.0161882398658
 31
0.0
1001
AcDbBlockRepETag
1070
     1
1071
       50
1005
E1C5
  0
LINE
  5
E1C6
330
D32C
100
AcDbEntity
  8
图框
370
    -3
100
AcDbLine
 10
854.0454927516588
 20
675.5347692601515
 30
0.0
 11
854.0454927516588
 21
685.0161882398658
 31
0.0
1001
AcDbBlockRepETag
1070
     1
1071
       51
1005
E1C6
  0
LINE
  5
E1C7
330
D32C
100
AcDbEntity
  8
图框
370
    -3
100
AcDbLine
 10
861.5351874539182
 20
675.5347692601515
 30
0.0
 11
861.5351874539182
 21
686.7901958362482
 31
0.0
1001
AcDbBlockRepETag
1070
     1
1071
       52
1005
E1C7
  0
MTEXT
  5
E1C8
330
D32C
100
AcDbEntity
  8
图框
 62
     6
100
AcDbMText
 10
1105.329704038389
 20
678.859919059449
 30
0.0
 40
2.651776162684904
 41
2.557913877927211
 71
     1
 72
     5
  1
6
  7
Romans字体
 73
     1
 44
1.0
1001
AcDbBlockRepETag
1070
     1
1071
       53
1005
E1C8
  0
LINE
  5
E1C9
330
D32C
100
AcDbEntity
  8
图框
 62
     6
100
AcDbLine
 10
1081.088565155284
 20
679.0347692601516
 30
0.0
 11
1081.088565155284
 21
675.5347692601515
 31
0.0
1001
AcDbBlockRepETag
1070
     1
1071
       54
1005
E1C9
  0
MTEXT
  5
E1CA
330
D32C
100
AcDbEntity
  8
图框
 62
     6
100
AcDbMText
 10
1055.900596365941
 20
678.859919059449
 30
0.0
 40
2.651776162684904
 41
2.557913877927211
 71
     1
 72
     5
  1
5
  7
Romans字体
 73
     1
 44
1.0
1001
AcDbBlockRepETag
1070
     1
1071
       55
1005
E1CA
  0
LINE
  5
E1CB
330
D32C
100
AcDbEntity
  8
图框
 62
     6
100
AcDbLine
 10
1031.553386436349
 20
679.0347692601516
 30
0.0
 11
1031.553386436349
 21
675.5347692601515
 31
0.0
1001
AcDbBlockRepETag
1070
     1
1071
       56
1005
E1CB
  0
MTEXT
  5
E1CC
330
D32C
100
AcDbEntity
  8
图框
 62
     6
100
AcDbMText
 10
1006.36541764698
 20
678.7312083656147
 30
0.0
 40
2.651776162684904
 41
2.557913877927211
 71
     1
 72
     5
  1
4
  7
Romans字体
 73
     1
 44
1.0
1001
AcDbBlockRepETag
1070
     1
1071
       57
1005
E1CC
  0
LINE
  5
E1CD
330
D32C
100
AcDbEntity
  8
图框
 62
     6
100
AcDbLine
 10
982.0182077173887
 20
679.0347692601516
 30
0.0
 11
982.0182077173887
 21
675.5347692601515
 31
0.0
1001
AcDbBlockRepETag
1070
     1
1071
       58
1005
E1CD
  0
MTEXT
  5
E1CE
330
D32C
100
AcDbEntity
  8
图框
 62
     6
100
AcDbMText
 10
956.8302389280352
 20
678.859919059449
 30
0.0
 40
2.651776162684904
 41
2.557913877927211
 71
     1
 72
     5
  1
3
  7
Romans字体
 73
     1
 44
1.0
1001
AcDbBlockRepETag
1070
     1
1071
       59
1005
E1CE
  0
LINE
  5
E1CF
330
D32C
100
AcDbEntity
  8
图框
 62
     6
100
AcDbLine
 10
932.4830289984245
 20
679.0347692601516
 30
0.0
 11
932.4830289984245
 21
675.5347692601515
 31
0.0
1001
AcDbBlockRepETag
1070
     1
1071
       60
1005
E1CF
  0
MTEXT
  5
E1D0
330
D32C
100
AcDbEntity
  8
图框
 62
     6
100
AcDbMText
 10
907.295060209082
 20
678.859919059449
 30
0.0
 40
2.651776162684904
 41
2.557913877927211
 71
     1
 72
     5
  1
2
  7
Romans字体
 73
     1
 44
1.0
1001
AcDbBlockRepETag
1070
     1
1071
       61
1005
E1D0
  0
LINE
  5
E1D1
330
D32C
100
AcDbEntity
  8
图框
 62
     6
100
AcDbLine
 10
882.9478502794648
 20
678.7962435131815
 30
0.0
 11
882.9478502794648
 21
675.5347692601515
 31
0.0
1001
AcDbBlockRepETag
1070
     1
1071
       62
1005
E1D1
  0
MTEXT
  5
E1D2
330
D32C
100
AcDbEntity
  8
图框
 62
     6
100
AcDbMText
 10
862.6286629643733
 20
678.859919059449
 30
0.0
 40
2.651776162684904
 41
2.557913877927211
 71
     1
 72
     5
  1
1
  7
Romans字体
 73
     1
 44
1.0
1001
AcDbBlockRepETag
1070
     1
1071
       63
1005
E1D2
  0
LINE
  5
E1D3
330
D32C
100
AcDbEntity
  8
图框
370
    -3
100
AcDbLine
 10
836.9128518455394
 20
675.0207195125422
 30
0.0
 11
836.9128518455394
 21
686.7901958362482
 31
0.0
1001
AcDbBlockRepETag
1070
     1
1071
       64
1005
E1D3
  0
LINE
  5
E1D4
330
D32C
100
AcDbEntity
  8
图框
370
    50
100
AcDbLine
 10
836.9128518455394
 20
675.5347692601515
 30
0.0
 11
1126.928502610363
 21
675.5347692601515
 31
0.0
1001
AcDbBlockRepETag
1070
     1
1071
       65
1005
E1D4
  0
LINE
  5
E1D5
330
D32C
100
AcDbEntity
  8
图框
370
    -3
100
AcDbLine
 10
842.6237321475781
 20
675.5347692601515
 30
0.0
 11
842.6237321475781
 21
686.7901958362482
 31
0.0
1001
AcDbBlockRepETag
1070
     1
1071
       66
1005
E1D5
  0
LINE
  5
E1D6
330
D32C
100
AcDbEntity
  8
图框
370
    -3
100
AcDbLine
 10
848.3346124496179
 20
675.5347692601515
 30
0.0
 11
848.3346124496179
 21
686.7901958362482
 31
0.0
1001
AcDbBlockRepETag
1070
     1
1071
       67
1005
E1D6
  0
MTEXT
  5
E1D7
102
{ACAD_XDICTIONARY
360
E230
102
}
330
D32C
100
AcDbEntity
  8
图框
100
AcDbMText
 10
857.7903401027889
 20
686.7901958362482
 30
0.0
 40
1.958998408821398
 41
11.25542657609672
 71
     4
 72
     5
  1
\pi2.8203;档案员{\H0.7x;\P\pi1.4159;\Fromans|c134;Filing Clerk\fFangSong_GB2312|b0|i0|c134|p49; }
 11
-0.0000000000000002
 21
-1.0
 31
0.0
 73
     1
 44
1.0
1001
AcDbBlockRepETag
1070
     1
1071
       68
1005
E1D7
1001
ACAD
1000
ACAD_MTEXT_DEFINED_HEIGHT_BEGIN
1070
    46
1040
7.489694702258906
1000
ACAD_MTEXT_DEFINED_HEIGHT_END
  0
MTEXT
  5
E1D8
102
{ACAD_XDICTIONARY
360
E232
102
}
330
D32C
100
AcDbEntity
  8
图框
100
AcDbMText
 10
845.479172298598
 20
686.7901958362482
 30
0.0
 40
1.958998408821398
 41
11.25542657609672
 71
     4
 72
     5
  1
\pi0.7115;日期{\Fromans|c134;/Date}
 11
-0.0000000000000002
 21
-1.0
 31
0.0
 73
     1
 44
1.0
1001
AcDbBlockRepETag
1070
     1
1071
       69
1005
E1D8
1001
ACAD
1000
ACAD_MTEXT_DEFINED_HEIGHT_BEGIN
1070
    46
1040
5.710880302039671
1000
ACAD_MTEXT_DEFINED_HEIGHT_END
  0
LINE
  5
E1D9
330
D32C
100
AcDbEntity
  8
图框
370
    -3
100
AcDbLine
 10
854.0454927516588
 20
675.5347692601515
 30
0.0
 11
854.0454927516588
 21
686.7901958362482
 31
0.0
1001
AcDbBlockRepETag
1070
     1
1071
       70
1005
E1D9
  0
LINE
  5
E1DA
330
D32C
100
AcDbEntity
  8
图框
370
    -3
100
AcDbLine
 10
1036.653967466372
 20
531.3291676047914
 30
0.0
 11
1036.653967466372
 21
484.0126019753161
 31
0.0
1001
AcDbBlockRepETag
1070
     1
1071
       71
1005
E1DA
  0
LINE
  5
E1DB
330
D32C
100
AcDbEntity
  8
图框
370
    -3
100
AcDbLine
 10
1047.483315900763
 20
507.6708838011533
 30
0.0
 11
1047.483315900763
 21
491.8986945987308
 31
0.0
1001
AcDbBlockRepETag
1070
     1
1071
       72
1005
E1DB
  0
LINE
  5
E1DC
330
D32C
100
AcDbEntity
  8
图框
370
    -3
100
AcDbLine
 10
1058.312664335153
 20
507.6708838011533
 30
0.0
 11
1058.312664335153
 21
484.0347692601515
 31
0.0
1001
AcDbBlockRepETag
1070
     1
1071
       73
1005
E1DC
  0
LINE
  5
E1DD
330
D32C
100
AcDbEntity
  8
图框
370
    25
100
AcDbLine
 10
1048.474135214456
 20
488.1095628329926
 30
0.0
 11
1054.946420288459
 21
488.1095628329926
 31
0.0
1001
AcDbBlockRepETag
1070
     1
1071
       74
1005
E1DD
  0
LINE
  5
E1DE
330
D32C
100
AcDbEntity
  8
图框
370
    25
100
AcDbLine
 10
1054.232527365989
 20
487.0761716842634
 30
0.0
 11
1049.156490914508
 21
486.4576273751
 31
0.0
1001
AcDbBlockRepETag
1070
     1
1071
       75
1005
E1DE
  0
LINE
  5
E1DF
330
D32C
100
AcDbEntity
  8
图框
370
    25
100
AcDbLine
 10
1054.232527365989
 20
489.1429539817209
 30
0.0
 11
1049.156490914508
 21
489.7614982908846
 31
0.0
1001
AcDbBlockRepETag
1070
     1
1071
       76
1005
E1DF
  0
LINE
  5
E1E0
330
D32C
100
AcDbEntity
  8
图框
370
    25
100
AcDbLine
 10
1049.156490914508
 20
489.7614982908846
 30
0.0
 11
1049.156490914508
 21
486.4576273751
 31
0.0
1001
AcDbBlockRepETag
1070
     1
1071
       77
1005
E1E0
  0
LINE
  5
E1E1
330
D32C
100
AcDbEntity
  8
图框
370
    25
100
AcDbLine
 10
1054.232527365989
 20
489.1429539817209
 30
0.0
 11
1054.232527365989
 21
487.0761716842634
 31
0.0
1001
AcDbBlockRepETag
1070
     1
1071
       78
1005
E1E1
  0
CIRCLE
  5
E1E2
330
D32C
100
AcDbEntity
  8
图框
370
    25
100
AcDbCircle
 10
1042.502700458579
 20
488.1095628329926
 30
0.0
 40
1.651935457891863
1001
AcDbBlockRepETag
1070
     1
1071
       79
1005
E1E2
  0
CIRCLE
  5
E1E3
330
D32C
100
AcDbEntity
  8
图框
370
    25
100
AcDbCircle
 10
1042.502700458579
 20
488.1095628329926
 30
0.0
 40
1.033391148728775
1001
AcDbBlockRepETag
1070
     1
1071
       80
1005
E1E3
  0
LINE
  5
E1E4
330
D32C
100
AcDbEntity
  8
图框
370
    25
100
AcDbLine
 10
1040.136872078216
 20
488.1095628329926
 30
0.0
 11
1044.868528838943
 21
488.1095628329926
 31
0.0
1001
AcDbBlockRepETag
1070
     1
1071
       81
1005
E1E4
  0
LINE
  5
E1E5
330
D32C
100
AcDbEntity
  8
图框
370
    25
100
AcDbLine
 10
1042.502700458579
 20
490.475391213355
 30
0.0
 11
1042.502700458579
 21
485.743734452629
 31
0.0
1001
AcDbBlockRepETag
1070
     1
1071
       82
1005
E1E5
  0
LINE
  5
E1E6
330
D32C
100
AcDbEntity
  8
图框
370
    -3
100
AcDbLine
 10
1069.142012769546
 20
507.6708838011533
 30
0.0
 11
1069.142012769546
 21
491.8986945987308
 31
0.0
1001
AcDbBlockRepETag
1070
     1
1071
       83
1005
E1E6
  0
MTEXT
  5
E1E7
330
D32C
100
AcDbEntity
  8
图框
100
AcDbMText
 10
1086.643735910939
 20
526.8006839312707
 30
0.0
 40
2.154898249703542
 41
13.34474941400573
 71
     5
 72
     5
  1
图号{\Ftxt|c134;\P\Fromans|c134;\W0.65;Drawing No.}
 73
     1
 44
1.0
1001
AcDbBlockRepETag
1070
     1
1071
       84
1005
E1E7
1001
ACAD
1000
ACAD_MTEXT_DEFINED_HEIGHT_BEGIN
1070
    46
1040
9.056967347041776
1000
ACAD_MTEXT_DEFINED_HEIGHT_END
  0
LINE
  5
E1E8
330
D32C
100
AcDbEntity
  8
图框
370
    -3
100
AcDbLine
 10
1093.316110617942
 20
531.3291676047914
 30
0.0
 11
1093.316110617942
 21
495.8417418993347
 31
0.0
1001
AcDbBlockRepETag
1070
     1
1071
       85
1005
E1E8
  0
LINE
  5
E1E9
330
D32C
100
AcDbEntity
  8
图框
370
    -3
100
AcDbLine
 10
1047.473969770481
 20
531.3291676047914
 30
0.0
 11
1047.473969770481
 21
507.6708838011533
 31
0.0
1001
AcDbBlockRepETag
1070
     1
1071
       86
1005
E1E9
  0
MTEXT
  5
E1EA
330
D32C
100
AcDbEntity
  8
图框
100
AcDbMText
 10
1063.72733855235
 20
503.7278365005473
 30
0.0
 40
2.252848170144607
 41
10.82934843439208
 71
     5
 72
     5
  1
重量\P{\Fromans|c134;Weight}
 73
     1
 44
1.0
1001
AcDbBlockRepETag
1070
     1
1071
       87
1005
E1EA
1001
ACAD
1000
ACAD_MTEXT_DEFINED_HEIGHT_BEGIN
1070
    46
1040
7.886094601212128
1000
ACAD_MTEXT_DEFINED_HEIGHT_END
  0
LINE
  5
E1EB
330
D32C
100
AcDbEntity
  8
图框
370
    -3
100
AcDbLine
 10
1036.653967466372
 20
519.5000257029746
 30
0.0
 11
1079.971361203936
 21
519.5000257029746
 31
0.0
1001
AcDbBlockRepETag
1070
     1
1071
       88
1005
E1EB
  0
MTEXT
  5
E1EC
330
D32C
100
AcDbEntity
  8
图框
100
AcDbMText
 10
1074.556686986741
 20
503.7278365005473
 30
0.0
 40
2.252848170144607
 41
10.82934843438984
 71
     5
 72
     5
  1
数量\P{\Fromans|c134;Qty.}
 73
     1
 44
1.0
1001
AcDbBlockRepETag
1070
     1
1071
       89
1005
E1EC
1001
ACAD
1000
ACAD_MTEXT_DEFINED_HEIGHT_BEGIN
1070
    46
1040
7.886094601212141
1000
ACAD_MTEXT_DEFINED_HEIGHT_END
  0
LINE
  5
E1ED
330
D32C
100
AcDbEntity
  8
图框
370
    -3
100
AcDbLine
 10
1079.971361203936
 20
495.8417418993347
 30
0.0
 11
1126.928502610363
 21
495.8417418993342
 31
0.0
1001
AcDbBlockRepETag
1070
     1
1071
       90
1005
E1ED
  0
LINE
  5
E1EE
330
D32C
100
AcDbEntity
  8
图框
370
    -3
100
AcDbLine
 10
1079.971361203936
 20
504.7132992040975
 30
0.0
 11
1126.928502610363
 21
504.7132992040975
 31
0.0
1001
AcDbBlockRepETag
1070
     1
1071
       91
1005
E1EE
  0
MTEXT
  5
E1EF
330
D32C
100
AcDbEntity
  8
图框
100
AcDbMText
 10
1052.893317052817
 20
503.7278365005473
 30
0.0
 40
2.252848170144607
 41
10.83869456467139
 71
     5
 72
     5
  1
版本\P{\Fromans|c134;REV.}
 73
     1
 44
1.0
1001
AcDbBlockRepETag
1070
     1
1071
       92
1005
E1EF
1001
ACAD
1000
ACAD_MTEXT_DEFINED_HEIGHT_BEGIN
1070
    46
1040
7.886094601212101
1000
ACAD_MTEXT_DEFINED_HEIGHT_END
  0
MTEXT
  5
E1F0
330
D32C
100
AcDbEntity
  8
图框
100
AcDbMText
 10
1042.068641683568
 20
503.7278365005473
 30
0.0
 40
2.252848170144607
 41
10.8293484343908
 71
     5
 72
     5
  1
比例\P{\Fromans|c134;Scale}
 73
     1
 44
1.0
1001
AcDbBlockRepETag
1070
     1
1071
       93
1005
E1F0
1001
ACAD
1000
ACAD_MTEXT_DEFINED_HEIGHT_BEGIN
1070
    46
1040
7.886094601212136
1000
ACAD_MTEXT_DEFINED_HEIGHT_END
  0
LINE
  5
E1F1
330
D32C
100
AcDbEntity
  8
图框
370
    -3
100
AcDbLine
 10
1036.653967466372
 20
507.6708838011533
 30
0.0
 11
1079.971361203936
 21
507.6708838011533
 31
0.0
1001
AcDbBlockRepETag
1070
     1
1071
       94
1005
E1F1
  0
LINE
  5
E1F2
330
D32C
100
AcDbEntity
  8
图框
370
    -3
100
AcDbLine
 10
1036.653967466372
 20
491.8986945987308
 30
0.0
 11
1079.971361203936
 21
491.8986945987308
 31
0.0
1001
AcDbBlockRepETag
1070
     1
1071
       95
1005
E1F2
  0
LINE
  5
E1F3
330
D32C
100
AcDbEntity
  8
图框
370
    -3
100
AcDbLine
 10
1079.971361203936
 20
531.3291676047914
 30
0.0
 11
1079.971361203936
 21
484.0125999975168
 31
0.0
1001
AcDbBlockRepETag
1070
     1
1071
       96
1005
E1F3
  0
MTEXT
  5
E1F4
330
D32C
100
AcDbEntity
  8
图框
100
AcDbMText
 10
1042.063968618426
 20
525.4145966538832
 30
0.0
 40
2.252848170144607
 41
10.82000230410933
 71
     5
 72
     5
  1
表面处理\P{\Fromans|c134;Finish}
 73
     1
 44
1.0
1001
AcDbBlockRepETag
1070
     1
1071
       97
1005
E1F4
1001
ACAD
1000
ACAD_MTEXT_DEFINED_HEIGHT_BEGIN
1070
    46
1040
11.82914190181708
1000
ACAD_MTEXT_DEFINED_HEIGHT_END
  0
MTEXT
  5
E1F5
330
D32C
100
AcDbEntity
  8
图框
100
AcDbMText
 10
1042.063968618426
 20
513.5854547520639
 30
0.0
 40
2.252848170144607
 41
10.82000230410933
 71
     5
 72
     5
  1
材料\P{\Fromans|c134;Material}
 73
     1
 44
1.0
1001
AcDbBlockRepETag
1070
     1
1071
       98
1005
E1F5
1001
ACAD
1000
ACAD_MTEXT_DEFINED_HEIGHT_BEGIN
1070
    46
1040
11.8291419018212
1000
ACAD_MTEXT_DEFINED_HEIGHT_END
  0
LINE
  5
E1F6
330
D32C
100
AcDbEntity
  8
图框
370
    -3
100
AcDbLine
 10
1079.971361203936
 20
522.27220025775
 30
0.0
 11
1126.928502610363
 21
522.27220025775
 31
0.0
1001
AcDbBlockRepETag
1070
     1
1071
       99
1005
E1F6
  0
LINE
  5
E1F7
330
D32C
100
AcDbEntity
  8
图框
370
    -3
100
AcDbLine
 10
1079.971361203936
 20
513.5854547520641
 30
0.0
 11
1126.928502610363
 21
513.5854547520639
 31
0.0
1001
AcDbBlockRepETag
1070
     1
1071
      100
1005
E1F7
  0
MTEXT
  5
E1F8
330
D32C
100
AcDbEntity
  8
图框
100
AcDbMText
 10
1086.643735910939
 20
517.9288275049072
 30
0.0
 40
1.958998408821398
 41
13.34474941400573
 71
     5
 72
     5
  1
产品代号\P{\Fromans|c134;Part Code}
 73
     1
 44
1.0
1001
AcDbBlockRepETag
1070
     1
1071
      101
1005
E1F8
1001
ACAD
1000
ACAD_MTEXT_DEFINED_HEIGHT_BEGIN
1070
    46
1040
8.686745505685811
1000
ACAD_MTEXT_DEFINED_HEIGHT_END
  0
LINE
  5
E1F9
330
D32C
100
AcDbEntity
  8
图框
370
    -3
100
AcDbLine
 10
946.9285026103634
 20
525.7982263931411
 30
0.0
 11
1036.653967466372
 21
525.7982263931411
 31
0.0
1001
AcDbBlockRepETag
1070
     1
1071
      102
1005
E1F9
  0
LINE
  5
E1FA
330
D32C
100
AcDbEntity
  8
图框
370
    -3
100
AcDbLine
 10
946.9285026103634
 20
520.2672851814959
 30
0.0
 11
1036.653967466372
 21
520.2672851814959
 31
0.0
1001
AcDbBlockRepETag
1070
     1
1071
      103
1005
E1FA
  0
LINE
  5
E1FB
330
D32C
100
AcDbEntity
  8
图框
370
    35
100
AcDbLine
 10
946.9285026103634
 20
531.3291676047914
 30
0.0
 11
1126.928502610363
 21
531.3291676047914
 31
0.0
1001
AcDbBlockRepETag
1070
     1
1071
      104
1005
E1FB
  0
LINE
  5
E1FC
330
D32C
100
AcDbEntity
  8
图框
370
    -3
100
AcDbLine
 10
990.6727612856927
 20
509.2054027581959
 30
0.0
 11
990.6727612856927
 21
484.0347692601515
 31
0.0
1001
AcDbBlockRepETag
1070
     1
1071
      105
1005
E1FC
  0
MTEXT
  5
E1FD
102
{ACAD_XDICTIONARY
360
E234
102
}
330
D32C
100
AcDbEntity
  8
图框
100
AcDbMText
 10
997.1628169651232
 20
499.816589978722
 30
0.0
 40
2.252848170144607
 41
12.98011135886052
 71
     5
 72
     5
  1
{\fFangSong_GB2312|b0|i0|c134|p49;标准化}\PStand.
  7
Romans字体
 73
     1
 44
1.0
1001
AcDbBlockRepETag
1070
     1
1071
      106
1005
E1FD
1001
ACAD
1000
ACAD_MTEXT_DEFINED_HEIGHT_BEGIN
1070
    46
1040
6.19230880992475
1000
ACAD_MTEXT_DEFINED_HEIGHT_END
  0
LINE
  5
E1FE
330
D32C
100
AcDbEntity
  8
图框
370
    -3
100
AcDbLine
 10
975.4103773808022
 20
509.2054027581959
 30
0.0
 11
975.4103773808022
 21
484.0347692601515
 31
0.0
1001
AcDbBlockRepETag
1070
     1
1071
      107
1005
E1FE
  0
MTEXT
  5
E1FF
330
D32C
100
AcDbEntity
  8
图框
100
AcDbMText
 10
984.5089229802068
 20
511.9708733640202
 30
0.0
 40
2.448748011026752
 41
38.287899328693
 71
     5
 72
     5
  1
  变更描述{\Fromans|c134;/Description}
 73
     1
 44
1.0
1001
AcDbBlockRepETag
1070
     1
1071
      108
1005
E1FF
1001
ACAD
1000
ACAD_MTEXT_DEFINED_HEIGHT_BEGIN
1070
    46
1040
5.530941211648832
1000
ACAD_MTEXT_DEFINED_HEIGHT_END
  0
MTEXT
  5
E200
102
{ACAD_XDICTIONARY
360
E236
102
}
330
D32C
100
AcDbEntity
  8
图框
100
AcDbMText
 10
1012.466086049227
 20
511.9708733640202
 30
0.0
 40
1.958998408821398
 41
17.6264268093469
 71
     5
 72
     5
  1
签名\P{\Fromans|c134;Signature} 
 73
     1
 44
1.0
1001
AcDbBlockRepETag
1070
     1
1071
      109
1005
E200
1001
ACAD
1000
ACAD_MTEXT_DEFINED_HEIGHT_BEGIN
1070
    46
1040
5.530941211648825
1000
ACAD_MTEXT_DEFINED_HEIGHT_END
  0
MTEXT
  5
E201
102
{ACAD_XDICTIONARY
360
E238
102
}
330
D32C
100
AcDbEntity
  8
图框
100
AcDbMText
 10
960.7558556394856
 20
511.9708733640202
 30
0.0
 40
1.958998408821398
 41
9.218235352749283
 71
     5
 72
     5
  1
处数\P{\Fromans|c134;Number }
 73
     1
 44
1.0
1001
AcDbBlockRepETag
1070
     1
1071
      110
1005
E201
1001
ACAD
1000
ACAD_MTEXT_DEFINED_HEIGHT_BEGIN
1070
    46
1040
5.530941211648841
1000
ACAD_MTEXT_DEFINED_HEIGHT_END
  0
LINE
  5
E202
330
D32C
100
AcDbEntity
  8
图框
370
    -3
100
AcDbLine
 10
946.9285026103634
 20
514.7363439698449
 30
0.0
 11
1036.653967466372
 21
514.7363439698449
 31
0.0
1001
AcDbBlockRepETag
1070
     1
1071
      111
1005
E202
  0
LINE
  5
E203
330
D32C
100
AcDbEntity
  8
图框
370
    -3
100
AcDbLine
 10
946.9285026103634
 20
509.2054027581959
 30
0.0
 11
1036.653967466372
 21
509.2054027581959
 31
0.0
1001
AcDbBlockRepETag
1070
     1
1071
      112
1005
E203
  0
LINE
  5
E204
330
D32C
100
AcDbEntity
  8
图框
370
    -3
100
AcDbLine
 10
946.9285026103634
 20
502.9127443836848
 30
0.0
 11
1036.653967466372
 21
502.9127443836848
 31
0.0
1001
AcDbBlockRepETag
1070
     1
1071
      113
1005
E204
  0
LINE
  5
E205
330
D32C
100
AcDbEntity
  8
图框
370
    -3
100
AcDbLine
 10
946.9285026103634
 20
496.620086009173
 30
0.0
 11
1036.653967466372
 21
496.620086009173
 31
0.0
1001
AcDbBlockRepETag
1070
     1
1071
      114
1005
E205
  0
LINE
  5
E206
330
D32C
100
AcDbEntity
  8
图框
370
    35
380
     1
100
AcDbLine
 10
946.9285026103634
 20
531.3291676047914
 30
0.0
 11
946.9285026103634
 21
484.0347692601515
 31
0.0
1001
AcDbBlockRepETag
1070
     1
1071
      115
1005
E206
  0
LINE
  5
E207
330
D32C
100
AcDbEntity
  8
图框
370
    -3
100
AcDbLine
 10
1021.301636813399
 20
531.3291676047914
 30
0.0
 11
1021.301636813399
 21
484.0347692601515
 31
0.0
1001
AcDbBlockRepETag
1070
     1
1071
      116
1005
E207
  0
LINE
  5
E208
330
D32C
100
AcDbEntity
  8
图框
370
    -3
100
AcDbLine
 10
1003.652872644553
 20
531.3291676047914
 30
0.0
 11
1003.652872644553
 21
484.0347692601515
 31
0.0
1001
AcDbBlockRepETag
1070
     1
1071
      117
1005
E208
  0
LINE
  5
E209
330
D32C
100
AcDbEntity
  8
图框
370
    -3
100
AcDbLine
 10
965.3649733158603
 20
531.3291676047914
 30
0.0
 11
965.3649733158603
 21
509.2054027581959
 31
0.0
1001
AcDbBlockRepETag
1070
     1
1071
      118
1005
E209
  0
LINE
  5
E20A
330
D32C
100
AcDbEntity
  8
图框
370
    -3
100
AcDbLine
 10
956.1467379631109
 20
531.3291676047914
 30
0.0
 11
956.1467379631109
 21
509.2054027581959
 31
0.0
1001
AcDbBlockRepETag
1070
     1
1071
      119
1005
E20A
  0
MTEXT
  5
E20B
102
{ACAD_XDICTIONARY
360
E23A
102
}
330
D32C
100
AcDbEntity
  8
图框
100
AcDbMText
 10
951.537620286737
 20
511.9708733640202
 30
0.0
 40
1.958998408821398
 41
9.218235352747692
 71
     5
 72
     5
  1
标记\P{\Fromans|c134;Mark}
 73
     1
 44
1.0
1001
AcDbBlockRepETag
1070
     1
1071
      120
1005
E20B
1001
ACAD
1000
ACAD_MTEXT_DEFINED_HEIGHT_BEGIN
1070
    46
1040
5.530941211648832
1000
ACAD_MTEXT_DEFINED_HEIGHT_END
  0
MTEXT
  5
E20C
102
{ACAD_XDICTIONARY
360
E23C
102
}
330
D32C
100
AcDbEntity
  8
图框
100
AcDbMText
 10
953.4185582897936
 20
493.4737568219182
 30
0.0
 40
2.252848170144607
 41
12.98011135886041
 71
     5
 72
     5
  1
审核\P{\Fromans|c134;Checked}
 73
     1
 44
1.0
1001
AcDbBlockRepETag
1070
     1
1071
      121
1005
E20C
1001
ACAD
1000
ACAD_MTEXT_DEFINED_HEIGHT_BEGIN
1070
    46
1040
6.292658374510382
1000
ACAD_MTEXT_DEFINED_HEIGHT_END
  0
MTEXT
  5
E20D
102
{ACAD_XDICTIONARY
360
E23E
102
}
330
D32C
100
AcDbEntity
  8
图框
100
AcDbMText
 10
953.4185582897936
 20
499.8775635376777
 30
0.0
 40
2.252848170144607
 41
12.98011135886041
 71
     5
 72
     5
  1
绘图\P{\Fromans|c134;Drawn\Ftxt|c134; }
 73
     1
 44
1.0
1001
AcDbBlockRepETag
1070
     1
1071
      122
1005
E20D
1001
ACAD
1000
ACAD_MTEXT_DEFINED_HEIGHT_BEGIN
1070
    46
1040
6.070361692014189
1000
ACAD_MTEXT_DEFINED_HEIGHT_END
  0
ARC
  5
E20E
330
D32C
100
AcDbEntity
  8
图框
 62
     4
370
    35
100
AcDbCircle
 10
1086.900627017421
 20
490.0179944151195
 30
0.0
 40
4.063310408393665
100
AcDbArc
 50
18.95237904564806
 51
161.0476209543519
1001
AcDbBlockRepETag
1070
     1
1071
      123
1005
E20E
  0
ARC
  5
E20F
330
D32C
100
AcDbEntity
  8
图框
 62
     4
370
    35
100
AcDbCircle
 10
1086.900627017421
 20
490.0179944151195
 30
0.0
 40
4.063310408393665
100
AcDbArc
 50
198.952379045648
 51
341.0476209543519
1001
AcDbBlockRepETag
1070
     1
1071
      124
1005
E20F
  0
LINE
  5
E210
330
D32C
100
AcDbEntity
  8
图框
 62
     4
370
    35
100
AcDbLine
 10
1083.057593369548
 20
488.6983035966752
 30
0.0
 11
1090.74366066529
 21
488.6983035966752
 31
0.0
1001
AcDbBlockRepETag
1070
     1
1071
      125
1005
E210
  0
LINE
  5
E211
330
D32C
100
AcDbEntity
  8
图框
 62
     4
370
    35
100
AcDbLine
 10
1083.057593369548
 20
491.3376852335652
 30
0.0
 11
1090.74366066529
 21
491.3376852335652
 31
0.0
1001
AcDbBlockRepETag
1070
     1
1071
      126
1005
E211
  0
MTEXT
  5
E212
330
D32C
100
AcDbEntity
  8
图框
 62
     1
370
    20
100
AcDbMText
 10
1083.034582879669
 20
491.0506288081688
 30
0.0
 40
2.005930044038334
 41
5.047240019334847
 71
     1
 72
     5
  1
{\fArial|b0|i0|c0|p34;W}
  7
Chinese
 73
     1
 44
1.0
1001
AcDbBlockRepETag
1070
     1
1071
      127
1005
E212
  0
LINE
  5
E213
330
D32C
100
AcDbEntity
  8
图框
370
    -3
100
AcDbLine
 10
946.9285026103634
 20
490.327427634663
 30
0.0
 11
1036.653967466372
 21
490.327427634663
 31
0.0
1001
AcDbBlockRepETag
1070
     1
1071
      128
1005
E213
  0
LINE
  5
E214
330
D32C
100
AcDbEntity
  8
图框
370
    -3
100
AcDbLine
 10
959.9086139692238
 20
509.2054027581959
 30
0.0
 11
959.9086139692238
 21
484.0347692601515
 31
0.0
1001
AcDbBlockRepETag
1070
     1
1071
      129
1005
E214
  0
MTEXT
  5
E215
330
D32C
100
AcDbEntity
  8
图框
100
AcDbMText
 10
967.6594956750127
 20
506.0590735709403
 30
0.0
 40
2.252848170144607
 41
15.50176341157869
 71
     5
 72
     5
  1
姓名{\Fromans|c134;/Name\Ftxt|c134; }
 73
     1
 44
1.0
1001
AcDbBlockRepETag
1070
     1
1071
      130
1005
E215
1001
ACAD
1000
ACAD_MTEXT_DEFINED_HEIGHT_BEGIN
1070
    46
1040
6.292658374511246
1000
ACAD_MTEXT_DEFINED_HEIGHT_END
  0
MTEXT
  5
E216
330
D32C
100
AcDbEntity
  8
图框
100
AcDbMText
 10
983.0415693332476
 20
506.0590735709403
 30
0.0
 40
2.252848170144607
 41
15.26238390489042
 71
     5
 72
     5
  1
日期{\Fromans|c134;/Date}
 73
     1
 44
1.0
1001
AcDbBlockRepETag
1070
     1
1071
      131
1005
E216
1001
ACAD
1000
ACAD_MTEXT_DEFINED_HEIGHT_BEGIN
1070
    46
1040
6.2926583745112
1000
ACAD_MTEXT_DEFINED_HEIGHT_END
  0
LINE
  5
E217
330
D32C
100
AcDbEntity
  8
图框
370
    -3
100
AcDbLine
 10
946.9285026103634
 20
509.2054027581959
 30
0.0
 11
959.9086139692238
 21
502.9127443836848
 31
0.0
1001
AcDbBlockRepETag
1070
     1
1071
      132
1005
E217
  0
MTEXT
  5
E218
330
D32C
100
AcDbEntity
  8
图框
100
AcDbMText
 10
1012.931405110086
 20
506.0185715840725
 30
0.0
 40
2.252848170144607
 41
16.93492221063566
 71
     5
 72
     5
  1
姓名{\Fromans|c134;/Name}
 73
     1
 44
1.0
1001
AcDbBlockRepETag
1070
     1
1071
      133
1005
E218
  0
MTEXT
  5
E219
330
D32C
100
AcDbEntity
  8
图框
100
AcDbMText
 10
1028.977802139886
 20
506.0590735709403
 30
0.0
 40
2.252848170144607
 41
15.35233065297283
 71
     5
 72
     5
  1
日期{\Fromans|c134;/Date}
 73
     1
 44
1.0
1001
AcDbBlockRepETag
1070
     1
1071
      134
1005
E219
1001
ACAD
1000
ACAD_MTEXT_DEFINED_HEIGHT_BEGIN
1070
    46
1040
6.292658374511256
1000
ACAD_MTEXT_DEFINED_HEIGHT_END
  0
LINE
  5
E21A
330
D32C
100
AcDbEntity
  8
图框
370
    -3
100
AcDbLine
 10
1003.652872644553
 20
502.9127443836848
 30
0.0
 11
990.6727612856927
 21
509.2054027581959
 31
0.0
1001
AcDbBlockRepETag
1070
     1
1071
      135
1005
E21A
  0
MTEXT
  5
E21B
102
{ACAD_XDICTIONARY
360
E240
102
}
330
D32C
100
AcDbEntity
  8
图框
100
AcDbMText
 10
997.1628169651232
 20
487.1810984474071
 30
0.0
 40
2.252848170144607
 41
12.98011135886052
 71
     5
 72
     5
  1
批准\P{\Fromans|c134;Approved}
 73
     1
 44
1.0
1001
AcDbBlockRepETag
1070
     1
1071
      136
1005
E21B
1001
ACAD
1000
ACAD_MTEXT_DEFINED_HEIGHT_BEGIN
1070
    46
1040
6.292658374511517
1000
ACAD_MTEXT_DEFINED_HEIGHT_END
  0
MTEXT
  5
E21C
102
{ACAD_XDICTIONARY
360
E242
102
}
330
D32C
100
AcDbEntity
  8
图框
100
AcDbMText
 10
953.4185582897936
 20
487.1810984474071
 30
0.0
 40
2.252848170144607
 41
12.98011135886041
 71
     5
 72
     5
  1
工艺\P{\Fromans|c134;Process}
 73
     1
 44
1.0
1001
AcDbBlockRepETag
1070
     1
1071
      137
1005
E21C
1001
ACAD
1000
ACAD_MTEXT_DEFINED_HEIGHT_BEGIN
1070
    46
1040
6.292658374511495
1000
ACAD_MTEXT_DEFINED_HEIGHT_END
  0
MTEXT
  5
E21D
102
{ACAD_XDICTIONARY
360
E244
102
}
330
D32C
100
AcDbEntity
  8
图框
100
AcDbMText
 10
1028.977802139886
 20
511.8287965307664
 30
0.0
 40
1.958998408821398
 41
15.3523306529728
 71
     5
 72
     5
  1
日期\P{\Fromans|c134;Date}
 73
     1
 44
1.0
1001
AcDbBlockRepETag
1070
     1
1071
      138
1005
E21D
1001
ACAD
1000
ACAD_MTEXT_DEFINED_HEIGHT_BEGIN
1070
    46
1040
5.246787545140668
1000
ACAD_MTEXT_DEFINED_HEIGHT_END
  0
MTEXT
  5
E21E
330
D32C
100
AcDbEntity
  8
图框
100
AcDbMText
 10
1086.643735910939
 20
509.1493769780809
 30
0.0
 40
2.154898249703542
 41
13.34474941400573
 71
     5
 72
     5
  1
产品料号\P{\Fromans|c134;Part No.}
 73
     1
 44
1.0
1001
AcDbBlockRepETag
1070
     1
1071
      139
1005
E21E
1001
ACAD
1000
ACAD_MTEXT_DEFINED_HEIGHT_BEGIN
1070
    46
1040
8.87215554796615
1000
ACAD_MTEXT_DEFINED_HEIGHT_END
  0
MTEXT
  5
E21F
330
D32C
100
AcDbEntity
  8
图框
100
AcDbMText
 10
1086.643735910939
 20
500.2775205517163
 30
0.0
 40
1.958998408821398
 41
13.34474941400573
 71
     5
 72
     5
  1
产品名称\P{\Fromans|c134;Part Name}
 73
     1
 44
1.0
1001
AcDbBlockRepETag
1070
     1
1071
      140
1005
E21F
1001
ACAD
1000
ACAD_MTEXT_DEFINED_HEIGHT_BEGIN
1070
    46
1040
8.871557304763321
1000
ACAD_MTEXT_DEFINED_HEIGHT_END
  0
LINE
  5
E220
330
D32C
100
AcDbEntity
  8
图框
 62
     1
370
    18
100
AcDbLine
 10
833.4128518455365
 20
690.5347692601515
 30
0.0
 11
833.4128518455365
 21
480.5347692601515
 31
0.0
1001
AcDbBlockRepETag
1070
     1
1071
      141
1005
E220
  0
LINE
  5
E221
330
D32C
100
AcDbEntity
  8
图框
 62
     1
370
    18
100
AcDbLine
 10
833.4128518455365
 20
480.5347692601515
 30
0.0
 11
1130.411601781236
 21
480.5347692601515
 31
0.0
1001
AcDbBlockRepETag
1070
     1
1071
      142
1005
E221
  0
LINE
  5
E222
330
D32C
100
AcDbEntity
  8
图框
 62
     1
370
    18
100
AcDbLine
 10
833.4128518455365
 20
690.5347692601515
 30
0.0
 11
1130.411601781236
 21
690.5347692601515
 31
0.0
1001
AcDbBlockRepETag
1070
     1
1071
      143
1005
E222
  0
LINE
  5
E223
330
D32C
100
AcDbEntity
  8
图框
 62
     1
370
    18
100
AcDbLine
 10
1130.411601781236
 20
480.5347692601515
 30
0.0
 11
1130.411601781236
 21
690.5347692601515
 31
0.0
1001
AcDbBlockRepETag
1070
     1
1071
      144
1005
E223
  0
LINE
  5
E224
330
D32C
100
AcDbEntity
  8
图框
370
    18
100
AcDbLine
 10
836.9128518455394
 20
686.7901958362482
 30
0.0
 11
861.5351874539182
 21
686.7901958362482
 31
0.0
1001
AcDbBlockRepETag
1070
     1
1071
      145
1005
E224
  0
LINE
  5
E225
330
D32C
100
AcDbEntity
  8
图框
370
    50
100
AcDbLine
 10
1126.928502610363
 20
484.3410054693078
 30
0.0
 11
1126.928502610363
 21
675.5347692601515
 31
0.0
1001
AcDbBlockRepETag
1070
     1
1071
      146
1005
E225
  0
MTEXT
  5
E226
330
D32C
100
AcDbEntity
  8
图框
 62
     3
100
AcDbMText
 10
1052.897990117958
 20
495.8417418993364
 30
0.0
 40
2.985513575034151
 41
10.82934843439114
 71
     5
 72
     5
  1
V1.1
  7
Romans字体
 73
     1
 44
1.0
1001
AcDbBlockRepETag
1070
     1
1071
      147
1005
E226
1001
ACAD
1000
ACAD_MTEXT_DEFINED_HEIGHT_BEGIN
1070
    46
1040
7.886094601211307
1000
ACAD_MTEXT_DEFINED_HEIGHT_END
  0
ENDBLK
  5
D3C3
330
D32C
100
AcDbEntity
  8
0
100
AcDbBlockEnd
  0
BLOCK
  5
DFEF
330
DFEE
100
AcDbEntity
  8
0
370
     0
100
AcDbBlockBegin
  2
*D5
 70
     1
 10
0.0
 20
0.0
 30
0.0
  3
*D5
  1

  0
LINE
  5
E13A
330
DFEE
100
AcDbEntity
  8
dim
 62
     6
370
    -2
100
AcDbLine
 10
3217.101461025962
 20
520.1785799613051
 30
0.0
 11
3217.101461025962
 21
492.8451075629375
 31
0.0
  0
LINE
  5
E13B
330
DFEE
100
AcDbEntity
  8
dim
 62
     6
370
    -2
100
AcDbLine
 10
3291.134838884253
 20
520.0686216509883
 30
0.0
 11
3291.134838884253
 21
492.8451075629375
 31
0.0
  0
LINE
  5
E13C
330
DFEE
100
AcDbEntity
  8
dim
 62
     1
370
    -2
100
AcDbLine
 10
3219.601461025962
 20
494.0451075629376
 30
0.0
 11
3288.634838884253
 21
494.0451075629376
 31
0.0
  0
SOLID
  5
E13D
330
DFEE
100
AcDbEntity
  8
dim
 62
     1
370
     0
100
AcDbTrace
 10
3219.601461025962
 20
494.4617742296042
 30
0.0
 11
3219.601461025962
 21
493.6284408962707
 31
0.0
 12
3217.101461025962
 22
494.0451075629376
 32
0.0
 13
3217.101461025962
 23
494.0451075629376
 33
0.0
  0
SOLID
  5
E13E
330
DFEE
100
AcDbEntity
  8
dim
 62
     1
370
     0
100
AcDbTrace
 10
3288.634838884253
 20
494.4617742296042
 30
0.0
 11
3288.634838884253
 21
493.6284408962707
 31
0.0
 12
3291.134838884253
 22
494.0451075629376
 32
0.0
 13
3291.134838884253
 23
494.0451075629376
 33
0.0
  0
MTEXT
  5
E13F
330
DFEE
100
AcDbEntity
  8
dim
 62
     4
100
AcDbMText
 10
3254.118149955108
 20
496.5451075629375
 30
0.0
 40
4.0
 41
0.0
 71
     5
 72
     1
  1
\A1;74
  7
Romans字体
 73
     1
 44
1.0
  0
POINT
  5
E140
330
DFEE
100
AcDbEntity
  8
Defpoints
 62
     0
370
     0
100
AcDbPoint
 10
3217.101461025962
 20
520.3785799613051
 30
0.0
  0
POINT
  5
E141
330
DFEE
100
AcDbEntity
  8
Defpoints
 62
     0
370
     0
100
AcDbPoint
 10
3291.134838884253
 20
520.2686216509885
 30
0.0
  0
POINT
  5
E142
330
DFEE
100
AcDbEntity
  8
Defpoints
 62
     0
370
     0
100
AcDbPoint
 10
3291.134838884253
 20
494.0451075629376
 30
0.0
  0
ENDBLK
  5
DFF0
330
DFEE
100
AcDbEntity
  8
0
370
     0
100
AcDbBlockEnd
  0
BLOCK
  5
E145
330
E144
100
AcDbEntity
  8
0
370
     0
100
AcDbBlockBegin
  2
*D6
 70
     1
 10
0.0
 20
0.0
 30
0.0
  3
*D6
  1

  0
LINE
  5
E150
330
E144
100
AcDbEntity
  8
dim
 62
     6
370
    -2
100
AcDbLine
 10
3217.101461025962
 20
511.4079387707691
 30
0.0
 11
3217.101461025962
 21
484.7204084513235
 31
0.0
  0
LINE
  5
E151
330
E144
100
AcDbEntity
  8
dim
 62
     6
370
    -2
100
AcDbLine
 10
3291.134838884253
 20
511.4079387707691
 30
0.0
 11
3291.134838884253
 21
484.7204084513235
 31
0.0
  0
LINE
  5
E152
330
E144
100
AcDbEntity
  8
dim
 62
     1
370
    -2
100
AcDbLine
 10
3219.601461025962
 20
485.9204084513235
 30
0.0
 11
3288.634838884253
 21
485.9204084513235
 31
0.0
  0
SOLID
  5
E153
330
E144
100
AcDbEntity
  8
dim
 62
     1
370
     0
100
AcDbTrace
 10
3219.601461025962
 20
486.3370751179902
 30
0.0
 11
3219.601461025962
 21
485.5037417846568
 31
0.0
 12
3217.101461025962
 22
485.9204084513235
 32
0.0
 13
3217.101461025962
 23
485.9204084513235
 33
0.0
  0
SOLID
  5
E154
330
E144
100
AcDbEntity
  8
dim
 62
     1
370
     0
100
AcDbTrace
 10
3288.634838884253
 20
486.3370751179902
 30
0.0
 11
3288.634838884253
 21
485.5037417846568
 31
0.0
 12
3291.134838884253
 22
485.9204084513235
 32
0.0
 13
3291.134838884253
 23
485.9204084513235
 33
0.0
  0
MTEXT
  5
E155
330
E144
100
AcDbEntity
  8
dim
 62
     4
100
AcDbMText
 10
3254.118149955108
 20
488.4204084513235
 30
0.0
 40
4.0
 41
0.0
 71
     5
 72
     1
  1
\A1;74.03
  7
Romans字体
 73
     1
 44
1.0
  0
POINT
  5
E156
330
E144
100
AcDbEntity
  8
Defpoints
 62
     0
370
     0
100
AcDbPoint
 10
3217.101461025962
 20
511.6079387707691
 30
0.0
  0
POINT
  5
E157
330
E144
100
AcDbEntity
  8
Defpoints
 62
     0
370
     0
100
AcDbPoint
 10
3291.134838884253
 20
511.6079387707691
 30
0.0
  0
POINT
  5
E158
330
E144
100
AcDbEntity
  8
Defpoints
 62
     0
370
     0
100
AcDbPoint
 10
3291.134838884253
 20
485.9204084513235
 30
0.0
  0
ENDBLK
  5
E146
330
E144
100
AcDbEntity
  8
0
370
     0
100
AcDbBlockEnd
  0
ENDSEC
  0
SECTION
  2
ENTITIES
  0
LINE
  5
35FD
330
1F
100
AcDbEntity
  8
0
100
AcDbLine
 10
3225.221478413061
 20
549.8191363470051
 30
0.0
 11
3224.107711025961
 21
514.178579961305
 31
0.0
  0
LINE
  5
35FE
330
1F
100
AcDbEntity
  8
0
100
AcDbLine
 10
3224.107711025961
 20
514.178579961305
 30
0.0
 11
3284.107711025961
 21
514.178579961305
 31
0.0
  0
LINE
  5
3602
330
1F
100
AcDbEntity
  8
0
100
AcDbLine
 10
3290.946626630657
 20
518.0153963073229
 30
0.0
 11
3284.913961025961
 21
517.8785799613051
 31
0.0
  0
LINE
  5
360C
330
1F
100
AcDbEntity
  8
0
100
AcDbLine
 10
3239.107711025962
 20
567.1785799613052
 30
0.0
 11
3239.107711025962
 21
556.1785799613053
 31
0.0
  0
LINE
  5
3611
330
1F
100
AcDbEntity
  8
0
100
AcDbLine
 10
3290.647334979887
 20
522.630809248591
 30
0.0
 11
3284.913961025961
 21
522.8785799613051
 31
0.0
  0
LINE
  5
362D
330
1F
100
AcDbEntity
  8
0
100
AcDbLine
 10
3269.107711025962
 20
567.1785799613052
 30
0.0
 11
3269.107711025962
 21
556.1785799613053
 31
0.0
  0
LINE
  5
362F
330
1F
100
AcDbEntity
  8
0
100
AcDbLine
 10
3278.496139296561
 20
554.1785799613053
 30
0.0
 11
3254.107711025961
 21
554.1785799613053
 31
0.0
  0
LINE
  5
3630
330
1F
100
AcDbEntity
  8
0
100
AcDbLine
 10
3229.719282755361
 20
554.1785799613053
 30
0.0
 11
3254.107711025961
 21
554.1785799613053
 31
0.0
  0
LINE
  5
3631
330
1F
100
AcDbEntity
  8
0
100
AcDbLine
 10
3284.913961025961
 20
522.8785799613051
 30
0.0
 11
3283.788961025962
 21
524.3785799613051
 31
0.0
  0
LINE
  5
363D
330
1F
100
AcDbEntity
  8
0
100
AcDbLine
 10
3268.107711025962
 20
568.178579961305
 30
0.0
 11
3240.107711025962
 21
568.178579961305
 31
0.0
  0
LINE
  5
363E
330
1F
100
AcDbEntity
  8
0
100
AcDbLine
 10
3282.993943638962
 20
549.8191363470051
 30
0.0
 11
3284.107711025961
 21
514.178579961305
 31
0.0
  0
LINE
  5
363F
330
1F
100
AcDbEntity
  8
02___PRT_ALL_AXES
100
AcDbLine
 10
3284.913961025961
 20
522.8785799613051
 30
0.0
 11
3284.913961025961
 21
517.8785799613051
 31
0.0
  0
LINE
  5
3642
330
1F
100
AcDbEntity
  8
0
100
AcDbLine
 10
3291.134838884253
 20
518.4062778765885
 30
0.0
 11
3291.134838884253
 21
522.1309654253883
 31
0.0
  0
LINE
  5
3644
330
1F
100
AcDbEntity
  8
0
100
AcDbLine
 10
3284.913961025961
 20
517.8785799613051
 30
0.0
 11
3284.028961025962
 21
516.6985799613049
 31
0.0
  0
LINE
  5
3692
330
1F
100
AcDbEntity
  8
0
100
AcDbLine
 10
3211.499396059048
 20
437.9344782769164
 30
0.0
 11
3220.001004969294
 21
418.8050005709675
 31
0.0
  0
LINE
  5
3693
330
1F
100
AcDbEntity
  8
0
100
AcDbLine
 10
3217.104789486183
 20
425.6279038029322
 30
0.0
 11
3212.712939009016
 21
435.5100104344429
 31
0.0
  0
LINE
  5
3694
330
1F
100
AcDbEntity
  8
0
100
AcDbLine
 10
3211.337645392253
 20
440.6614072938733
 30
0.0
 11
3218.448585708712
 21
463.6724185910606
 31
0.0
  0
LINE
  5
3695
330
1F
100
AcDbEntity
  8
0
100
AcDbLine
 10
3213.866318857249
 20
441.9303050702318
 30
0.0
 11
3220.977259173706
 21
464.9413163674187
 31
0.0
  0
LINE
  5
3696
330
1F
100
AcDbEntity
  8
0
100
AcDbLine
 10
3212.730478268285
 20
435.4849779210733
 30
0.0
 11
3212.712939009016
 21
435.5100104344429
 31
0.0
  0
LINE
  5
3697
330
1F
100
AcDbEntity
  8
0
100
AcDbLine
 10
3214.111167769383
 20
436.4679104889132
 30
0.0
 11
3214.899097812136
 21
434.6955761474606
 31
0.0
  0
LINE
  5
3698
330
1F
100
AcDbEntity
  8
0
100
AcDbLine
 10
3219.29094872355
 20
424.8134695158638
 30
0.0
 11
3222.584574939955
 21
417.4018895421231
 31
0.0
  0
LINE
  5
3699
330
1F
100
AcDbEntity
  8
0
100
AcDbLine
 10
3222.584574939955
 20
417.4018895421231
 30
0.0
 11
3263.166710279588
 21
417.4018895421231
 31
0.0
  0
LINE
  5
369A
330
1F
100
AcDbEntity
  8
0
100
AcDbLine
 10
3219.29094872355
 20
424.8134695158638
 30
0.0
 11
3259.186186561825
 21
424.8134695158638
 31
0.0
  0
LINE
  5
369B
330
1F
100
AcDbEntity
  8
0
100
AcDbLine
 10
3219.279804908228
 20
425.0562426083821
 30
0.0
 11
3259.175565595152
 21
425.0562426083821
 31
0.0
  0
LINE
  5
369C
330
1F
100
AcDbEntity
  8
0
100
AcDbLine
 10
3217.294019153627
 20
425.7330370582768
 30
0.0
 11
3261.579641956589
 21
425.7330370582768
 31
0.0
  0
LINE
  5
369D
330
1F
100
AcDbEntity
  8
02___PRT_ALL_AXES
100
AcDbLine
 10
3224.668305148147
 20
448.8005192364878
 30
0.0
 11
3221.769187247637
 21
454.7083003749518
 31
0.0
  0
LINE
  5
369E
330
1F
100
AcDbEntity
  8
0
100
AcDbLine
 10
3221.769187247637
 20
454.7083003749518
 30
0.0
 11
3221.7694046957
 21
454.7078573034831
 31
0.0
  0
LINE
  5
369F
330
1F
100
AcDbEntity
  8
02___PRT_ALL_AXES
100
AcDbLine
 10
3270.262621160612
 20
433.1229311558606
 30
0.0
 11
3274.648957320212
 21
433.2419944217583
 31
0.0
  0
LINE
  5
36A0
330
1F
100
AcDbEntity
  8
0
100
AcDbLine
 10
3274.648956963984
 20
433.2419944120814
 30
0.0
 11
3274.64866007017
 21
433.2419864959406
 31
0.0
  0
LINE
  5
36A1
330
1F
100
AcDbEntity
  8
0
100
AcDbLine
 10
3214.346489447348
 20
434.7023495549485
 30
0.0
 11
3214.940679451402
 21
434.658146136971
 31
0.0
  0
LINE
  5
36A2
330
1F
100
AcDbEntity
  8
0
100
AcDbLine
 10
3253.921260148273
 20
434.658135037422
 30
0.0
 11
3214.940665666454
 21
434.658135037422
 31
0.0
  0
LINE
  5
36A3
330
1F
100
AcDbEntity
  8
0
100
AcDbLine
 10
3253.879169446773
 20
434.6955761474606
 30
0.0
 11
3214.899097812136
 21
434.6955761474606
 31
0.0
  0
LINE
  5
36A4
330
1F
100
AcDbEntity
  8
0
100
AcDbLine
 10
3252.927629183464
 20
436.4679104889132
 30
0.0
 11
3214.111167769383
 21
436.4679104889132
 31
0.0
  0
LINE
  5
36A5
330
1F
100
AcDbEntity
  8
02___PRT_ALL_AXES
100
AcDbLine
 10
3270.262621160612
 20
437.4426898310701
 30
0.0
 11
3274.648957319782
 21
437.3236265650862
 31
0.0
  0
LINE
  5
36A6
330
1F
100
AcDbEntity
  8
0
100
AcDbLine
 10
3252.682780271415
 20
441.9303050702318
 30
0.0
 11
3213.866318857249
 21
441.9303050702318
 31
0.0
  0
LINE
  5
36A7
330
1F
100
AcDbEntity
  8
0
100
AcDbLine
 10
3263.166710279588
 20
417.4018895421231
 30
0.0
 11
3259.186186561825
 21
424.8134695158638
 31
0.0
  0
LINE
  5
36A8
330
1F
100
AcDbEntity
  8
0
100
AcDbLine
 10
3253.879169446773
 20
434.6955761474606
 30
0.0
 11
3252.927629183464
 21
436.4679104889132
 31
0.0
  0
LINE
  5
36A9
330
1F
100
AcDbEntity
  8
0
100
AcDbLine
 10
3256.565038759776
 20
435.5100104344429
 30
0.0
 11
3261.872055440584
 21
425.6279038028464
 31
0.0
  0
LINE
  5
36AA
330
1F
100
AcDbEntity
  8
0
100
AcDbLine
 10
3252.682780271415
 20
441.9303050702318
 30
0.0
 11
3259.793720587786
 21
464.9413163674187
 31
0.0
  0
LINE
  5
36AB
330
1F
100
AcDbEntity
  8
0
100
AcDbLine
 10
3257.411076393399
 20
439.5889742739568
 30
0.0
 11
3267.690697439761
 21
420.4474645668206
 31
0.0
  0
LINE
  5
36AC
330
1F
100
AcDbEntity
  8
02___PRT_ALL_AXES
100
AcDbLine
 10
3247.937509605831
 20
460.2193862514351
 30
0.0
 11
3245.038391705405
 21
466.127167389899
 31
0.0
  0
LINE
  5
36AD
330
1F
100
AcDbEntity
  8
0
100
AcDbLine
 10
3257.411076393399
 20
439.5889742739568
 30
0.0
 11
3264.522016709856
 21
462.5999855712301
 31
0.0
  0
LINE
  5
36AE
330
1F
100
AcDbEntity
  8
0
100
AcDbLine
 10
3220.977259173706
 20
464.9413163674187
 30
0.0
 11
3223.898515494914
 21
464.9413163674187
 31
0.0
  0
LINE
  5
36AF
330
1F
100
AcDbEntity
  8
0
100
AcDbLine
 10
3245.62032286464
 20
464.9413163674187
 30
0.0
 11
3259.793720587786
 21
464.9413163674187
 31
0.0
  0
LINE
  5
36B0
330
1F
100
AcDbEntity
  8
0
100
AcDbLine
 10
3222.163062217316
 20
466.4124967769295
 30
0.0
 11
3225.33890423714
 21
466.4124968107983
 31
0.0
  0
LINE
  5
36B1
330
1F
100
AcDbEntity
  8
0
100
AcDbLine
 10
3244.856352845061
 20
466.4124968107983
 30
0.0
 11
3260.979723365299
 21
466.4124968107983
 31
0.0
  0
LINE
  5
36B2
330
1F
100
AcDbEntity
  8
02___PRT_ALL_AXES
100
AcDbLine
 10
3270.18032090498
 20
438.0265992159372
 30
0.0
 11
3270.517429489738
 21
437.435773281419
 31
0.0
  0
LINE
  5
36B3
330
1F
100
AcDbEntity
  8
0
100
AcDbLine
 10
3264.522016709856
 20
462.5999855712301
 30
0.0
 11
3274.801637756132
 21
443.4584758640077
 31
0.0
  0
LINE
  5
36B4
330
1F
100
AcDbEntity
  8
0
100
AcDbLine
 10
3264.405035569911
 20
464.3640022608876
 30
0.0
 11
3274.676939835784
 21
445.2368618409133
 31
0.0
  0
LINE
  5
36B5
330
1F
100
AcDbEntity
  8
0
100
AcDbLine
 10
3274.801637756132
 20
443.4584758640077
 30
0.0
 11
3272.920325988759
 21
437.3705487535501
 31
0.0
  0
LINE
  5
36B6
330
1F
100
AcDbEntity
  8
0
100
AcDbLine
 10
3271.619091174155
 20
433.1597513502255
 30
0.0
 11
3267.690697439761
 21
420.4474645668206
 31
0.0
  0
LINE
  5
36B7
330
1F
100
AcDbEntity
  8
02___PRT_ALL_AXES
100
AcDbLine
 10
3270.244411036446
 20
432.6513479278575
 30
0.0
 11
3270.517429489738
 21
433.1298477055118
 31
0.0
  0
LINE
  5
3706
330
1F
100
AcDbEntity
  8
0
100
AcDbLine
 10
3363.582614967912
 20
514.178579961305
 30
0.0
 11
3320.582614967912
 21
514.178579961305
 31
0.0
  0
LINE
  5
3707
330
1F
100
AcDbEntity
  8
0
100
AcDbLine
 10
3320.582614967912
 20
514.178579961305
 30
0.0
 11
3320.582614967912
 21
527.9785799613049
 31
0.0
  0
LINE
  5
3708
330
1F
100
AcDbEntity
  8
0
100
AcDbLine
 10
3320.582614967912
 20
546.3785799613051
 30
0.0
 11
3320.582614967912
 21
549.6785799613053
 31
0.0
  0
LINE
  5
3709
330
1F
100
AcDbEntity
  8
0
100
AcDbLine
 10
3321.782614967912
 20
546.3828269735052
 30
0.0
 11
3321.782614967912
 21
527.9828269734053
 31
0.0
  0
LINE
  5
370A
330
1F
100
AcDbEntity
  8
0
100
AcDbLine
 10
3325.082614967912
 20
554.1785799613053
 30
0.0
 11
3325.082614967912
 21
514.178579961305
 31
0.0
  0
LINE
  5
370B
330
1F
100
AcDbEntity
  8
02___PRT_ALL_AXES
100
AcDbLine
 10
3327.082614967912
 20
556.1785799613053
 30
0.0
 11
3327.082614967912
 21
567.1785799613052
 31
0.0
  0
LINE
  5
370C
330
1F
100
AcDbEntity
  8
0
100
AcDbLine
 10
3363.382614967913
 20
528.1785799613053
 30
0.0
 11
3362.382614967912
 21
528.1785799613053
 31
0.0
  0
LINE
  5
370D
330
1F
100
AcDbEntity
  8
0
100
AcDbLine
 10
3320.782614967912
 20
528.1785799613053
 30
0.0
 11
3321.782614967912
 21
528.1785799613053
 31
0.0
  0
LINE
  5
370E
330
1F
100
AcDbEntity
  8
0
100
AcDbLine
 10
3321.782614967912
 20
546.1785799613051
 30
0.0
 11
3320.782614967912
 21
546.1785799613051
 31
0.0
  0
LINE
  5
370F
330
1F
100
AcDbEntity
  8
0
100
AcDbLine
 10
3362.382614967912
 20
546.1785799613051
 30
0.0
 11
3363.382614967913
 21
546.1785799613051
 31
0.0
  0
LINE
  5
3711
330
1F
100
AcDbEntity
  8
0
100
AcDbLine
 10
3325.082614967912
 20
554.1785799613053
 30
0.0
 11
3359.082614967912
 21
554.1785799613053
 31
0.0
  0
LINE
  5
3712
330
1F
100
AcDbEntity
  8
02___PRT_ALL_AXES
100
AcDbLine
 10
3357.082614967912
 20
556.1785799613053
 30
0.0
 11
3357.082614967912
 21
567.1785799613052
 31
0.0
  0
LINE
  5
3714
330
1F
100
AcDbEntity
  8
0
100
AcDbLine
 10
3359.082614967912
 20
514.178579961305
 30
0.0
 11
3359.082614967912
 21
554.1785799613053
 31
0.0
  0
LINE
  5
3715
330
1F
100
AcDbEntity
  8
0
100
AcDbLine
 10
3362.382614967912
 20
527.9828269272051
 30
0.0
 11
3362.382614967912
 21
546.3828269274052
 31
0.0
  0
LINE
  5
3716
330
1F
100
AcDbEntity
  8
0
100
AcDbLine
 10
3363.582614967912
 20
549.6785799613053
 30
0.0
 11
3363.582614967912
 21
546.3785799613051
 31
0.0
  0
LINE
  5
3717
330
1F
100
AcDbEntity
  8
0
100
AcDbLine
 10
3363.582614967912
 20
527.9785799613049
 30
0.0
 11
3363.582614967912
 21
514.178579961305
 31
0.0
  0
LINE
  5
3718
330
1F
100
AcDbEntity
  8
0
100
AcDbLine
 10
3327.082614967912
 20
567.1785799613052
 30
0.0
 11
3357.082614967912
 21
567.1785799613052
 31
0.0
  0
LINE
  5
3719
330
1F
100
AcDbEntity
  8
0
100
AcDbLine
 10
3328.082617218913
 20
568.178579961305
 30
0.0
 11
3356.082612717012
 21
568.178579961305
 31
0.0
  0
ARC
  5
371A
330
1F
100
AcDbEntity
  8
0
100
AcDbCircle
 10
3229.719282755361
 20
549.6785799613053
 30
0.0
 40
4.5
100
AcDbArc
 50
90.0
 51
178.2100893918004
  0
ARC
  5
371B
330
1F
100
AcDbEntity
  8
0
100
AcDbCircle
 10
3237.107711025962
 20
556.1785799613053
 30
0.0
 40
2.0
100
AcDbArc
 50
270.0
 51
0.0
  0
ARC
  5
371C
330
1F
100
AcDbEntity
  8
0
100
AcDbCircle
 10
3240.107711025962
 20
567.1785799613052
 30
0.0
 40
1.0
100
AcDbArc
 50
90.0000000001042
 51
180.0
  0
ARC
  5
371D
330
1F
100
AcDbEntity
  8
0
100
AcDbCircle
 10
3290.634838884252
 20
518.4062778765885
 30
0.0
 40
0.5
100
AcDbArc
 50
308.5777086261145
 51
0.0
  0
ARC
  5
371E
330
1F
100
AcDbEntity
  8
0
100
AcDbCircle
 10
3290.634838884252
 20
522.1309654253883
 30
0.0
 40
0.5
100
AcDbArc
 50
0.0
 51
88.56790380959287
  0
ARC
  5
371F
330
1F
100
AcDbEntity
  8
0
100
AcDbCircle
 10
3278.496139296561
 20
549.6785799613053
 30
0.0
 40
4.5
100
AcDbArc
 50
1.789910608199579
 51
90.0
  0
ARC
  5
3720
330
1F
100
AcDbEntity
  8
0
100
AcDbCircle
 10
3271.107711025961
 20
556.1785799613053
 30
0.0
 40
2.0
100
AcDbArc
 50
180.0
 51
270.0
  0
ARC
  5
3721
330
1F
100
AcDbEntity
  8
0
100
AcDbCircle
 10
3268.107711025962
 20
567.1785799613052
 30
0.0
 40
1.0
100
AcDbArc
 50
0.0
 51
89.99999999989578
  0
ARC
  5
373B
330
1F
100
AcDbEntity
  8
0
100
AcDbCircle
 10
3320.782614967912
 20
527.9785799613049
 30
0.0
 40
0.2
100
AcDbArc
 50
90.0
 51
180.0
  0
ARC
  5
373C
330
1F
100
AcDbEntity
  8
0
100
AcDbCircle
 10
3325.082614967912
 20
549.6785799613053
 30
0.0
 40
4.5
100
AcDbArc
 50
90.0
 51
180.0
  0
ARC
  5
373D
330
1F
100
AcDbEntity
  8
0
100
AcDbCircle
 10
3325.082614967912
 20
556.1785799613053
 30
0.0
 40
2.0
100
AcDbArc
 50
270.0
 51
0.0
  0
ARC
  5
373E
330
1F
100
AcDbEntity
  8
0
100
AcDbCircle
 10
3328.082614967912
 20
567.1785799613052
 30
0.0
 40
1.0
100
AcDbArc
 50
90.0
 51
180.0
  0
ARC
  5
373F
330
1F
100
AcDbEntity
  8
0
100
AcDbCircle
 10
3320.782614967912
 20
546.3785799613051
 30
0.0
 40
0.2
100
AcDbArc
 50
180.0
 51
270.0
  0
CIRCLE
  5
3740
330
1F
100
AcDbEntity
  8
02___PRT_ALL_AXES
100
AcDbCircle
 10
3342.082614967913
 20
520.3785799613051
 30
0.0
 40
2.5
  0
CIRCLE
  5
3741
330
1F
100
AcDbEntity
  8
0
100
AcDbCircle
 10
3342.082614967913
 20
520.3785799613051
 30
0.0
 40
2.362187595299999
  0
CIRCLE
  5
3742
330
1F
100
AcDbEntity
  8
0
100
AcDbCircle
 10
3342.082614967913
 20
520.3785799613051
 30
0.0
 40
1.862341584399999
  0
ARC
  5
3743
330
1F
100
AcDbEntity
  8
0
100
AcDbCircle
 10
3363.382614967913
 20
527.9785799613049
 30
0.0
 40
0.2
100
AcDbArc
 50
0.0
 51
90.0
  0
ARC
  5
3744
330
1F
100
AcDbEntity
  8
0
100
AcDbCircle
 10
3359.082614967912
 20
549.6785799613053
 30
0.0
 40
4.5
100
AcDbArc
 50
0.0
 51
90.0
  0
ARC
  5
3745
330
1F
100
AcDbEntity
  8
0
100
AcDbCircle
 10
3359.082614967912
 20
556.1785799613053
 30
0.0
 40
2.0
100
AcDbArc
 50
180.0
 51
270.0
  0
ARC
  5
3746
330
1F
100
AcDbEntity
  8
0
100
AcDbCircle
 10
3356.082614967912
 20
567.1785799613052
 30
0.0
 40
1.0
100
AcDbArc
 50
0.0
 51
90.0
  0
ARC
  5
3747
330
1F
100
AcDbEntity
  8
0
100
AcDbCircle
 10
3363.382614967913
 20
546.3785799613051
 30
0.0
 40
0.2
100
AcDbArc
 50
270.0
 51
0.0
  0
SPLINE
  5
3772
330
1F
100
AcDbEntity
  8
0
100
AcDbSpline
210
0.0
220
0.0
230
1.0
 70
     8
 71
     3
 72
    13
 73
     9
 74
     7
 42
0.0000000001
 43
0.0000000001
 44
0.0000000001
 12
-1.0
 22
0.0
 32
0.0
 13
-0.4059312476392993
 23
0.9139036175604088
 33
0.0
 40
0.0
 40
0.0
 40
0.0
 40
0.0
 40
0.6835937817382775
 40
1.32611247271352
 40
1.928446170329043
 40
2.49840293648748
 40
3.050430767896362
 40
3.104245704001471
 40
3.104245704001471
 40
3.104245704001471
 40
3.104245704001471
 10
3222.584574939955
 20
417.4018895421231
 30
0.0
 10
3222.356710346042
 20
417.4018895421231
 30
0.0
 10
3221.913463516867
 20
417.4376916972421
 30
0.0
 10
3221.289461658346
 20
417.608196088075
 30
0.0
 10
3220.747959924523
 20
417.8895577803336
 30
0.0
 10
3220.311661256283
 20
418.2728703717408
 30
0.0
 10
3220.092873358262
 20
418.6048371114486
 30
0.0
 10
3220.008446911789
 20
418.788271461506
 30
0.0
 10
3220.001165190404
 20
418.8046653497678
 30
0.0
 11
3222.584574939955
 21
417.4018895421231
 31
0.0
 11
3221.903493500046
 21
417.4604431982221
 31
0.0
 11
3221.28481513993
 21
417.6338426070349
 31
0.0
 11
3220.752335271083
 21
417.9153937969743
 31
0.0
 11
3220.326509202452
 21
418.294237926616
 31
0.0
 11
3220.023668876342
 21
418.7557814928495
 31
0.0
 11
3220.001165190404
 21
418.8046653497678
 31
0.0
  0
SPLINE
  5
3773
330
1F
100
AcDbEntity
  8
0
100
AcDbSpline
210
0.0
220
0.0
230
1.0
 70
     8
 71
     3
 72
    15
 73
    11
 74
     9
 42
0.0000000001
 43
0.0000000001
 44
0.0000000001
 12
-0.2952473714747572
 22
-0.9554208442551621
 32
0.0
 13
-1.0
 23
0.0
 33
0.0
 40
0.0
 40
0.0
 40
0.0
 40
0.0
 40
0.6453780065195664
 40
1.331597294218409
 40
2.053322148834497
 40
2.800904360296325
 40
3.561879096590698
 40
4.322406246551445
 40
5.06867808597371
 40
5.788334438887687
 40
5.788334438887687
 40
5.788334438887687
 40
5.788334438887687
 10
3267.690697439761
 20
420.4474645668208
 30
0.0
 10
3267.627182053084
 20
420.2419287002032
 30
0.0
 10
3267.449697073409
 20
419.8313217142022
 30
0.0
 10
3267.065704783807
 20
419.260902522843
 30
0.0
 10
3266.570420712559
 20
418.7362269723014
 30
0.0
 10
3265.982609559905
 20
418.2767794246906
 30
0.0
 10
3265.324240549385
 20
417.8993709683783
 30
0.0
 10
3264.61982901797
 20
417.6180949185805
 30
0.0
 10
3263.895926603119
 20
417.4435380802428
 30
0.0
 10
3263.40659573056
 20
417.4018895421231
 30
0.0
 10
3263.166710279588
 20
417.4018895421231
 30
0.0
 11
3267.690697439761
 21
420.4474645668208
 31
0.0
 11
3267.438336589267
 21
419.8534723341806
 31
0.0
 11
3267.058042024638
 21
419.2822692574
 31
0.0
 11
3266.564384856606
 21
418.7557814928495
 31
0.0
 11
3265.976289031623
 21
418.294237926616
 31
0.0
 11
3265.316319581789
 21
417.9153937969743
 31
0.0
 11
3264.609827916395
 21
417.6338426070349
 31
0.0
 11
3263.883980616105
 21
417.4604431982221
 31
0.0
 11
3263.166710279588
 21
417.4018895421231
 31
0.0
  0
SPLINE
  5
3774
330
1F
100
AcDbEntity
  8
0
100
AcDbSpline
210
0.0
220
0.0
230
1.0
 70
     8
 71
     3
 72
    13
 73
     9
 74
     7
 42
0.0000000001
 43
0.0000000001
 44
0.0000000001
 12
-0.9893295538174978
 22
-0.1456950031513464
 32
0.0
 13
-0.7218572269745965
 23
-0.6920420101876374
 33
0.0
 40
0.0
 40
0.0
 40
0.0
 40
0.0
 40
0.1015406215120539
 40
1.303045541668762
 40
2.527679066439786
 40
3.753260759332118
 40
4.95751572909121
 40
5.144684582503074
 40
5.144684582503074
 40
5.144684582503074
 40
5.144684582503074
 10
3238.082635302452
 20
456.6525298402192
 30
0.0
 10
3238.049149589861
 20
456.6475985198287
 30
0.0
 10
3237.619870537286
 20
456.5814858944668
 30
0.0
 10
3236.797278595094
 20
456.3831658684307
 30
0.0
 10
3235.663275721503
 20
455.930167996606
 30
0.0
 10
3234.603059289627
 20
455.322392224578
 30
0.0
 10
3233.912974778134
 20
454.7828251378443
 30
0.0
 10
3233.574287235736
 20
454.4659373220351
 30
0.0
 10
3233.529250839236
 20
454.4227610855152
 30
0.0
 11
3238.082635302452
 21
456.6525298402192
 31
0.0
 11
3237.982277646922
 21
456.6370754300558
 31
0.0
 11
3236.813667925018
 21
456.3578525960463
 31
0.0
 11
3235.676071541262
 21
455.9044193179792
 31
0.0
 11
3234.613205686744
 21
455.2942007823276
 31
0.0
 11
3233.665915700189
 21
454.5506473454032
 31
0.0
 11
3233.529250839236
 21
454.4227610855152
 31
0.0
  0
SPLINE
  5
3775
330
1F
100
AcDbEntity
  8
0
100
AcDbSpline
210
0.0
220
0.0
230
1.0
 70
     8
 71
     3
 72
    20
 73
    16
 74
    14
 42
0.0000000001
 43
0.0000000001
 44
0.0000000001
 12
0.4406829283230332
 22
-0.897662830178813
 32
0.0
 13
-1.0
 23
0.0000000143563743
 33
0.0
 40
0.0
 40
0.0
 40
0.0
 40
0.0
 40
0.4172948119300181
 40
1.436583864912734
 40
2.494243314457937
 40
3.606879701284472
 40
4.78561162274571
 40
6.032842595201753
 40
7.339139159107499
 40
8.689641744038075
 40
10.07428285601484
 40
11.47958213523397
 40
12.87488658377992
 40
14.2258433807027
 40
15.50379396919804
 40
15.50379396919804
 40
15.50379396919804
 40
15.50379396919804
 10
3240.578333591587
 20
463.9385796258255
 30
0.0
 10
3240.639631824819
 20
463.8137162785268
 30
0.0
 10
3240.829318758513
 20
463.3732405770377
 30
0.0
 10
3241.023722166241
 20
462.5559073806874
 30
0.0
 10
3241.025360848044
 20
461.484230638981
 30
0.0
 10
3240.792342313445
 20
460.384902389731
 30
0.0
 10
3240.334741754377
 20
459.2911312944693
 30
0.0
 10
3239.668104697252
 20
458.2346073967947
 30
0.0
 10
3238.814055362053
 20
457.2468213464726
 30
0.0
 10
3237.798475731864
 20
456.3556783895217
 30
0.0
 10
3236.648861149748
 20
455.5852444631081
 30
0.0
 10
3235.397950473807
 20
454.9592932641716
 30
0.0
 10
3234.088505750448
 20
454.4998735062046
 30
0.0
 10
3232.772437224852
 20
454.2220713849753
 30
0.0
 10
3231.895178949406
 20
454.1573852145706
 30
0.0
 10
3231.469195419907
 20
454.1573852206862
 30
0.0
 11
3240.578333591587
 21
463.9385796258255
 31
0.0
 11
3240.743273628067
 21
463.555265466904
 31
0.0
 11
3240.982000265836
 21
462.5643266363247
 31
0.0
 11
3240.989204969339
 21
461.5066917260368
 31
0.0
 11
3240.764665914778
 21
460.4169477458895
 31
0.0
 11
3240.315365646202
 21
459.3272054775852
 31
0.0
 11
3239.654198077547
 21
458.2696410375568
 31
0.0
 11
3238.802832162404
 21
457.278890417368
 31
0.0
 11
3237.789474686382
 21
456.3861620949231
 31
0.0
 11
3236.640007220574
 21
455.6141805187023
 31
0.0
 11
3235.383310898612
 21
454.9852286775085
 31
0.0
 11
3234.066275213301
 21
454.524477651736
 31
0.0
 11
3232.743938302023
 21
454.2478743975567
 31
0.0
 11
3231.469195419907
 21
454.1573852206862
 31
0.0
  0
SPLINE
  5
3776
330
1F
100
AcDbEntity
  8
0
100
AcDbSpline
210
0.0
220
0.0
230
1.0
 70
     8
 71
     3
 72
    11
 73
     7
 74
     5
 42
0.0000000001
 43
0.0000000001
 44
0.0000000001
 12
0.4733502774286872
 22
-0.8808742900426739
 32
0.0
 13
-0.2952473714582131
 23
-0.9554208442602746
 33
0.0
 40
0.0
 40
0.0
 40
0.0
 40
0.0
 40
0.0966691745187581
 40
0.6493913863602967
 40
1.221244776905464
 40
1.826220213976138
 40
1.826220213976138
 40
1.826220213976138
 40
1.826220213976138
 10
3274.677166009728
 20
445.2363875922641
 30
0.0
 10
3274.692418803254
 20
445.208003128773
 30
0.0
 10
3274.790312420108
 20
445.0149205333296
 30
0.0
 10
3274.915044529265
 20
444.6213273862896
 30
0.0
 10
3274.939129216281
 20
444.0395799747441
 30
0.0
 10
3274.861176891996
 20
443.6511445782886
 30
0.0
 10
3274.801637756132
 20
443.4584758640077
 30
0.0
 11
3274.677166009728
 21
445.2363875922641
 31
0.0
 11
3274.720864390503
 21
445.1501589379792
 31
0.0
 11
3274.88912750931
 21
444.6236711733424
 31
0.0
 11
3274.916391871624
 21
444.0524680966476
 31
0.0
 11
3274.801637756132
 21
443.4584758640077
 31
0.0
  0
SPLINE
  5
3777
330
1F
100
AcDbEntity
  8
0
100
AcDbSpline
210
0.0
220
0.0
230
1.0
 70
     8
 71
     3
 72
    13
 73
     9
 74
     7
 42
0.0000000001
 43
0.0000000001
 44
0.0000000001
 12
-0.9999999999999998
 22
-0.0000000154129437
 32
0.0
 13
-0.4406844899645173
 23
0.897662063532103
 33
0.0
 40
0.0
 40
0.0
 40
0.0
 40
0.0
 40
1.223287943642609
 40
2.408006599994861
 40
3.538582914144056
 40
4.610220630094399
 40
5.633742407568491
 40
6.22324791085836
 40
6.22324791085836
 40
6.22324791085836
 40
6.22324791085836
 10
3231.469195419907
 20
454.1573852206862
 30
0.0
 10
3231.061432772027
 20
454.1573852144013
 30
0.0
 10
3230.257205311844
 20
454.2141361082135
 30
0.0
 10
3229.103561724773
 20
454.4854614689231
 30
0.0
 10
3228.063466392696
 20
454.9429913553012
 30
0.0
 10
3227.182665417724
 20
455.5743444484416
 30
0.0
 10
3226.586998269102
 20
456.25404489111
 30
0.0
 10
3226.315837883404
 20
456.7205029889008
 30
0.0
 10
3226.229242572721
 20
456.896895231083
 30
0.0
 11
3231.469195419907
 21
454.1573852206862
 31
0.0
 11
3230.249271868042
 21
454.2480489988236
 31
0.0
 11
3229.097384618343
 21
454.5250220276367
 31
0.0
 11
3228.065122187798
 21
454.9861479069805
 31
0.0
 11
3227.197578302065
 21
455.6152544167023
 31
0.0
 11
3226.525621966533
 21
456.3873110934446
 31
0.0
 11
3226.229242572721
 21
456.896895231083
 31
0.0
  0
SPLINE
  5
3778
330
1F
100
AcDbEntity
  8
0
100
AcDbSpline
210
0.0
220
0.0
230
1.0
 70
     8
 71
     3
 72
    11
 73
     7
 74
     5
 42
0.0000000001
 43
0.0000000001
 44
0.0000000001
 12
0.9999995315215409
 22
0.0009679652362726
 32
0.0
 13
0.8442923919898824
 23
0.5358827827314503
 33
0.0
 40
0.0
 40
0.0
 40
0.0
 40
0.0
 40
0.683351413935796
 40
1.392347041789924
 40
2.1156009253545
 40
2.840888861065485
 40
2.840888861065485
 40
2.840888861065485
 40
2.840888861065485
 10
3259.186186712074
 20
424.8134692488878
 30
0.0
 10
3259.413970410007
 20
424.813689735692
 30
0.0
 10
3259.878648744656
 20
424.8516585101281
 30
0.0
 10
3260.56797074274
 20
425.0105839157938
 30
0.0
 10
3261.242127607042
 20
425.2670659894044
 30
0.0
 10
3261.667937078543
 20
425.4983473637563
 30
0.0
 10
3261.872055440584
 20
425.6279038028464
 30
0.0
 11
3259.186186712074
 21
424.8134692488878
 31
0.0
 11
3259.867437618242
 21
424.8670076255246
 31
0.0
 11
3260.558635325359
 21
425.0248700022734
 31
0.0
 11
3261.234808235339
 21
425.2815534179823
 31
0.0
 11
3261.872055440584
 21
425.6279038028464
 31
0.0
  0
SPLINE
  5
3779
330
1F
100
AcDbEntity
  8
0
100
AcDbSpline
210
0.0
220
0.0
230
1.0
 70
     8
 71
     3
 72
     8
 73
     4
 74
     2
 42
0.0000000001
 43
0.0000000001
 44
0.0000000001
 12
-0.8442923892082609
 22
-0.5358827871139421
 32
0.0
 13
-0.8503206209498193
 23
-0.526264991793596
 33
0.0
 40
0.0
 40
0.0
 40
0.0
 40
0.0
 40
0.0604583427551639
 40
0.0604583427551639
 40
0.0604583427551639
 40
0.0604583427551639
 10
3256.565038759776
 20
435.5100104344431
 30
0.0
 10
3256.548023920225
 20
435.4992109060364
 30
0.0
 10
3256.530947439692
 20
435.4885078898508
 30
0.0
 10
3256.513811114507
 20
435.4779021867662
 30
0.0
 11
3256.565038759776
 21
435.5100104344431
 31
0.0
 11
3256.513811114507
 21
435.4779021867662
 31
0.0
  0
SPLINE
  5
377A
330
1F
100
AcDbEntity
  8
0
100
AcDbSpline
210
0.0
220
0.0
230
1.0
 70
     8
 71
     3
 72
    11
 73
     7
 74
     5
 42
0.0000000001
 43
0.0000000001
 44
0.0000000001
 12
-0.8503206208336781
 22
-0.5262649919812529
 32
0.0
 13
-0.9999485535367083
 23
-0.0101434846006987
 33
0.0
 40
0.0
 40
0.0
 40
0.0
 40
0.0
 40
0.6649710966841255
 40
1.38817064271522
 40
2.097006856346566
 40
2.741735405672658
 40
2.741735405672658
 40
2.741735405672658
 40
2.741735405672658
 10
3256.513811114507
 20
435.4779021867662
 30
0.0
 10
3256.325331569251
 20
435.3612518504781
 30
0.0
 10
3255.916298343433
 20
435.1420230167517
 30
0.0
 10
3255.261025746787
 20
434.8927128995641
 30
0.0
 10
3254.58432518876
 20
434.7366919495842
 30
0.0
 10
3254.132999397566
 20
434.6979723401912
 30
0.0
 10
3253.918100937458
 20
434.6957924088207
 30
0.0
 11
3256.513811114507
 21
435.4779021867662
 31
0.0
 11
3255.927778194587
 21
435.1636539151792
 31
0.0
 11
3255.251656697446
 21
434.9069881705166
 31
0.0
 11
3254.560618208075
 21
434.7491446278445
 31
0.0
 11
3253.918100937458
 21
434.6957924088207
 31
0.0
  0
SPLINE
  5
377B
330
1F
100
AcDbEntity
  8
0
100
AcDbSpline
210
0.0
220
0.0
230
1.0
 70
     8
 71
     3
 72
     8
 73
     4
 74
     2
 42
0.0000000001
 43
0.0000000001
 44
0.0000000001
 12
-0.9999485535467126
 22
-0.0101434836144624
 32
0.0
 13
-0.999999531471394
 23
-0.0009680170415481
 33
0.0
 40
0.0
 40
0.0
 40
0.0
 40
0.0
 40
0.0389319424057418
 40
0.0389319424057418
 40
0.0389319424057418
 40
0.0389319424057418
 10
3253.918100937458
 20
434.6957924088207
 30
0.0
 10
3253.90512429096
 20
434.6956607736474
 30
0.0
 10
3253.892146905249
 20
434.6955884422274
 30
0.0
 10
3253.879169597194
 20
434.6955758799662
 30
0.0
 11
3253.918100937458
 21
434.6957924088207
 31
0.0
 11
3253.879169597194
 21
434.6955758799662
 31
0.0
  0
SPLINE
  5
377C
330
1F
100
AcDbEntity
  8
0
100
AcDbSpline
210
0.0
220
0.0
230
1.0
 70
     8
 71
     3
 72
    15
 73
    11
 74
     9
 42
0.0000000001
 43
0.0000000001
 44
0.0000000001
 12
-0.295247371473965
 22
-0.9554208442554068
 32
0.0
 13
-0.9997730042889006
 23
-0.0213058652756879
 33
0.0
 40
0.0
 40
0.0
 40
0.0
 40
0.0
 40
0.6472458279895884
 40
1.336707482843835
 40
2.061884892953214
 40
2.812277856368798
 40
3.574211712169699
 40
4.333690355924851
 40
5.075474435814239
 40
5.784616522216923
 40
5.784616522216923
 40
5.784616522216923
 40
5.784616522216923
 10
3257.411076393399
 20
439.5889742739568
 30
0.0
 10
3257.347377183595
 20
439.3828435554839
 30
0.0
 10
3257.169974766767
 20
438.9704791819027
 30
0.0
 10
3256.787897432214
 20
438.3955206665397
 30
0.0
 10
3256.295824914015
 20
437.8636857428806
 30
0.0
 10
3255.712506027224
 20
437.3948682885161
 30
0.0
 10
3255.059761673348
 20
437.0062159317802
 30
0.0
 10
3254.362236033125
 20
436.7123639539185
 30
0.0
 10
3253.647265369877
 20
436.5244909744458
 30
0.0
 10
3253.163956221527
 20
436.472946784165
 30
0.0
 10
3252.927629183464
 20
436.4679104889137
 30
0.0
 11
3257.411076393399
 21
439.5889742739568
 31
0.0
 11
3257.15909599347
 21
438.9927922213071
 31
0.0
 11
3256.780410322376
 21
438.4166372629648
 31
0.0
 11
3256.289645733726
 21
437.8827530108464
 31
0.0
 11
3255.705601980096
 21
437.4116028294928
 31
0.0
 11
3255.05108892674
 21
437.0215312160655
 31
0.0
 11
3254.350922010568
 21
436.7272964461647
 31
0.0
 11
3253.633048601358
 21
436.5404773102961
 31
0.0
 11
3252.927629183464
 21
436.4679104889137
 31
0.0
  0
SPLINE
  5
377D
330
1F
100
AcDbEntity
  8
0
100
AcDbSpline
210
0.0
220
0.0
230
1.0
 70
     8
 71
     3
 72
    15
 73
    11
 74
     9
 42
0.0000000001
 43
0.0000000001
 44
0.0000000001
 12
-0.4405427089070312
 22
0.8977316534626897
 32
0.0
 13
0.2952473714815895
 23
0.9554208442530509
 33
0.0
 40
0.0
 40
0.0
 40
0.0
 40
0.0
 40
0.5713258599591792
 40
1.2203841011155
 40
1.929559782947323
 40
2.677184600559876
 40
3.439278644690678
 40
4.191035200191427
 40
4.908236084826465
 40
5.568715286637713
 40
5.568715286637713
 40
5.568715286637713
 40
5.568715286637713
 10
3252.927629183464
 20
436.4679104889137
 30
0.0
 10
3252.843731369459
 20
436.638876258556
 30
0.0
 10
3252.695039782876
 20
437.0191584502832
 30
0.0
 10
3252.530820351436
 20
437.6420113922899
 30
0.0
 10
3252.415892052195
 20
438.3354341039884
 30
0.0
 10
3252.354851121685
 20
439.0732887346215
 30
0.0
 10
3252.35009959429
 20
439.8278134795615
 30
0.0
 10
3252.401837307403
 20
440.5704673233778
 30
0.0
 10
3252.507989767151
 20
441.2730673729792
 30
0.0
 10
3252.617778688664
 20
441.719959871363
 30
0.0
 10
3252.682780271415
 20
441.9303050702318
 30
0.0
 11
3252.927629183464
 21
436.4679104889137
 31
0.0
 11
3252.714335527383
 21
436.997928464584
 31
0.0
 11
3252.545406642058
 21
437.6246178869583
 31
0.0
 11
3252.427334369905
 21
438.3238954328943
 31
0.0
 11
3252.364656162098
 21
439.0688882584814
 31
0.0
 11
3252.359780707038
 21
439.8309667072238
 31
0.0
 11
3252.412895365718
 21
440.580844531787
 31
0.0
 11
3252.521958971577
 21
441.2897043478285
 31
0.0
 11
3252.682780271415
 21
441.9303050702318
 31
0.0
  0
SPLINE
  5
377E
330
1F
100
AcDbEntity
  8
0
100
AcDbSpline
210
0.0
220
0.0
230
1.0
 70
     8
 71
     3
 72
    14
 73
    10
 74
     8
 42
0.0000000001
 43
0.0000000001
 44
0.0000000001
 12
1.0
 22
0.0
 32
0.0
 13
0.4731238297468265
 23
-0.8809959374058975
 33
0.0
 40
0.0
 40
0.0
 40
0.0
 40
0.0
 40
0.8080877620064629
 40
1.654035878427546
 40
2.507031908965978
 40
3.339872725878098
 40
4.126759541835824
 40
4.847239924498095
 40
5.489347346557305
 40
5.489347346557305
 40
5.489347346557305
 40
5.489347346557305
 10
3252.682780271415
 20
441.9303050702318
 30
0.0
 10
3252.952142858751
 20
441.9303050702318
 30
0.0
 10
3253.504018667704
 20
441.8886753317084
 30
0.0
 10
3254.324118177373
 20
441.7175865836418
 30
0.0
 10
3255.124578470696
 20
441.4432452118377
 30
0.0
 10
3255.866420466704
 20
441.0787551509559
 30
0.0
 10
3256.515370536874
 20
440.6407150933652
 30
0.0
 10
3257.041270389533
 20
440.1494663760343
 30
0.0
 10
3257.309810952521
 20
439.7775389506942
 30
0.0
 10
3257.411076393399
 20
439.5889742739568
 30
0.0
 11
3252.682780271415
 21
441.9303050702318
 31
0.0
 11
3253.488806662665
 21
441.8726224236783
 31
0.0
 11
3254.317198087039
 21
441.7011702038029
 31
0.0
 11
3255.123978666655
 21
441.424209332075
 31
0.0
 11
3255.870483787556
 21
441.0549480007886
 31
0.0
 11
3256.520377565655
 21
440.6112939257296
 31
0.0
 11
3257.042318192208
 21
440.1146351251886
 31
0.0
 11
3257.411076393399
 21
439.5889742739568
 31
0.0
  0
SPLINE
  5
377F
330
1F
100
AcDbEntity
  8
0
100
AcDbSpline
210
0.0
220
0.0
230
1.0
 70
     8
 71
     3
 72
    14
 73
    10
 74
     8
 42
0.0000000001
 43
0.0000000001
 44
0.0000000001
 12
-0.4731238297456354
 22
0.8809959374065371
 32
0.0
 13
-1.0
 23
0.0
 33
0.0
 40
0.0
 40
0.0
 40
0.0
 40
0.0
 40
0.6414949720329078
 40
1.361209694408857
 40
2.14727402184679
 40
2.979270419783713
 40
3.831797287728123
 40
4.677412375003648
 40
5.489348998021612
 40
5.489348998021612
 40
5.489348998021612
 40
5.489348998021612
 10
3264.522016709856
 20
462.5999855712302
 30
0.0
 10
3264.420847857212
 20
462.7883703926394
 30
0.0
 10
3264.152628529179
 20
463.159948630078
 30
0.0
 10
3263.627393839807
 20
463.6508248072531
 30
0.0
 10
3262.979269185934
 20
464.0886275975132
 30
0.0
 10
3262.238222495853
 20
464.4531094447549
 30
0.0
 10
3261.438415036313
 20
464.7276562654218
 30
0.0
 10
3260.617420771412
 20
464.8994028526374
 30
0.0
 10
3260.064366128792
 20
464.9413163674187
 30
0.0
 10
3259.793720587786
 20
464.9413163674187
 30
0.0
 11
3264.522016709856
 21
462.5999855712302
 31
0.0
 11
3264.153663011001
 21
463.1251820598735
 31
0.0
 11
3263.632396987096
 21
463.6214390637808
 31
0.0
 11
3262.983331907078
 21
464.0648481849904
 31
0.0
 11
3262.237738072551
 21
464.4340471016944
 31
0.0
 11
3261.431536294916
 21
464.7112487508689
 31
0.0
 11
3260.60356732153
 21
464.8830982633453
 31
0.0
 11
3259.793720587786
 21
464.9413163674187
 31
0.0
  0
SPLINE
  5
3780
330
1F
100
AcDbEntity
  8
0
100
AcDbSpline
210
0.0
220
0.0
230
1.0
 70
     8
 71
     3
 72
    12
 73
     8
 74
     6
 42
0.0000000001
 43
0.0000000001
 44
0.0000000001
 12
0.2952473714808991
 22
0.955420844253264
 32
0.0
 13
0.9999932202317738
 23
0.0036823213448865
 33
0.0
 40
0.0
 40
0.0
 40
0.0
 40
0.0
 40
0.58273631141007
 40
1.080789864433254
 40
1.489055272847386
 40
1.821265607455152
 40
1.996913382328239
 40
1.996913382328239
 40
1.996913382328239
 40
1.996913382328239
 10
3259.793720587786
 20
464.9413163674187
 30
0.0
 10
3259.851071042523
 20
465.1269025069602
 30
0.0
 10
3259.975311489829
 20
465.4661660626164
 30
0.0
 10
3260.212799708699
 20
465.9048458089226
 30
0.0
 10
3260.481558122308
 20
466.22300868623
 30
0.0
 10
3260.750450805777
 20
466.3871667281951
 30
0.0
 10
3260.920839645554
 20
466.4114661609428
 30
0.0
 10
3260.979388506894
 20
466.4116817581263
 30
0.0
 11
3259.793720587786
 21
464.9413163674187
 31
0.0
 11
3259.999039104914
 21
465.4866840554606
 31
0.0
 11
3260.242859978959
 21
465.9209751134608
 31
0.0
 11
3260.515285034286
 21
466.2250560779056
 31
0.0
 11
3260.805529378887
 21
466.3866788697617
 31
0.0
 11
3260.979388506894
 21
466.4116817581263
 31
0.0
  0
SPLINE
  5
3781
330
1F
100
AcDbEntity
  8
0
100
AcDbSpline
210
0.0
220
0.0
230
1.0
 70
     8
 71
     3
 72
    12
 73
     8
 74
     6
 42
0.0000000001
 43
0.0000000001
 44
0.0000000001
 12
-1.0
 22
0.0
 32
0.0
 13
-0.2967909866307833
 23
-0.954942464368784
 33
0.0
 40
0.0
 40
0.0
 40
0.0
 40
0.0
 40
0.754956220140646
 40
1.436290677377239
 40
2.03807673483023
 40
2.570224606021461
 40
3.010343029551295
 40
3.010343029551295
 40
3.010343029551295
 40
3.010343029551295
 10
3220.977259173706
 20
464.9413163674187
 30
0.0
 10
3220.725607100326
 20
464.9413163674187
 30
0.0
 10
3220.245697215244
 20
464.9076234959841
 30
0.0
 10
3219.582446896188
 20
464.7427237774614
 30
0.0
 10
3219.035284723839
 20
464.4702190902742
 30
0.0
 10
3218.643683259251
 20
464.1071716571687
 30
0.0
 10
3218.492182595592
 20
463.8124971644651
 30
0.0
 10
3218.448641535207
 20
463.6724012404719
 30
0.0
 11
3220.977259173706
 21
464.9413163674187
 31
0.0
 11
3220.224551031936
 21
464.8830982633453
 31
0.0
 11
3219.56524504252
 21
464.7112487508689
 31
0.0
 11
3219.031104888029
 21
464.4340471016944
 31
0.0
 11
3218.647864080288
 21
464.0648481849904
 31
0.0
 11
3218.448641535207
 21
463.6724012404719
 31
0.0
  0
SPLINE
  5
3782
330
1F
100
AcDbEntity
  8
0
100
AcDbSpline
210
0.0
220
0.0
230
1.0
 70
     8
 71
     3
 72
    15
 73
    11
 74
     9
 42
0.0000000001
 43
0.0000000001
 44
0.0000000001
 12
-0.2952473714793369
 22
-0.9554208442537468
 32
0.0
 13
0.4405427089076034
 23
-0.8977316534624089
 33
0.0
 40
0.0
 40
0.0
 40
0.0
 40
0.0
 40
0.6611474202118606
 40
1.37913405118444
 40
2.131646524407296
 40
2.894532947756639
 40
3.64253548151349
 40
4.352083058302397
 40
5.000569667711437
 40
5.568717581284218
 40
5.568717581284218
 40
5.568717581284218
 40
5.568717581284218
 10
3213.866318857249
 20
441.9303050702318
 30
0.0
 10
3213.801251511257
 20
441.7197470614334
 30
0.0
 10
3213.691372022199
 20
441.2723750001803
 30
0.0
 10
3213.585200223554
 20
440.5690309053782
 30
0.0
 10
3213.533549882435
 20
439.8255891065698
 30
0.0
 10
3213.53850030379
 20
439.0704215042382
 30
0.0
 10
3213.599829627756
 20
438.332072883161
 30
0.0
 10
3213.715067791381
 20
437.6386396639876
 30
0.0
 10
3213.879341326164
 20
437.0169607190864
 30
0.0
 10
3214.027736629081
 20
436.6379252775346
 30
0.0
 10
3214.111167769383
 20
436.4679104889137
 30
0.0
 11
3213.866318857249
 21
441.9303050702318
 31
0.0
 11
3213.705366386919
 21
441.2890483248111
 31
0.0
 11
3213.596273255415
 21
440.5793980652368
 31
0.0
 11
3213.543249008373
 21
439.8287560389808
 31
0.0
 11
3213.548329758904
 21
439.0658865344751
 31
0.0
 11
3213.611293699892
 21
438.3205387414
 31
0.0
 11
3213.729740707508
 21
437.6209473820238
 31
0.0
 11
3213.898874141464
 21
436.9949052395917
 31
0.0
 11
3214.111167769383
 21
436.4679104889137
 31
0.0
  0
SPLINE
  5
3783
330
1F
100
AcDbEntity
  8
0
100
AcDbSpline
210
0.0
220
0.0
230
1.0
 70
     8
 71
     3
 72
    13
 73
     9
 74
     7
 42
0.0000000001
 43
0.0000000001
 44
0.0000000001
 12
-0.999782206952187
 22
0.0208695630480017
 32
0.0
 13
-0.4058127690551581
 23
0.913956233345878
 33
0.0
 40
0.0
 40
0.0
 40
0.0
 40
0.0
 40
0.691328440273396
 40
1.343697139567444
 40
1.957245708659255
 40
2.538612529140098
 40
3.100818775972133
 40
3.156145470265308
 40
3.156145470265308
 40
3.156145470265308
 40
3.156145470265308
 10
3214.111167769383
 20
436.4679104889137
 30
0.0
 10
3213.880775144801
 20
436.4727197297374
 30
0.0
 10
3213.432537496012
 20
436.5183183445429
 30
0.0
 10
3212.802682617095
 20
436.7031401950013
 30
0.0
 10
3212.255959609373
 20
436.9974939861705
 30
0.0
 10
3211.815073509934
 20
437.3918188402071
 30
0.0
 10
3211.59291170275
 20
437.730635538021
 30
0.0
 10
3211.506890703134
 20
437.9176275694105
 30
0.0
 10
3211.499406610129
 20
437.9344829617838
 30
0.0
 11
3214.111167769383
 21
436.4679104889137
 31
0.0
 11
3213.423730579671
 21
436.5411574856556
 31
0.0
 11
3212.798879230897
 21
436.7286293815599
 31
0.0
 11
3212.260626409883
 21
437.0231217368176
 31
0.0
 11
3211.829656870887
 21
437.4133173754573
 31
0.0
 11
3211.522532531415
 21
437.8842212978033
 31
0.0
 11
3211.499406610129
 21
437.9344829617838
 31
0.0
  0
SPLINE
  5
3784
330
1F
100
AcDbEntity
  8
0
100
AcDbSpline
210
0.0
220
0.0
230
1.0
 70
     8
 71
     3
 72
    37
 73
    33
 74
    31
 42
0.0000000001
 43
0.0000000001
 44
0.0000000001
 12
-0.2952473714767136
 22
-0.9554208442545576
 32
0.0
 13
0.2952473714767136
 23
0.9554208442545576
 33
0.0
 40
0.0
 40
0.0
 40
0.0
 40
0.0
 40
0.9547636711056698
 40
1.826499758965411
 40
2.63780217067445
 40
3.408910389838271
 40
4.158676883412061
 40
4.903053322629541
 40
5.64229858963124
 40
6.376503403655414
 40
7.143578213242547
 40
7.995834431414684
 40
8.989602630601364
 40
10.16550741589317
 40
11.54328917815515
 40
13.13062714343788
 40
14.87769817771515
 40
16.70162137543906
 40
18.50003903854194
 40
20.17344330500501
 40
21.67895635507727
 40
22.99692577683342
 40
24.14873820794938
 40
25.19106690836594
 40
26.18386061663025
 40
27.17016418348265
 40
28.14188236201879
 40
29.09043471555379
 40
30.02754592314429
 40
30.96734708759861
 40
31.92286676024431
 40
32.90656541440656
 40
32.90656541440656
 40
32.90656541440656
 40
32.90656541440656
 10
3221.999079520311
 20
460.9548048949933
 30
0.0
 10
3221.905115698886
 20
460.6507378574228
 30
0.0
 10
3221.755267166097
 20
460.0591679448397
 30
0.0
 10
3221.632996196428
 20
459.1867789570555
 30
0.0
 10
3221.608357150642
 20
458.3674489186503
 30
0.0
 10
3221.67089769001
 20
457.5909778328271
 30
0.0
 10
3221.815944333666
 20
456.8483016567214
 30
0.0
 10
3222.042293162927
 20
456.1373070931971
 30
0.0
 10
3222.348229346027
 20
455.4624269291497
 30
0.0
 10
3222.734869315983
 20
454.821497662657
 30
0.0
 10
3223.217297552537
 20
454.2005285172826
 30
0.0
 10
3223.83344514055
 20
453.5815991766332
 30
0.0
 10
3224.634386847257
 20
452.9655405079146
 30
0.0
 10
3225.668186027269
 20
452.3827944885156
 30
0.0
 10
3226.962952515865
 20
451.8893895274226
 30
0.0
 10
3228.503836082038
 20
451.5554678605607
 30
0.0
 10
3230.22517747632
 20
451.4391249034908
 30
0.0
 10
3232.015882221852
 20
451.5619540532214
 30
0.0
 10
3233.752740322371
 20
451.8991917400461
 30
0.0
 10
3235.339944586098
 20
452.3922682531519
 30
0.0
 10
3236.724038863416
 20
452.9729985999804
 30
0.0
 10
3237.899755084998
 20
453.5871541855254
 30
0.0
 10
3238.895298033832
 20
454.2049288749615
 30
0.0
 10
3239.759006341684
 20
454.824665347732
 30
0.0
 10
3240.53862071786
 20
455.463330247788
 30
0.0
 10
3241.258235332698
 20
456.134919085777
 30
0.0
 10
3241.921268868748
 20
456.8424007612568
 30
0.0
 10
3242.523301920076
 20
457.581488860186
 30
0.0
 10
3243.064025531242
 20
458.353684088519
 30
0.0
 10
3243.54441227092
 20
459.1677003505878
 30
0.0
 10
3243.96070463759
 20
460.0336989948822
 30
0.0
 10
3244.18457560659
 20
460.641522828776
 30
0.0
 10
3244.281387087245
 20
460.9548048949933
 30
0.0
 11
3221.999079520311
 21
460.9548048949933
 31
0.0
 11
3221.766266725202
 21
460.0288611223501
 31
0.0
 11
3221.646591167818
 21
459.1653788886928
 31
0.0
 11
3221.623284104784
 21
458.3544113282703
 31
0.0
 11
3221.686019651089
 21
457.5858593541711
 31
0.0
 11
3221.83032929135
 21
456.8501117598063
 31
0.0
 11
3222.056481057293
 21
456.1409209095952
 31
0.0
 11
3222.361765701784
 21
455.4676565851116
 31
0.0
 11
3222.740835598342
 21
454.838877830334
 31
0.0
 11
3223.211032854999
 21
454.2328099270958
 31
0.0
 11
3223.811587038472
 21
453.6280989762063
 31
0.0
 11
3224.598118780859
 21
453.0206921504848
 31
0.0
 11
3225.620860355281
 21
452.4403890089968
 31
0.0
 11
3226.906605893175
 21
451.9452718549741
 31
0.0
 11
3228.456667631347
 21
451.6032917036751
 31
0.0
 11
3230.199360825198
 21
451.4796889896397
 31
0.0
 11
3232.019310862858
 21
451.6000122692463
 31
0.0
 11
3233.785276850996
 21
451.9401155178352
 31
0.0
 11
3235.38370762132
 21
452.4353941379055
 31
0.0
 11
3236.772102661575
 21
453.0175700186606
 31
0.0
 11
3237.940249173639
 21
453.6278790576209
 31
0.0
 11
3238.918807718755
 21
454.2354109911469
 31
0.0
 11
3239.765498118462
 21
454.8433291490895
 31
0.0
 11
3240.533243890705
 21
455.4727779368175
 31
0.0
 11
3241.2539649773
 21
456.1460949805073
 31
0.0
 11
3241.917986993905
 21
456.8555391149967
 31
0.0
 11
3242.516494439136
 21
457.5914334045518
 31
0.0
 11
3243.053323549978
 21
458.3595427204335
 31
0.0
 11
3243.530093015742
 21
459.1694298145552
 31
0.0
 11
3243.942905167056
 21
460.0311745404111
 31
0.0
 11
3244.281387087245
 21
460.9548048949933
 31
0.0
  0
SPLINE
  5
3785
330
1F
100
AcDbEntity
  8
0
100
AcDbSpline
210
0.0
220
0.0
230
1.0
 70
     8
 71
     3
 72
    37
 73
    33
 74
    31
 42
0.0000000001
 43
0.0000000001
 44
0.0000000001
 12
0.2952473714767136
 22
0.9554208442545576
 32
0.0
 13
-0.2952473714767136
 23
-0.9554208442545576
 33
0.0
 40
0.0
 40
0.0
 40
0.0
 40
0.0
 40
0.9547636711899059
 40
1.826499759037999
 40
2.637802170749433
 40
3.408910389913233
 40
4.158676883487
 40
4.903053322731061
 40
5.642298589695486
 40
6.376503403764228
 40
7.143578213352935
 40
7.995834431463547
 40
8.989602630597952
 40
10.1655074160071
 40
11.54328917818967
 40
13.13062714347324
 40
14.87769817783444
 40
16.70162137547874
 40
18.50003903856443
 40
20.17344330511089
 40
21.67895635518235
 40
22.9969257768627
 40
24.1487382079791
 40
25.19106690846532
 40
26.18386061666245
 40
27.17016418357765
 40
28.14188236205577
 40
29.09043471565772
 40
30.02754592317731
 40
30.96734708767542
 40
31.92286676028384
 40
32.90656541452753
 40
32.90656541452753
 40
32.90656541452753
 40
32.90656541452753
 10
3244.281387087245
 20
460.9548048949933
 30
0.0
 10
3244.375350908679
 20
461.2588719325906
 30
0.0
 10
3244.525199441496
 20
461.8504418451984
 30
0.0
 10
3244.64747041098
 20
462.722830833027
 30
0.0
 10
3244.672109456956
 20
463.5421608714215
 30
0.0
 10
3244.609568917528
 20
464.318631957243
 30
0.0
 10
3244.464522273929
 20
465.0613081333737
 30
0.0
 10
3244.238173444487
 20
465.7723026968314
 30
0.0
 10
3243.932237261574
 20
466.4471828609744
 30
0.0
 10
3243.54559729147
 20
467.0881121273904
 30
0.0
 10
3243.063169054939
 20
467.7090812727617
 30
0.0
 10
3242.447021467035
 20
468.3280106134768
 30
0.0
 10
3241.646079760223
 20
468.9440692820672
 30
0.0
 10
3240.612280580274
 20
469.5268153015436
 30
0.0
 10
3239.317514091665
 20
470.0202202626651
 30
0.0
 10
3237.776630525491
 20
470.354141929507
 30
0.0
 10
3236.055289131202
 20
470.4704848866202
 30
0.0
 10
3234.264584385692
 20
470.3476557367011
 30
0.0
 10
3232.527726285149
 20
470.0104180500463
 30
0.0
 10
3230.9405220214
 20
469.5173415369273
 30
0.0
 10
3229.556427744072
 20
468.9366111901156
 30
0.0
 10
3228.380711522537
 20
468.3224556045316
 30
0.0
 10
3227.385168573722
 20
467.7046809150778
 30
0.0
 10
3226.521460265793
 20
467.0849444424044
 30
0.0
 10
3225.741845889698
 20
466.4462795422188
 30
0.0
 10
3225.022231274771
 20
465.7746907043572
 30
0.0
 10
3224.359197738783
 20
465.0672090287791
 30
0.0
 10
3223.757164687524
 20
464.3281209298244
 30
0.0
 10
3223.216441076306
 20
463.5559257015181
 30
0.0
 10
3222.736054336522
 20
462.7419094395309
 30
0.0
 10
3222.319761969971
 20
461.8759107951429
 30
0.0
 10
3222.095891000975
 20
461.2680869612364
 30
0.0
 10
3221.999079520311
 20
460.9548048949933
 30
0.0
 11
3244.281387087245
 21
460.9548048949933
 31
0.0
 11
3244.514199882355
 21
461.8807486677231
 31
0.0
 11
3244.633875439652
 21
462.7442309013807
 31
0.0
 11
3244.657182502773
 21
463.5551984618031
 31
0.0
 11
3244.594446956468
 21
464.3237504359023
 31
0.0
 11
3244.450137316206
 21
465.059498030267
 31
0.0
 11
3244.223985550176
 21
465.7686888804781
 31
0.0
 11
3243.918700905774
 21
466.4419532049612
 31
0.0
 11
3243.53963100913
 21
467.070731959739
 31
0.0
 11
3243.069433752471
 21
467.6767998629775
 31
0.0
 11
3242.468879569085
 21
468.281510813867
 31
0.0
 11
3241.682347826698
 21
468.8889176395023
 31
0.0
 11
3240.65960625219
 21
469.4692207810766
 31
0.0
 11
3239.373860714381
 21
469.9643379350992
 31
0.0
 11
3237.823798976208
 21
470.306318086398
 31
0.0
 11
3236.081105782273
 21
470.4299208004336
 31
0.0
 11
3234.261155744698
 21
470.3095975207408
 31
0.0
 11
3232.495189756561
 21
469.9694942722381
 31
0.0
 11
3230.89675898615
 21
469.4742156521678
 31
0.0
 11
3229.508363945896
 21
468.8920397714126
 31
0.0
 11
3228.340217433917
 21
468.2817307324524
 31
0.0
 11
3227.361658888801
 21
467.6741987989262
 31
0.0
 11
3226.514968489008
 21
467.0662806409839
 31
0.0
 11
3225.747222716852
 21
466.4368318532559
 31
0.0
 11
3225.026501630171
 21
465.7635148095661
 31
0.0
 11
3224.362479613651
 21
465.0540706750766
 31
0.0
 11
3223.76397216842
 21
464.3181763854352
 31
0.0
 11
3223.227143057578
 21
463.55006706964
 31
0.0
 11
3222.750373591728
 21
462.7401799755181
 31
0.0
 11
3222.3375614405
 21
461.8784352496624
 31
0.0
 11
3221.999079520311
 21
460.9548048949933
 31
0.0
  0
SPLINE
  5
3786
330
1F
100
AcDbEntity
  8
0
100
AcDbSpline
210
0.0
220
0.0
230
1.0
 70
     8
 71
     3
 72
    25
 73
    21
 74
    19
 42
0.0000000001
 43
0.0000000001
 44
0.0000000001
 12
-0.9999999999999998
 22
-0.0000000194161877
 32
0.0
 13
0.9999999999999998
 23
-0.0000000180882783
 33
0.0
 40
0.0
 40
0.0
 40
0.0
 40
0.0
 40
1.353637404450904
 40
2.666714187382861
 40
3.919734570782277
 40
5.107483573188616
 40
6.241846760197015
 40
7.355690718770674
 40
8.485319053464163
 40
9.65747627205002
 40
10.8905752192074
 40
12.19694126327662
 40
13.57924110904394
 40
15.02700885136291
 40
16.5237667483785
 40
18.05835658423344
 40
19.61582403301896
 40
21.16217077833932
 40
22.65928123048017
 40
24.07393294473362
 40
24.07393294473362
 40
24.07393294473362
 40
24.07393294473362
 10
3230.996493943661
 20
454.0176617834031
 30
0.0
 10
3230.545281475511
 20
454.0176617746423
 30
0.0
 10
3229.654665983147
 20
454.0804618169742
 30
0.0
 10
3228.376665453644
 20
454.3806686995403
 30
0.0
 10
3227.223820402174
 20
454.8874835701975
 30
0.0
 10
3226.247327581305
 20
455.5871147387411
 30
0.0
 10
3225.485134302122
 20
456.4563270253706
 30
0.0
 10
3224.962651149045
 20
457.4663897785613
 30
0.0
 10
3224.69667206008
 20
458.5846351203976
 30
0.0
 10
3224.694618188762
 20
459.7726098184658
 30
0.0
 10
3224.952827564893
 20
460.9908996001249
 30
0.0
 10
3225.459939409219
 20
462.2031438703891
 30
0.0
 10
3226.198776770155
 20
463.374072724713
 30
0.0
 10
3227.145347844359
 20
464.4688098958433
 30
0.0
 10
3228.270958989887
 20
465.4564081906424
 30
0.0
 10
3229.545122541422
 20
466.31019166125
 30
0.0
 10
3230.93153596447
 20
467.0038007360338
 30
0.0
 10
3232.382767224516
 20
467.512803015848
 30
0.0
 10
3233.840779595389
 20
467.82036523478
 30
0.0
 10
3234.812422092391
 20
467.8919480152
 30
0.0
 10
3235.283972663809
 20
467.8919480066705
 30
0.0
 11
3230.996493943661
 21
454.0176617834031
 31
0.0
 11
3229.646570099904
 21
454.1178607793295
 31
0.0
 11
3228.369805166189
 21
454.424523365752
 31
0.0
 11
3227.225630207809
 21
454.9353303212943
 31
0.0
 11
3226.263915964427
 21
455.6323621762286
 31
0.0
 11
3225.519015667882
 21
456.487875699352
 31
0.0
 11
3225.007568162007
 21
457.4773552659856
 31
0.0
 11
3224.742831821943
 21
458.5755241258573
 31
0.0
 11
3224.734724654632
 21
459.7476533076974
 31
0.0
 11
3224.983500080171
 21
460.9553965755853
 31
0.0
 11
3225.481419418005
 21
462.163150099326
 31
0.0
 11
3226.214191521994
 21
463.3352413531214
 31
0.0
 11
3227.157789426077
 21
464.4332643178672
 31
0.0
 11
3228.280936592132
 21
465.4226199898383
 31
0.0
 11
3229.554940532717
 21
466.2781197991215
 31
0.0
 11
3230.947772929662
 21
466.9750579370127
 31
0.0
 11
3232.407431454038
 21
467.4855334496269
 31
0.0
 11
3233.872865146138
 21
467.7918728038862
 31
0.0
 11
3235.283972663809
 21
467.8919480066705
 31
0.0
  0
SPLINE
  5
3787
330
1F
100
AcDbEntity
  8
0
100
AcDbSpline
210
0.0
220
0.0
230
1.0
 70
     8
 71
     3
 72
    25
 73
    21
 74
    19
 42
0.0000000001
 43
0.0000000001
 44
0.0000000001
 12
0.9999999999999998
 22
0.0000000194167783
 32
0.0
 13
-0.9987935933893677
 23
-0.0491055781388884
 33
0.0
 40
0.0
 40
0.0
 40
0.0
 40
0.0
 40
1.353637404536641
 40
2.666714187386314
 40
3.919734570864211
 40
5.107483573270149
 40
6.241846760277865
 40
7.355690718812262
 40
8.485319053505593
 40
9.657476272091349
 40
10.89057521924866
 40
12.19694126328471
 40
13.57924110909802
 40
15.02700885141805
 40
16.52376674836903
 40
18.05835658422457
 40
19.61582403300922
 40
21.16217077833044
 40
22.65928123048677
 40
23.59327510671941
 40
23.59327510671941
 40
23.59327510671941
 40
23.59327510671941
 10
3235.283972663809
 20
467.8919480066705
 30
0.0
 10
3235.735185131988
 20
467.8919480154315
 30
0.0
 10
3236.625800624357
 20
467.8291479731225
 30
0.0
 10
3237.903801153872
 20
467.528941090496
 30
0.0
 10
3239.056646205366
 20
467.0221262199031
 30
0.0
 10
3240.033139026252
 20
466.3224950513268
 30
0.0
 10
3240.795332305417
 20
465.4532827647235
 30
0.0
 10
3241.317815458533
 20
464.4432200114986
 30
0.0
 10
3241.583794546903
 20
463.3249746696328
 30
0.0
 10
3241.585848420666
 20
462.1369999717908
 30
0.0
 10
3241.327639034663
 20
460.9187101892143
 30
0.0
 10
3240.820527230495
 20
459.7064659227233
 30
0.0
 10
3240.081689707361
 20
458.5355370528965
 30
0.0
 10
3239.135119279942
 20
457.4407999439355
 30
0.0
 10
3238.009505598095
 20
456.4532014052718
 30
0.0
 10
3236.735351854871
 20
455.5994188775231
 30
0.0
 10
3235.348901208962
 20
454.9058062246717
 30
0.0
 10
3233.897806834423
 20
454.3968171030282
 30
0.0
 10
3232.596559255782
 20
454.1223735491309
 30
0.0
 10
3231.788733858603
 20
454.0448594129156
 30
0.0
 10
3231.477778158654
 20
454.0295713098254
 30
0.0
 11
3235.283972663809
 21
467.8919480066705
 31
0.0
 11
3236.633896507652
 21
467.7917490107438
 31
0.0
 11
3237.910661441282
 21
467.4850864243214
 31
0.0
 11
3239.054836399748
 21
466.9742794687791
 31
0.0
 11
3240.01655064313
 21
466.2772476138449
 31
0.0
 11
3240.761450939674
 21
465.4217340907216
 31
0.0
 11
3241.272898445463
 21
464.4322545240878
 31
0.0
 11
3241.537634785526
 21
463.334085664216
 31
0.0
 11
3241.545741952839
 21
462.161956482376
 31
0.0
 11
3241.296966527301
 21
460.954213214488
 31
0.0
 11
3240.799047189554
 21
459.7464596907472
 31
0.0
 11
3240.066275085478
 21
458.5743684369519
 31
0.0
 11
3239.122677181393
 21
457.4763454722062
 31
0.0
 11
3237.999530015424
 21
456.4869898002353
 31
0.0
 11
3236.725526074839
 21
455.6314899909517
 31
0.0
 11
3235.332693677895
 21
454.9345518530606
 31
0.0
 11
3233.873035153518
 21
454.4240763404464
 31
0.0
 11
3232.40760146142
 21
454.1177369861006
 31
0.0
 11
3231.477778158654
 21
454.0295713098254
 31
0.0
  0
SPLINE
  5
3788
330
1F
100
AcDbEntity
  8
0
100
AcDbSpline
210
0.0
220
0.0
230
1.0
 70
     8
 71
     3
 72
     8
 73
     4
 74
     2
 42
0.0000000001
 43
0.0000000001
 44
0.0000000001
 12
-0.998793593393556
 22
-0.0491055780536985
 32
0.0
 13
-0.9999999999999998
 23
0.0000000181306563
 33
0.0
 40
0.0
 40
0.0
 40
0.0
 40
0.0
 40
0.4814315448962241
 40
0.4814315448962241
 40
0.4814315448962241
 40
0.4814315448962241
 10
3231.477778158654
 20
454.0295713098254
 30
0.0
 10
3231.317494577754
 20
454.021690985057
 30
0.0
 10
3231.156971125293
 20
454.0176617804935
 30
0.0
 10
3230.996493943661
 20
454.0176617834031
 30
0.0
 11
3231.477778158654
 21
454.0295713098254
 31
0.0
 11
3230.996493943661
 21
454.0176617834031
 31
0.0
  0
SPLINE
  5
3789
330
1F
100
AcDbEntity
  8
0
100
AcDbSpline
210
0.0
220
0.0
230
1.0
 70
     8
 71
     3
 72
    14
 73
    10
 74
     8
 42
0.0000000001
 43
0.0000000001
 44
0.0000000001
 12
0.2952473714737782
 22
0.9554208442554646
 32
0.0
 13
-0.4405133082061087
 23
0.8977460806337781
 33
0.0
 40
0.0
 40
0.0
 40
0.0
 40
0.0
 40
1.023257400679471
 40
1.957205554791325
 40
2.826417841044764
 40
3.652575739048253
 40
4.455875217249916
 40
5.253402095222031
 40
5.855251738482807
 40
5.855251738482807
 40
5.855251738482807
 40
5.855251738482807
 10
3245.340739958804
 20
460.4177338824687
 30
0.0
 10
3245.441444644769
 20
460.7436143656847
 30
0.0
 10
3245.602005643597
 20
461.3775212129704
 30
0.0
 10
3245.732992924841
 20
462.3122938928465
 30
0.0
 10
3245.75936473715
 20
463.1901060880914
 30
0.0
 10
3245.692338469947
 20
464.0220092607062
 30
0.0
 10
3245.536920045042
 20
464.8176993771626
 30
0.0
 10
3245.31366080843
 20
465.5189378679818
 30
0.0
 10
3245.126761714608
 20
465.9470625850927
 30
0.0
 10
3245.038387455476
 20
466.1271653045487
 30
0.0
 11
3245.340739958804
 21
460.4177338824687
 31
0.0
 11
3245.590237924302
 21
461.410108042379
 31
0.0
 11
3245.71842653088
 21
462.3352171363309
 31
0.0
 11
3245.743372532621
 21
463.2040713793263
 31
0.0
 11
3245.67613779531
 21
464.0274888691407
 31
0.0
 11
3245.521506554958
 21
464.8157649826861
 31
0.0
 11
3245.279191376737
 21
465.5755889593358
 31
0.0
 11
3245.038387455476
 21
466.1271653045487
 31
0.0
  0
SPLINE
  5
378A
330
1F
100
AcDbEntity
  8
0
100
AcDbSpline
210
0.0
220
0.0
230
1.0
 70
     8
 71
     3
 72
    14
 73
    10
 74
     8
 42
0.0000000001
 43
0.0000000001
 44
0.0000000001
 12
0.2952473714852053
 22
0.9554208442519334
 32
0.0
 13
-0.4405119823302723
 23
0.8977467312240429
 33
0.0
 40
0.0
 40
0.0
 40
0.0
 40
0.0
 40
1.009167915847634
 40
1.938076960528597
 40
2.807394137977569
 40
3.635490516075009
 40
4.439604519369549
 40
5.235235000665607
 40
5.855257246021949
 40
5.855257246021949
 40
5.855257246021949
 40
5.855257246021949
 10
3248.239857859316
 20
454.5099527440048
 30
0.0
 10
3248.339175917497
 20
454.8313460980551
 30
0.0
 10
3248.498602366475
 20
455.4588999497283
 30
0.0
 10
3248.630485174175
 20
456.3871069885502
 30
0.0
 10
3248.658931317863
 20
457.2638478686175
 30
0.0
 10
3248.593853744364
 20
458.0968666675187
 30
0.0
 10
3248.440258777191
 20
458.8932065444244
 30
0.0
 10
3248.217056660939
 20
459.6004305441915
 30
0.0
 10
3248.028552053052
 20
460.0338360412674
 30
0.0
 10
3247.937509643588
 20
460.2193770226191
 30
0.0
 11
3248.239857859316
 21
454.5099527440048
 31
0.0
 11
3248.486663882736
 21
455.4884754413296
 31
0.0
 11
3248.615940203713
 21
456.4083448049486
 31
0.0
 11
3248.642973295949
 21
457.2772415576943
 31
0.0
 11
3248.577580396081
 21
458.1027519331984
 31
0.0
 11
3248.424650654344
 21
458.8921895965935
 31
0.0
 11
3248.184818990381
 21
459.6508124513296
 31
0.0
 11
3247.937509643588
 21
460.2193770226191
 31
0.0
  0
SPLINE
  5
378B
330
1F
100
AcDbEntity
  8
0
100
AcDbSpline
210
0.0
220
0.0
230
1.0
 70
     8
 71
     3
 72
     9
 73
     5
 74
     3
 42
0.0000000001
 43
0.0000000001
 44
0.0000000001
 12
-0.9949394867640526
 22
-0.1004759557191849
 32
0.0
 13
-0.4405426913362276
 23
0.8977316620851876
 33
0.0
 40
0.0
 40
0.0
 40
0.0
 40
0.0
 40
0.0097546390291114
 40
0.0575753272291417
 40
0.0575753272291417
 40
0.0575753272291417
 40
0.0575753272291417
 10
3253.921126840503
 20
434.6594026500111
 30
0.0
 10
3253.917891748653
 20
434.6590759477846
 30
0.0
 10
3253.897999007061
 20
434.6601091893323
 30
0.0
 10
3253.886453439739
 20
434.6812660988276
 30
0.0
 10
3253.879431088178
 20
434.6955761474609
 30
0.0
 11
3253.921126840503
 21
434.6594026500111
 31
0.0
 11
3253.911390736407
 21
434.6600036987822
 31
0.0
 11
3253.879431088178
 21
434.6955761474609
 31
0.0
  0
SPLINE
  5
378C
330
1F
100
AcDbEntity
  8
0
100
AcDbSpline
210
0.0
220
0.0
230
1.0
 70
     8
 71
     3
 72
    17
 73
    13
 74
    11
 42
0.0000000001
 43
0.0000000001
 44
0.0000000001
 12
-0.9992863415403107
 22
-0.0377731069807806
 32
0.0
 13
0.295247372363503
 23
0.955420843980519
 33
0.0
 40
0.0
 40
0.0
 40
0.0
 40
0.0
 40
0.0611069919584899
 40
0.270501854557181
 40
0.5393169033211059
 40
0.8799952746901682
 40
1.286440475188993
 40
1.74299849239899
 40
2.228584736581065
 40
2.719781214035731
 40
3.192147530362478
 40
3.62339391281667
 40
3.62339391281667
 40
3.62339391281667
 40
3.62339391281667
 10
3274.648628119969
 20
433.2428317377232
 30
0.0
 10
3274.628273659157
 20
433.2420623374083
 30
0.0
 10
3274.537415584231
 20
433.2469925695761
 30
0.0
 10
3274.371991752494
 20
433.3397145025395
 30
0.0
 10
3274.202652163515
 20
433.5574715524219
 30
0.0
 10
3274.058089180746
 20
433.8659386405762
 30
0.0
 10
3273.945923675266
 20
434.2523340959898
 30
0.0
 10
3273.871433766504
 20
434.6965089784151
 30
0.0
 10
3273.839383202642
 20
435.1739216297243
 30
0.0
 10
3273.851644511641
 20
435.6575350073788
 30
0.0
 10
3273.907489721814
 20
436.1197854822933
 30
0.0
 10
3273.975546033946
 20
436.4141323841594
 30
0.0
 10
3274.0179874877
 20
436.5514729783888
 30
0.0
 11
3274.648628119969
 21
433.2428317377232
 31
0.0
 11
3274.587626074235
 21
433.2464115257677
 31
0.0
 11
3274.399380601288
 21
433.3381167622476
 31
0.0
 11
3274.225159697472
 21
433.5428326803278
 31
0.0
 11
3274.075076397169
 21
433.8486704734288
 31
0.0
 11
3273.957857905279
 21
434.2378459173708
 31
0.0
 11
3273.88031052937
 21
434.6877699415887
 31
0.0
 11
3273.846948987658
 21
435.1722088005518
 31
0.0
 11
3273.859710606088
 21
435.6632394722607
 31
0.0
 11
3273.91784728542
 21
436.1320145391279
 31
0.0
 11
3274.0179874877
 21
436.5514729783888
 31
0.0
  0
SPLINE
  5
378D
330
1F
100
AcDbEntity
  8
0
100
AcDbSpline
210
0.0
220
0.0
230
1.0
 70
     8
 71
     3
 72
    10
 73
     6
 74
     4
 42
0.0000000001
 43
0.0000000001
 44
0.0000000001
 12
-0.2952473686272911
 22
-0.9554208451350955
 32
0.0
 13
0.4405427107756524
 23
-0.8977316525457036
 33
0.0
 40
0.0
 40
0.0
 40
0.0
 40
0.0
 40
0.0832286966612535
 40
0.172179529464163
 40
0.2469602132521809
 40
0.2469602132521809
 40
0.2469602132521809
 40
0.2469602132521809
 10
3259.175565595152
 20
425.0562426083821
 30
0.0
 10
3259.167374577257
 20
425.0297364644809
 30
0.0
 10
3259.158906040191
 20
424.9722571985109
 30
0.0
 10
3259.162263415229
 20
424.8898587969573
 30
0.0
 10
3259.175466405884
 20
424.8358471781423
 30
0.0
 10
3259.1864477676
 20
424.8134695158638
 30
0.0
 11
3259.175565595152
 21
425.0562426083821
 31
0.0
 11
3259.161713169812
 21
424.9741747933744
 31
0.0
 11
3259.165695890046
 21
424.885313167259
 31
0.0
 11
3259.1864477676
 21
424.8134695158638
 31
0.0
  0
SPLINE
  5
378E
330
1F
100
AcDbEntity
  8
0
100
AcDbSpline
210
0.0
220
0.0
230
1.0
 70
     8
 71
     3
 72
    12
 73
     8
 74
     6
 42
0.0000000001
 43
0.0000000001
 44
0.0000000001
 12
0.9999999991765918
 22
-0.000040580986635
 32
0.0
 13
0.4731238298515116
 23
-0.8809959373496781
 33
0.0
 40
0.0
 40
0.0
 40
0.0
 40
0.0
 40
0.0778724907465199
 40
0.1515742770660677
 40
0.2190640450424875
 40
0.2768335472125098
 40
0.3210795467812858
 40
0.3210795467812858
 40
0.3210795467812858
 40
0.3210795467812858
 10
3261.579641956589
 20
425.7330370582768
 30
0.0
 10
3261.605599453484
 20
425.7330360048959
 30
0.0
 10
3261.656184067719
 20
425.7296558908971
 30
0.0
 10
3261.728022830856
 20
425.7156119675866
 30
0.0
 10
3261.790982167938
 20
425.6937421336181
 30
0.0
 10
3261.840417237757
 20
425.6659000141538
 30
0.0
 10
3261.865077494994
 20
425.6408973181343
 30
0.0
 10
3261.872055440584
 20
425.6279038028464
 30
0.0
 11
3261.579641956589
 21
425.7330370582768
 31
0.0
 11
3261.65734417564
 21
425.7278902175344
 31
0.0
 11
3261.729617750928
 21
425.7134512555982
 31
0.0
 11
3261.793156338578
 21
425.6906978676973
 31
0.0
 11
3261.842728439406
 21
425.6610343850891
 31
0.0
 11
3261.872055440584
 21
425.6279038028464
 31
0.0
  0
SPLINE
  5
378F
330
1F
100
AcDbEntity
  8
0
100
AcDbSpline
210
0.0
220
0.0
230
1.0
 70
     8
 71
     3
 72
    10
 73
     6
 74
     4
 42
0.0000000001
 43
0.0000000001
 44
0.0000000001
 12
-0.2952473699169569
 22
-0.9554208447365589
 32
0.0
 13
0.440542691887463
 23
-0.8977316618146804
 33
0.0
 40
0.0
 40
0.0
 40
0.0
 40
0.0
 40
0.083231090332116
 40
0.1721814360896516
 40
0.2469602159762172
 40
0.2469602159762172
 40
0.2469602159762172
 40
0.2469602159762172
 10
3219.279804908228
 20
425.0562426083821
 30
0.0
 10
3219.271613654723
 20
425.0297357021709
 30
0.0
 10
3219.263145237458
 20
424.9722557371582
 30
0.0
 10
3219.266502973278
 20
424.8898573459326
 30
0.0
 10
3219.279706000396
 20
424.8358466086425
 30
0.0
 10
3219.290687082058
 20
424.8134695158638
 30
0.0
 11
3219.279804908228
 21
425.0562426083821
 31
0.0
 11
3219.265952344474
 21
424.9741723892078
 31
0.0
 11
3219.269935496968
 21
424.8853112700015
 31
0.0
 11
3219.290687082058
 21
424.8134695158638
 31
0.0
  0
SPLINE
  5
3790
330
1F
100
AcDbEntity
  8
0
100
AcDbSpline
210
0.0
220
0.0
230
1.0
 70
     8
 71
     3
 72
    12
 73
     8
 74
     6
 42
0.0000000001
 43
0.0000000001
 44
0.0000000001
 12
-0.4061232601736548
 22
0.9138183066375514
 32
0.0
 13
0.9999999991769209
 23
0.0000405728750325
 33
0.0
 40
0.0
 40
0.0
 40
0.0
 40
0.0
 40
0.0333633024993808
 40
0.0693839613106681
 40
0.1164672537582805
 40
0.1763878216023969
 40
0.2490899249397815
 40
0.2490899249397815
 40
0.2490899249397815
 40
0.2490899249397815
 10
3217.104789486183
 20
425.6279038029328
 30
0.0
 10
3217.100272948457
 20
425.638066468464
 30
0.0
 10
3217.097180797694
 20
425.6635241051021
 30
0.0
 10
3217.123377977589
 20
425.6958564924874
 30
0.0
 10
3217.166743558704
 20
425.7168451402007
 30
0.0
 10
3217.225480294857
 20
425.7303616308973
 30
0.0
 10
3217.269785119201
 20
425.7330360750323
 30
0.0
 10
3217.294019153627
 20
425.7330370582768
 30
0.0
 11
3217.104789486183
 21
425.6279038029328
 31
0.0
 11
3217.10162270759
 21
425.661116473211
 31
0.0
 11
3217.122111689386
 21
425.6907422978605
 31
0.0
 11
3217.163341115597
 21
425.71347929067
 31
0.0
 11
3217.221498062986
 21
425.7279099497392
 31
0.0
 11
3217.294019153627
 21
425.7330370582768
 31
0.0
  0
SPLINE
  5
3791
330
1F
100
AcDbEntity
  8
0
100
AcDbSpline
210
0.0
220
0.0
230
1.0
 70
     8
 71
     3
 72
     9
 73
     5
 74
     3
 42
0.0000000001
 43
0.0000000001
 44
0.0000000001
 12
-0.9949239209411853
 22
-0.1006299733628983
 32
0.0
 13
-0.4405427111356782
 23
0.8977316523690285
 33
0.0
 40
0.0
 40
0.0
 40
0.0
 40
0.0
 40
0.0097589368851927
 40
0.0575803731766531
 40
0.0575803731766531
 40
0.0575803731766531
 40
0.0575803731766531
 10
3214.940537493784
 20
434.6594030452044
 30
0.0
 10
3214.937301027201
 20
434.6590756980181
 30
0.0
 10
3214.917405942967
 20
434.6601068738155
 30
0.0
 10
3214.905859068004
 20
434.6812658751207
 30
0.0
 10
3214.898836606272
 20
434.6955761474609
 30
0.0
 11
3214.940537493784
 21
434.6594030452044
 31
0.0
 11
3214.93079704083
 21
434.6600033995791
 31
0.0
 11
3214.898836606272
 21
434.6955761474609
 31
0.0
  0
SPLINE
  5
3792
330
1F
100
AcDbEntity
  8
0
100
AcDbSpline
210
0.0
220
0.0
230
1.0
 70
     8
 71
     3
 72
    10
 73
     6
 74
     4
 42
0.0000000001
 43
0.0000000001
 44
0.0000000001
 12
0.4731238300689697
 22
-0.8809959372328959
 32
0.0
 13
-0.8485717473708421
 23
-0.5290803243024596
 33
0.0
 40
0.0
 40
0.0
 40
0.0
 40
0.0
 40
0.0347507963714553
 40
0.0710367519679741
 40
0.0896058374273621
 40
0.0896058374273621
 40
0.0896058374273621
 40
0.0896058374273621
 10
3256.565038759776
 20
435.5100104344431
 30
0.0
 10
3256.570519236402
 20
435.49980533097
 30
0.0
 10
3256.576384409262
 20
435.4741486503805
 30
0.0
 10
3256.557521283464
 20
435.4476926564608
 30
0.0
 10
3256.542929346472
 20
435.4368346714117
 30
0.0
 10
3256.53767694604
 20
435.4335598254928
 30
0.0
 11
3256.565038759776
 21
435.5100104344431
 31
0.0
 11
3256.571275368212
 21
435.4758238498861
 31
0.0
 11
3256.552459590845
 21
435.4447974563536
 31
0.0
 11
3256.53767694604
 21
435.4335598254928
 31
0.0
  0
SPLINE
  5
3793
330
1F
100
AcDbEntity
  8
02___PRT_ALL_AXES
100
AcDbSpline
210
0.0
220
0.0
230
1.0
 70
     8
 71
     3
 72
    14
 73
    10
 74
     8
 42
0.0000000001
 43
0.0000000001
 44
0.0000000001
 12
-0.4950246846658308
 22
0.8688789107646098
 32
0.0
 13
-0.295247371483517
 23
-0.9554208442524549
 33
0.0
 40
0.0
 40
0.0
 40
0.0
 40
0.0
 40
0.4063379699441491
 40
0.7880266047094067
 40
1.104395406857138
 40
1.418493945089249
 40
1.794708639358859
 40
2.263901067655933
 40
2.828611857006544
 40
2.828611857006544
 40
2.828611857006544
 40
2.828611857006544
 10
3270.180394093384
 20
438.0265272512175
 30
0.0
 10
3270.113344984904
 20
438.1442134154599
 30
0.0
 10
3269.965428890047
 20
438.3629556620452
 30
0.0
 10
3269.687561793219
 20
438.6149203751919
 30
0.0
 10
3269.348713462004
 20
438.71711534287
 30
0.0
 10
3269.012387192171
 20
438.611911623789
 30
0.0
 10
3268.726515934308
 20
438.3401076320009
 30
0.0
 10
3268.482104772115
 20
437.9349309570787
 30
0.0
 10
3268.359810896665
 20
437.6109400301536
 30
0.0
 10
3268.30423443793
 20
437.4310945437803
 30
0.0
 11
3270.180394093384
 21
438.0265272512175
 31
0.0
 11
3269.94741421277
 21
438.3594400341613
 31
0.0
 11
3269.653767877843
 21
438.6032802357133
 31
0.0
 11
3269.348062160535
 21
438.6847249002252
 31
0.0
 11
3269.045651970433
 21
438.599836923208
 31
0.0
 11
3268.761697489325
 21
438.3530427805648
 31
0.0
 11
3268.510380584026
 21
437.9568340629901
 31
0.0
 11
3268.30423443793
 21
437.4310945437803
 31
0.0
  0
SPLINE
  5
3794
330
1F
100
AcDbEntity
  8
0
100
AcDbSpline
210
0.0
220
0.0
230
1.0
 70
     8
 71
     3
 72
    37
 73
    33
 74
    31
 42
0.0000000001
 43
0.0000000001
 44
0.0000000001
 12
0.4405130869758906
 22
-0.897746189188777
 32
0.0
 13
0.2952473714769809
 23
0.9554208442544748
 33
0.0
 40
0.0
 40
0.0
 40
0.0
 40
0.0
 40
0.1739620939446887
 40
0.9683788295947096
 40
1.768230212547806
 40
2.578967045365699
 40
3.406319748379507
 40
4.253434086465166
 40
5.117138119088773
 40
6.004344799837432
 40
6.942788539108163
 40
7.945757251981656
 40
9.004133826685277
 40
10.10512360517117
 40
11.23371138141128
 40
12.37284487209013
 40
13.50375168546021
 40
14.60782846843056
 40
15.69123769668691
 40
16.78099425221744
 40
17.88056269074596
 40
18.97860221517356
 40
20.07043639541507
 40
21.15434117159367
 40
22.22760345362039
 40
23.28637729329438
 40
24.32417846108086
 40
25.34036693453218
 40
26.3456008024898
 40
27.35152151566616
 40
28.36891946140058
 40
29.40875722128026
 40
29.40875722128026
 40
29.40875722128026
 40
29.40875722128026
 10
3224.668308767531
 20
448.8005210125264
 30
0.0
 10
3224.693852960538
 20
448.7484630768924
 30
0.0
 10
3224.839775448605
 20
448.4605209841723
 30
0.0
 10
3225.144087130904
 20
447.9539380510096
 30
0.0
 10
3225.635171917963
 20
447.3181242895081
 30
0.0
 10
3226.203055636834
 20
446.7344208523274
 30
0.0
 10
3226.843823353595
 20
446.2068452410382
 30
0.0
 10
3227.551365522499
 20
445.7402098210248
 30
0.0
 10
3228.319648248014
 20
445.3376128612521
 30
0.0
 10
3229.150668135854
 20
444.9980519137012
 30
0.0
 10
3230.053462838933
 20
444.7217380205451
 30
0.0
 10
3231.033023185069
 20
444.5146353500859
 30
0.0
 10
3232.080546141862
 20
444.3861039024533
 30
0.0
 10
3233.17690586097
 20
444.3432892610822
 30
0.0
 10
3234.30002132382
 20
444.388569680069
 30
0.0
 10
3235.4263455244
 20
444.5193652191687
 30
0.0
 10
3236.532376500308
 20
444.728355896982
 30
0.0
 10
3237.603864793763
 20
445.0061197591142
 30
0.0
 10
3238.642533202047
 20
445.3467880349304
 30
0.0
 10
3239.656916833741
 20
445.7500199674838
 30
0.0
 10
3240.649209657919
 20
446.2165036225583
 30
0.0
 10
3241.611751717754
 20
446.743083401456
 30
0.0
 10
3242.535762711564
 20
447.3249432667897
 30
0.0
 10
3243.415204720405
 20
447.9581935210019
 30
0.0
 10
3244.244337051938
 20
448.638821848677
 30
0.0
 10
3245.016345055804
 20
449.361355261091
 30
0.0
 10
3245.725309307405
 20
450.1200529148857
 30
0.0
 10
3246.368746702029
 20
450.9122650082988
 30
0.0
 10
3246.946817411905
 20
451.7405399145985
 30
0.0
 10
3247.458995756982
 20
452.6117875065142
 30
0.0
 10
3247.90049616335
 20
453.5338441408165
 30
0.0
 10
3248.137521404194
 20
454.1787918538608
 30
0.0
 10
3248.239857859316
 20
454.5099527440048
 30
0.0
 11
3224.668308767531
 21
448.8005210125264
 31
0.0
 11
3224.74694990402
 21
448.6453489087791
 31
0.0
 11
3225.155856084652
 21
447.9642514962736
 31
0.0
 11
3225.644366544653
 21
447.3309113307374
 31
0.0
 11
3226.209175394775
 21
446.7492884504173
 31
0.0
 11
3226.847283221693
 21
446.2226662932591
 31
0.0
 11
3227.553853729249
 21
445.7553753564304
 31
0.0
 11
3228.318358448622
 21
445.3534833435376
 31
0.0
 11
3229.139216649475
 21
445.0168418302673
 31
0.0
 11
3230.036215898882
 21
444.7410357419729
 31
0.0
 11
3231.017227048397
 21
444.5323173586672
 31
0.0
 11
3232.067570497834
 21
444.4021650935821
 31
0.0
 11
3233.167675550516
 21
444.3580361303727
 31
0.0
 11
3234.295387333373
 21
444.4024940147534
 31
0.0
 11
3235.427010068304
 21
444.5330891730638
 31
0.0
 11
3236.538364567481
 21
444.7424725479661
 31
0.0
 11
3237.607216922564
 21
445.0191315180497
 31
0.0
 11
3238.636749445056
 21
445.3565308971278
 31
0.0
 11
3239.649482268347
 21
445.7589505524015
 31
0.0
 11
3240.6445903889
 21
446.2267224833872
 31
0.0
 11
3241.607858273972
 21
446.7537953235088
 31
0.0
 11
3242.531664043968
 21
447.3357616253391
 31
0.0
 11
3243.411080889139
 21
447.9693826289774
 31
0.0
 11
3244.240361950379
 21
448.6506937528337
 31
0.0
 11
3245.013011476964
 21
449.3745823855983
 31
0.0
 11
3245.721090451365
 21
450.1333019845743
 31
0.0
 11
3246.361151964587
 21
450.9225803086573
 31
0.0
 11
3246.935716217453
 21
451.7474263843694
 31
0.0
 11
3247.444560064514
 21
452.6151558471084
 31
0.0
 11
3247.882712210986
 21
453.5333722031632
 31
0.0
 11
3248.239857859316
 21
454.5099527440048
 31
0.0
  0
SPLINE
  5
3795
330
1F
100
AcDbEntity
  8
0
100
AcDbSpline
210
0.0
220
0.0
230
1.0
 70
     8
 71
     3
 72
    31
 73
    27
 74
    25
 42
0.0000000001
 43
0.0000000001
 44
0.0000000001
 12
0.4405789649680222
 22
-0.8977138606636895
 32
0.0
 13
0.2952473714759061
 23
0.955420844254807
 33
0.0
 40
0.0
 40
0.0
 40
0.0
 40
0.0
 40
0.1899337587819181
 40
0.9765648902509996
 40
1.798420072045713
 40
2.711543817236408
 40
3.776282054942355
 40
5.036148735152077
 40
6.512282506379998
 40
8.212910155820191
 40
10.08466987538388
 40
12.03879426151782
 40
13.9656399803247
 40
15.75858500275884
 40
17.37166583481414
 40
18.78380938837554
 40
20.01791338374628
 40
21.13469328395729
 40
22.19838242657743
 40
23.25511285681607
 40
24.29622359658477
 40
25.3125128865709
 40
26.31653451922755
 40
27.32342837629233
 40
28.34715034582262
 40
29.40153857115786
 40
29.40153857115786
 40
29.40153857115786
 40
29.40153857115786
 10
3221.769408930942
 20
454.7078593820942
 30
0.0
 10
3221.797302537228
 20
454.6510239928053
 30
0.0
 10
3221.944825523347
 20
454.3608262414414
 30
0.0
 10
3222.25526433488
 20
453.8462066418663
 30
0.0
 10
3222.772121018724
 20
453.1809611321338
 30
0.0
 10
3223.432288632599
 20
452.5178178577946
 30
0.0
 10
3224.290428862168
 20
451.8577797416583
 30
0.0
 10
3225.398044195584
 20
451.2334300723415
 30
0.0
 10
3226.785235566052
 20
450.704804414689
 30
0.0
 10
3228.43609596157
 20
450.3470374656257
 30
0.0
 10
3230.280297055466
 20
450.222365616931
 30
0.0
 10
3232.198840842606
 20
450.3539290436305
 30
0.0
 10
3234.059735331854
 20
450.7152124464888
 30
0.0
 10
3235.760325356942
 20
451.2434781430282
 30
0.0
 10
3237.243317814794
 20
451.8656736865739
 30
0.0
 10
3238.503048625532
 20
452.5236913723932
 30
0.0
 10
3239.569725730602
 20
453.1855870847332
 30
0.0
 10
3240.495136658465
 20
453.8495776514234
 30
0.0
 10
3241.330436856485
 20
454.5338400827708
 30
0.0
 10
3242.101450591659
 20
455.2533733463454
 30
0.0
 10
3242.811845127871
 20
456.0113623333712
 30
0.0
 10
3243.456885248456
 20
456.8032132849847
 30
0.0
 10
3244.036236253232
 20
457.6305299939492
 30
0.0
 10
3244.550944339807
 20
458.5026424718064
 30
0.0
 10
3244.99705016671
 20
459.4305860238239
 30
0.0
 10
3245.236971508123
 20
460.0819390529947
 30
0.0
 10
3245.340739958804
 20
460.4177338824687
 30
0.0
 11
3221.769408930942
 21
454.7078593820942
 31
0.0
 11
3221.855482757205
 21
454.538548634776
 31
0.0
 11
3222.261630469834
 21
453.8648776672238
 31
0.0
 11
3222.765414927207
 21
453.2155340291152
 31
0.0
 11
3223.408867269601
 21
452.5676420187472
 31
0.0
 11
3224.251574924795
 21
451.916864543176
 31
0.0
 11
3225.347345574165
 21
451.295132498094
 31
0.0
 11
3226.724873206177
 21
450.7646718175504
 31
0.0
 11
3228.385561735211
 21
450.3982731117998
 31
0.0
 11
3230.252629411182
 21
450.2658240984973
 31
0.0
 11
3232.202499313824
 21
450.3947018671598
 31
0.0
 11
3234.094583080859
 21
450.759055325502
 31
0.0
 11
3235.807208854215
 21
451.2896821377808
 31
0.0
 11
3237.294814406833
 21
451.9134284728909
 31
0.0
 11
3238.546439589572
 21
452.5673274083536
 31
0.0
 11
3239.594920623678
 21
453.2182499786416
 31
0.0
 11
3240.502097224224
 21
453.8695778230767
 31
0.0
 11
3241.324677778839
 21
454.5439633384145
 31
0.0
 11
3242.096874045496
 21
455.2653454340847
 31
0.0
 11
3242.808329821681
 21
456.0254390145039
 31
0.0
 11
3243.449594077854
 21
456.8138704158926
 31
0.0
 11
3244.024773175844
 21
457.6368093225422
 31
0.0
 11
3244.535605017697
 21
458.5044993989773
 31
0.0
 11
3244.977913645431
 21
459.4277381268972
 31
0.0
 11
3245.340739958804
 21
460.4177338824687
 31
0.0
  0
SPLINE
  5
3796
330
1F
100
AcDbEntity
  8
0
100
AcDbSpline
210
0.0
220
0.0
230
1.0
 70
     8
 71
     3
 72
    12
 73
     8
 74
     6
 42
0.0000000001
 43
0.0000000001
 44
0.0000000001
 12
0.2969195579148176
 22
0.9549024956128604
 32
0.0
 13
1.0
 23
0.0
 33
0.0
 40
0.0
 40
0.0
 40
0.0
 40
0.0
 40
0.4381900043936929
 40
0.970626074125936
 40
1.57276566047121
 40
2.254621491937501
 40
3.01022576518321
 40
3.01022576518321
 40
3.01022576518321
 40
3.01022576518321
 10
3211.33774127137
 20
440.6615058353199
 30
0.0
 10
3211.381110332166
 20
440.8009820782359
 30
0.0
 10
3211.532100932593
 20
441.095217353134
 30
0.0
 10
3211.923050356467
 20
441.4583950947567
 30
0.0
 10
3212.470431791949
 20
441.7313690689208
 30
0.0
 10
3213.134147907248
 20
441.8965569832855
 30
0.0
 10
3213.614450766167
 20
441.9303050702318
 30
0.0
 10
3213.866318857249
 20
441.9303050702318
 30
0.0
 11
3211.33774127137
 21
440.6615058353199
 31
0.0
 11
3211.535840256682
 21
441.0523603759981
 31
0.0
 11
3211.918910446283
 21
441.4221513956174
 31
0.0
 11
3212.453204736816
 21
441.6998233109199
 31
0.0
 11
3213.112968822231
 21
441.8719823260816
 31
0.0
 11
3213.866318857249
 21
441.9303050702318
 31
0.0
  0
SPLINE
  5
3797
330
1F
100
AcDbEntity
  8
0
100
AcDbSpline
210
0.0
220
0.0
230
1.0
 70
     8
 71
     3
 72
    20
 73
    16
 74
    14
 42
0.0000000001
 43
0.0000000001
 44
0.0000000001
 12
-0.4406844899624506
 22
0.8976620635331176
 32
0.0
 13
1.0
 23
0.0000000143563724
 33
0.0
 40
0.0
 40
0.0
 40
0.0
 40
0.0
 40
0.4172959444132922
 40
1.436576993199441
 40
2.494234369457191
 40
3.606872207100325
 40
4.785604398198691
 40
6.032835072465206
 40
7.339132675693024
 40
8.689634815456875
 40
10.07427431823485
 40
11.47957375057313
 40
12.87488031802822
 40
14.22581552779935
 40
15.5037954352464
 40
15.5037954352464
 40
15.5037954352464
 40
15.5037954352464
 10
3226.229242572721
 20
456.896895231083
 30
0.0
 10
3226.167943955912
 20
457.021758810605
 30
0.0
 10
3225.978256728793
 20
457.4622319525186
 30
0.0
 10
3225.783856929185
 20
458.279563127754
 30
0.0
 10
3225.782219515832
 20
459.3512366078406
 30
0.0
 10
3226.015236158549
 20
460.4505651167627
 30
0.0
 10
3226.472836640462
 20
461.5443369193053
 30
0.0
 10
3227.139475207964
 20
462.6008603193688
 30
0.0
 10
3227.993521868131
 20
463.5886478175666
 30
0.0
 10
3229.00909969444
 20
464.4797956226478
 30
0.0
 10
3230.158729743322
 20
465.250199195814
 30
0.0
 10
3231.409617362115
 20
465.8762073338472
 30
0.0
 10
3232.719080211071
 20
466.3355336866604
 30
0.0
 10
3234.035114441167
 20
466.6135369659362
 30
0.0
 10
3234.912390230737
 20
466.6780825380489
 30
0.0
 10
3235.338383533219
 20
466.6780825441646
 30
0.0
 11
3226.229242572721
 21
456.896895231083
 31
0.0
 11
3226.064301465747
 21
457.280210162248
 31
0.0
 11
3225.825578441138
 21
458.2711416300782
 31
0.0
 11
3225.818374751626
 21
459.3287744739375
 31
0.0
 11
3226.042912997569
 21
460.418520101992
 31
0.0
 11
3226.492213086692
 21
461.5082627359408
 31
0.0
 11
3227.153380904352
 21
462.5658266686285
 31
0.0
 11
3228.004745656724
 21
463.5565796583376
 31
0.0
 11
3229.018103878638
 21
464.4493064606606
 31
0.0
 11
3230.167576604045
 21
465.221277319048
 31
0.0
 11
3231.424264319012
 21
465.8502466995279
 31
0.0
 11
3232.741307823006
 21
466.3109817923631
 31
0.0
 11
3234.063606289911
 21
466.5876633881007
 31
0.0
 11
3235.338383533219
 21
466.6780825441646
 31
0.0
  0
SPLINE
  5
3798
330
1F
100
AcDbEntity
  8
0
100
AcDbSpline
210
0.0
220
0.0
230
1.0
 70
     8
 71
     3
 72
    12
 73
     8
 74
     6
 42
0.0000000001
 43
0.0000000001
 44
0.0000000001
 12
-0.9999940055186884
 22
-0.0034625029514864
 32
0.0
 13
-0.2952473714961004
 23
-0.9554208442485665
 33
0.0
 40
0.0
 40
0.0
 40
0.0
 40
0.0
 40
0.1757843862864315
 40
0.5079947208941973
 40
0.9162601293092395
 40
1.414313682332424
 40
1.997049993711411
 40
1.997049993711411
 40
1.997049993711411
 40
1.997049993711411
 10
3222.163065037671
 20
466.4116822508654
 30
0.0
 10
3222.104470593488
 20
466.4114793662132
 30
0.0
 10
3221.934028869013
 20
466.3871910845752
 30
0.0
 10
3221.665096965956
 20
466.2230087372861
 30
0.0
 10
3221.396338201186
 20
465.9048457904342
 30
0.0
 10
3221.158850109793
 20
465.4661660694022
 30
0.0
 10
3221.034609628443
 20
465.1269025069494
 30
0.0
 10
3220.977259173706
 20
464.9413163674187
 30
0.0
 11
3222.163065037671
 21
466.4116822508654
 31
0.0
 11
3221.98906796472
 21
466.3866788697617
 31
0.0
 11
3221.698823620119
 21
466.2250560779056
 31
0.0
 11
3221.426398564791
 21
465.9209751134608
 31
0.0
 11
3221.182577690746
 21
465.4866840554606
 31
0.0
 11
3220.977259173706
 21
464.9413163674187
 31
0.0
  0
SPLINE
  5
3799
330
1F
100
AcDbEntity
  8
02___PRT_ALL_AXES
100
AcDbSpline
210
0.0
220
0.0
230
1.0
 70
     8
 71
     3
 72
    20
 73
    16
 74
    14
 42
0.0000000001
 43
0.0000000001
 44
0.0000000001
 12
-0.2952473714796582
 22
-0.9554208442536475
 32
0.0
 13
0.4950460338969709
 23
0.8688667471614269
 33
0.0
 40
0.0
 40
0.0
 40
0.0
 40
0.0
 40
0.6467634037863467
 40
1.353073843634343
 40
2.091095923131486
 40
2.830419170034818
 40
3.540412018278241
 40
4.192728006235862
 40
4.764036706446938
 40
5.239927170526557
 40
5.621628033576591
 40
5.938003953331479
 40
6.252102351884369
 40
6.628325419274204
 40
6.952595041270272
 40
6.952595041270272
 40
6.952595041270272
 40
6.952595041270272
 10
3268.30423443793
 20
437.4310945437803
 30
0.0
 10
3268.240582706285
 20
437.2251174646877
 30
0.0
 10
3268.138106199
 20
436.78451505444
 30
0.0
 10
3268.053665387224
 20
436.0915837876271
 30
0.0
 10
3268.034355529766
 20
435.3628882655192
 30
0.0
 10
3268.081302235121
 20
434.6342768144965
 30
0.0
 10
3268.192162983594
 20
433.9413810191333
 30
0.0
 10
3268.361365761929
 20
433.3179938141063
 30
0.0
 10
3268.580503624462
 20
432.7931909207077
 30
0.0
 10
3268.840643900897
 20
432.3904074316326
 30
0.0
 10
3269.136017817095
 20
432.1225512615518
 30
0.0
 10
3269.47488042956
 20
432.0203728465418
 30
0.0
 10
3269.811191408801
 20
432.125566273916
 30
0.0
 10
3270.061397879945
 20
432.3635026754212
 30
0.0
 10
3270.191442897532
 20
432.5582031539888
 30
0.0
 10
3270.244952360959
 20
432.6521188512112
 30
0.0
 11
3268.30423443793
 21
437.4310945437803
 31
0.0
 11
3268.153546044299
 21
436.8021303885996
 31
0.0
 11
3268.065839284993
 21
436.1012866386736
 31
0.0
 11
3268.045540376717
 21
435.3635437673776
 31
0.0
 11
3268.093731374065
 21
434.6257927991056
 31
0.0
 11
3268.208066048229
 21
433.9250664425008
 31
0.0
 11
3268.382863617699
 21
433.2966064534383
 31
0.0
 11
3268.609361974474
 21
432.7721141986669
 31
0.0
 11
3268.876157573866
 21
432.3780433396238
 31
0.0
 11
3269.169814967041
 21
432.1341973138479
 31
0.0
 11
3269.475529722912
 21
432.052758928283
 31
0.0
 11
3269.777937021294
 21
432.137656689496
 31
0.0
 11
3270.061892199735
 21
432.3844627937003
 31
0.0
 11
3270.244952360959
 21
432.6521188512112
 31
0.0
  0
SPLINE
  5
379A
330
1F
100
AcDbEntity
  8
0
100
AcDbSpline
210
0.0
220
0.0
230
1.0
 70
     8
 71
     3
 72
    11
 73
     7
 74
     5
 42
0.0000000001
 43
0.0000000001
 44
0.0000000001
 12
0.4728670702962967
 22
-0.8811337774875033
 32
0.0
 13
-0.2952473714784938
 23
-0.9554208442540074
 33
0.0
 40
0.0
 40
0.0
 40
0.0
 40
0.0
 40
0.0956999925069145
 40
0.6412273902543415
 40
1.208819901553729
 40
1.80991617177167
 40
1.80991617177167
 40
1.80991617177167
 40
1.80991617177167
 10
3264.405725993003
 20
464.362651366216
 30
0.0
 10
3264.420810451365
 20
464.334543200915
 30
0.0
 10
3264.517254008719
 20
464.1437702546763
 30
0.0
 10
3264.638936049044
 20
463.7534790922791
 30
0.0
 10
3264.659546945576
 20
463.1768159290661
 30
0.0
 10
3264.581174074452
 20
462.79141887322
 30
0.0
 10
3264.522016709856
 20
462.5999855712302
 30
0.0
 11
3264.405725993003
 21
464.362651366216
 31
0.0
 11
3264.448887428621
 21
464.2772372043855
 31
0.0
 11
3264.613016875681
 21
463.7569856630125
 31
0.0
 11
3264.63734377589
 21
463.1899147143567
 31
0.0
 11
3264.522016709856
 21
462.5999855712302
 31
0.0
  0
SPLINE
  5
379B
330
1F
100
AcDbEntity
  8
0
100
AcDbSpline
210
0.0
220
0.0
230
1.0
 70
     8
 71
     3
 72
    24
 73
    20
 74
    18
 42
0.0000000001
 43
0.0000000001
 44
0.0000000001
 12
-0.1785534717749558
 22
-0.9839302097796926
 32
0.0
 13
0.9999999999999998
 23
-0.0000000153799518
 33
0.0
 40
0.0
 40
0.0
 40
0.0
 40
0.0
 40
0.9182862200374703
 40
1.903468066294128
 40
2.841925988356127
 40
3.753194052157981
 40
4.654839491131435
 40
5.554359433897164
 40
6.454622566864133
 40
7.361038592064259
 40
8.279782986535117
 40
9.217350306831946
 40
10.17731120816762
 40
11.15606803189914
 40
12.16142988109651
 40
13.22481902073473
 40
14.36132293163548
 40
15.56063280604778
 40
16.80825595998526
 40
16.80825595998526
 40
16.80825595998526
 40
16.80825595998526
 10
3222.996934513556
 20
452.1949796596334
 30
0.0
 10
3222.942280115999
 20
451.893803141927
 30
0.0
 10
3222.857342238816
 20
451.2639366411895
 30
0.0
 10
3222.826518849693
 20
450.3152761463669
 30
0.0
 10
3222.900203676547
 20
449.3712235170188
 30
0.0
 10
3223.074199562716
 20
448.468749703451
 30
0.0
 10
3223.346859057135
 20
447.604556195915
 30
0.0
 10
3223.717322332943
 20
446.7815250035113
 30
0.0
 10
3224.182841696635
 20
446.0064337888367
 30
0.0
 10
3224.739306429004
 20
445.2857758987772
 30
0.0
 10
3225.382754615569
 20
444.6242520157199
 30
0.0
 10
3226.108810492064
 20
444.0262987037673
 30
0.0
 10
3226.910537264232
 20
443.4974011297564
 30
0.0
 10
3227.781095829703
 20
443.0410662798745
 30
0.0
 10
3228.722737216722
 20
442.6561624176383
 30
0.0
 10
3229.745695295985
 20
442.3429211374318
 30
0.0
 10
3230.855664747315
 20
442.1080923354312
 30
0.0
 10
3232.042595712643
 20
441.9622816001905
 30
0.0
 10
3232.858674935044
 20
441.9303050766279
 30
0.0
 10
3233.27454931969
 20
441.9303050702318
 30
0.0
 11
3222.996934513556
 21
452.1949796596334
 31
0.0
 11
3222.875290635005
 21
451.2847860820238
 31
0.0
 11
3222.844598862279
 21
450.3000824284911
 31
0.0
 11
3222.918645019019
 21
449.3645502600688
 31
0.0
 11
3223.091885390401
 21
448.4699010227536
 31
0.0
 11
3223.36359860425
 21
447.6101705841617
 31
0.0
 11
3223.732903166727
 21
446.789957034184
 31
0.0
 11
3224.196208359408
 21
446.0180619590513
 31
0.0
 11
3224.749720964825
 21
445.3002780038223
 31
0.0
 11
3225.389694972212
 21
444.6410932556367
 31
0.0
 11
3226.112732886816
 21
444.0442275637648
 31
0.0
 11
3226.913360237108
 21
443.5145854411408
 31
0.0
 11
3227.779645074654
 21
443.059046748779
 31
0.0
 11
3228.709772940615
 21
442.6774519364655
 31
0.0
 11
3229.726158221954
 21
442.3647901028846
 31
0.0
 11
3230.837748991258
 21
442.1281319082446
 31
0.0
 11
3232.027935671665
 21
441.9804842172879
 31
0.0
 11
3233.27454931969
 21
441.9303050702318
 31
0.0
  0
SPLINE
  5
379C
330
1F
100
AcDbEntity
  8
0
100
AcDbSpline
210
0.0
220
0.0
230
1.0
 70
     8
 71
     3
 72
    11
 73
     7
 74
     5
 42
0.0000000001
 43
0.0000000001
 44
0.0000000001
 12
0.9999999921244299
 22
0.0001255035459514
 32
0.0
 13
0.864156991380317
 23
0.5032223109605921
 33
0.0
 40
0.0
 40
0.0
 40
0.0
 40
0.0
 40
0.6066128008468921
 40
1.235687669249123
 40
1.8781393345545
 40
2.524177311460842
 40
2.524177311460842
 40
2.524177311460842
 40
2.524177311460842
 10
3259.175565595152
 20
425.0562426083821
 30
0.0
 10
3259.377769860509
 20
425.0562679857345
 30
0.0
 10
3259.790133921039
 20
425.0872101566154
 30
0.0
 10
3260.404022977696
 20
425.2184992387197
 30
0.0
 10
3261.008350159278
 20
425.4317258426249
 30
0.0
 10
3261.393549211776
 20
425.6246701503743
 30
0.0
 10
3261.579641956589
 20
425.7330370582768
 30
0.0
 11
3259.175565595152
 21
425.0562426083821
 31
0.0
 11
3259.780597584337
 21
425.1000076882288
 31
0.0
 11
3260.396007169796
 21
425.2304156334639
 31
0.0
 11
3261.002030684084
 21
425.4436751992143
 31
0.0
 11
3261.579641956589
 21
425.7330370582768
 31
0.0
  0
SPLINE
  5
379D
330
1F
100
AcDbEntity
  8
0
100
AcDbSpline
210
0.0
220
0.0
230
1.0
 70
     8
 71
     3
 72
    11
 73
     7
 74
     5
 42
0.0000000001
 43
0.0000000001
 44
0.0000000001
 12
0.7396964647652066
 22
-0.6729406660425981
 32
0.0
 13
0.9999999920967447
 23
-0.0001257239463623
 33
0.0
 40
0.0
 40
0.0
 40
0.0
 40
0.0
 40
0.492701308851562
 40
1.012602749496731
 40
1.562968795359266
 40
2.142779877698069
 40
2.142779877698069
 40
2.142779877698069
 40
2.142779877698069
 10
3217.294019153627
 20
425.7330370582768
 30
0.0
 10
3217.415502292408
 20
425.6225174759639
 30
0.0
 10
3217.692248689979
 20
425.4238480108752
 30
0.0
 10
3218.171443956005
 20
425.211654847057
 30
0.0
 10
3218.709043196786
 20
425.0833117066797
 30
0.0
 10
3219.086534548976
 20
425.0562669070945
 30
0.0
 10
3219.279804908228
 20
425.0562426083821
 30
0.0
 11
3217.294019153627
 21
425.7330370582768
 31
0.0
 11
3217.692795785472
 21
425.4436726208655
 31
0.0
 11
3218.16695503751
 21
425.2304344636526
 31
0.0
 11
3218.70164994938
 21
425.1000345569869
 31
0.0
 11
3219.279804908228
 21
425.0562426083821
 31
0.0
  0
SPLINE
  5
379E
330
1F
100
AcDbEntity
  8
0
100
AcDbSpline
210
0.0
220
0.0
230
1.0
 70
     8
 71
     3
 72
    11
 73
     7
 74
     5
 42
0.0000000001
 43
0.0000000001
 44
0.0000000001
 12
0.6922941538003034
 22
-0.7216154132319528
 32
0.0
 13
0.9999995323136763
 23
-0.000967146539275
 33
0.0
 40
0.0
 40
0.0
 40
0.0
 40
0.0
 40
0.5474769005314481
 40
1.125923148364611
 40
1.740968932438019
 40
2.392512153712083
 40
2.392512153712083
 40
2.392512153712083
 40
2.392512153712083
 10
3217.104789486183
 20
425.6279038029328
 30
0.0
 10
3217.231127838709
 20
425.4962145463288
 30
0.0
 10
3217.526343822513
 20
425.2577079136929
 30
0.0
 10
3218.051862232038
 20
425.0019174768896
 30
0.0
 10
3218.650586279904
 20
424.8465769622162
 30
0.0
 10
3219.0737678763
 20
424.8136792942932
 30
0.0
 10
3219.290948848485
 20
424.8134692483692
 30
0.0
 11
3217.104789486183
 21
425.6279038029328
 31
0.0
 11
3217.52878019141
 21
425.2815472835822
 31
0.0
 11
3218.047164949239
 21
425.0248815389197
 31
0.0
 11
3218.641611525956
 21
424.8670379963344
 31
0.0
 11
3219.290948848485
 21
424.8134692483692
 31
0.0
  0
SPLINE
  5
379F
330
1F
100
AcDbEntity
  8
0
100
AcDbSpline
210
0.0
220
0.0
230
1.0
 70
     8
 71
     3
 72
    26
 73
    22
 74
    20
 42
0.0000000001
 43
0.0000000001
 44
0.0000000001
 12
0.9999999999999998
 22
-0.0000000153805295
 32
0.0
 13
0.2952473714763277
 23
0.9554208442546768
 33
0.0
 40
0.0
 40
0.0
 40
0.0
 40
0.0
 40
1.211609819852257
 40
2.43488472769228
 40
3.651751272789798
 40
4.842465432095165
 40
6.008852956566353
 40
7.175998161910431
 40
8.35392638105408
 40
9.534593020656091
 40
10.71040487525224
 40
11.87887656702639
 40
13.03810754658607
 40
14.18508003472194
 40
15.31486475036631
 40
16.42230095508323
 40
17.50965331816315
 40
18.58827676740603
 40
19.66938355126768
 40
20.76330687317178
 40
21.88013099868018
 40
21.88013099868018
 40
21.88013099868018
 40
21.88013099868018
 10
3233.27454931969
 20
441.9303050702318
 30
0.0
 10
3233.678419259641
 20
441.93030506402
 30
0.0
 10
3234.490333469767
 20
441.9612055280934
 30
0.0
 10
3235.701200461249
 20
442.0945228527087
 30
0.0
 10
3236.893348318669
 20
442.3084017819245
 30
0.0
 10
3238.050831985242
 20
442.5935291396387
 30
0.0
 10
3239.173042684097
 20
442.9432208251417
 30
0.0
 10
3240.268871406635
 20
443.3564213506847
 30
0.0
 10
3241.343296969167
 20
443.8342929060811
 30
0.0
 10
3242.390839330129
 20
444.3748619504027
 30
0.0
 10
3243.402554579339
 20
444.9736752438311
 30
0.0
 10
3244.371639158349
 20
445.6265878806517
 30
0.0
 10
3245.292692427707
 20
446.3299736782397
 30
0.0
 10
3246.159728506822
 20
447.079424369291
 30
0.0
 10
3246.966177302391
 20
447.8692746489638
 30
0.0
 10
3247.707102231296
 20
448.6944151638022
 30
0.0
 10
3248.381076232489
 20
449.5535839788318
 30
0.0
 10
3248.988568284752
 20
450.4505037397981
 30
0.0
 10
3249.528606574192
 20
451.392321227522
 30
0.0
 10
3249.995888764755
 20
452.3864987192994
 30
0.0
 10
3250.248650473281
 20
453.0801317025761
 30
0.0
 10
3250.358563602433
 20
453.4358107188686
 30
0.0
 11
3233.27454931969
 21
441.9303050702318
 31
0.0
 11
3234.485319026479
 21
441.9754168501166
 31
0.0
 11
3235.70133399985
 21
442.1084923350447
 31
0.0
 11
3236.899184134925
 21
442.3227800912941
 31
0.0
 11
3238.055438697351
 21
442.6071664412464
 31
0.0
 11
3239.169097211328
 21
442.9539005922735
 31
0.0
 11
3240.261245841716
 21
443.3655306440175
 31
0.0
 11
3241.337548338423
 21
443.8441618434159
 31
0.0
 11
3242.386736137402
 21
444.385621607704
 31
0.0
 11
3243.398520925546
 21
444.9846416907469
 31
0.0
 11
3244.367433670638
 21
445.6377375389008
 31
0.0
 11
3245.288520392804
 21
446.3415952761038
 31
0.0
 11
3246.155952563079
 21
447.0920000458863
 31
0.0
 11
3246.962696422003
 21
447.882934840792
 31
0.0
 11
3247.702095740967
 21
448.7073762241744
 31
0.0
 11
3248.372608508669
 21
449.5633831107376
 31
0.0
 11
3248.976732151844
 21
450.4569507741039
 31
0.0
 11
3249.513567426202
 21
451.3953535481389
 31
0.0
 11
3249.977688512141
 21
452.3859391586706
 31
0.0
 11
3250.358563602433
 21
453.4358107188686
 31
0.0
  0
SPLINE
  5
37A0
330
1F
100
AcDbEntity
  8
02___PRT_ALL_AXES
100
AcDbSpline
210
0.0
220
0.0
230
1.0
 70
     8
 71
     3
 72
    11
 73
     7
 74
     5
 42
0.0000000001
 43
0.0000000001
 44
0.0000000001
 12
0.2952473714839551
 22
0.9554208442523197
 32
0.0
 13
0.9995585327457236
 23
-0.0297109342703329
 33
0.0
 40
0.0
 40
0.0
 40
0.0
 40
0.0
 40
0.4227166485660387
 40
0.7572012397592008
 40
1.010479307066689
 40
1.116206264849715
 40
1.116206264849715
 40
1.116206264849715
 40
1.116206264849715
 10
3269.594839983254
 20
436.6254880249071
 30
0.0
 10
3269.636441976378
 20
436.7601121239912
 30
0.0
 10
3269.727635976793
 20
436.9975084779929
 30
0.0
 10
3269.910804448347
 20
437.282132509418
 30
0.0
 10
3270.10581284368
 20
437.4286142398615
 30
0.0
 10
3270.227339296007
 20
437.4418830727381
 30
0.0
 10
3270.262566056938
 20
437.440835990507
 30
0.0
 11
3269.594839983254
 21
436.6254880249071
 31
0.0
 11
3269.752618099615
 21
437.0176556306224
 31
0.0
 11
3269.944546192073
 21
437.2915964071984
 31
0.0
 11
3270.157544678447
 21
437.4286417434253
 31
0.0
 11
3270.262566056938
 21
437.440835990507
 31
0.0
  0
SPLINE
  5
37A1
330
1F
100
AcDbEntity
  8
0
100
AcDbSpline
210
0.0
220
0.0
230
1.0
 70
     8
 71
     3
 72
    11
 73
     7
 74
     5
 42
0.0000000001
 43
0.0000000001
 44
0.0000000001
 12
0.2952473706662931
 22
0.9554208445049964
 32
0.0
 13
0.9999191507352943
 23
-0.0127158166394356
 33
0.0
 40
0.0
 40
0.0
 40
0.0
 40
0.0
 40
0.3716365728563074
 40
0.6725213412746684
 40
0.905310547603317
 40
1.055188087151549
 40
1.055188087151549
 40
1.055188087151549
 40
1.055188087151549
 10
3274.0179874877
 20
436.5514729783888
 30
0.0
 10
3274.054562394693
 20
436.6698294211512
 30
0.0
 10
3274.134308820985
 20
436.8807934256476
 30
0.0
 10
3274.292841715887
 20
437.1392869840186
 30
0.0
 10
3274.469391548448
 20
437.2956431996501
 30
0.0
 10
3274.598993745159
 20
437.3236332359031
 30
0.0
 10
3274.648948885845
 20
437.3229979641327
 30
0.0
 11
3274.0179874877
 21
436.5514729783888
 31
0.0
 11
3274.154309101326
 21
436.8972043190896
 31
0.0
 11
3274.318874850672
 21
437.149096673099
 31
0.0
 11
3274.502191753211
 21
437.2925739459565
 31
0.0
 11
3274.648948885845
 21
437.3229979641327
 31
0.0
  0
SPLINE
  5
37A2
330
1F
100
AcDbEntity
  8
02___PRT_ALL_AXES
100
AcDbSpline
210
0.0
220
0.0
230
1.0
 70
     8
 71
     3
 72
    16
 73
    12
 74
    10
 42
0.0000000001
 43
0.0000000001
 44
0.0000000001
 12
-0.2952473714760123
 22
-0.9554208442547743
 32
0.0
 13
0.9998481274698082
 23
0.0174276216139287
 33
0.0
 40
0.0
 40
0.0
 40
0.0
 40
0.0
 40
0.4966653984048628
 40
1.042214936046748
 40
1.6060245570089
 40
2.155587697616765
 40
2.659858937204245
 40
3.092848613754636
 40
3.438526074527033
 40
3.700337317368686
 40
3.834300756163231
 40
3.834300756163231
 40
3.834300756163231
 40
3.834300756163231
 10
3269.594839983254
 20
436.6254880249071
 30
0.0
 10
3269.54596026546
 20
436.467313200155
 30
0.0
 10
3269.469484741085
 20
436.1271941688118
 30
0.0
 10
3269.411977450912
 20
435.5940691110594
 30
0.0
 10
3269.408546268768
 20
435.040167095494
 30
0.0
 10
3269.459521353031
 20
434.5023236435122
 30
0.0
 10
3269.560970839824
 20
434.0161810045748
 30
0.0
 10
3269.70674380744
 20
433.6114256260791
 30
0.0
 10
3269.886343130031
 20
433.3131764538145
 30
0.0
 10
3270.083674435908
 20
433.1452360911685
 30
0.0
 10
3270.217943058988
 20
433.1238972492261
 30
0.0
 10
3270.262590756797
 20
433.1246754706
 30
0.0
 11
3269.594839983254
 21
436.6254880249071
 31
0.0
 11
3269.481964160995
 21
436.1418191642989
 31
0.0
 11
3269.421682933528
 21
435.5996102823758
 31
0.0
 11
3269.418104366919
 21
435.0358120183216
 31
0.0
 11
3269.47147233459
 21
434.4888462922094
 31
0.0
 11
3269.578149897745
 21
433.9959879143822
 31
0.0
 11
3269.730867156653
 21
433.5908243686
 31
0.0
 11
3269.919216682505
 21
433.3009668812078
 31
0.0
 11
3270.130362766532
 21
433.146168760811
 31
0.0
 11
3270.262590756797
 21
433.1246754706
 31
0.0
  0
SPLINE
  5
37A3
330
1F
100
AcDbEntity
  8
0
100
AcDbSpline
210
0.0
220
0.0
230
1.0
 70
     8
 71
     3
 72
     8
 73
     4
 74
     2
 42
0.0000000001
 43
0.0000000001
 44
0.0000000001
 12
-0.2952473713891049
 22
-0.9554208442816307
 32
0.0
 13
-0.4486354718854433
 23
-0.893714838953749
 33
0.0
 40
0.0
 40
0.0
 40
0.0
 40
0.0
 40
0.2919677236337503
 40
0.2919677236337503
 40
0.2919677236337503
 40
0.2919677236337503
 10
3275.519342805696
 20
434.2825996367344
 30
0.0
 10
3275.490608571385
 20
434.1896156203953
 30
0.0
 10
3275.455995694801
 20
434.0979275249956
 30
0.0
 10
3275.412333335645
 20
434.0109488959599
 30
0.0
 11
3275.519342805696
 21
434.2825996367344
 31
0.0
 11
3275.412333335645
 21
434.0109488959599
 31
0.0
  0
SPLINE
  5
37A4
330
1F
100
AcDbEntity
  8
0
100
AcDbSpline
210
0.0
220
0.0
230
1.0
 70
     8
 71
     3
 72
    19
 73
    15
 74
    13
 42
0.0000000001
 43
0.0000000001
 44
0.0000000001
 12
-0.4486354720609941
 22
-0.8937148388656243
 32
0.0
 13
0.2952473714785304
 23
0.9554208442539962
 33
0.0
 40
0.0
 40
0.0
 40
0.0
 40
0.0
 40
0.2375535962061993
 40
0.4213453505960444
 40
0.5737512004249272
 40
0.7389145639330007
 40
0.9509927873712141
 40
1.219835507488193
 40
1.540588934956311
 40
1.900865222447085
 40
2.283993697951686
 40
2.671469752290578
 40
3.043999280498832
 40
3.382536358103147
 40
3.382536358103147
 40
3.382536358103147
 40
3.382536358103147
 10
3275.412333335645
 20
434.0109488959599
 30
0.0
 10
3275.376808345721
 20
433.9401805046414
 30
0.0
 10
3275.302909824433
 20
433.819665917934
 30
0.0
 10
3275.155583420746
 20
433.6884312896378
 30
0.0
 10
3274.979282792638
 20
433.6598131001049
 30
0.0
 10
3274.816957790881
 20
433.7507167415388
 30
0.0
 10
3274.683246970941
 20
433.9225309498624
 30
0.0
 10
3274.569217728842
 20
434.1659425688122
 30
0.0
 10
3274.480739765165
 20
434.470879755806
 30
0.0
 10
3274.422035541922
 20
434.8213850957298
 30
0.0
 10
3274.396836372758
 20
435.198062494811
 30
0.0
 10
3274.406628170411
 20
435.5795486824751
 30
0.0
 10
3274.4507361666
 20
435.9436019976244
 30
0.0
 10
3274.504361016387
 20
436.175206223278
 30
0.0
 10
3274.53767841049
 20
436.2830213501101
 30
0.0
 11
3275.412333335645
 21
434.0109488959599
 31
0.0
 11
3275.282579890801
 21
433.8119620757391
 31
0.0
 11
3275.137992517997
 21
433.6984988631662
 31
0.0
 11
3274.987072460823
 21
433.6772696520494
 31
0.0
 11
3274.838532715354
 21
433.7494837826702
 31
0.0
 11
3274.701047218993
 21
433.9109610601648
 31
0.0
 11
3274.582619411271
 21
434.1523140434031
 31
0.0
 11
3274.490159167872
 21
434.4594522283023
 31
0.0
 11
3274.429037430144
 21
434.814505937627
 31
0.0
 11
3274.402809383733
 21
435.1967356046126
 31
0.0
 11
3274.412995880314
 21
435.5840777375822
 31
0.0
 11
3274.458983316077
 21
435.9537578765388
 31
0.0
 11
3274.53767841049
 21
436.2830213501101
 31
0.0
  0
SPLINE
  5
37A5
330
1F
100
AcDbEntity
  8
0
100
AcDbSpline
210
0.0
220
0.0
230
1.0
 70
     8
 71
     3
 72
    11
 73
     7
 74
     5
 42
0.0000000001
 43
0.0000000001
 44
0.0000000001
 12
-0.9999995323639941
 22
0.0009670945108261
 32
0.0
 13
-0.7020311661163145
 23
0.7121462222053613
 33
0.0
 40
0.0
 40
0.0
 40
0.0
 40
0.0
 40
0.651362115172045
 40
1.266555589885187
 40
1.845046027168237
 40
2.3634533264137
 40
2.3634533264137
 40
2.3634533264137
 40
2.3634533264137
 10
3214.899097936897
 20
434.6955758803984
 30
0.0
 10
3214.681977333373
 20
434.6957858566404
 30
0.0
 10
3214.258802700511
 20
434.728677933679
 30
0.0
 10
3213.660090262637
 20
434.8839810584224
 30
0.0
 10
3213.143213404993
 20
435.1355860492711
 30
0.0
 10
3212.854651524453
 20
435.3659734866706
 30
0.0
 10
3212.733338830849
 20
435.4890340865777
 30
0.0
 11
3214.899097936897
 21
434.6955758803984
 31
0.0
 11
3214.249939830347
 21
434.7491142571215
 31
0.0
 11
3213.655345446471
 21
434.9069766338701
 31
0.0
 11
3213.136920128679
 21
435.163660049579
 31
0.0
 11
3212.733338830849
 21
435.4890340865777
 31
0.0
  0
SPLINE
  5
37A6
330
1F
100
AcDbEntity
  8
0
100
AcDbSpline
210
0.0
220
0.0
230
1.0
 70
     8
 71
     3
 72
     8
 73
     4
 74
     2
 42
0.0000000001
 43
0.0000000001
 44
0.0000000001
 12
-0.7020311660575329
 22
0.7121462222633081
 32
0.0
 13
-0.6922941600600884
 23
0.7216154072265204
 33
0.0
 40
0.0
 40
0.0
 40
0.0
 40
0.0
 40
0.0292602101938683
 40
0.0292602101938683
 40
0.0292602101938683
 40
0.0292602101938683
 10
3212.733338830849
 20
435.4890340865777
 30
0.0
 10
3212.726491637689
 20
435.4959799359617
 30
0.0
 10
3212.719691233229
 20
435.5029722282782
 30
0.0
 10
3212.712939009016
 20
435.5100104344431
 30
0.0
 11
3212.733338830849
 21
435.4890340865777
 31
0.0
 11
3212.712939009016
 21
435.5100104344431
 31
0.0
  0
SPLINE
  5
37A7
330
1F
100
AcDbEntity
  8
0
100
AcDbSpline
210
0.0
220
0.0
230
1.0
 70
     8
 71
     3
 72
    20
 73
    16
 74
    14
 42
0.0000000001
 43
0.0000000001
 44
0.0000000001
 12
0.2952473714714249
 22
0.9554208442561918
 32
0.0
 13
-0.2952473714714249
 23
-0.9554208442561918
 33
0.0
 40
0.0
 40
0.0
 40
0.0
 40
0.0
 40
0.2919677236341895
 40
0.5295213199594228
 40
0.7133130742282436
 40
0.8657189240692172
 40
1.030882287654971
 40
1.242960511158841
 40
1.511803231238015
 40
1.832556658623245
 40
2.192832946114062
 40
2.575961421705094
 40
2.963437475957694
 40
3.335967004251803
 40
3.674504081855997
 40
3.674504081855997
 40
3.674504081855997
 40
3.674504081855997
 10
3274.53767841049
 20
436.2830213501101
 30
0.0
 10
3274.566412644809
 20
436.3760053664468
 30
0.0
 10
3274.629090260283
 20
436.5420997388168
 30
0.0
 10
3274.754095757349
 20
436.745923924011
 30
0.0
 10
3274.901440804983
 20
436.877195692308
 30
0.0
 10
3275.077737618472
 20
436.9058062830509
 30
0.0
 10
3275.240063717605
 20
436.8149048274842
 30
0.0
 10
3275.373774133738
 20
436.6430898147399
 30
0.0
 10
3275.487803527048
 20
436.3996784971956
 30
0.0
 10
3275.576281438074
 20
436.0947412052637
 30
0.0
 10
3275.634985678165
 20
435.7442358989414
 30
0.0
 10
3275.660184842344
 20
435.3675584899241
 30
0.0
 10
3275.650393046051
 20
434.986072304962
 30
0.0
 10
3275.606285049525
 20
434.6220189891043
 30
0.0
 10
3275.552660199799
 20
434.3904147635666
 30
0.0
 10
3275.519342805696
 20
434.2825996367344
 30
0.0
 11
3274.53767841049
 21
436.2830213501101
 31
0.0
 11
3274.644687880542
 21
436.5546720908847
 31
0.0
 11
3274.774441325472
 21
436.7536589111916
 31
0.0
 11
3274.91902869819
 21
436.8671221236779
 31
0.0
 11
3275.069948755364
 21
436.8883513348816
 31
0.0
 11
3275.218488500919
 21
436.8161372042608
 31
0.0
 11
3275.35597399728
 21
436.65465992668
 31
0.0
 11
3275.474401804916
 21
436.4133069434414
 31
0.0
 11
3275.566862048314
 21
436.1061687586285
 31
0.0
 11
3275.627983786043
 21
435.7511150493039
 31
0.0
 11
3275.654211832455
 21
435.3688853822317
 31
0.0
 11
3275.644025335873
 21
434.9815432493485
 31
0.0
 11
3275.59803790011
 21
434.6118631103053
 31
0.0
 11
3275.519342805696
 21
434.2825996367344
 31
0.0
  0
SPLINE
  5
37A8
330
1F
100
AcDbEntity
  8
0
100
AcDbSpline
210
0.0
220
0.0
230
1.0
 70
     8
 71
     3
 72
    14
 73
    10
 74
     8
 42
0.0000000001
 43
0.0000000001
 44
0.0000000001
 12
-1.0
 22
0.0
 32
0.0
 13
-0.5365699461739232
 23
-0.8438558483905371
 33
0.0
 40
0.0
 40
0.0
 40
0.0
 40
0.0
 40
1.237341426256135
 40
2.522141239627707
 40
3.829971287407606
 40
5.13374128997224
 40
6.406821927482737
 40
7.626185566418238
 40
7.869343957941158
 40
7.869343957941158
 40
7.869343957941158
 40
7.869343957941158
 10
3238.614860209047
 20
457.7953495346799
 30
0.0
 10
3238.202413066962
 20
457.7953495346799
 30
0.0
 10
3237.360386242931
 20
457.7188230974632
 30
0.0
 10
3236.119231807097
 20
457.3998441526351
 30
0.0
 10
3234.920172071277
 20
456.8879195309604
 30
0.0
 10
3233.814325035112
 20
456.2046672699369
 30
0.0
 10
3232.848642453489
 20
455.3791949365392
 30
0.0
 10
3232.258666146347
 20
454.6768833453365
 30
0.0
 10
3231.989059130416
 20
454.2706237850471
 30
0.0
 10
3231.945568635399
 20
454.2022269081232
 30
0.0
 11
3238.614860209047
 21
457.7953495346799
 31
0.0
 11
3237.382173420999
 21
457.6881250612526
 31
0.0
 11
3236.137091223773
 21
457.3711378649966
 31
0.0
 11
3234.934029684175
 21
456.8582418074798
 31
0.0
 11
3233.82556836434
 21
456.1718529074989
 31
0.0
 11
3232.860152342766
 21
455.3419696537263
 31
0.0
 11
3232.079974932442
 21
454.4048619265263
 31
0.0
 11
3231.945568635399
 21
454.2022269081232
 31
0.0
  0
SPLINE
  5
37A9
330
1F
100
AcDbEntity
  8
0
100
AcDbSpline
210
0.0
220
0.0
230
1.0
 70
     8
 71
     3
 72
    13
 73
     9
 74
     7
 42
0.0000000001
 43
0.0000000001
 44
0.0000000001
 12
0.9999999999999998
 22
-0.0000000154129269
 32
0.0
 13
0.4406829283239949
 23
-0.8976628301783408
 33
0.0
 40
0.0
 40
0.0
 40
0.0
 40
0.0
 40
1.223231904861698
 40
2.408027756365099
 40
3.53858297555558
 40
4.610253161535293
 40
5.633754564147695
 40
6.223254158599349
 40
6.223254158599349
 40
6.223254158599349
 40
6.223254158599349
 10
3235.338383533219
 20
466.6780825441646
 30
0.0
 10
3235.746127501506
 20
466.6780825378801
 30
0.0
 10
3236.550381921903
 20
466.6215062758483
 30
0.0
 10
3237.703978436978
 20
466.3499575543335
 30
0.0
 10
3238.744129434559
 20
465.8925054541455
 30
0.0
 10
3239.624902954128
 20
465.2611072406257
 30
0.0
 10
3240.220583161169
 20
464.5814219469825
 30
0.0
 10
3240.491739455745
 20
464.114970250607
 30
0.0
 10
3240.578333591587
 20
463.9385796258255
 30
0.0
 11
3235.338383533219
 21
466.6780825441646
 31
0.0
 11
3236.558258279453
 21
466.5875182213262
 31
0.0
 11
3237.710198812552
 21
466.3104366125104
 31
0.0
 11
3238.742449148564
 21
465.8493353791118
 31
0.0
 11
3239.61000922203
 21
465.2201958823024
 31
0.0
 11
3240.28195626939
 21
464.448158132776
 31
0.0
 11
3240.578333591587
 21
463.9385796258255
 31
0.0
  0
SPLINE
  5
37AA
330
1F
100
AcDbEntity
  8
0
100
AcDbSpline
210
0.0
220
0.0
230
1.0
 70
     8
 71
     3
 72
     8
 73
     4
 74
     2
 42
0.0000000001
 43
0.0000000001
 44
0.0000000001
 12
1.0
 22
0.0
 32
0.0
 13
0.9905182120585006
 23
-0.1373814819414573
 33
0.0
 40
0.0
 40
0.0
 40
0.0
 40
0.0
 40
1.116398813717286
 40
1.116398813717286
 40
1.116398813717286
 40
1.116398813717286
 10
3239.033150815882
 20
459.1489384345551
 30
0.0
 10
3239.405283753788
 20
459.1489384345551
 30
0.0
 10
3239.778413737376
 20
459.1249241710629
 30
0.0
 10
3240.147018189678
 20
459.0737999965742
 30
0.0
 11
3239.033150815882
 21
459.1489384345551
 31
0.0
 11
3240.147018189678
 21
459.0737999965742
 31
0.0
  0
SPLINE
  5
37AB
330
1F
100
AcDbEntity
  8
0
100
AcDbSpline
210
0.0
220
0.0
230
1.0
 70
     8
 71
     3
 72
    14
 73
    10
 74
     8
 42
0.0000000001
 43
0.0000000001
 44
0.0000000001
 12
-1.0
 22
0.0
 32
0.0
 13
-0.4954279128591896
 23
-0.8686490563858267
 33
0.0
 40
0.0
 40
0.0
 40
0.0
 40
0.0
 40
1.478158544847705
 40
3.01111309811466
 40
4.573576560749684
 40
6.137249755062619
 40
7.673712992481451
 40
9.157313530001772
 40
10.41155203946296
 40
10.41155203946296
 40
10.41155203946296
 40
10.41155203946296
 10
3239.033150815882
 20
459.1489384345551
 30
0.0
 10
3238.540431300933
 20
459.1489384345551
 30
0.0
 10
3237.535313037146
 20
459.063370789441
 30
0.0
 10
3236.048290685296
 20
458.7047304484673
 30
0.0
 10
3234.601126817517
 20
458.1267551063532
 30
0.0
 10
3233.248351612711
 20
457.3511618075206
 30
0.0
 10
3232.040311092923
 20
456.406715386548
 30
0.0
 10
3231.058362056796
 20
455.3665196517353
 30
0.0
 10
3230.539851510896
 20
454.6103990296126
 30
0.0
 10
3230.332723255239
 20
454.2472346637039
 30
0.0
 11
3239.033150815882
 21
459.1489384345551
 31
0.0
 11
3237.559894966916
 21
459.0286475903728
 31
0.0
 11
3236.068910149335
 21
458.6723977677423
 31
0.0
 11
3234.617494073503
 21
458.0938794474735
 31
0.0
 11
3233.261423845373
 21
457.3153247641071
 31
0.0
 11
3232.052812483163
 21
456.3666531375278
 31
0.0
 11
3231.03810624387
 21
455.2843214864751
 31
0.0
 11
3230.332723255239
 21
454.2472346637039
 31
0.0
  0
SPLINE
  5
37AC
330
1F
100
AcDbEntity
  8
0
100
AcDbSpline
210
0.0
220
0.0
230
1.0
 70
     8
 71
     3
 72
     8
 73
     4
 74
     2
 42
0.0000000001
 43
0.0000000001
 44
0.0000000001
 12
1.0
 22
0.0
 32
0.0
 13
0.9959007106131222
 23
-0.0904531624669819
 33
0.0
 40
0.0
 40
0.0
 40
0.0
 40
0.0
 40
0.5886102526879348
 40
0.5886102526879348
 40
0.5886102526879348
 40
0.5886102526879348
 10
3238.614860209047
 20
457.7953495346799
 30
0.0
 10
3238.81106362661
 20
457.7953495346799
 30
0.0
 10
3239.007485691103
 20
457.7868461648163
 30
0.0
 10
3239.202884814078
 20
457.769098945211
 30
0.0
 11
3238.614860209047
 21
457.7953495346799
 31
0.0
 11
3239.202884814078
 21
457.769098945211
 31
0.0
  0
SPLINE
  5
37AD
330
1F
100
AcDbEntity
  8
0
100
AcDbSpline
210
0.0
220
0.0
230
1.0
 70
     8
 71
     3
 72
    20
 73
    16
 74
    14
 42
0.0000000001
 43
0.0000000001
 44
0.0000000001
 12
0.2952473714731493
 22
0.9554208442556589
 32
0.0
 13
-0.8871702219394293
 23
0.4614423011644508
 33
0.0
 40
0.0
 40
0.0
 40
0.0
 40
0.0
 40
1.143275902254857
 40
2.195999842172786
 40
3.18118168491839
 40
4.119639603650516
 40
5.030907663906108
 40
5.93255309922796
 40
6.83207303832146
 40
7.732336167346504
 40
8.638752188400539
 40
9.557496578411676
 40
10.49506389386438
 40
11.45502479017358
 40
11.98651780113837
 40
11.98651780113837
 40
11.98651780113837
 40
11.98651780113837
 10
3250.358563602433
 20
453.4358107188686
 30
0.0
 10
3250.471080004103
 20
453.7999139281184
 30
0.0
 10
3250.65173701886
 20
454.5109787787169
 30
0.0
 10
3250.80122953382
 20
455.5627635542456
 30
0.0
 10
3250.833522958115
 20
456.5563563185996
 30
0.0
 10
3250.759835168649
 20
457.5003951015389
 30
0.0
 10
3250.585840050231
 20
458.4028724455835
 30
0.0
 10
3250.313180330728
 20
459.2670650385295
 30
0.0
 10
3249.942717222674
 20
460.0900964136815
 30
0.0
 10
3249.47719743584
 20
460.8651877938403
 30
0.0
 10
3248.920734275209
 20
461.5858448195615
 30
0.0
 10
3248.277280136909
 20
462.2473720569648
 30
0.0
 10
3247.551247183791
 20
462.8453124459711
 30
0.0
 10
3246.874114658952
 20
463.292008296653
 30
0.0
 10
3246.439052946739
 20
463.5330534301326
 30
0.0
 10
3246.281878022573
 20
463.6148045494768
 30
0.0
 11
3250.358563602433
 21
453.4358107188686
 31
0.0
 11
3250.63819119841
 21
454.5443630163471
 31
0.0
 11
3250.784748809425
 21
455.5868353470734
 31
0.0
 11
3250.815440583101
 21
456.5715389970637
 31
0.0
 11
3250.741394428177
 21
457.5070711622895
 31
0.0
 11
3250.568154059386
 21
458.4017203964942
 31
0.0
 11
3250.296440848906
 21
459.2614508323213
 31
0.0
 11
3249.927136290576
 21
460.0816643801389
 31
0.0
 11
3249.46383110282
 21
460.8535594536304
 31
0.0
 11
3248.910318502848
 21
461.5713434078223
 31
0.0
 11
3248.270344501507
 21
462.2305281556623
 31
0.0
 11
3247.54730659347
 21
462.8273938478796
 31
0.0
 11
3246.746679250005
 21
463.3570359717134
 31
0.0
 11
3246.281878022573
 21
463.6148045494768
 31
0.0
  0
SPLINE
  5
3820
330
1F
100
AcDbEntity
  8
0
100
AcDbSpline
210
0.0
220
0.0
230
1.0
 70
     8
 71
     3
 72
    15
 73
    11
 74
     9
 42
0.0000000001
 43
0.0000000001
 44
0.0000000001
 12
-1.0
 22
0.0
 32
0.0
 13
0.0
 23
-1.0
 33
0.0
 40
0.0
 40
0.0
 40
0.0
 40
0.0
 40
0.8787477237752716
 40
1.723725913071353
 40
2.502351068060679
 40
3.184828171222547
 40
3.74466126033134
 40
4.160810187600915
 40
4.417280340741058
 40
4.507096499114731
 40
4.507096499114731
 40
4.507096499114731
 40
4.507096499114731
 10
3325.082614967912
 20
549.8191363470051
 30
0.0
 10
3324.789699059987
 20
549.8191363470051
 30
0.0
 10
3324.215238223721
 20
549.8173474219652
 30
0.0
 10
3323.380658721447
 20
549.8098238094211
 30
0.0
 10
3322.613649464549
 20
549.7965555388078
 30
0.0
 10
3321.935365265729
 20
549.7820124616683
 30
0.0
 10
3321.396255494341
 20
549.755751130236
 30
0.0
 10
3320.954127861765
 20
549.7480829744163
 30
0.0
 10
3320.758949932975
 20
549.6993313957122
 30
0.0
 10
3320.582614967912
 20
549.7085186807631
 30
0.0
 10
3320.582614967912
 20
549.6785799613053
 30
0.0
 11
3325.082614967912
 21
549.8191363470051
 31
0.0
 11
3324.203871410412
 21
549.8164303920051
 31
0.0
 11
3323.358931226212
 21
549.8084163100052
 31
0.0
 11
3322.580414813113
 21
549.7954037577053
 31
0.0
 11
3321.898162439112
 21
549.7778910620052
 31
0.0
 11
3321.338735771712
 21
549.7565628773052
 31
0.0
 11
3320.923298947812
 21
549.7322282309053
 31
0.0
 11
3320.668187831212
 21
549.7058604923052
 31
0.0
 11
3320.582614967912
 21
549.6785799613053
 31
0.0
  0
SPLINE
  5
3821
330
1F
100
AcDbEntity
  8
0
100
AcDbSpline
210
0.0
220
0.0
230
1.0
 70
     8
 71
     3
 72
    15
 73
    11
 74
     9
 42
0.0000000001
 43
0.0000000001
 44
0.0000000001
 12
0.0
 22
1.0
 32
0.0
 13
-1.0
 23
0.0
 33
0.0
 40
0.0
 40
0.0
 40
0.0
 40
0.0
 40
0.0908626594292801
 40
0.3487458468961408
 40
0.7659883122836002
 40
1.326973799987657
 40
2.009959785658846
 40
2.789065504121026
 40
3.633306296297903
 40
4.507085118091591
 40
4.507085118091591
 40
4.507085118091591
 40
4.507085118091591
 10
3363.582614967912
 20
549.6785799613053
 30
0.0
 10
3363.582614967912
 20
549.7088675144484
 30
0.0
 10
3363.404858487446
 20
549.6992477137061
 30
0.0
 10
3363.208801857742
 20
549.7483407335891
 30
0.0
 10
3362.765381749877
 20
549.7558742552228
 30
0.0
 10
3362.225362715848
 20
549.7821582368081
 30
0.0
 10
3361.546366336814
 20
549.7966577929878
 30
0.0
 10
3360.779270282058
 20
549.8098901579748
 30
0.0
 10
3359.946434236238
 20
549.8173628003391
 30
0.0
 10
3359.373874575177
 20
549.8191363470051
 30
0.0
 10
3359.082614967912
 20
549.8191363470051
 30
0.0
 11
3363.582614967912
 21
549.6785799613053
 31
0.0
 11
3363.495996328112
 21
549.7060250723052
 31
0.0
 11
3363.239466894012
 21
549.7324142333052
 31
0.0
 11
3362.822933524512
 21
549.7567293935053
 31
0.0
 11
3362.262352891113
 21
549.7780383323052
 31
0.0
 11
3361.579590486812
 21
549.7955127678053
 31
0.0
 11
3360.800592855112
 21
549.808490069005
 31
0.0
 11
3359.956389694612
 21
549.8164612030052
 31
0.0
 11
3359.082614967912
 21
549.8191363470051
 31
0.0
  0
SPLINE
  5
3822
330
1F
100
AcDbEntity
  8
02___PRT_ALL_AXES
100
AcDbSpline
210
0.0
220
0.0
230
1.0
 70
     8
 71
     3
 72
    21
 73
    17
 74
    15
 42
0.0000000001
 43
0.0000000001
 44
0.0000000001
 12
1.0
 22
0.0
 32
0.0
 13
-1.0
 23
0.0
 33
0.0
 40
0.0
 40
0.0
 40
0.0
 40
0.0
 40
0.8584936295353607
 40
1.717182756139781
 40
2.576244911590821
 40
3.435747721199375
 40
4.295716458567063
 40
5.156066115432805
 40
6.016596801536197
 40
6.877142806150367
 40
7.737485806276311
 40
8.597448011290886
 40
9.456964375837268
 40
10.31601416762059
 40
11.17470311624151
 40
12.03319376205364
 40
12.03319376205364
 40
12.03319376205364
 40
12.03319376205364
 10
3342.082614967913
 20
516.6985799613049
 30
0.0
 10
3342.368779511092
 20
516.6985799613049
 30
0.0
 10
3342.943242853687
 20
516.763216911698
 30
0.0
 10
3343.760269564947
 20
517.0492690082595
 30
0.0
 10
3344.493874389249
 20
517.5102271330648
 30
0.0
 10
3345.106696017453
 20
518.1231566297237
 30
0.0
 10
3345.568030706518
 20
518.857452268106
 30
0.0
 10
3345.854522019413
 20
519.6763137916129
 30
0.0
 10
3345.951663250466
 20
520.5385849728648
 30
0.0
 10
3345.854520550024
 20
521.4008540821636
 30
0.0
 10
3345.568026485252
 20
522.2197152436977
 30
0.0
 10
3345.10669082075
 20
522.9540102489785
 30
0.0
 10
3344.493868837456
 20
523.5669372766039
 30
0.0
 10
3343.760262822288
 20
524.0278936292622
 30
0.0
 10
3342.943240778399
 20
524.3139433655206
 30
0.0
 10
3342.368778516517
 20
524.3785799613051
 30
0.0
 10
3342.082614967913
 20
524.3785799613051
 30
0.0
 11
3342.082614967913
 21
516.6985799613049
 31
0.0
 11
3342.935709552412
 21
516.7947097790052
 31
0.0
 11
3343.746203729712
 21
517.0783401806049
 31
0.0
 11
3344.473573444212
 21
517.5354190418052
 31
0.0
 11
3345.081306187412
 21
518.1432068276052
 31
0.0
 11
3345.538808505312
 21
518.8713811600051
 31
0.0
 11
3345.822940832412
 21
519.6834589597052
 31
0.0
 11
3345.919280186612
 21
520.538579881305
 31
0.0
 11
3345.822937438013
 21
521.3937158359051
 31
0.0
 11
3345.538804792912
 21
522.2057864719052
 31
0.0
 11
3345.081304951212
 21
522.9339546454051
 31
0.0
 11
3344.473561229512
 21
523.5417506224051
 31
0.0
 11
3343.746200863112
 21
523.998821122605
 31
0.0
 11
3342.935706625112
 21
524.282450811905
 31
0.0
 11
3342.082614967913
 21
524.3785799613051
 31
0.0
  0
SPLINE
  5
3823
330
1F
100
AcDbEntity
  8
0
100
AcDbSpline
210
0.0
220
0.0
230
1.0
 70
     8
 71
     3
 72
    11
 73
     7
 74
     5
 42
0.0000000001
 43
0.0000000001
 44
0.0000000001
 12
0.9998201869587777
 22
0.0189629573040386
 32
0.0
 13
0.9999988804829346
 23
0.0014963398268509
 33
0.0
 40
0.0
 40
0.0
 40
0.0
 40
0.0
 40
0.078193974221765
 40
0.3105572009540356
 40
0.6889955718033243
 40
1.200013571630759
 40
1.200013571630759
 40
1.200013571630759
 40
1.200013571630759
 10
3320.582614974412
 20
527.9785794490051
 30
0.0
 10
3320.608674945721
 20
527.9790737120033
 30
0.0
 10
3320.712184826153
 20
527.9805673746079
 30
0.0
 10
3320.941854462672
 20
527.9808534770027
 30
0.0
 10
3321.31578966884
 20
527.982176654619
 30
0.0
 10
3321.612275825335
 20
527.9825720878768
 30
0.0
 10
3321.782614967912
 20
527.9828269734053
 30
0.0
 11
3320.582614974412
 21
527.9785794490051
 31
0.0
 11
3320.660800345212
 21
527.9797393617051
 31
0.0
 11
3320.893160867812
 21
527.9808603766053
 31
0.0
 11
3321.271597805312
 21
527.9819019460053
 31
0.0
 11
3321.782614967912
 21
527.9828269734053
 31
0.0
  0
SPLINE
  5
3824
330
1F
100
AcDbEntity
  8
0
100
AcDbSpline
210
0.0
220
0.0
230
1.0
 70
     8
 71
     3
 72
    11
 73
     7
 74
     5
 42
0.0000000001
 43
0.0000000001
 44
0.0000000001
 12
0.9999988803763063
 22
-0.0014964110844898
 32
0.0
 13
0.9998202843791908
 23
-0.018957820125589
 33
0.0
 40
0.0
 40
0.0
 40
0.0
 40
0.0
 40
0.5110123066955329
 40
0.8894188605045108
 40
1.121760599586999
 40
1.200013564863425
 40
1.200013564863425
 40
1.200013564863425
 40
1.200013564863425
 10
3362.382614967912
 20
546.3828269274052
 30
0.0
 10
3362.552952212764
 20
546.3825720325785
 30
0.0
 10
3362.849425864145
 20
546.3821765090098
 30
0.0
 10
3363.223341410242
 20
546.3808538546873
 30
0.0
 10
3363.453012932975
 20
546.3805671762083
 30
0.0
 10
3363.556535322315
 20
546.3790739576851
 30
0.0
 10
3363.582614956313
 20
546.3785794558051
 30
0.0
 11
3362.382614967912
 21
546.3828269274052
 31
0.0
 11
3362.893626437412
 21
546.3819019226051
 31
0.0
 11
3363.272031558213
 21
546.3808605210052
 31
0.0
 11
3363.504370594312
 21
546.3797397961052
 31
0.0
 11
3363.582614956313
 21
546.3785794558051
 31
0.0
  0
SPLINE
  5
3825
330
1F
100
AcDbEntity
  8
0
100
AcDbSpline
210
0.0
220
0.0
230
1.0
 70
     8
 71
     3
 72
    11
 73
     7
 74
     5
 42
0.0000000001
 43
0.0000000001
 44
0.0000000001
 12
-0.9998202226111242
 22
0.0189610774441141
 32
0.0
 13
-0.9999988803761835
 23
0.001496411166575
 33
0.0
 40
0.0
 40
0.0
 40
0.0
 40
0.0
 40
0.0782134326071257
 40
0.3105765813316226
 40
0.6890051887565399
 40
1.200013565842664
 40
1.200013565842664
 40
1.200013565842664
 40
1.200013565842664
 10
3363.582614956313
 20
527.9785794566053
 30
0.0
 10
3363.556548499113
 20
527.9790737935895
 30
0.0
 10
3363.453032156222
 20
527.9805673397078
 30
0.0
 10
3363.223359316932
 20
527.9808536322252
 30
0.0
 10
3362.849430596737
 20
527.98217657433
 30
0.0
 10
3362.552950902895
 20
527.9825720343246
 30
0.0
 10
3362.382614967912
 20
527.9828269272051
 30
0.0
 11
3363.582614956313
 21
527.9785794566053
 31
0.0
 11
3363.504410127012
 21
527.9797395058052
 31
0.0
 11
3363.272049682112
 21
527.9808604568052
 31
0.0
 11
3362.893622507812
 21
527.9819019311053
 31
0.0
 11
3362.382614967912
 21
527.9828269272051
 31
0.0
  0
SPLINE
  5
3826
330
1F
100
AcDbEntity
  8
02___PRT_ALL_AXES
100
AcDbSpline
210
0.0
220
0.0
230
1.0
 70
     8
 71
     3
 72
    21
 73
    17
 74
    15
 42
0.0000000001
 43
0.0000000001
 44
0.0000000001
 12
-1.0
 22
0.0
 32
0.0
 13
1.0
 23
0.0
 33
0.0
 40
0.0
 40
0.0
 40
0.0
 40
0.0
 40
0.8584501963127003
 40
1.717114439848893
 40
2.576154438740996
 40
3.435673306387143
 40
4.295648667428364
 40
5.156013522977898
 40
6.016585650566157
 40
6.877143703402697
 40
7.737517987057445
 40
8.59750495003036
 40
9.457015026548564
 40
10.31607183650644
 40
11.17473958325884
 40
12.03319376094168
 40
12.03319376094168
 40
12.03319376094168
 40
12.03319376094168
 10
3342.082614967913
 20
524.3785799613051
 30
0.0
 10
3341.796464902476
 20
524.3785799613051
 30
0.0
 10
3341.222024650089
 20
524.3139489218237
 30
0.0
 10
3340.405022765031
 20
524.0279189857194
 30
0.0
 10
3339.671417528134
 20
523.5669819308855
 30
0.0
 10
3339.058582268372
 20
522.954065324946
 30
0.0
 10
3338.597227096462
 20
522.2197674175588
 30
0.0
 10
3338.31071574502
 20
521.4008901346573
 30
0.0
 10
3338.213564655187
 20
520.5385960354126
 30
0.0
 10
3338.310709414393
 20
519.6762983559493
 30
0.0
 10
3338.597214748679
 20
518.8574162857118
 30
0.0
 10
3339.058568153921
 20
518.1231121385924
 30
0.0
 10
3339.671404717616
 20
517.5101878211561
 30
0.0
 10
3340.405011605288
 20
517.0492454516604
 30
0.0
 10
3341.222020794138
 20
516.7632115931472
 30
0.0
 10
3341.796463575352
 20
516.6985799613049
 30
0.0
 10
3342.082614967913
 20
516.6985799613049
 30
0.0
 11
3342.082614967913
 21
524.3785799613051
 31
0.0
 11
3341.229562995512
 21
524.2824598701051
 31
0.0
 11
3340.419088145812
 21
523.9988495721052
 31
0.0
 11
3339.691727672212
 21
523.5417976482051
 31
0.0
 11
3339.083970437212
 21
522.9340116438049
 31
0.0
 11
3338.626451028812
 21
522.2058402268052
 31
0.0
 11
3338.342300879713
 21
521.3937525607051
 31
0.0
 11
3338.245949749313
 21
520.538591262205
 31
0.0
 11
3338.342292698912
 21
519.6834432058052
 31
0.0
 11
3338.626439193712
 21
518.8713442725051
 31
0.0
 11
3339.083960709412
 21
518.1431604776052
 31
0.0
 11
3339.691708557213
 21
517.5353775187049
 31
0.0
 11
3340.419081359812
 21
517.0783136186051
 31
0.0
 11
3341.229559089411
 21
516.7947009441051
 31
0.0
 11
3342.082614967913
 21
516.6985799613049
 31
0.0
  0
SPLINE
  5
3827
330
1F
100
AcDbEntity
  8
0
100
AcDbSpline
210
0.0
220
0.0
230
1.0
 70
     8
 71
     3
 72
    11
 73
     7
 74
     5
 42
0.0000000001
 43
0.0000000001
 44
0.0000000001
 12
-0.9999988804826831
 22
-0.0014963399948869
 32
0.0
 13
-0.9998202560001853
 23
-0.0189593167525594
 33
0.0
 40
0.0
 40
0.0
 40
0.0
 40
0.0
 40
0.5110270479475791
 40
0.8894393722754843
 40
1.121774981940095
 40
1.200013570526636
 40
1.200013570526636
 40
1.200013570526636
 40
1.200013570526636
 10
3321.782614967912
 20
546.3828269735052
 30
0.0
 10
3321.612272809297
 20
546.3825720834351
 30
0.0
 10
3321.315792320209
 20
546.3821765764902
 30
0.0
 10
3320.941871981561
 20
546.3808537227229
 30
0.0
 10
3320.712205368775
 20
546.3805671733746
 30
0.0
 10
3320.608689816302
 20
546.3790738981663
 30
0.0
 10
3320.582614974412
 20
546.3785794481053
 30
0.0
 11
3321.782614967912
 21
546.3828269735052
 31
0.0
 11
3321.271588757213
 21
546.3819019262053
 31
0.0
 11
3320.893177866113
 21
546.380860436805
 31
0.0
 11
3320.660844959612
 21
546.3797396893053
 31
0.0
 11
3320.582614974412
 21
546.3785794481053
 31
0.0
  0
LINE
  5
38D1
330
1F
100
AcDbEntity
  8
0
100
AcDbLine
 10
3275.534186258131
 20
434.1550527629581
 30
0.0
 11
3275.640118425763
 21
434.624345468987
 31
0.0
  0
LINE
  5
38D2
330
1F
100
AcDbEntity
  8
0
100
AcDbLine
 10
3275.640118425763
 20
434.624345468987
 30
0.0
 11
3275.686358324918
 21
435.121577741406
 31
0.0
  0
LINE
  5
38D3
330
1F
100
AcDbEntity
  8
0
100
AcDbLine
 10
3275.686358324918
 20
435.121577741406
 30
0.0
 11
3275.676287486141
 21
435.6248041170735
 31
0.0
  0
LINE
  5
38D4
330
1F
100
AcDbEntity
  8
0
100
AcDbLine
 10
3275.676287486141
 20
435.6248041170735
 30
0.0
 11
3275.609719575044
 21
436.1120232255663
 31
0.0
  0
LINE
  5
38D5
330
1F
100
AcDbEntity
  8
0
100
AcDbLine
 10
3275.609719575044
 20
436.1120232255663
 30
0.0
 11
3275.483426546363
 21
436.5586506164846
 31
0.0
  0
LINE
  5
38D6
330
1F
100
AcDbEntity
  8
0
100
AcDbLine
 10
3275.483426546363
 20
436.5586506164846
 30
0.0
 11
3275.310899241524
 21
436.9045936996526
 31
0.0
  0
LINE
  5
38D7
330
1F
100
AcDbEntity
  8
0
100
AcDbLine
 10
3275.310899241524
 20
436.9045936996526
 30
0.0
 11
3275.102979542324
 21
437.1431720977454
 31
0.0
  0
LINE
  5
38D8
330
1F
100
AcDbEntity
  8
0
100
AcDbLine
 10
3275.102979542324
 20
437.1431720977454
 30
0.0
 11
3274.860000315304
 21
437.2841587658416
 31
0.0
  0
LINE
  5
38D9
330
1F
100
AcDbEntity
  8
0
100
AcDbLine
 10
3274.860000315304
 20
437.2841587658416
 30
0.0
 11
3274.649549678612
 21
437.3236099189163
 31
0.0
  0
LINE
  5
38DA
330
1F
100
AcDbEntity
  8
0
100
AcDbLine
 10
3264.405752684209
 20
464.362665690299
 30
0.0
 11
3264.31850390184
 21
464.5167539549486
 31
0.0
  0
LINE
  5
38DB
330
1F
100
AcDbEntity
  8
0
100
AcDbLine
 10
3264.31850390184
 20
464.5167539549486
 30
0.0
 11
3263.795702123723
 21
465.2053190040398
 31
0.0
  0
LINE
  5
38DC
330
1F
100
AcDbEntity
  8
0
100
AcDbLine
 10
3263.795702123723
 20
465.2053190040398
 30
0.0
 11
3263.128009027106
 21
465.7650851394159
 31
0.0
  0
LINE
  5
38DD
330
1F
100
AcDbEntity
  8
0
100
AcDbLine
 10
3263.128009027106
 20
465.7650851394159
 30
0.0
 11
3262.343310421076
 21
466.1655370936143
 31
0.0
  0
LINE
  5
38DE
330
1F
100
AcDbEntity
  8
0
100
AcDbLine
 10
3262.343310421076
 20
466.1655370936143
 30
0.0
 11
3261.47853708241
 21
466.3803662167119
 31
0.0
  0
LINE
  5
38DF
330
1F
100
AcDbEntity
  8
0
100
AcDbLine
 10
3261.47853708241
 20
466.3803662167119
 30
0.0
 11
3260.979385505963
 21
466.4124967140302
 31
0.0
  0
LINE
  5
38E0
330
1F
100
AcDbEntity
  8
0
100
AcDbLine
 10
3245.038391705405
 20
466.127167389899
 30
0.0
 11
3244.175364351161
 21
467.4798845777103
 31
0.0
  0
LINE
  5
38E1
330
1F
100
AcDbEntity
  8
0
100
AcDbLine
 10
3244.175364351161
 20
467.4798845777103
 30
0.0
 11
3243.005963519753
 21
468.644267832798
 31
0.0
  0
LINE
  5
38E2
330
1F
100
AcDbEntity
  8
0
100
AcDbLine
 10
3243.005963519753
 20
468.644267832798
 30
0.0
 11
3241.556845144696
 21
469.5822341935213
 31
0.0
  0
LINE
  5
38E3
330
1F
100
AcDbEntity
  8
0
100
AcDbLine
 10
3241.556845144696
 20
469.5822341935213
 30
0.0
 11
3239.87389876347
 21
470.2583909653647
 31
0.0
  0
LINE
  5
38E4
330
1F
100
AcDbEntity
  8
0
100
AcDbLine
 10
3239.87389876347
 20
470.2583909653647
 30
0.0
 11
3237.99654506641
 21
470.6535133758253
 31
0.0
  0
LINE
  5
38E5
330
1F
100
AcDbEntity
  8
0
100
AcDbLine
 10
3237.99654506641
 20
470.6535133758253
 30
0.0
 11
3235.99006096899
 21
470.7527025654445
 31
0.0
  0
LINE
  5
38E6
330
1F
100
AcDbEntity
  8
0
100
AcDbLine
 10
3235.99006096899
 20
470.7527025654445
 30
0.0
 11
3233.911210401936
 21
470.5551165833295
 31
0.0
  0
LINE
  5
38E7
330
1F
100
AcDbEntity
  8
0
100
AcDbLine
 10
3233.911210401936
 20
470.5551165833295
 30
0.0
 11
3231.823010474986
 21
470.0691195337165
 31
0.0
  0
LINE
  5
38E8
330
1F
100
AcDbEntity
  8
0
100
AcDbLine
 10
3231.823010474986
 20
470.0691195337165
 30
0.0
 11
3229.781828018593
 21
469.3100922255471
 31
0.0
  0
LINE
  5
38E9
330
1F
100
AcDbEntity
  8
0
100
AcDbLine
 10
3229.781828018593
 20
469.3100922255471
 30
0.0
 11
3227.845347754983
 21
468.3008527671471
 31
0.0
  0
LINE
  5
38EA
330
1F
100
AcDbEntity
  8
0
100
AcDbLine
 10
3227.845347754983
 20
468.3008527671471
 30
0.0
 11
3226.065461955812
 21
467.0688012156587
 31
0.0
  0
LINE
  5
38EB
330
1F
100
AcDbEntity
  8
0
100
AcDbLine
 10
3226.065461955812
 20
467.0688012156587
 30
0.0
 11
3224.493513095233
 21
465.6488493868716
 31
0.0
  0
LINE
  5
38EC
330
1F
100
AcDbEntity
  8
0
100
AcDbLine
 10
3224.493513095233
 20
465.6488493868716
 30
0.0
 11
3223.172533545668
 21
464.0780251536206
 31
0.0
  0
LINE
  5
38ED
330
1F
100
AcDbEntity
  8
0
100
AcDbLine
 10
3223.172533545668
 20
464.0780251536206
 30
0.0
 11
3222.145216423719
 21
462.4060232518574
 31
0.0
  0
LINE
  5
38EE
330
1F
100
AcDbEntity
  8
0
100
AcDbLine
 10
3222.145216423719
 20
462.4060232518574
 30
0.0
 11
3221.437152083578
 21
460.6728276110986
 31
0.0
  0
LINE
  5
38EF
330
1F
100
AcDbEntity
  8
0
100
AcDbLine
 10
3253.921254866988
 20
434.6581461538189
 30
0.0
 11
3254.539547938398
 21
434.7020573318316
 31
0.0
  0
LINE
  5
38F0
330
1F
100
AcDbEntity
  8
0
100
AcDbLine
 10
3254.539547938398
 20
434.7020573318316
 30
0.0
 11
3255.287745189994
 21
434.8677701770863
 31
0.0
  0
LINE
  5
38F1
330
1F
100
AcDbEntity
  8
0
100
AcDbLine
 10
3255.287745189994
 20
434.8677701770863
 30
0.0
 11
3256.017215518244
 21
435.1500793051504
 31
0.0
  0
LINE
  5
38F2
330
1F
100
AcDbEntity
  8
0
100
AcDbLine
 10
3256.017215518244
 20
435.1500793051504
 30
0.0
 11
3256.537585360915
 21
435.4337172373933
 31
0.0
  0
LINE
  5
38F3
330
1F
100
AcDbEntity
  8
0
100
AcDbLine
 10
3274.648660008135
 20
433.2419864942989
 30
0.0
 11
3274.929754532085
 21
433.310283960683
 31
0.0
  0
LINE
  5
38F4
330
1F
100
AcDbEntity
  8
0
100
AcDbLine
 10
3274.929754532085
 20
433.310283960683
 30
0.0
 11
3275.170713638977
 21
433.4852822906606
 31
0.0
  0
LINE
  5
38F5
330
1F
100
AcDbEntity
  8
0
100
AcDbLine
 10
3275.170713638977
 20
433.4852822906606
 30
0.0
 11
3275.37183003508
 21
433.7625082513262
 31
0.0
  0
LINE
  5
38F6
330
1F
100
AcDbEntity
  8
0
100
AcDbLine
 10
3275.37183003508
 20
433.7625082513262
 30
0.0
 11
3275.534186258131
 21
434.1550527630444
 31
0.0
  0
LINE
  5
38F7
330
1F
100
AcDbEntity
  8
0
100
AcDbLine
 10
3212.73049416338
 20
435.4849817442735
 30
0.0
 11
3213.116696140004
 21
435.1623980307855
 31
0.0
  0
LINE
  5
38F8
330
1F
100
AcDbEntity
  8
0
100
AcDbLine
 10
3213.116696140004
 20
435.1623980307855
 30
0.0
 11
3213.686293712458
 21
434.8722059864366
 31
0.0
  0
LINE
  5
38F9
330
1F
100
AcDbEntity
  8
0
100
AcDbLine
 10
3213.686293712458
 20
434.8722059864366
 30
0.0
 11
3214.346489447348
 21
434.7023495549485
 31
0.0
  0
LINE
  5
38FA
330
1F
100
AcDbEntity
  8
0
100
AcDbLine
 10
3221.437152083578
 20
460.6728276110986
 30
0.0
 11
3221.090221371428
 21
459.0887723683501
 31
0.0
  0
LINE
  5
38FB
330
1F
100
AcDbEntity
  8
0
100
AcDbLine
 10
3221.090221371428
 20
459.0887723683501
 30
0.0
 11
3221.033734677303
 21
457.5438617049518
 31
0.0
  0
LINE
  5
38FC
330
1F
100
AcDbEntity
  8
0
100
AcDbLine
 10
3221.033734677303
 20
457.5438617049518
 30
0.0
 11
3221.263310932561
 21
456.0738291058766
 31
0.0
  0
LINE
  5
38FD
330
1F
100
AcDbEntity
  8
0
100
AcDbLine
 10
3221.263310932561
 20
456.0738291058766
 30
0.0
 11
3221.769187247637
 21
454.7083003749518
 31
0.0
  0
LINE
  5
38FE
330
1F
100
AcDbEntity
  8
0
100
AcDbLine
 10
3211.499396059048
 20
437.9344782769164
 30
0.0
 11
3211.229844366616
 21
438.8027031736718
 31
0.0
  0
LINE
  5
38FF
330
1F
100
AcDbEntity
  8
0
100
AcDbLine
 10
3211.229844366616
 20
438.8027031736718
 30
0.0
 11
3211.170353406769
 21
439.7299726422543
 31
0.0
  0
LINE
  5
3900
330
1F
100
AcDbEntity
  8
0
100
AcDbLine
 10
3211.170353406769
 20
439.7299726422543
 30
0.0
 11
3211.337681585213
 21
440.661524394299
 31
0.0
  0
LINE
  5
3901
330
1F
100
AcDbEntity
  8
0
100
AcDbLine
 10
3218.448585708712
 20
463.6724185910606
 30
0.0
 11
3218.778479882153
 21
464.4375557084079
 31
0.0
  0
LINE
  5
3902
330
1F
100
AcDbEntity
  8
0
100
AcDbLine
 10
3218.778479882153
 20
464.4375557084079
 30
0.0
 11
3219.25175524154
 21
465.1012530429711
 31
0.0
  0
LINE
  5
3903
330
1F
100
AcDbEntity
  8
0
100
AcDbLine
 10
3219.25175524154
 20
465.1012530429711
 30
0.0
 11
3219.865856589217
 21
465.6611307713775
 31
0.0
  0
LINE
  5
3904
330
1F
100
AcDbEntity
  8
0
100
AcDbLine
 10
3219.865856589217
 20
465.6611307713775
 30
0.0
 11
3220.602060761013
 21
466.0852825167855
 31
0.0
  0
LINE
  5
3905
330
1F
100
AcDbEntity
  8
0
100
AcDbLine
 10
3220.602060761013
 20
466.0852825167855
 30
0.0
 11
3221.424790425698
 21
466.3417214316399
 31
0.0
  0
LINE
  5
3906
330
1F
100
AcDbEntity
  8
0
100
AcDbLine
 10
3221.424790425698
 20
466.3417214316399
 30
0.0
 11
3222.163062217316
 21
466.4124967769295
 31
0.0
  0
DIMENSION
  5
397A
330
1F
100
AcDbEntity
  8
dim
100
AcDbDimension
  2
*D0
 10
3351.332614967962
 20
577.2656864514114
 30
0.0
 11
3342.082614967962
 21
579.7656864514115
 31
0.0
 70
    32
  1
PG16
 71
     5
 42
18.5
  3
01
100
AcDbAlignedDimension
 13
3332.832614967962
 23
566.9785799613053
 33
0.0
 14
3351.332614967962
 24
566.9785799613053
 34
0.0
100
AcDbRotatedDimension
  0
DIMENSION
  5
397F
330
1F
100
AcDbEntity
  8
dim
100
AcDbDimension
  2
*D1
 10
3363.582614967912
 20
503.3307939496721
 30
0.0
 11
3342.082614967913
 21
505.8307939496724
 31
0.0
 70
    32
 71
     5
 42
43.0
  3
01
100
AcDbAlignedDimension
 13
3320.582614967912
 23
514.178579961305
 33
0.0
 14
3363.582614967912
 24
514.178579961305
 34
0.0
100
AcDbRotatedDimension
  0
ARC
  5
A67E
330
1F
100
AcDbEntity
  8
0
100
AcDbCircle
 10
3217.601461025963
 20
522.2409237357052
 30
0.0
 40
0.5
100
AcDbArc
 50
91.43209619040709
 51
180.0
  0
ARC
  5
A67F
330
1F
100
AcDbEntity
  8
0
100
AcDbCircle
 10
3217.601461025963
 20
518.5162361869052
 30
0.0
 40
0.5
100
AcDbArc
 50
180.0
 51
268.5679038081072
  0
LINE
  5
A680
330
1F
100
AcDbEntity
  8
0
100
AcDbLine
 10
3223.301461025961
 20
517.8785799613051
 30
0.0
 11
3224.186461025961
 21
516.6985799613049
 31
0.0
  0
LINE
  5
A681
330
1F
100
AcDbEntity
  8
02___PRT_ALL_AXES
100
AcDbLine
 10
3223.301461025961
 20
522.8785799613051
 30
0.0
 11
3223.301461025961
 21
517.8785799613051
 31
0.0
  0
LINE
  5
A682
330
1F
100
AcDbEntity
  8
0
100
AcDbLine
 10
3223.301461025961
 20
522.8785799613051
 30
0.0
 11
3224.426461025962
 21
524.3785799613051
 31
0.0
  0
LINE
  5
A683
330
1F
100
AcDbEntity
  8
0
100
AcDbLine
 10
3217.588964930329
 20
522.7407675589079
 30
0.0
 11
3223.301461025961
 21
522.8785799613051
 31
0.0
  0
LINE
  5
A684
330
1F
100
AcDbEntity
  8
0
100
AcDbLine
 10
3217.588964930316
 20
518.0163923637028
 30
0.0
 11
3223.301461025961
 21
517.8785799613051
 31
0.0
  0
LINE
  5
A685
330
1F
100
AcDbEntity
  8
0
100
AcDbLine
 10
3217.101461025962
 20
518.5162361869052
 30
0.0
 11
3217.101461025962
 21
522.2409237357052
 31
0.0
  0
DIMENSION
  5
A687
330
1F
100
AcDbEntity
  8
dim
100
AcDbDimension
  2
*D2
 10
3374.600981104885
 20
514.178579961305
 30
0.0
 11
3372.100981104885
 21
534.1785799613054
 31
0.0
 70
    32
 71
     5
 42
40.00000000000009
  3
01
100
AcDbAlignedDimension
 13
3359.082614967912
 23
554.1785799613053
 33
0.0
 14
3359.082614967912
 24
514.178579961305
 34
0.0
 50
90.0
100
AcDbRotatedDimension
  0
DIMENSION
  5
A6BF
330
1F
100
AcDbEntity
  8
dim
100
AcDbDimension
  2
*D3
 10
3284.107711025961
 20
503.3307939496721
 30
0.0
 11
3254.107711025961
 21
505.8307939496724
 31
0.0
 70
    32
 71
     5
 42
60.0
  3
01
100
AcDbAlignedDimension
 13
3224.107711025961
 23
514.178579961305
 33
0.0
 14
3284.107711025961
 24
514.178579961305
 34
0.0
100
AcDbRotatedDimension
  0
LINE
  5
C9D9
330
1F
100
AcDbEntity
  8
0
370
     0
100
AcDbLine
 10
3281.815803426143
 20
546.1785799613051
 30
0.0
 11
3226.39961862578
 21
546.1785799613051
 31
0.0
  0
LINE
  5
C9DA
330
1F
100
AcDbEntity
  8
0
370
     0
100
AcDbLine
 10
3282.378303426117
 20
528.1785799613053
 30
0.0
 11
3225.837118625807
 21
528.1785799613053
 31
0.0
  0
LINE
  5
C9DB
330
1F
100
AcDbEntity
  8
0
370
     0
100
AcDbLine
 10
3281.809553426143
 20
546.3785799613051
 30
0.0
 11
3226.40586862578
 21
546.3785799613051
 31
0.0
  0
LINE
  5
C9DC
330
1F
100
AcDbEntity
  8
0
370
     0
100
AcDbLine
 10
3282.384444053211
 20
527.982079894296
 30
0.0
 11
3225.830977998713
 21
527.982079894296
 31
0.0
  0
LINE
  5
C9DD
330
1F
100
AcDbEntity
  8
0
100
AcDbLine
 10
3281.809553426143
 20
546.3785799613051
 30
0.0
 11
3282.384444053211
 21
527.982079894296
 31
0.0
  0
LINE
  5
C9DE
330
1F
100
AcDbEntity
  8
0
100
AcDbLine
 10
3226.40586862578
 20
546.3785799613051
 30
0.0
 11
3225.830977998712
 21
527.982079894296
 31
0.0
  0
LINE
  5
CD17
330
1F
100
AcDbEntity
  8
02___PRT_ALL_AXES
  6
Continuous
 62
     7
100
AcDbLine
 10
3246.917969279449
 20
535.0905066606485
 30
0.0
 11
3246.917969279449
 21
535.0984235867554
 31
0.0
  0
LINE
  5
CD18
330
1F
100
AcDbEntity
  8
02___PRT_ALL_AXES
  6
Continuous
 62
     7
100
AcDbLine
 10
3247.728080924062
 20
535.0905066606485
 30
0.0
 11
3247.728080924062
 21
535.0984235867554
 31
0.0
  0
LINE
  5
CD19
330
1F
100
AcDbEntity
  8
02___PRT_ALL_AXES
  6
Continuous
 62
     7
100
AcDbLine
 10
3246.107857634746
 20
539.2348943787663
 30
0.0
 11
3246.917969279449
 21
535.0984235867554
 31
0.0
  0
LINE
  5
CD1A
330
1F
100
AcDbEntity
  8
02___PRT_ALL_AXES
  6
Continuous
 62
     7
100
AcDbLine
 10
3247.32302506551
 20
536.0665337799797
 30
0.0
 11
3246.715441350128
 21
539.2348943787663
 31
0.0
  0
LINE
  5
CD1B
330
1F
100
AcDbEntity
  8
02___PRT_ALL_AXES
  6
Continuous
 62
     7
100
AcDbLine
 10
3248.538192496365
 20
538.4348873954125
 30
0.0
 11
3248.538192496365
 21
538.4428043215192
 31
0.0
  0
LINE
  5
CD1C
330
1F
100
AcDbEntity
  8
02___PRT_ALL_AXES
  6
Continuous
 62
     7
100
AcDbLine
 10
3249.348304213467
 20
535.0905066606485
 30
0.0
 11
3249.348304213467
 21
535.0984235867554
 31
0.0
  0
LINE
  5
CD1D
330
1F
100
AcDbEntity
  8
02___PRT_ALL_AXES
  6
Continuous
 62
     7
100
AcDbLine
 10
3250.15841564079
 20
535.0905066606485
 30
0.0
 11
3250.15841564079
 21
535.0984235867554
 31
0.0
  0
LINE
  5
CD1E
330
1F
100
AcDbEntity
  8
02___PRT_ALL_AXES
  6
Continuous
 62
     7
100
AcDbLine
 10
3250.36094364251
 20
539.2348943787663
 30
0.0
 11
3249.753359927129
 21
536.0665337799797
 31
0.0
  0
LINE
  5
CD1F
330
1F
100
AcDbEntity
  8
02___PRT_ALL_AXES
  6
Continuous
 62
     7
100
AcDbLine
 10
3250.15841564079
 20
535.0984235867554
 30
0.0
 11
3250.968527357893
 21
539.2348943787663
 31
0.0
  0
LINE
  5
CD20
330
1F
100
AcDbEntity
  8
02___PRT_ALL_AXES
  6
Continuous
 62
     7
100
AcDbLine
 10
3247.728080924062
 20
535.0905066606485
 30
0.0
 11
3248.538192496365
 21
538.4428043215192
 31
0.0
  0
LINE
  5
CD21
330
1F
100
AcDbEntity
  8
02___PRT_ALL_AXES
  6
Continuous
 62
     7
100
AcDbLine
 10
3248.133136637814
 20
539.2348943787663
 30
0.0
 11
3247.32302506551
 21
536.0665337799797
 31
0.0
  0
LINE
  5
CD22
330
1F
100
AcDbEntity
  8
02___PRT_ALL_AXES
  6
Continuous
 62
     7
100
AcDbLine
 10
3249.753359927129
 20
536.0665337799797
 30
0.0
 11
3248.943248210027
 21
539.2348943787663
 31
0.0
  0
LINE
  5
CD23
330
1F
100
AcDbEntity
  8
02___PRT_ALL_AXES
  6
Continuous
 62
     7
100
AcDbLine
 10
3248.538192496365
 20
538.4428043215192
 30
0.0
 11
3249.348304213467
 21
535.0905066606485
 31
0.0
  0
LINE
  5
CD24
330
1F
100
AcDbEntity
  8
02___PRT_ALL_AXES
  6
Continuous
 62
     7
100
AcDbLine
 10
3252.386222500689
 20
535.0905066606485
 30
0.0
 11
3252.386222500689
 21
535.0984235867554
 31
0.0
  0
LINE
  5
CD25
330
1F
100
AcDbEntity
  8
02___PRT_ALL_AXES
  6
Continuous
 62
     7
100
AcDbLine
 10
3252.791278504129
 20
536.1466268602137
 30
0.0
 11
3252.791278504129
 21
536.1545437863203
 31
0.0
  0
LINE
  5
CD26
330
1F
100
AcDbEntity
  8
02___PRT_ALL_AXES
  6
Continuous
 62
     7
100
AcDbLine
 10
3253.803918222951
 20
538.8749374272062
 30
0.0
 11
3253.803918222951
 21
538.8828543533129
 31
0.0
  0
LINE
  5
CD27
330
1F
100
AcDbEntity
  8
02___PRT_ALL_AXES
  6
Continuous
 62
     7
100
AcDbLine
 10
3254.816557362307
 20
536.1466268602137
 30
0.0
 11
3254.816557362307
 21
536.1545437863203
 31
0.0
  0
LINE
  5
CD28
330
1F
100
AcDbEntity
  8
02___PRT_ALL_AXES
  6
Continuous
 62
     7
100
AcDbLine
 10
3252.892542649834
 20
536.4986668856666
 30
0.0
 11
3253.803918222951
 21
538.8828543533129
 31
0.0
  0
LINE
  5
CD29
330
1F
100
AcDbEntity
  8
02___PRT_ALL_AXES
  6
Continuous
 62
     7
100
AcDbLine
 10
3252.386222500689
 20
535.0905066606485
 30
0.0
 11
3252.791278504129
 21
536.1545437863203
 31
0.0
  0
LINE
  5
CD2A
330
1F
100
AcDbEntity
  8
02___PRT_ALL_AXES
  6
Continuous
 62
     7
100
AcDbLine
 10
3253.398862219511
 20
539.2348943787663
 30
0.0
 11
3251.778638785307
 21
535.0984235867554
 31
0.0
  0
LINE
  5
CD2B
330
1F
100
AcDbEntity
  8
02___PRT_ALL_AXES
  6
Continuous
 62
     7
100
AcDbLine
 10
3247.152854786202
 20
534.155017967488
 30
0.0
 11
3261.062567265812
 21
534.155017967488
 31
0.0
  0
LINE
  5
CD2C
330
1F
100
AcDbEntity
  8
02___PRT_ALL_AXES
  6
Continuous
 62
     7
100
AcDbLine
 10
3261.991099603911
 20
534.7900025189773
 30
0.0
 11
3246.224322448102
 21
534.7900025189773
 31
0.0
  0
LINE
  5
CD2D
330
1F
100
AcDbEntity
  8
02___PRT_ALL_AXES
  6
Continuous
 62
     7
100
AcDbLine
 10
3249.348304213467
 20
535.0905066606485
 30
0.0
 11
3250.15841564079
 21
535.0905066606485
 31
0.0
  0
LINE
  5
CD2E
330
1F
100
AcDbEntity
  8
02___PRT_ALL_AXES
  6
Continuous
 62
     7
100
AcDbLine
 10
3251.778638785307
 20
535.0905066606485
 30
0.0
 11
3252.386222500689
 21
535.0905066606485
 31
0.0
  0
LINE
  5
CD2F
330
1F
100
AcDbEntity
  8
02___PRT_ALL_AXES
  6
Continuous
 62
     7
100
AcDbLine
 10
3255.221613365657
 20
535.0905066606485
 30
0.0
 11
3255.829197081039
 21
535.0905066606485
 31
0.0
  0
LINE
  5
CD30
330
1F
100
AcDbEntity
  8
02___PRT_ALL_AXES
  6
Continuous
 62
     7
100
AcDbLine
 10
3246.917969279449
 20
535.0984235867554
 30
0.0
 11
3247.728080924062
 21
535.0984235867554
 31
0.0
  0
LINE
  5
CD31
330
1F
100
AcDbEntity
  8
02___PRT_ALL_AXES
  6
Continuous
 62
     7
100
AcDbLine
 10
3249.348304213467
 20
535.0984235867554
 30
0.0
 11
3250.15841564079
 21
535.0984235867554
 31
0.0
  0
LINE
  5
CD32
330
1F
100
AcDbEntity
  8
02___PRT_ALL_AXES
  6
Continuous
 62
     7
100
AcDbLine
 10
3251.778638785307
 20
535.0984235867554
 30
0.0
 11
3252.386222500689
 21
535.0984235867554
 31
0.0
  0
LINE
  5
CD33
330
1F
100
AcDbEntity
  8
02___PRT_ALL_AXES
  6
Continuous
 62
     7
100
AcDbLine
 10
3255.221613365657
 20
535.0984235867554
 30
0.0
 11
3255.829197081039
 21
535.0984235867554
 31
0.0
  0
LINE
  5
CD34
330
1F
100
AcDbEntity
  8
02___PRT_ALL_AXES
  6
Continuous
 62
     7
100
AcDbLine
 10
3256.63930908792
 20
535.0984235867554
 30
0.0
 11
3257.246892803301
 21
535.0984235867554
 31
0.0
  0
LINE
  5
CD35
330
1F
100
AcDbEntity
  8
02___PRT_ALL_AXES
  6
Continuous
 62
     7
100
AcDbLine
 10
3258.05700365125
 20
535.0984235867554
 30
0.0
 11
3258.664587366632
 21
535.0984235867554
 31
0.0
  0
LINE
  5
CD36
330
1F
100
AcDbEntity
  8
02___PRT_ALL_AXES
  6
Continuous
 62
     7
100
AcDbLine
 10
3261.196186953331
 20
535.0984235867554
 30
0.0
 11
3262.107562526448
 21
535.0984235867554
 31
0.0
  0
LINE
  5
CD37
330
1F
100
AcDbEntity
  8
02___PRT_ALL_AXES
  6
Continuous
 62
     7
100
AcDbLine
 10
3255.829197081039
 20
535.0984235867554
 30
0.0
 11
3254.208973646927
 21
539.2348943787663
 31
0.0
  0
LINE
  5
CD38
330
1F
100
AcDbEntity
  8
02___PRT_ALL_AXES
  6
Continuous
 62
     7
100
AcDbLine
 10
3254.816557362307
 20
536.1545437863203
 30
0.0
 11
3255.221613365657
 21
535.0905066606485
 31
0.0
  0
LINE
  5
CD39
330
1F
100
AcDbEntity
  8
02___PRT_ALL_AXES
  6
Continuous
 62
     7
100
AcDbLine
 10
3253.803918222951
 20
538.8828543533129
 30
0.0
 11
3254.71529379598
 21
536.4986668856666
 31
0.0
  0
LINE
  5
CD3A
330
1F
100
AcDbEntity
  8
02___PRT_ALL_AXES
  6
Continuous
 62
     7
100
AcDbLine
 10
3255.221613365657
 20
535.0905066606485
 30
0.0
 11
3255.221613365657
 21
535.0984235867554
 31
0.0
  0
LINE
  5
CD3B
330
1F
100
AcDbEntity
  8
02___PRT_ALL_AXES
  6
Continuous
 62
     7
100
AcDbLine
 10
3256.63930908792
 20
539.2348943787663
 30
0.0
 11
3256.63930908792
 21
535.0984235867554
 31
0.0
  0
LINE
  5
CD3C
330
1F
100
AcDbEntity
  8
02___PRT_ALL_AXES
  6
Continuous
 62
     7
100
AcDbLine
 10
3257.246892803301
 20
535.0984235867554
 30
0.0
 11
3257.246892803301
 21
539.2348943787663
 31
0.0
  0
LINE
  5
CD3D
330
1F
100
AcDbEntity
  8
02___PRT_ALL_AXES
  6
Continuous
 62
     7
100
AcDbLine
 10
3258.05700365125
 20
539.2348943787663
 30
0.0
 11
3258.05700365125
 21
535.0984235867554
 31
0.0
  0
LINE
  5
CD3E
330
1F
100
AcDbEntity
  8
02___PRT_ALL_AXES
  6
Continuous
 62
     7
100
AcDbLine
 10
3263.745069455378
 20
542.857201391073
 30
0.0
 11
3263.935593793132
 21
542.9544756086214
 31
0.0
  0
LINE
  5
CD3F
330
1F
100
AcDbEntity
  8
02___PRT_ALL_AXES
  6
Continuous
 62
     7
100
AcDbLine
 10
3263.745069455378
 20
542.8492844649658
 30
0.0
 11
3263.935593793132
 21
542.9465586825147
 31
0.0
  0
LINE
  5
CD40
330
1F
100
AcDbEntity
  8
02___PRT_ALL_AXES
  6
Continuous
 62
     7
100
AcDbLine
 10
3263.69743826876
 20
543.1003869348995
 30
0.0
 11
3263.554544981353
 21
543.0517498261703
 31
0.0
  0
LINE
  5
CD41
330
1F
100
AcDbEntity
  8
02___PRT_ALL_AXES
  6
Continuous
 62
     7
100
AcDbLine
 10
3252.791278504129
 20
536.1466268602137
 30
0.0
 11
3254.816557362307
 21
536.1466268602137
 31
0.0
  0
LINE
  5
CD42
330
1F
100
AcDbEntity
  8
02___PRT_ALL_AXES
  6
Continuous
 62
     7
100
AcDbLine
 10
3252.791278504129
 20
536.1545437863203
 30
0.0
 11
3254.816557362307
 21
536.1545437863203
 31
0.0
  0
LINE
  5
CD43
330
1F
100
AcDbEntity
  8
02___PRT_ALL_AXES
  6
Continuous
 62
     7
100
AcDbLine
 10
3254.71529379598
 20
536.5065838117734
 30
0.0
 11
3252.892542649834
 21
536.5065838117734
 31
0.0
  0
LINE
  5
CD44
330
1F
100
AcDbEntity
  8
02___PRT_ALL_AXES
  6
Continuous
 62
     7
100
AcDbLine
 10
3262.107562526448
 20
539.2348943787663
 30
0.0
 11
3261.499978811067
 21
539.2348943787663
 31
0.0
  0
LINE
  5
CD45
330
1F
100
AcDbEntity
  8
02___PRT_ALL_AXES
  6
Continuous
 62
     7
100
AcDbLine
 10
3258.968379224369
 20
539.2348943787663
 30
0.0
 11
3258.05700365125
 21
539.2348943787663
 31
0.0
  0
LINE
  5
CD46
330
1F
100
AcDbEntity
  8
02___PRT_ALL_AXES
  6
Continuous
 62
     7
100
AcDbLine
 10
3257.246892803301
 20
539.2348943787663
 30
0.0
 11
3256.63930908792
 21
539.2348943787663
 31
0.0
  0
LINE
  5
CD47
330
1F
100
AcDbEntity
  8
02___PRT_ALL_AXES
  6
Continuous
 62
     7
100
AcDbLine
 10
3254.208973646927
 20
539.2348943787663
 30
0.0
 11
3253.398862219511
 21
539.2348943787663
 31
0.0
  0
LINE
  5
CD48
330
1F
100
AcDbEntity
  8
02___PRT_ALL_AXES
  6
Continuous
 62
     7
100
AcDbLine
 10
3250.968527357893
 20
539.2348943787663
 30
0.0
 11
3250.36094364251
 21
539.2348943787663
 31
0.0
  0
LINE
  5
CD49
330
1F
100
AcDbEntity
  8
02___PRT_ALL_AXES
  6
Continuous
 62
     7
100
AcDbLine
 10
3248.943248210027
 20
539.2348943787663
 30
0.0
 11
3248.133136637814
 21
539.2348943787663
 31
0.0
  0
LINE
  5
CD4A
330
1F
100
AcDbEntity
  8
02___PRT_ALL_AXES
  6
Continuous
 62
     7
100
AcDbLine
 10
3246.715441350128
 20
539.2348943787663
 30
0.0
 11
3246.107857634746
 21
539.2348943787663
 31
0.0
  0
LINE
  5
CD4B
330
1F
100
AcDbEntity
  8
02___PRT_ALL_AXES
  6
Continuous
 62
     7
100
AcDbLine
 10
3258.664587366632
 20
535.0984235867554
 30
0.0
 11
3258.664587366632
 21
538.7068343406316
 31
0.0
  0
LINE
  5
CD4C
330
1F
100
AcDbEntity
  8
02___PRT_ALL_AXES
  6
Continuous
 62
     7
100
AcDbLine
 10
3261.499978811067
 20
539.2348943787663
 30
0.0
 11
3261.499978811067
 21
535.7144936929238
 31
0.0
  0
LINE
  5
CD4D
330
1F
100
AcDbEntity
  8
02___PRT_ALL_AXES
  6
Continuous
 62
     7
100
AcDbLine
 10
3263.935593793132
 20
542.9544756086214
 30
0.0
 11
3264.078487080539
 21
543.149024043719
 31
0.0
  0
LINE
  5
CD4E
330
1F
100
AcDbEntity
  8
02___PRT_ALL_AXES
  6
Continuous
 62
     7
100
AcDbLine
 10
3263.935593793132
 20
542.9465586825147
 30
0.0
 11
3264.078487080539
 21
543.1411071176121
 31
0.0
  0
LINE
  5
CD4F
330
1F
100
AcDbEntity
  8
02___PRT_ALL_AXES
  6
Continuous
 62
     7
100
AcDbLine
 10
3263.792700505729
 20
543.1976611525388
 30
0.0
 11
3263.69743826876
 21
543.1003869348995
 31
0.0
  0
LINE
  5
CD50
330
1F
100
AcDbEntity
  8
02___PRT_ALL_AXES
  6
Continuous
 62
     7
100
AcDbLine
 10
3246.224322448102
 20
539.5433154466352
 30
0.0
 11
3261.991099603911
 21
539.5433154466352
 31
0.0
  0
LINE
  5
CD51
330
1F
100
AcDbEntity
  8
02___PRT_ALL_AXES
  6
Continuous
 62
     7
100
AcDbLine
 10
3261.062567265812
 20
540.1782999980337
 30
0.0
 11
3247.152854786202
 21
540.1782999980337
 31
0.0
  0
LINE
  5
CD52
330
1F
100
AcDbEntity
  8
02___PRT_ALL_AXES
  6
Continuous
 62
     7
100
AcDbLine
 10
3262.363767631662
 20
541.7385477529474
 30
0.0
 11
3262.649554206475
 21
541.7385477529474
 31
0.0
  0
LINE
  5
CD53
330
1F
100
AcDbEntity
  8
02___PRT_ALL_AXES
  6
Continuous
 62
     7
100
AcDbLine
 10
3263.840331556166
 20
541.7385477529474
 30
0.0
 11
3264.173749317597
 21
541.7385477529474
 31
0.0
  0
LINE
  5
CD54
330
1F
100
AcDbEntity
  8
02___PRT_ALL_AXES
  6
Continuous
 62
     7
100
AcDbLine
 10
3261.499978811067
 20
535.7144936929238
 30
0.0
 11
3258.968379224369
 21
539.2348943787663
 31
0.0
  0
LINE
  5
CD55
330
1F
100
AcDbEntity
  8
02___PRT_ALL_AXES
  6
Continuous
 62
     7
100
AcDbLine
 10
3258.664587366632
 20
538.7068343406316
 30
0.0
 11
3261.196186953331
 21
535.0984235867554
 31
0.0
  0
LINE
  5
CD56
330
1F
100
AcDbEntity
  8
02___PRT_ALL_AXES
  6
Continuous
 62
     7
100
AcDbLine
 10
3262.107562526448
 20
535.0984235867554
 30
0.0
 11
3262.107562526448
 21
539.2348943787663
 31
0.0
  0
LINE
  5
CD57
330
1F
100
AcDbEntity
  8
02___PRT_ALL_AXES
  6
Continuous
 62
     7
100
AcDbLine
 10
3262.363767631662
 20
544.024492138018
 30
0.0
 11
3262.363767631662
 21
541.7385477529474
 31
0.0
  0
LINE
  5
CD58
330
1F
100
AcDbEntity
  8
02___PRT_ALL_AXES
  6
Continuous
 62
     7
100
AcDbLine
 10
3262.649554206475
 20
541.7385477529474
 30
0.0
 11
3262.649554206475
 21
542.7599271735241
 31
0.0
  0
LINE
  5
CD59
330
1F
100
AcDbEntity
  8
02___PRT_ALL_AXES
  6
Continuous
 62
     7
100
AcDbLine
 10
3262.649554206475
 20
543.0517498261703
 30
0.0
 11
3262.649554206475
 21
543.7813065941011
 31
0.0
  0
LINE
  5
CD5A
330
1F
100
AcDbEntity
  8
02___PRT_ALL_AXES
  6
Continuous
 62
     7
100
AcDbLine
 10
3263.45928281243
 20
542.7520102473265
 30
0.0
 11
3263.45928281243
 21
542.7599271735241
 31
0.0
  0
LINE
  5
CD5B
330
1F
100
AcDbEntity
  8
02___PRT_ALL_AXES
  6
Continuous
 62
     7
100
AcDbLine
 10
3263.554544981353
 20
543.7733896679941
 30
0.0
 11
3263.554544981353
 21
543.7813065941011
 31
0.0
  0
LINE
  5
CD5C
330
1F
100
AcDbEntity
  8
02___PRT_ALL_AXES
  6
Continuous
 62
     7
100
AcDbLine
 10
3263.69743826876
 20
543.7247525591747
 30
0.0
 11
3263.69743826876
 21
543.7326694852813
 31
0.0
  0
LINE
  5
CD5D
330
1F
100
AcDbEntity
  8
02___PRT_ALL_AXES
  6
Continuous
 62
     7
100
AcDbLine
 10
3263.792700505729
 20
543.6274783416259
 30
0.0
 11
3263.792700505729
 21
543.6353952677327
 31
0.0
  0
LINE
  5
CD5E
330
1F
100
AcDbEntity
  8
02___PRT_ALL_AXES
  6
Continuous
 62
     7
100
AcDbLine
 10
3263.840331556166
 20
543.4894839414551
 30
0.0
 11
3263.840331556166
 21
543.3435724788163
 31
0.0
  0
LINE
  5
CD5F
330
1F
100
AcDbEntity
  8
02___PRT_ALL_AXES
  6
Continuous
 62
     7
100
AcDbLine
 10
3263.840331556166
 20
541.73063082675
 30
0.0
 11
3263.840331556166
 21
541.7385477529474
 31
0.0
  0
LINE
  5
CD60
330
1F
100
AcDbEntity
  8
02___PRT_ALL_AXES
  6
Continuous
 62
     7
100
AcDbLine
 10
3263.935593793132
 20
542.9465586825147
 30
0.0
 11
3263.935593793132
 21
542.9544756086214
 31
0.0
  0
LINE
  5
CD61
330
1F
100
AcDbEntity
  8
02___PRT_ALL_AXES
  6
Continuous
 62
     7
100
AcDbLine
 10
3264.078487080539
 20
543.1411071176121
 30
0.0
 11
3264.078487080539
 21
543.149024043719
 31
0.0
  0
LINE
  5
CD62
330
1F
100
AcDbEntity
  8
02___PRT_ALL_AXES
  6
Continuous
 62
     7
100
AcDbLine
 10
3264.126118130978
 20
543.294935370087
 30
0.0
 11
3264.126118130978
 21
543.4894839414551
 31
0.0
  0
LINE
  5
CD63
330
1F
100
AcDbEntity
  8
02___PRT_ALL_AXES
  6
Continuous
 62
     7
100
AcDbLine
 10
3263.840331556166
 20
543.3435724788163
 30
0.0
 11
3263.792700505729
 21
543.1976611525388
 31
0.0
  0
LINE
  5
CD64
330
1F
100
AcDbEntity
  8
02___PRT_ALL_AXES
  6
Continuous
 62
     7
100
AcDbLine
 10
3264.078487080539
 20
543.1411071176121
 30
0.0
 11
3264.126118130978
 21
543.294935370087
 31
0.0
  0
LINE
  5
CD65
330
1F
100
AcDbEntity
  8
02___PRT_ALL_AXES
  6
Continuous
 62
     7
100
AcDbLine
 10
3262.649554206475
 20
542.7599271735241
 30
0.0
 11
3263.45928281243
 21
542.7599271735241
 31
0.0
  0
LINE
  5
CD66
330
1F
100
AcDbEntity
  8
02___PRT_ALL_AXES
  6
Continuous
 62
     7
100
AcDbLine
 10
3263.554544981353
 20
543.0517498261703
 30
0.0
 11
3262.649554206475
 21
543.0517498261703
 31
0.0
  0
LINE
  5
CD67
330
1F
100
AcDbEntity
  8
02___PRT_ALL_AXES
  6
Continuous
 62
     7
100
AcDbLine
 10
3262.649554206475
 20
543.7733896679941
 30
0.0
 11
3263.554544981353
 21
543.7733896679941
 31
0.0
  0
LINE
  5
CD68
330
1F
100
AcDbEntity
  8
02___PRT_ALL_AXES
  6
Continuous
 62
     7
100
AcDbLine
 10
3262.649554206475
 20
543.7813065941011
 30
0.0
 11
3263.554544981353
 21
543.7813065941011
 31
0.0
  0
LINE
  5
CD69
330
1F
100
AcDbEntity
  8
02___PRT_ALL_AXES
  6
Continuous
 62
     7
100
AcDbLine
 10
3263.506913930914
 20
544.024492138018
 30
0.0
 11
3262.363767631662
 21
544.024492138018
 31
0.0
  0
LINE
  5
CD6A
330
1F
100
AcDbEntity
  8
02___PRT_ALL_AXES
  6
Continuous
 62
     7
100
AcDbLine
 10
3263.745069455378
 20
543.9758550291985
 30
0.0
 11
3263.506913930914
 21
544.024492138018
 31
0.0
  0
LINE
  5
CD6B
330
1F
100
AcDbEntity
  8
02___PRT_ALL_AXES
  6
Continuous
 62
     7
100
AcDbLine
 10
3263.554544981353
 20
543.7733896679941
 30
0.0
 11
3263.69743826876
 21
543.7247525591747
 31
0.0
  0
LINE
  5
CD6C
330
1F
100
AcDbEntity
  8
02___PRT_ALL_AXES
  6
Continuous
 62
     7
100
AcDbLine
 10
3263.554544981353
 20
543.7813065941011
 30
0.0
 11
3263.69743826876
 21
543.7326694852813
 31
0.0
  0
LINE
  5
CD6D
330
1F
100
AcDbEntity
  8
02___PRT_ALL_AXES
  6
Continuous
 62
     7
100
AcDbLine
 10
3264.173749317597
 20
541.7385477529474
 30
0.0
 11
3263.745069455378
 21
542.857201391073
 31
0.0
  0
LINE
  5
CD6E
330
1F
100
AcDbEntity
  8
02___PRT_ALL_AXES
  6
Continuous
 62
     7
100
AcDbLine
 10
3263.45928281243
 20
542.7599271735241
 30
0.0
 11
3263.840331556166
 21
541.7385477529474
 31
0.0
  0
LINE
  5
CD6F
330
1F
100
AcDbEntity
  8
02___PRT_ALL_AXES
  6
Continuous
 62
     7
100
AcDbLine
 10
3263.792700505729
 20
543.6353952677327
 30
0.0
 11
3263.840331556166
 21
543.4815670152572
 31
0.0
  0
LINE
  5
CD70
330
1F
100
AcDbEntity
  8
02___PRT_ALL_AXES
  6
Continuous
 62
     7
100
AcDbLine
 10
3263.935593793132
 20
543.8299437028299
 30
0.0
 11
3263.745069455378
 21
543.9758550291985
 31
0.0
  0
LINE
  5
CD71
330
1F
100
AcDbEntity
  8
02___PRT_ALL_AXES
  6
Continuous
 62
     7
100
AcDbLine
 10
3263.69743826876
 20
543.7247525591747
 30
0.0
 11
3263.792700505729
 21
543.6274783416259
 31
0.0
  0
LINE
  5
CD72
330
1F
100
AcDbEntity
  8
02___PRT_ALL_AXES
  6
Continuous
 62
     7
100
AcDbLine
 10
3263.69743826876
 20
543.7326694852813
 30
0.0
 11
3263.792700505729
 21
543.6353952677327
 31
0.0
  0
LINE
  5
CD73
330
1F
100
AcDbEntity
  8
02___PRT_ALL_AXES
  6
Continuous
 62
     7
100
AcDbLine
 10
3264.078487080539
 20
543.6353952677327
 30
0.0
 11
3263.935593793132
 21
543.8299437028299
 31
0.0
  0
LINE
  5
CD74
330
1F
100
AcDbEntity
  8
02___PRT_ALL_AXES
  6
Continuous
 62
     7
100
AcDbLine
 10
3264.126118130978
 20
543.4894839414551
 30
0.0
 11
3264.078487080539
 21
543.6353952677327
 31
0.0
  0
CIRCLE
  5
CD75
330
1F
100
AcDbEntity
  8
02___PRT_ALL_AXES
  6
Continuous
 62
     7
100
AcDbCircle
 10
3263.190065143334
 20
542.8267689040344
 30
0.0
 40
1.941564506396119
  0
CIRCLE
  5
CD76
330
1F
100
AcDbEntity
  8
02___PRT_ALL_AXES
  6
Continuous
 62
     7
100
AcDbCircle
 10
3263.190726920707
 20
542.8270392684772
 30
0.0
 40
1.587041416938909
  0
ELLIPSE
  5
CD77
330
1F
100
AcDbEntity
  8
02___PRT_ALL_AXES
  6
Continuous
 62
     7
100
AcDbEllipse
 10
3254.107711025961
 20
537.1666589828062
 30
0.0
 11
7.620975328339857
 21
0.0
 31
0.0
210
0.0
220
0.0
230
1.0
 40
0.9665194386999999
 41
-2.7203804586
 42
-0.4212121950000002
  0
ELLIPSE
  5
CD78
330
1F
100
AcDbEntity
  8
02___PRT_ALL_AXES
  6
Continuous
 62
     7
100
AcDbEllipse
 10
3254.107711025961
 20
537.1666589828062
 30
0.0
 11
8.256056605701507
 21
0.0
 31
0.0
210
0.0
220
0.0
230
1.0
 40
0.9690831507
 41
0.3016039671000001
 42
2.839988686499998
  0
ELLIPSE
  5
CD79
330
1F
100
AcDbEntity
  8
02___PRT_ALL_AXES
  6
Continuous
 62
     7
100
AcDbEllipse
 10
3254.107711025961
 20
537.1666589828062
 30
0.0
 11
8.256056605701507
 21
0.0
 31
0.0
210
0.0
220
0.0
230
1.0
 40
0.9690831507
 41
-2.839988686499998
 42
-0.3016039671000001
  0
ELLIPSE
  5
CD7A
330
1F
100
AcDbEntity
  8
02___PRT_ALL_AXES
  6
Continuous
 62
     7
100
AcDbEllipse
 10
3254.107711025961
 20
537.1666589828062
 30
0.0
 11
7.620975328339857
 21
0.0
 31
0.0
210
0.0
220
0.0
230
1.0
 40
0.9665194386999999
 41
0.4212121950000002
 42
2.7203804586
  0
LINE
  5
CEE1
330
1F
100
AcDbEntity
  8
0
370
    30
100
AcDbLine
 10
3230.001406428449
 20
430.958916153594
 30
0.0
 11
3231.434308971226
 21
429.1239235258976
 31
0.0
  0
LINE
  5
CEE2
330
1F
100
AcDbEntity
  8
0
370
    30
100
AcDbLine
 10
3231.48976694169
 20
429.5533898891124
 30
0.0
 11
3230.400720630891
 21
430.958916153594
 31
0.0
  0
LINE
  5
CEE3
330
1F
100
AcDbEntity
  8
0
370
    30
100
AcDbLine
 10
3231.803627274704
 20
428.6987423080885
 30
0.0
 11
3240.932724125638
 21
428.6987423080885
 31
0.0
  0
LINE
  5
CEE4
330
1F
100
AcDbEntity
  8
0
370
    30
100
AcDbLine
 10
3241.420352528491
 20
428.989655773098
 30
0.0
 11
3231.030479684702
 21
428.989655773098
 31
0.0
  0
LINE
  5
CEE5
330
1F
100
AcDbEntity
  8
0
370
    30
100
AcDbLine
 10
3231.434308971226
 20
429.1239235258976
 30
0.0
 11
3231.966727923049
 21
429.1239235258976
 31
0.0
  0
LINE
  5
CEE6
330
1F
100
AcDbEntity
  8
0
370
    30
100
AcDbLine
 10
3233.03156582669
 20
429.1239235258976
 30
0.0
 11
3233.563984637697
 21
429.1239235258976
 31
0.0
  0
LINE
  5
CEE7
330
1F
100
AcDbEntity
  8
0
370
    30
100
AcDbLine
 10
3234.628822446245
 20
429.1239235258976
 30
0.0
 11
3235.028136648686
 21
429.1239235258976
 31
0.0
  0
LINE
  5
CEE8
330
1F
100
AcDbEntity
  8
0
370
    30
100
AcDbLine
 10
3236.891603052303
 20
429.1239235258976
 30
0.0
 11
3237.290917254734
 21
429.1239235258976
 31
0.0
  0
LINE
  5
CEE9
330
1F
100
AcDbEntity
  8
0
370
    30
100
AcDbLine
 10
3237.823336446133
 20
429.1239235258976
 30
0.0
 11
3238.222650648569
 21
429.1239235258976
 31
0.0
  0
LINE
  5
CEEA
330
1F
100
AcDbEntity
  8
0
370
    30
100
AcDbLine
 10
3238.75506907735
 20
429.1239235258976
 30
0.0
 11
3239.154383277964
 21
429.1239235258976
 31
0.0
  0
LINE
  5
CEEB
330
1F
100
AcDbEntity
  8
0
370
    30
100
AcDbLine
 10
3240.818192963491
 20
429.1239235258976
 30
0.0
 11
3241.417164266236
 21
429.1239235258976
 31
0.0
  0
LINE
  5
CEEC
330
1F
100
AcDbEntity
  8
0
370
    30
100
AcDbLine
 10
3241.507496404798
 20
429.2716534613743
 30
0.0
 11
3241.462816269623
 21
429.2716534613743
 31
0.0
  0
LINE
  5
CEED
330
1F
100
AcDbEntity
  8
0
370
    30
100
AcDbLine
 10
3240.592146932072
 20
429.2716534613743
 30
0.0
 11
3239.200035281349
 21
429.2716534613743
 31
0.0
  0
LINE
  5
CEEE
330
1F
100
AcDbEntity
  8
0
370
    30
100
AcDbLine
 10
3238.682573753707
 20
429.2716534613743
 30
0.0
 11
3238.26830265013
 21
429.2716534613743
 31
0.0
  0
LINE
  5
CEEF
330
1F
100
AcDbEntity
  8
0
370
    30
100
AcDbLine
 10
3237.75084112249
 20
429.2716534613743
 30
0.0
 11
3237.336569258125
 21
429.2716534613743
 31
0.0
  0
LINE
  5
CEF0
330
1F
100
AcDbEntity
  8
0
370
    30
100
AcDbLine
 10
3236.735166660882
 20
429.2716534613743
 30
0.0
 11
3235.073788650238
 21
429.2716534613743
 31
0.0
  0
LINE
  5
CEF1
330
1F
100
AcDbEntity
  8
0
370
    30
100
AcDbLine
 10
3234.642054143427
 20
429.2716534613743
 30
0.0
 11
3233.609636639258
 21
429.2716534613743
 31
0.0
  0
LINE
  5
CEF2
330
1F
100
AcDbEntity
  8
0
370
    30
100
AcDbLine
 10
3232.906055112616
 20
429.2716534613743
 30
0.0
 11
3232.012379924611
 21
429.2716534613743
 31
0.0
  0
LINE
  5
CEF3
330
1F
100
AcDbEntity
  8
0
370
    30
100
AcDbLine
 10
3231.31895014175
 20
429.2716534613743
 30
0.0
 11
3231.117623561015
 21
429.2716534613743
 31
0.0
  0
LINE
  5
CEF4
330
1F
100
AcDbEntity
  8
0
370
    30
100
AcDbLine
 10
3235.064435539765
 20
429.592432280115
 30
0.0
 11
3236.395482753816
 21
429.592432280115
 31
0.0
  0
LINE
  5
CEF5
330
1F
100
AcDbEntity
  8
0
370
    30
100
AcDbLine
 10
3236.252293748851
 20
429.7486018477857
 30
0.0
 11
3235.054351141542
 21
429.7486018477857
 31
0.0
  0
LINE
  5
CEF6
330
1F
100
AcDbEntity
  8
0
370
    30
100
AcDbLine
 10
3235.953676622946
 20
430.0305995342346
 30
0.0
 11
3235.141495017855
 21
430.0305995342346
 31
0.0
  0
LINE
  5
CEF7
330
1F
100
AcDbEntity
  8
0
370
    30
100
AcDbLine
 10
3240.516680675283
 20
430.958916153594
 30
0.0
 11
3240.117366474669
 21
430.958916153594
 31
0.0
  0
LINE
  5
CEF8
330
1F
100
AcDbEntity
  8
0
370
    30
100
AcDbLine
 10
3238.453556789147
 20
430.958916153594
 30
0.0
 11
3237.854585486396
 21
430.958916153594
 31
0.0
  0
LINE
  5
CEF9
330
1F
100
AcDbEntity
  8
0
370
    30
100
AcDbLine
 10
3237.322167057615
 20
430.958916153594
 30
0.0
 11
3236.922852855179
 21
430.958916153594
 31
0.0
  0
LINE
  5
CEFA
330
1F
100
AcDbEntity
  8
0
370
    30
100
AcDbLine
 10
3235.325595665047
 20
430.958916153594
 30
0.0
 11
3234.793176855867
 21
430.958916153594
 31
0.0
  0
LINE
  5
CEFB
330
1F
100
AcDbEntity
  8
0
370
    30
100
AcDbLine
 10
3233.195920046117
 20
430.958916153594
 30
0.0
 11
3232.796605843686
 21
430.958916153594
 31
0.0
  0
LINE
  5
CEFC
330
1F
100
AcDbEntity
  8
0
370
    30
100
AcDbLine
 10
3231.864872641875
 20
430.958916153594
 30
0.0
 11
3231.332453737599
 21
430.958916153594
 31
0.0
  0
LINE
  5
CEFD
330
1F
100
AcDbEntity
  8
0
370
    30
100
AcDbLine
 10
3230.400720630891
 20
430.958916153594
 30
0.0
 11
3230.001406428449
 21
430.958916153594
 31
0.0
  0
LINE
  5
CEFE
330
1F
100
AcDbEntity
  8
0
370
    30
100
AcDbLine
 10
3229.998218008925
 20
431.0931839063938
 30
0.0
 11
3240.388090850879
 21
431.0931839063938
 31
0.0
  0
LINE
  5
CEFF
330
1F
100
AcDbEntity
  8
0
370
    30
100
AcDbLine
 10
3240.603824553418
 20
431.2409138400409
 30
0.0
 11
3240.433742854265
 21
431.2409138400409
 31
0.0
  0
LINE
  5
CF00
330
1F
100
AcDbEntity
  8
0
370
    30
100
AcDbLine
 10
3239.614943260878
 20
431.3840973714039
 30
0.0
 11
3230.485846411769
 21
431.3840973714039
 31
0.0
  0
LINE
  5
CF01
330
1F
100
AcDbEntity
  8
0
370
    30
100
AcDbLine
 10
3237.290917254734
 20
429.1239235258976
 30
0.0
 11
3235.325595665047
 21
430.958916153594
 31
0.0
  0
LINE
  5
CF02
330
1F
100
AcDbEntity
  8
0
370
    30
100
AcDbLine
 10
3236.395482753816
 20
429.592432280115
 30
0.0
 11
3236.891603052303
 21
429.1239235258976
 31
0.0
  0
LINE
  5
CF03
330
1F
100
AcDbEntity
  8
0
370
    30
100
AcDbLine
 10
3235.136023343346
 20
430.8027465859232
 30
0.0
 11
3236.252293748851
 21
429.7486018477857
 31
0.0
  0
LINE
  5
CF04
330
1F
100
AcDbEntity
  8
0
370
    30
100
AcDbLine
 10
3233.087023751441
 20
429.5533898891124
 30
0.0
 11
3231.864872641875
 21
430.958916153594
 31
0.0
  0
LINE
  5
CF05
330
1F
100
AcDbEntity
  8
0
370
    30
100
AcDbLine
 10
3232.983431413848
 20
430.0547424136593
 30
0.0
 11
3232.080472532945
 21
431.0931839063938
 31
0.0
  0
LINE
  5
CF06
330
1F
100
AcDbEntity
  8
0
370
    30
100
AcDbLine
 10
3231.771096243809
 20
430.6075346272494
 30
0.0
 11
3233.03156582669
 21
429.1239235258976
 31
0.0
  0
LINE
  5
CF07
330
1F
100
AcDbEntity
  8
0
370
    30
100
AcDbLine
 10
3231.438162104695
 20
430.0144570604476
 30
0.0
 11
3230.602330342787
 21
431.0931839063938
 31
0.0
  0
LINE
  5
CF0C
330
1F
100
AcDbEntity
  8
0
370
    30
100
AcDbLine
 10
3240.718238204201
 20
432.6777338315225
 30
0.0
 11
3240.635494985785
 21
432.6563081301013
 31
0.0
  0
LINE
  5
CF0D
330
1F
100
AcDbEntity
  8
0
370
    30
100
AcDbLine
 10
3239.224624340423
 20
431.6660950578516
 30
0.0
 11
3230.572990288079
 21
431.6660950578516
 31
0.0
  0
LINE
  5
CF0E
330
1F
100
AcDbEntity
  8
0
370
    30
100
AcDbLine
 10
3240.142233440028
 20
432.0778140948132
 30
0.0
 11
3240.328748291582
 21
432.0778140948132
 31
0.0
  0
LINE
  5
CF0F
330
1F
100
AcDbEntity
  8
0
370
    30
100
AcDbLine
 10
3241.105893475614
 20
432.0778140948132
 30
0.0
 11
3241.323494194598
 21
432.0778140948132
 31
0.0
  0
LINE
  5
CF10
330
1F
100
AcDbEntity
  8
0
370
    30
100
AcDbLine
 10
3240.107949899349
 20
432.5277539124328
 30
0.0
 11
3240.636408630487
 21
432.5277539124328
 31
0.0
  0
LINE
  5
CF11
330
1F
100
AcDbEntity
  8
0
370
    30
100
AcDbLine
 10
3240.635494985785
 20
432.6563081301013
 30
0.0
 11
3240.044864653309
 21
432.6563081301013
 31
0.0
  0
LINE
  5
CF12
330
1F
100
AcDbEntity
  8
0
370
    30
100
AcDbLine
 10
3240.61642880579
 20
432.9383058165496
 30
0.0
 11
3240.132008529613
 21
432.9383058165496
 31
0.0
  0
LINE
  5
CF13
330
1F
100
AcDbEntity
  8
0
370
    30
100
AcDbLine
 10
3239.887151507115
 20
432.9776937300517
 30
0.0
 11
3240.477781839588
 21
432.9776937300517
 31
0.0
  0
LINE
  5
CF14
330
1F
100
AcDbEntity
  8
0
370
    30
100
AcDbLine
 10
3240.394125022195
 20
433.0848222444703
 30
0.0
 11
3239.648065615968
 21
433.0848222444703
 31
0.0
  0
LINE
  5
CF17
330
1F
100
AcDbEntity
  8
0
370
    30
100
AcDbLine
 10
3240.560068302402
 20
433.0633965412213
 30
0.0
 11
3240.394125022195
 21
433.0848222444703
 31
0.0
  0
LINE
  5
CF18
330
1F
100
AcDbEntity
  8
0
370
    30
100
AcDbLine
 10
3240.477781839588
 20
432.9776937300517
 30
0.0
 11
3240.581553472738
 21
432.9562680286308
 31
0.0
  0
LINE
  5
CF19
330
1F
100
AcDbEntity
  8
0
370
    30
100
AcDbLine
 10
3240.715954129923
 20
432.9991194333016
 30
0.0
 11
3240.560068302402
 21
433.0633965412213
 31
0.0
  0
LINE
  5
CF1A
330
1F
100
AcDbEntity
  8
0
370
    30
100
AcDbLine
 10
3240.581553472738
 20
432.9562680286308
 30
0.0
 11
3240.664753534531
 21
432.9134166221319
 31
0.0
  0
LINE
  5
CF1B
330
1F
100
AcDbEntity
  8
0
370
    30
100
AcDbLine
 10
3240.883735489453
 20
429.3972202958384
 30
0.0
 11
3238.453556789147
 21
430.958916153594
 31
0.0
  0
LINE
  5
CF1C
330
1F
100
AcDbEntity
  8
0
370
    30
100
AcDbLine
 10
3240.641470339237
 20
429.8909047662275
 30
0.0
 11
3238.770585465117
 21
431.0931839063938
 31
0.0
  0
LINE
  5
CF1D
330
1F
100
AcDbEntity
  8
0
370
    30
100
AcDbLine
 10
3238.368855026514
 20
430.7246618020877
 30
0.0
 11
3240.818192963491
 21
429.1239235258976
 31
0.0
  0
LINE
  5
CF1E
330
1F
100
AcDbEntity
  8
0
370
    30
100
AcDbLine
 10
3237.378061131046
 20
429.4059212141743
 30
0.0
 11
3235.570961882153
 21
431.0931839063938
 31
0.0
  0
LINE
  5
CF1F
330
1F
100
AcDbEntity
  8
0
370
    30
100
AcDbLine
 10
3232.796605843686
 20
430.958916153594
 30
0.0
 11
3233.087023751441
 21
429.5533898891124
 31
0.0
  0
LINE
  5
CF20
330
1F
100
AcDbEntity
  8
0
370
    30
100
AcDbLine
 10
3231.966727923049
 20
429.1239235258976
 30
0.0
 11
3231.771096243809
 21
430.6075346272494
 31
0.0
  0
LINE
  5
CF21
330
1F
100
AcDbEntity
  8
0
370
    30
100
AcDbLine
 10
3232.053871799361
 20
429.4059212141743
 30
0.0
 11
3231.918266464067
 21
430.4343107954915
 31
0.0
  0
LINE
  5
CF22
330
1F
100
AcDbEntity
  8
0
370
    30
100
AcDbLine
 10
3231.332453737599
 20
430.958916153594
 30
0.0
 11
3231.48976694169
 21
429.5533898891124
 31
0.0
  0
LINE
  5
CF23
330
1F
100
AcDbEntity
  8
0
370
    30
100
AcDbLine
 10
3230.08160228574
 20
431.6911016813455
 30
0.0
 11
3229.998218008925
 21
431.0931839063938
 31
0.0
  0
LINE
  5
CF24
330
1F
100
AcDbEntity
  8
0
370
    30
100
AcDbLine
 10
3230.485846411769
 20
431.3840973714039
 30
0.0
 11
3230.529015197364
 21
431.5529078296163
 31
0.0
  0
LINE
  5
CF27
330
1F
100
AcDbEntity
  8
0
370
    30
100
AcDbLine
 10
3240.851268386091
 20
432.9134166221319
 30
0.0
 11
3240.715954129923
 21
432.9991194333016
 31
0.0
  0
LINE
  5
CF28
330
1F
100
AcDbEntity
  8
0
370
    30
100
AcDbLine
 10
3241.323494194598
 20
432.0778140948132
 30
0.0
 11
3240.801895109372
 21
432.5706053189311
 31
0.0
  0
LINE
  5
CF29
330
1F
100
AcDbEntity
  8
0
370
    30
100
AcDbLine
 10
3241.410638070898
 20
432.3598117830895
 30
0.0
 11
3240.977888082657
 21
432.7686610360019
 31
0.0
  0
LINE
  5
CF2A
330
1F
100
AcDbEntity
  8
0
370
    30
100
AcDbLine
 10
3240.636408630487
 20
432.5277539124328
 30
0.0
 11
3241.105893475614
 21
432.0778140948132
 31
0.0
  0
LINE
  5
CF2B
330
1F
100
AcDbEntity
  8
0
370
    30
100
AcDbLine
 10
3240.664753534531
 20
432.9134166221319
 30
0.0
 11
3240.727381937193
 21
432.8491395142116
 31
0.0
  0
LINE
  5
CF2C
330
1F
100
AcDbEntity
  8
0
370
    30
100
AcDbLine
 10
3240.913896788742
 20
432.8491395142116
 30
0.0
 11
3240.851268386091
 21
432.9134166221319
 31
0.0
  0
LINE
  5
CF2D
330
1F
100
AcDbEntity
  8
0
370
    30
100
AcDbLine
 10
3236.922852855179
 20
430.958916153594
 30
0.0
 11
3237.823336446133
 21
429.1239235258976
 31
0.0
  0
LINE
  5
CF2E
330
1F
100
AcDbEntity
  8
0
370
    30
100
AcDbLine
 10
3238.222650648569
 20
429.1239235258976
 30
0.0
 11
3237.322167057615
 21
430.958916153594
 31
0.0
  0
LINE
  5
CF2F
330
1F
100
AcDbEntity
  8
0
370
    30
100
AcDbLine
 10
3238.309794524881
 20
429.4059212141743
 30
0.0
 11
3237.481806255735
 21
431.0931839063938
 31
0.0
  0
LINE
  5
CF30
330
1F
100
AcDbEntity
  8
0
370
    30
100
AcDbLine
 10
3237.854585486396
 20
430.958916153594
 30
0.0
 11
3238.75506907735
 21
429.1239235258976
 31
0.0
  0
LINE
  5
CF31
330
1F
100
AcDbEntity
  8
0
370
    30
100
AcDbLine
 10
3239.154383277964
 20
429.1239235258976
 30
0.0
 11
3238.368855026514
 21
430.7246618020877
 31
0.0
  0
LINE
  5
CF32
330
1F
100
AcDbEntity
  8
0
370
    30
100
AcDbLine
 10
3239.241527156099
 20
429.4059212141743
 30
0.0
 11
3238.700861075229
 21
430.5076828458513
 31
0.0
  0
LINE
  5
CF33
330
1F
100
AcDbEntity
  8
0
370
    30
100
AcDbLine
 10
3233.563984637697
 20
429.1239235258976
 30
0.0
 11
3233.195920046117
 21
430.958916153594
 31
0.0
  0
LINE
  5
CF34
330
1F
100
AcDbEntity
  8
0
370
    30
100
AcDbLine
 10
3233.651128514008
 20
429.4059212141743
 30
0.0
 11
3233.312695734742
 21
431.0931839063938
 31
0.0
  0
LINE
  5
CF35
330
1F
100
AcDbEntity
  8
0
370
    30
100
AcDbLine
 10
3235.054351141542
 20
429.7486018477857
 30
0.0
 11
3235.136023343346
 21
430.8027465859232
 31
0.0
  0
LINE
  5
CF36
330
1F
100
AcDbEntity
  8
0
370
    30
100
AcDbLine
 10
3235.028136648686
 20
429.1239235258976
 30
0.0
 11
3235.064435539765
 21
429.592432280115
 31
0.0
  0
LINE
  5
CF37
330
1F
100
AcDbEntity
  8
0
370
    30
100
AcDbLine
 10
3235.141495017855
 20
430.0305995342346
 30
0.0
 11
3235.196867170044
 21
430.7452890037096
 31
0.0
  0
LINE
  5
CF38
330
1F
100
AcDbEntity
  8
0
370
    30
100
AcDbLine
 10
3235.115280524988
 20
429.4059212141743
 30
0.0
 11
3235.129341323288
 21
429.5874035428026
 31
0.0
  0
LINE
  5
CF39
330
1F
100
AcDbEntity
  8
0
370
    30
100
AcDbLine
 10
3234.793176855867
 20
430.958916153594
 30
0.0
 11
3234.628822446245
 21
429.1239235258976
 31
0.0
  0
LINE
  5
CF3A
330
1F
100
AcDbEntity
  8
0
370
    30
100
AcDbLine
 10
3230.042898301376
 20
431.0931839063938
 30
0.0
 11
3230.001406428449
 21
430.958916153594
 31
0.0
  0
LINE
  5
CF3B
330
1F
100
AcDbEntity
  8
0
370
    30
100
AcDbLine
 10
3230.442212503812
 20
431.0931839063938
 30
0.0
 11
3230.400720630891
 21
430.958916153594
 31
0.0
  0
LINE
  5
CF3C
330
1F
100
AcDbEntity
  8
0
370
    30
100
AcDbLine
 10
3231.373945610521
 20
431.0931839063938
 30
0.0
 11
3231.332453737599
 21
430.958916153594
 31
0.0
  0
LINE
  5
CF3D
330
1F
100
AcDbEntity
  8
0
370
    30
100
AcDbLine
 10
3231.117623561015
 20
429.2716534613743
 30
0.0
 11
3231.030479684702
 21
428.989655773098
 31
0.0
  0
LINE
  5
CF3E
330
1F
100
AcDbEntity
  8
0
370
    30
100
AcDbLine
 10
3231.906364516625
 20
431.0931839063938
 30
0.0
 11
3231.864872641875
 21
430.958916153594
 31
0.0
  0
LINE
  5
CF3F
330
1F
100
AcDbEntity
  8
0
370
    30
100
AcDbLine
 10
3232.053871799361
 20
429.4059212141743
 30
0.0
 11
3231.966727923049
 21
429.1239235258976
 31
0.0
  0
LINE
  5
CF40
330
1F
100
AcDbEntity
  8
0
370
    30
100
AcDbLine
 10
3232.838097718435
 20
431.0931839063938
 30
0.0
 11
3232.796605843686
 21
430.958916153594
 31
0.0
  0
LINE
  5
CF42
330
1F
100
AcDbEntity
  8
0
370
    30
100
AcDbLine
 10
3240.117366474669
 20
430.958916153594
 30
0.0
 11
3240.883735489453
 21
429.3972202958384
 31
0.0
  0
LINE
  5
CF43
330
1F
100
AcDbEntity
  8
0
370
    30
100
AcDbLine
 10
3241.417164266236
 20
429.1239235258976
 30
0.0
 11
3240.516680675283
 21
430.958916153594
 31
0.0
  0
LINE
  5
CF44
330
1F
100
AcDbEntity
  8
0
370
    30
100
AcDbLine
 10
3239.648065615968
 20
433.0848222444703
 30
0.0
 11
3240.142233440028
 21
432.0778140948132
 31
0.0
  0
LINE
  5
CF45
330
1F
100
AcDbEntity
  8
0
370
    30
100
AcDbLine
 10
3241.504308142543
 20
429.4059212141743
 30
0.0
 11
3240.603824553418
 21
431.2409138400409
 31
0.0
  0
LINE
  5
CF46
330
1F
100
AcDbEntity
  8
0
370
    30
100
AcDbLine
 10
3240.328748291582
 20
432.0778140948132
 30
0.0
 11
3240.107949899349
 21
432.5277539124328
 31
0.0
  0
LINE
  5
CF47
330
1F
100
AcDbEntity
  8
0
370
    30
100
AcDbLine
 10
3240.044864653309
 20
432.6563081301013
 30
0.0
 11
3239.887151507115
 21
432.9776937300517
 31
0.0
  0
LINE
  5
CF48
330
1F
100
AcDbEntity
  8
0
370
    30
100
AcDbLine
 10
3240.415892167894
 20
432.3598117830895
 30
0.0
 11
3240.333478140801
 21
432.5277539124328
 31
0.0
  0
LINE
  5
CF49
330
1F
100
AcDbEntity
  8
0
370
    30
100
AcDbLine
 10
3240.132008529613
 20
432.9383058165496
 30
0.0
 11
3240.112679748563
 21
432.9776937300517
 31
0.0
  0
LINE
  5
CF4A
330
1F
100
AcDbEntity
  8
0
370
    30
100
AcDbLine
 10
3240.727381937193
 20
432.8491395142116
 30
0.0
 11
3240.75892458947
 21
432.7848623459407
 31
0.0
  0
LINE
  5
CF4B
330
1F
100
AcDbEntity
  8
0
370
    30
100
AcDbLine
 10
3240.955953649311
 20
432.7634366426925
 30
0.0
 11
3240.913896788742
 21
432.8491395142116
 31
0.0
  0
LINE
  5
CF4C
330
1F
100
AcDbEntity
  8
0
370
    30
100
AcDbLine
 10
3233.237411920867
 20
431.0931839063938
 30
0.0
 11
3233.195920046117
 21
430.958916153594
 31
0.0
  0
LINE
  5
CF4D
330
1F
100
AcDbEntity
  8
0
370
    30
100
AcDbLine
 10
3233.651128514008
 20
429.4059212141743
 30
0.0
 11
3233.563984637697
 21
429.1239235258976
 31
0.0
  0
LINE
  5
CF4E
330
1F
100
AcDbEntity
  8
0
370
    30
100
AcDbLine
 10
3234.83466872879
 20
431.0931839063938
 30
0.0
 11
3234.793176855867
 21
430.958916153594
 31
0.0
  0
LINE
  5
CF4F
330
1F
100
AcDbEntity
  8
0
370
    30
100
AcDbLine
 10
3235.367087539796
 20
431.0931839063938
 30
0.0
 11
3235.325595665047
 21
430.958916153594
 31
0.0
  0
LINE
  5
CF50
330
1F
100
AcDbEntity
  8
0
370
    30
100
AcDbLine
 10
3235.141495017855
 20
430.0305995342346
 30
0.0
 11
3235.054351141542
 21
429.7486018477857
 31
0.0
  0
LINE
  5
CF51
330
1F
100
AcDbEntity
  8
0
370
    30
100
AcDbLine
 10
3235.115280524988
 20
429.4059212141743
 30
0.0
 11
3235.028136648686
 21
429.1239235258976
 31
0.0
  0
LINE
  5
CF54
330
1F
100
AcDbEntity
  8
0
370
    30
100
AcDbLine
 10
3240.75892458947
 20
432.7848623459407
 30
0.0
 11
3240.759381434682
 21
432.7205852380211
 31
0.0
  0
LINE
  5
CF55
330
1F
100
AcDbEntity
  8
0
370
    30
100
AcDbLine
 10
3240.95641049269
 20
432.6991595347711
 30
0.0
 11
3240.955953649311
 21
432.7634366426925
 31
0.0
  0
LINE
  5
CF56
330
1F
100
AcDbEntity
  8
0
370
    30
100
AcDbLine
 10
3236.964344729928
 20
431.0931839063938
 30
0.0
 11
3236.922852855179
 21
430.958916153594
 31
0.0
  0
LINE
  5
CF57
330
1F
100
AcDbEntity
  8
0
370
    30
100
AcDbLine
 10
3237.363658932364
 20
431.0931839063938
 30
0.0
 11
3237.322167057615
 21
430.958916153594
 31
0.0
  0
LINE
  5
CF58
330
1F
100
AcDbEntity
  8
0
370
    30
100
AcDbLine
 10
3237.896077359328
 20
431.0931839063938
 30
0.0
 11
3237.854585486396
 21
430.958916153594
 31
0.0
  0
LINE
  5
CF59
330
1F
100
AcDbEntity
  8
0
370
    30
100
AcDbLine
 10
3237.378061131046
 20
429.4059212141743
 30
0.0
 11
3237.290917254734
 21
429.1239235258976
 31
0.0
  0
LINE
  5
CF5A
330
1F
100
AcDbEntity
  8
0
370
    30
100
AcDbLine
 10
3238.495048663897
 20
431.0931839063938
 30
0.0
 11
3238.453556789147
 21
430.958916153594
 31
0.0
  0
LINE
  5
CF5B
330
1F
100
AcDbEntity
  8
0
370
    30
100
AcDbLine
 10
3239.221662606142
 20
433.2389617764753
 30
0.0
 11
3239.134518729831
 21
432.9569640881985
 31
0.0
  0
LINE
  5
CF5C
330
1F
100
AcDbEntity
  8
0
370
    30
100
AcDbLine
 10
3238.309794524881
 20
429.4059212141743
 30
0.0
 11
3238.222650648569
 21
429.1239235258976
 31
0.0
  0
LINE
  5
CF5D
330
1F
100
AcDbEntity
  8
0
370
    30
100
AcDbLine
 10
3239.67394216853
 20
433.1685587957172
 30
0.0
 11
3239.648065615968
 21
433.0848222444703
 31
0.0
  0
LINE
  5
CF5E
330
1F
100
AcDbEntity
  8
0
370
    30
100
AcDbLine
 10
3241.336968249848
 20
428.3917379963167
 30
0.0
 11
3241.420352528491
 21
428.989655773098
 31
0.0
  0
LINE
  5
CF5F
330
1F
100
AcDbEntity
  8
0
370
    30
100
AcDbLine
 10
3240.932724125638
 20
428.6987423080885
 30
0.0
 11
3240.889555338218
 21
428.5299318498752
 31
0.0
  0
LINE
  5
CF60
330
1F
100
AcDbEntity
  8
0
370
    30
100
AcDbLine
 10
3240.132008529613
 20
432.9383058165496
 30
0.0
 11
3240.044864653309
 21
432.6563081301013
 31
0.0
  0
LINE
  5
CF61
330
1F
100
AcDbEntity
  8
0
370
    30
100
AcDbLine
 10
3239.241527156099
 20
429.4059212141743
 30
0.0
 11
3239.154383277964
 21
429.1239235258976
 31
0.0
  0
LINE
  5
CF62
330
1F
100
AcDbEntity
  8
0
370
    30
100
AcDbLine
 10
3240.433592865235
 20
433.2125402305377
 30
0.0
 11
3240.394125022195
 21
433.0848222444703
 31
0.0
  0
LINE
  5
CF63
330
1F
100
AcDbEntity
  8
0
370
    30
100
AcDbLine
 10
3240.595208970544
 20
433.17711178425
 30
0.0
 11
3240.560068302402
 21
433.0633965412213
 31
0.0
  0
LINE
  5
CF64
330
1F
100
AcDbEntity
  8
0
370
    30
100
AcDbLine
 10
3240.415892167894
 20
432.3598117830895
 30
0.0
 11
3240.328748291582
 21
432.0778140948132
 31
0.0
  0
LINE
  5
CF65
330
1F
100
AcDbEntity
  8
0
370
    30
100
AcDbLine
 10
3240.75503536647
 20
433.1255863647204
 30
0.0
 11
3240.715954129923
 21
432.9991194333016
 31
0.0
  0
LINE
  5
CF66
330
1F
100
AcDbEntity
  8
0
370
    30
100
AcDbLine
 10
3240.70286131364
 20
432.8743056474706
 30
0.0
 11
3240.635494985785
 21
432.6563081301013
 31
0.0
  0
LINE
  5
CF67
330
1F
100
AcDbEntity
  8
0
370
    30
100
AcDbLine
 10
3240.158858347601
 20
431.0931839063938
 30
0.0
 11
3240.117366474669
 21
430.958916153594
 31
0.0
  0
LINE
  5
CF68
330
1F
100
AcDbEntity
  8
0
370
    30
100
AcDbLine
 10
3240.752004276766
 20
432.7870008843108
 30
0.0
 11
3240.718238204201
 21
432.6777338315225
 31
0.0
  0
LINE
  5
CF69
330
1F
100
AcDbEntity
  8
0
370
    30
100
AcDbLine
 10
3240.897345484897
 20
433.0625221663381
 30
0.0
 11
3240.851268386091
 21
432.9134166221319
 31
0.0
  0
LINE
  5
CF6A
330
1F
100
AcDbEntity
  8
0
370
    30
100
AcDbLine
 10
3240.969901069322
 20
433.0303694300337
 30
0.0
 11
3240.913896788742
 21
432.8491395142116
 31
0.0
  0
LINE
  5
CF6B
330
1F
100
AcDbEntity
  8
0
370
    30
100
AcDbLine
 10
3240.475234727187
 20
431.3751815928421
 30
0.0
 11
3240.388090850879
 21
431.0931839063938
 31
0.0
  0
LINE
  5
CF6C
330
1F
100
AcDbEntity
  8
0
370
    30
100
AcDbLine
 10
3241.030186481084
 20
433.0036541751586
 30
0.0
 11
3240.955953649311
 21
432.7634366426925
 31
0.0
  0
LINE
  5
CF6D
330
1F
100
AcDbEntity
  8
0
370
    30
100
AcDbLine
 10
3241.043554370835
 20
432.9811572230481
 30
0.0
 11
3240.974502310006
 21
432.7577046732558
 31
0.0
  0
LINE
  5
CF6E
330
1F
100
AcDbEntity
  8
0
370
    30
100
AcDbLine
 10
3240.603824553418
 20
431.2409138400409
 30
0.0
 11
3240.516680675283
 21
430.958916153594
 31
0.0
  0
LINE
  5
CF6F
330
1F
100
AcDbEntity
  8
0
370
    30
100
AcDbLine
 10
3241.410638070898
 20
432.3598117830895
 30
0.0
 11
3241.323494194598
 21
432.0778140948132
 31
0.0
  0
LINE
  5
CF70
330
1F
100
AcDbEntity
  8
0
370
    30
100
AcDbLine
 10
3241.870089186543
 20
432.4205360629616
 30
0.0
 11
3241.782945310237
 21
432.1385383746854
 31
0.0
  0
LINE
  5
CF71
330
1F
100
AcDbEntity
  8
0
370
    30
100
AcDbLine
 10
3241.504308142543
 20
429.4059212141743
 30
0.0
 11
3241.417164266236
 21
429.1239235258976
 31
0.0
  0
LINE
  5
CF72
330
1F
100
AcDbEntity
  8
0
370
    30
100
AcDbLine
 10
3241.507496404798
 20
429.2716534613743
 30
0.0
 11
3241.420352528491
 21
428.989655773098
 31
0.0
  0
LINE
  5
CF73
330
1F
100
AcDbEntity
  8
0
370
    30
100
AcDbLine
 10
3240.905209899138
 20
432.6134567236024
 30
0.0
 11
3240.95641049269
 21
432.6991595347711
 31
0.0
  0
LINE
  5
CF74
330
1F
100
AcDbEntity
  8
0
370
    30
100
AcDbLine
 10
3240.759381434682
 20
432.7205852380211
 30
0.0
 11
3240.718238204201
 21
432.6777338315225
 31
0.0
  0
LINE
  5
CF75
330
1F
100
AcDbEntity
  8
0
370
    30
100
AcDbLine
 10
3240.801895109372
 20
432.5706053189311
 30
0.0
 11
3240.905209899138
 21
432.6134567236024
 31
0.0
  0
LINE
  5
CF8C
330
1F
100
AcDbEntity
  8
0
370
    30
100
AcDbLine
 10
3230.528884902681
 20
431.5529482113496
 30
0.0
 11
3230.56878738929
 21
431.6672348391636
 31
0.0
  0
SPLINE
  5
CF8D
330
1F
100
AcDbEntity
  8
0
370
    30
100
AcDbSpline
210
0.0
220
0.0
230
1.0
 70
     8
 71
     3
 72
    21
 73
    17
 74
    15
 42
0.0000000001
 43
0.0000000001
 44
0.0000000001
 12
0.3627998151382584
 22
0.9318671011124093
 32
0.0
 13
0.7733770633332064
 23
-0.6339463052263226
 33
0.0
 40
0.0
 40
0.0
 40
0.0
 40
0.0
 40
0.2556779968941299
 40
0.5393305925619309
 40
0.8340993981423764
 40
1.170492463430569
 40
1.526989208168289
 40
2.305215347415892
 40
3.173493746348488
 40
4.121412844833641
 40
5.131019989497939
 40
6.17807789992356
 40
7.235827182039582
 40
8.276556846997959
 40
9.197633779943405
 40
9.969748853226031
 40
9.969748853226031
 40
9.969748853226031
 40
9.969748853226031
 10
3230.56878738929
 20
431.6672348391636
 30
0.0
 10
3230.599707365959
 20
431.7466541437582
 30
0.0
 10
3230.677506583667
 20
431.9095464763573
 30
0.0
 10
3230.833799700088
 20
432.1407213212835
 30
0.0
 10
3231.04010215489
 20
432.3666386876786
 30
0.0
 10
3231.294839942655
 20
432.5768757429318
 30
0.0
 10
3231.710880434472
 20
432.8385179119194
 30
0.0
 10
3232.333930671402
 20
433.0927381779424
 30
0.0
 10
3233.183670165218
 20
433.2710361339894
 30
0.0
 10
3234.126722767884
 20
433.3294579226567
 30
0.0
 10
3235.128454352726
 20
433.2634082761439
 30
0.0
 10
3236.152083772525
 20
433.0779747088436
 30
0.0
 10
3237.158841100918
 20
432.7777050817156
 30
0.0
 10
3238.088385782713
 20
432.3859739304859
 30
0.0
 10
3238.884271246193
 20
431.9382790546783
 30
0.0
 10
3239.34339212118
 20
431.6076071431846
 30
0.0
 10
3239.542437483823
 20
431.4444473105456
 30
0.0
 11
3230.56878738929
 21
431.6672348391636
 31
0.0
 11
3230.678698675292
 21
431.8980827269711
 31
0.0
 11
3230.837021131924
 21
432.133439466316
 31
0.0
 11
3231.035176781943
 21
432.3516663828704
 31
0.0
 11
3231.293718939783
 21
432.5668784805633
 31
0.0
 11
3231.594777089411
 21
432.7578075761754
 31
0.0
 11
3232.311976248554
 21
433.0599024121668
 31
0.0
 11
3233.160160916217
 21
433.2456176446978
 31
0.0
 11
3234.105985217706
 21
433.3086018330804
 31
0.0
 11
3235.113625817608
 21
433.2456176446978
 31
0.0
 11
3236.144082085574
 21
433.0599024121668
 31
0.0
 11
3237.157774471796
 21
432.7578075761754
 31
0.0
 11
3238.115985078409
 21
432.3516663828704
 31
0.0
 11
3238.917636239142
 21
431.8980827269711
 31
0.0
 11
3239.542437483823
 21
431.4444473105456
 31
0.0
  0
LINE
  5
CF8E
330
1F
100
AcDbEntity
  8
0
370
    30
100
AcDbLine
 10
3239.542437483823
 20
431.4444473105456
 30
0.0
 11
3239.614931039009
 21
431.3840829238833
 31
0.0
  0
SPLINE
  5
CF8F
330
1F
100
AcDbEntity
  8
0
370
    30
100
AcDbSpline
210
0.0
220
0.0
230
1.0
 70
     8
 71
     3
 72
     9
 73
     5
 74
     3
 42
0.0000000001
 43
0.0000000001
 44
0.0000000001
 12
0.2992338427388739
 22
0.9541798087151745
 32
0.0
 13
0.9007337676526642
 23
0.4343715918545275
 33
0.0
 40
0.0
 40
0.0
 40
0.0
 40
0.0
 40
0.1331070287457452
 40
0.3881088686118486
 40
0.3881088686118486
 40
0.3881088686118486
 40
0.3881088686118486
 10
3239.37613650497
 20
432.8821013335818
 30
0.0
 10
3239.389413214206
 20
432.9244373466575
 30
0.0
 10
3239.448746155707
 20
433.0426220352553
 30
0.0
 10
3239.560354191352
 20
433.1212956268254
 30
0.0
 10
3239.636917114012
 20
433.1582174785283
 30
0.0
 11
3239.37613650497
 21
432.8821013335818
 31
0.0
 11
3239.436260025863
 21
433.0008558843871
 31
0.0
 11
3239.636917114012
 21
433.1582174785283
 31
0.0
  0
LINE
  5
CF90
330
1F
100
AcDbEntity
  8
0
370
    30
100
AcDbLine
 10
3239.636917114012
 20
433.1582174785283
 30
0.0
 11
3239.671666333005
 21
433.1739337907072
 31
0.0
  0
SPLINE
  5
CF91
330
1F
100
AcDbEntity
  8
0
370
    30
100
AcDbSpline
210
0.0
220
0.0
230
1.0
 70
     8
 71
     3
 72
     8
 73
     4
 74
     2
 42
0.0000000001
 43
0.0000000001
 44
0.0000000001
 12
0.9208566261479159
 22
0.389901364551956
 32
0.0
 13
0.9922282272439286
 23
0.1244312865013085
 33
0.0
 40
0.0
 40
0.0
 40
0.0
 40
0.0
 40
0.2736188499861661
 40
0.2736188499861661
 40
0.2736188499861661
 40
0.2736188499861661
 10
3239.671666333005
 20
433.1739337907072
 30
0.0
 10
3239.755654243355
 20
433.2094952450328
 30
0.0
 10
3239.846199759762
 20
433.2305989186293
 30
0.0
 10
3239.936697208583
 20
433.2419478338009
 30
0.0
 11
3239.671666333005
 21
433.1739337907072
 31
0.0
 11
3239.936697208583
 21
433.2419478338009
 31
0.0
  0
LINE
  5
CF92
330
1F
100
AcDbEntity
  8
0
370
    30
100
AcDbLine
 10
3239.936697208583
 20
433.2419478338009
 30
0.0
 11
3239.973893901471
 21
433.2460826335569
 31
0.0
  0
SPLINE
  5
CF93
330
1F
100
AcDbEntity
  8
0
370
    30
100
AcDbSpline
210
0.0
220
0.0
230
1.0
 70
     8
 71
     3
 72
     9
 73
     5
 74
     3
 42
0.0000000001
 43
0.0000000001
 44
0.0000000001
 12
0.9953190350454399
 22
0.0966437710161102
 32
0.0
 13
0.9838477792524566
 23
-0.1790071151100129
 33
0.0
 40
0.0
 40
0.0
 40
0.0
 40
0.0
 40
0.3255747617479092
 40
0.4516976939562558
 40
0.4516976939562558
 40
0.4516976939562558
 40
0.4516976939562558
 10
3239.973893901471
 20
433.2460826335569
 30
0.0
 10
3240.081910820704
 20
433.2565708911312
 30
0.0
 10
3240.23391040942
 20
433.2531063628763
 30
0.0
 10
3240.382859114728
 20
433.2311080840383
 30
0.0
 10
3240.424221036983
 20
433.2235824499571
 30
0.0
 11
3239.973893901471
 21
433.2460826335569
 31
0.0
 11
3240.29944240618
 21
433.2419478338009
 31
0.0
 11
3240.424221036983
 21
433.2235824499571
 31
0.0
  0
LINE
  5
CF94
330
1F
100
AcDbEntity
  8
0
370
    30
100
AcDbLine
 10
3240.424221036983
 20
433.2235824499571
 30
0.0
 11
3240.587430784227
 21
433.1864373127668
 31
0.0
  0
LINE
  5
CF95
330
1F
100
AcDbEntity
  8
0
370
    30
100
AcDbLine
 10
3240.587430784227
 20
433.1864373127668
 30
0.0
 11
3240.681400281635
 21
433.1582174785283
 31
0.0
  0
LINE
  5
CF96
330
1F
100
AcDbEntity
  8
0
370
    30
100
AcDbLine
 10
3240.681400281635
 20
433.1582174785283
 30
0.0
 11
3240.739384572882
 21
433.1382485223783
 31
0.0
  0
LINE
  5
CF97
330
1F
100
AcDbEntity
  8
0
370
    30
100
AcDbLine
 10
3240.739384572882
 20
433.1382485223783
 30
0.0
 11
3240.77184025173
 21
433.1261838281938
 31
0.0
  0
LINE
  5
CF98
330
1F
100
AcDbEntity
  8
0
370
    30
100
AcDbLine
 10
3240.77184025173
 20
433.1261838281938
 30
0.0
 11
3240.862593058182
 21
433.0888669154774
 31
0.0
  0
LINE
  5
CF99
330
1F
100
AcDbEntity
  8
0
370
    30
100
AcDbLine
 10
3240.862593058182
 20
433.0888669154774
 30
0.0
 11
3240.88655497785
 21
433.078087174578
 31
0.0
  0
LINE
  5
CF9A
330
1F
100
AcDbEntity
  8
0
370
    30
100
AcDbLine
 10
3240.88655497785
 20
433.078087174578
 30
0.0
 11
3240.91800717586
 21
433.0633170707171
 31
0.0
  0
LINE
  5
CF9B
330
1F
100
AcDbEntity
  8
0
370
    30
100
AcDbLine
 10
3240.91800717586
 20
433.0633170707171
 30
0.0
 11
3240.961775502435
 21
433.0415421142165
 31
0.0
  0
LINE
  5
CF9C
330
1F
100
AcDbEntity
  8
0
370
    30
100
AcDbLine
 10
3240.961775502435
 20
433.0415421142165
 30
0.0
 11
3240.992402377637
 21
433.0254204046253
 31
0.0
  0
LINE
  5
CF9D
330
1F
100
AcDbEntity
  8
0
370
    30
100
AcDbLine
 10
3240.992402377637
 20
433.0254204046253
 30
0.0
 11
3241.02610607533
 21
433.0067944497016
 31
0.0
  0
LINE
  5
CF9E
330
1F
100
AcDbEntity
  8
0
370
    30
100
AcDbLine
 10
3241.02610607533
 20
433.0067944497016
 30
0.0
 11
3241.036501078766
 21
433.0008558843871
 31
0.0
  0
LINE
  5
CF9F
330
1F
100
AcDbEntity
  8
0
370
    30
100
AcDbLine
 10
3241.036501078766
 20
433.0008558843871
 30
0.0
 11
3241.051459349693
 21
432.9921446241873
 31
0.0
  0
LINE
  5
CFA0
330
1F
100
AcDbEntity
  8
0
370
    30
100
AcDbLine
 10
3241.051459349693
 20
432.9921446241873
 30
0.0
 11
3241.102131811408
 21
432.9610814027986
 31
0.0
  0
LINE
  5
CFA1
330
1F
100
AcDbEntity
  8
0
370
    30
100
AcDbLine
 10
3241.102131811408
 20
432.9610814027986
 30
0.0
 11
3241.134611399997
 21
432.9397903230034
 31
0.0
  0
SPLINE
  5
CFA2
330
1F
100
AcDbEntity
  8
0
370
    30
100
AcDbSpline
210
0.0
220
0.0
230
1.0
 70
     8
 71
     3
 72
     9
 73
     5
 74
     3
 42
0.0000000001
 43
0.0000000001
 44
0.0000000001
 12
0.8294364129812995
 22
-0.5586011428745157
 32
0.0
 13
0.4405427080585289
 23
-0.8977316538790741
 33
0.0
 40
0.0
 40
0.0
 40
0.0
 40
0.0
 40
0.2405565498220915
 40
0.5422108280149159
 40
0.5422108280149159
 40
0.5422108280149159
 40
0.5422108280149159
 10
3241.134611399997
 20
432.9397903230034
 30
0.0
 10
3241.201120187265
 20
432.8949986017845
 30
0.0
 10
3241.343024170221
 20
432.7824223207203
 30
0.0
 10
3241.45891799012
 20
432.638019429462
 30
0.0
 10
3241.503215187658
 20
432.5477512314415
 30
0.0
 11
3241.134611399997
 21
432.9397903230034
 31
0.0
 11
3241.321914400345
 21
432.7888431808545
 31
0.0
 11
3241.503215187658
 21
432.5477512314415
 31
0.0
  0
SPLINE
  5
CFA5
330
1F
100
AcDbEntity
  8
0
370
    30
100
AcDbSpline
210
0.0
220
0.0
230
1.0
 70
     8
 71
     3
 72
     9
 73
     5
 74
     3
 42
0.0000000001
 43
0.0000000001
 44
0.0000000001
 12
-0.2928691092742884
 22
-0.9561525426587982
 32
0.0
 13
0.4405427083715733
 23
-0.8977316537254543
 33
0.0
 40
0.0
 40
0.0
 40
0.0
 40
0.0
 40
0.1444902300053879
 40
0.4193127550275415
 40
0.4193127550275415
 40
0.4193127550275415
 40
0.4193127550275415
 10
3239.135240114619
 20
432.9569018833955
 30
0.0
 10
3239.121134539633
 20
432.9108503164591
 30
0.0
 10
3239.099852563811
 20
432.7702343540549
 30
0.0
 10
3239.141784463017
 20
432.6299901913978
 30
0.0
 10
3239.182141482848
 20
432.5477512314415
 30
0.0
 11
3239.135240114619
 21
432.9569018833955
 31
0.0
 11
3239.113973584635
 21
432.8139852599067
 31
0.0
 11
3239.182141482848
 21
432.5477512314415
 31
0.0
  0
SPLINE
  5
CFB7
330
1F
100
AcDbEntity
  8
0
370
    30
100
AcDbSpline
210
0.0
220
0.0
230
1.0
 70
     8
 71
     3
 72
    23
 73
    19
 74
    17
 42
0.0000000001
 43
0.0000000001
 44
0.0000000001
 12
0.6935679870638886
 22
-0.7203911765979271
 32
0.0
 13
0.2959408705975229
 23
0.955206261029512
 33
0.0
 40
0.0
 40
0.0
 40
0.0
 40
0.0
 40
0.4475823647557407
 40
1.460332226025895
 40
2.544610884625115
 40
3.675948468972564
 40
4.825435754268684
 40
5.962999391767419
 40
7.059628908854916
 40
8.08907836481687
 40
9.031964026508497
 40
9.877133287672137
 40
10.26439050737204
 40
10.62991184142964
 40
10.97693668505876
 40
11.31031259537648
 40
11.63579639152491
 40
11.66472238865667
 40
11.66472238865667
 40
11.66472238865667
 40
11.66472238865667
 10
3231.030578125346
 20
428.9897505470005
 30
0.0
 10
3231.134054391936
 20
428.8822724182102
 30
0.0
 10
3231.486188871699
 20
428.5454397131795
 30
0.0
 10
3232.165811349609
 20
428.0326603258423
 30
0.0
 10
3233.103168407058
 20
427.498927898775
 30
0.0
 10
3234.138723119773
 20
427.0615512338713
 30
0.0
 10
3235.232610135385
 20
426.7345221101604
 30
0.0
 10
3236.344657945921
 20
426.5325569576606
 30
0.0
 10
3237.432760372684
 20
426.460610686358
 30
0.0
 10
3238.456969492953
 20
426.5242277196106
 30
0.0
 10
3239.379682443752
 20
426.7184150888389
 30
0.0
 10
3240.056036974985
 20
426.995298766745
 30
0.0
 10
3240.507496874394
 20
427.2802394754576
 30
0.0
 10
3240.790703372991
 20
427.5148655462927
 30
0.0
 10
3241.024763035708
 20
427.7751187632979
 30
0.0
 10
3241.207444040485
 20
428.057991991419
 30
0.0
 10
3241.298098912618
 20
428.2700178554514
 30
0.0
 10
3241.333938524853
 20
428.3825825082583
 30
0.0
 10
3241.336791986444
 20
428.391792606114
 30
0.0
 11
3231.030578125346
 21
428.9897505470005
 31
0.0
 11
3231.353468105328
 21
428.6797956566251
 31
0.0
 11
3232.158087284092
 21
428.0647751214655
 31
0.0
 11
3233.098728727981
 21
427.5254664125315
 31
0.0
 11
3234.140021916098
 21
427.0831619629287
 31
0.0
 11
3235.241422919396
 21
426.7541682715132
 31
0.0
 11
3236.360862668214
 21
426.5519167495765
 31
0.0
 11
3237.455344913285
 21
426.4833243814019
 31
0.0
 11
3238.482506667542
 21
426.5519167495765
 31
0.0
 11
3239.403445152403
 21
426.7541682715132
 31
0.0
 11
3240.181952847307
 21
427.0831619629287
 31
0.0
 11
3240.508653662431
 21
427.2910915943119
 31
0.0
 11
3240.789143038764
 21
427.5254664125315
 31
0.0
 11
3241.020353498974
 21
427.7842481066005
 31
0.0
 11
3241.200475933754
 21
428.0647751214655
 31
0.0
 11
3241.328015818471
 21
428.3642300919729
 31
0.0
 11
3241.336791986444
 21
428.391792606114
 31
0.0
  0
SPLINE
  5
CFB8
330
1F
100
AcDbEntity
  8
0
370
    30
100
AcDbSpline
210
0.0
220
0.0
230
1.0
 70
     8
 71
     3
 72
     9
 73
     5
 74
     3
 42
0.0000000001
 43
0.0000000001
 44
0.0000000001
 12
0.440542711223127
 22
-0.897731652326115
 32
0.0
 13
-0.2992338441247881
 23
-0.9541798082805474
 33
0.0
 40
0.0
 40
0.0
 40
0.0
 40
0.0
 40
0.2473574502682897
 40
0.3421899897040902
 40
0.3421899897040902
 40
0.3421899897040902
 40
0.3421899897040902
 10
3241.503215187658
 20
432.5477512314415
 30
0.0
 10
3241.539539028252
 20
432.47373102726
 30
0.0
 10
3241.572283933389
 20
432.3569212766662
 30
0.0
 10
3241.550786570211
 20
432.2435635607348
 30
0.0
 10
3241.541327535103
 20
432.2134011293023
 30
0.0
 11
3241.503215187658
 21
432.5477512314415
 31
0.0
 11
3241.558535890219
 21
432.3066592820293
 31
0.0
 11
3241.541327535103
 21
432.2134011293023
 31
0.0
  0
SPLINE
  5
CFB9
330
1F
100
AcDbEntity
  8
0
370
    30
100
AcDbSpline
210
0.0
220
0.0
230
1.0
 70
     8
 71
     3
 72
    16
 73
    12
 74
    10
 42
0.0000000001
 43
0.0000000001
 44
0.0000000001
 12
0.4405427088996951
 22
-0.8977316534662897
 32
0.0
 13
0.2928691079798322
 23
0.9561525430552896
 33
0.0
 40
0.0
 40
0.0
 40
0.0
 40
0.0
 40
0.3289065996053439
 40
0.712567305760484
 40
1.134079578289922
 40
1.567634105221913
 40
1.984950836885005
 40
2.361117188392597
 40
2.681250189273365
 40
2.949593401681521
 40
3.055610714191256
 40
3.055610714191256
 40
3.055610714191256
 40
3.055610714191256
 10
3239.182141482848
 20
432.5477512314415
 30
0.0
 10
3239.230440617637
 20
432.4493279429416
 30
0.0
 10
3239.377792963685
 20
432.2570862958344
 30
0.0
 10
3239.678051464988
 20
432.0232788684246
 30
0.0
 10
3240.049567250569
 20
431.8374280174497
 30
0.0
 10
3240.458475841634
 20
431.7169887681521
 30
0.0
 10
3240.867502478625
 20
431.6725785445462
 30
0.0
 10
3241.240244335545
 20
431.7089431483379
 30
0.0
 10
3241.545635860372
 20
431.8239597929086
 30
0.0
 10
3241.722051136358
 20
431.9889417805569
 30
0.0
 10
3241.771874191701
 20
432.1048110051666
 30
0.0
 10
3241.782223923616
 20
432.138600579488
 30
0.0
 11
3239.182141482848
 21
432.5477512314415
 31
0.0
 11
3239.375270955874
 21
432.2815172029767
 31
0.0
 11
3239.674457147643
 21
432.0413440152512
 31
0.0
 11
3240.050413627523
 21
431.850741493943
 31
0.0
 11
3240.466339156864
 21
431.728367142603
 31
0.0
 11
3240.881520046388
 21
431.6861998152033
 31
0.0
 11
3241.255315499151
 21
431.728367142603
 31
0.0
 11
3241.551135810129
 21
431.850741493943
 31
0.0
 11
3241.740024027116
 21
432.0413440152512
 31
0.0
 11
3241.782223923616
 21
432.138600579488
 31
0.0
  0
SPLINE
  5
CFE1
330
1F
100
AcDbEntity
  8
0
370
    30
100
AcDbSpline
210
0.0
220
0.0
230
1.0
 70
     8
 71
     3
 72
    17
 73
    13
 74
    11
 42
0.0000000001
 43
0.0000000001
 44
0.0000000001
 12
-0.4405427090539897
 22
0.8977316533905728
 32
0.0
 13
-0.2912947856705594
 23
-0.9566333403353361
 33
0.0
 40
0.0
 40
0.0
 40
0.0
 40
0.0
 40
0.2968118747092418
 40
0.6396947017519197
 40
1.017208400935923
 40
1.410934658452455
 40
1.799663473959308
 40
2.163019026240372
 40
2.485246468947152
 40
2.759968439442332
 40
2.99651810158395
 40
3.056814287407937
 40
3.056814287407937
 40
3.056814287407937
 40
3.056814287407937
 10
3241.822466433532
 20
432.8297489197187
 30
0.0
 10
3241.778880331077
 20
432.9185680580616
 30
0.0
 10
3241.650132085899
 20
433.0930281071559
 30
0.0
 10
3241.388070691692
 20
433.3114483696373
 30
0.0
 10
3241.061740979991
 20
433.492832445489
 30
0.0
 10
3240.69595327796
 20
433.6231328173881
 30
0.0
 10
3240.318621106812
 20
433.6925598290717
 30
0.0
 10
3239.958438004745
 20
433.6958107323887
 30
0.0
 10
3239.641785713466
 20
433.6318750802945
 30
0.0
 10
3239.3902276459
 20
433.5032147798231
 30
0.0
 10
3239.262862974513
 20
433.3512678181518
 30
0.0
 10
3239.227857386697
 20
433.2583800511659
 30
0.0
 10
3239.222002731855
 20
433.2391529372811
 30
0.0
 11
3241.822466433532
 21
432.8297489197187
 31
0.0
 11
3241.651642395195
 21
433.0724760028688
 31
0.0
 11
3241.391235731861
 21
433.2955387805169
 31
0.0
 11
3241.062343041408
 21
433.4808660349568
 31
0.0
 11
3240.691609254049
 21
433.6134436528586
 31
0.0
 11
3240.309069017353
 21
433.6825309839251
 31
0.0
 11
3239.945713465072
 21
433.6825309839251
 31
0.0
 11
3239.630979505164
 21
433.6134436528586
 31
0.0
 11
3239.390365007878
 21
433.4808660349568
 31
0.0
 11
3239.243363132308
 21
433.2955387805169
 31
0.0
 11
3239.222002731855
 21
433.2391529372811
 31
0.0
  0
SPLINE
  5
CFE2
330
1F
100
AcDbEntity
  8
0
370
    30
100
AcDbSpline
210
0.0
220
0.0
230
1.0
 70
     8
 71
     3
 72
    10
 73
     6
 74
     4
 42
0.0000000001
 43
0.0000000001
 44
0.0000000001
 12
0.4405427092013969
 22
-0.897731653318236
 32
0.0
 13
0.8755848180990877
 23
-0.4830644121795637
 33
0.0
 40
0.0
 40
0.0
 40
0.0
 40
0.0
 40
0.2691054016106094
 40
0.5830096156146465
 40
0.6910024957751931
 40
0.6910024957751931
 40
0.6910024957751931
 40
0.6910024957751931
 10
3239.501392728717
 20
432.8297489197187
 30
0.0
 10
3239.540910202946
 20
432.7492207740171
 30
0.0
 10
3239.661438300208
 20
432.5919518455886
 30
0.0
 10
3239.844517890322
 20
432.4494135780365
 30
0.0
 10
3239.965552544696
 20
432.3776987932455
 30
0.0
 10
3239.99707152014
 20
432.360309620854
 30
0.0
 11
3239.501392728717
 21
432.8297489197187
 31
0.0
 11
3239.659407753102
 21
432.6119210765845
 31
0.0
 11
3239.904196455301
 21
432.4154157411729
 31
0.0
 11
3239.99707152014
 21
432.360309620854
 31
0.0
  0
SPLINE
  5
CFE3
330
1F
100
AcDbEntity
  8
0
370
    30
100
AcDbSpline
210
0.0
220
0.0
230
1.0
 70
     8
 71
     3
 72
     9
 73
     5
 74
     3
 42
0.0000000001
 43
0.0000000001
 44
0.0000000001
 12
0.9578769651543515
 22
-0.2871788982963217
 32
0.0
 13
0.9999999993787351
 23
-0.000035249534185
 33
0.0
 40
0.0
 40
0.0
 40
0.0
 40
0.0
 40
0.1874648253902784
 40
0.528905787831188
 40
0.528905787831188
 40
0.528905787831188
 40
0.528905787831188
 10
3240.370164005955
 20
432.2045365095932
 30
0.0
 10
3240.430020085294
 20
432.1865911955849
 30
0.0
 10
3240.601267038428
 20
432.1440000473085
 30
0.0
 10
3240.77797971838
 20
432.1248472275684
 30
0.0
 10
3240.891793372456
 20
432.1248432156902
 30
0.0
 11
3240.370164005955
 21
432.2045365095932
 31
0.0
 11
3240.552099917219
 21
432.1593437562905
 31
0.0
 11
3240.891793372456
 21
432.1248432156902
 31
0.0
  0
SPLINE
  5
CFE4
330
1F
100
AcDbEntity
  8
0
370
    30
100
AcDbSpline
210
0.0
220
0.0
230
1.0
 70
     8
 71
     3
 72
     8
 73
     4
 74
     2
 42
0.0000000001
 43
0.0000000001
 44
0.0000000001
 12
0.9999999993785829
 22
-0.0000352538527855
 32
0.0
 13
0.9945639634091614
 23
0.1041274348472108
 33
0.0
 40
0.0
 40
0.0
 40
0.0
 40
0.0
 40
0.1487963663647886
 40
0.1487963663647886
 40
0.1487963663647886
 40
0.1487963663647886
 10
3240.891793372456
 20
432.1248432156902
 30
0.0
 10
3240.941392161214
 20
432.1248414671417
 30
0.0
 10
3240.991071519573
 20
432.127176924155
 30
0.0
 10
3241.040400687531
 20
432.1323415188031
 30
0.0
 11
3240.891793372456
 21
432.1248432156902
 31
0.0
 11
3241.040400687531
 21
432.1323415188031
 31
0.0
  0
LINE
  5
CFE5
330
1F
100
AcDbEntity
  8
0
370
    30
100
AcDbLine
 10
3241.374983253924
 20
432.2226491788787
 30
0.0
 11
3241.43966081601
 21
432.25946822457
 31
0.0
  0
LINE
  5
CFE6
330
1F
100
AcDbEntity
  8
0
370
    30
100
AcDbLine
 10
3241.43966081601
 20
432.25946822457
 30
0.0
 11
3241.480800729052
 21
432.2887163711031
 31
0.0
  0
SPLINE
  5
CFE7
330
1F
100
AcDbEntity
  8
0
370
    30
100
AcDbSpline
210
0.0
220
0.0
230
1.0
 70
     8
 71
     3
 72
     8
 73
     4
 74
     2
 42
0.0000000001
 43
0.0000000001
 44
0.0000000001
 12
0.7887883028271987
 22
0.6146649602205966
 32
0.0
 13
0.6454347642270524
 23
0.7638153999018149
 33
0.0
 40
0.0
 40
0.0
 40
0.0
 40
0.0
 40
0.1008438536796708
 40
0.1008438536796708
 40
0.1008438536796708
 40
0.1008438536796708
 10
3241.480800729052
 20
432.2887163711031
 30
0.0
 10
3241.50731554645
 20
432.3093780988732
 30
0.0
 10
3241.532117031595
 20
432.3326016309705
 30
0.0
 10
3241.553813074569
 20
432.3582769937792
 30
0.0
 11
3241.480800729052
 21
432.2887163711031
 31
0.0
 11
3241.553813074569
 21
432.3582769937792
 31
0.0
  0
SPLINE
  5
CFE8
330
1F
100
AcDbEntity
  8
0
370
    30
100
AcDbSpline
210
0.0
220
0.0
230
1.0
 70
     8
 71
     3
 72
     9
 73
     5
 74
     3
 42
0.0000000001
 43
0.0000000001
 44
0.0000000001
 12
-0.693567986965411
 22
0.720391176692738
 32
0.0
 13
-0.7944631613656011
 23
0.6073123456945157
 33
0.0
 40
0.0
 40
0.0
 40
0.0
 40
0.0
 40
0.447582364751909
 40
0.9427561060229464
 40
0.9427561060229464
 40
0.9427561060229464
 40
0.9427561060229464
 10
3240.47513628837
 20
431.3750868189396
 30
0.0
 10
3240.371660021796
 20
431.4825649477431
 30
0.0
 10
3240.144316710405
 20
431.7000291522115
 30
0.0
 10
3239.901236931526
 20
431.8997042272162
 30
0.0
 10
3239.770104499554
 20
431.9999459359954
 30
0.0
 11
3240.47513628837
 21
431.3750868189396
 31
0.0
 11
3240.152246308394
 21
431.6850417093156
 31
0.0
 11
3239.770104499554
 21
431.9999459359954
 31
0.0
  0
SPLINE
  5
CFE9
330
1F
100
AcDbEntity
  8
0
370
    30
100
AcDbSpline
210
0.0
220
0.0
230
1.0
 70
     8
 71
     3
 72
     9
 73
     5
 74
     3
 42
0.0000000001
 43
0.0000000001
 44
0.0000000001
 12
-0.8201604286207075
 22
0.5721336131750147
 32
0.0
 13
-0.8518645338927882
 23
0.5237621749378461
 33
0.0
 40
0.0
 40
0.0
 40
0.0
 40
0.0
 40
0.1968989574414929
 40
0.4699964495519339
 40
0.4699964495519339
 40
0.4699964495519339
 40
0.4699964495519339
 10
3239.510516365034
 20
432.1894444546352
 30
0.0
 10
3239.456686787257
 20
432.2269952919523
 30
0.0
 10
3239.32704843971
 20
432.3149899012403
 30
0.0
 10
3239.194908624327
 20
432.3992156778117
 30
0.0
 10
3239.117361268385
 20
432.4468950566243
 30
0.0
 11
3239.510516365034
 21
432.1894444546352
 31
0.0
 11
3239.347627127796
 21
432.3000622463031
 31
0.0
 11
3239.117361268385
 21
432.4468950566243
 31
0.0
  0
SPLINE
  5
CFEA
330
1F
100
AcDbEntity
  8
0
370
    30
100
AcDbSpline
210
0.0
220
0.0
230
1.0
 70
     8
 71
     3
 72
    21
 73
    17
 74
    15
 42
0.0000000001
 43
0.0000000001
 44
0.0000000001
 12
-0.8518645339639762
 22
0.5237621748220632
 32
0.0
 13
-0.2959408704893704
 23
-0.9552062610630196
 33
0.0
 40
0.0
 40
0.0
 40
0.0
 40
0.0
 40
0.8115853624722715
 40
1.942922945853096
 40
3.092410232898469
 40
4.229973868274485
 40
5.326603385361986
 40
6.356052841321675
 40
7.298938504407496
 40
8.144107765565449
 40
8.53136498625331
 40
8.896886318908252
 40
9.243911162391482
 40
9.577287072703121
 40
9.902770869820129
 40
9.931696866952901
 40
9.931696866952901
 40
9.931696866952901
 40
9.931696866952901
 10
3239.117361268385
 20
432.4468950566243
 30
0.0
 10
3238.88690767286
 20
432.588587628125
 30
0.0
 10
3238.318633489712
 20
432.9013546473389
 30
0.0
 10
3237.366989956024
 20
433.3032854888907
 30
0.0
 10
3236.273104634818
 20
433.6303154299944
 30
0.0
 10
3235.161056375376
 20
433.8322803635874
 30
0.0
 10
3234.072954063614
 20
433.9042266908418
 30
0.0
 10
3233.04874491507
 20
433.8406096428719
 30
0.0
 10
3232.126031969832
 20
433.6464222801164
 30
0.0
 10
3231.44967743611
 20
433.3695386014885
 30
0.0
 10
3230.998217537941
 20
433.0845978910907
 30
0.0
 10
3230.715011041285
 20
432.8499718185029
 30
0.0
 10
3230.480951375723
 20
432.5897186049626
 30
0.0
 10
3230.298270370412
 20
432.3068453763291
 30
0.0
 10
3230.207615501319
 20
432.0948195107536
 30
0.0
 10
3230.171775888862
 20
431.9822548576825
 30
0.0
 10
3230.168922427272
 20
431.9730447598263
 30
0.0
 11
3239.117361268385
 21
432.4468950566243
 31
0.0
 11
3238.406985683907
 21
432.8393709534084
 31
0.0
 11
3237.365692497617
 21
433.2816754048403
 31
0.0
 11
3236.264291492493
 21
433.6106690962552
 31
0.0
 11
3235.144851745502
 21
433.8129206163634
 31
0.0
 11
3234.050369500431
 21
433.881512984538
 31
0.0
 11
3233.023207746176
 21
433.8129206163634
 31
0.0
 11
3232.102269259486
 21
433.6106690962552
 31
0.0
 11
3231.323761564588
 21
433.2816754048403
 31
0.0
 11
3230.997060749458
 21
433.0737457716271
 31
0.0
 11
3230.716571374952
 21
432.8393709534084
 31
0.0
 11
3230.485360912914
 21
432.5805892611679
 31
0.0
 11
3230.305238478145
 21
432.3000622463031
 31
0.0
 11
3230.177698595252
 21
432.0006072739661
 31
0.0
 11
3230.168922427272
 21
431.9730447598263
 31
0.0
  0
SPLINE
  5
CFEB
330
1F
100
AcDbEntity
  8
0
370
    30
100
AcDbSpline
210
0.0
220
0.0
230
1.0
 70
     8
 71
     3
 72
    21
 73
    17
 74
    15
 42
0.0000000001
 43
0.0000000001
 44
0.0000000001
 12
0.80982192672648
 22
-0.5866757596773635
 32
0.0
 13
0.4527774885915635
 23
0.8916235449026213
 33
0.0
 40
0.0
 40
0.0
 40
0.0
 40
0.0
 40
0.3857077676933156
 40
1.306784699739002
 40
2.3475143663793
 40
3.405263649023786
 40
4.45232155764628
 40
5.46192870413374
 40
6.40984780261844
 40
7.27812620155148
 40
8.056352341509906
 40
8.412849084702957
 40
8.749242151395078
 40
9.044010956977462
 40
9.327663550112495
 40
9.410872842346529
 40
9.410872842346529
 40
9.410872842346529
 40
9.410872842346529
 10
3232.269657030172
 20
428.6844205711237
 30
0.0
 10
3232.373775232701
 20
428.6089921052487
 30
0.0
 10
3232.733773497576
 20
428.3633876365511
 30
0.0
 10
3233.417392888449
 20
427.9788206261772
 30
0.0
 10
3234.346854879664
 20
427.5871445694081
 30
0.0
 10
3235.353635561463
 20
427.2868593703093
 30
0.0
 10
3236.377258806371
 20
427.1014299536169
 30
0.0
 10
3237.378991920541
 20
427.0353791603285
 30
0.0
 10
3238.322044297651
 20
427.0938015337043
 30
0.0
 10
3239.171783359726
 20
427.2720983577949
 30
0.0
 10
3239.794835003116
 20
427.5263215536054
 30
0.0
 10
3240.210872887991
 20
427.7879583912494
 30
0.0
 10
3240.465617636014
 20
427.9982096743776
 30
0.0
 10
3240.671897602207
 20
428.2240810598173
 30
0.0
 10
3240.795933924955
 20
428.4075786366654
 30
0.0
 10
3240.853844523704
 20
428.5153210691162
 30
0.0
 10
3240.866402955159
 20
428.5400515238197
 30
0.0
 11
3232.269657030172
 21
428.6844205711237
 31
0.0
 11
3232.588078172746
 21
428.4667546389691
 31
0.0
 11
3233.38972933348
 21
428.0131709848977
 31
0.0
 11
3234.34793994192
 21
427.6070297915937
 31
0.0
 11
3235.361632328148
 21
427.3049349537733
 31
0.0
 11
3236.392088594282
 21
427.1192197212423
 31
0.0
 11
3237.399729196011
 21
427.0562355328597
 31
0.0
 11
3238.345553497499
 21
427.1192197212423
 31
0.0
 11
3239.193738165163
 21
427.3049349537733
 31
0.0
 11
3239.910937324307
 21
427.6070297915937
 31
0.0
 11
3240.211995472106
 21
427.7979588872049
 31
0.0
 11
3240.470537631773
 21
428.0131709848977
 31
0.0
 11
3240.668693281794
 21
428.2313979014531
 31
0.0
 11
3240.827015736607
 21
428.4667546389691
 31
0.0
 11
3240.866402955159
 21
428.5400515238197
 31
0.0
  0
SPLINE
  5
CFEC
330
1F
100
AcDbEntity
  8
0
370
    30
100
AcDbSpline
210
0.0
220
0.0
230
1.0
 70
     8
 71
     3
 72
     9
 73
     5
 74
     3
 42
0.0000000001
 43
0.0000000001
 44
0.0000000001
 12
0.2959408722401041
 22
0.9552062605206094
 32
0.0
 13
0.0611609481855295
 23
0.9981279168608836
 33
0.0
 40
0.0
 40
0.0
 40
0.0
 40
0.0
 40
0.2951781132304905
 40
0.4474394146827406
 40
0.4474394146827406
 40
0.4474394146827406
 40
0.4474394146827406
 10
3241.423935862747
 20
428.673790294391
 30
0.0
 10
3241.453054285512
 20
428.7677756216331
 30
0.0
 10
3241.485914761423
 20
428.9141015354688
 30
0.0
 10
3241.50087992334
 20
429.0626190018635
 30
0.0
 10
3241.503984071863
 20
429.1132777537425
 30
0.0
 11
3241.423935862747
 21
428.673790294391
 31
0.0
 11
3241.488622502998
 21
428.9617933449014
 31
0.0
 11
3241.503984071863
 21
429.1132777537425
 31
0.0
  0
LINE
  5
CFED
330
1F
100
AcDbEntity
  8
0
370
    30
100
AcDbLine
 10
3241.503984071863
 20
429.1132777537425
 30
0.0
 11
3241.507306782013
 21
429.2716499263034
 31
0.0
  0
SPLINE
  5
CFF4
330
1F
100
AcDbEntity
  8
0
370
    30
100
AcDbSpline
210
0.0
220
0.0
230
1.0
 70
     8
 71
     3
 72
     8
 73
     4
 74
     2
 42
0.0000000001
 43
0.0000000001
 44
0.0000000001
 12
0.0866225943094117
 22
-0.9962411987842639
 32
0.0
 13
0.440542710893589
 23
-0.8977316524878288
 33
0.0
 40
0.0
 40
0.0
 40
0.0
 40
0.0
 40
0.1922486568162076
 40
0.1922486568162076
 40
0.1922486568162076
 40
0.1922486568162076
 10
3239.44713648651
 20
433.0141826645411
 30
0.0
 10
3239.452687512312
 20
432.950340653764
 30
0.0
 10
3239.473161480571
 20
432.8872781545094
 30
0.0
 10
3239.501392728717
 20
432.8297489197187
 30
0.0
 11
3239.44713648651
 21
433.0141826645411
 31
0.0
 11
3239.501392728717
 21
432.8297489197187
 31
0.0
  0
LINE
  5
CFF5
330
1F
100
AcDbEntity
  8
0
370
    30
100
AcDbLine
 10
3240.387992412059
 20
431.0930891306623
 30
0.0
 11
3240.221276895451
 21
431.2590763203543
 31
0.0
  0
SPLINE
  5
CFF6
330
1F
100
AcDbEntity
  8
0
370
    30
100
AcDbSpline
210
0.0
220
0.0
230
1.0
 70
     8
 71
     3
 72
    23
 73
    19
 74
    17
 42
0.0000000001
 43
0.0000000001
 44
0.0000000001
 12
-0.7230753071365355
 22
0.6907692090773915
 32
0.0
 13
-0.295940870653336
 23
-0.9552062610122201
 33
0.0
 40
0.0
 40
0.0
 40
0.0
 40
0.0
 40
0.2124080105481421
 40
1.22515787182552
 40
2.309436530420287
 40
3.44077411477294
 40
4.590261400057696
 40
5.727825035767438
 40
6.824454552846283
 40
7.853904008810929
 40
8.796789672290012
 40
9.641958933452173
 40
10.02921615314977
 40
10.39473748580358
 40
10.74176233065814
 40
11.07513824097026
 40
11.4006220364037
 40
11.42954803527656
 40
11.42954803527656
 40
11.42954803527656
 40
11.42954803527656
 10
3240.221276895451
 20
431.2590763203543
 30
0.0
 10
3240.170081232963
 20
431.307984624837
 30
0.0
 10
3239.869653024358
 20
431.5847152074466
 30
0.0
 10
3239.252723571519
 20
432.0502122325273
 30
0.0
 10
3238.315412414251
 20
432.5839022850366
 30
0.0
 10
3237.279844559107
 20
433.0212910829238
 30
0.0
 10
3236.185961163528
 20
433.3483168648839
 30
0.0
 10
3235.073912395108
 20
433.5502829027576
 30
0.0
 10
3233.985810213003
 20
433.6222289485727
 30
0.0
 10
3232.961601032453
 20
433.5586119702323
 30
0.0
 10
3232.038888094951
 20
433.3644245886063
 30
0.0
 10
3231.36253356059
 20
433.087540912704
 30
0.0
 10
3230.911073661208
 20
432.8026002047074
 30
0.0
 10
3230.627867164487
 20
432.5679741319281
 30
0.0
 10
3230.393807499522
 20
432.3077209169509
 30
0.0
 10
3230.211126495934
 20
432.0248476880573
 30
0.0
 10
3230.120471621599
 20
431.812821824194
 30
0.0
 10
3230.084632012735
 20
431.7002571699591
 30
0.0
 10
3230.081778550971
 20
431.6910470715493
 30
0.0
 11
3240.221276895451
 21
431.2590763203543
 31
0.0
 11
3240.065102430259
 21
431.4030440228676
 31
0.0
 11
3239.260483251485
 21
432.018064558026
 31
0.0
 11
3238.319841807601
 21
432.5573732669598
 31
0.0
 11
3237.278548619479
 21
432.9996777165641
 31
0.0
 11
3236.177147616192
 21
433.328671407978
 31
0.0
 11
3235.057707869192
 21
433.5309229299154
 31
0.0
 11
3233.96322562413
 21
433.5995152980895
 31
0.0
 11
3232.93606386987
 21
433.5309229299154
 31
0.0
 11
3232.015125383179
 21
433.328671407978
 31
0.0
 11
3231.236617688276
 21
432.9996777165641
 31
0.0
 11
3230.909916873156
 21
432.7917480851795
 31
0.0
 11
3230.629427498652
 21
432.5573732669598
 31
0.0
 11
3230.398217036602
 21
432.2985915728914
 31
0.0
 11
3230.218094601833
 21
432.018064558026
 31
0.0
 11
3230.09055471894
 21
431.7186095875189
 31
0.0
 11
3230.081778550971
 21
431.6910470715493
 31
0.0
  0
SPLINE
  5
CFF7
330
1F
100
AcDbEntity
  8
0
370
    30
100
AcDbSpline
210
0.0
220
0.0
230
1.0
 70
     8
 71
     3
 72
     9
 73
     5
 74
     3
 42
0.0000000001
 43
0.0000000001
 44
0.0000000001
 12
-0.440542711223127
 22
0.897731652326115
 32
0.0
 13
0.2992338441247881
 23
0.9541798082805474
 33
0.0
 40
0.0
 40
0.0
 40
0.0
 40
0.0
 40
0.2473574502713491
 40
0.3421899897091354
 40
0.3421899897091354
 40
0.3421899897091354
 40
0.3421899897091354
 10
3239.414248852416
 20
432.5477512314415
 30
0.0
 10
3239.377925011822
 20
432.6217714356239
 30
0.0
 10
3239.345180106663
 20
432.7385811862189
 30
0.0
 10
3239.366677469862
 20
432.8519389021486
 30
0.0
 10
3239.37613650497
 20
432.8821013335818
 30
0.0
 11
3239.414248852416
 21
432.5477512314415
 31
0.0
 11
3239.358928149845
 21
432.7888431808545
 31
0.0
 11
3239.37613650497
 21
432.8821013335818
 31
0.0
  0
SPLINE
  5
CFF8
330
1F
100
AcDbEntity
  8
0
370
    30
100
AcDbSpline
210
0.0
220
0.0
230
1.0
 70
     8
 71
     3
 72
     8
 73
     4
 74
     2
 42
0.0000000001
 43
0.0000000001
 44
0.0000000001
 12
-0.2992338499370079
 22
-0.9541798064578166
 32
0.0
 13
-0.5929729938753895
 23
-0.8052223472646902
 33
0.0
 40
0.0
 40
0.0
 40
0.0
 40
0.0
 40
0.1331070287509742
 40
0.1331070287509742
 40
0.1331070287509742
 40
0.1331070287509742
 10
3241.541327535103
 20
432.2134011293023
 30
0.0
 10
3241.528050825547
 20
432.171065116325
 30
0.0
 10
3241.507513638648
 20
432.130373496539
 30
0.0
 10
3241.4812040142
 20
432.0946465784962
 30
0.0
 11
3241.541327535103
 21
432.2134011293023
 31
0.0
 11
3241.4812040142
 21
432.0946465784962
 31
0.0
  0
SPLINE
  5
CFF9
330
1F
100
AcDbEntity
  8
0
370
    30
100
AcDbSpline
210
0.0
220
0.0
230
1.0
 70
     8
 71
     3
 72
    14
 73
    10
 74
     8
 42
0.0000000001
 43
0.0000000001
 44
0.0000000001
 12
-0.5929729934254972
 22
-0.805222347595995
 32
0.0
 13
-0.4405427092630446
 23
0.8977316532879838
 33
0.0
 40
0.0
 40
0.0
 40
0.0
 40
0.0
 40
0.2550018398611709
 40
0.5662555587064116
 40
0.9290007563044991
 40
1.320028365319142
 40
1.708434399568485
 40
2.063976451355713
 40
2.36563072954658
 40
2.36563072954658
 40
2.36563072954658
 40
2.36563072954658
 10
3241.4812040142
 20
432.0946465784962
 30
0.0
 10
3241.430800946097
 20
432.026202185118
 30
0.0
 10
3241.269373436293
 20
431.9120375389397
 30
0.0
 10
3240.965196007397
 20
431.8372390503354
 30
0.0
 10
3240.606931497921
 20
431.8416604936512
 30
0.0
 10
3240.23302670638
 20
431.9249927728681
 30
0.0
 10
3239.884016449234
 20
432.0778111349508
 30
0.0
 10
3239.598852796751
 20
432.282587908781
 30
0.0
 10
3239.458546050074
 20
432.4574830334809
 30
0.0
 10
3239.414248852416
 20
432.5477512314415
 30
0.0
 11
3241.4812040142
 21
432.0946465784962
 31
0.0
 11
3241.280546926057
 21
431.9372849843555
 31
0.0
 11
3240.980766831486
 21
431.853554629083
 31
0.0
 11
3240.618021633888
 21
431.853554629083
 31
0.0
 11
3240.236063758439
 21
431.9372849843555
 31
0.0
 11
3239.880962961297
 21
432.0946465784962
 31
0.0
 11
3239.595549639727
 21
432.3066592820293
 31
0.0
 11
3239.414248852416
 21
432.5477512314415
 31
0.0
  0
SPLINE
  5
CFFA
330
1F
100
AcDbEntity
  8
0
370
    30
100
AcDbSpline
210
0.0
220
0.0
230
1.0
 70
     8
 71
     3
 72
    13
 73
     9
 74
     7
 42
0.0000000001
 43
0.0000000001
 44
0.0000000001
 12
-0.4405427087099084
 22
0.8977316535594235
 32
0.0
 13
-0.9826118312133111
 23
-0.1856717241790557
 33
0.0
 40
0.0
 40
0.0
 40
0.0
 40
0.0
 40
0.3289065996032627
 40
0.7125673057600337
 40
1.134079578296018
 40
1.567634105222921
 40
1.984950838703969
 40
2.289182176554922
 40
2.289182176554922
 40
2.289182176554922
 40
2.289182176554922
 10
3241.73532255722
 20
432.5477512314415
 30
0.0
 10
3241.687023422453
 20
432.646174519951
 30
0.0
 10
3241.539670989087
 20
432.8384161314765
 30
0.0
 10
3241.239412950819
 20
433.0722237475682
 30
0.0
 10
3240.867895229736
 20
433.2580738098488
 30
0.0
 10
3240.458994085933
 20
433.3785160942263
 30
0.0
 10
3240.073922089931
 20
433.4203127780132
 30
0.0
 10
3239.832547589974
 20
433.4012739176262
 30
0.0
 10
3239.732900485975
 20
433.3824448652769
 30
0.0
 11
3241.73532255722
 21
432.5477512314415
 31
0.0
 11
3241.542193084198
 21
432.8139852599067
 31
0.0
 11
3241.243006892427
 21
433.0541584476319
 31
0.0
 11
3240.86705041254
 21
433.2447609689412
 31
0.0
 11
3240.451124883204
 21
433.3671353202801
 31
0.0
 11
3240.035943991853
 21
433.4093026476812
 31
0.0
 11
3239.732900485975
 21
433.3824448652769
 31
0.0
  0
LINE
  5
CFFB
330
1F
100
AcDbEntity
  8
0
370
    30
100
AcDbLine
 10
3239.732900485975
 20
433.3824448652769
 30
0.0
 11
3239.662148540912
 21
433.3671353202801
 31
0.0
  0
LINE
  5
CFFC
330
1F
100
AcDbEntity
  8
0
370
    30
100
AcDbLine
 10
3239.662148540912
 20
433.3671353202801
 30
0.0
 11
3239.546230817352
 21
433.3325399545715
 31
0.0
  0
SPLINE
  5
CFFD
330
1F
100
AcDbEntity
  8
0
370
    30
100
AcDbSpline
210
0.0
220
0.0
230
1.0
 70
     8
 71
     3
 72
    10
 73
     6
 74
     4
 42
0.0000000001
 43
0.0000000001
 44
0.0000000001
 12
-0.9413044487397858
 22
-0.3375587871507538
 32
0.0
 13
-0.292869107127808
 23
-0.9561525433162641
 33
0.0
 40
0.0
 40
0.0
 40
0.0
 40
0.0
 40
0.2001751514944324
 40
0.4685183639039559
 40
0.5745356771428519
 40
0.5745356771428519
 40
0.5745356771428519
 40
0.5745356771428519
 10
3239.546230817352
 20
433.3325399545715
 30
0.0
 10
3239.483422230476
 20
433.3100163274527
 30
0.0
 10
3239.341541503322
 20
433.243170926533
 30
0.0
 10
3239.19539062387
 20
433.1065456140315
 30
0.0
 10
3239.145589846575
 20
432.9906914579585
 30
0.0
 10
3239.135240114619
 20
432.9569018833955
 30
0.0
 11
3239.546230817352
 21
433.3325399545715
 31
0.0
 11
3239.36632822994
 21
433.2447609689412
 31
0.0
 11
3239.177440012952
 21
433.0541584476319
 31
0.0
 11
3239.135240114619
 21
432.9569018833955
 31
0.0
  0
SPLINE
  5
D000
330
1F
100
AcDbEntity
  8
0
370
    30
100
AcDbSpline
210
0.0
220
0.0
230
1.0
 70
     8
 71
     3
 72
    22
 73
    18
 74
    16
 42
0.0000000001
 43
0.0000000001
 44
0.0000000001
 12
-0.2960313185470387
 22
-0.9551782338596821
 32
0.0
 13
-0.7634693182464913
 23
0.6458440989095107
 33
0.0
 40
0.0
 40
0.0
 40
0.0
 40
0.0
 40
0.1000646735369648
 40
0.3766802332830052
 40
0.6603328264103116
 40
0.9551016319898401
 40
1.291494698692497
 40
1.647991441876641
 40
2.426217581134764
 40
3.294495982234063
 40
4.242415078778209
 40
5.252022225152501
 40
6.299080134099351
 40
7.356829416214841
 40
8.397559082866356
 40
9.318636014902152
 40
10.18490146924301
 40
10.18490146924301
 40
10.18490146924301
 40
10.18490146924301
 10
3240.889685632901
 20
428.5298914681425
 30
0.0
 10
3240.879811540485
 20
428.4980316020956
 30
0.0
 10
3240.839136811284
 20
428.3791803425802
 30
0.0
 10
3240.744986765323
 20
428.1790930142559
 30
0.0
 10
3240.58477096534
 20
427.9421192405658
 30
0.0
 10
3240.378468342057
 20
427.7162007136565
 30
0.0
 10
3240.123730605064
 20
427.5059640194556
 30
0.0
 10
3239.707690096002
 20
427.244321712965
 30
0.0
 10
3239.084639862574
 20
426.9901015269305
 30
0.0
 10
3238.234900394035
 20
426.8118035192103
 30
0.0
 10
3237.291847671775
 20
426.7533818312388
 30
0.0
 10
3236.290116575904
 20
426.8194311122147
 30
0.0
 10
3235.266485237271
 20
427.0048660892014
 30
0.0
 10
3234.259735153539
 20
427.3051304151521
 30
0.0
 10
3233.330164822777
 20
427.6968803291993
 30
0.0
 10
3232.506954052976
 20
428.1599319308947
 30
0.0
 10
3232.024095195188
 20
428.5122659450171
 30
0.0
 10
3231.803639496572
 20
428.6987567556089
 30
0.0
 11
3240.889685632901
 21
428.5298914681425
 31
0.0
 11
3240.857281475006
 21
428.4352188245692
 31
0.0
 11
3240.739871860291
 21
428.184756950692
 31
0.0
 11
3240.581549405492
 21
427.9494002131758
 31
0.0
 11
3240.383393755474
 21
427.7311732966214
 31
0.0
 11
3240.124851595794
 21
427.515961198928
 31
0.0
 11
3239.823793448005
 21
427.3250321033176
 31
0.0
 11
3239.106594288851
 21
427.022937267325
 31
0.0
 11
3238.25840961937
 21
426.8372220329653
 31
0.0
 11
3237.312585319705
 21
426.7742378464113
 31
0.0
 11
3236.304944717975
 21
426.8372220329653
 31
0.0
 11
3235.274488451841
 21
427.022937267325
 31
0.0
 11
3234.26079606562
 21
427.3250321033176
 31
0.0
 11
3233.302585457168
 21
427.7311732966214
 31
0.0
 11
3232.500934296445
 21
428.184756950692
 31
0.0
 11
3231.803639496572
 21
428.6987567556089
 31
0.0
  0
SPLINE
  5
D005
330
1F
100
AcDbEntity
  8
0
370
    30
100
AcDbSpline
210
0.0
220
0.0
230
1.0
 70
     8
 71
     3
 72
     9
 73
     5
 74
     3
 42
0.0000000001
 43
0.0000000001
 44
0.0000000001
 12
0.2928691092742884
 22
0.9561525426587982
 32
0.0
 13
-0.4405427083715733
 23
0.8977316537254543
 33
0.0
 40
0.0
 40
0.0
 40
0.0
 40
0.0
 40
0.1444902302742718
 40
0.419312755294799
 40
0.419312755294799
 40
0.419312755294799
 40
0.419312755294799
 10
3241.782223923616
 20
432.138600579488
 30
0.0
 10
3241.79632949863
 20
432.1846521465101
 30
0.0
 10
3241.817611477964
 20
432.3252681084845
 30
0.0
 10
3241.775679577052
 20
432.4655122714856
 30
0.0
 10
3241.73532255722
 20
432.5477512314415
 30
0.0
 11
3241.782223923616
 21
432.138600579488
 31
0.0
 11
3241.803490455428
 21
432.2815172029767
 31
0.0
 11
3241.73532255722
 21
432.5477512314415
 31
0.0
  0
SPLINE
  5
D016
330
1F
100
AcDbEntity
  8
0
370
    30
100
AcDbSpline
210
0.0
220
0.0
230
1.0
 70
     8
 71
     3
 72
     9
 73
     5
 74
     3
 42
0.0000000001
 43
0.0000000001
 44
0.0000000001
 12
0.2912947849975955
 22
0.9566333405402534
 32
0.0
 13
-0.4405427072486143
 23
0.8977316542765226
 33
0.0
 40
0.0
 40
0.0
 40
0.0
 40
0.0
 40
0.167886869410556
 40
0.4197985648584219
 40
0.4197985648584219
 40
0.4197985648584219
 40
0.4197985648584219
 10
3241.869749060832
 20
432.4203449003264
 30
0.0
 10
3241.886050584009
 20
432.4738802925654
 30
0.0
 10
3241.902866484428
 20
432.6161420930675
 30
0.0
 10
3241.859459053632
 20
432.7543658853567
 30
0.0
 10
3241.822466433532
 20
432.8297489197187
 30
0.0
 11
3241.869749060832
 21
432.4203449003264
 31
0.0
 11
3241.889868699137
 21
432.5870218365682
 31
0.0
 11
3241.822466433532
 21
432.8297489197187
 31
0.0
  0
MTEXT
  5
DBA2
102
{ACAD_XDICTIONARY
360
E22C
102
}
330
1F
100
AcDbEntity
  8
打标文字
 62
     3
100
AcDbMText
 10
3390.698672772919
 20
558.9981775254861
 30
0.0
 40
3.0
 41
86.25481804348137
 71
     1
 72
     5
  3
\A1;技术参数：\P- 材料: 压铸铝\P- 表面处理: 粉末喷涂\P- 颜色: {\Fromans|c134;RAL 7037}（灰色） \P- 温度范围: {\Fromans|c134;-40}℃{\Fromans|c134; - +125}℃\P- 防护等级: {\Fromans|c134;IP65}（联锁状态,{\Fromans|c134;IEC 60529})    \P- 出线方向: 顶出线\P- 出线孔数: {\Fromans|c134;1}\P- 螺纹规格: {\Fromans
  3
|c134;PG16\P\PTechnical specification:\P- Material: aluminium die-cast\P- Surface: powder-coated\P- Colour: RAL 7037(grey)\P- Temperature range: -40}℃{\Fromans|c134; - +125}℃{\Fromans|c134;\P- Degree of protection: IP65\P  (acc.to IEC 60529 for coupl
  1
ed connector)\P- Cable entry: top entry\P- No. of cable entries: 1\P- Thread size: PG16}
 73
     1
 44
1.0
1001
ACAD
1000
ACAD_MTEXT_DEFINED_HEIGHT_BEGIN
1070
    46
1040
107.8236110958389
1000
ACAD_MTEXT_DEFINED_HEIGHT_END
  0
MTEXT
  5
DE08
330
1F
100
AcDbEntity
  8
图框
 62
     3
100
AcDbMText
 10
3460.147294820189
 20
437.7742263297625
 30
0.0
 40
2.985513575034151
 41
33.61239199242137
 71
     5
 72
     5
  1
H6B-TE-2B-PG16
  7
Romans字体
 73
     1
 44
1.0
1001
ACAD
1000
ACAD_MTEXT_DEFINED_HEIGHT_BEGIN
1070
    46
1040
8.686745505685866
1000
ACAD_MTEXT_DEFINED_HEIGHT_END
  0
MTEXT
  5
DE09
330
1F
100
AcDbEntity
  8
图框
 62
     3
100
AcDbMText
 10
3460.147294820189
 20
428.9947758029363
 30
0.0
 40
2.985513575034151
 41
33.61239199242137
 71
     5
 72
     5
  1
1110064101010
  7
Romans字体
 73
     1
 44
1.0
1001
ACAD
1000
ACAD_MTEXT_DEFINED_HEIGHT_BEGIN
1070
    46
1040
8.872155547966105
1000
ACAD_MTEXT_DEFINED_HEIGHT_END
  0
MTEXT
  5
DE0A
330
1F
100
AcDbEntity
  8
图框
 62
     3
100
AcDbMText
 10
3392.093629889604
 20
415.6871407241911
 30
0.0
 40
2.985513575034151
 41
10.82934843439047
 71
     5
 72
     5
  1
1:1 
  7
Romans字体
 73
     1
 44
1.0
1001
ACAD
1000
ACAD_MTEXT_DEFINED_HEIGHT_BEGIN
1070
    46
1040
7.886094601210496
1000
ACAD_MTEXT_DEFINED_HEIGHT_END
  0
MTEXT
  5
DE0B
330
1F
100
AcDbEntity
  8
图框
 62
     3
100
AcDbMText
 10
3413.752326758388
 20
415.6871407241915
 30
0.0
 40
2.985513575034151
 41
10.82934843439217
 71
     5
 72
     5
  1
106g 
  7
Romans字体
 73
     1
 44
1.0
1001
ACAD
1000
ACAD_MTEXT_DEFINED_HEIGHT_BEGIN
1070
    46
1040
7.886094601210402
1000
ACAD_MTEXT_DEFINED_HEIGHT_END
  0
INSERT
  5
DE0C
330
1F
100
AcDbEntity
  8
dim
100
AcDbBlockReference
  2
A4图框-NEW
 10
2350.024988206036
 20
-80.15460117514448
 30
0.0
  0
DIMENSION
  5
DFED
330
1F
100
AcDbEntity
  8
dim
100
AcDbDimension
  2
*D5
 10
3291.134838884253
 20
494.0451075629376
 30
0.0
 11
3254.118149955108
 21
496.5451075629375
 31
0.0
 70
    32
  1
74
 71
     5
 42
74.0333778582908
  3
01
100
AcDbAlignedDimension
 13
3217.101461025962
 23
520.3785799613051
 33
0.0
 14
3291.134838884253
 24
520.2686216509885
 34
0.0
100
AcDbRotatedDimension
  0
ENDSEC
  0
SECTION
  2
OBJECTS
  0
DICTIONARY
  5
C
330
0
100
AcDbDictionary
281
     1
  3
ACAD_COLOR
350
6FD
  3
ACAD_GROUP
350
D
  3
ACAD_IMAGE_DICT
350
2BAF
  3
ACAD_LAYOUT
350
1A
  3
ACAD_MATERIAL
350
6FC
  3
ACAD_MLEADERSTYLE
350
C8E0
  3
ACAD_MLINESTYLE
350
17
  3
ACAD_PLOTSETTINGS
350
19
  3
ACAD_PLOTSTYLENAME
350
E
  3
ACAD_SCALELIST
350
C8BE
  3
ACAD_TABLESTYLE
350
C8BC
  3
ACAD_VISUALSTYLE
350
C8AB
  3
ACDB_RECOMPOSE_DATA
350
C8FB
  3
AcDbVariableDictionary
350
A655
  3
ASE_INDEX_DICTIONARY
350
D01F
  3
lxx_dict
350
D7B
  0
DICTIONARY
  5
C8FC
330
8
100
AcDbDictionary
280
     1
281
     1
  0
DICTIONARY
  5
823
330
2
100
AcDbDictionary
280
     1
281
     1
  3
ACAD_LAYERFILTERS
360
C6CB
  3
ACAD_LAYERSTATES
360
824
  0
DICTIONARY
  5
C8EF
330
10
100
AcDbDictionary
280
     1
281
     1
  3
ADSK_XREC_LAYER_RECONCILED
360
C8F0
  0
DICTIONARY
  5
C8F1
330
200
100
AcDbDictionary
280
     1
281
     1
  3
ADSK_XREC_LAYER_RECONCILED
360
C8F2
  0
DICTIONARY
  5
C8F3
330
24DA
100
AcDbDictionary
280
     1
281
     1
  3
ADSK_XREC_LAYER_RECONCILED
360
C8F4
  0
DICTIONARY
  5
C8F5
330
8766
100
AcDbDictionary
280
     1
281
     1
  3
ADSK_XREC_LAYER_RECONCILED
360
C8F6
  0
DICTIONARY
  5
E227
330
D32C
100
AcDbDictionary
280
     1
281
     1
  0
DICTIONARY
  5
E22E
330
E193
100
AcDbDictionary
280
     1
281
     1
  3
ACAD_MTEXT_2008_RT
360
E260
  0
DICTIONARY
  5
E230
330
E1D7
100
AcDbDictionary
280
     1
281
     1
  3
ACAD_MTEXT_2008_RT
360
E261
  0
DICTIONARY
  5
E232
330
E1D8
100
AcDbDictionary
280
     1
281
     1
  3
ACAD_MTEXT_2008_RT
360
E262
  0
DICTIONARY
  5
E234
330
E1FD
100
AcDbDictionary
280
     1
281
     1
  3
ACAD_MTEXT_2008_RT
360
E263
  0
DICTIONARY
  5
E236
330
E200
100
AcDbDictionary
280
     1
281
     1
  3
ACAD_MTEXT_2008_RT
360
E264
  0
DICTIONARY
  5
E238
330
E201
100
AcDbDictionary
280
     1
281
     1
  3
ACAD_MTEXT_2008_RT
360
E265
  0
DICTIONARY
  5
E23A
330
E20B
100
AcDbDictionary
280
     1
281
     1
  3
ACAD_MTEXT_2008_RT
360
E266
  0
DICTIONARY
  5
E23C
330
E20C
100
AcDbDictionary
280
     1
281
     1
  3
ACAD_MTEXT_2008_RT
360
E267
  0
DICTIONARY
  5
E23E
330
E20D
100
AcDbDictionary
280
     1
281
     1
  3
ACAD_MTEXT_2008_RT
360
E268
  0
DICTIONARY
  5
E240
330
E21B
100
AcDbDictionary
280
     1
281
     1
  3
ACAD_MTEXT_2008_RT
360
E269
  0
DICTIONARY
  5
E242
330
E21C
100
AcDbDictionary
280
     1
281
     1
  3
ACAD_MTEXT_2008_RT
360
E26A
  0
DICTIONARY
  5
E244
330
E21D
100
AcDbDictionary
280
     1
281
     1
  3
ACAD_MTEXT_2008_RT
360
E26B
  0
DICTIONARY
  5
E22C
330
DBA2
100
AcDbDictionary
280
     1
281
     1
  3
ACAD_MTEXT_2008_RT
360
E247
  0
DICTIONARY
  5
6FD
102
{ACAD_REACTORS
330
C
102
}
330
C
100
AcDbDictionary
281
     1
  0
DICTIONARY
  5
D
102
{ACAD_REACTORS
330
C
102
}
330
C
100
AcDbDictionary
281
     1
  0
DICTIONARY
  5
2BAF
102
{ACAD_REACTORS
330
C
102
}
330
C
100
AcDbDictionary
281
     1
  3
drw0002_img_1
350
2BB0
  0
DICTIONARY
  5
1A
102
{ACAD_REACTORS
330
C
102
}
330
C
100
AcDbDictionary
281
     1
  3
Layout1
350
1E
  3
Model
350
22
  0
DICTIONARY
  5
6FC
102
{ACAD_REACTORS
330
C
102
}
330
C
100
AcDbDictionary
281
     1
  3
ByBlock
350
C89B
  3
ByLayer
350
C893
  3
Global
350
C8A3
  0
DICTIONARY
  5
C8E0
102
{ACAD_REACTORS
330
C
102
}
330
C
100
AcDbDictionary
281
     1
  3
Standard
350
C8E1
  0
DICTIONARY
  5
17
102
{ACAD_REACTORS
330
C
102
}
330
C
100
AcDbDictionary
281
     1
  3
Standard
350
18
  0
DICTIONARY
  5
19
102
{ACAD_REACTORS
330
C
102
}
330
C
100
AcDbDictionary
281
     1
  3
ISO A4 标题栏 (纵向) - 无输出设备
350
53BE
  0
ACDBDICTIONARYWDFLT
  5
E
102
{ACAD_REACTORS
330
C
102
}
330
C
100
AcDbDictionary
281
     1
  3
Normal
350
F
100
AcDbDictionaryWithDefault
340
F
  0
DICTIONARY
  5
C8BE
102
{ACAD_REACTORS
330
C
102
}
330
C
100
AcDbDictionary
281
     1
  3
A0
350
C8BF
  3
A1
350
C8C0
  3
A2
350
C8C1
  3
A3
350
C8C2
  3
A4
350
C8C3
  3
A5
350
C8C4
  3
A6
350
C8C5
  3
A7
350
C8C6
  3
A8
350
C8C7
  3
A9
350
C8C8
  3
B0
350
C8C9
  3
B1
350
C8CA
  3
B2
350
C8CB
  3
B3
350
C8CC
  3
B4
350
C8CD
  3
B5
350
C8CE
  3
B6
350
C8CF
  3
B7
350
C8D0
  3
B8
350
C8D1
  3
B9
350
C8D2
  3
C0
350
C8D3
  3
C1
350
C8D4
  3
C2
350
C8D5
  3
C3
350
C8D6
  3
C4
350
C8D7
  3
C5
350
C8D8
  3
C6
350
C8D9
  3
C7
350
C8DA
  3
C8
350
C8DB
  3
C9
350
C8DC
  3
D0
350
C8DD
  3
D1
350
C8DE
  3
D2
350
C8DF
  0
DICTIONARY
  5
C8BC
102
{ACAD_REACTORS
330
C
102
}
330
C
100
AcDbDictionary
281
     1
  3
Standard
350
C8BD
  0
DICTIONARY
  5
C8AB
102
{ACAD_REACTORS
330
C
102
}
330
C
100
AcDbDictionary
281
     1
  3
2dWireframe
350
C8B1
  3
3D Hidden
350
C8B3
  3
3dWireframe
350
C8B2
  3
Basic
350
C8B0
  3
Brighten
350
C8B7
  3
ColorChange
350
C8BB
  3
Conceptual
350
C8B4
  3
Dim
350
C8B6
  3
Facepattern
350
C8BA
  3
Flat
350
C8AC
  3
FlatWithEdges
350
C8AD
  3
Gouraud
350
C8AE
  3
GouraudWithEdges
350
C8AF
  3
Linepattern
350
C8B9
  3
Realistic
350
C8B5
  3
Thicken
350
C8B8
  0
XRECORD
  5
C8FB
102
{ACAD_REACTORS
330
C
102
}
330
C
100
AcDbXrecord
280
     1
 90
        1
330
C8BD
330
DBA2
330
E193
330
E1D7
330
E1D8
330
E1FD
330
E200
330
E201
330
E20B
330
E20C
330
E20D
330
E21B
330
E21C
330
E21D
  0
DICTIONARY
  5
A655
102
{ACAD_REACTORS
330
C
102
}
330
C
100
AcDbDictionary
281
     1
  3
CANNOSCALE
350
C90B
  3
CMLEADERSTYLE
350
C90A
  3
CTABLESTYLE
350
C909
  3
DIMASSOC
350
A656
  3
INDEXCTL
350
CB6A
  3
LIGHTINGUNITS
350
D2EB
  3
MSLTSCALE
350
D2EA
  3
PROJECTNAME
350
A657
  3
SORTENTS
350
CB69
  0
DICTIONARY
  5
D01F
102
{ACAD_REACTORS
330
C
102
}
330
C
100
AcDbDictionary
281
     1
  3
ASEBlockHierarchyIndexRecord
350
D020
1001
DCO15
1040
1777372640.312
  0
DICTIONARY
  5
D7B
102
{ACAD_REACTORS
330
C
102
}
330
C
100
AcDbDictionary
281
     1
  3
lxx_dimth
350
D7C
  0
DICTIONARY
  5
C6CB
102
{ACAD_REACTORS
330
823
102
}
330
823
100
AcDbDictionary
281
     1
  0
DICTIONARY
  5
824
102
{ACAD_REACTORS
330
823
102
}
330
823
100
AcDbDictionary
281
     1
  0
XRECORD
  5
C8F0
102
{ACAD_REACTORS
330
C8EF
102
}
330
C8EF
100
AcDbXrecord
280
     1
290
     1
  0
XRECORD
  5
C8F2
102
{ACAD_REACTORS
330
C8F1
102
}
330
C8F1
100
AcDbXrecord
280
     1
290
     1
  0
XRECORD
  5
C8F4
102
{ACAD_REACTORS
330
C8F3
102
}
330
C8F3
100
AcDbXrecord
280
     1
290
     1
  0
XRECORD
  5
C8F6
102
{ACAD_REACTORS
330
C8F5
102
}
330
C8F5
100
AcDbXrecord
280
     1
290
     1
  0
XRECORD
  5
E260
102
{ACAD_REACTORS
330
E22E
102
}
330
E22E
100
AcDbXrecord
280
     1
 40
1527.0
  1
\pxqc;BQ LUO
  0
XRECORD
  5
E261
102
{ACAD_REACTORS
330
E230
102
}
330
E230
100
AcDbXrecord
280
     1
 40
382080.0
  1
\pxqc;档案员{\H0.7x;\P\Fromans|c134;Filing Clerk\fFangSong_GB2312|b0|i0|c134|p49; }
  0
XRECORD
  5
E262
102
{ACAD_REACTORS
330
E232
102
}
330
E232
100
AcDbXrecord
280
     1
 40
48245.0
  1
\pxqc;日期{\Fromans|c134;/Date}
  0
XRECORD
  5
E263
102
{ACAD_REACTORS
330
E234
102
}
330
E234
100
AcDbXrecord
280
     1
 40
71634.0
  1
\pxsm0.7;{\fFangSong_GB2312|b0|i0|c134|p49;标准化}\PStand.
  0
XRECORD
  5
E264
102
{ACAD_REACTORS
330
E236
102
}
330
E236
100
AcDbXrecord
280
     1
 40
48353.0
  1
\pxsm0.7;签名\P{\Fromans|c134;Signature} 
  0
XRECORD
  5
E265
102
{ACAD_REACTORS
330
E238
102
}
330
E238
100
AcDbXrecord
280
     1
 40
38427.0
  1
\pxsm0.7,qc;处数\P{\Fromans|c134;Number }
  0
XRECORD
  5
E266
102
{ACAD_REACTORS
330
E23A
102
}
330
E23A
100
AcDbXrecord
280
     1
 40
31190.0
  1
\pxsm0.7;标记\P{\Fromans|c134;Mark}
  0
XRECORD
  5
E267
102
{ACAD_REACTORS
330
E23C
102
}
330
E23C
100
AcDbXrecord
280
     1
 40
39355.0
  1
\pxsm0.7;审核\P{\Fromans|c134;Checked}
  0
XRECORD
  5
E268
102
{ACAD_REACTORS
330
E23E
102
}
330
E23E
100
AcDbXrecord
280
     1
 40
66730.0
  1
\pxsm0.7;绘图\P{\Fromans|c134;Drawn\Ftxt|c134; }
  0
XRECORD
  5
E269
102
{ACAD_REACTORS
330
E240
102
}
330
E240
100
AcDbXrecord
280
     1
 40
43787.0
  1
\pxsm0.7;批准\P{\Fromans|c134;Approved}
  0
XRECORD
  5
E26A
102
{ACAD_REACTORS
330
E242
102
}
330
E242
100
AcDbXrecord
280
     1
 40
40691.0
  1
\pxsm0.7;工艺\P{\Fromans|c134;Process}
  0
XRECORD
  5
E26B
102
{ACAD_REACTORS
330
E244
102
}
330
E244
100
AcDbXrecord
280
     1
 40
30977.0
  1
\pxsm0.7;日期\P{\Fromans|c134;Date}
  0
XRECORD
  5
E247
102
{ACAD_REACTORS
330
E22C
102
}
330
E22C
100
AcDbXrecord
280
     1
 40
15084392.0
  1
\A1;\pxql;技术参数：\P- 材料: 压铸铝\P- 表面处理: 粉末喷涂\P- 颜色: {\Fromans|c134;RAL 7037}（灰色） \P- 温度范围: {\Fromans|c134;-40}℃{\Fromans|c134; - +125}℃\P- 防护等级: {\Fromans|c134;IP65}（联锁状态,{\Fromans|c134;IEC 60529})    \P- 出线方向: 顶出线\P- 出线孔数: {\Fromans|c134;1}\P- 螺纹规格: {\F
  1
romans|c134;PG16\P\PTechnical specification:\P- Material: aluminium die-cast\P- Surface: powder-coated\P- Colour: RAL 7037(grey)\P- Temperature range: -40}℃{\Fromans|c134; - +125}℃{\Fromans|c134;\P- Degree of protection: IP65\P  (acc.to IEC 60529 for
  1
 coupled connector)\P- Cable entry: top entry\P- No. of cable entries: 1\P- Thread size: PG16}
  0
IMAGEDEF
  5
2BB0
102
{ACAD_REACTORS
330
2BAF
102
}
330
2BAF
100
AcDbRasterImageDef
 90
        0
  1
drw0002_img_1.jpg
 10
932.0
 20
667.0
 11
0.1693333333
 21
0.1693333333
280
     1
281
     0
  0
LAYOUT
  5
1E
102
{ACAD_REACTORS
330
1A
102
}
330
1A
100
AcDbPlotSettings
  1

  2

  4

  6

 40
0.0
 41
0.0
 42
0.0
 43
0.0
 44
0.0
 45
0.0
 46
0.0
 47
0.0
 48
0.0
 49
0.0
140
0.0
141
0.0
142
1.0
143
1.0
 70
     0
 72
     0
 73
     0
 74
     0
  7

 75
     0
147
1.0
 76
     0
 77
     2
 78
   300
148
0.0
149
0.0
100
AcDbLayout
  1
Layout1
 70
     0
 71
     1
 10
0.0
 20
0.0
 11
12.0
 21
9.0
 12
0.0
 22
0.0
 32
0.0
 14
1.000000000000000E+20
 24
1.000000000000000E+20
 34
1.000000000000000E+20
 15
-1.000000000000000E+20
 25
-1.000000000000000E+20
 35
-1.000000000000000E+20
146
0.0
 13
0.0
 23
0.0
 33
0.0
 16
1.0
 26
0.0
 36
0.0
 17
0.0
 27
1.0
 37
0.0
 76
     0
330
1B
  0
LAYOUT
  5
22
102
{ACAD_REACTORS
330
1A
102
}
330
1A
100
AcDbPlotSettings
  1

  2
HP LaserJet P1007
  4
A4
  6

 40
4.519083
 41
4.349743
 42
4.561416999999996
 43
4.349762
 44
210.015671
 45
297.010651
 46
1.1
 47
0.0
 48
2547.403410427363
 49
399.442348403996
140
2837.088614977363
141
599.1182215402516
142
1.0
143
1.004765887719095
 70
 15028
 72
     1
 73
     1
 74
     4
  7
monochrome.ctb
 75
     0
147
0.9952567182292431
 76
     1
 77
     2
 78
   300
148
-2547.403410427363
149
-399.442348403996
100
AcDbLayout
  1
Model
 70
     0
 71
     0
 10
0.0
 20
0.0
 11
0.0
 21
0.0
 12
0.0
 22
0.0
 32
0.0
 14
0.0
 24
0.0
 34
0.0
 15
0.0
 25
0.0
 35
0.0
146
0.0
 13
0.0
 23
0.0
 33
0.0
 16
0.0
 26
0.0
 36
0.0
 17
0.0
 27
0.0
 37
0.0
 76
     0
330
1F
331
C888
  0
MATERIAL
  5
C89B
102
{ACAD_XDICTIONARY
360
C89C
102
}
102
{ACAD_REACTORS
330
6FC
102
}
330
6FC
100
AcDbMaterial
  1
ByBlock
 72
     0
 43
0.0008202099737533
 43
0.0
 43
0.0
 43
0.0
 43
0.0
 43
0.0008202099737533
 43
0.0
 43
0.0
 43
0.0
 43
0.0
 43
1.0
 43
0.0
 43
0.0
 43
0.0
 43
0.0
 43
1.0
 77
     0
 47
0.0008202099737533
 47
0.0
 47
0.0
 47
0.0
 47
0.0
 47
0.0008202099737533
 47
0.0
 47
0.0
 47
0.0
 47
0.0
 47
1.0
 47
0.0
 47
0.0
 47
0.0
 47
0.0
 47
1.0
171
     0
 49
0.0008202099737533
 49
0.0
 49
0.0
 49
0.0
 49
0.0
 49
0.0008202099737533
 49
0.0
 49
0.0
 49
0.0
 49
0.0
 49
1.0
 49
0.0
 49
0.0
 49
0.0
 49
0.0
 49
1.0
175
     0
142
0.0008202099737533
142
0.0
142
0.0
142
0.0
142
0.0
142
0.0008202099737533
142
0.0
142
0.0
142
0.0
142
0.0
142
1.0
142
0.0
142
0.0
142
0.0
142
0.0
142
1.0
179
     0
144
0.0008202099737533
144
0.0
144
0.0
144
0.0
144
0.0
144
0.0008202099737533
144
0.0
144
0.0
144
0.0
144
0.0
144
1.0
144
0.0
144
0.0
144
0.0
144
0.0
144
1.0
147
0.0008202099737533
147
0.0
147
0.0
147
0.0
147
0.0
147
0.0008202099737533
147
0.0
147
0.0
147
0.0
147
0.0
147
1.0
147
0.0
147
0.0
147
0.0
147
0.0
147
1.0
  0
MATERIAL
  5
C893
102
{ACAD_XDICTIONARY
360
C894
102
}
102
{ACAD_REACTORS
330
6FC
102
}
330
6FC
100
AcDbMaterial
  1
ByLayer
 72
     0
 43
0.0008202099737533
 43
0.0
 43
0.0
 43
0.0
 43
0.0
 43
0.0008202099737533
 43
0.0
 43
0.0
 43
0.0
 43
0.0
 43
1.0
 43
0.0
 43
0.0
 43
0.0
 43
0.0
 43
1.0
 77
     0
 47
0.0008202099737533
 47
0.0
 47
0.0
 47
0.0
 47
0.0
 47
0.0008202099737533
 47
0.0
 47
0.0
 47
0.0
 47
0.0
 47
1.0
 47
0.0
 47
0.0
 47
0.0
 47
0.0
 47
1.0
171
     0
 49
0.0008202099737533
 49
0.0
 49
0.0
 49
0.0
 49
0.0
 49
0.0008202099737533
 49
0.0
 49
0.0
 49
0.0
 49
0.0
 49
1.0
 49
0.0
 49
0.0
 49
0.0
 49
0.0
 49
1.0
175
     0
142
0.0008202099737533
142
0.0
142
0.0
142
0.0
142
0.0
142
0.0008202099737533
142
0.0
142
0.0
142
0.0
142
0.0
142
1.0
142
0.0
142
0.0
142
0.0
142
0.0
142
1.0
179
     0
144
0.0008202099737533
144
0.0
144
0.0
144
0.0
144
0.0
144
0.0008202099737533
144
0.0
144
0.0
144
0.0
144
0.0
144
1.0
144
0.0
144
0.0
144
0.0
144
0.0
144
1.0
147
0.0008202099737533
147
0.0
147
0.0
147
0.0
147
0.0
147
0.0008202099737533
147
0.0
147
0.0
147
0.0
147
0.0
147
1.0
147
0.0
147
0.0
147
0.0
147
0.0
147
1.0
  0
MATERIAL
  5
C8A3
102
{ACAD_XDICTIONARY
360
C8A4
102
}
102
{ACAD_REACTORS
330
6FC
102
}
330
6FC
100
AcDbMaterial
  1
Global
 72
     0
 43
0.0008202099737533
 43
0.0
 43
0.0
 43
0.0
 43
0.0
 43
0.0008202099737533
 43
0.0
 43
0.0
 43
0.0
 43
0.0
 43
1.0
 43
0.0
 43
0.0
 43
0.0
 43
0.0
 43
1.0
 77
     0
 47
0.0008202099737533
 47
0.0
 47
0.0
 47
0.0
 47
0.0
 47
0.0008202099737533
 47
0.0
 47
0.0
 47
0.0
 47
0.0
 47
1.0
 47
0.0
 47
0.0
 47
0.0
 47
0.0
 47
1.0
171
     0
 49
0.0008202099737533
 49
0.0
 49
0.0
 49
0.0
 49
0.0
 49
0.0008202099737533
 49
0.0
 49
0.0
 49
0.0
 49
0.0
 49
1.0
 49
0.0
 49
0.0
 49
0.0
 49
0.0
 49
1.0
175
     0
142
0.0008202099737533
142
0.0
142
0.0
142
0.0
142
0.0
142
0.0008202099737533
142
0.0
142
0.0
142
0.0
142
0.0
142
1.0
142
0.0
142
0.0
142
0.0
142
0.0
142
1.0
179
     0
144
0.0008202099737533
144
0.0
144
0.0
144
0.0
144
0.0
144
0.0008202099737533
144
0.0
144
0.0
144
0.0
144
0.0
144
1.0
144
0.0
144
0.0
144
0.0
144
0.0
144
1.0
147
0.0008202099737533
147
0.0
147
0.0
147
0.0
147
0.0
147
0.0008202099737533
147
0.0
147
0.0
147
0.0
147
0.0
147
1.0
147
0.0
147
0.0
147
0.0
147
0.0
147
1.0
  0
MLEADERSTYLE
  5
C8E1
102
{ACAD_REACTORS
330
C8E0
102
}
330
C8E0
100
AcDbMLeaderStyle
170
     2
171
     1
172
     0
 90
        2
 40
0.0
 41
0.0
173
     1
 91
-1056964608
340
14
 92
       -2
290
     1
 42
2.0
291
     1
 43
0.36
  3
Standard
 44
4.0
300

342
11
174
     1
178
     6
175
     1
176
     0
 93
-1056964608
 45
4.0
292
     0
297
     0
 46
4.0
 94
-1056964608
 47
1.0
 49
1.0
140
1.0
293
     1
141
0.0
294
     1
177
     0
142
1.0
295
     0
296
     0
143
0.125
1001
ACAD_MLEADERVER
1070
     2
  0
MLINESTYLE
  5
18
102
{ACAD_REACTORS
330
17
102
}
330
17
100
AcDbMlineStyle
  2
STANDARD
 70
     0
  3

 62
   256
 51
90.0
 52
90.0
 71
     2
 49
0.5
 62
   256
  6
BYLAYER
 49
-0.5
 62
   256
  6
BYLAYER
  0
PLOTSETTINGS
  5
53BE
102
{ACAD_REACTORS
330
19
102
}
330
19
100
AcDbPlotSettings
  1
ISO A4 标题栏 (纵向) - 无输出设备
  2
None
  4
ISO_A4_(210.00_x_297.00_MM)
  6

 40
7.549999999999998
 41
20.05
 42
7.549999999999998
 43
20.05
 44
210.0
 45
297.0
 46
-7.559999999999996
 47
-20.06
 48
0.0
 49
0.0
140
0.0
141
0.0
142
1.0
143
1.0
 70
   692
 72
     1
 73
     0
 74
     1
  7

 75
    16
147
1.0
 76
     0
 77
     2
 78
   300
148
0.0128164049386896
149
0.0090630292066862
  0
ACDBPLACEHOLDER
  5
F
102
{ACAD_REACTORS
330
E
102
}
330
E
  0
SCALE
  5
C8BF
102
{ACAD_REACTORS
330
C8BE
102
}
330
C8BE
100
AcDbScale
 70
     0
300
1:1
140
1.0
141
1.0
290
     1
  0
SCALE
  5
C8C0
102
{ACAD_REACTORS
330
C8BE
102
}
330
C8BE
100
AcDbScale
 70
     0
300
1:2
140
1.0
141
2.0
290
     0
  0
SCALE
  5
C8C1
102
{ACAD_REACTORS
330
C8BE
102
}
330
C8BE
100
AcDbScale
 70
     0
300
1:4
140
1.0
141
4.0
290
     0
  0
SCALE
  5
C8C2
102
{ACAD_REACTORS
330
C8BE
102
}
330
C8BE
100
AcDbScale
 70
     0
300
1:5
140
1.0
141
5.0
290
     0
  0
SCALE
  5
C8C3
102
{ACAD_REACTORS
330
C8BE
102
}
330
C8BE
100
AcDbScale
 70
     0
300
1:8
140
1.0
141
8.0
290
     0
  0
SCALE
  5
C8C4
102
{ACAD_REACTORS
330
C8BE
102
}
330
C8BE
100
AcDbScale
 70
     0
300
1:10
140
1.0
141
10.0
290
     0
  0
SCALE
  5
C8C5
102
{ACAD_REACTORS
330
C8BE
102
}
330
C8BE
100
AcDbScale
 70
     0
300
1:16
140
1.0
141
16.0
290
     0
  0
SCALE
  5
C8C6
102
{ACAD_REACTORS
330
C8BE
102
}
330
C8BE
100
AcDbScale
 70
     0
300
1:20
140
1.0
141
20.0
290
     0
  0
SCALE
  5
C8C7
102
{ACAD_REACTORS
330
C8BE
102
}
330
C8BE
100
AcDbScale
 70
     0
300
1:30
140
1.0
141
30.0
290
     0
  0
SCALE
  5
C8C8
102
{ACAD_REACTORS
330
C8BE
102
}
330
C8BE
100
AcDbScale
 70
     0
300
1:40
140
1.0
141
40.0
290
     0
  0
SCALE
  5
C8C9
102
{ACAD_REACTORS
330
C8BE
102
}
330
C8BE
100
AcDbScale
 70
     0
300
1:50
140
1.0
141
50.0
290
     0
  0
SCALE
  5
C8CA
102
{ACAD_REACTORS
330
C8BE
102
}
330
C8BE
100
AcDbScale
 70
     0
300
1:100
140
1.0
141
100.0
290
     0
  0
SCALE
  5
C8CB
102
{ACAD_REACTORS
330
C8BE
102
}
330
C8BE
100
AcDbScale
 70
     0
300
2:1
140
2.0
141
1.0
290
     0
  0
SCALE
  5
C8CC
102
{ACAD_REACTORS
330
C8BE
102
}
330
C8BE
100
AcDbScale
 70
     0
300
4:1
140
4.0
141
1.0
290
     0
  0
SCALE
  5
C8CD
102
{ACAD_REACTORS
330
C8BE
102
}
330
C8BE
100
AcDbScale
 70
     0
300
8:1
140
8.0
141
1.0
290
     0
  0
SCALE
  5
C8CE
102
{ACAD_REACTORS
330
C8BE
102
}
330
C8BE
100
AcDbScale
 70
     0
300
10:1
140
10.0
141
1.0
290
     0
  0
SCALE
  5
C8CF
102
{ACAD_REACTORS
330
C8BE
102
}
330
C8BE
100
AcDbScale
 70
     0
300
100:1
140
100.0
141
1.0
290
     0
  0
SCALE
  5
C8D0
102
{ACAD_REACTORS
330
C8BE
102
}
330
C8BE
100
AcDbScale
 70
     0
300
1/128" = 1'-0"
140
0.0078125
141
12.0
290
     0
  0
SCALE
  5
C8D1
102
{ACAD_REACTORS
330
C8BE
102
}
330
C8BE
100
AcDbScale
 70
     0
300
1/64" = 1'-0"
140
0.015625
141
12.0
290
     0
  0
SCALE
  5
C8D2
102
{ACAD_REACTORS
330
C8BE
102
}
330
C8BE
100
AcDbScale
 70
     0
300
1/32" = 1'-0"
140
0.03125
141
12.0
290
     0
  0
SCALE
  5
C8D3
102
{ACAD_REACTORS
330
C8BE
102
}
330
C8BE
100
AcDbScale
 70
     0
300
1/16" = 1'-0"
140
0.0625
141
12.0
290
     0
  0
SCALE
  5
C8D4
102
{ACAD_REACTORS
330
C8BE
102
}
330
C8BE
100
AcDbScale
 70
     0
300
3/32" = 1'-0"
140
0.09375
141
12.0
290
     0
  0
SCALE
  5
C8D5
102
{ACAD_REACTORS
330
C8BE
102
}
330
C8BE
100
AcDbScale
 70
     0
300
1/8" = 1'-0"
140
0.125
141
12.0
290
     0
  0
SCALE
  5
C8D6
102
{ACAD_REACTORS
330
C8BE
102
}
330
C8BE
100
AcDbScale
 70
     0
300
3/16" = 1'-0"
140
0.1875
141
12.0
290
     0
  0
SCALE
  5
C8D7
102
{ACAD_REACTORS
330
C8BE
102
}
330
C8BE
100
AcDbScale
 70
     0
300
1/4" = 1'-0"
140
0.25
141
12.0
290
     0
  0
SCALE
  5
C8D8
102
{ACAD_REACTORS
330
C8BE
102
}
330
C8BE
100
AcDbScale
 70
     0
300
3/8" = 1'-0"
140
0.375
141
12.0
290
     0
  0
SCALE
  5
C8D9
102
{ACAD_REACTORS
330
C8BE
102
}
330
C8BE
100
AcDbScale
 70
     0
300
1/2" = 1'-0"
140
0.5
141
12.0
290
     0
  0
SCALE
  5
C8DA
102
{ACAD_REACTORS
330
C8BE
102
}
330
C8BE
100
AcDbScale
 70
     0
300
3/4" = 1'-0"
140
0.75
141
12.0
290
     0
  0
SCALE
  5
C8DB
102
{ACAD_REACTORS
330
C8BE
102
}
330
C8BE
100
AcDbScale
 70
     0
300
1" = 1'-0"
140
1.0
141
12.0
290
     0
  0
SCALE
  5
C8DC
102
{ACAD_REACTORS
330
C8BE
102
}
330
C8BE
100
AcDbScale
 70
     0
300
1-1/2" = 1'-0"
140
1.5
141
12.0
290
     0
  0
SCALE
  5
C8DD
102
{ACAD_REACTORS
330
C8BE
102
}
330
C8BE
100
AcDbScale
 70
     0
300
3" = 1'-0"
140
3.0
141
12.0
290
     0
  0
SCALE
  5
C8DE
102
{ACAD_REACTORS
330
C8BE
102
}
330
C8BE
100
AcDbScale
 70
     0
300
6" = 1'-0"
140
6.0
141
12.0
290
     0
  0
SCALE
  5
C8DF
102
{ACAD_REACTORS
330
C8BE
102
}
330
C8BE
100
AcDbScale
 70
     0
300
1'-0" = 1'-0"
140
12.0
141
12.0
290
     0
  0
TABLESTYLE
  5
C8BD
102
{ACAD_XDICTIONARY
360
C8F9
102
}
102
{ACAD_REACTORS
330
C8BC
102
}
330
C8BC
100
AcDbTableStyle
  3
Standard
 70
     0
 71
     0
 40
1.5
 41
1.5
280
     0
281
     0
  7
STANDARD
140
4.5
170
     2
 62
     0
 63
     7
283
     0
274
    -2
284
     1
 64
     0
275
    -2
285
     1
 65
     0
276
    -2
286
     1
 66
     0
277
    -2
287
     1
 67
     0
278
    -2
288
     1
 68
     0
279
    -2
289
     1
 69
     0
  7
STANDARD
140
6.0
170
     5
 62
     0
 63
     7
283
     0
274
    -2
284
     1
 64
     0
275
    -2
285
     1
 65
     0
276
    -2
286
     1
 66
     0
277
    -2
287
     1
 67
     0
278
    -2
288
     1
 68
     0
279
    -2
289
     1
 69
     0
  7
STANDARD
140
4.5
170
     5
 62
     0
 63
     7
283
     0
274
    -2
284
     1
 64
     0
275
    -2
285
     1
 65
     0
276
    -2
286
     1
 66
     0
277
    -2
287
     1
 67
     0
278
    -2
288
     1
 68
     0
279
    -2
289
     1
 69
     0
  0
VISUALSTYLE
  5
C8B1
102
{ACAD_REACTORS
330
C8AB
102
}
330
C8AB
100
AcDbVisualStyle
  2
2dWireframe
 70
     4
 71
     0
 72
     2
 73
     0
 90
        0
 40
-0.6
 41
-30.0
 62
     5
 63
     7
 74
     1
 91
        4
 64
     7
 65
   257
 75
     1
175
     1
 42
1.0
 92
        0
 66
   257
 43
1.0
 76
     1
 77
     6
 78
     2
 67
     7
 79
     5
170
     0
171
     0
290
     0
174
     0
 93
        1
 44
0.0
173
     0
291
     0
 45
0.0
1001
ACAD
1000
AcDbSavedByObjectVersion
1070
     0
1000
AcDbSavedByObjectVersion
1070
     0
1000
AcDbSavedByObjectVersion
1070
     0
1000
AcDbSavedByObjectVersion
1070
     0
1000
AcDbSavedByObjectVersion
1070
     0
  0
VISUALSTYLE
  5
C8B3
102
{ACAD_REACTORS
330
C8AB
102
}
330
C8AB
100
AcDbVisualStyle
  2
3D Hidden
 70
     6
 71
     1
 72
     2
 73
     2
 90
        0
 40
-0.6
 41
-30.0
 62
     5
 63
     7
 74
     2
 91
        2
 64
     7
 65
   257
 75
     2
175
     1
 42
40.0
 92
        0
 66
   257
 43
1.0
 76
     1
 77
     6
 78
     2
 67
     7
 79
     3
170
     0
171
     0
290
     0
174
     0
 93
        1
 44
0.0
173
     0
291
     0
 45
0.0
1001
ACAD
1000
AcDbSavedByObjectVersion
1070
     0
1000
AcDbSavedByObjectVersion
1070
     0
1000
AcDbSavedByObjectVersion
1070
     0
1000
AcDbSavedByObjectVersion
1070
     0
1000
AcDbSavedByObjectVersion
1070
     0
  0
VISUALSTYLE
  5
C8B2
102
{ACAD_REACTORS
330
C8AB
102
}
330
C8AB
100
AcDbVisualStyle
  2
3dWireframe
 70
     5
 71
     0
 72
     2
 73
     0
 90
        0
 40
-0.6
 41
-30.0
 62
     5
 63
     7
 74
     1
 91
        4
 64
     7
 65
   257
 75
     1
175
     1
 42
1.0
 92
        0
 66
   257
 43
1.0
 76
     1
 77
     6
 78
     2
 67
     7
 79
     5
170
     0
171
     0
290
     0
174
     0
 93
        1
 44
0.0
173
     0
291
     0
 45
0.0
1001
ACAD
1000
AcDbSavedByObjectVersion
1070
     0
1000
AcDbSavedByObjectVersion
1070
     0
1000
AcDbSavedByObjectVersion
1070
     0
1000
AcDbSavedByObjectVersion
1070
     0
1000
AcDbSavedByObjectVersion
1070
     0
  0
VISUALSTYLE
  5
C8B0
102
{ACAD_REACTORS
330
C8AB
102
}
330
C8AB
100
AcDbVisualStyle
  2
Basic
 70
     7
 71
     1
 72
     0
 73
     1
 90
        0
 40
-0.6
 41
-30.0
 62
     5
 63
     7
 74
     0
 91
        4
 64
     7
 65
   257
 75
     1
175
     1
 42
1.0
 92
        8
 66
     7
 43
1.0
 76
     1
 77
     6
 78
     2
 67
     7
 79
     5
170
     0
171
     0
290
     0
174
     0
 93
        1
 44
0.0
173
     0
291
     1
 45
0.0
1001
ACAD
1000
AcDbSavedByObjectVersion
1070
     0
1000
AcDbSavedByObjectVersion
1070
     0
1000
AcDbSavedByObjectVersion
1070
     0
1000
AcDbSavedByObjectVersion
1070
     0
1000
AcDbSavedByObjectVersion
1070
     0
  0
VISUALSTYLE
  5
C8B7
102
{ACAD_REACTORS
330
C8AB
102
}
330
C8AB
100
AcDbVisualStyle
  2
Brighten
 70
    12
 71
     2
 72
     2
 73
     0
 90
        0
 40
-0.6
 41
-30.0
 62
     5
 63
     7
 74
     1
 91
        4
 64
     7
 65
   257
 75
     1
175
     1
 42
1.0
 92
        8
 66
     7
 43
1.0
 76
     1
 77
     6
 78
     2
 67
     7
 79
     5
170
     0
171
     0
290
     0
174
     0
 93
        1
 44
50.0
173
     0
291
     1
 45
0.0
1001
ACAD
1000
AcDbSavedByObjectVersion
1070
     0
1000
AcDbSavedByObjectVersion
1070
     0
1000
AcDbSavedByObjectVersion
1070
     0
1000
AcDbSavedByObjectVersion
1070
     0
1000
AcDbSavedByObjectVersion
1070
     0
  0
VISUALSTYLE
  5
C8BB
102
{ACAD_REACTORS
330
C8AB
102
}
330
C8AB
100
AcDbVisualStyle
  2
ColorChange
 70
    16
 71
     2
 72
     2
 73
     3
 90
        0
 40
-0.6
 41
-30.0
 62
     5
 63
     8
 74
     1
 91
        4
 64
     7
 65
   257
 75
     1
175
     1
 42
1.0
 92
        8
 66
     8
 43
1.0
 76
     1
 77
     6
 78
     2
 67
     7
 79
     5
170
     0
171
     0
290
     0
174
     0
 93
        1
 44
0.0
173
     0
291
     1
 45
0.0
1001
ACAD
1000
AcDbSavedByObjectVersion
1070
     0
1000
AcDbSavedByObjectVersion
1070
     0
1000
AcDbSavedByObjectVersion
1070
     0
1000
AcDbSavedByObjectVersion
1070
     0
1000
AcDbSavedByObjectVersion
1070
     0
  0
VISUALSTYLE
  5
C8B4
102
{ACAD_REACTORS
330
C8AB
102
}
330
C8AB
100
AcDbVisualStyle
  2
Conceptual
 70
     9
 71
     3
 72
     2
 73
     0
 90
        0
 40
-0.6
 41
-30.0
 62
     5
 63
     7
 74
     2
 91
        2
 64
     7
 65
   257
 75
     1
175
     1
 42
40.0
 92
        8
 66
     7
 43
1.0
 76
     1
 77
     6
 78
     2
 67
     7
 79
     3
170
     0
171
     0
290
     0
174
     0
 93
        1
 44
0.0
173
     0
291
     0
 45
0.0
1001
ACAD
1000
AcDbSavedByObjectVersion
1070
     0
1000
AcDbSavedByObjectVersion
1070
     0
1000
AcDbSavedByObjectVersion
1070
     0
1000
AcDbSavedByObjectVersion
1070
     0
1000
AcDbSavedByObjectVersion
1070
     0
  0
VISUALSTYLE
  5
C8B6
102
{ACAD_REACTORS
330
C8AB
102
}
330
C8AB
100
AcDbVisualStyle
  2
Dim
 70
    11
 71
     2
 72
     2
 73
     0
 90
        0
 40
-0.6
 41
-30.0
 62
     5
 63
     7
 74
     1
 91
        4
 64
     7
 65
   257
 75
     1
175
     1
 42
1.0
 92
        8
 66
     7
 43
1.0
 76
     1
 77
     6
 78
     2
 67
     7
 79
     5
170
     0
171
     0
290
     0
174
     0
 93
        1
 44
-50.0
173
     0
291
     1
 45
0.0
1001
ACAD
1000
AcDbSavedByObjectVersion
1070
     0
1000
AcDbSavedByObjectVersion
1070
     0
1000
AcDbSavedByObjectVersion
1070
     0
1000
AcDbSavedByObjectVersion
1070
     0
1000
AcDbSavedByObjectVersion
1070
     0
  0
VISUALSTYLE
  5
C8BA
102
{ACAD_REACTORS
330
C8AB
102
}
330
C8AB
100
AcDbVisualStyle
  2
Facepattern
 70
    15
 71
     2
 72
     2
 73
     0
 90
        0
 40
-0.6
 41
-30.0
 62
     5
 63
     7
 74
     1
 91
        4
 64
     7
 65
   257
 75
     1
175
     1
 42
1.0
 92
        8
 66
     7
 43
1.0
 76
     1
 77
     6
 78
     2
 67
     7
 79
     5
170
     0
171
     0
290
     0
174
     0
 93
        1
 44
0.0
173
     0
291
     1
 45
0.0
1001
ACAD
1000
AcDbSavedByObjectVersion
1070
     0
1000
AcDbSavedByObjectVersion
1070
     0
1000
AcDbSavedByObjectVersion
1070
     0
1000
AcDbSavedByObjectVersion
1070
     0
1000
AcDbSavedByObjectVersion
1070
     0
  0
VISUALSTYLE
  5
C8AC
102
{ACAD_REACTORS
330
C8AB
102
}
330
C8AB
100
AcDbVisualStyle
  2
Flat
 70
     0
 71
     2
 72
     1
 73
     1
 90
        2
 40
-0.6
 41
30.0
 62
     5
 63
     7
 74
     0
 91
        4
 64
     7
 65
   257
 75
     1
175
     1
 42
1.0
 92
        8
 66
     7
 43
1.0
 76
     1
 77
     6
 78
     2
 67
     7
 79
     5
170
     0
171
     0
290
     0
174
     0
 93
       13
 44
0.0
173
     0
291
     1
 45
0.0
1001
ACAD
1000
AcDbSavedByObjectVersion
1070
     0
1000
AcDbSavedByObjectVersion
1070
     0
1000
AcDbSavedByObjectVersion
1070
     0
1000
AcDbSavedByObjectVersion
1070
     0
1000
AcDbSavedByObjectVersion
1070
     0
  0
VISUALSTYLE
  5
C8AD
102
{ACAD_REACTORS
330
C8AB
102
}
330
C8AB
100
AcDbVisualStyle
  2
FlatWithEdges
 70
     1
 71
     2
 72
     1
 73
     1
 90
        2
 40
-0.6
 41
30.0
 62
     5
 63
     7
 74
     1
 91
        4
 64
     7
 65
   257
 75
     1
175
     1
 42
1.0
 92
        0
 66
   257
 43
1.0
 76
     1
 77
     6
 78
     2
 67
     7
 79
     5
170
     0
171
     0
290
     0
174
     0
 93
       13
 44
0.0
173
     0
291
     1
 45
0.0
1001
ACAD
1000
AcDbSavedByObjectVersion
1070
     0
1000
AcDbSavedByObjectVersion
1070
     0
1000
AcDbSavedByObjectVersion
1070
     0
1000
AcDbSavedByObjectVersion
1070
     0
1000
AcDbSavedByObjectVersion
1070
     0
  0
VISUALSTYLE
  5
C8AE
102
{ACAD_REACTORS
330
C8AB
102
}
330
C8AB
100
AcDbVisualStyle
  2
Gouraud
 70
     2
 71
     2
 72
     2
 73
     1
 90
        2
 40
-0.6
 41
30.0
 62
     5
 63
     7
 74
     0
 91
        4
 64
     7
 65
   257
 75
     1
175
     1
 42
1.0
 92
        0
 66
     7
 43
1.0
 76
     1
 77
     6
 78
     2
 67
     7
 79
     5
170
     0
171
     0
290
     0
174
     0
 93
       13
 44
0.0
173
     0
291
     1
 45
0.0
1001
ACAD
1000
AcDbSavedByObjectVersion
1070
     0
1000
AcDbSavedByObjectVersion
1070
     0
1000
AcDbSavedByObjectVersion
1070
     0
1000
AcDbSavedByObjectVersion
1070
     0
1000
AcDbSavedByObjectVersion
1070
     0
  0
VISUALSTYLE
  5
C8AF
102
{ACAD_REACTORS
330
C8AB
102
}
330
C8AB
100
AcDbVisualStyle
  2
GouraudWithEdges
 70
     3
 71
     2
 72
     2
 73
     1
 90
        2
 40
-0.6
 41
30.0
 62
     5
 63
     7
 74
     1
 91
        4
 64
     7
 65
   257
 75
     1
175
     1
 42
1.0
 92
        0
 66
   257
 43
1.0
 76
     1
 77
     6
 78
     2
 67
     7
 79
     5
170
     0
171
     0
290
     0
174
     0
 93
       13
 44
0.0
173
     0
291
     1
 45
0.0
1001
ACAD
1000
AcDbSavedByObjectVersion
1070
     0
1000
AcDbSavedByObjectVersion
1070
     0
1000
AcDbSavedByObjectVersion
1070
     0
1000
AcDbSavedByObjectVersion
1070
     0
1000
AcDbSavedByObjectVersion
1070
     0
  0
VISUALSTYLE
  5
C8B9
102
{ACAD_REACTORS
330
C8AB
102
}
330
C8AB
100
AcDbVisualStyle
  2
Linepattern
 70
    14
 71
     2
 72
     2
 73
     0
 90
        0
 40
-0.6
 41
-30.0
 62
     5
 63
     7
 74
     1
 91
        4
 64
     7
 65
   257
 75
     7
175
     7
 42
1.0
 92
        8
 66
     7
 43
1.0
 76
     1
 77
     6
 78
     2
 67
     7
 79
     5
170
     0
171
     0
290
     0
174
     0
 93
        1
 44
0.0
173
     0
291
     1
 45
0.0
1001
ACAD
1000
AcDbSavedByObjectVersion
1070
     0
1000
AcDbSavedByObjectVersion
1070
     0
1000
AcDbSavedByObjectVersion
1070
     0
1000
AcDbSavedByObjectVersion
1070
     0
1000
AcDbSavedByObjectVersion
1070
     0
  0
VISUALSTYLE
  5
C8B5
102
{ACAD_REACTORS
330
C8AB
102
}
330
C8AB
100
AcDbVisualStyle
  2
Realistic
 70
     8
 71
     2
 72
     2
 73
     0
 90
        0
 40
-0.6
 41
-30.0
 62
     5
 63
     7
 74
     1
 91
        0
 64
     7
 65
   257
 75
     1
175
     1
 42
1.0
 92
        8
 66
     8
 43
1.0
 76
     1
 77
     6
 78
     2
 67
     7
 79
     5
170
     0
171
     0
290
     0
174
     0
 93
       13
 44
0.0
173
     0
291
     0
 45
0.0
1001
ACAD
1000
AcDbSavedByObjectVersion
1070
     0
1000
AcDbSavedByObjectVersion
1070
     0
1000
AcDbSavedByObjectVersion
1070
     0
1000
AcDbSavedByObjectVersion
1070
     0
1000
AcDbSavedByObjectVersion
1070
     0
  0
VISUALSTYLE
  5
C8B8
102
{ACAD_REACTORS
330
C8AB
102
}
330
C8AB
100
AcDbVisualStyle
  2
Thicken
 70
    13
 71
     2
 72
     2
 73
     0
 90
        0
 40
-0.6
 41
-30.0
 62
     5
 63
     7
 74
     1
 91
        4
 64
     7
 65
   257
 75
     1
175
     1
 42
1.0
 92
       12
 66
     7
 43
1.0
 76
     1
 77
     6
 78
     2
 67
     7
 79
     5
170
     0
171
     0
290
     0
174
     0
 93
        1
 44
0.0
173
     0
291
     1
 45
0.0
1001
ACAD
1000
AcDbSavedByObjectVersion
1070
     0
1000
AcDbSavedByObjectVersion
1070
     0
1000
AcDbSavedByObjectVersion
1070
     0
1000
AcDbSavedByObjectVersion
1070
     0
1000
AcDbSavedByObjectVersion
1070
     0
  0
DICTIONARYVAR
  5
C90B
102
{ACAD_REACTORS
330
A655
102
}
330
A655
100
DictionaryVariables
280
     0
  1
1:1
  0
DICTIONARYVAR
  5
C90A
102
{ACAD_REACTORS
330
A655
102
}
330
A655
100
DictionaryVariables
280
     0
  1
STANDARD
  0
DICTIONARYVAR
  5
C909
102
{ACAD_REACTORS
330
A655
102
}
330
A655
100
DictionaryVariables
280
     0
  1
STANDARD
  0
DICTIONARYVAR
  5
A656
102
{ACAD_REACTORS
330
A655
102
}
330
A655
100
DictionaryVariables
280
     0
  1
1
  0
DICTIONARYVAR
  5
CB6A
102
{ACAD_REACTORS
330
A655
102
}
330
A655
100
DictionaryVariables
280
     0
  1
0
  0
DICTIONARYVAR
  5
D2EB
102
{ACAD_REACTORS
330
A655
102
}
330
A655
100
DictionaryVariables
280
     0
  1
0
  0
DICTIONARYVAR
  5
D2EA
102
{ACAD_REACTORS
330
A655
102
}
330
A655
100
DictionaryVariables
280
     0
  1
0
  0
DICTIONARYVAR
  5
A657
102
{ACAD_REACTORS
330
A655
102
}
330
A655
100
DictionaryVariables
280
     0
  1

  0
DICTIONARYVAR
  5
CB69
102
{ACAD_REACTORS
330
A655
102
}
330
A655
100
DictionaryVariables
280
     0
  1
127
  0
XRECORD
  5
D020
102
{ACAD_REACTORS
330
D01F
102
}
330
D01F
100
AcDbXrecord
280
     1
330
CAA6
  0
VLO-VL
  5
D7C
102
{ACAD_REACTORS
330
D7B
102
}
330
D7B
100
vlo_VL
 90
   -64512
 91
       12
 92
        1
 40
2.5
300
(&VLO-R . 0)
  0
DICTIONARY
  5
C89C
330
C89B
100
AcDbDictionary
280
     1
281
     1
  3
ACAD_XREC_ROUNDTRIP
360
DF99
  3
BUMPTILE
360
C89E
  3
DIFFUSETILE
360
C89D
  3
OPACITYTILE
360
C8A1
  3
REFLECTIONTILE
360
C8A0
  3
REFRACTIONTILE
360
C8A2
  3
SPECULARTILE
360
C89F
  0
DICTIONARY
  5
C894
330
C893
100
AcDbDictionary
280
     1
281
     1
  3
ACAD_XREC_ROUNDTRIP
360
DF98
  3
BUMPTILE
360
C896
  3
DIFFUSETILE
360
C895
  3
OPACITYTILE
360
C899
  3
REFLECTIONTILE
360
C898
  3
REFRACTIONTILE
360
C89A
  3
SPECULARTILE
360
C897
  0
DICTIONARY
  5
C8A4
330
C8A3
100
AcDbDictionary
280
     1
281
     1
  3
ACAD_XREC_ROUNDTRIP
360
DF9A
  3
BUMPTILE
360
C8A6
  3
DIFFUSETILE
360
C8A5
  3
OPACITYTILE
360
C8A9
  3
REFLECTIONTILE
360
C8A8
  3
REFRACTIONTILE
360
C8AA
  3
SPECULARTILE
360
C8A7
  0
DICTIONARY
  5
C8F9
330
C8BD
100
AcDbDictionary
280
     1
281
     1
  3
ACAD_ROUNDTRIP_2008_TABLESTYLE_CELLSTYLEMAP
360
E22B
  3
ACAD_XREC_ROUNDTRIP
360
E246
  0
XRECORD
  5
DF99
102
{ACAD_REACTORS
330
C89C
102
}
330
C89C
100
AcDbXrecord
280
     1
102
MATERIAL
148
0.0
149
0.0
149
0.0
 93
        0
 94
      127
282
     0
 72
     0
 77
     0
171
     0
175
     0
179
     0
273
     0
  0
XRECORD
  5
C89E
102
{ACAD_REACTORS
330
C89C
102
}
330
C89C
100
AcDbXrecord
280
     1
270
     1
271
     1
  0
XRECORD
  5
C89D
102
{ACAD_REACTORS
330
C89C
102
}
330
C89C
100
AcDbXrecord
280
     1
270
     1
271
     1
  0
XRECORD
  5
C8A1
102
{ACAD_REACTORS
330
C89C
102
}
330
C89C
100
AcDbXrecord
280
     1
270
     1
271
     1
  0
XRECORD
  5
C8A0
102
{ACAD_REACTORS
330
C89C
102
}
330
C89C
100
AcDbXrecord
280
     1
270
     1
271
     1
  0
XRECORD
  5
C8A2
102
{ACAD_REACTORS
330
C89C
102
}
330
C89C
100
AcDbXrecord
280
     1
270
     1
271
     1
  0
XRECORD
  5
C89F
102
{ACAD_REACTORS
330
C89C
102
}
330
C89C
100
AcDbXrecord
280
     1
270
     1
271
     1
  0
XRECORD
  5
DF98
102
{ACAD_REACTORS
330
C894
102
}
330
C894
100
AcDbXrecord
280
     1
102
MATERIAL
148
0.0
149
0.0
149
0.0
 93
        0
 94
      127
282
     0
 72
     0
 77
     0
171
     0
175
     0
179
     0
273
     0
  0
XRECORD
  5
C896
102
{ACAD_REACTORS
330
C894
102
}
330
C894
100
AcDbXrecord
280
     1
270
     1
271
     1
  0
XRECORD
  5
C895
102
{ACAD_REACTORS
330
C894
102
}
330
C894
100
AcDbXrecord
280
     1
270
     1
271
     1
  0
XRECORD
  5
C899
102
{ACAD_REACTORS
330
C894
102
}
330
C894
100
AcDbXrecord
280
     1
270
     1
271
     1
  0
XRECORD
  5
C898
102
{ACAD_REACTORS
330
C894
102
}
330
C894
100
AcDbXrecord
280
     1
270
     1
271
     1
  0
XRECORD
  5
C89A
102
{ACAD_REACTORS
330
C894
102
}
330
C894
100
AcDbXrecord
280
     1
270
     1
271
     1
  0
XRECORD
  5
C897
102
{ACAD_REACTORS
330
C894
102
}
330
C894
100
AcDbXrecord
280
     1
270
     1
271
     1
  0
XRECORD
  5
DF9A
102
{ACAD_REACTORS
330
C8A4
102
}
330
C8A4
100
AcDbXrecord
280
     1
102
MATERIAL
148
0.0
149
0.0
149
0.0
 93
        0
 94
      127
282
     0
 72
     0
 77
     0
171
     0
175
     0
179
     0
273
     0
  0
XRECORD
  5
C8A6
102
{ACAD_REACTORS
330
C8A4
102
}
330
C8A4
100
AcDbXrecord
280
     1
270
     1
271
     1
  0
XRECORD
  5
C8A5
102
{ACAD_REACTORS
330
C8A4
102
}
330
C8A4
100
AcDbXrecord
280
     1
270
     1
271
     1
  0
XRECORD
  5
C8A9
102
{ACAD_REACTORS
330
C8A4
102
}
330
C8A4
100
AcDbXrecord
280
     1
270
     1
271
     1
  0
XRECORD
  5
C8A8
102
{ACAD_REACTORS
330
C8A4
102
}
330
C8A4
100
AcDbXrecord
280
     1
270
     1
271
     1
  0
XRECORD
  5
C8AA
102
{ACAD_REACTORS
330
C8A4
102
}
330
C8A4
100
AcDbXrecord
280
     1
270
     1
271
     1
  0
XRECORD
  5
C8A7
102
{ACAD_REACTORS
330
C8A4
102
}
330
C8A4
100
AcDbXrecord
280
     1
270
     1
271
     1
  0
CELLSTYLEMAP
  5
E22B
102
{ACAD_REACTORS
330
C8F9
102
}
330
C8F9
100
AcDbCellStyleMap
 90
        3
300
CELLSTYLE
  1
TABLEFORMAT_BEGIN
 90
        5
170
     1
 91
        0
 92
    32768
 62
   257
 93
        1
300
CONTENTFORMAT
  1
CONTENTFORMAT_BEGIN
 90
        0
 91
        0
 92
      512
 93
        0
300

 40
0.0
140
1.0
 94
        5
 62
     0
340
11
144
6.0
309
CONTENTFORMAT_END
171
     1
301
MARGIN
  1
CELLMARGIN_BEGIN
 40
1.5
 40
1.5
 40
1.5
 40
1.5
 40
0.18
 40
0.18
309
CELLMARGIN_END
 94
        6
 95
        1
302
GRIDFORMAT
  1
GRIDFORMAT_BEGIN
 90
        0
 91
        1
 62
     0
 92
       -2
340
0
 93
        0
 40
1.125
309
GRIDFORMAT_END
 95
        2
302
GRIDFORMAT
  1
GRIDFORMAT_BEGIN
 90
        0
 91
        1
 62
     0
 92
       -2
340
0
 93
        0
 40
1.125
309
GRIDFORMAT_END
 95
        4
302
GRIDFORMAT
  1
GRIDFORMAT_BEGIN
 90
        0
 91
        1
 62
     0
 92
       -2
340
0
 93
        0
 40
1.125
309
GRIDFORMAT_END
 95
        8
302
GRIDFORMAT
  1
GRIDFORMAT_BEGIN
 90
        0
 91
        1
 62
     0
 92
       -2
340
0
 93
        0
 40
1.125
309
GRIDFORMAT_END
 95
       16
302
GRIDFORMAT
  1
GRIDFORMAT_BEGIN
 90
        0
 91
        1
 62
     0
 92
       -2
340
0
 93
        0
 40
1.125
309
GRIDFORMAT_END
 95
       32
302
GRIDFORMAT
  1
GRIDFORMAT_BEGIN
 90
        0
 91
        1
 62
     0
 92
       -2
340
0
 93
        0
 40
1.125
309
GRIDFORMAT_END
309
TABLEFORMAT_END
  1
CELLSTYLE_BEGIN
 90
        1
 91
        1
300
_TITLE
309
CELLSTYLE_END
300
CELLSTYLE
  1
TABLEFORMAT_BEGIN
 90
        5
170
     1
 91
        0
 92
        0
 62
   257
 93
        1
300
CONTENTFORMAT
  1
CONTENTFORMAT_BEGIN
 90
        0
 91
        0
 92
      512
 93
        0
300

 40
0.0
140
1.0
 94
        5
 62
     0
340
11
144
4.5
309
CONTENTFORMAT_END
171
     1
301
MARGIN
  1
CELLMARGIN_BEGIN
 40
1.5
 40
1.5
 40
1.5
 40
1.5
 40
0.18
 40
0.18
309
CELLMARGIN_END
 94
        6
 95
        1
302
GRIDFORMAT
  1
GRIDFORMAT_BEGIN
 90
        0
 91
        1
 62
     0
 92
       -2
340
0
 93
        0
 40
1.125
309
GRIDFORMAT_END
 95
        2
302
GRIDFORMAT
  1
GRIDFORMAT_BEGIN
 90
        0
 91
        1
 62
     0
 92
       -2
340
0
 93
        0
 40
1.125
309
GRIDFORMAT_END
 95
        4
302
GRIDFORMAT
  1
GRIDFORMAT_BEGIN
 90
        0
 91
        1
 62
     0
 92
       -2
340
0
 93
        0
 40
1.125
309
GRIDFORMAT_END
 95
        8
302
GRIDFORMAT
  1
GRIDFORMAT_BEGIN
 90
        0
 91
        1
 62
     0
 92
       -2
340
0
 93
        0
 40
1.125
309
GRIDFORMAT_END
 95
       16
302
GRIDFORMAT
  1
GRIDFORMAT_BEGIN
 90
        0
 91
        1
 62
     0
 92
       -2
340
0
 93
        0
 40
1.125
309
GRIDFORMAT_END
 95
       32
302
GRIDFORMAT
  1
GRIDFORMAT_BEGIN
 90
        0
 91
        1
 62
     0
 92
       -2
340
0
 93
        0
 40
1.125
309
GRIDFORMAT_END
309
TABLEFORMAT_END
  1
CELLSTYLE_BEGIN
 90
        2
 91
        1
300
_HEADER
309
CELLSTYLE_END
300
CELLSTYLE
  1
TABLEFORMAT_BEGIN
 90
        5
170
     1
 91
        0
 92
        0
 62
   257
 93
        1
300
CONTENTFORMAT
  1
CONTENTFORMAT_BEGIN
 90
        0
 91
        0
 92
      512
 93
        0
300

 40
0.0
140
1.0
 94
        2
 62
     0
340
11
144
4.5
309
CONTENTFORMAT_END
171
     1
301
MARGIN
  1
CELLMARGIN_BEGIN
 40
1.5
 40
1.5
 40
1.5
 40
1.5
 40
0.18
 40
0.18
309
CELLMARGIN_END
 94
        6
 95
        1
302
GRIDFORMAT
  1
GRIDFORMAT_BEGIN
 90
        0
 91
        1
 62
     0
 92
       -2
340
0
 93
        0
 40
1.125
309
GRIDFORMAT_END
 95
        2
302
GRIDFORMAT
  1
GRIDFORMAT_BEGIN
 90
        0
 91
        1
 62
     0
 92
       -2
340
0
 93
        0
 40
1.125
309
GRIDFORMAT_END
 95
        4
302
GRIDFORMAT
  1
GRIDFORMAT_BEGIN
 90
        0
 91
        1
 62
     0
 92
       -2
340
0
 93
        0
 40
1.125
309
GRIDFORMAT_END
 95
        8
302
GRIDFORMAT
  1
GRIDFORMAT_BEGIN
 90
        0
 91
        1
 62
     0
 92
       -2
340
0
 93
        0
 40
1.125
309
GRIDFORMAT_END
 95
       16
302
GRIDFORMAT
  1
GRIDFORMAT_BEGIN
 90
        0
 91
        1
 62
     0
 92
       -2
340
0
 93
        0
 40
1.125
309
GRIDFORMAT_END
 95
       32
302
GRIDFORMAT
  1
GRIDFORMAT_BEGIN
 90
        0
 91
        1
 62
     0
 92
       -2
340
0
 93
        0
 40
1.125
309
GRIDFORMAT_END
309
TABLEFORMAT_END
  1
CELLSTYLE_BEGIN
 90
        3
 91
        2
300
_DATA
309
CELLSTYLE_END
  0
XRECORD
  5
E246
102
{ACAD_REACTORS
330
C8F9
102
}
330
C8F9
100
AcDbXrecord
280
     1
102
ACAD_ROUNDTRIP_PRE2007_TABLESTYLE
 90
      512
 91
        0
  1

 92
      512
 93
        0
  2

 94
      512
 95
        0
  3

  0
ENDSEC
  0
EOF
