  0
SECTION
  2
HEADER
  9
$ACADVER
  1
AC1032
  9
$ACADMAINTVER
 90
        4
  9
$DWGCODEPAGE
  3
ANSI_936
  9
$LASTSAVEDBY
  1
14663
  9
$REQUIREDVERSIONS
160
                 0
  9
$INSBASE
 10
0.0
 20
0.0
 30
0.0
  9
$EXTMIN
 10
705.5483254505566
 20
158.1105656886554
 30
0.0
  9
$EXTMAX
 10
854.0477004184088
 20
263.1105656886575
 30
0.0
  9
$LIMMIN
 10
0.0
 20
0.0
  9
$LIMMAX
 10
12.0
 20
9.0
  9
$ORTHOMODE
 70
     0
  9
$REGENMODE
 70
     1
  9
$FILLMODE
 70
     1
  9
$QTEXTMODE
 70
     0
  9
$MIRRTEXT
 70
     1
  9
$LTSCALE
 40
1.0
  9
$ATTMODE
 70
     1
  9
$TEXTSIZE
 40
0.2
  9
$TRACEWID
 40
0.05
  9
$TEXTSTYLE
  7
Standard
  9
$CLAYER
  8
DIM
  9
$CELTYPE
  6
ByLayer
  9
$CECOLOR
 62
   256
  9
$CELTSCALE
 40
1.0
  9
$DISPSILH
 70
     0
  9
$DIMSCALE
 40
1.0
  9
$DIMASZ
 40
1.5
  9
$DIMEXO
 40
0.2
  9
$DIMDLI
 40
0.2
  9
$DIMRND
 40
0.0
  9
$DIMDLE
 40
0.0
  9
$DIMEXE
 40
0.5
  9
$DIMTP
 40
0.0
  9
$DIMTM
 40
0.0
  9
$DIMTXT
 40
2.0
  9
$DIMCEN
 40
0.0
  9
$DIMTSZ
 40
0.0
  9
$DIMTOL
 70
     0
  9
$DIMLIM
 70
     0
  9
$DIMTIH
 70
     0
  9
$DIMTOH
 70
     0
  9
$DIMSE1
 70
     0
  9
$DIMSE2
 70
     0
  9
$DIMTAD
 70
     1
  9
$DIMZIN
 70
     8
  9
$DIMBLK
  1

  9
$DIMASO
 70
     1
  9
$DIMSHO
 70
     1
  9
$DIMPOST
  1

  9
$DIMAPOST
  1

  9
$DIMALT
 70
     0
  9
$DIMALTD
 70
     2
  9
$DIMALTF
 40
25.4
  9
$DIMLFAC
 40
1.0
  9
$DIMTOFL
 70
     0
  9
$DIMTVP
 40
0.0
  9
$DIMTIX
 70
     0
  9
$DIMSOXD
 70
     0
  9
$DIMSAH
 70
     0
  9
$DIMBLK1
  1

  9
$DIMBLK2
  1

  9
$DIMSTYLE
  2
01
  9
$DIMCLRD
 70
     1
  9
$DIMCLRE
 70
     6
  9
$DIMCLRT
 70
     4
  9
$DIMTFAC
 40
1.0
  9
$DIMGAP
 40
0.5
  9
$DIMJUST
 70
     0
  9
$DIMSD1
 70
     0
  9
$DIMSD2
 70
     0
  9
$DIMTOLJ
 70
     1
  9
$DIMTZIN
 70
     0
  9
$DIMALTZ
 70
     0
  9
$DIMALTTZ
 70
     0
  9
$DIMUPT
 70
     0
  9
$DIMDEC
 70
     1
  9
$DIMTDEC
 70
     1
  9
$DIMALTU
 70
     2
  9
$DIMALTTD
 70
     2
  9
$DIMTXSTY
  7
Romans字体
  9
$DIMAUNIT
 70
     0
  9
$DIMADEC
 70
     2
  9
$DIMALTRND
 40
0.0
  9
$DIMAZIN
 70
     2
  9
$DIMDSEP
 70
    46
  9
$DIMATFIT
 70
     3
  9
$DIMFRAC
 70
     0
  9
$DIMLDRBLK
  1

  9
$DIMLUNIT
 70
     2
  9
$DIMLWD
 70
    -2
  9
$DIMLWE
 70
    -2
  9
$DIMTMOVE
 70
     0
  9
$DIMFXL
 40
1.0
  9
$DIMFXLON
 70
     0
  9
$DIMJOGANG
 40
0.7853981633974483
  9
$DIMTFILL
 70
     0
  9
$DIMTFILLCLR
 70
     0
  9
$DIMARCSYM
 70
     0
  9
$DIMLTYPE
  6

  9
$DIMLTEX1
  6

  9
$DIMLTEX2
  6

  9
$DIMTXTDIRECTION
 70
     0
  9
$LUNITS
 70
     2
  9
$LUPREC
 70
     4
  9
$SKETCHINC
 40
0.1
  9
$FILLETRAD
 40
0.5
  9
$AUNITS
 70
     0
  9
$AUPREC
 70
     0
  9
$MENU
  1
.
  9
$ELEVATION
 40
0.0
  9
$PELEVATION
 40
0.0
  9
$THICKNESS
 40
0.0
  9
$LIMCHECK
 70
     0
  9
$CHAMFERA
 40
0.5
  9
$CHAMFERB
 40
0.5
  9
$CHAMFERC
 40
1.0
  9
$CHAMFERD
 40
0.0
  9
$SKPOLY
 70
     0
  9
$TDCREATE
 40
2456524.383632986
  9
$TDUCREATE
 40
2456524.050299653
  9
$TDUPDATE
 40
2460339.481751875
  9
$TDUUPDATE
 40
2460339.148418542
  9
$TDINDWG
 40
1.162756944
  9
$TDUSRTIMER
 40
1.162737581
  9
$USRTIMER
 70
     1
  9
$ANGBASE
 50
0.0
  9
$ANGDIR
 70
     0
  9
$PDMODE
 70
     0
  9
$PDSIZE
 40
0.0
  9
$PLINEWID
 40
0.0
  9
$SPLFRAME
 70
     0
  9
$SPLINETYPE
 70
     6
  9
$SPLINESEGS
 70
     8
  9
$HANDSEED
  5
B9D
  9
$SURFTAB1
 70
     6
  9
$SURFTAB2
 70
     6
  9
$SURFTYPE
 70
     6
  9
$SURFU
 70
     6
  9
$SURFV
 70
     6
  9
$UCSBASE
  2

  9
$UCSNAME
  2

  9
$UCSORG
 10
0.0
 20
0.0
 30
0.0
  9
$UCSXDIR
 10
1.0
 20
0.0
 30
0.0
  9
$UCSYDIR
 10
0.0
 20
1.0
 30
0.0
  9
$UCSORTHOREF
  2

  9
$UCSORTHOVIEW
 70
     0
  9
$UCSORGTOP
 10
0.0
 20
0.0
 30
0.0
  9
$UCSORGBOTTOM
 10
0.0
 20
0.0
 30
0.0
  9
$UCSORGLEFT
 10
0.0
 20
0.0
 30
0.0
  9
$UCSORGRIGHT
 10
0.0
 20
0.0
 30
0.0
  9
$UCSORGFRONT
 10
0.0
 20
0.0
 30
0.0
  9
$UCSORGBACK
 10
0.0
 20
0.0
 30
0.0
  9
$PUCSBASE
  2

  9
$PUCSNAME
  2

  9
$PUCSORG
 10
0.0
 20
0.0
 30
0.0
  9
$PUCSXDIR
 10
1.0
 20
0.0
 30
0.0
  9
$PUCSYDIR
 10
0.0
 20
1.0
 30
0.0
  9
$PUCSORTHOREF
  2

  9
$PUCSORTHOVIEW
 70
     0
  9
$PUCSORGTOP
 10
0.0
 20
0.0
 30
0.0
  9
$PUCSORGBOTTOM
 10
0.0
 20
0.0
 30
0.0
  9
$PUCSORGLEFT
 10
0.0
 20
0.0
 30
0.0
  9
$PUCSORGRIGHT
 10
0.0
 20
0.0
 30
0.0
  9
$PUCSORGFRONT
 10
0.0
 20
0.0
 30
0.0
  9
$PUCSORGBACK
 10
0.0
 20
0.0
 30
0.0
  9
$USERI1
 70
     0
  9
$USERI2
 70
     0
  9
$USERI3
 70
     0
  9
$USERI4
 70
     0
  9
$USERI5
 70
     0
  9
$USERR1
 40
0.0
  9
$USERR2
 40
0.0
  9
$USERR3
 40
0.0
  9
$USERR4
 40
0.0
  9
$USERR5
 40
0.0
  9
$WORLDVIEW
 70
     1
  9
$SHADEDGE
 70
     3
  9
$SHADEDIF
 70
    70
  9
$TILEMODE
 70
     1
  9
$MAXACTVP
 70
    64
  9
$PINSBASE
 10
0.0
 20
0.0
 30
0.0
  9
$PLIMCHECK
 70
     0
  9
$PEXTMIN
 10
1.000000000000000E+20
 20
1.000000000000000E+20
 30
1.000000000000000E+20
  9
$PEXTMAX
 10
-1.000000000000000E+20
 20
-1.000000000000000E+20
 30
-1.000000000000000E+20
  9
$PLIMMIN
 10
0.0
 20
0.0
  9
$PLIMMAX
 10
12.0
 20
9.0
  9
$UNITMODE
 70
     0
  9
$VISRETAIN
 70
     1
  9
$PLINEGEN
 70
     0
  9
$PSLTSCALE
 70
     1
  9
$TREEDEPTH
 70
  3020
  9
$CMLSTYLE
  2
Standard
  9
$CMLJUST
 70
     0
  9
$CMLSCALE
 40
1.0
  9
$PROXYGRAPHICS
 70
     1
  9
$MEASUREMENT
 70
     0
  9
$CELWEIGHT
370
    -1
  9
$ENDCAPS
280
     0
  9
$JOINSTYLE
280
     0
  9
$LWDISPLAY
290
     0
  9
$INSUNITS
 70
     4
  9
$HYPERLINKBASE
  1

  9
$STYLESHEET
  1

  9
$XEDIT
290
     1
  9
$CEPSNTYPE
380
     0
  9
$PSTYLEMODE
290
     1
  9
$FINGERPRINTGUID
  2
{F835407A-6733-4117-A3AC-E55D8D836D3C}
  9
$VERSIONGUID
  2
{0C46BAE4-E048-4306-B94B-E10C0FE7A54C}
  9
$EXTNAMES
290
     1
  9
$PSVPSCALE
 40
0.0
  9
$OLESTARTUP
290
     0
  9
$SORTENTS
280
   127
  9
$INDEXCTL
280
     0
  9
$HIDETEXT
280
     1
  9
$XCLIPFRAME
280
     0
  9
$HALOGAP
280
     0
  9
$OBSCOLOR
 70
   257
  9
$OBSLTYPE
280
     0
  9
$INTERSECTIONDISPLAY
280
     0
  9
$INTERSECTIONCOLOR
 70
   257
  9
$DIMASSOC
280
     1
  9
$PROJECTNAME
  1

  9
$CAMERADISPLAY
290
     0
  9
$LENSLENGTH
 40
50.0
  9
$CAMERAHEIGHT
 40
0.0
  9
$STEPSPERSEC
 40
2.0
  9
$STEPSIZE
 40
6.0
  9
$3DDWFPREC
 40
2.0
  9
$PSOLWIDTH
 40
0.25
  9
$PSOLHEIGHT
 40
4.0
  9
$LOFTANG1
 40
1.570795999999999
  9
$LOFTANG2
 40
1.570795999999999
  9
$LOFTMAG1
 40
0.0
  9
$LOFTMAG2
 40
0.0
  9
$LOFTPARAM
 70
     7
  9
$LOFTNORMALS
280
     1
  9
$LATITUDE
 40
37.795
  9
$LONGITUDE
 40
-122.394
  9
$NORTHDIRECTION
 40
0.0
  9
$TIMEZONE
 70
 -8000
  9
$LIGHTGLYPHDISPLAY
280
     1
  9
$TILEMODELIGHTSYNCH
280
     1
  9
$CMATERIAL
347
1E4
  9
$SOLIDHIST
280
     0
  9
$SHOWHIST
280
     1
  9
$DWFFRAME
280
     2
  9
$DGNFRAME
280
     0
  9
$REALWORLDSCALE
290
     1
  9
$INTERFERECOLOR
 62
     1
  9
$INTERFEREOBJVS
345
1FA
  9
$INTERFEREVPVS
346
A5D
  9
$CSHADOW
280
     0
  9
$SHADOWPLANELOCATION
 40
0.0
  0
ENDSEC
  0
SECTION
  2
CLASSES
  0
CLASS
  1
ACDBDICTIONARYWDFLT
  2
AcDbDictionaryWithDefault
  3
ObjectDBX Classes
 90
        0
 91
        1
280
     0
281
     0
  0
CLASS
  1
VISUALSTYLE
  2
AcDbVisualStyle
  3
ObjectDBX Classes
 90
     4095
 91
       26
280
     0
281
     0
  0
CLASS
  1
MATERIAL
  2
AcDbMaterial
  3
ObjectDBX Classes
 90
     1153
 91
        3
280
     0
281
     0
  0
CLASS
  1
TABLESTYLE
  2
AcDbTableStyle
  3
ObjectDBX Classes
 90
     4095
 91
        1
280
     0
281
     0
  0
CLASS
  1
SCALE
  2
AcDbScale
  3
ObjectDBX Classes
 90
     1153
 91
       33
280
     0
281
     0
  0
CLASS
  1
MLEADERSTYLE
  2
AcDbMLeaderStyle
  3
ACDB_MLEADERSTYLE_CLASS
 90
     4095
 91
        1
280
     0
281
     0
  0
CLASS
  1
CELLSTYLEMAP
  2
AcDbCellStyleMap
  3
ObjectDBX Classes
 90
     1152
 91
        3
280
     0
281
     0
  0
CLASS
  1
DICTIONARYVAR
  2
AcDbDictionaryVar
  3
ObjectDBX Classes
 90
        0
 91
       13
280
     0
281
     0
  0
CLASS
  1
SORTENTSTABLE
  2
AcDbSortentsTable
  3
ObjectDBX Classes
 90
        0
 91
        1
280
     0
281
     0
  0
CLASS
  1
ACAD_EVALUATION_GRAPH
  2
AcDbEvalGraph
  3
ObjectDBX Classes
 90
     1153
 91
        0
280
     0
281
     0
  0
CLASS
  1
ACAECUSTOBJ
  2
AcAeEditorObj
  3
AcAeEditorObj
 90
     1024
 91
        0
280
     1
281
     0
  0
CLASS
  1
ACDB_DYNAMICBLOCKPURGEPREVENTER_VERSION
  2
AcDbDynamicBlockPurgePreventer
  3
ObjectDBX Classes
 90
     1153
 91
        0
280
     0
281
     0
  0
CLASS
  1
MENTALRAYRENDERSETTINGS
  2
AcDbMentalRayRenderSettings
  3
SCENEOE
 90
     1024
 91
        0
280
     0
281
     0
  0
CLASS
  1
ACDB_BLOCKREPRESENTATION_DATA
  2
AcDbBlockRepresentationData
  3
ObjectDBX Classes
 90
     1153
 91
        0
280
     0
281
     0
  0
CLASS
  1
DIMASSOC
  2
AcDbDimAssoc
  3
"AcDbDimAssoc|Product Desc:     AcDim ARX App For Dimension|Company:          Autodesk, Inc.|WEB Address:      www.autodesk.com"
 90
        0
 91
        4
280
     0
281
     0
  0
CLASS
  1
ACDBSECTIONVIEWSTYLE
  2
AcDbSectionViewStyle
  3
ObjectDBX Classes
 90
     1025
 91
        1
280
     0
281
     0
  0
CLASS
  1
ACDBDETAILVIEWSTYLE
  2
AcDbDetailViewStyle
  3
ObjectDBX Classes
 90
     1025
 91
        1
280
     0
281
     0
  0
CLASS
  1
RASTERVARIABLES
  2
AcDbRasterVariables
  3
ISM
 90
        0
 91
        1
280
     0
281
     0
  0
ENDSEC
  0
SECTION
  2
TABLES
  0
TABLE
  2
VPORT
  5
1D8
102
{ACAD_XDICTIONARY
360
1DC
102
}
330
0
100
AcDbSymbolTable
 70
     1
  0
VPORT
  5
1D9
330
1D8
100
AcDbSymbolTableRecord
100
AcDbViewportTableRecord
  2
*Active
 70
     0
 10
0.0
 20
0.0
 11
1.0
 21
1.0
 12
674.8325160625739
 22
62.1083349200586
 13
0.0
 23
0.0
 14
0.5
 24
0.5
 15
0.5
 25
0.5
 16
0.0
 26
0.0
 36
1.0
 17
104.9654968719086
 27
148.5022307685978
 37
0.0
 40
105.7191780821938
 41
2.123287671232876
 42
50.0
 43
0.0
 44
0.0
 50
0.0
 51
0.0
 71
     0
 72
   100
 73
     1
 74
     3
 75
     0
 76
     0
 77
     0
 78
     0
281
     0
 65
     1
110
0.0
120
0.0
130
0.0
111
1.0
121
0.0
131
0.0
112
0.0
122
1.0
132
0.0
 79
     0
146
0.0
348
1DA
 60
     3
 61
     5
292
     1
282
     1
141
0.0
142
0.0
 63
   250
421
  3355443
1001
ACAD_NAV_VCDISPLAY
1070
     3
  0
ENDTAB
  0
TABLE
  2
LTYPE
  5
1D3
330
0
100
AcDbSymbolTable
 70
     2
  0
LTYPE
  5
1D4
330
1D3
100
AcDbSymbolTableRecord
100
AcDbLinetypeTableRecord
  2
ByBlock
 70
     0
  3

 72
    65
 73
     0
 40
0.0
  0
LTYPE
  5
1D5
330
1D3
100
AcDbSymbolTableRecord
100
AcDbLinetypeTableRecord
  2
ByLayer
 70
     0
  3

 72
    65
 73
     0
 40
0.0
  0
LTYPE
  5
15
330
1D3
100
AcDbSymbolTableRecord
100
AcDbLinetypeTableRecord
  2
Continuous
 70
     0
  3
Solid line
 72
    65
 73
     0
 40
0.0
  0
LTYPE
  5
100
330
1D3
100
AcDbSymbolTableRecord
100
AcDbLinetypeTableRecord
  2
CENTER
 70
     0
  3
Center ____ _ ____ _ ____ _ ____ _ ____ _ ____
 72
    65
 73
     4
 40
2.0
 49
1.25
 74
     0
 49
-0.25
 74
     0
 49
0.25
 74
     0
 49
-0.25
 74
     0
  0
ENDTAB
  0
TABLE
  2
LAYER
  5
1CC
102
{ACAD_XDICTIONARY
360
1CD
102
}
330
0
100
AcDbSymbolTable
 70
     7
  0
LAYER
  5
6
102
{ACAD_XDICTIONARY
360
7
102
}
330
1CC
100
AcDbSymbolTableRecord
100
AcDbLayerTableRecord
  2
0
 70
     0
 62
     7
  6
Continuous
370
    30
390
9
347
C
348
0
  0
LAYER
  5
17
102
{ACAD_XDICTIONARY
360
18
102
}
330
1CC
100
AcDbSymbolTableRecord
100
AcDbLayerTableRecord
  2
图层 1
 70
     0
 62
     7
  6
Continuous
370
    -3
390
9
347
C
348
0
  0
LAYER
  5
25
102
{ACAD_XDICTIONARY
360
26
102
}
330
1CC
100
AcDbSymbolTableRecord
100
AcDbLayerTableRecord
  2
图框
 70
     0
 62
     7
  6
Continuous
370
    20
390
9
347
C
348
0
  0
LAYER
  5
12A
330
1CC
100
AcDbSymbolTableRecord
100
AcDbLayerTableRecord
  2
Defpoints
 70
     0
 62
     7
  6
Continuous
290
     0
370
    -3
390
9
347
C
348
0
  0
LAYER
  5
E7
330
1CC
100
AcDbSymbolTableRecord
100
AcDbLayerTableRecord
  2
打标文字
 70
     0
 62
     3
  6
Continuous
370
    20
390
9
347
C
348
0
  0
LAYER
  5
FF
330
1CC
100
AcDbSymbolTableRecord
100
AcDbLayerTableRecord
  2
CEN
 70
     0
 62
     1
  6
CENTER
370
    15
390
9
347
C
348
0
1001
AcAecLayerStandard
1000

1000

  0
LAYER
  5
2FD
330
1CC
100
AcDbSymbolTableRecord
100
AcDbLayerTableRecord
  2
DIM
 70
     0
 62
     3
  6
Continuous
370
    15
390
9
347
C
348
0
1001
AcAecLayerStandard
1000

1000

  0
ENDTAB
  0
TABLE
  2
STYLE
  5
1D1
330
0
100
AcDbSymbolTable
 70
     4
  0
STYLE
  5
48
330
1D1
100
AcDbSymbolTableRecord
100
AcDbTextStyleTableRecord
  2
Standard
 70
     0
 40
0.0
 41
0.75
 50
0.0
 71
     0
 42
0.2
  3

  4

1001
ACAD
1000
仿宋_GB2312
1071
    34353
  0
STYLE
  5
28
330
1D1
100
AcDbSymbolTableRecord
100
AcDbTextStyleTableRecord
  2
Romans字体
 70
     0
 40
0.0
 41
0.75
 50
0.0
 71
     0
 42
0.2
  3
romans.shx
  4

  0
STYLE
  5
4A
330
1D1
100
AcDbSymbolTableRecord
100
AcDbTextStyleTableRecord
  2
工程字
 70
     0
 40
0.0
 41
1.0
 50
0.0
 71
     0
 42
3.5
  3
gbenor.shx
  4
gbcbig.shx
  0
STYLE
  5
4C
330
1D1
100
AcDbSymbolTableRecord
100
AcDbTextStyleTableRecord
  2
Chinese
 70
     0
 40
0.0
 41
1.0
 50
0.0
 71
     0
 42
2.5
  3
PMingLiU.ttf
  4

1001
ACAD
1000
PMingLiU
1071
    34834
  0
ENDTAB
  0
TABLE
  2
VIEW
  5
1D6
330
0
100
AcDbSymbolTable
 70
     0
  0
ENDTAB
  0
TABLE
  2
UCS
  5
1D7
330
0
100
AcDbSymbolTable
 70
     0
  0
ENDTAB
  0
TABLE
  2
APPID
  5
1DD
330
0
100
AcDbSymbolTable
 70
    17
  0
APPID
  5
29
330
1DD
100
AcDbSymbolTableRecord
100
AcDbRegAppTableRecord
  2
ACAD
 70
     0
  0
APPID
  5
37
330
1DD
100
AcDbSymbolTableRecord
100
AcDbRegAppTableRecord
  2
AcDbBlockRepETag
 70
     0
  0
APPID
  5
1C3
330
1DD
100
AcDbSymbolTableRecord
100
AcDbRegAppTableRecord
  2
ACAD_PSEXT
 70
     0
  0
APPID
  5
101
330
1DD
100
AcDbSymbolTableRecord
100
AcDbRegAppTableRecord
  2
AcAecLayerStandard
 70
     0
  0
APPID
  5
12F
330
1DD
100
AcDbSymbolTableRecord
100
AcDbRegAppTableRecord
  2
ACAD_DSTYLE_DIMJAG
 70
     0
  0
APPID
  5
130
330
1DD
100
AcDbSymbolTableRecord
100
AcDbRegAppTableRecord
  2
ACAD_DSTYLE_DIMTALN
 70
     0
  0
APPID
  5
257
330
1DD
100
AcDbSymbolTableRecord
100
AcDbRegAppTableRecord
  2
ACAD_MLEADERVER
 70
     0
  0
APPID
  5
2FE
330
1DD
100
AcDbSymbolTableRecord
100
AcDbRegAppTableRecord
  2
AcDbDynamicBlockGUID
 70
     0
  0
APPID
  5
4CC
330
1DD
100
AcDbSymbolTableRecord
100
AcDbRegAppTableRecord
  2
ACAD_DSTYLE_DIMBREAK
 70
     0
  0
APPID
  5
4CD
330
1DD
100
AcDbSymbolTableRecord
100
AcDbRegAppTableRecord
  2
ACAD_DSTYLE_DIMRADIAL_EXTENSION
 70
     0
  0
APPID
  5
A76
330
1DD
100
AcDbSymbolTableRecord
100
AcDbRegAppTableRecord
  2
AcadAnnoPO
 70
     0
  0
APPID
  5
A78
330
1DD
100
AcDbSymbolTableRecord
100
AcDbRegAppTableRecord
  2
ACAD_EXEMPT_FROM_CAD_STANDARDS
 70
     0
  0
APPID
  5
B20
330
1DD
100
AcDbSymbolTableRecord
100
AcDbRegAppTableRecord
  2
ACAUTHENVIRON
 70
     0
  0
APPID
  5
B23
330
1DD
100
AcDbSymbolTableRecord
100
AcDbRegAppTableRecord
  2
AcDbDynamicBlockTrueName
 70
     0
  0
APPID
  5
B29
330
1DD
100
AcDbSymbolTableRecord
100
AcDbRegAppTableRecord
  2
ACAD_NAV_VCDISPLAY
 70
     0
  0
APPID
  5
B4A
330
1DD
100
AcDbSymbolTableRecord
100
AcDbRegAppTableRecord
  2
AcadAnnoMonitorAlertIconDisabled
 70
     0
  0
APPID
  5
B97
330
1DD
100
AcDbSymbolTableRecord
100
AcDbRegAppTableRecord
  2
PLOTTRANSPARENCY
 70
     0
  0
ENDTAB
  0
TABLE
  2
DIMSTYLE
  5
1DE
330
0
100
AcDbSymbolTable
 70
     3
100
AcDbDimStyleTable
 71
     2
340
12E
340
1DF
  0
DIMSTYLE
105
1DF
330
1DE
100
AcDbSymbolTableRecord
100
AcDbDimStyleTableRecord
  2
Standard
 70
     0
340
48
  0
DIMSTYLE
105
12E
102
{ACAD_REACTORS
330
641
330
647
330
64D
330
650
330
B3D
102
}
330
1DE
100
AcDbSymbolTableRecord
100
AcDbDimStyleTableRecord
  2
01
 70
     0
 41
1.5
 42
0.2
 43
0.2
 44
0.5
 73
     0
 74
     0
 77
     1
 78
     8
 79
     2
140
2.0
141
0.0
147
0.5
176
     1
177
     6
271
     1
178
     4
179
     2
271
     1
272
     1
340
28
1001
ACAD_DSTYLE_DIMJAG
1070
   388
1040
1.5
1001
ACAD_DSTYLE_DIMTALN
1070
   392
1070
     0
  0
DIMSTYLE
105
7BD
330
1DE
100
AcDbSymbolTableRecord
100
AcDbDimStyleTableRecord
  2
01$3
 70
     0
 41
1.5
 42
0.2
 43
0.2
 44
0.5
 77
     1
 78
     8
 79
     2
140
2.0
141
0.0
147
0.5
176
     1
177
     6
271
     1
178
     4
179
     2
271
     1
272
     1
340
28
1001
ACAD_DSTYLE_DIMBREAK
1070
   391
1040
0.125
1001
ACAD_DSTYLE_DIMJAG
1070
   388
1040
1.5
1001
ACAD_DSTYLE_DIMTALN
1070
   392
1070
     0
  0
ENDTAB
  0
TABLE
  2
BLOCK_RECORD
  5
1
330
0
100
AcDbSymbolTable
 70
     8
  0
BLOCK_RECORD
  5
2
102
{ACAD_XDICTIONARY
360
3
102
}
330
1
100
AcDbSymbolTableRecord
100
AcDbBlockTableRecord
  2
*MODEL_SPACE
340
1C1
 70
     0
280
     1
281
     0
  0
BLOCK_RECORD
  5
1C4
330
1
100
AcDbSymbolTableRecord
100
AcDbBlockTableRecord
  2
*PAPER_SPACE
340
1C7
 70
     0
280
     1
281
     0
  0
BLOCK_RECORD
  5
1C8
330
1
100
AcDbSymbolTableRecord
100
AcDbBlockTableRecord
  2
*PAPER_SPACE0
340
1CB
 70
     0
280
     1
281
     0
  0
BLOCK_RECORD
  5
264
330
1
100
AcDbSymbolTableRecord
100
AcDbBlockTableRecord
  2
A4图框-NEW
340
0
310
2800000020000000200000000100080000000000000400000000000000000000000000000000000000000000000080000080000000808000800000008000800080800000C0C0C000C0DCC000F0CAA6000020400000206000002080000020A0000020C0000020E00000400000004020000040400000406000004080000040A0
310
000040C0000040E00000600000006020000060400000606000006080000060A0000060C0000060E00000800000008020000080400000806000008080000080A0000080C0000080E00000A0000000A0200000A0400000A0600000A0800000A0A00000A0C00000A0E00000C0000000C0200000C0400000C0600000C0800000C0
310
A00000C0C00000C0E00000E0000000E0200000E0400000E0600000E0800000E0A00000E0C00000E0E00040000000400020004000400040006000400080004000A0004000C0004000E00040200000402020004020400040206000402080004020A0004020C0004020E000404000004040200040404000404060004040800040
310
40A0004040C0004040E00040600000406020004060400040606000406080004060A0004060C0004060E00040800000408020004080400040806000408080004080A0004080C0004080E00040A0000040A0200040A0400040A0600040A0800040A0A00040A0C00040A0E00040C0000040C0200040C0400040C0600040C08000
310
40C0A00040C0C00040C0E00040E0000040E0200040E0400040E0600040E0800040E0A00040E0C00040E0E00080000000800020008000400080006000800080008000A0008000C0008000E00080200000802020008020400080206000802080008020A0008020C0008020E00080400000804020008040400080406000804080
310
008040A0008040C0008040E00080600000806020008060400080606000806080008060A0008060C0008060E00080800000808020008080400080806000808080008080A0008080C0008080E00080A0000080A0200080A0400080A0600080A0800080A0A00080A0C00080A0E00080C0000080C0200080C0400080C0600080C0
310
800080C0A00080C0C00080C0E00080E0000080E0200080E0400080E0600080E0800080E0A00080E0C00080E0E000C0000000C0002000C0004000C0006000C0008000C000A000C000C000C000E000C0200000C0202000C0204000C0206000C0208000C020A000C020C000C020E000C0400000C0402000C0404000C0406000C0
310
408000C040A000C040C000C040E000C0600000C0602000C0604000C0606000C0608000C060A000C060C000C060E000C0800000C0802000C0804000C0806000C0808000C080A000C080C000C080E000C0A00000C0A02000C0A04000C0A06000C0A08000C0A0A000C0A0C000C0A0E000C0C00000C0C02000C0C04000C0C06000
310
C0C08000C0C0A000F0FBFF00A4A0A000808080000000FF0000FF000000FFFF00FF000000FF00FF00FFFF0000FFFFFF0000000000000000000000000000000000000000000000000000000000000000000000000000000000000000000000000000000000000000000000000000000000000000000000000000000000000000
310
000000000000000000000000000000000000000000000000000000000000000000000000000000000000000000000000000000000000000000000000000000000000000000000000000000000000000000000000000000000000000000000000000000000000000000000000000000000000F9F9F9F9F9F9F9F9F9F9F9F9F9
310
F9F9F9F9F9F9F9F9F9F9F9F9F9F9FF00000000F9FF000000000000000000FFFFFFFFFFFFFFFFFFFFFFFFF9FAFAFAFF00000000F9FF000000000000000000FFFFFFFFFFFFFFFFFFFFFFFFFFFFFFFFFF00000000F9FD000000000000000000FFFFFFFFFFFFFFFFFFFFFFFFFFFFFFFFFF00000000F9FF000000000000000000FF
310
FFFFFFFFFFFFFFFFFFFFFFFFFFFFFFFF00000000F9FD000000000000000000FFFFFFFFFFFFFFFFFFFFFFFFFFFFFFFFFF00000000F9FF00000000000000000000000000000000000000000000000000FF00000000F9FD00000000000000000000000000000000000000000000000000FF00000000F9FF000000000000000000
310
00000000000000000000000000000000FF00000000F9FD00000000000000000000000000000000000000000000000000FF00000000F9FF00000000000000000000000000000000000000000000000000FF00000000F9FD00000000000000000000000000000000000000000000000000FF00000000F9FD0000000000000000
310
0000000000000000000000000000000000FF00000000F9FF00000000000000000000000000000000000000000000000000FF00000000F9FD00000000000000000000000000000000000000000000000000FF00000000F9FF00000000000000000000000000000000000000000000000000FF00000000F9FD00000000000000
310
000000000000000000000000000000000000FF00000000F9FF00000000000000000000000000000000000000000000000000FF00000000F9FFFFFFFFFFFFFFFFFFFFFFFFFFFFFFFFFFFFFFFFFFFFFFFFFFFFFF00000000F9FFFFFFF9F9F9F9F9F9F9F9F9F9F9F9F9F9F9F9F9F9F9F9F9F9F9F9000000000000000000000000
310
00000000000000000000000000000000000000000000000000000000000000000000000000000000000000000000000000000000000000000000000000000000000000000000000000000000000000000000000000000000000000000000000000000000000000000000000000000000000000000000000000000000000000
310
0000000000000000000000000000000000000000000000000000000000000000000000000000000000000000000000000000000000000000
102
{BLKREFS
331
30A
102
}
 70
     4
280
     1
281
     0
1001
AcDbBlockRepETag
1070
     1
1071
      149
1001
AcDbDynamicBlockGUID
1000
{F7130491-0AE4-D340-A069-BE1CE188ADB5}
  0
BLOCK_RECORD
  5
653
330
1
100
AcDbSymbolTableRecord
100
AcDbBlockTableRecord
  2
*D2
340
0
 70
     0
280
     1
281
     0
  0
BLOCK_RECORD
  5
65C
330
1
100
AcDbSymbolTableRecord
100
AcDbBlockTableRecord
  2
*D3
340
0
 70
     0
280
     1
281
     0
  0
BLOCK_RECORD
  5
676
330
1
100
AcDbSymbolTableRecord
100
AcDbBlockTableRecord
  2
*D4
340
0
 70
     0
280
     1
281
     0
  0
BLOCK_RECORD
  5
690
330
1
100
AcDbSymbolTableRecord
100
AcDbBlockTableRecord
  2
*D5
340
0
 70
     0
280
     1
281
     0
  0
BLOCK_RECORD
  5
69D
330
1
100
AcDbSymbolTableRecord
100
AcDbBlockTableRecord
  2
*D6
340
0
 70
     0
280
     1
281
     0
  0
BLOCK_RECORD
  5
B3E
330
1
100
AcDbSymbolTableRecord
100
AcDbBlockTableRecord
  2
*D7
340
0
 70
     0
280
     1
281
     0
  0
ENDTAB
  0
ENDSEC
  0
SECTION
  2
BLOCKS
  0
BLOCK
  5
5
330
2
100
AcDbEntity
  8
0
100
AcDbBlockBegin
  2
*MODEL_SPACE
 70
     0
 10
0.0
 20
0.0
 30
0.0
  3
*MODEL_SPACE
  1

  0
ENDBLK
  5
1C0
330
2
100
AcDbEntity
  8
0
100
AcDbBlockEnd
  0
BLOCK
  5
1C5
330
1C4
100
AcDbEntity
 67
     1
  8
0
100
AcDbBlockBegin
  2
*PAPER_SPACE
 70
     0
 10
0.0
 20
0.0
 30
0.0
  3
*PAPER_SPACE
  1

  0
ENDBLK
  5
1C6
330
1C4
100
AcDbEntity
 67
     1
  8
0
100
AcDbBlockEnd
  0
BLOCK
  5
1C9
330
1C8
100
AcDbEntity
  8
0
100
AcDbBlockBegin
  2
*PAPER_SPACE0
 70
     0
 10
0.0
 20
0.0
 30
0.0
  3
*PAPER_SPACE0
  1

  0
ENDBLK
  5
1CA
330
1C8
100
AcDbEntity
  8
0
100
AcDbBlockEnd
  0
BLOCK
  5
266
330
264
100
AcDbEntity
  8
0
100
AcDbBlockBegin
  2
A4图框-NEW
 70
     0
 10
0.0
 20
0.0
 30
0.0
  3
A4图框-NEW
  1

  0
MTEXT
  5
A7E
102
{ACAD_XDICTIONARY
360
A7F
102
}
330
264
100
AcDbEntity
  8
图框
 62
     3
100
AcDbMText
 10
967.6594956750133
 20
499.7664151964293
 30
0.0
 40
2.985513575034151
 41
15.50176341157864
 46
6.292658374511018
 71
     5
 72
     5
  1
\pxqc;BQ LUO
  7
Romans字体
 73
     1
 44
1.0
1001
AcDbBlockRepETag
1070
     1
1071
        0
1005
A7E
1001
ACAD
1000
ACAD_MTEXT_DEFINED_HEIGHT_BEGIN
1070
    46
1040
6.292658374511018
1000
ACAD_MTEXT_DEFINED_HEIGHT_END
  0
MTEXT
  5
A80
330
264
100
AcDbEntity
  8
图框
 62
     3
100
AcDbMText
 10
983.041569333247
 20
499.7664151964293
 30
0.0
 40
2.487927979195124
 41
15.26238390489062
 46
6.292658374511042
 71
     5
 72
     5
  1
{\W0.7;18.10.2010}
  7
Romans字体
 73
     1
 44
1.0
1001
AcDbBlockRepETag
1070
     1
1071
        1
1005
A80
1001
ACAD
1000
ACAD_MTEXT_DEFINED_HEIGHT_BEGIN
1070
    46
1040
6.292658374511042
1000
ACAD_MTEXT_DEFINED_HEIGHT_END
  0
MTEXT
  5
A81
330
264
100
AcDbEntity
  8
图框
 62
     3
100
AcDbMText
 10
1012.477254728976
 20
487.1810984474071
 30
0.0
 40
2.985513575034151
 41
17.64876416884615
 46
6.292658374511455
 71
     5
 72
     5
  1
YY LIN
  7
Romans字体
 73
     1
 44
1.0
1001
AcDbBlockRepETag
1070
     1
1071
        2
1005
A81
1001
ACAD
1000
ACAD_MTEXT_DEFINED_HEIGHT_BEGIN
1070
    46
1040
6.292658374511455
1000
ACAD_MTEXT_DEFINED_HEIGHT_END
  0
MTEXT
  5
A82
330
264
100
AcDbEntity
  8
图框
 62
     3
100
AcDbMText
 10
1028.977802139886
 20
487.1810984474071
 30
0.0
 40
2.487927979195124
 41
15.35233065297276
 46
6.292658374511495
 71
     5
 72
     5
  1
{\W0.7;18.10.2010}
  7
Romans字体
 73
     1
 44
1.0
1001
AcDbBlockRepETag
1070
     1
1071
        3
1005
A82
1001
ACAD
1000
ACAD_MTEXT_DEFINED_HEIGHT_BEGIN
1070
    46
1040
6.292658374511495
1000
ACAD_MTEXT_DEFINED_HEIGHT_END
  0
MTEXT
  5
A83
330
264
100
AcDbEntity
  8
图框
 62
     3
100
AcDbMText
 10
1063.722665487208
 20
525.4145966538831
 30
0.0
 40
2.985513575034151
 41
32.4973914334545
 46
11.82914190181707
 71
     5
 72
     5
  1
-
  7
Romans字体
 73
     1
 44
1.0
1001
AcDbBlockRepETag
1070
     1
1071
        4
1005
A83
1001
ACAD
1000
ACAD_MTEXT_DEFINED_HEIGHT_BEGIN
1070
    46
1040
11.82914190181707
1000
ACAD_MTEXT_DEFINED_HEIGHT_END
  0
MTEXT
  5
A84
330
264
100
AcDbEntity
  8
图框
 62
     3
100
AcDbMText
 10
1063.727338552349
 20
513.5854547520641
 30
0.0
 40
2.985513575034151
 41
32.48804530317308
 46
11.82914190182139
 71
     5
 72
     5
  1
-
  7
Romans字体
 73
     1
 44
1.0
1001
AcDbBlockRepETag
1070
     1
1071
        5
1005
A84
1001
ACAD
1000
ACAD_MTEXT_DEFINED_HEIGHT_BEGIN
1070
    46
1040
11.82914190182139
1000
ACAD_MTEXT_DEFINED_HEIGHT_END
  0
MTEXT
  5
A85
330
264
100
AcDbEntity
  8
图框
 62
     3
100
AcDbMText
 10
1110.122306614152
 20
526.8006839312707
 30
0.0
 40
2.985513575034151
 41
33.61239199242139
 46
9.05696734704178
 71
     5
 72
     5
  1
-
  7
Romans字体
 73
     1
 44
1.0
1001
AcDbBlockRepETag
1070
     1
1071
        6
1005
A85
1001
ACAD
1000
ACAD_MTEXT_DEFINED_HEIGHT_BEGIN
1070
    46
1040
9.05696734704178
1000
ACAD_MTEXT_DEFINED_HEIGHT_END
  0
MTEXT
  5
A86
330
264
100
AcDbEntity
  8
图框
 62
     3
100
AcDbMText
 10
1110.122306614152
 20
500.2775205517162
 30
0.0
 40
2.985513575034151
 41
33.61239199242139
 46
8.871557304763419
 71
     5
 72
     5
  1
-
  7
Romans字体
 73
     1
 44
1.0
1001
AcDbBlockRepETag
1070
     1
1071
        7
1005
A86
1001
ACAD
1000
ACAD_MTEXT_DEFINED_HEIGHT_BEGIN
1070
    46
1040
8.871557304763419
1000
ACAD_MTEXT_DEFINED_HEIGHT_END
  0
MTEXT
  5
A87
330
264
100
AcDbEntity
  8
图框
 62
     3
100
AcDbMText
 10
967.6594956750133
 20
493.4737568219182
 30
0.0
 40
2.985513575034151
 41
15.50176341157864
 46
6.292658374510335
 71
     5
 72
     5
  1
P RAO
  7
Romans字体
 73
     1
 44
1.0
1001
AcDbBlockRepETag
1070
     1
1071
        8
1005
A87
1001
ACAD
1000
ACAD_MTEXT_DEFINED_HEIGHT_BEGIN
1070
    46
1040
6.292658374510335
1000
ACAD_MTEXT_DEFINED_HEIGHT_END
  0
MTEXT
  5
A88
330
264
100
AcDbEntity
  8
图框
 62
     3
100
AcDbMText
 10
983.041569333247
 20
493.2441970450405
 30
0.0
 40
2.487927979195124
 41
15.26238390489051
 46
6.751777928266487
 71
     5
 72
     5
  1
{\W0.7;18.10.2010}
  7
Romans字体
 73
     1
 44
1.0
1001
AcDbBlockRepETag
1070
     1
1071
        9
1005
A88
1001
ACAD
1000
ACAD_MTEXT_DEFINED_HEIGHT_BEGIN
1070
    46
1040
6.751777928266487
1000
ACAD_MTEXT_DEFINED_HEIGHT_END
  0
MTEXT
  5
A89
330
264
100
AcDbEntity
  8
图框
 62
     3
100
AcDbMText
 10
1012.477254728976
 20
499.7664151964291
 30
0.0
 40
2.985513575034151
 41
17.64876416884615
 46
6.292658374511397
 71
     5
 72
     5
  1
-
  7
Romans字体
 73
     1
 44
1.0
1001
AcDbBlockRepETag
1070
     1
1071
       10
1005
A89
1001
ACAD
1000
ACAD_MTEXT_DEFINED_HEIGHT_BEGIN
1070
    46
1040
6.292658374511397
1000
ACAD_MTEXT_DEFINED_HEIGHT_END
  0
MTEXT
  5
A8A
330
264
100
AcDbEntity
  8
图框
 62
     3
100
AcDbMText
 10
1028.977802139886
 20
499.7664151964289
 30
0.0
 40
2.487927979195124
 41
15.35233065297265
 46
6.292658374511382
 71
     5
 72
     5
  1
-
  7
Romans字体
 73
     1
 44
1.0
1001
AcDbBlockRepETag
1070
     1
1071
       11
1005
A8A
1001
ACAD
1000
ACAD_MTEXT_DEFINED_HEIGHT_BEGIN
1070
    46
1040
6.292658374511382
1000
ACAD_MTEXT_DEFINED_HEIGHT_END
  0
MTEXT
  5
A8B
330
264
100
AcDbEntity
  8
图框
 62
     3
100
AcDbMText
 10
967.6594956750133
 20
487.1810984474071
 30
0.0
 40
2.985513575034151
 41
15.50176341157863
 46
6.292658374511478
 71
     5
 72
     5
  1
-
  7
Romans字体
 73
     1
 44
1.0
1001
AcDbBlockRepETag
1070
     1
1071
       12
1005
A8B
1001
ACAD
1000
ACAD_MTEXT_DEFINED_HEIGHT_BEGIN
1070
    46
1040
6.292658374511478
1000
ACAD_MTEXT_DEFINED_HEIGHT_END
  0
MTEXT
  5
A8C
330
264
100
AcDbEntity
  8
图框
 62
     3
100
AcDbMText
 10
983.041569333247
 20
487.1810984474071
 30
0.0
 40
2.487927979195124
 41
15.26238390489062
 46
6.292658374511495
 71
     5
 72
     5
  1
-
  7
Romans字体
 73
     1
 44
1.0
1001
AcDbBlockRepETag
1070
     1
1071
       13
1005
A8C
1001
ACAD
1000
ACAD_MTEXT_DEFINED_HEIGHT_BEGIN
1070
    46
1040
6.292658374511495
1000
ACAD_MTEXT_DEFINED_HEIGHT_END
  0
MTEXT
  5
A8D
330
264
100
AcDbEntity
  8
图框
 62
     3
100
AcDbMText
 10
1074.556686986741
 20
495.8417418993361
 30
0.0
 40
2.985513575034151
 41
10.82934843438978
 46
7.886094601210427
 71
     5
 72
     5
  1
-
  7
Romans字体
 73
     1
 44
1.0
1001
AcDbBlockRepETag
1070
     1
1071
       14
1005
A8D
1001
ACAD
1000
ACAD_MTEXT_DEFINED_HEIGHT_BEGIN
1070
    46
1040
7.886094601210427
1000
ACAD_MTEXT_DEFINED_HEIGHT_END
  0
LINE
  5
A8E
330
264
100
AcDbEntity
  8
图框
370
    -3
100
AcDbLine
 10
1036.653967466372
 20
499.7847891999413
 30
0.0
 11
1079.971361203936
 21
499.7847891999413
 31
0.0
1001
AcDbBlockRepETag
1070
     1
1071
       15
1005
A8E
  0
MTEXT
  5
A8F
330
264
100
AcDbEntity
  8
图框
 62
     1
370
    20
100
AcDbMText
 10
1108.26336443907
 20
491.5162596080882
 30
0.0
 40
2.699054613030988
 41
82.30831305643079
 46
0.0
 71
     5
 72
     5
  1
{\fSimHei|b0|i0|c134|p2;厦门唯恩电气有限公司}
 73
     1
 44
1.0
1001
AcDbBlockRepETag
1070
     1
1071
       16
1005
A8F
  0
MTEXT
  5
A90
330
264
100
AcDbEntity
  8
图框
 62
     3
370
    20
100
AcDbMText
 10
1108.435451459908
 20
487.298967726064
 30
0.0
 40
1.652482416141417
 41
68.08558693693567
 46
0.0
 71
     5
 72
     5
  1
{\fArial Narrow|b0|i0|c0|p34;XIAMEN WAIN ELECTRICAL CO.LTD}
  7
工程字
 73
     1
 44
1.0
1001
AcDbBlockRepETag
1070
     1
1071
       17
1005
A90
  0
MTEXT
  5
A91
330
264
100
AcDbEntity
  8
图框
 62
     1
370
    20
100
AcDbMText
 10
1085.711816899387
 20
491.0944802995856
 30
0.0
 40
2.005930044038334
 41
5.047240019334847
 46
0.0
 71
     1
 72
     5
  1
{\fArial|b0|i0|c0|p34;A}
  7
Chinese
 73
     1
 44
1.0
1001
AcDbBlockRepETag
1070
     1
1071
       18
1005
A91
  0
MTEXT
  5
A92
330
264
100
AcDbEntity
  8
图框
 62
     1
370
    20
100
AcDbMText
 10
1088.213485935716
 20
491.0944802995856
 30
0.0
 40
2.005930044038334
 41
5.047240019334847
 46
0.0
 71
     1
 72
     5
  1
{\fArial|b0|i0|c0|p34;I}
  7
Chinese
 73
     1
 44
1.0
1001
AcDbBlockRepETag
1070
     1
1071
       19
1005
A92
  0
MTEXT
  5
A93
330
264
100
AcDbEntity
  8
图框
 62
     1
370
    20
100
AcDbMText
 10
1089.142375222864
 20
491.0822866326808
 30
0.0
 40
2.005930044038334
 41
5.047240019334847
 46
0.0
 71
     1
 72
     5
  1
{\fArial|b0|i0|c0|p34;N}
  7
Chinese
 73
     1
 44
1.0
1001
AcDbBlockRepETag
1070
     1
1071
       20
1005
A93
  0
MTEXT
  5
A94
330
264
100
AcDbEntity
  8
图框
100
AcDbMText
 10
1069.142012769545
 20
487.9667319294409
 30
0.0
 40
2.252848170144607
 41
21.65869686878327
 46
7.863925338579296
 71
     5
 72
     5
  1
{\W0.5;\C1;All Dimensions in mm\POriginal Size DIN A 4}
  7
Romans字体
 73
     1
 44
1.0
1001
AcDbBlockRepETag
1070
     1
1071
       21
1005
A94
1001
ACAD
1000
ACAD_MTEXT_DEFINED_HEIGHT_BEGIN
1070
    46
1040
7.863925338579296
1000
ACAD_MTEXT_DEFINED_HEIGHT_END
  0
MTEXT
  5
A95
330
264
100
AcDbEntity
  8
图框
  6
ByBlock
 62
     6
370
    18
100
AcDbMText
 10
1127.40434942308
 20
508.7896535755975
 30
0.0
 40
2.651776162684904
 41
2.557913877927211
 46
0.0
 71
     1
 72
     5
  1
A
  7
Romans字体
 11
0.0000000000000001
 21
1.0
 31
0.0
 73
     1
 44
1.0
1001
AcDbBlockRepETag
1070
     1
1071
       22
1005
A95
  0
MTEXT
  5
A96
330
264
100
AcDbEntity
  8
图框
 62
     6
100
AcDbMText
 10
1127.40434942308
 20
556.3746573232886
 30
0.0
 40
2.651776162684904
 41
2.557913877927211
 46
0.0
 71
     1
 72
     5
  1
B
  7
Romans字体
 11
0.0000000000000001
 21
1.0
 31
0.0
 73
     1
 44
1.0
1001
AcDbBlockRepETag
1070
     1
1071
       23
1005
A96
  0
MTEXT
  5
A97
330
264
100
AcDbEntity
  8
图框
 62
     6
100
AcDbMText
 10
1127.40434942308
 20
607.5539372630998
 30
0.0
 40
2.651776162684904
 41
2.557913877927211
 46
0.0
 71
     1
 72
     5
  1
C
  7
Romans字体
 11
0.0000000000000001
 21
1.0
 31
0.0
 73
     1
 44
1.0
1001
AcDbBlockRepETag
1070
     1
1071
       24
1005
A97
  0
MTEXT
  5
A98
330
264
100
AcDbEntity
  8
图框
 62
     6
100
AcDbMText
 10
1127.40434942308
 20
658.7332172029115
 30
0.0
 40
2.651776162684904
 41
2.557913877927211
 46
0.0
 71
     1
 72
     5
  1
D
  7
Romans字体
 11
0.0000000000000001
 21
1.0
 31
0.0
 73
     1
 44
1.0
1001
AcDbBlockRepETag
1070
     1
1071
       25
1005
A98
  0
LINE
  5
A99
330
264
100
AcDbEntity
  8
图框
 62
     6
100
AcDbLine
 10
1130.411601781241
 20
634.0726090796082
 30
0.0
 11
1126.928502610363
 21
634.0726090796082
 31
0.0
1001
AcDbBlockRepETag
1070
     1
1071
       26
1005
A99
  0
LINE
  5
A9A
330
264
100
AcDbEntity
  8
图框
 62
     6
100
AcDbLine
 10
1130.411601781241
 20
582.89332913979
 30
0.0
 11
1126.928502610363
 21
582.89332913979
 31
0.0
1001
AcDbBlockRepETag
1070
     1
1071
       27
1005
A9A
  0
MTEXT
  5
A9B
330
264
100
AcDbEntity
  8
图框
 62
     6
100
AcDbMText
 10
1105.329704038389
 20
483.6164543011163
 30
0.0
 40
2.651776162684904
 41
2.557913877927211
 46
0.0
 71
     1
 72
     5
  1
6
  7
Romans字体
 73
     1
 44
1.0
1001
AcDbBlockRepETag
1070
     1
1071
       28
1005
A9B
  0
LINE
  5
A9C
330
264
100
AcDbEntity
  8
图框
 62
     6
100
AcDbLine
 10
1081.088565155284
 20
484.0347692601515
 30
0.0
 11
1081.088565155284
 21
480.5347692601475
 31
0.0
1001
AcDbBlockRepETag
1070
     1
1071
       29
1005
A9C
  0
MTEXT
  5
A9D
330
264
100
AcDbEntity
  8
图框
 62
     6
100
AcDbMText
 10
1055.900596365941
 20
483.520053108993
 30
0.0
 40
2.651776162684904
 41
2.557913877927211
 46
0.0
 71
     1
 72
     5
  1
5
  7
Romans字体
 73
     1
 44
1.0
1001
AcDbBlockRepETag
1070
     1
1071
       30
1005
A9D
  0
LINE
  5
A9E
330
264
100
AcDbEntity
  8
图框
 62
     6
100
AcDbLine
 10
1031.553386436349
 20
484.0347692601515
 30
0.0
 11
1031.553386436349
 21
480.5347692601475
 31
0.0
1001
AcDbBlockRepETag
1070
     1
1071
       31
1005
A9E
  0
MTEXT
  5
A9F
330
264
100
AcDbEntity
  8
图框
 62
     6
100
AcDbMText
 10
1006.383180575197
 20
483.5687958215896
 30
0.0
 40
2.651776162684904
 41
2.557913877927211
 46
0.0
 71
     1
 72
     5
  1
4
  7
Romans字体
 73
     1
 44
1.0
1001
AcDbBlockRepETag
1070
     1
1071
       32
1005
A9F
  0
LINE
  5
AA0
330
264
100
AcDbEntity
  8
图框
 62
     6
100
AcDbLine
 10
982.0182077173887
 20
484.0347692601515
 30
0.0
 11
982.0182077173887
 21
480.5347692601475
 31
0.0
1001
AcDbBlockRepETag
1070
     1
1071
       33
1005
AA0
  0
MTEXT
  5
AA1
330
264
100
AcDbEntity
  8
图框
 62
     6
100
AcDbMText
 10
956.8302389280352
 20
483.5989680297948
 30
0.0
 40
2.651776162684904
 41
2.557913877927211
 46
0.0
 71
     1
 72
     5
  1
3
  7
Romans字体
 73
     1
 44
1.0
1001
AcDbBlockRepETag
1070
     1
1071
       34
1005
AA1
  0
LINE
  5
AA2
330
264
100
AcDbEntity
  8
图框
 62
     6
100
AcDbLine
 10
932.4830289984245
 20
484.0347692601515
 30
0.0
 11
932.4830289984245
 21
480.5347692601475
 31
0.0
1001
AcDbBlockRepETag
1070
     1
1071
       35
1005
AA2
  0
MTEXT
  5
AA3
330
264
100
AcDbEntity
  8
图框
 62
     6
100
AcDbMText
 10
906.0252349826365
 20
483.6475250013156
 30
0.0
 40
2.651776162684904
 41
2.557913877927211
 46
0.0
 71
     1
 72
     5
  1
2
  7
Romans字体
 73
     1
 44
1.0
1001
AcDbBlockRepETag
1070
     1
1071
       36
1005
AA3
  0
LINE
  5
AA4
330
264
100
AcDbEntity
  8
图框
 62
     6
100
AcDbLine
 10
882.9478502794648
 20
484.0347692601515
 30
0.0
 11
882.9478502794648
 21
480.5347692601475
 31
0.0
1001
AcDbBlockRepETag
1070
     1
1071
       37
1005
AA4
  0
MTEXT
  5
AA5
330
264
100
AcDbEntity
  8
图框
 62
     6
100
AcDbMText
 10
857.7598814901191
 20
483.651829494754
 30
0.0
 40
2.651776162684904
 41
2.557913877927211
 46
0.0
 71
     1
 72
     5
  1
1
  7
Romans字体
 73
     1
 44
1.0
1001
AcDbBlockRepETag
1070
     1
1071
       38
1005
AA5
  0
LINE
  5
AA6
330
264
100
AcDbEntity
  8
图框
370
    50
100
AcDbLine
 10
836.8548209370597
 20
484.0347692601515
 30
0.0
 11
1126.928502610363
 21
484.0347692601515
 31
0.0
1001
AcDbBlockRepETag
1070
     1
1071
       39
1005
AA6
  0
LINE
  5
AA7
330
264
100
AcDbEntity
  8
图框
370
    50
100
AcDbLine
 10
836.9128518455362
 20
484.0178684310246
 30
0.0
 11
836.9128518455394
 21
675.0207195125422
 31
0.0
1001
AcDbBlockRepETag
1070
     1
1071
       40
1005
AA7
  0
MTEXT
  5
AA8
330
264
100
AcDbEntity
  8
图框
 62
     6
100
AcDbMText
 10
833.8475685789031
 20
658.7332172029115
 30
0.0
 40
2.651776162684904
 41
2.557913877927211
 46
0.0
 71
     1
 72
     5
  1
D
  7
Romans字体
 11
0.0000000000000001
 21
1.0
 31
0.0
 73
     1
 44
1.0
1001
AcDbBlockRepETag
1070
     1
1071
       41
1005
AA8
  0
LINE
  5
AA9
330
264
100
AcDbEntity
  8
图框
 62
     6
100
AcDbLine
 10
836.9128518455386
 20
634.0726090796082
 30
0.0
 11
833.4128518455365
 21
634.0726090796082
 31
0.0
1001
AcDbBlockRepETag
1070
     1
1071
       42
1005
AA9
  0
MTEXT
  5
AAA
330
264
100
AcDbEntity
  8
图框
 62
     6
100
AcDbMText
 10
833.9039177480142
 20
607.5539372630998
 30
0.0
 40
2.651776162684904
 41
2.557913877927211
 46
0.0
 71
     1
 72
     5
  1
C
  7
Romans字体
 11
0.0000000000000001
 21
1.0
 31
0.0
 73
     1
 44
1.0
1001
AcDbBlockRepETag
1070
     1
1071
       43
1005
AAA
  0
LINE
  5
AAB
330
264
100
AcDbEntity
  8
图框
 62
     6
100
AcDbLine
 10
836.9128518455378
 20
582.89332913979
 30
0.0
 11
833.4128518455365
 21
582.89332913979
 31
0.0
1001
AcDbBlockRepETag
1070
     1
1071
       44
1005
AAB
  0
MTEXT
  5
AAC
330
264
100
AcDbEntity
  8
图框
 62
     6
100
AcDbMText
 10
833.9039177480142
 20
556.3746573232886
 30
0.0
 40
2.651776162684904
 41
2.557913877927211
 46
0.0
 71
     1
 72
     5
  1
B
  7
Romans字体
 11
0.0000000000000001
 21
1.0
 31
0.0
 73
     1
 44
1.0
1001
AcDbBlockRepETag
1070
     1
1071
       45
1005
AAC
  0
LINE
  5
AAD
330
264
100
AcDbEntity
  8
图框
 62
     6
100
AcDbLine
 10
836.9128518455367
 20
531.714049199969
 30
0.0
 11
833.4128518455365
 21
531.714049199969
 31
0.0
1001
AcDbBlockRepETag
1070
     1
1071
       46
1005
AAD
  0
MTEXT
  5
AAE
330
264
100
AcDbEntity
  8
图框
 62
     6
100
AcDbMText
 10
833.9039177480142
 20
508.7896535755975
 30
0.0
 40
2.651776162684904
 41
2.557913877927211
 46
0.0
 71
     1
 72
     5
  1
A
  7
Romans字体
 11
0.0000000000000001
 21
1.0
 31
0.0
 73
     1
 44
1.0
1001
AcDbBlockRepETag
1070
     1
1071
       47
1005
AAE
  0
LINE
  5
AAF
330
264
100
AcDbEntity
  8
图框
370
    -3
100
AcDbLine
 10
836.9128518455394
 20
675.0207195125422
 30
0.0
 11
836.9128518455394
 21
684.5021384922564
 31
0.0
1001
AcDbBlockRepETag
1070
     1
1071
       48
1005
AAF
  0
LINE
  5
AB0
330
264
100
AcDbEntity
  8
图框
370
    -3
100
AcDbLine
 10
842.6237321475781
 20
675.5347692601515
 30
0.0
 11
842.6237321475781
 21
685.0161882398658
 31
0.0
1001
AcDbBlockRepETag
1070
     1
1071
       49
1005
AB0
  0
LINE
  5
AB1
330
264
100
AcDbEntity
  8
图框
370
    -3
100
AcDbLine
 10
848.3346124496179
 20
675.5347692601515
 30
0.0
 11
848.3346124496179
 21
685.0161882398658
 31
0.0
1001
AcDbBlockRepETag
1070
     1
1071
       50
1005
AB1
  0
LINE
  5
AB2
330
264
100
AcDbEntity
  8
图框
370
    -3
100
AcDbLine
 10
854.0454927516588
 20
675.5347692601515
 30
0.0
 11
854.0454927516588
 21
685.0161882398658
 31
0.0
1001
AcDbBlockRepETag
1070
     1
1071
       51
1005
AB2
  0
LINE
  5
AB3
330
264
100
AcDbEntity
  8
图框
370
    -3
100
AcDbLine
 10
861.5351874539182
 20
675.5347692601515
 30
0.0
 11
861.5351874539182
 21
686.7901958362482
 31
0.0
1001
AcDbBlockRepETag
1070
     1
1071
       52
1005
AB3
  0
MTEXT
  5
AB4
330
264
100
AcDbEntity
  8
图框
 62
     6
100
AcDbMText
 10
1105.329704038389
 20
678.859919059449
 30
0.0
 40
2.651776162684904
 41
2.557913877927211
 46
0.0
 71
     1
 72
     5
  1
6
  7
Romans字体
 73
     1
 44
1.0
1001
AcDbBlockRepETag
1070
     1
1071
       53
1005
AB4
  0
LINE
  5
AB5
330
264
100
AcDbEntity
  8
图框
 62
     6
100
AcDbLine
 10
1081.088565155284
 20
679.0347692601516
 30
0.0
 11
1081.088565155284
 21
675.5347692601515
 31
0.0
1001
AcDbBlockRepETag
1070
     1
1071
       54
1005
AB5
  0
MTEXT
  5
AB6
330
264
100
AcDbEntity
  8
图框
 62
     6
100
AcDbMText
 10
1055.900596365941
 20
678.859919059449
 30
0.0
 40
2.651776162684904
 41
2.557913877927211
 46
0.0
 71
     1
 72
     5
  1
5
  7
Romans字体
 73
     1
 44
1.0
1001
AcDbBlockRepETag
1070
     1
1071
       55
1005
AB6
  0
LINE
  5
AB7
330
264
100
AcDbEntity
  8
图框
 62
     6
100
AcDbLine
 10
1031.553386436349
 20
679.0347692601516
 30
0.0
 11
1031.553386436349
 21
675.5347692601515
 31
0.0
1001
AcDbBlockRepETag
1070
     1
1071
       56
1005
AB7
  0
MTEXT
  5
AB8
330
264
100
AcDbEntity
  8
图框
 62
     6
100
AcDbMText
 10
1006.36541764698
 20
678.7312083656147
 30
0.0
 40
2.651776162684904
 41
2.557913877927211
 46
0.0
 71
     1
 72
     5
  1
4
  7
Romans字体
 73
     1
 44
1.0
1001
AcDbBlockRepETag
1070
     1
1071
       57
1005
AB8
  0
LINE
  5
AB9
330
264
100
AcDbEntity
  8
图框
 62
     6
100
AcDbLine
 10
982.0182077173887
 20
679.0347692601516
 30
0.0
 11
982.0182077173887
 21
675.5347692601515
 31
0.0
1001
AcDbBlockRepETag
1070
     1
1071
       58
1005
AB9
  0
MTEXT
  5
ABA
330
264
100
AcDbEntity
  8
图框
 62
     6
100
AcDbMText
 10
956.8302389280352
 20
678.859919059449
 30
0.0
 40
2.651776162684904
 41
2.557913877927211
 46
0.0
 71
     1
 72
     5
  1
3
  7
Romans字体
 73
     1
 44
1.0
1001
AcDbBlockRepETag
1070
     1
1071
       59
1005
ABA
  0
LINE
  5
ABB
330
264
100
AcDbEntity
  8
图框
 62
     6
100
AcDbLine
 10
932.4830289984245
 20
679.0347692601516
 30
0.0
 11
932.4830289984245
 21
675.5347692601515
 31
0.0
1001
AcDbBlockRepETag
1070
     1
1071
       60
1005
ABB
  0
MTEXT
  5
ABC
330
264
100
AcDbEntity
  8
图框
 62
     6
100
AcDbMText
 10
907.295060209082
 20
678.859919059449
 30
0.0
 40
2.651776162684904
 41
2.557913877927211
 46
0.0
 71
     1
 72
     5
  1
2
  7
Romans字体
 73
     1
 44
1.0
1001
AcDbBlockRepETag
1070
     1
1071
       61
1005
ABC
  0
LINE
  5
ABD
330
264
100
AcDbEntity
  8
图框
 62
     6
100
AcDbLine
 10
882.9478502794648
 20
678.7962435131815
 30
0.0
 11
882.9478502794648
 21
675.5347692601515
 31
0.0
1001
AcDbBlockRepETag
1070
     1
1071
       62
1005
ABD
  0
MTEXT
  5
ABE
330
264
100
AcDbEntity
  8
图框
 62
     6
100
AcDbMText
 10
862.6286629643733
 20
678.859919059449
 30
0.0
 40
2.651776162684904
 41
2.557913877927211
 46
0.0
 71
     1
 72
     5
  1
1
  7
Romans字体
 73
     1
 44
1.0
1001
AcDbBlockRepETag
1070
     1
1071
       63
1005
ABE
  0
LINE
  5
ABF
330
264
100
AcDbEntity
  8
图框
370
    -3
100
AcDbLine
 10
836.9128518455394
 20
675.0207195125422
 30
0.0
 11
836.9128518455394
 21
686.7901958362482
 31
0.0
1001
AcDbBlockRepETag
1070
     1
1071
       64
1005
ABF
  0
LINE
  5
AC0
330
264
100
AcDbEntity
  8
图框
370
    50
100
AcDbLine
 10
836.9128518455394
 20
675.5347692601515
 30
0.0
 11
1126.928502610363
 21
675.5347692601515
 31
0.0
1001
AcDbBlockRepETag
1070
     1
1071
       65
1005
AC0
  0
LINE
  5
AC1
330
264
100
AcDbEntity
  8
图框
370
    -3
100
AcDbLine
 10
842.6237321475781
 20
675.5347692601515
 30
0.0
 11
842.6237321475781
 21
686.7901958362482
 31
0.0
1001
AcDbBlockRepETag
1070
     1
1071
       66
1005
AC1
  0
LINE
  5
AC2
330
264
100
AcDbEntity
  8
图框
370
    -3
100
AcDbLine
 10
848.3346124496179
 20
675.5347692601515
 30
0.0
 11
848.3346124496179
 21
686.7901958362482
 31
0.0
1001
AcDbBlockRepETag
1070
     1
1071
       67
1005
AC2
  0
MTEXT
  5
AC3
102
{ACAD_XDICTIONARY
360
AC4
102
}
330
264
100
AcDbEntity
  8
图框
100
AcDbMText
 10
857.7903401027889
 20
686.7901958362482
 30
0.0
 40
1.958998408821398
 41
11.25542657609672
 46
7.489694702258906
 71
     4
 72
     5
  1
\pxqc;档案员{\H0.7x;\P\Fromans|c134;Filing Clerk\fFangSong_GB2312|b0|i0|c134|p49; }
 11
-0.0000000000000002
 21
-1.0
 31
0.0
 73
     1
 44
1.0
1001
AcDbBlockRepETag
1070
     1
1071
       68
1005
AC3
1001
ACAD
1000
ACAD_MTEXT_DEFINED_HEIGHT_BEGIN
1070
    46
1040
7.489694702258906
1000
ACAD_MTEXT_DEFINED_HEIGHT_END
  0
MTEXT
  5
AC5
102
{ACAD_XDICTIONARY
360
AC6
102
}
330
264
100
AcDbEntity
  8
图框
100
AcDbMText
 10
845.479172298598
 20
686.7901958362482
 30
0.0
 40
1.958998408821398
 41
11.25542657609672
 46
5.710880302039671
 71
     4
 72
     5
  1
\pxqc;日期{\Fromans|c134;/Date}
 11
-0.0000000000000002
 21
-1.0
 31
0.0
 73
     1
 44
1.0
1001
AcDbBlockRepETag
1070
     1
1071
       69
1005
AC5
1001
ACAD
1000
ACAD_MTEXT_DEFINED_HEIGHT_BEGIN
1070
    46
1040
5.710880302039671
1000
ACAD_MTEXT_DEFINED_HEIGHT_END
  0
LINE
  5
AC7
330
264
100
AcDbEntity
  8
图框
370
    -3
100
AcDbLine
 10
854.0454927516588
 20
675.5347692601515
 30
0.0
 11
854.0454927516588
 21
686.7901958362482
 31
0.0
1001
AcDbBlockRepETag
1070
     1
1071
       70
1005
AC7
  0
LINE
  5
AC8
330
264
100
AcDbEntity
  8
图框
370
    -3
100
AcDbLine
 10
1036.653967466372
 20
531.3291676047914
 30
0.0
 11
1036.653967466372
 21
484.0126019753161
 31
0.0
1001
AcDbBlockRepETag
1070
     1
1071
       71
1005
AC8
  0
LINE
  5
AC9
330
264
100
AcDbEntity
  8
图框
370
    -3
100
AcDbLine
 10
1047.483315900763
 20
507.6708838011533
 30
0.0
 11
1047.483315900763
 21
491.8986945987308
 31
0.0
1001
AcDbBlockRepETag
1070
     1
1071
       72
1005
AC9
  0
LINE
  5
ACA
330
264
100
AcDbEntity
  8
图框
370
    -3
100
AcDbLine
 10
1058.312664335153
 20
507.6708838011533
 30
0.0
 11
1058.312664335153
 21
484.0347692601515
 31
0.0
1001
AcDbBlockRepETag
1070
     1
1071
       73
1005
ACA
  0
LINE
  5
ACB
330
264
100
AcDbEntity
  8
图框
370
    25
100
AcDbLine
 10
1048.474135214456
 20
488.1095628329926
 30
0.0
 11
1054.946420288459
 21
488.1095628329926
 31
0.0
1001
AcDbBlockRepETag
1070
     1
1071
       74
1005
ACB
  0
LINE
  5
ACC
330
264
100
AcDbEntity
  8
图框
370
    25
100
AcDbLine
 10
1054.232527365989
 20
487.0761716842634
 30
0.0
 11
1049.156490914508
 21
486.4576273751
 31
0.0
1001
AcDbBlockRepETag
1070
     1
1071
       75
1005
ACC
  0
LINE
  5
ACD
330
264
100
AcDbEntity
  8
图框
370
    25
100
AcDbLine
 10
1054.232527365989
 20
489.1429539817209
 30
0.0
 11
1049.156490914508
 21
489.7614982908846
 31
0.0
1001
AcDbBlockRepETag
1070
     1
1071
       76
1005
ACD
  0
LINE
  5
ACE
330
264
100
AcDbEntity
  8
图框
370
    25
100
AcDbLine
 10
1049.156490914508
 20
489.7614982908846
 30
0.0
 11
1049.156490914508
 21
486.4576273751
 31
0.0
1001
AcDbBlockRepETag
1070
     1
1071
       77
1005
ACE
  0
LINE
  5
ACF
330
264
100
AcDbEntity
  8
图框
370
    25
100
AcDbLine
 10
1054.232527365989
 20
489.1429539817209
 30
0.0
 11
1054.232527365989
 21
487.0761716842634
 31
0.0
1001
AcDbBlockRepETag
1070
     1
1071
       78
1005
ACF
  0
CIRCLE
  5
AD0
330
264
100
AcDbEntity
  8
图框
370
    25
100
AcDbCircle
 10
1042.502700458579
 20
488.1095628329926
 30
0.0
 40
1.651935457891863
1001
AcDbBlockRepETag
1070
     1
1071
       79
1005
AD0
  0
CIRCLE
  5
AD1
330
264
100
AcDbEntity
  8
图框
370
    25
100
AcDbCircle
 10
1042.502700458579
 20
488.1095628329926
 30
0.0
 40
1.033391148728775
1001
AcDbBlockRepETag
1070
     1
1071
       80
1005
AD1
  0
LINE
  5
AD2
330
264
100
AcDbEntity
  8
图框
370
    25
100
AcDbLine
 10
1040.136872078216
 20
488.1095628329926
 30
0.0
 11
1044.868528838943
 21
488.1095628329926
 31
0.0
1001
AcDbBlockRepETag
1070
     1
1071
       81
1005
AD2
  0
LINE
  5
AD3
330
264
100
AcDbEntity
  8
图框
370
    25
100
AcDbLine
 10
1042.502700458579
 20
490.475391213355
 30
0.0
 11
1042.502700458579
 21
485.743734452629
 31
0.0
1001
AcDbBlockRepETag
1070
     1
1071
       82
1005
AD3
  0
LINE
  5
AD4
330
264
100
AcDbEntity
  8
图框
370
    -3
100
AcDbLine
 10
1069.142012769546
 20
507.6708838011533
 30
0.0
 11
1069.142012769546
 21
491.8986945987308
 31
0.0
1001
AcDbBlockRepETag
1070
     1
1071
       83
1005
AD4
  0
MTEXT
  5
AD5
330
264
100
AcDbEntity
  8
图框
100
AcDbMText
 10
1086.643735910939
 20
526.8006839312707
 30
0.0
 40
2.154898249703542
 41
13.34474941400573
 46
9.056967347041775
 71
     5
 72
     5
  1
图号{\Ftxt|c134;\P\Fromans|c134;\W0.65;Drawing No.}
 73
     1
 44
1.0
1001
AcDbBlockRepETag
1070
     1
1071
       84
1005
AD5
1001
ACAD
1000
ACAD_MTEXT_DEFINED_HEIGHT_BEGIN
1070
    46
1040
9.056967347041775
1000
ACAD_MTEXT_DEFINED_HEIGHT_END
  0
LINE
  5
AD6
330
264
100
AcDbEntity
  8
图框
370
    -3
100
AcDbLine
 10
1093.316110617942
 20
531.3291676047914
 30
0.0
 11
1093.316110617942
 21
495.8417418993347
 31
0.0
1001
AcDbBlockRepETag
1070
     1
1071
       85
1005
AD6
  0
LINE
  5
AD7
330
264
100
AcDbEntity
  8
图框
370
    -3
100
AcDbLine
 10
1047.473969770481
 20
531.3291676047914
 30
0.0
 11
1047.473969770481
 21
507.6708838011533
 31
0.0
1001
AcDbBlockRepETag
1070
     1
1071
       86
1005
AD7
  0
MTEXT
  5
AD8
330
264
100
AcDbEntity
  8
图框
100
AcDbMText
 10
1063.72733855235
 20
503.7278365005473
 30
0.0
 40
2.252848170144607
 41
10.82934843439208
 46
7.886094601212128
 71
     5
 72
     5
  1
重量\P{\Fromans|c134;Weight}
 73
     1
 44
1.0
1001
AcDbBlockRepETag
1070
     1
1071
       87
1005
AD8
1001
ACAD
1000
ACAD_MTEXT_DEFINED_HEIGHT_BEGIN
1070
    46
1040
7.886094601212128
1000
ACAD_MTEXT_DEFINED_HEIGHT_END
  0
LINE
  5
AD9
330
264
100
AcDbEntity
  8
图框
370
    -3
100
AcDbLine
 10
1036.653967466372
 20
519.5000257029746
 30
0.0
 11
1079.971361203936
 21
519.5000257029746
 31
0.0
1001
AcDbBlockRepETag
1070
     1
1071
       88
1005
AD9
  0
MTEXT
  5
ADA
330
264
100
AcDbEntity
  8
图框
100
AcDbMText
 10
1074.556686986741
 20
503.7278365005473
 30
0.0
 40
2.252848170144607
 41
10.82934843438984
 46
7.886094601212141
 71
     5
 72
     5
  1
数量\P{\Fromans|c134;Qty.}
 73
     1
 44
1.0
1001
AcDbBlockRepETag
1070
     1
1071
       89
1005
ADA
1001
ACAD
1000
ACAD_MTEXT_DEFINED_HEIGHT_BEGIN
1070
    46
1040
7.886094601212141
1000
ACAD_MTEXT_DEFINED_HEIGHT_END
  0
LINE
  5
ADB
330
264
100
AcDbEntity
  8
图框
370
    -3
100
AcDbLine
 10
1079.971361203936
 20
495.8417418993347
 30
0.0
 11
1126.928502610363
 21
495.8417418993342
 31
0.0
1001
AcDbBlockRepETag
1070
     1
1071
       90
1005
ADB
  0
LINE
  5
ADC
330
264
100
AcDbEntity
  8
图框
370
    -3
100
AcDbLine
 10
1079.971361203936
 20
504.7132992040975
 30
0.0
 11
1126.928502610363
 21
504.7132992040975
 31
0.0
1001
AcDbBlockRepETag
1070
     1
1071
       91
1005
ADC
  0
MTEXT
  5
ADD
330
264
100
AcDbEntity
  8
图框
100
AcDbMText
 10
1052.893317052817
 20
503.7278365005473
 30
0.0
 40
2.252848170144607
 41
10.83869456467139
 46
7.886094601212101
 71
     5
 72
     5
  1
版本\P{\Fromans|c134;REV.}
 73
     1
 44
1.0
1001
AcDbBlockRepETag
1070
     1
1071
       92
1005
ADD
1001
ACAD
1000
ACAD_MTEXT_DEFINED_HEIGHT_BEGIN
1070
    46
1040
7.886094601212101
1000
ACAD_MTEXT_DEFINED_HEIGHT_END
  0
MTEXT
  5
ADE
330
264
100
AcDbEntity
  8
图框
100
AcDbMText
 10
1042.068641683568
 20
503.7278365005473
 30
0.0
 40
2.252848170144607
 41
10.8293484343908
 46
7.886094601212136
 71
     5
 72
     5
  1
比例\P{\Fromans|c134;Scale}
 73
     1
 44
1.0
1001
AcDbBlockRepETag
1070
     1
1071
       93
1005
ADE
1001
ACAD
1000
ACAD_MTEXT_DEFINED_HEIGHT_BEGIN
1070
    46
1040
7.886094601212136
1000
ACAD_MTEXT_DEFINED_HEIGHT_END
  0
LINE
  5
ADF
330
264
100
AcDbEntity
  8
图框
370
    -3
100
AcDbLine
 10
1036.653967466372
 20
507.6708838011533
 30
0.0
 11
1079.971361203936
 21
507.6708838011533
 31
0.0
1001
AcDbBlockRepETag
1070
     1
1071
       94
1005
ADF
  0
LINE
  5
AE0
330
264
100
AcDbEntity
  8
图框
370
    -3
100
AcDbLine
 10
1036.653967466372
 20
491.8986945987308
 30
0.0
 11
1079.971361203936
 21
491.8986945987308
 31
0.0
1001
AcDbBlockRepETag
1070
     1
1071
       95
1005
AE0
  0
LINE
  5
AE1
330
264
100
AcDbEntity
  8
图框
370
    -3
100
AcDbLine
 10
1079.971361203936
 20
531.3291676047914
 30
0.0
 11
1079.971361203936
 21
484.0125999975168
 31
0.0
1001
AcDbBlockRepETag
1070
     1
1071
       96
1005
AE1
  0
MTEXT
  5
AE2
330
264
100
AcDbEntity
  8
图框
100
AcDbMText
 10
1042.063968618426
 20
525.4145966538832
 30
0.0
 40
2.252848170144607
 41
10.82000230410933
 46
11.82914190181708
 71
     5
 72
     5
  1
表面处理\P{\Fromans|c134;Finish}
 73
     1
 44
1.0
1001
AcDbBlockRepETag
1070
     1
1071
       97
1005
AE2
1001
ACAD
1000
ACAD_MTEXT_DEFINED_HEIGHT_BEGIN
1070
    46
1040
11.82914190181708
1000
ACAD_MTEXT_DEFINED_HEIGHT_END
  0
MTEXT
  5
AE3
330
264
100
AcDbEntity
  8
图框
100
AcDbMText
 10
1042.063968618426
 20
513.5854547520639
 30
0.0
 40
2.252848170144607
 41
10.82000230410933
 46
11.8291419018212
 71
     5
 72
     5
  1
材料\P{\Fromans|c134;Material}
 73
     1
 44
1.0
1001
AcDbBlockRepETag
1070
     1
1071
       98
1005
AE3
1001
ACAD
1000
ACAD_MTEXT_DEFINED_HEIGHT_BEGIN
1070
    46
1040
11.8291419018212
1000
ACAD_MTEXT_DEFINED_HEIGHT_END
  0
LINE
  5
AE4
330
264
100
AcDbEntity
  8
图框
370
    -3
100
AcDbLine
 10
1079.971361203936
 20
522.27220025775
 30
0.0
 11
1126.928502610363
 21
522.27220025775
 31
0.0
1001
AcDbBlockRepETag
1070
     1
1071
       99
1005
AE4
  0
LINE
  5
AE5
330
264
100
AcDbEntity
  8
图框
370
    -3
100
AcDbLine
 10
1079.971361203936
 20
513.5854547520641
 30
0.0
 11
1126.928502610363
 21
513.5854547520639
 31
0.0
1001
AcDbBlockRepETag
1070
     1
1071
      100
1005
AE5
  0
MTEXT
  5
AE6
330
264
100
AcDbEntity
  8
图框
100
AcDbMText
 10
1086.643735910939
 20
517.9288275049072
 30
0.0
 40
1.958998408821398
 41
13.34474941400573
 46
8.686745505685811
 71
     5
 72
     5
  1
产品代号\P{\Fromans|c134;Part Code}
 73
     1
 44
1.0
1001
AcDbBlockRepETag
1070
     1
1071
      101
1005
AE6
1001
ACAD
1000
ACAD_MTEXT_DEFINED_HEIGHT_BEGIN
1070
    46
1040
8.686745505685811
1000
ACAD_MTEXT_DEFINED_HEIGHT_END
  0
LINE
  5
AE7
330
264
100
AcDbEntity
  8
图框
370
    -3
100
AcDbLine
 10
946.9285026103634
 20
525.7982263931411
 30
0.0
 11
1036.653967466372
 21
525.7982263931411
 31
0.0
1001
AcDbBlockRepETag
1070
     1
1071
      102
1005
AE7
  0
LINE
  5
AE8
330
264
100
AcDbEntity
  8
图框
370
    -3
100
AcDbLine
 10
946.9285026103634
 20
520.2672851814959
 30
0.0
 11
1036.653967466372
 21
520.2672851814959
 31
0.0
1001
AcDbBlockRepETag
1070
     1
1071
      103
1005
AE8
  0
LINE
  5
AE9
330
264
100
AcDbEntity
  8
图框
370
    35
100
AcDbLine
 10
946.9285026103634
 20
531.3291676047914
 30
0.0
 11
1126.928502610363
 21
531.3291676047914
 31
0.0
1001
AcDbBlockRepETag
1070
     1
1071
      104
1005
AE9
  0
LINE
  5
AEA
330
264
100
AcDbEntity
  8
图框
370
    -3
100
AcDbLine
 10
990.6727612856927
 20
509.2054027581959
 30
0.0
 11
990.6727612856927
 21
484.0347692601515
 31
0.0
1001
AcDbBlockRepETag
1070
     1
1071
      105
1005
AEA
  0
MTEXT
  5
AEB
102
{ACAD_XDICTIONARY
360
AEC
102
}
330
264
100
AcDbEntity
  8
图框
100
AcDbMText
 10
997.1628169651232
 20
499.816589978722
 30
0.0
 40
2.252848170144607
 41
12.98011135886052
 46
6.19230880992475
 71
     5
 72
     5
  1
\pxsm0.7;{\fFangSong_GB2312|b0|i0|c134|p49;标准化}\PStand.
  7
Romans字体
 73
     1
 44
1.0
1001
AcDbBlockRepETag
1070
     1
1071
      106
1005
AEB
1001
ACAD
1000
ACAD_MTEXT_DEFINED_HEIGHT_BEGIN
1070
    46
1040
6.19230880992475
1000
ACAD_MTEXT_DEFINED_HEIGHT_END
  0
LINE
  5
AED
330
264
100
AcDbEntity
  8
图框
370
    -3
100
AcDbLine
 10
975.4103773808022
 20
509.2054027581959
 30
0.0
 11
975.4103773808022
 21
484.0347692601515
 31
0.0
1001
AcDbBlockRepETag
1070
     1
1071
      107
1005
AED
  0
MTEXT
  5
AEE
330
264
100
AcDbEntity
  8
图框
100
AcDbMText
 10
984.5089229802068
 20
511.9708733640202
 30
0.0
 40
2.448748011026752
 41
38.287899328693
 46
5.530941211648832
 71
     5
 72
     5
  1
  变更描述{\Fromans|c134;/Description}
 73
     1
 44
1.0
1001
AcDbBlockRepETag
1070
     1
1071
      108
1005
AEE
1001
ACAD
1000
ACAD_MTEXT_DEFINED_HEIGHT_BEGIN
1070
    46
1040
5.530941211648832
1000
ACAD_MTEXT_DEFINED_HEIGHT_END
  0
MTEXT
  5
AEF
102
{ACAD_XDICTIONARY
360
AF0
102
}
330
264
100
AcDbEntity
  8
图框
100
AcDbMText
 10
1012.466086049227
 20
511.9708733640202
 30
0.0
 40
1.958998408821398
 41
17.6264268093469
 46
5.530941211648825
 71
     5
 72
     5
  1
\pxsm0.7;签名\P{\Fromans|c134;Signature} 
 73
     1
 44
1.0
1001
AcDbBlockRepETag
1070
     1
1071
      109
1005
AEF
1001
ACAD
1000
ACAD_MTEXT_DEFINED_HEIGHT_BEGIN
1070
    46
1040
5.530941211648825
1000
ACAD_MTEXT_DEFINED_HEIGHT_END
  0
MTEXT
  5
AF1
102
{ACAD_XDICTIONARY
360
AF2
102
}
330
264
100
AcDbEntity
  8
图框
100
AcDbMText
 10
960.7558556394856
 20
511.9708733640202
 30
0.0
 40
1.958998408821398
 41
9.218235352749283
 46
5.530941211648841
 71
     5
 72
     5
  1
\pxsm0.7,qc;处数\P{\Fromans|c134;Number }
 73
     1
 44
1.0
1001
AcDbBlockRepETag
1070
     1
1071
      110
1005
AF1
1001
ACAD
1000
ACAD_MTEXT_DEFINED_HEIGHT_BEGIN
1070
    46
1040
5.530941211648841
1000
ACAD_MTEXT_DEFINED_HEIGHT_END
  0
LINE
  5
AF3
330
264
100
AcDbEntity
  8
图框
370
    -3
100
AcDbLine
 10
946.9285026103634
 20
514.7363439698449
 30
0.0
 11
1036.653967466372
 21
514.7363439698449
 31
0.0
1001
AcDbBlockRepETag
1070
     1
1071
      111
1005
AF3
  0
LINE
  5
AF4
330
264
100
AcDbEntity
  8
图框
370
    -3
100
AcDbLine
 10
946.9285026103634
 20
509.2054027581959
 30
0.0
 11
1036.653967466372
 21
509.2054027581959
 31
0.0
1001
AcDbBlockRepETag
1070
     1
1071
      112
1005
AF4
  0
LINE
  5
AF5
330
264
100
AcDbEntity
  8
图框
370
    -3
100
AcDbLine
 10
946.9285026103634
 20
502.9127443836848
 30
0.0
 11
1036.653967466372
 21
502.9127443836848
 31
0.0
1001
AcDbBlockRepETag
1070
     1
1071
      113
1005
AF5
  0
LINE
  5
AF6
330
264
100
AcDbEntity
  8
图框
370
    -3
100
AcDbLine
 10
946.9285026103634
 20
496.620086009173
 30
0.0
 11
1036.653967466372
 21
496.620086009173
 31
0.0
1001
AcDbBlockRepETag
1070
     1
1071
      114
1005
AF6
  0
LINE
  5
AF7
330
264
100
AcDbEntity
  8
图框
370
    35
380
     1
100
AcDbLine
 10
946.9285026103634
 20
531.3291676047914
 30
0.0
 11
946.9285026103634
 21
484.0347692601515
 31
0.0
1001
AcDbBlockRepETag
1070
     1
1071
      115
1005
AF7
  0
LINE
  5
AF8
330
264
100
AcDbEntity
  8
图框
370
    -3
100
AcDbLine
 10
1021.301636813399
 20
531.3291676047914
 30
0.0
 11
1021.301636813399
 21
484.0347692601515
 31
0.0
1001
AcDbBlockRepETag
1070
     1
1071
      116
1005
AF8
  0
LINE
  5
AF9
330
264
100
AcDbEntity
  8
图框
370
    -3
100
AcDbLine
 10
1003.652872644553
 20
531.3291676047914
 30
0.0
 11
1003.652872644553
 21
484.0347692601515
 31
0.0
1001
AcDbBlockRepETag
1070
     1
1071
      117
1005
AF9
  0
LINE
  5
AFA
330
264
100
AcDbEntity
  8
图框
370
    -3
100
AcDbLine
 10
965.3649733158603
 20
531.3291676047914
 30
0.0
 11
965.3649733158603
 21
509.2054027581959
 31
0.0
1001
AcDbBlockRepETag
1070
     1
1071
      118
1005
AFA
  0
LINE
  5
AFB
330
264
100
AcDbEntity
  8
图框
370
    -3
100
AcDbLine
 10
956.1467379631109
 20
531.3291676047914
 30
0.0
 11
956.1467379631109
 21
509.2054027581959
 31
0.0
1001
AcDbBlockRepETag
1070
     1
1071
      119
1005
AFB
  0
MTEXT
  5
AFC
102
{ACAD_XDICTIONARY
360
AFD
102
}
330
264
100
AcDbEntity
  8
图框
100
AcDbMText
 10
951.537620286737
 20
511.9708733640202
 30
0.0
 40
1.958998408821398
 41
9.218235352747692
 46
5.530941211648832
 71
     5
 72
     5
  1
\pxsm0.7;标记\P{\Fromans|c134;Mark}
 73
     1
 44
1.0
1001
AcDbBlockRepETag
1070
     1
1071
      120
1005
AFC
1001
ACAD
1000
ACAD_MTEXT_DEFINED_HEIGHT_BEGIN
1070
    46
1040
5.530941211648832
1000
ACAD_MTEXT_DEFINED_HEIGHT_END
  0
MTEXT
  5
AFE
102
{ACAD_XDICTIONARY
360
AFF
102
}
330
264
100
AcDbEntity
  8
图框
100
AcDbMText
 10
953.4185582897936
 20
493.4737568219182
 30
0.0
 40
2.252848170144607
 41
12.98011135886041
 46
6.292658374510382
 71
     5
 72
     5
  1
\pxsm0.7;审核\P{\Fromans|c134;Checked}
 73
     1
 44
1.0
1001
AcDbBlockRepETag
1070
     1
1071
      121
1005
AFE
1001
ACAD
1000
ACAD_MTEXT_DEFINED_HEIGHT_BEGIN
1070
    46
1040
6.292658374510382
1000
ACAD_MTEXT_DEFINED_HEIGHT_END
  0
MTEXT
  5
B00
102
{ACAD_XDICTIONARY
360
B01
102
}
330
264
100
AcDbEntity
  8
图框
100
AcDbMText
 10
953.4185582897936
 20
499.8775635376777
 30
0.0
 40
2.252848170144607
 41
12.98011135886041
 46
6.070361692014189
 71
     5
 72
     5
  1
\pxsm0.7;绘图\P{\Fromans|c134;Drawn\Ftxt|c134; }
 73
     1
 44
1.0
1001
AcDbBlockRepETag
1070
     1
1071
      122
1005
B00
1001
ACAD
1000
ACAD_MTEXT_DEFINED_HEIGHT_BEGIN
1070
    46
1040
6.070361692014189
1000
ACAD_MTEXT_DEFINED_HEIGHT_END
  0
ARC
  5
B02
330
264
100
AcDbEntity
  8
图框
 62
     4
370
    35
100
AcDbCircle
 10
1086.900627017421
 20
490.0179944151195
 30
0.0
 40
4.063310408393665
100
AcDbArc
 50
18.95237904564806
 51
161.0476209543519
1001
AcDbBlockRepETag
1070
     1
1071
      123
1005
B02
  0
ARC
  5
B03
330
264
100
AcDbEntity
  8
图框
 62
     4
370
    35
100
AcDbCircle
 10
1086.900627017421
 20
490.0179944151195
 30
0.0
 40
4.063310408393665
100
AcDbArc
 50
198.952379045648
 51
341.0476209543519
1001
AcDbBlockRepETag
1070
     1
1071
      124
1005
B03
  0
LINE
  5
B04
330
264
100
AcDbEntity
  8
图框
 62
     4
370
    35
100
AcDbLine
 10
1083.057593369548
 20
488.6983035966752
 30
0.0
 11
1090.74366066529
 21
488.6983035966752
 31
0.0
1001
AcDbBlockRepETag
1070
     1
1071
      125
1005
B04
  0
LINE
  5
B05
330
264
100
AcDbEntity
  8
图框
 62
     4
370
    35
100
AcDbLine
 10
1083.057593369548
 20
491.3376852335652
 30
0.0
 11
1090.74366066529
 21
491.3376852335652
 31
0.0
1001
AcDbBlockRepETag
1070
     1
1071
      126
1005
B05
  0
MTEXT
  5
B06
330
264
100
AcDbEntity
  8
图框
 62
     1
370
    20
100
AcDbMText
 10
1083.034582879669
 20
491.0506288081688
 30
0.0
 40
2.005930044038334
 41
5.047240019334847
 46
0.0
 71
     1
 72
     5
  1
{\fArial|b0|i0|c0|p34;W}
  7
Chinese
 73
     1
 44
1.0
1001
AcDbBlockRepETag
1070
     1
1071
      127
1005
B06
  0
LINE
  5
B07
330
264
100
AcDbEntity
  8
图框
370
    -3
100
AcDbLine
 10
946.9285026103634
 20
490.327427634663
 30
0.0
 11
1036.653967466372
 21
490.327427634663
 31
0.0
1001
AcDbBlockRepETag
1070
     1
1071
      128
1005
B07
  0
LINE
  5
B08
330
264
100
AcDbEntity
  8
图框
370
    -3
100
AcDbLine
 10
959.9086139692238
 20
509.2054027581959
 30
0.0
 11
959.9086139692238
 21
484.0347692601515
 31
0.0
1001
AcDbBlockRepETag
1070
     1
1071
      129
1005
B08
  0
MTEXT
  5
B09
330
264
100
AcDbEntity
  8
图框
100
AcDbMText
 10
967.6594956750129
 20
506.0590735709403
 30
0.0
 40
2.252848170144607
 41
15.50176341157869
 46
6.292658374511246
 71
     5
 72
     5
  1
姓名{\Fromans|c134;/Name\Ftxt|c134; }
 73
     1
 44
1.0
1001
AcDbBlockRepETag
1070
     1
1071
      130
1005
B09
1001
ACAD
1000
ACAD_MTEXT_DEFINED_HEIGHT_BEGIN
1070
    46
1040
6.292658374511246
1000
ACAD_MTEXT_DEFINED_HEIGHT_END
  0
MTEXT
  5
B0A
330
264
100
AcDbEntity
  8
图框
100
AcDbMText
 10
983.0415693332477
 20
506.0590735709403
 30
0.0
 40
2.252848170144607
 41
15.26238390489042
 46
6.2926583745112
 71
     5
 72
     5
  1
日期{\Fromans|c134;/Date}
 73
     1
 44
1.0
1001
AcDbBlockRepETag
1070
     1
1071
      131
1005
B0A
1001
ACAD
1000
ACAD_MTEXT_DEFINED_HEIGHT_BEGIN
1070
    46
1040
6.2926583745112
1000
ACAD_MTEXT_DEFINED_HEIGHT_END
  0
LINE
  5
B0B
330
264
100
AcDbEntity
  8
图框
370
    -3
100
AcDbLine
 10
946.9285026103634
 20
509.2054027581959
 30
0.0
 11
959.9086139692238
 21
502.9127443836848
 31
0.0
1001
AcDbBlockRepETag
1070
     1
1071
      132
1005
B0B
  0
MTEXT
  5
B0C
330
264
100
AcDbEntity
  8
图框
100
AcDbMText
 10
1012.931405110086
 20
506.0185715840725
 30
0.0
 40
2.252848170144607
 41
16.93492221063566
 46
0.0
 71
     5
 72
     5
  1
姓名{\Fromans|c134;/Name}
 73
     1
 44
1.0
1001
AcDbBlockRepETag
1070
     1
1071
      133
1005
B0C
  0
MTEXT
  5
B0D
330
264
100
AcDbEntity
  8
图框
100
AcDbMText
 10
1028.977802139886
 20
506.0590735709403
 30
0.0
 40
2.252848170144607
 41
15.35233065297283
 46
6.292658374511256
 71
     5
 72
     5
  1
日期{\Fromans|c134;/Date}
 73
     1
 44
1.0
1001
AcDbBlockRepETag
1070
     1
1071
      134
1005
B0D
1001
ACAD
1000
ACAD_MTEXT_DEFINED_HEIGHT_BEGIN
1070
    46
1040
6.292658374511256
1000
ACAD_MTEXT_DEFINED_HEIGHT_END
  0
LINE
  5
B0E
330
264
100
AcDbEntity
  8
图框
370
    -3
100
AcDbLine
 10
1003.652872644553
 20
502.9127443836848
 30
0.0
 11
990.6727612856927
 21
509.2054027581959
 31
0.0
1001
AcDbBlockRepETag
1070
     1
1071
      135
1005
B0E
  0
MTEXT
  5
B0F
102
{ACAD_XDICTIONARY
360
B10
102
}
330
264
100
AcDbEntity
  8
图框
100
AcDbMText
 10
997.1628169651232
 20
487.1810984474071
 30
0.0
 40
2.252848170144607
 41
12.98011135886052
 46
6.292658374511517
 71
     5
 72
     5
  1
\pxsm0.7;批准\P{\Fromans|c134;Approved}
 73
     1
 44
1.0
1001
AcDbBlockRepETag
1070
     1
1071
      136
1005
B0F
1001
ACAD
1000
ACAD_MTEXT_DEFINED_HEIGHT_BEGIN
1070
    46
1040
6.292658374511517
1000
ACAD_MTEXT_DEFINED_HEIGHT_END
  0
MTEXT
  5
B11
102
{ACAD_XDICTIONARY
360
B12
102
}
330
264
100
AcDbEntity
  8
图框
100
AcDbMText
 10
953.4185582897936
 20
487.1810984474071
 30
0.0
 40
2.252848170144607
 41
12.98011135886041
 46
6.292658374511495
 71
     5
 72
     5
  1
\pxsm0.7;工艺\P{\Fromans|c134;Process}
 73
     1
 44
1.0
1001
AcDbBlockRepETag
1070
     1
1071
      137
1005
B11
1001
ACAD
1000
ACAD_MTEXT_DEFINED_HEIGHT_BEGIN
1070
    46
1040
6.292658374511495
1000
ACAD_MTEXT_DEFINED_HEIGHT_END
  0
MTEXT
  5
B13
102
{ACAD_XDICTIONARY
360
B14
102
}
330
264
100
AcDbEntity
  8
图框
100
AcDbMText
 10
1028.977802139886
 20
511.8287965307664
 30
0.0
 40
1.958998408821398
 41
15.3523306529728
 46
5.246787545140668
 71
     5
 72
     5
  1
\pxsm0.7;日期\P{\Fromans|c134;Date}
 73
     1
 44
1.0
1001
AcDbBlockRepETag
1070
     1
1071
      138
1005
B13
1001
ACAD
1000
ACAD_MTEXT_DEFINED_HEIGHT_BEGIN
1070
    46
1040
5.246787545140668
1000
ACAD_MTEXT_DEFINED_HEIGHT_END
  0
MTEXT
  5
B15
330
264
100
AcDbEntity
  8
图框
100
AcDbMText
 10
1086.643735910939
 20
509.1493769780809
 30
0.0
 40
2.154898249703542
 41
13.34474941400573
 46
8.87215554796615
 71
     5
 72
     5
  1
产品料号\P{\Fromans|c134;Part No.}
 73
     1
 44
1.0
1001
AcDbBlockRepETag
1070
     1
1071
      139
1005
B15
1001
ACAD
1000
ACAD_MTEXT_DEFINED_HEIGHT_BEGIN
1070
    46
1040
8.87215554796615
1000
ACAD_MTEXT_DEFINED_HEIGHT_END
  0
MTEXT
  5
B16
330
264
100
AcDbEntity
  8
图框
100
AcDbMText
 10
1086.643735910939
 20
500.2775205517163
 30
0.0
 40
1.958998408821398
 41
13.34474941400573
 46
8.871557304763321
 71
     5
 72
     5
  1
产品名称\P{\Fromans|c134;Part Name}
 73
     1
 44
1.0
1001
AcDbBlockRepETag
1070
     1
1071
      140
1005
B16
1001
ACAD
1000
ACAD_MTEXT_DEFINED_HEIGHT_BEGIN
1070
    46
1040
8.871557304763321
1000
ACAD_MTEXT_DEFINED_HEIGHT_END
  0
LINE
  5
B17
330
264
100
AcDbEntity
  8
图框
 62
     1
370
    18
100
AcDbLine
 10
833.4128518455365
 20
690.5347692601515
 30
0.0
 11
833.4128518455365
 21
480.5347692601515
 31
0.0
1001
AcDbBlockRepETag
1070
     1
1071
      141
1005
B17
  0
LINE
  5
B18
330
264
100
AcDbEntity
  8
图框
 62
     1
370
    18
100
AcDbLine
 10
833.4128518455365
 20
480.5347692601515
 30
0.0
 11
1130.411601781236
 21
480.5347692601515
 31
0.0
1001
AcDbBlockRepETag
1070
     1
1071
      142
1005
B18
  0
LINE
  5
B19
330
264
100
AcDbEntity
  8
图框
 62
     1
370
    18
100
AcDbLine
 10
833.4128518455365
 20
690.5347692601515
 30
0.0
 11
1130.411601781236
 21
690.5347692601515
 31
0.0
1001
AcDbBlockRepETag
1070
     1
1071
      143
1005
B19
  0
LINE
  5
B1A
330
264
100
AcDbEntity
  8
图框
 62
     1
370
    18
100
AcDbLine
 10
1130.411601781236
 20
480.5347692601515
 30
0.0
 11
1130.411601781236
 21
690.5347692601515
 31
0.0
1001
AcDbBlockRepETag
1070
     1
1071
      144
1005
B1A
  0
LINE
  5
B1B
330
264
100
AcDbEntity
  8
图框
370
    18
100
AcDbLine
 10
836.9128518455394
 20
686.7901958362482
 30
0.0
 11
861.5351874539182
 21
686.7901958362482
 31
0.0
1001
AcDbBlockRepETag
1070
     1
1071
      145
1005
B1B
  0
LINE
  5
B1C
330
264
100
AcDbEntity
  8
图框
370
    50
100
AcDbLine
 10
1126.928502610363
 20
484.3410054693078
 30
0.0
 11
1126.928502610363
 21
675.5347692601515
 31
0.0
1001
AcDbBlockRepETag
1070
     1
1071
      146
1005
B1C
  0
MTEXT
  5
B1D
330
264
100
AcDbEntity
  8
图框
 62
     3
100
AcDbMText
 10
1052.897990117958
 20
495.8417418993364
 30
0.0
 40
2.985513575034151
 41
10.82934843439114
 46
7.886094601211307
 71
     5
 72
     5
  1
V1.1
  7
Romans字体
 73
     1
 44
1.0
1001
AcDbBlockRepETag
1070
     1
1071
      147
1005
B1D
1001
ACAD
1000
ACAD_MTEXT_DEFINED_HEIGHT_BEGIN
1070
    46
1040
7.886094601211307
1000
ACAD_MTEXT_DEFINED_HEIGHT_END
  0
LINE
  5
B1E
330
264
100
AcDbEntity
  8
图框
 62
     6
100
AcDbLine
 10
1126.911601781236
 20
531.714049199969
 30
0.0
 11
1130.411601781236
 21
531.714049199969
 31
0.0
1001
AcDbBlockRepETag
1070
     1
1071
      148
1005
B1E
  0
ENDBLK
  5
2FC
330
264
100
AcDbEntity
  8
0
100
AcDbBlockEnd
  0
BLOCK
  5
654
330
653
100
AcDbEntity
  8
0
100
AcDbBlockBegin
  2
*D2
 70
     1
 10
0.0
 20
0.0
 30
0.0
  3
*D2
  1

  0
LINE
  5
97B
330
653
100
AcDbEntity
  8
DIM
 62
     1
370
    -2
100
AcDbLine
 10
745.9541957975067
 20
230.089790966348
 30
0.0
 11
743.168481511792
 21
230.089790966348
 31
0.0
  0
LINE
  5
97C
330
653
100
AcDbEntity
  8
DIM
 62
     1
370
    -2
100
AcDbLine
 10
743.168481511792
 20
230.089790966348
 30
0.0
 11
741.9056322284371
 21
225.5313613057458
 31
0.0
  0
MTEXT
  5
97D
102
{ACAD_XDICTIONARY
360
A59
102
}
330
653
100
AcDbEntity
  8
DIM
 62
     4
100
AcDbMText
 10
744.8113386546498
 20
231.5897909663482
 30
0.0
 40
2.0
 41
0.0
 46
0.0
 71
     5
 72
     1
  1
\A1;∅9
  7
Romans字体
 73
     1
 44
1.0
  0
SOLID
  5
97E
330
653
100
AcDbEntity
  8
DIM
 62
     1
100
AcDbTrace
 10
741.6647067239007
 20
225.5981063524831
 30
0.0
 11
742.1465577329731
 21
225.4646162590085
 31
0.0
 12
741.5051619480133
 22
224.0858082785285
 32
0.0
 13
741.5051619480133
 23
224.0858082785285
 33
0.0
  0
POINT
  5
97F
330
653
100
AcDbEntity
  8
Defpoints
 62
     0
100
AcDbPoint
 10
741.5051619480133
 20
224.0858082785285
 30
0.0
  0
POINT
  5
980
330
653
100
AcDbEntity
  8
Defpoints
 62
     0
100
AcDbPoint
 10
739.1023426682927
 20
215.4124987885427
 30
0.0
  0
ENDBLK
  5
655
330
653
100
AcDbEntity
  8
0
100
AcDbBlockEnd
  0
BLOCK
  5
65D
330
65C
100
AcDbEntity
  8
0
100
AcDbBlockBegin
  2
*D3
 70
     1
 10
0.0
 20
0.0
 30
0.0
  3
*D3
  1

  0
LINE
  5
957
330
65C
100
AcDbEntity
  8
DIM
 62
     6
440
 16777216
370
    -2
100
AcDbLine
 10
761.4564663574427
 20
224.6491486335358
 30
0.0
 11
757.1258752469077
 21
224.6491486335358
 31
0.0
  0
LINE
  5
958
330
65C
100
AcDbEntity
  8
DIM
 62
     6
440
 16777216
370
    -2
100
AcDbLine
 10
760.4064674074423
 20
214.8491584335357
 30
0.0
 11
757.1258752469077
 21
214.8491584335357
 31
0.0
  0
LINE
  5
959
330
65C
100
AcDbEntity
  8
DIM
 62
     1
440
 16777216
370
    -2
100
AcDbLine
 10
757.6258752469077
 20
223.1491486335358
 30
0.0
 11
757.6258752469077
 21
216.3491584335357
 31
0.0
  0
SOLID
  5
95A
330
65C
100
AcDbEntity
  8
DIM
 62
     1
440
 16777216
100
AcDbTrace
 10
757.3758752469077
 20
223.1491486335358
 30
0.0
 11
757.8758752469077
 21
223.1491486335358
 31
0.0
 12
757.6258752469077
 22
224.6491486335358
 32
0.0
 13
757.6258752469077
 23
224.6491486335358
 33
0.0
  0
SOLID
  5
95B
330
65C
100
AcDbEntity
  8
DIM
 62
     1
440
 16777216
100
AcDbTrace
 10
757.3758752469077
 20
216.3491584335357
 30
0.0
 11
757.8758752469077
 21
216.3491584335357
 31
0.0
 12
757.6258752469077
 22
214.8491584335357
 32
0.0
 13
757.6258752469077
 23
214.8491584335357
 33
0.0
  0
MTEXT
  5
95C
330
65C
100
AcDbEntity
  8
DIM
 62
     4
440
 16777216
100
AcDbMText
 10
756.1258752469077
 20
219.7491535335359
 30
0.0
 40
2.0
 41
0.0
 46
0.0
 71
     5
 72
     1
  1
\A1;%%C9.8
  7
Romans字体
 11
0.0000000000000001
 21
1.0
 31
0.0
 73
     1
 44
1.0
  0
POINT
  5
95D
330
65C
100
AcDbEntity
  8
Defpoints
 62
     0
440
 16777216
100
AcDbPoint
 10
761.6564663574429
 20
224.6491486335358
 30
0.0
  0
POINT
  5
95E
330
65C
100
AcDbEntity
  8
Defpoints
 62
     0
440
 16777216
100
AcDbPoint
 10
760.6064674074423
 20
214.8491584335357
 30
0.0
  0
POINT
  5
95F
330
65C
100
AcDbEntity
  8
Defpoints
 62
     0
440
 16777216
100
AcDbPoint
 10
757.6258752469077
 20
214.8491584335357
 30
0.0
  0
ENDBLK
  5
65E
330
65C
100
AcDbEntity
  8
0
100
AcDbBlockEnd
  0
BLOCK
  5
677
330
676
100
AcDbEntity
  8
0
100
AcDbBlockBegin
  2
*D4
 70
     1
 10
0.0
 20
0.0
 30
0.0
  3
*D4
  1

  0
LINE
  5
960
330
676
100
AcDbEntity
  8
DIM
 62
     6
440
 16777216
370
    -2
100
AcDbLine
 10
760.0064680074431
 20
215.7538778820239
 30
0.0
 11
760.0064680074431
 21
209.6271317566908
 31
0.0
  0
LINE
  5
961
330
676
100
AcDbEntity
  8
DIM
 62
     6
440
 16777216
370
    -2
100
AcDbLine
 10
767.8064602074429
 20
215.7538778820239
 30
0.0
 11
767.8064602074429
 21
209.6271317566908
 31
0.0
  0
LINE
  5
962
330
676
100
AcDbEntity
  8
DIM
 62
     1
440
 16777216
370
    -2
100
AcDbLine
 10
761.5064680074431
 20
210.1271317566908
 30
0.0
 11
766.3064602074427
 21
210.1271317566908
 31
0.0
  0
SOLID
  5
963
330
676
100
AcDbEntity
  8
DIM
 62
     1
440
 16777216
100
AcDbTrace
 10
761.5064680074431
 20
210.3771317566908
 30
0.0
 11
761.5064680074431
 21
209.8771317566908
 31
0.0
 12
760.0064680074431
 22
210.1271317566908
 32
0.0
 13
760.0064680074431
 23
210.1271317566908
 33
0.0
  0
SOLID
  5
964
330
676
100
AcDbEntity
  8
DIM
 62
     1
440
 16777216
100
AcDbTrace
 10
766.3064602074427
 20
210.3771317566908
 30
0.0
 11
766.3064602074427
 21
209.8771317566908
 31
0.0
 12
767.8064602074429
 22
210.1271317566908
 32
0.0
 13
767.8064602074429
 23
210.1271317566908
 33
0.0
  0
MTEXT
  5
965
330
676
100
AcDbEntity
  8
DIM
 62
     4
440
 16777216
100
AcDbMText
 10
763.9064641074431
 20
211.6271317566908
 30
0.0
 40
2.0
 41
0.0
 46
0.0
 71
     5
 72
     1
  1
\A1;7.8
  7
Romans字体
 73
     1
 44
1.0
  0
POINT
  5
966
330
676
100
AcDbEntity
  8
Defpoints
 62
     0
440
 16777216
100
AcDbPoint
 10
760.0064680074431
 20
215.9538778820238
 30
0.0
  0
POINT
  5
967
330
676
100
AcDbEntity
  8
Defpoints
 62
     0
440
 16777216
100
AcDbPoint
 10
767.8064602074429
 20
215.9538778820238
 30
0.0
  0
POINT
  5
968
330
676
100
AcDbEntity
  8
Defpoints
 62
     0
440
 16777216
100
AcDbPoint
 10
767.8064602074429
 20
210.1271317566908
 30
0.0
  0
ENDBLK
  5
678
330
676
100
AcDbEntity
  8
0
100
AcDbBlockEnd
  0
BLOCK
  5
691
330
690
100
AcDbEntity
  8
0
100
AcDbBlockBegin
  2
*D5
 70
     1
 10
0.0
 20
0.0
 30
0.0
  3
*D5
  1

  0
LINE
  5
969
330
690
100
AcDbEntity
  8
DIM
 62
     6
440
 16777216
370
    -2
100
AcDbLine
 10
760.0064680074431
 20
212.0096681323433
 30
0.0
 11
760.0064680074431
 21
206.1073572415542
 31
0.0
  0
LINE
  5
96A
330
690
100
AcDbEntity
  8
DIM
 62
     6
440
 16777216
370
    -2
100
AcDbLine
 10
785.8064422074432
 20
218.0145797942881
 30
0.0
 11
785.8064422074432
 21
206.1073572415542
 31
0.0
  0
LINE
  5
96B
330
690
100
AcDbEntity
  8
DIM
 62
     1
440
 16777216
370
    -2
100
AcDbLine
 10
761.5064680074431
 20
206.6073572415542
 30
0.0
 11
784.3064422074432
 21
206.6073572415542
 31
0.0
  0
SOLID
  5
96C
330
690
100
AcDbEntity
  8
DIM
 62
     1
440
 16777216
100
AcDbTrace
 10
761.5064680074431
 20
206.8573572415542
 30
0.0
 11
761.5064680074431
 21
206.3573572415542
 31
0.0
 12
760.0064680074431
 22
206.6073572415542
 32
0.0
 13
760.0064680074431
 23
206.6073572415542
 33
0.0
  0
SOLID
  5
96D
330
690
100
AcDbEntity
  8
DIM
 62
     1
440
 16777216
100
AcDbTrace
 10
784.3064422074432
 20
206.8573572415542
 30
0.0
 11
784.3064422074432
 21
206.3573572415542
 31
0.0
 12
785.8064422074432
 22
206.6073572415542
 32
0.0
 13
785.8064422074432
 23
206.6073572415542
 33
0.0
  0
MTEXT
  5
96E
330
690
100
AcDbEntity
  8
DIM
 62
     4
440
 16777216
100
AcDbMText
 10
772.9064551074432
 20
208.1073572415542
 30
0.0
 40
2.0
 41
0.0
 46
0.0
 71
     5
 72
     1
  1
\A1;25.8
  7
Romans字体
 73
     1
 44
1.0
  0
POINT
  5
96F
330
690
100
AcDbEntity
  8
Defpoints
 62
     0
440
 16777216
100
AcDbPoint
 10
760.0064680074431
 20
212.2096681323433
 30
0.0
  0
POINT
  5
970
330
690
100
AcDbEntity
  8
Defpoints
 62
     0
440
 16777216
100
AcDbPoint
 10
785.8064422074432
 20
218.2145797942881
 30
0.0
  0
POINT
  5
971
330
690
100
AcDbEntity
  8
Defpoints
 62
     0
440
 16777216
100
AcDbPoint
 10
785.8064422074432
 20
206.6073572415542
 30
0.0
  0
ENDBLK
  5
692
330
690
100
AcDbEntity
  8
0
100
AcDbBlockEnd
  0
BLOCK
  5
69E
330
69D
100
AcDbEntity
  8
0
100
AcDbBlockBegin
  2
*D6
 70
     1
 10
0.0
 20
0.0
 30
0.0
  3
*D6
  1

  0
LINE
  5
972
330
69D
100
AcDbEntity
  8
DIM
 62
     6
440
 16777216
370
    -2
100
AcDbLine
 10
778.2064500074425
 20
223.2991499835358
 30
0.0
 11
791.6665106738928
 21
223.2991499835358
 31
0.0
  0
LINE
  5
973
330
69D
100
AcDbEntity
  8
DIM
 62
     6
440
 16777216
370
    -2
100
AcDbLine
 10
778.2064500074425
 20
216.1991570835358
 30
0.0
 11
791.6665106738928
 21
216.1991570835358
 31
0.0
  0
LINE
  5
974
330
69D
100
AcDbEntity
  8
DIM
 62
     1
440
 16777216
370
    -2
100
AcDbLine
 10
791.1665106738928
 20
221.7991499835358
 30
0.0
 11
791.1665106738928
 21
217.6991570835358
 31
0.0
  0
SOLID
  5
975
330
69D
100
AcDbEntity
  8
DIM
 62
     1
440
 16777216
100
AcDbTrace
 10
790.9165106738928
 20
221.7991499835358
 30
0.0
 11
791.4165106738928
 21
221.7991499835358
 31
0.0
 12
791.1665106738928
 22
223.2991499835358
 32
0.0
 13
791.1665106738928
 23
223.2991499835358
 33
0.0
  0
SOLID
  5
976
330
69D
100
AcDbEntity
  8
DIM
 62
     1
440
 16777216
100
AcDbTrace
 10
790.9165106738928
 20
217.6991570835358
 30
0.0
 11
791.4165106738928
 21
217.6991570835358
 31
0.0
 12
791.1665106738928
 22
216.1991570835358
 32
0.0
 13
791.1665106738928
 23
216.1991570835358
 33
0.0
  0
MTEXT
  5
977
330
69D
100
AcDbEntity
  8
DIM
 62
     4
440
 16777216
100
AcDbMText
 10
789.6665106738928
 20
219.7491535335359
 30
0.0
 40
2.0
 41
0.0
 46
0.0
 71
     5
 72
     1
  1
\A1;%%C7.1
  7
Romans字体
 11
0.0000000000000001
 21
1.0
 31
0.0
 73
     1
 44
1.0
  0
POINT
  5
978
330
69D
100
AcDbEntity
  8
Defpoints
 62
     0
440
 16777216
100
AcDbPoint
 10
778.0064500074423
 20
223.2991499835358
 30
0.0
  0
POINT
  5
979
330
69D
100
AcDbEntity
  8
Defpoints
 62
     0
440
 16777216
100
AcDbPoint
 10
778.0064500074423
 20
216.1991570835358
 30
0.0
  0
POINT
  5
97A
330
69D
100
AcDbEntity
  8
Defpoints
 62
     0
440
 16777216
100
AcDbPoint
 10
791.1665106738928
 20
216.1991570835358
 30
0.0
  0
ENDBLK
  5
69F
330
69D
100
AcDbEntity
  8
0
100
AcDbBlockEnd
  0
BLOCK
  5
B3F
330
B3E
100
AcDbEntity
  8
0
100
AcDbBlockBegin
  2
*D7
 70
     1
 10
0.0
 20
0.0
 30
0.0
  3
*D7
  1

  0
LINE
  5
B67
330
B3E
100
AcDbEntity
  8
DIM
 62
     6
440
 16777216
370
    -2
100
AcDbLine
 10
768.0064598074436
 20
214.0491592335356
 30
0.0
 11
753.2638407168819
 21
214.0491592335356
 31
0.0
  0
LINE
  5
B68
330
B3E
100
AcDbEntity
  8
DIM
 62
     6
440
 16777216
370
    -2
100
AcDbLine
 10
768.0064598074436
 20
225.4491478335356
 30
0.0
 11
753.2638407168819
 21
225.4491478335356
 31
0.0
  0
LINE
  5
B69
330
B3E
100
AcDbEntity
  8
DIM
 62
     1
440
 16777216
370
    -2
100
AcDbLine
 10
753.7638407168818
 20
215.5491592335355
 30
0.0
 11
753.7638407168818
 21
223.9491478335355
 31
0.0
  0
SOLID
  5
B6A
330
B3E
100
AcDbEntity
  8
DIM
 62
     1
440
 16777216
100
AcDbTrace
 10
753.5138407168822
 20
215.5491592335355
 30
0.0
 11
754.0138407168821
 21
215.5491592335355
 31
0.0
 12
753.7638407168818
 22
214.0491592335356
 32
0.0
 13
753.7638407168818
 23
214.0491592335356
 33
0.0
  0
SOLID
  5
B6B
330
B3E
100
AcDbEntity
  8
DIM
 62
     1
440
 16777216
100
AcDbTrace
 10
753.5138407168822
 20
223.9491478335355
 30
0.0
 11
754.0138407168821
 21
223.9491478335355
 31
0.0
 12
753.7638407168818
 22
225.4491478335356
 32
0.0
 13
753.7638407168818
 23
225.4491478335356
 33
0.0
  0
MTEXT
  5
B6C
330
B3E
100
AcDbEntity
  8
DIM
 62
     4
440
 16777216
100
AcDbMText
 10
752.263840716882
 20
219.7491535335353
 30
0.0
 40
2.0
 41
0.0
 46
0.0
 71
     5
 72
     1
  1
\A1;%%C11.4
  7
Romans字体
 11
0.0000000000000001
 21
1.0
 31
0.0
 73
     1
 44
1.0
  0
POINT
  5
B6D
330
B3E
100
AcDbEntity
  8
Defpoints
 62
     0
440
 16777216
100
AcDbPoint
 10
768.2064598074437
 20
214.0491592335356
 30
0.0
  0
POINT
  5
B6E
330
B3E
100
AcDbEntity
  8
Defpoints
 62
     0
440
 16777216
100
AcDbPoint
 10
768.2064598074437
 20
225.4491478335356
 30
0.0
  0
POINT
  5
B6F
330
B3E
100
AcDbEntity
  8
Defpoints
 62
     0
440
 16777216
100
AcDbPoint
 10
753.7638407168818
 20
225.4491478335356
 30
0.0
  0
ENDBLK
  5
B40
330
B3E
100
AcDbEntity
  8
0
100
AcDbBlockEnd
  0
ENDSEC
  0
SECTION
  2
ENTITIES
  0
MTEXT
  5
E6
102
{ACAD_XDICTIONARY
360
A30
102
}
330
2
100
AcDbEntity
  8
打标文字
 62
     3
100
AcDbMText
 10
811.8140900906727
 20
228.5996099728439
 30
0.0
 40
1.5
 41
43.12740902174064
 46
53.91180554791946
 71
     1
 72
     5
  3
\A1;\pxql;{\f仿宋_GB2312|b0|i0|c134|p49;技术参数}:\P\pq*;- {\f仿宋_GB2312|b0|i0|c134|p49;材料}: {\f仿宋_GB2312|b0|i0|c134|p49;聚甲醛}\P- {\f仿宋_GB2312|b0|i0|c134|p49;颜色}: {\f仿宋_GB2312|b0|i0|c134|p49;黑色}\P- {\f仿宋_GB2312|b0|i0|c134|p49;软管内径}: 6.0mm/ 1/4"\P\pql;- {\f仿宋
  3
_GB2312|b0|i0|c134|p49;工作压力}: {\f仿宋_GB2312|b0|i0|c134|p49;最大} 8 bar/116 psi\P- {\f仿宋_GB2312|b0|i0|c134|p49;密封圈材料}: {\f仿宋_GB2312|b0|i0|c134|p49;氟橡胶}\P\pq*;- {\f仿宋_GB2312|b0|i0|c134|p49;可插拔次数}: {\f仿宋_GB2312|b0|i0|c134|p49;≥}500\P\P\pql;Technical specif
  1
ication:\P- Material: delrin acetal\P- Colour: black\P\pq*;- Tube termination: \P  Internal diameter(ID)6.0mm/ 1/4"\P\pql;- Working pressure: up to 8 bar/116 psi\P- Sealing material: FPM\P- Mating cycles: {\f仿宋_GB2312|b0|i0|c134|p49;≥}500
  7
Romans字体
 73
     1
 44
1.0
1001
ACAD
1000
ACAD_MTEXT_DEFINED_HEIGHT_BEGIN
1070
    46
1040
53.91180554791946
1000
ACAD_MTEXT_DEFINED_HEIGHT_END
  0
MTEXT
  5
309
330
2
100
AcDbEntity
  8
图框
 62
     3
100
AcDbMText
 10
843.9030534867272
 20
172.4178698465939
 30
0.0
 40
1.492756789270166
 41
16.80619601594785
 46
4.436077779192768
 71
     5
 72
     5
  1
1011000010004
  7
Romans字体
 73
     1
 44
1.0
1001
ACAD
1000
ACAD_MTEXT_DEFINED_HEIGHT_BEGIN
1070
    46
1040
4.436077779192768
1000
ACAD_MTEXT_DEFINED_HEIGHT_END
  0
INSERT
  5
30A
330
2
100
AcDbEntity
  8
DIM
100
AcDbBlockReference
  2
A4图框-NEW
 10
288.8418995277883
 20
-82.15681894141829
 30
0.0
 41
0.5
 42
0.5
 43
0.5
  0
MTEXT
  5
30B
330
2
100
AcDbEntity
  8
图框
 62
     3
100
AcDbMText
 10
820.7055691249598
 20
165.764052159038
 30
0.0
 40
1.492756789270166
 41
5.414673575202384
 46
3.943047602182616
 71
     5
 72
     5
  1
1.4g
  7
Romans字体
 73
     1
 44
1.0
1001
ACAD
1000
ACAD_MTEXT_DEFINED_HEIGHT_BEGIN
1070
    46
1040
3.943047602182616
1000
ACAD_MTEXT_DEFINED_HEIGHT_END
  0
MTEXT
  5
30C
330
2
100
AcDbEntity
  8
图框
 62
     3
100
AcDbMText
 10
809.8762203695715
 20
165.7640520082494
 30
0.0
 40
1.492756787517073
 41
5.414674217195232
 46
3.943047300605248
 71
     5
 72
     5
  1
2:1
  7
Romans字体
 73
     1
 44
1.0
1001
ACAD
1000
ACAD_MTEXT_DEFINED_HEIGHT_BEGIN
1070
    46
1040
3.943047300605248
1000
ACAD_MTEXT_DEFINED_HEIGHT_END
  0
MTEXT
  5
30D
330
2
100
AcDbEntity
  8
图框
 62
     3
100
AcDbMText
 10
843.9030528348641
 20
176.8075948110354
 30
0.0
 40
1.492756787517073
 41
16.80619599621068
 46
4.343372752842928
 71
     5
 72
     5
  1
PCM-6.0
  7
Romans字体
 73
     1
 44
1.0
1001
ACAD
1000
ACAD_MTEXT_DEFINED_HEIGHT_BEGIN
1070
    46
1040
4.343372752842928
1000
ACAD_MTEXT_DEFINED_HEIGHT_END
  0
LINE
  5
595
330
2
100
AcDbEntity
  8
0
100
AcDbLine
 10
722.2414477970017
 20
183.4782758918521
 30
0.0
 11
721.9999760139022
 21
183.1108791650521
 31
0.0
  0
LINE
  5
596
330
2
100
AcDbEntity
  8
0
100
AcDbLine
 10
720.4527647293022
 20
177.9832096655522
 30
0.0
 11
720.5895054015022
 21
176.7127713002523
 31
0.0
  0
LINE
  5
597
330
2
100
AcDbEntity
  8
0
100
AcDbLine
 10
716.124384824902
 20
169.0924303584524
 30
0.0
 11
717.3981287560024
 21
172.1681166162525
 31
0.0
  0
LINE
  5
598
330
2
100
AcDbEntity
  8
0
100
AcDbLine
 10
726.5803501707019
 20
188.6233134436524
 30
0.0
 11
725.5661686816027
 21
187.0802471912525
 31
0.0
  0
LINE
  5
599
330
2
100
AcDbEntity
  8
0
100
AcDbLine
 10
724.8793108921022
 20
186.0352004351525
 30
0.0
 11
723.1031564939017
 21
183.3328005782523
 31
0.0
  0
LINE
  5
59A
330
2
100
AcDbEntity
  8
0
100
AcDbLine
 10
720.9801125675016
 20
179.3498001185525
 30
0.0
 11
721.2212221222023
 21
177.1096851358524
 31
0.0
  0
LINE
  5
59B
330
2
100
AcDbEntity
  8
0
100
AcDbLine
 10
717.9424199255024
 20
171.8432326004522
 30
0.0
 11
719.2333143075026
 21
174.9603317396521
 31
0.0
  0
LINE
  5
59C
330
2
100
AcDbEntity
  8
0
100
AcDbLine
 10
719.7632820253024
 20
174.6439973032524
 30
0.0
 11
720.6068414857022
 21
176.6809249594525
 31
0.0
  0
LINE
  5
59D
330
2
100
AcDbEntity
  8
0
100
AcDbLine
 10
722.2398104471028
 20
180.4716382428523
 30
0.0
 11
721.253870067902
 21
178.9715405359524
 31
0.0
  0
LINE
  5
59E
330
2
100
AcDbEntity
  8
0
100
AcDbLine
 10
723.3359933900024
 20
173.9599728537523
 30
0.0
 11
725.2793902286024
 21
173.1454942879522
 31
0.0
  0
LINE
  5
59F
330
2
100
AcDbEntity
  8
0
100
AcDbLine
 10
723.1738657338024
 20
175.1525550398523
 30
0.0
 11
726.6005824437021
 21
173.7164163903521
 31
0.0
  0
LINE
  5
5A0
330
2
100
AcDbEntity
  8
0
100
AcDbLine
 10
730.5735275611017
 20
187.6839970960521
 30
0.0
 11
729.8974065684021
 21
186.6552862611524
 31
0.0
  0
LINE
  5
5A1
330
2
100
AcDbEntity
  8
0
100
AcDbLine
 10
729.9142271220022
 20
185.9123011311521
 30
0.0
 11
730.4425802867022
 21
186.7161848015521
 31
0.0
  0
LINE
  5
5A2
330
2
100
AcDbEntity
  8
0
100
AcDbLine
 10
730.7365210395024
 20
186.1696475983521
 30
0.0
 11
730.3457248418022
 21
185.5750553771521
 31
0.0
  0
LINE
  5
5A3
330
2
100
AcDbEntity
  8
0
100
AcDbLine
 10
731.2851298228021
 20
185.7222463653524
 30
0.0
 11
731.4871603967018
 21
186.0296337155523
 31
0.0
  0
LINE
  5
5A4
330
2
100
AcDbEntity
  8
0
100
AcDbLine
 10
728.2965066812026
 20
174.1444299159525
 30
0.0
 11
728.223000109902
 21
174.8273691381523
 31
0.0
  0
LINE
  5
5A5
330
2
100
AcDbEntity
  8
0
100
AcDbLine
 10
729.0076299002026
 20
176.0211749442523
 30
0.0
 11
728.0227491809024
 21
174.5226894985521
 31
0.0
  0
LINE
  5
5A6
330
2
100
AcDbEntity
  8
0
100
AcDbLine
 10
724.6415000401026
 20
171.4377847363521
 30
0.0
 11
726.1835263626022
 21
173.0271538129522
 31
0.0
  0
LINE
  5
5A7
330
2
100
AcDbEntity
  8
0
100
AcDbLine
 10
722.7927846334019
 20
168.6553266410524
 30
0.0
 11
725.1421046803021
 21
171.0767746925521
 31
0.0
  0
LINE
  5
5A8
330
2
100
AcDbEntity
  8
0
100
AcDbLine
 10
734.769858233302
 20
183.2407529292522
 30
0.0
 11
733.7556767443023
 21
181.6976866767522
 31
0.0
  0
LINE
  5
5A9
330
2
100
AcDbEntity
  8
0
100
AcDbLine
 10
733.0655974890021
 20
180.6477384951522
 30
0.0
 11
731.2926645566017
 21
177.9502400637519
 31
0.0
  0
LINE
  5
5AA
330
2
100
AcDbEntity
  8
0
100
AcDbLine
 10
720.9888114714027
 20
165.8952821791522
 30
0.0
 11
723.3069191287027
 21
168.2845595691524
 31
0.0
  0
LINE
  5
5AB
330
2
100
AcDbEntity
  8
0
100
AcDbLine
 10
728.2965066812026
 20
174.1444299159525
 30
0.0
 11
728.2041830517024
 21
174.0554068585524
 31
0.0
  0
LINE
  5
5AC
330
2
100
AcDbEntity
  8
0
100
AcDbLine
 10
727.3874566962017
 20
173.3534317106523
 30
0.0
 11
728.2047517865026
 21
174.0557602004523
 31
0.0
  0
LINE
  5
5AD
330
2
100
AcDbEntity
  8
0
100
AcDbLine
 10
729.9684898679021
 20
185.9948613168521
 30
0.0
 11
729.8974065684021
 21
186.6552862611524
 31
0.0
  0
LINE
  5
5AE
330
2
100
AcDbEntity
  8
0
100
AcDbLine
 10
730.8321179698019
 20
185.2814699558521
 30
0.0
 11
730.7365210395024
 21
186.1696475983521
 31
0.0
  0
LINE
  5
5AF
330
2
100
AcDbEntity
  8
0
100
AcDbLine
 10
730.6691244914023
 20
186.7958194536522
 30
0.0
 11
730.5735275611017
 21
187.6839970960521
 31
0.0
  0
LINE
  5
5B0
330
2
100
AcDbEntity
  8
0
100
AcDbLine
 10
731.7680184005028
 20
177.2169299872521
 30
0.0
 11
731.526546617402
 21
176.8495332605525
 31
0.0
  0
LINE
  5
5B1
330
2
100
AcDbEntity
  8
0
100
AcDbLine
 10
731.0976227136023
 20
187.4643485612523
 30
0.0
 11
731.1932196439024
 21
186.5761709188523
 31
0.0
  0
LINE
  5
5B2
330
2
100
AcDbEntity
  8
0
100
AcDbLine
 10
731.2606161920025
 20
185.9499990635521
 30
0.0
 11
731.3562131223021
 21
185.0618214210521
 31
0.0
  0
ARC
  5
5B3
330
2
100
AcDbEntity
  8
0
100
AcDbCircle
 10
732.8863057032028
 20
189.7045453548521
 30
0.0
 40
8.530949872899999
100
AcDbArc
 50
225.0706626490201
 51
225.4691886741913
  0
ARC
  5
5B4
330
2
100
AcDbEntity
  8
0
100
AcDbCircle
 10
727.372998941802
 20
181.1432120740523
 30
0.0
 40
8.4553815735
100
AcDbArc
 50
66.16918990498314
 51
66.58260238450681
  0
ARC
  5
5B5
330
2
100
AcDbEntity
  8
0
100
AcDbCircle
 10
727.4258546166024
 20
181.2655253235525
 30
0.0
 40
8.322136530699999
100
AcDbArc
 50
66.58185629612946
 51
67.2602654147027
  0
ARC
  5
5B6
330
2
100
AcDbEntity
  8
0
100
AcDbCircle
 10
727.716356382202
 20
181.7078970538523
 30
0.0
 40
7.7204727627
100
AcDbArc
 50
66.80256198111191
 51
67.26092014509939
  0
ARC
  5
5B7
330
2
100
AcDbEntity
  8
0
100
AcDbCircle
 10
734.2133843009019
 20
191.0379214625521
 30
0.0
 40
7.7204727619
100
AcDbArc
 50
246.8025619811119
 51
247.2609201450994
  0
ARC
  5
5B8
330
2
100
AcDbEntity
  8
0
100
AcDbCircle
 10
727.7754441755019
 20
181.8490821241521
 30
0.0
 40
7.567421839099996
100
AcDbArc
 50
67.26033091419154
 51
67.98052573242296
  0
ARC
  5
5B9
330
2
100
AcDbEntity
  8
0
100
AcDbCircle
 10
732.0457852892018
 20
182.2110839611523
 30
0.0
 40
1.870549538399999
100
AcDbArc
 50
301.8334692703837
 51
303.8661636626985
  0
ARC
  5
5BA
330
2
100
AcDbEntity
  8
0
100
AcDbCircle
 10
726.6303956550024
 20
185.6384082776521
 30
0.0
 40
1.838366011899999
100
AcDbArc
 50
123.1169806497037
 51
126.4719920402732
  0
ARC
  5
5BB
330
2
100
AcDbEntity
  8
0
100
AcDbCircle
 10
732.0101595643022
 20
182.1025585983525
 30
0.0
 40
1.8381629705
100
AcDbArc
 50
346.9108482977006
 51
350.0829776573902
  0
SPLINE
  5
5BC
330
2
100
AcDbEntity
  8
0
100
AcDbSpline
210
0.0
220
0.0
230
1.0
 70
     8
 71
     3
 72
    15
 73
    11
 74
     0
 42
0.000000001
 43
0.0000000001
 40
0.0
 40
0.0
 40
0.0
 40
0.0
 40
0.1470244637
 40
0.2882164774
 40
0.4226744428
 40
0.5500134862000003
 40
0.6703606342000003
 40
0.7844915842
 40
0.8937875866
 40
1.0
 40
1.0
 40
1.0
 40
1.0
 10
729.3672090506021
 20
180.7989582880521
 30
0.0
 10
729.5388629955017
 20
180.7270442141525
 30
0.0
 10
729.8801137624017
 20
180.5970365579523
 30
0.0
 10
730.3930086991019
 20
180.4429794796524
 30
0.0
 10
730.8923837387025
 20
180.3358203868524
 30
0.0
 10
731.3734241464023
 20
180.2779074539521
 30
0.0
 10
731.8323991472023
 20
180.2719260397525
 30
0.0
 10
732.2661592994022
 20
180.3215382545522
 30
0.0
 10
732.6704620541017
 20
180.4317247170524
 30
0.0
 10
732.9181895206025
 20
180.5509728593524
 30
0.0
 10
733.0324107014027
 20
180.6218936415525
 30
0.0
  0
SPLINE
  5
5BD
330
2
100
AcDbEntity
  8
0
100
AcDbSpline
210
0.0
220
0.0
230
1.0
 70
     8
 71
     3
 72
    11
 73
     7
 74
     0
 42
0.000000001
 43
0.0000000001
 40
0.0
 40
0.0
 40
0.0
 40
0.0
 40
0.2505070013
 40
0.5002044297000002
 40
0.7498211005
 40
1.0
 40
1.0
 40
1.0
 40
1.0
 10
733.0881580794026
 20
180.6578890145524
 30
0.0
 10
733.1768977142026
 20
180.7174505996522
 30
0.0
 10
733.3442212406022
 20
180.8521133253525
 30
0.0
 10
733.5525213007017
 20
181.0974671861522
 30
0.0
 10
733.7093194975017
 20
181.3783960103523
 30
0.0
 10
733.7763779930025
 20
181.5823169257523
 30
0.0
 10
733.8005649720022
 20
181.6862755430524
 30
0.0
  0
SPLINE
  5
5BE
330
2
100
AcDbEntity
  8
0
100
AcDbSpline
210
0.0
220
0.0
230
1.0
 70
     8
 71
     3
 72
    11
 73
     7
 74
     0
 42
0.000000001
 43
0.0000000001
 40
0.0
 40
0.0
 40
0.0
 40
0.0
 40
0.2501749226999999
 40
0.4997912082
 40
0.7494933956000001
 40
1.0
 40
1.0
 40
1.0
 40
1.0
 10
725.5376161777015
 20
187.1167257698525
 30
0.0
 10
725.4518207998022
 20
187.0532849468522
 30
0.0
 10
725.2912916515021
 20
186.9108647892521
 30
0.0
 10
725.0956984849022
 20
186.6555377828522
 30
0.0
 10
724.9531634516023
 20
186.3670726446521
 30
0.0
 10
724.8959349956018
 20
186.1601172020523
 30
0.0
 10
724.8764664123024
 20
186.0550611733524
 30
0.0
  0
SPLINE
  5
5BF
330
2
100
AcDbEntity
  8
0
100
AcDbSpline
210
0.0
220
0.0
230
1.0
 70
     8
 71
     3
 72
    19
 73
    15
 74
     0
 42
0.000000001
 43
0.0000000001
 40
0.0
 40
0.0
 40
0.0
 40
0.0
 40
0.0482305194
 40
0.0974957129
 40
0.1484232464
 40
0.2015812969
 40
0.2573796271
 40
0.3160218485000001
 40
0.3775197271000001
 40
0.44171701
 40
0.5768500303000002
 40
0.7179609726999999
 40
0.8605723006999998
 40
1.0
 40
1.0
 40
1.0
 40
1.0
 10
724.8764664123024
 20
186.0550611733524
 30
0.0
 10
724.8549823623021
 20
185.9391293184521
 30
0.0
 10
724.8340817788026
 20
185.7001595601523
 30
0.0
 10
724.8635901170024
 20
185.3371500722523
 30
0.0
 10
724.9477149833023
 20
184.9706642038522
 30
0.0
 10
725.0814979496022
 20
184.6025387643521
 30
0.0
 10
725.2612964997021
 20
184.2336616833522
 30
0.0
 10
725.484239152102
 20
183.8652543726525
 30
0.0
 10
725.7476486722023
 20
183.4990911093523
 30
0.0
 10
726.1560564147027
 20
183.0088587940522
 30
0.0
 10
726.750096843302
 20
182.4228194418524
 30
0.0
 10
727.5558046717018
 20
181.7878585721523
 30
0.0
 10
728.4323611803024
 20
181.2351901418523
 30
0.0
 10
729.0528344341025
 20
180.9306648993524
 30
0.0
 10
729.3672090506021
 20
180.7989582880521
 30
0.0
  0
SPLINE
  5
5C0
330
2
100
AcDbEntity
  8
0
100
AcDbSpline
210
0.0
220
0.0
230
1.0
 70
     8
 71
     3
 72
    11
 73
     7
 74
     0
 42
0.000000001
 43
0.0000000001
 40
0.0
 40
0.0
 40
0.0
 40
0.0
 40
0.2091167033
 40
0.4378244611000002
 40
0.6997445675
 40
1.0
 40
1.0
 40
1.0
 40
1.0
 10
730.4425598751017
 20
186.7161289612521
 30
0.0
 10
730.452157655002
 20
186.7307377962524
 30
0.0
 10
730.4783088647022
 20
186.7576589773525
 30
0.0
 10
730.5315099622028
 20
186.7839220702521
 30
0.0
 10
730.5968330129022
 20
186.7971214658523
 30
0.0
 10
730.644077890402
 20
186.7974192925521
 30
0.0
 10
730.6691244914023
 20
186.7958194536522
 30
0.0
  0
SPLINE
  5
5C1
330
2
100
AcDbEntity
  8
0
100
AcDbSpline
210
0.0
220
0.0
230
1.0
 70
     8
 71
     3
 72
    11
 73
     7
 74
     0
 42
0.000000001
 43
0.0000000001
 40
0.0
 40
0.0
 40
0.0
 40
0.0
 40
0.2867510566
 40
0.5414680927000001
 40
0.7741655617000001
 40
1.0
 40
1.0
 40
1.0
 40
1.0
 10
723.4767449860022
 20
169.3506156683524
 30
0.0
 10
723.5074706601023
 20
169.2469823112523
 30
0.0
 10
723.5499381815023
 20
169.0458422760521
 30
0.0
 10
723.5462259070024
 20
168.7510646683521
 30
0.0
 10
723.4678691976019
 20
168.4896743145523
 30
0.0
 10
723.3661409774027
 20
168.3456124641525
 30
0.0
 10
723.3068611854021
 20
168.2845147676525
 30
0.0
  0
SPLINE
  5
5C2
330
2
100
AcDbEntity
  8
0
100
AcDbSpline
210
0.0
220
0.0
230
1.0
 70
     8
 71
     3
 72
    11
 73
     7
 74
     0
 42
0.000000001
 43
0.0000000001
 40
0.0
 40
0.0
 40
0.0
 40
0.0
 40
0.2858316333
 40
0.5403234515
 40
0.7734292480000004
 40
1.0
 40
1.0
 40
1.0
 40
1.0
 10
725.3176623526019
 20
172.1231215684524
 30
0.0
 10
725.3466734346026
 20
172.0213748888522
 30
0.0
 10
725.386204913602
 20
171.8238565495521
 30
0.0
 10
725.3797381729022
 20
171.5347573429521
 30
0.0
 10
725.300873246802
 20
171.2784062733521
 30
0.0
 10
725.2004468458022
 20
171.1369209276522
 30
0.0
 10
725.1420467370023
 20
171.0767298911523
 30
0.0
  0
SPLINE
  5
5C3
330
2
100
AcDbEntity
  8
0
100
AcDbSpline
210
0.0
220
0.0
230
1.0
 70
     8
 71
     3
 72
    17
 73
    13
 74
     0
 42
0.000000001
 43
0.0000000001
 40
0.0
 40
0.0
 40
0.0
 40
0.0
 40
0.0378386617
 40
0.0772452448
 40
0.1195442962
 40
0.1656837636
 40
0.2712118926
 40
0.395047346
 40
0.5347653226000002
 40
0.6859639807
 40
0.8430662373
 40
1.0
 40
1.0
 40
1.0
 40
1.0
 10
729.1891692889024
 20
187.5401627217524
 30
0.0
 10
729.1681839510022
 20
187.5082446458522
 30
0.0
 10
729.1330787411022
 20
187.437655492052
 30
0.0
 10
729.1052440715027
 20
187.3192977114522
 30
0.0
 10
729.1015933129025
 20
187.189518078152
 30
0.0
 10
729.1298397267024
 20
186.9949689344521
 30
0.0
 10
729.2299606230023
 20
186.7321994351523
 30
0.0
 10
729.4285014256026
 20
186.4151621353521
 30
0.0
 10
729.7015379620021
 20
186.0960063020525
 30
0.0
 10
730.0360942452022
 20
185.7901947203521
 30
0.0
 10
730.4159482950023
 20
185.5125452630522
 30
0.0
 10
730.6908274281027
 20
185.3531374049525
 30
0.0
 10
730.8321179698019
 20
185.2814699558521
 30
0.0
  0
SPLINE
  5
5C4
330
2
100
AcDbEntity
  8
0
100
AcDbSpline
210
0.0
220
0.0
230
1.0
 70
     8
 71
     3
 72
    13
 73
     9
 74
     0
 42
0.000000001
 43
0.0000000001
 40
0.0
 40
0.0
 40
0.0
 40
0.0
 40
0.3056166554
 40
0.5731151393000001
 40
0.6923612707000001
 40
0.8024123323000001
 40
0.9043785994
 40
1.0
 40
1.0
 40
1.0
 40
1.0
 10
725.2793902286024
 20
173.1454942879522
 30
0.0
 10
725.4961442586022
 20
173.0925496947524
 30
0.0
 10
725.9092840841017
 20
173.0177221476524
 30
0.0
 10
726.4181070389017
 20
173.0084530150524
 30
0.0
 10
726.7775064678022
 20
173.0630984168524
 30
0.0
 10
727.0106672637027
 20
173.1303436199523
 30
0.0
 10
727.2154473102022
 20
173.2248614534523
 30
0.0
 10
727.3345755138022
 20
173.3079869873522
 30
0.0
 10
727.3875211337021
 20
173.3534892746524
 30
0.0
  0
SPLINE
  5
5C5
330
2
100
AcDbEntity
  8
0
100
AcDbSpline
210
0.0
220
0.0
230
1.0
 70
     8
 71
     3
 72
    18
 73
    14
 74
     0
 42
0.000000001
 43
0.0000000001
 40
0.0
 40
0.0
 40
0.0
 40
0.0
 40
0.1449183192
 40
0.2920577309
 40
0.4355590273
 40
0.5701736385000002
 40
0.6924162838
 40
0.7487084001000001
 40
0.8020953459000001
 40
0.8531793469
 40
0.9027498752999999
 40
0.9514830232999999
 40
1.0
 40
1.0
 40
1.0
 40
1.0
 10
730.7892880284022
 20
188.8777092413524
 30
0.0
 10
731.1254823491022
 20
188.7292166774523
 30
0.0
 10
731.784407457902
 20
188.3862861396523
 30
0.0
 10
732.7009432106018
 20
187.7657079909522
 30
0.0
 10
733.5197702613019
 20
187.0595613873524
 30
0.0
 10
734.1993787764018
 20
186.3012546413524
 30
0.0
 10
734.6345669897023
 20
185.6310455690522
 30
0.0
 10
734.8731315742021
 20
185.0921132177522
 30
0.0
 10
734.9912149810021
 20
184.7005899464525
 30
0.0
 10
735.0482099615025
 20
184.3123999072522
 30
0.0
 10
735.0362438812022
 20
183.931401928852
 30
0.0
 10
734.9489473678017
 20
183.5665634554525
 30
0.0
 10
734.8374390521017
 20
183.3435764197524
 30
0.0
 10
734.769858233302
 20
183.2407529292522
 30
0.0
  0
SPLINE
  5
5C6
330
2
100
AcDbEntity
  8
0
100
AcDbSpline
210
0.0
220
0.0
230
1.0
 70
     8
 71
     3
 72
    16
 73
    12
 74
     0
 42
0.000000001
 43
0.0000000001
 40
0.0
 40
0.0
 40
0.0
 40
0.0
 40
0.0536074437
 40
0.1070806049
 40
0.2150866885
 40
0.3264030661
 40
0.4438254101
 40
0.5694893273
 40
0.7043691028
 40
0.8482650226999998
 40
1.0
 40
1.0
 40
1.0
 40
1.0
 10
726.5803501707019
 20
188.6233134436524
 30
0.0
 10
726.6234645381024
 20
188.6889114910522
 30
0.0
 10
726.7195524829018
 20
188.8137179406521
 30
0.0
 10
726.9470784194022
 20
189.0328454970522
 30
0.0
 10
727.2910289584021
 20
189.2459880774522
 30
0.0
 10
727.7639478528023
 20
189.3982222826525
 30
0.0
 10
728.2818420224026
 20
189.4596593533524
 30
0.0
 10
728.8366750992024
 20
189.4394391807521
 30
0.0
 10
729.4224680169023
 20
189.3440810899523
 30
0.0
 10
730.0316091990022
 20
189.1780906615522
 30
0.0
 10
730.4378222275022
 20
189.0266657324523
 30
0.0
 10
730.6427409489018
 20
188.9407841961524
 30
0.0
  0
SPLINE
  5
5C7
330
2
100
AcDbEntity
  8
0
100
AcDbSpline
210
0.0
220
0.0
230
1.0
 70
     8
 71
     3
 72
    15
 73
    11
 74
     0
 42
0.000000001
 43
0.0000000001
 40
0.0
 40
0.0
 40
0.0
 40
0.0
 40
0.087665729
 40
0.1812297812
 40
0.2851660104
 40
0.4020361693
 40
0.5327342365
 40
0.6769053783
 40
0.8332945546999999
 40
1.0
 40
1.0
 40
1.0
 40
1.0
 10
725.5662286809025
 20
187.0803216533522
 30
0.0
 10
725.5035917827021
 20
186.9850219792524
 30
0.0
 10
725.4047254722022
 20
186.7663035828521
 30
0.0
 10
725.3549382118022
 20
186.3945144895524
 30
0.0
 10
725.3980990500016
 20
185.9847508248521
 30
0.0
 10
725.5306107152022
 20
185.5449507949524
 30
0.0
 10
725.7486676151025
 20
185.0827155436522
 30
0.0
 10
726.0476747364024
 20
184.6067101115522
 30
0.0
 10
726.4215266514026
 20
184.1263522995522
 30
0.0
 10
726.707925446502
 20
183.8179737795521
 30
0.0
 10
726.8614573854025
 20
183.6648178377522
 30
0.0
  0
SPLINE
  5
5C8
330
2
100
AcDbEntity
  8
0
100
AcDbSpline
210
0.0
220
0.0
230
1.0
 70
     8
 71
     3
 72
    11
 73
     7
 74
     0
 42
0.000000001
 43
0.0000000001
 40
0.0
 40
0.0
 40
0.0
 40
0.0
 40
0.2458369183
 40
0.4992215222
 40
0.7529913302
 40
1.0
 40
1.0
 40
1.0
 40
1.0
 10
726.9036126640018
 20
183.6230578943523
 30
0.0
 10
727.1192758823022
 20
183.4108950576523
 30
0.0
 10
727.5800502019023
 20
183.0028021036523
 30
0.0
 10
728.3289218271026
 20
182.4549738837521
 30
0.0
 10
729.1253987241021
 20
181.9762032536523
 30
0.0
 10
729.6817329001019
 20
181.7084639598524
 30
0.0
 10
729.9620784847026
 20
181.5909709881525
 30
0.0
  0
SPLINE
  5
5C9
330
2
100
AcDbEntity
  8
0
100
AcDbSpline
210
0.0
220
0.0
230
1.0
 70
     8
 71
     3
 72
    12
 73
     8
 74
     0
 42
0.000000001
 43
0.0000000001
 40
0.0
 40
0.0
 40
0.0
 40
0.0
 40
0.1023665164
 40
0.2136179603
 40
0.4586809866
 40
0.7251702588
 40
1.0
 40
1.0
 40
1.0
 40
1.0
 10
720.5895054015022
 20
176.7127713002523
 30
0.0
 10
720.6445682125027
 20
176.5900758808525
 30
0.0
 10
720.7757667099027
 20
176.3411891882524
 30
0.0
 10
721.1096555143028
 20
175.8386631612524
 30
0.0
 10
721.6511652316015
 20
175.2202698635523
 30
0.0
 10
722.4329197503026
 20
174.5411524830524
 30
0.0
 10
723.0246585580021
 20
174.1428228727522
 30
0.0
 10
723.3359933900024
 20
173.9599728537523
 30
0.0
  0
SPLINE
  5
5CA
330
2
100
AcDbEntity
  8
0
100
AcDbSpline
210
0.0
220
0.0
230
1.0
 70
     8
 71
     3
 72
     9
 73
     5
 74
     0
 42
0.000000001
 43
0.0000000001
 40
0.0
 40
0.0
 40
0.0
 40
0.0
 40
0.5023701524000001
 40
1.0
 40
1.0
 40
1.0
 40
1.0
 10
720.9801125675016
 20
179.3498001185525
 30
0.0
 10
720.8848349755023
 20
179.1237237040522
 30
0.0
 10
720.6997976470026
 20
178.6717632368522
 30
0.0
 10
720.5296697541021
 20
178.2137383629524
 30
0.0
 10
720.4527647293022
 20
177.9832096655522
 30
0.0
  0
SPLINE
  5
5CB
330
2
100
AcDbEntity
  8
0
100
AcDbSpline
210
0.0
220
0.0
230
1.0
 70
     8
 71
     3
 72
    10
 73
     6
 74
     0
 42
0.000000001
 43
0.0000000001
 40
0.0
 40
0.0
 40
0.0
 40
0.0
 40
0.2292145867
 40
0.4696912651
 40
1.0
 40
1.0
 40
1.0
 40
1.0
 10
720.9801125675016
 20
179.3498001185525
 30
0.0
 10
721.0257837963021
 20
179.3995292436525
 30
0.0
 10
721.1295282107017
 20
179.4925136878523
 30
0.0
 10
721.3810910896022
 20
179.6479405137524
 30
0.0
 10
721.6011243118022
 20
179.7183725269523
 30
0.0
 10
721.7541712588022
 20
179.7496580050524
 30
0.0
  0
SPLINE
  5
5CC
330
2
100
AcDbEntity
  8
0
100
AcDbSpline
210
0.0
220
0.0
230
1.0
 70
     8
 71
     3
 72
    19
 73
    15
 74
     0
 42
0.000000001
 43
0.0000000001
 40
0.0
 40
0.0
 40
0.0
 40
0.0
 40
0.1468364532
 40
0.2970174377
 40
0.4440837494
 40
0.582008838
 40
0.6460829166
 40
0.7063543297
 40
0.7626965509
 40
0.8152463632999998
 40
0.8644482421999999
 40
0.9110554315999998
 40
0.9559018079999999
 40
1.0
 40
1.0
 40
1.0
 40
1.0
 10
726.9343903642026
 20
176.5848912264523
 30
0.0
 10
726.5290297928018
 20
176.7547780402523
 30
0.0
 10
725.7311536301017
 20
177.1529224025525
 30
0.0
 10
724.6164581242026
 20
177.8822120274521
 30
0.0
 10
723.6142842545018
 20
178.7189608986523
 30
0.0
 10
722.9006997479024
 20
179.4874452812523
 30
0.0
 10
722.4374414626022
 20
180.1222496353525
 30
0.0
 10
722.1579471359024
 20
180.5862353622524
 30
0.0
 10
721.9419674674021
 20
181.0453657903521
 30
0.0
 10
721.7936552559017
 20
181.4961990113524
 30
0.0
 10
721.7175259638021
 20
181.9356519195525
 30
0.0
 10
721.7205995877026
 20
182.3593388631525
 30
0.0
 10
721.8086167880023
 20
182.7587760237524
 30
0.0
 10
721.9274774525024
 20
183.0005733818525
 30
0.0
 10
721.9999760139022
 20
183.1108791650521
 30
0.0
  0
SPLINE
  5
5CD
330
2
100
AcDbEntity
  8
0
100
AcDbSpline
210
0.0
220
0.0
230
1.0
 70
     8
 71
     3
 72
    11
 73
     7
 74
     0
 42
0.000000001
 43
0.0000000001
 40
0.0
 40
0.0
 40
0.0
 40
0.0
 40
0.237393411
 40
0.4795408920000001
 40
0.7320012807
 40
1.0
 40
1.0
 40
1.0
 40
1.0
 10
722.2414477970017
 20
183.4782758918521
 30
0.0
 10
722.3177278487026
 20
183.5943351719524
 30
0.0
 10
722.5036289348022
 20
183.8093774761523
 30
0.0
 10
722.8585559567022
 20
184.0557135217522
 30
0.0
 10
723.2741056808023
 20
184.2259602860521
 30
0.0
 10
723.5736436092025
 20
184.2887776648522
 30
0.0
 10
723.7289955049024
 20
184.3099482634525
 30
0.0
  0
SPLINE
  5
5CE
330
2
100
AcDbEntity
  8
0
100
AcDbSpline
210
0.0
220
0.0
230
1.0
 70
     8
 71
     3
 72
    11
 73
     7
 74
     0
 42
0.000000001
 43
0.0000000001
 40
0.0
 40
0.0
 40
0.0
 40
0.0
 40
0.2679890166
 40
0.5204911720000001
 40
0.7625549604000002
 40
1.0
 40
1.0
 40
1.0
 40
1.0
 10
731.9414607301019
 20
178.9120991867521
 30
0.0
 10
731.9836280406023
 20
178.7611171863522
 30
0.0
 10
732.044827315302
 20
178.4612634664522
 30
0.0
 10
732.0532106782025
 20
178.0123653275522
 30
0.0
 10
731.9679664074024
 20
177.588889670952
 30
0.0
 10
731.8443042093019
 20
177.3329980267521
 30
0.0
 10
731.7680184005028
 20
177.2169299872521
 30
0.0
  0
SPLINE
  5
5CF
330
2
100
AcDbEntity
  8
0
100
AcDbSpline
210
0.0
220
0.0
230
1.0
 70
     8
 71
     3
 72
    15
 73
    11
 74
     0
 42
0.000000001
 43
0.0000000001
 40
0.0
 40
0.0
 40
0.0
 40
0.0
 40
0.1668726624
 40
0.3237176626
 40
0.4684060328000001
 40
0.5995197071
 40
0.7165400655
 40
0.8202562818
 40
0.9132095270999995
 40
1.0
 40
1.0
 40
1.0
 40
1.0
 10
729.9620784847026
 20
181.5909709881525
 30
0.0
 10
730.1702704534022
 20
181.5037176322521
 30
0.0
 10
730.5809053756026
 20
181.3499145549521
 30
0.0
 10
731.1922653049022
 20
181.1800500839522
 30
0.0
 10
731.7701954358023
 20
181.0805791350521
 30
0.0
 10
732.3024595707027
 20
181.0537102965522
 30
0.0
 10
732.7782993623019
 20
181.1004794244522
 30
0.0
 10
733.188424398602
 20
181.2214772059523
 30
0.0
 10
733.5233961020017
 20
181.4170918058525
 30
0.0
 10
733.6911319668021
 20
181.5995010610521
 30
0.0
 10
733.7556167450026
 20
181.6976122147525
 30
0.0
  0
SPLINE
  5
5D0
330
2
100
AcDbEntity
  8
0
100
AcDbSpline
210
0.0
220
0.0
230
1.0
 70
     8
 71
     3
 72
    16
 73
    12
 74
     0
 42
0.000000001
 43
0.0000000001
 40
0.0
 40
0.0
 40
0.0
 40
0.0
 40
0.0497308321
 40
0.0996190344
 40
0.2018667431
 40
0.3101343853
 40
0.4272585333
 40
0.5549266282000001
 40
0.6935442431000001
 40
0.842416979
 40
1.0
 40
1.0
 40
1.0
 40
1.0
 10
731.526546617402
 20
176.8495332605525
 30
0.0
 10
731.4815281844015
 20
176.7810381977524
 30
0.0
 10
731.3806000791023
 20
176.650548308852
 30
0.0
 10
731.1389029454018
 20
176.4203754863524
 30
0.0
 10
730.7666060767018
 20
176.1955637953524
 30
0.0
 10
730.2468019519025
 20
176.0351162874521
 30
0.0
 10
729.6655281803018
 20
175.9719155982525
 30
0.0
 10
729.0322890609019
 20
175.999389896252
 30
0.0
 10
728.3560270915018
 20
176.1125955090524
 30
0.0
 10
727.6477254382021
 20
176.3074674718523
 30
0.0
 10
727.1739276276027
 20
176.4845010421522
 30
0.0
 10
726.9343903642026
 20
176.5848912264523
 30
0.0
  0
SPLINE
  5
5D1
330
2
100
AcDbEntity
  8
0
100
AcDbSpline
210
0.0
220
0.0
230
1.0
 70
     8
 71
     3
 72
    14
 73
    10
 74
     0
 42
0.000000001
 43
0.0000000001
 40
0.0
 40
0.0
 40
0.0
 40
0.0
 40
0.3199859343
 40
0.4624081235000002
 40
0.5918814263000001
 40
0.7085103016
 40
0.8134530501999998
 40
0.9092693579
 40
1.0
 40
1.0
 40
1.0
 40
1.0
 10
731.3562131223021
 20
185.0618214210521
 30
0.0
 10
731.5063036595025
 20
185.0124146466523
 30
0.0
 10
731.729218878802
 20
184.9559305277525
 30
0.0
 10
732.0207067195021
 20
184.9284748621521
 30
0.0
 10
732.213068691502
 20
184.9335554324525
 30
0.0
 10
732.3845773964018
 20
184.9635057013524
 30
0.0
 10
732.5325379013021
 20
185.0184253969523
 30
0.0
 10
732.6540406699017
 20
185.0981572866521
 30
0.0
 10
732.7159573489021
 20
185.1682185628524
 30
0.0
 10
732.7405713945022
 20
185.2056557953524
 30
0.0
  0
SPLINE
  5
5D2
330
2
100
AcDbEntity
  8
0
100
AcDbSpline
210
0.0
220
0.0
230
1.0
 70
     8
 71
     3
 72
    13
 73
     9
 74
     0
 42
0.000000001
 43
0.0000000001
 40
0.0
 40
0.0
 40
0.0
 40
0.0
 40
0.3243456116
 40
0.6064124362
 40
0.7254308034000001
 40
0.8287178287000001
 40
0.9184420325999999
 40
1.0
 40
1.0
 40
1.0
 40
1.0
 10
731.1932196439024
 20
186.5761709188523
 30
0.0
 10
731.2509464832023
 20
186.532991876152
 30
0.0
 10
731.3524174775026
 20
186.4432562774522
 30
0.0
 10
731.4514620681026
 20
186.3137287217523
 30
0.0
 10
731.4978638928018
 20
186.2111178183522
 30
0.0
 10
731.5137688584022
 20
186.1430120938521
 30
0.0
 10
731.5117572916022
 20
186.0811153468521
 30
0.0
 10
731.4971341084024
 20
186.0448395302523
 30
0.0
 10
731.4871808083023
 20
186.0296895559521
 30
0.0
  0
SPLINE
  5
5D3
330
2
100
AcDbEntity
  8
0
100
AcDbSpline
210
0.0
220
0.0
230
1.0
 70
     8
 71
     3
 72
    11
 73
     7
 74
     0
 42
0.000000001
 43
0.0000000001
 40
0.0
 40
0.0
 40
0.0
 40
0.0
 40
0.226325127
 40
0.4592994515
 40
0.7138683184000004
 40
1.0
 40
1.0
 40
1.0
 40
1.0
 10
719.2333536620022
 20
174.9603968929523
 30
0.0
 10
719.2655998616023
 20
175.0382524602523
 30
0.0
 10
719.3562785540022
 20
175.1872478979521
 30
0.0
 10
719.5618824090021
 20
175.361795778352
 30
0.0
 10
719.8267394914024
 20
175.4822947813522
 30
0.0
 10
720.0251793262019
 20
175.523955973952
 30
0.0
 10
720.1308641614018
 20
175.5374075365525
 30
0.0
  0
SPLINE
  5
5D4
330
2
100
AcDbEntity
  8
0
100
AcDbSpline
210
0.0
220
0.0
230
1.0
 70
     8
 71
     3
 72
    14
 73
    10
 74
     0
 42
0.000000001
 43
0.0000000001
 40
0.0
 40
0.0
 40
0.0
 40
0.0
 40
0.1035715939
 40
0.2097346381
 40
0.3212152225
 40
0.4398907913000001
 40
0.5671967973
 40
0.7034513065000001
 40
1.0
 40
1.0
 40
1.0
 40
1.0
 10
720.9888114480023
 20
165.8952821550524
 30
0.0
 10
720.9306261769021
 20
165.8353105059522
 30
0.0
 10
720.7955075049028
 20
165.7297048912523
 30
0.0
 10
720.5570044239026
 20
165.6233922381525
 30
0.0
 10
720.290741054802
 20
165.5638961229524
 30
0.0
 10
720.0017993393028
 20
165.5476330678525
 30
0.0
 10
719.6935405493019
 20
165.5707553780521
 30
0.0
 10
719.2487021933025
 20
165.6537859412523
 30
0.0
 10
718.9159403708023
 20
165.7666419992524
 30
0.0
 10
718.6952867760025
 20
165.8591180287521
 30
0.0
  0
SPLINE
  5
5D5
330
2
100
AcDbEntity
  8
0
100
AcDbSpline
210
0.0
220
0.0
230
1.0
 70
     8
 71
     3
 72
    17
 73
    13
 74
     0
 42
0.000000001
 43
0.0000000001
 40
0.0
 40
0.0
 40
0.0
 40
0.0
 40
0.1429497821
 40
0.2891426153999999
 40
0.4330310906000002
 40
0.5693737992
 40
0.6941794535
 40
0.8057453427
 40
0.8570725729999999
 40
0.9061050734999998
 40
0.9534196954999998
 40
1.0
 40
1.0
 40
1.0
 40
1.0
 10
718.6952867760025
 20
165.8591180287521
 30
0.0
 10
718.4993856890018
 20
165.9412202701523
 30
0.0
 10
718.113342428202
 20
166.1324730038522
 30
0.0
 10
717.5713091935027
 20
166.4814795915522
 30
0.0
 10
717.0788401676023
 20
166.8823673359525
 30
0.0
 10
716.6597109137025
 20
167.3166747881523
 30
0.0
 10
716.333462012402
 20
167.7666380232522
 30
0.0
 10
716.1465669678023
 20
168.1552713461524
 30
0.0
 10
716.0666630403026
 20
168.4608518226523
 30
0.0
 10
716.043601478202
 20
168.6800727926524
 30
0.0
 10
716.0590478733023
 20
168.8931143027521
 30
0.0
 10
716.0979021563022
 20
169.0284831325525
 30
0.0
 10
716.1243848121026
 20
169.0924303274523
 30
0.0
  0
SPLINE
  5
5D6
330
2
100
AcDbEntity
  8
0
100
AcDbSpline
210
0.0
220
0.0
230
1.0
 70
     8
 71
     3
 72
    11
 73
     7
 74
     0
 42
0.000000001
 43
0.0000000001
 40
0.0
 40
0.0
 40
0.0
 40
0.0
 40
0.2257107548
 40
0.4583451819
 40
0.7131029788
 40
1.0
 40
1.0
 40
1.0
 40
1.0
 10
717.398168110402
 20
172.1681817695525
 30
0.0
 10
717.4308173753021
 20
172.2470105018524
 30
0.0
 10
717.5230414183021
 20
172.3978546232524
 30
0.0
 10
717.7326813576025
 20
172.5736716747523
 30
0.0
 10
718.0028074009019
 20
172.6939236959524
 30
0.0
 10
718.2049960963028
 20
172.7345269788524
 30
0.0
 10
718.3126953868018
 20
172.7472828148524
 30
0.0
  0
SPLINE
  5
5D7
330
2
100
AcDbEntity
  8
0
100
AcDbSpline
210
0.0
220
0.0
230
1.0
 70
     8
 71
     3
 72
    14
 73
    10
 74
     0
 42
0.000000001
 43
0.0000000001
 40
0.0
 40
0.0
 40
0.0
 40
0.0
 40
0.3170391884
 40
0.4605248562
 40
0.5920154006000004
 40
0.7108233204000002
 40
0.8171960043999998
 40
0.9125950751000001
 40
1.0
 40
1.0
 40
1.0
 40
1.0
 10
720.6158021204022
 20
168.6904049043523
 30
0.0
 10
720.838735150202
 20
168.5969735624521
 30
0.0
 10
721.1729828347021
 20
168.4827391558524
 30
0.0
 10
721.6167985970018
 20
168.3972699151522
 30
0.0
 10
721.9166758603018
 20
168.3721207594521
 30
0.0
 10
722.1892395720018
 20
168.3843374506523
 30
0.0
 10
722.4298664487019
 20
168.4341774171525
 30
0.0
 10
722.6341673398025
 20
168.5215342241522
 30
0.0
 10
722.7463932577026
 20
168.6075142619524
 30
0.0
 10
722.7927962036024
 20
168.6553438239525
 30
0.0
  0
SPLINE
  5
5D8
330
2
100
AcDbEntity
  8
0
100
AcDbSpline
210
0.0
220
0.0
230
1.0
 70
     8
 71
     3
 72
    16
 73
    12
 74
     0
 42
0.000000001
 43
0.0000000001
 40
0.0
 40
0.0
 40
0.0
 40
0.0
 40
0.1668359005
 40
0.3236361876
 40
0.4682908986000001
 40
0.5993709368
 40
0.7163605451000003
 40
0.8200470254
 40
0.9129744739999999
 40
0.9568909561999999
 40
1.0
 40
1.0
 40
1.0
 40
1.0
 10
727.1135853767024
 20
176.7253946023524
 30
0.0
 10
727.3557829683016
 20
176.6238894732523
 30
0.0
 10
727.833474693302
 20
176.4449677771522
 30
0.0
 10
728.544675943202
 20
176.2473714607522
 30
0.0
 10
729.2169825751019
 20
176.1316625781523
 30
0.0
 10
729.8361525183024
 20
176.1003932198523
 30
0.0
 10
730.3897386558023
 20
176.1549029087523
 30
0.0
 10
730.8666621824019
 20
176.2953847401522
 30
0.0
 10
731.1978210902021
 20
176.4893543526522
 30
0.0
 10
731.4048062153021
 20
176.6841354125522
 30
0.0
 10
731.4892685225016
 20
176.7928344907522
 30
0.0
 10
731.5265398992018
 20
176.8495376761525
 30
0.0
  0
SPLINE
  5
5D9
330
2
100
AcDbEntity
  8
0
100
AcDbSpline
210
0.0
220
0.0
230
1.0
 70
     8
 71
     3
 72
    19
 73
    15
 74
     0
 42
0.000000001
 43
0.0000000001
 40
0.0
 40
0.0
 40
0.0
 40
0.0
 40
0.0372650538
 40
0.0763169226
 40
0.1186228462
 40
0.1651777174
 40
0.2165145447
 40
0.2727874867
 40
0.3338589186
 40
0.3993693377000001
 40
0.5413778456000001
 40
0.6933392412999999
 40
0.8485529229
 40
1.0
 40
1.0
 40
1.0
 40
1.0
 10
721.9999827322022
 20
183.1108747494521
 30
0.0
 10
721.939236539402
 20
183.0184579154524
 30
0.0
 10
721.8391969130022
 20
182.8120444765522
 30
0.0
 10
721.767241463002
 20
182.4643813953525
 30
0.0
 10
721.7709437220023
 20
182.0823437481521
 30
0.0
 10
721.8485970425023
 20
181.6717971518523
 30
0.0
 10
721.998063732602
 20
181.2379911421521
 30
0.0
 10
722.2168692987021
 20
180.786639347052
 30
0.0
 10
722.5017856225019
 20
180.3238530598523
 30
0.0
 10
722.9773000112023
 20
179.6831109860521
 30
0.0
 10
723.7104649334018
 20
178.9028807736522
 30
0.0
 10
724.7392198466017
 20
178.0504590850523
 30
0.0
 10
725.882102391502
 20
177.3061565765523
 30
0.0
 10
726.6990596659021
 20
176.8991225305521
 30
0.0
 10
727.1135853767024
 20
176.7253946023524
 30
0.0
  0
SPLINE
  5
5DA
330
2
100
AcDbEntity
  8
0
100
AcDbSpline
210
0.0
220
0.0
230
1.0
 70
     8
 71
     3
 72
    18
 73
    14
 74
     0
 42
0.000000001
 43
0.0000000001
 40
0.0
 40
0.0
 40
0.0
 40
0.0
 40
0.1033075874
 40
0.1506523906
 40
0.1966854808
 40
0.2429011968
 40
0.2907696504
 40
0.3415600103
 40
0.3962334429999999
 40
0.5192948555
 40
0.6621489947
 40
0.823484327
 40
1.0
 40
1.0
 40
1.0
 40
1.0
 10
731.8241121477017
 20
178.7300556100522
 30
0.0
 10
731.8466216520024
 20
178.5445791835521
 30
0.0
 10
731.8441977185026
 20
178.2654474051523
 30
0.0
 10
731.7394322355028
 20
177.9233904032521
 30
0.0
 10
731.6171742964021
 20
177.7003497274522
 30
0.0
 10
731.4504691974022
 20
177.5071026898522
 30
0.0
 10
731.241868701502
 20
177.3459043622524
 30
0.0
 10
730.9942212445027
 20
177.2181735040521
 30
0.0
 10
730.6003279205023
 20
177.0884016321524
 30
0.0
 10
730.0182400645022
 20
177.0236164498524
 30
0.0
 10
729.2449952424028
 20
177.0865417857521
 30
0.0
 10
728.3955279721028
 20
177.283056469052
 30
0.0
 10
727.8195311932027
 20
177.4911884861521
 30
0.0
 10
727.5251049403018
 20
177.6145826727524
 30
0.0
  0
SPLINE
  5
5DB
330
2
100
AcDbEntity
  8
0
100
AcDbSpline
210
0.0
220
0.0
230
1.0
 70
     8
 71
     3
 72
    21
 73
    17
 74
     0
 42
0.000000001
 43
0.0000000001
 40
0.0
 40
0.0
 40
0.0
 40
0.0
 40
0.1623210742
 40
0.3272474179
 40
0.4074159056
 40
0.484337903
 40
0.5568918823
 40
0.6241472897
 40
0.6854368799
 40
0.7404602536000004
 40
0.7894261037
 40
0.8332354926
 40
0.8736377445
 40
0.9131454049
 40
0.9545069682000001
 40
1.0
 40
1.0
 40
1.0
 40
1.0
 10
727.4660701756025
 20
177.6393296009523
 30
0.0
 10
727.0049018876019
 20
177.8363471222523
 30
0.0
 10
726.1049366219027
 20
178.3056073752522
 30
0.0
 10
725.0738827520023
 20
179.0346987826524
 30
0.0
 10
724.3266911153019
 20
179.6927622165521
 30
0.0
 10
723.8308913681025
 20
180.2013259136524
 30
0.0
 10
723.4046528842022
 20
180.7188671202525
 30
0.0
 10
723.0566465041023
 20
181.2348815194523
 30
0.0
 10
722.7938948459019
 20
181.7391110049525
 30
0.0
 10
722.621798766802
 20
182.2219917598522
 30
0.0
 10
722.5445513552017
 20
182.6749517246521
 30
0.0
 10
722.566108265402
 20
183.0900328882521
 30
0.0
 10
722.6904947548024
 20
183.4573901853523
 30
0.0
 10
722.9172333455022
 20
183.7633223418524
 30
0.0
 10
723.2365641541023
 20
183.9965244328523
 30
0.0
 10
723.4887694745025
 20
184.0957735645524
 30
0.0
 10
723.6238648928024
 20
184.1345504631522
 30
0.0
  0
SPLINE
  5
5DC
330
2
100
AcDbEntity
  8
0
100
AcDbSpline
210
0.0
220
0.0
230
1.0
 70
     8
 71
     3
 72
    15
 73
    11
 74
     0
 42
0.000000001
 43
0.0000000001
 40
0.0
 40
0.0
 40
0.0
 40
0.0
 40
0.0867902555
 40
0.1797418633
 40
0.2834552839
 40
0.4004746432000001
 40
0.5315894164000003
 40
0.6762782251
 40
0.8331246861
 40
1.0
 40
1.0
 40
1.0
 40
1.0
 10
734.7698539652025
 20
183.2407557343522
 30
0.0
 10
734.7053760001021
 20
183.1426370733524
 30
0.0
 10
734.5376526433023
 20
182.9602110196524
 30
0.0
 10
734.2026891686024
 20
182.7645750405522
 30
0.0
 10
733.7925663678021
 20
182.6435577951524
 30
0.0
 10
733.3167194370022
 20
182.5967771369523
 30
0.0
 10
732.7844411183017
 20
182.6236357516522
 30
0.0
 10
732.2064920595018
 20
182.7231052543524
 30
0.0
 10
731.595110578202
 20
182.8929722610523
 30
0.0
 10
731.1844602615025
 20
183.0467803981523
 30
0.0
 10
730.976259973702
 20
183.134037240652
 30
0.0
  0
SPLINE
  5
5DD
330
2
100
AcDbEntity
  8
0
100
AcDbSpline
210
0.0
220
0.0
230
1.0
 70
     8
 71
     3
 72
    15
 73
    11
 74
     0
 42
0.000000001
 43
0.0000000001
 40
0.0
 40
0.0
 40
0.0
 40
0.0
 40
0.1668726624
 40
0.3237176626
 40
0.4684060328000001
 40
0.5995197071
 40
0.7165400655
 40
0.8202562818
 40
0.9132095270999995
 40
1.0
 40
1.0
 40
1.0
 40
1.0
 10
727.4990662970027
 20
177.8435243751523
 30
0.0
 10
727.7072582657025
 20
177.7562710192523
 30
0.0
 10
728.1178931879018
 20
177.6024679419524
 30
0.0
 10
728.729253117202
 20
177.4326034708524
 30
0.0
 10
729.3071832482024
 20
177.3331325219523
 30
0.0
 10
729.8394473830027
 20
177.3062636835525
 30
0.0
 10
730.3152871746021
 20
177.353032811452
 30
0.0
 10
730.7254122109021
 20
177.4740305929521
 30
0.0
 10
731.060383914402
 20
177.6696451928523
 30
0.0
 10
731.2281197792023
 20
177.8520544480525
 30
0.0
 10
731.2926045573018
 20
177.9501656016523
 30
0.0
  0
LINE
  5
5DE
330
2
100
AcDbEntity
  8
0
100
AcDbLine
 10
727.4660701756025
 20
177.6393296009523
 30
0.0
 11
727.5251049403018
 21
177.6145826727524
 31
0.0
  0
SPLINE
  5
5DF
330
2
100
AcDbEntity
  8
0
100
AcDbSpline
210
0.0
220
0.0
230
1.0
 70
     8
 71
     3
 72
    18
 73
    14
 74
     0
 42
0.000000001
 43
0.0000000001
 40
0.0
 40
0.0
 40
0.0
 40
0.0
 40
0.1461680771
 40
0.2961792478
 40
0.4442833941
 40
0.5848750079000001
 40
0.7130377447000003
 40
0.7713147509999999
 40
0.8252904692000001
 40
0.8748708431
 40
0.9201838831999998
 40
0.9616413173999999
 40
1.0
 40
1.0
 40
1.0
 40
1.0
 10
727.3550571598023
 20
177.0927913291524
 30
0.0
 10
726.9739456392023
 20
177.2525153538522
 30
0.0
 10
726.2206990776027
 20
177.6229778730521
 30
0.0
 10
725.1572270868022
 20
178.2952890021524
 30
0.0
 10
724.1823827039021
 20
179.0661058307523
 30
0.0
 10
723.3437587684026
 20
179.8976857689522
 30
0.0
 10
722.7738078275016
 20
180.6303754230521
 30
0.0
 10
722.4264745542018
 20
181.2155498240522
 30
0.0
 10
722.2309404026024
 20
181.630070270552
 30
0.0
 10
722.0944127872022
 20
182.0292461764524
 30
0.0
 10
722.0188382980015
 20
182.4086573624522
 30
0.0
 10
722.0056847193021
 20
182.7638301395522
 30
0.0
 10
722.0405694749022
 20
182.9886825272524
 30
0.0
 10
722.0691260013021
 20
183.0932980165525
 30
0.0
  0
SPLINE
  5
5E0
330
2
100
AcDbEntity
  8
0
100
AcDbSpline
210
0.0
220
0.0
230
1.0
 70
     8
 71
     3
 72
     9
 73
     5
 74
     0
 42
0.000000001
 43
0.0000000001
 40
0.0
 40
0.0
 40
0.0
 40
0.0
 40
0.5049051563
 40
1.0
 40
1.0
 40
1.0
 40
1.0
 10
722.0691260013021
 20
183.0932980165525
 30
0.0
 10
722.0878778366015
 20
183.1619944824524
 30
0.0
 10
722.1351347743026
 20
183.2955466362523
 30
0.0
 10
722.2031008422022
 20
183.4199217281525
 30
0.0
 10
722.2414545153021
 20
183.4782714761522
 30
0.0
  0
SPLINE
  5
5E1
330
2
100
AcDbEntity
  8
0
100
AcDbSpline
210
0.0
220
0.0
230
1.0
 70
     8
 71
     3
 72
    19
 73
    15
 74
     0
 42
0.000000001
 43
0.0000000001
 40
0.0
 40
0.0
 40
0.0
 40
0.0
 40
0.1509971493
 40
0.3057701716
 40
0.4574182222000001
 40
0.5993413847
 40
0.6649104072
 40
0.7261123705000001
 40
0.7825807397000001
 40
0.8341606400999999
 40
0.8809788477999999
 40
0.9235249934
 40
0.9627321720999999
 40
1.0
 40
1.0
 40
1.0
 40
1.0
 10
729.2859574920018
 20
180.5622601532521
 30
0.0
 10
728.9321148959021
 20
180.7105557583522
 30
0.0
 10
728.234577322902
 20
181.0577013155525
 30
0.0
 10
727.2579472519025
 20
181.6921019297524
 30
0.0
 10
726.3774002208023
 20
182.4187611331522
 30
0.0
 10
725.7482449475024
 20
183.0840923801524
 30
0.0
 10
725.3384365234019
 20
183.6309585743524
 30
0.0
 10
725.0916202683026
 20
184.0265108376524
 30
0.0
 10
724.9006482467025
 20
184.4127314874522
 30
0.0
 10
724.7683100656026
 20
184.7844483164521
 30
0.0
 10
724.6967117397023
 20
185.1368035937521
 30
0.0
 10
724.6876394849017
 20
185.4653574802523
 30
0.0
 10
724.742540412302
 20
185.7652442209523
 30
0.0
 10
724.8234715751019
 20
185.9445509993524
 30
0.0
 10
724.873226059202
 20
186.0251182287525
 30
0.0
  0
SPLINE
  5
5E2
330
2
100
AcDbEntity
  8
0
100
AcDbSpline
210
0.0
220
0.0
230
1.0
 70
     8
 71
     3
 72
     9
 73
     5
 74
     0
 42
0.000000001
 43
0.0000000001
 40
0.0
 40
0.0
 40
0.0
 40
0.0
 40
0.4952322132
 40
1.0
 40
1.0
 40
1.0
 40
1.0
 10
731.7680116823026
 20
177.2169344029525
 30
0.0
 10
731.7302101406018
 20
177.1594246457525
 30
0.0
 10
731.6444244349017
 20
177.0492499936522
 30
0.0
 10
731.5424389682026
 20
176.9539625915522
 30
0.0
 10
731.4878326533023
 20
176.9099327296521
 30
0.0
  0
SPLINE
  5
5E3
330
2
100
AcDbEntity
  8
0
100
AcDbSpline
210
0.0
220
0.0
230
1.0
 70
     8
 71
     3
 72
    14
 73
    10
 74
     0
 42
0.000000001
 43
0.0000000001
 40
0.0
 40
0.0
 40
0.0
 40
0.0
 40
0.0886141241
 40
0.1858996343
 40
0.2939693551
 40
0.4137416689000001
 40
0.5452090444
 40
0.6876496594
 40
1.0
 40
1.0
 40
1.0
 40
1.0
 10
731.4878326533023
 20
176.9099327296521
 30
0.0
 10
731.3888354539027
 20
176.8301098551523
 30
0.0
 10
731.1582962144026
 20
176.6899741598521
 30
0.0
 10
730.7566074540024
 20
176.5531644486522
 30
0.0
 10
730.2935269047026
 20
176.4817410515524
 30
0.0
 10
729.776541269602
 20
176.4759674634524
 30
0.0
 10
729.2135997692017
 20
176.5353714034522
 30
0.0
 10
728.3886357801027
 20
176.7053236091524
 30
0.0
 10
727.7684706043022
 20
176.9195295523521
 30
0.0
 10
727.3550571598023
 20
177.0927913291524
 30
0.0
  0
SPLINE
  5
5E4
330
2
100
AcDbEntity
  8
0
100
AcDbSpline
210
0.0
220
0.0
230
1.0
 70
     8
 71
     3
 72
     9
 73
     5
 74
     0
 42
0.000000001
 43
0.0000000001
 40
0.0
 40
0.0
 40
0.0
 40
0.0
 40
0.4997933243000002
 40
1.0
 40
1.0
 40
1.0
 40
1.0
 10
723.1738657338024
 20
175.1525550398523
 30
0.0
 10
723.1777025385022
 20
174.9516037589523
 30
0.0
 10
723.2008350873026
 20
174.5497942257525
 30
0.0
 10
723.2753596748023
 20
174.1517710221523
 30
0.0
 10
723.3359933900024
 20
173.9599728537523
 30
0.0
  0
SPLINE
  5
5E5
330
2
100
AcDbEntity
  8
0
100
AcDbSpline
210
0.0
220
0.0
230
1.0
 70
     8
 71
     3
 72
    10
 73
     6
 74
     0
 42
0.000000001
 43
0.0000000001
 40
0.0
 40
0.0
 40
0.0
 40
0.0
 40
0.2197335761
 40
0.4632069328
 40
1.0
 40
1.0
 40
1.0
 40
1.0
 10
720.5895054015022
 20
176.7127713002523
 30
0.0
 10
720.6410510750024
 20
176.731430260252
 30
0.0
 10
720.7458410760022
 20
176.7812876842522
 30
0.0
 10
720.9593942512025
 20
176.9105038075521
 30
0.0
 10
721.1159332164021
 20
177.0269298497523
 30
0.0
 10
721.2212221222023
 20
177.1096851358524
 30
0.0
  0
SPLINE
  5
5E6
330
2
100
AcDbEntity
  8
0
100
AcDbSpline
210
0.0
220
0.0
230
1.0
 70
     8
 71
     3
 72
    19
 73
    15
 74
     0
 42
0.000000001
 43
0.0000000001
 40
0.0
 40
0.0
 40
0.0
 40
0.0
 40
0.1514481575
 40
0.3066605175
 40
0.4586219337000001
 40
0.6006307758000001
 40
0.6661405128000001
 40
0.7272121131999999
 40
0.7834858123
 40
0.8348224368
 40
0.8813765459999999
 40
0.9236825995
 40
0.9627349145
 40
1.0
 40
1.0
 40
1.0
 40
1.0
 10
730.976259973702
 20
183.134037240652
 30
0.0
 10
730.6199107776023
 20
183.2833833630525
 30
0.0
 10
729.9176149199022
 20
183.6332897617521
 30
0.0
 10
728.9351370800017
 20
184.2731284580522
 30
0.0
 10
728.0507742969026
 20
185.0059135409523
 30
0.0
 10
727.4205021952026
 20
185.6766305725523
 30
0.0
 10
727.0117373300022
 20
186.2274513511524
 30
0.0
 10
726.7668058707019
 20
186.6252831749525
 30
0.0
 10
726.5786996095027
 20
187.0132846637525
 30
0.0
 10
726.4502142542018
 20
187.3862069193523
 30
0.0
 10
726.3834727825017
 20
187.7391336551522
 30
0.0
 10
726.3802878030023
 20
188.0675482854521
 30
0.0
 10
726.4421199408022
 20
188.3664273756521
 30
0.0
 10
726.5281430751025
 20
188.5438585484521
 30
0.0
 10
726.5803544388021
 20
188.6233106385525
 30
0.0
  0
SPLINE
  5
5E7
330
2
100
AcDbEntity
  8
0
100
AcDbSpline
210
0.0
220
0.0
230
1.0
 70
     8
 71
     3
 72
    27
 73
    23
 74
     0
 42
0.000000001
 43
0.0000000001
 40
0.0
 40
0.0
 40
0.0
 40
0.0
 40
0.080119493
 40
0.1622424575
 40
0.2440077538
 40
0.3230633313
 40
0.3972431773
 40
0.4647308744
 40
0.5242852802
 40
0.5509720653
 40
0.5756484713000001
 40
0.6196633012000003
 40
0.6398779395
 40
0.6595421865
 40
0.6792714576000001
 40
0.6996728597000002
 40
0.7443425651000001
 40
0.7694271210000001
 40
0.7965440835999999
 40
0.8569595853
 40
0.9252092366999999
 40
1.0
 40
1.0
 40
1.0
 40
1.0
 10
731.1722838260026
 20
183.9416261214523
 30
0.0
 10
730.9238520183023
 20
184.0480884334524
 30
0.0
 10
730.431664162102
 20
184.2898325564524
 30
0.0
 10
729.7288611416021
 20
184.7204509379521
 30
0.0
 10
729.071022314402
 20
185.2112643478522
 30
0.0
 10
728.4823900704019
 20
185.7441872351523
 30
0.0
 10
727.9842612364022
 20
186.2997875373521
 30
0.0
 10
727.5946447178027
 20
186.8579004683524
 30
0.0
 10
727.3634652033019
 20
187.3254475078524
 30
0.0
 10
727.2513935927021
 20
187.6833681833522
 30
0.0
 10
727.1919555596021
 20
187.9998917873521
 30
0.0
 10
727.1966302363022
 20
188.3060703692521
 30
0.0
 10
727.2804890798019
 20
188.5781254320522
 30
0.0
 10
727.3775026691025
 20
188.7558881272525
 30
0.0
 10
727.5092998095018
 20
188.9104498114525
 30
0.0
 10
727.7353528216023
 20
189.0884128928523
 30
0.0
 10
728.0222423447026
 20
189.2063109826522
 30
0.0
 10
728.343031379302
 20
189.270052733952
 30
0.0
 10
728.7225000832019
 20
189.3012704995521
 30
0.0
 10
729.2496318312019
 20
189.264915934052
 30
0.0
 10
729.921826672102
 20
189.1179526146524
 30
0.0
 10
730.3787312143027
 20
188.9591000739524
 30
0.0
 10
730.6126349297023
 20
188.8645095462525
 30
0.0
  0
SPLINE
  5
5E8
330
2
100
AcDbEntity
  8
0
100
AcDbSpline
210
0.0
220
0.0
230
1.0
 70
     8
 71
     3
 72
    27
 73
    23
 74
     0
 42
0.000000001
 43
0.0000000001
 40
0.0
 40
0.0
 40
0.0
 40
0.0
 40
0.0799850421
 40
0.1619671323
 40
0.2435532571
 40
0.3223623455
 40
0.3962065684
 40
0.4632613646000002
 40
0.5222998023
 40
0.5487131951
 40
0.5731191882
 40
0.6166659313000002
 40
0.636731917
 40
0.6563308556000002
 40
0.6760900792
 40
0.6966162003000002
 40
0.7417726434000002
 40
0.7671789908
 40
0.7946472681
 40
0.8557894584999999
 40
0.924705022
 40
1.0
 40
1.0
 40
1.0
 40
1.0
 10
730.7574568574022
 20
188.8041923956525
 30
0.0
 10
731.0077983959022
 20
188.6969116927521
 30
0.0
 10
731.5036787248024
 20
188.4531135100523
 30
0.0
 10
732.2113137023023
 20
188.0185187294523
 30
0.0
 10
732.8729357488022
 20
187.5231002014525
 30
0.0
 10
733.4638045318021
 20
186.9853850196523
 30
0.0
 10
733.9622380342023
 20
186.4252582688522
 30
0.0
 10
734.349964752802
 20
185.8633332253521
 30
0.0
 10
734.5776450481022
 20
185.3931391629521
 30
0.0
 10
734.6853971523017
 20
185.0339531572521
 30
0.0
 10
734.740018724802
 20
184.7169719726525
 30
0.0
 10
734.7289928325023
 20
184.4108492511522
 30
0.0
 10
734.6376051261024
 20
184.140806530252
 30
0.0
 10
734.5345889531022
 20
183.9649451782524
 30
0.0
 10
734.3964812622021
 20
183.8129900774523
 30
0.0
 10
734.1611475042022
 20
183.6391706176523
 30
0.0
 10
733.8655959633021
 20
183.5270151459521
 30
0.0
 10
733.5365640125025
 20
183.4693114649521
 30
0.0
 10
733.1482417783023
 20
183.4452416755521
 30
0.0
 10
732.6110290165021
 20
183.4913920708522
 30
0.0
 10
731.9284570837022
 20
183.6508664866523
 30
0.0
 10
731.4656125754022
 20
183.8184234526524
 30
0.0
 10
731.2291498947021
 20
183.9175250778525
 30
0.0
  0
SPLINE
  5
5E9
330
2
100
AcDbEntity
  8
0
100
AcDbSpline
210
0.0
220
0.0
230
1.0
 70
     8
 71
     3
 72
    14
 73
    10
 74
     0
 42
0.000000001
 43
0.0000000001
 40
0.0
 40
0.0
 40
0.0
 40
0.0
 40
0.3199859343
 40
0.4624081235000002
 40
0.5918814263000001
 40
0.7085103016
 40
0.8134530501999998
 40
0.9092693579
 40
1.0
 40
1.0
 40
1.0
 40
1.0
 10
730.5735275611017
 20
187.6839970960521
 30
0.0
 10
730.4234370239024
 20
187.733403870452
 30
0.0
 10
730.200521804602
 20
187.7898879893523
 30
0.0
 10
729.9090339639018
 20
187.8173436549523
 30
0.0
 10
729.716671991902
 20
187.8122630846523
 30
0.0
 10
729.5451632870022
 20
187.7823128158524
 30
0.0
 10
729.3972027821022
 20
187.7273931202521
 30
0.0
 10
729.2757000135021
 20
187.6476612304522
 30
0.0
 10
729.2137833345018
 20
187.577599954352
 30
0.0
 10
729.1891692889024
 20
187.5401627217524
 30
0.0
  0
SPLINE
  5
5EA
330
2
100
AcDbEntity
  8
0
100
AcDbSpline
210
0.0
220
0.0
230
1.0
 70
     8
 71
     3
 72
    13
 73
     9
 74
     0
 42
0.000000001
 43
0.0000000001
 40
0.0
 40
0.0
 40
0.0
 40
0.0
 40
0.3243456116
 40
0.6064124362
 40
0.7254308034000001
 40
0.8287178287000001
 40
0.9184420325999999
 40
1.0
 40
1.0
 40
1.0
 40
1.0
 10
730.7365210395024
 20
186.1696475983521
 30
0.0
 10
730.6787942002022
 20
186.2128266409522
 30
0.0
 10
730.5773232059024
 20
186.3025622396521
 30
0.0
 10
730.4782786153024
 20
186.4320897953519
 30
0.0
 10
730.4318767906021
 20
186.5347006987521
 30
0.0
 10
730.4159718250024
 20
186.6028064232523
 30
0.0
 10
730.417983391802
 20
186.6647031702523
 30
0.0
 10
730.4326065750024
 20
186.7009789868525
 30
0.0
 10
730.4425598751017
 20
186.7161289612521
 30
0.0
  0
SPLINE
  5
5EB
330
2
100
AcDbEntity
  8
0
100
AcDbSpline
210
0.0
220
0.0
230
1.0
 70
     8
 71
     3
 72
    18
 73
    14
 74
     0
 42
0.000000001
 43
0.0000000001
 40
0.0
 40
0.0
 40
0.0
 40
0.0
 40
0.1483673007
 40
0.3005555745
 40
0.4503159267
 40
0.5915999043
 40
0.7192009173000004
 40
0.7767189794
 40
0.8296583636999999
 40
0.8780055593000001
 40
0.9220305756999998
 40
0.9623533848999999
 40
1.0
 40
1.0
 40
1.0
 40
1.0
 10
722.490070433602
 20
171.1195075831524
 30
0.0
 10
722.2441651963022
 20
171.2225665883524
 30
0.0
 10
721.7586984504021
 20
171.4626043328521
 30
0.0
 10
721.0758542969021
 20
171.899636891352
 30
0.0
 10
720.4543320525023
 20
172.4005926920522
 30
0.0
 10
719.9265908969023
 20
172.9392668125524
 30
0.0
 10
719.5751817719025
 20
173.4123377193523
 30
0.0
 10
719.3688434665024
 20
173.7878059815525
 30
0.0
 10
719.2579501291024
 20
174.051433503052
 30
0.0
 10
719.1870155013027
 20
174.3035733049523
 30
0.0
 10
719.1572489735022
 20
174.5412725025521
 30
0.0
 10
719.1695854165024
 20
174.7614974176522
 30
0.0
 10
719.2074653902022
 20
174.8978919743521
 30
0.0
 10
719.2333536620022
 20
174.9603968929523
 30
0.0
  0
SPLINE
  5
5EC
330
2
100
AcDbEntity
  8
0
100
AcDbSpline
210
0.0
220
0.0
230
1.0
 70
     8
 71
     3
 72
    10
 73
     6
 74
     0
 42
0.000000001
 43
0.0000000001
 40
0.0
 40
0.0
 40
0.0
 40
0.0
 40
0.2345101627
 40
0.4758312873
 40
1.0
 40
1.0
 40
1.0
 40
1.0
 10
721.2538039831021
 20
178.9714269640521
 30
0.0
 10
721.2207175523023
 20
178.9210846831524
 30
0.0
 10
721.1636182267026
 20
178.811933520852
 30
0.0
 10
721.0898556133021
 20
178.5646047564523
 30
0.0
 10
721.0862578321028
 20
178.3636193845523
 30
0.0
 10
721.1006673449021
 20
178.2297426271525
 30
0.0
  0
SPLINE
  5
5ED
330
2
100
AcDbEntity
  8
0
100
AcDbSpline
210
0.0
220
0.0
230
1.0
 70
     8
 71
     3
 72
    14
 73
    10
 74
     0
 42
0.000000001
 43
0.0000000001
 40
0.0
 40
0.0
 40
0.0
 40
0.0
 40
0.3170391796
 40
0.4605248499
 40
0.5920153873
 40
0.7108233084000001
 40
0.8171960053999999
 40
0.9125950852999999
 40
1.0
 40
1.0
 40
1.0
 40
1.0
 10
722.4520161657025
 20
171.473064437152
 30
0.0
 10
722.6762294097021
 20
171.3790965568523
 30
0.0
 10
723.0123965499021
 20
171.2642061522524
 30
0.0
 10
723.4587609703027
 20
171.178246099252
 30
0.0
 10
723.7603603142018
 20
171.1529525376522
 30
0.0
 10
724.034489264002
 20
171.1652393963522
 30
0.0
 10
724.276497976102
 20
171.2153656284522
 30
0.0
 10
724.4819720955026
 20
171.3032241159521
 30
0.0
 10
724.5948424409021
 20
171.3896979607525
 30
0.0
 10
724.6415118447028
 20
171.4378021952525
 30
0.0
  0
SPLINE
  5
5EE
330
2
100
AcDbEntity
  8
0
100
AcDbSpline
210
0.0
220
0.0
230
1.0
 70
     8
 71
     3
 72
    11
 73
     7
 74
     0
 42
0.000000001
 43
0.0000000001
 40
0.0
 40
0.0
 40
0.0
 40
0.0
 40
0.2085706143
 40
0.4412517375000001
 40
0.7044159631999999
 40
1.0
 40
1.0
 40
1.0
 40
1.0
 10
728.2042541486021
 20
174.055353187552
 30
0.0
 10
728.1155970516023
 20
173.9792740262523
 30
0.0
 10
727.9018239551019
 20
173.8477534154521
 30
0.0
 10
727.5219422888016
 20
173.7306344015523
 30
0.0
 10
727.078939134402
 20
173.6839742455521
 30
0.0
 10
726.7652216342026
 20
173.6989473466524
 30
0.0
 10
726.6005824437021
 20
173.7164163903521
 30
0.0
  0
SPLINE
  5
5EF
330
2
100
AcDbEntity
  8
0
100
AcDbSpline
210
0.0
220
0.0
230
1.0
 70
     8
 71
     3
 72
    17
 73
    13
 74
     0
 42
0.000000001
 43
0.0000000001
 40
0.0
 40
0.0
 40
0.0
 40
0.0
 40
0.0376542578
 40
0.0779840279
 40
0.1220175252
 40
0.1703750645
 40
0.2806971736
 40
0.4083163299
 40
0.5496193879
 40
0.6994012355
 40
0.8516099674999999
 40
1.0
 40
1.0
 40
1.0
 40
1.0
 10
719.7632651021027
 20
174.6439451852524
 30
0.0
 10
719.7418959926022
 20
174.5923389187523
 30
0.0
 10
719.7106683961024
 20
174.4797188101524
 30
0.0
 10
719.7004878810018
 20
174.2979081316525
 30
0.0
 10
719.7250661953018
 20
174.1016556437525
 30
0.0
 10
719.8068884408017
 20
173.8113773347522
 30
0.0
 10
719.9991077970022
 20
173.4286550167521
 30
0.0
 10
720.3355636250022
 20
172.9754854634525
 30
0.0
 10
720.7714369183028
 20
172.5306276427522
 30
0.0
 10
721.2844859670018
 20
172.1171163397521
 30
0.0
 10
721.848227057902
 20
171.7563060775523
 30
0.0
 10
722.2490054103023
 20
171.5581463440521
 30
0.0
 10
722.4520161657025
 20
171.473064437152
 30
0.0
  0
SPLINE
  5
5F0
330
2
100
AcDbEntity
  8
0
100
AcDbSpline
210
0.0
220
0.0
230
1.0
 70
     8
 71
     3
 72
     9
 73
     5
 74
     0
 42
0.000000001
 43
0.0000000001
 40
0.0
 40
0.0
 40
0.0
 40
0.0
 40
0.5031085342
 40
1.0
 40
1.0
 40
1.0
 40
1.0
 10
725.2793902286024
 20
173.1454942879522
 30
0.0
 10
725.5109949052028
 20
173.2144500260524
 30
0.0
 10
725.9598495905025
 20
173.3898896053524
 30
0.0
 10
726.390001413302
 20
173.6040912318521
 30
0.0
 10
726.6005824437021
 20
173.7164163903521
 30
0.0
  0
SPLINE
  5
5F1
330
2
100
AcDbEntity
  8
0
100
AcDbSpline
210
0.0
220
0.0
230
1.0
 70
     8
 71
     3
 72
    14
 73
    10
 74
     0
 42
0.000000001
 43
0.0000000001
 40
0.0
 40
0.0
 40
0.0
 40
0.0
 40
0.0874036183
 40
0.1828015739
 40
0.2891763759
 40
0.4079853253000004
 40
0.5394755874000003
 40
0.6829637002000001
 40
1.0
 40
1.0
 40
1.0
 40
1.0
 10
725.1420467370023
 20
171.0767298911523
 30
0.0
 10
725.0855185476027
 20
171.0184681791524
 30
0.0
 10
724.9487953933017
 20
170.9137495107524
 30
0.0
 10
724.6999223337019
 20
170.8073367318524
 30
0.0
 10
724.4067900453024
 20
170.7466411157524
 30
0.0
 10
724.0747577908019
 20
170.7317727516524
 30
0.0
 10
723.7094527910028
 20
170.7624138482524
 30
0.0
 10
723.1688096740022
 20
170.8665344376522
 30
0.0
 10
722.7616390877025
 20
171.0056930273522
 30
0.0
 10
722.490070433602
 20
171.1195075831524
 30
0.0
  0
SPLINE
  5
5F2
330
2
100
AcDbEntity
  8
0
100
AcDbSpline
210
0.0
220
0.0
230
1.0
 70
     8
 71
     3
 72
    14
 73
    10
 74
     0
 42
0.000000001
 43
0.0000000001
 40
0.0
 40
0.0
 40
0.0
 40
0.0
 40
0.3170386576
 40
0.4605236696000001
 40
0.5920144389000001
 40
0.7108243874
 40
0.8171976806999998
 40
0.9125958310999999
 40
1.0
 40
1.0
 40
1.0
 40
1.0
 10
718.8055175578024
 20
165.9304621395522
 30
0.0
 10
719.029094759902
 20
165.8367608247522
 30
0.0
 10
719.3643078265027
 20
165.7221962321523
 30
0.0
 10
719.8094056294028
 20
165.6364782965524
 30
0.0
 10
720.1101510041024
 20
165.6112543466524
 30
0.0
 10
720.3835048813021
 20
165.6235054634521
 30
0.0
 10
720.6248295767022
 20
165.6734856056523
 30
0.0
 10
720.8297215354019
 20
165.7610917725523
 30
0.0
 10
720.9422731680023
 20
165.8473162941522
 30
0.0
 10
720.9888114553018
 20
165.8952821907523
 30
0.0
  0
SPLINE
  5
5F3
330
2
100
AcDbEntity
  8
0
100
AcDbSpline
210
0.0
220
0.0
230
1.0
 70
     8
 71
     3
 72
    15
 73
    11
 74
     0
 42
0.000000001
 43
0.0000000001
 40
0.0
 40
0.0
 40
0.0
 40
0.0
 40
0.1668729823
 40
0.3237292474
 40
0.4684140547000001
 40
0.5995292557000002
 40
0.7165469182999999
 40
0.8202586607
 40
0.9132089128
 40
1.0
 40
1.0
 40
1.0
 40
1.0
 10
724.8872240888028
 20
174.4344857150522
 30
0.0
 10
725.0593121953021
 20
174.3623635054523
 30
0.0
 10
725.3987497886024
 20
174.2352335535524
 30
0.0
 10
725.9040979989018
 20
174.0948239602521
 30
0.0
 10
726.3818187707022
 20
174.0126214778524
 30
0.0
 10
726.8217740720025
 20
173.9904275765525
 30
0.0
 10
727.215087892902
 20
174.0291102446521
 30
0.0
 10
727.5540665476022
 20
174.1291559946521
 30
0.0
 10
727.8309320447021
 20
174.2908772448521
 30
0.0
 10
727.9695147863017
 20
174.4417043347521
 30
0.0
 10
728.0228152657022
 20
174.5228030703524
 30
0.0
  0
SPLINE
  5
5F4
330
2
100
AcDbEntity
  8
0
100
AcDbSpline
210
0.0
220
0.0
230
1.0
 70
     8
 71
     3
 72
    17
 73
    13
 74
     0
 42
0.000000001
 43
0.0000000001
 40
0.0
 40
0.0
 40
0.0
 40
0.0
 40
0.0376542576
 40
0.0779840268
 40
0.1220175223
 40
0.1703750615
 40
0.280697171
 40
0.4083163307000002
 40
0.5496193688000001
 40
0.6994012272
 40
0.8516099657999999
 40
1.0
 40
1.0
 40
1.0
 40
1.0
 10
717.9424031727028
 20
171.8431809645521
 30
0.0
 10
717.9211560654026
 20
171.7918693575525
 30
0.0
 10
717.8901067308021
 20
171.6798922867524
 30
0.0
 10
717.8799843160019
 20
171.4991196941523
 30
0.0
 10
717.9044222550024
 20
171.3039877457522
 30
0.0
 10
717.9857772973024
 20
171.0153668288521
 30
0.0
 10
718.1768991115019
 20
170.6348297140521
 30
0.0
 10
718.5114338564022
 20
170.1842476243523
 30
0.0
 10
718.9448184327026
 20
169.741929797552
 30
0.0
 10
719.4549381205023
 20
169.3307795040523
 30
0.0
 10
720.0154604452022
 20
168.9720293305522
 30
0.0
 10
720.413950490302
 20
168.7750010212521
 30
0.0
 10
720.6158021204022
 20
168.6904049043523
 30
0.0
  0
SPLINE
  5
5F5
330
2
100
AcDbEntity
  8
0
100
AcDbSpline
210
0.0
220
0.0
230
1.0
 70
     8
 71
     3
 72
    17
 73
    13
 74
     0
 42
0.000000001
 43
0.0000000001
 40
0.0
 40
0.0
 40
0.0
 40
0.0
 40
0.0378386617
 40
0.0772452448
 40
0.1195442962
 40
0.1656837636
 40
0.2712118926
 40
0.395047346
 40
0.5347653226000002
 40
0.6859639807
 40
0.8430662373
 40
1.0
 40
1.0
 40
1.0
 40
1.0
 10
732.7405713945022
 20
185.2056557953524
 30
0.0
 10
732.7615567324021
 20
185.2375738713521
 30
0.0
 10
732.7966619423019
 20
185.3081630250521
 30
0.0
 10
732.8244966119022
 20
185.4265208056522
 30
0.0
 10
732.8281473705025
 20
185.5563004389523
 30
0.0
 10
732.7999009568026
 20
185.7508495826523
 30
0.0
 10
732.6997800604019
 20
186.0136190819521
 30
0.0
 10
732.5012392578024
 20
186.3306563817523
 30
0.0
 10
732.2282027214018
 20
186.6498122150524
 30
0.0
 10
731.8936464383019
 20
186.9556237968522
 30
0.0
 10
731.5137923884027
 20
187.233273254052
 30
0.0
 10
731.2389132553022
 20
187.3926811121523
 30
0.0
 10
731.0976227136023
 20
187.4643485612523
 30
0.0
  0
SPLINE
  5
5F6
330
2
100
AcDbEntity
  8
0
100
AcDbSpline
210
0.0
220
0.0
230
1.0
 70
     8
 71
     3
 72
    15
 73
    11
 74
     0
 42
0.000000001
 43
0.0000000001
 40
0.0
 40
0.0
 40
0.0
 40
0.0
 40
0.0867742771
 40
0.1800229968
 40
0.2841044903999999
 40
0.4013888213000003
 40
0.5325778107
 40
0.677124567
 40
0.8336296906999999
 40
1.0
 40
1.0
 40
1.0
 40
1.0
 10
733.0632393421025
 20
180.6448579400521
 30
0.0
 10
732.9967033804019
 20
180.5491655966525
 30
0.0
 10
732.825595506502
 20
180.3720387310521
 30
0.0
 10
732.4890087729023
 20
180.1834843709521
 30
0.0
 10
732.0793449468025
 20
180.0678729145524
 30
0.0
 10
731.6056885922023
 20
180.0249142221523
 30
0.0
 10
731.0771192865026
 20
180.0540619924522
 30
0.0
 10
730.5041325105028
 20
180.1542866542522
 30
0.0
 10
729.898640113002
 20
180.3234226485524
 30
0.0
 10
729.4920496445025
 20
180.4758868313524
 30
0.0
 10
729.2859574920018
 20
180.5622601532521
 30
0.0
  0
SPLINE
  5
5F7
330
2
100
AcDbEntity
  8
0
100
AcDbSpline
210
0.0
220
0.0
230
1.0
 70
     8
 71
     3
 72
    15
 73
    11
 74
     0
 42
0.000000001
 43
0.0000000001
 40
0.0
 40
0.0
 40
0.0
 40
0.0
 40
0.0888786683
 40
0.1923140561
 40
0.3097012038
 40
0.4388130284000001
 40
0.5764020447
 40
0.7185949884000003
 40
0.8611936056000001
 40
1.0
 40
1.0
 40
1.0
 40
1.0
 10
721.1006673449021
 20
178.2297426271525
 30
0.0
 10
721.1182758652028
 20
178.0661443395524
 30
0.0
 10
721.2098579739027
 20
177.7177339446525
 30
0.0
 10
721.4650193473022
 20
177.201602035452
 30
0.0
 10
721.8377741231021
 20
176.6691875217525
 30
0.0
 10
722.3148046248021
 20
176.1398996741522
 30
0.0
 10
722.8786453933023
 20
175.6329234155523
 30
0.0
 10
723.5083423266019
 20
175.1673517948525
 30
0.0
 10
724.1801323000022
 20
174.7607196384524
 30
0.0
 10
724.6502211710028
 20
174.5338137538524
 30
0.0
 10
724.8872240888028
 20
174.4344857150522
 30
0.0
  0
SPLINE
  5
5F8
330
2
100
AcDbEntity
  8
0
100
AcDbSpline
210
0.0
220
0.0
230
1.0
 70
     8
 71
     3
 72
    11
 73
     7
 74
     0
 42
0.000000001
 43
0.0000000001
 40
0.0
 40
0.0
 40
0.0
 40
0.0
 40
0.2676754577
 40
0.5269639314
 40
0.7725880527
 40
1.0
 40
1.0
 40
1.0
 40
1.0
 10
723.1738657338024
 20
175.1525550398523
 30
0.0
 10
722.9718025723019
 20
175.2963162347523
 30
0.0
 10
722.5849801524021
 20
175.5951718822525
 30
0.0
 10
722.055975789102
 20
176.0785995151522
 30
0.0
 10
721.5975677654021
 20
176.5800344234521
 30
0.0
 10
721.3357270173022
 20
176.9328341776522
 30
0.0
 10
721.2212221222023
 20
177.1096851358524
 30
0.0
  0
SPLINE
  5
5F9
330
2
100
AcDbEntity
  8
0
100
AcDbSpline
210
0.0
220
0.0
230
1.0
 70
     8
 71
     3
 72
    11
 73
     7
 74
     0
 42
0.000000001
 43
0.0000000001
 40
0.0
 40
0.0
 40
0.0
 40
0.0
 40
0.2091167033
 40
0.4378244611000002
 40
0.6997445675
 40
1.0
 40
1.0
 40
1.0
 40
1.0
 10
731.4871808083023
 20
186.0296895559521
 30
0.0
 10
731.4775830284021
 20
186.0150807208523
 30
0.0
 10
731.4514318188026
 20
185.9881595397523
 30
0.0
 10
731.3982307212024
 20
185.9618964468522
 30
0.0
 10
731.3329076705027
 20
185.948697051352
 30
0.0
 10
731.285662793002
 20
185.9483992245523
 30
0.0
 10
731.2606161920025
 20
185.9499990635521
 30
0.0
  0
SPLINE
  5
5FA
330
2
100
AcDbEntity
  8
0
100
AcDbSpline
210
0.0
220
0.0
230
1.0
 70
     8
 71
     3
 72
    19
 73
    15
 74
     0
 42
0.000000001
 43
0.0000000001
 40
0.0
 40
0.0
 40
0.0
 40
0.0
 40
0.0372653147
 40
0.0763172567
 40
0.1186225188
 40
0.1651756627
 40
0.2165112954
 40
0.272784
 40
0.333854796
 40
0.3993639989
 40
0.5413733255
 40
0.6933339864
 40
0.8485483810999998
 40
1.0
 40
1.0
 40
1.0
 40
1.0
 10
723.1032164932018
 20
183.3328750402524
 30
0.0
 10
723.0509975557021
 20
183.2534258996524
 30
0.0
 10
722.9649593312021
 20
183.0759996538522
 30
0.0
 10
722.903106704102
 20
182.7771233563521
 30
0.0
 10
722.9062732601017
 20
182.4487099040523
 30
0.0
 10
722.9729996667025
 20
182.0957829416524
 30
0.0
 10
723.1014728317018
 20
181.7228594776524
 30
0.0
 10
723.2895682202022
 20
181.3348549717525
 30
0.0
 10
723.5344916321022
 20
180.9370186949522
 30
0.0
 10
723.9432511879019
 20
180.3861866533525
 30
0.0
 10
724.5735222889021
 20
179.7154563840522
 30
0.0
 10
725.4578930602025
 20
178.9826528338521
 30
0.0
 10
726.4403887989024
 20
178.3427940811525
 30
0.0
 10
727.1427047963022
 20
177.9928756544522
 30
0.0
 10
727.4990662970027
 20
177.8435243751523
 30
0.0
  0
SPLINE
  5
5FB
330
2
100
AcDbEntity
  8
0
100
AcDbSpline
210
0.0
220
0.0
230
1.0
 70
     8
 71
     3
 72
    14
 73
    10
 74
     0
 42
0.000000001
 43
0.0000000001
 40
0.0
 40
0.0
 40
0.0
 40
0.0
 40
0.0874036183
 40
0.1828015739
 40
0.2891763759
 40
0.4079853253000004
 40
0.5394755874000003
 40
0.6829637002000001
 40
1.0
 40
1.0
 40
1.0
 40
1.0
 10
723.3068611854021
 20
168.2845147676525
 30
0.0
 10
723.2503329960024
 20
168.2262530557522
 30
0.0
 10
723.1136098417024
 20
168.1215343872522
 30
0.0
 10
722.8647367821028
 20
168.0151216083522
 30
0.0
 10
722.5716044937022
 20
167.9544259923522
 30
0.0
 10
722.2395722392026
 20
167.9395576282521
 30
0.0
 10
721.8742672394023
 20
167.9701987248521
 30
0.0
 10
721.333624122402
 20
168.0743193141524
 30
0.0
 10
720.9264535361022
 20
168.2134779038524
 30
0.0
 10
720.6548848820025
 20
168.3272924597522
 30
0.0
  0
SPLINE
  5
5FC
330
2
100
AcDbEntity
  8
0
100
AcDbSpline
210
0.0
220
0.0
230
1.0
 70
     8
 71
     3
 72
    18
 73
    14
 74
     0
 42
0.000000001
 43
0.0000000001
 40
0.0
 40
0.0
 40
0.0
 40
0.0
 40
0.1483673007
 40
0.3005555745
 40
0.4503159267
 40
0.5915999043
 40
0.7192009173000004
 40
0.7767189794
 40
0.8296583636999999
 40
0.8780055593000001
 40
0.9220305756999998
 40
0.9623533848999999
 40
1.0
 40
1.0
 40
1.0
 40
1.0
 10
720.6548848820025
 20
168.3272924597522
 30
0.0
 10
720.408979644702
 20
168.4303514649523
 30
0.0
 10
719.9235128988026
 20
168.6703892093523
 30
0.0
 10
719.2406687453018
 20
169.1074217678524
 30
0.0
 10
718.6191465009019
 20
169.6083775685524
 30
0.0
 10
718.0914053453022
 20
170.1470516890521
 30
0.0
 10
717.7399962203022
 20
170.6201225959521
 30
0.0
 10
717.5336579149021
 20
170.9955908580523
 30
0.0
 10
717.4227645775023
 20
171.2592183795521
 30
0.0
 10
717.3518299497023
 20
171.5113581814521
 30
0.0
 10
717.3220634219021
 20
171.7490573791524
 30
0.0
 10
717.3343998649021
 20
171.9692822941524
 30
0.0
 10
717.3722798386021
 20
172.1056768508524
 30
0.0
 10
717.398168110402
 20
172.1681817695525
 30
0.0
  0
SPLINE
  5
5FD
330
2
100
AcDbEntity
  8
0
100
AcDbSpline
210
0.0
220
0.0
230
1.0
 70
     8
 71
     3
 72
    17
 73
    13
 74
     0
 42
0.000000001
 43
0.0000000001
 40
0.0
 40
0.0
 40
0.0
 40
0.0
 40
0.037653798
 40
0.077982944
 40
0.1220157943
 40
0.1703728521
 40
0.2806945499
 40
0.4083139208000003
 40
0.5496181068000002
 40
0.6994024968000005
 40
0.8516106882999999
 40
1.0
 40
1.0
 40
1.0
 40
1.0
 10
716.1243849345026
 20
169.0924302931525
 30
0.0
 10
716.1030723056025
 20
169.0409715006521
 30
0.0
 10
716.0719243112022
 20
168.9286721762523
 30
0.0
 10
716.061762150402
 20
168.7473760827524
 30
0.0
 10
716.0862617126017
 20
168.5516771784523
 30
0.0
 10
716.1678436156022
 20
168.2622150919523
 30
0.0
 10
716.3595138201023
 20
167.8805663485522
 30
0.0
 10
716.6950184742022
 20
167.4286668706522
 30
0.0
 10
717.1296666646028
 20
166.9850541950522
 30
0.0
 10
717.6412739284018
 20
166.5727014555522
 30
0.0
 10
718.2034303571022
 20
166.2129057026522
 30
0.0
 10
718.6030790764021
 20
166.0153042061524
 30
0.0
 10
718.8055175578024
 20
165.9304621395522
 30
0.0
  0
LINE
  5
5FE
102
{ACAD_REACTORS
330
649
102
}
330
2
100
AcDbEntity
  8
0
100
AcDbLine
 10
760.0064680074431
 20
215.4491573656696
 30
0.0
 11
760.0064680074431
 21
224.0491497014351
 31
0.0
  0
LINE
  5
5FF
330
2
100
AcDbEntity
  8
0
100
AcDbLine
 10
762.7064653074429
 20
224.6491004734171
 30
0.0
 11
762.7064653074429
 21
214.8492065936876
 31
0.0
  0
LINE
  5
600
330
2
100
AcDbEntity
  8
0
100
AcDbLine
 10
764.1064639074429
 20
224.6491004734171
 30
0.0
 11
764.1064639074429
 21
214.8492065936876
 31
0.0
  0
LINE
  5
601
330
2
100
AcDbEntity
  8
0
100
AcDbLine
 10
768.2064598074433
 20
214.0491592335357
 30
0.0
 11
768.7064593074429
 21
214.0491592335357
 31
0.0
  0
LINE
  5
602
330
2
100
AcDbEntity
  8
0
100
AcDbLine
 10
773.1064549074427
 20
215.2491580335355
 30
0.0
 11
774.3064537074426
 21
215.5491577335356
 31
0.0
  0
LINE
  5
603
330
2
100
AcDbEntity
  8
0
100
AcDbLine
 10
781.8064462074428
 20
216.1991570835358
 30
0.0
 11
785.5559567499287
 21
216.8266099604821
 31
0.0
  0
LINE
  5
604
330
2
100
AcDbEntity
  8
0
100
AcDbLine
 10
778.0064500074423
 20
216.1991570835358
 30
0.0
 11
781.8064462074428
 21
216.8350583621337
 31
0.0
  0
LINE
  5
605
330
2
100
AcDbEntity
  8
0
100
AcDbLine
 10
760.6064674074423
 20
214.8491584335357
 30
0.0
 11
762.7064653074429
 21
214.8491584335357
 31
0.0
  0
LINE
  5
606
330
2
100
AcDbEntity
  8
0
100
AcDbLine
 10
764.1064639074429
 20
214.8491584335357
 30
0.0
 11
767.8064602074429
 21
214.8491584335357
 31
0.0
  0
LINE
  5
607
102
{ACAD_REACTORS
330
649
102
}
330
2
100
AcDbEntity
  8
0
100
AcDbLine
 10
767.8064602074429
 20
225.0491482335356
 30
0.0
 11
767.8064602074429
 21
214.4491588335355
 31
0.0
  0
LINE
  5
608
330
2
100
AcDbEntity
  8
0
100
AcDbLine
 10
774.3064537074426
 20
216.1991570835358
 30
0.0
 11
778.0064500074423
 21
216.8183241179682
 31
0.0
  0
LINE
  5
609
330
2
100
AcDbEntity
  8
0
100
AcDbLine
 10
769.106458907443
 20
215.6991575835355
 30
0.0
 11
773.1064549074427
 21
215.6991575835355
 31
0.0
  0
LINE
  5
60A
330
2
100
AcDbEntity
  8
0
100
AcDbLine
 10
764.1064639074429
 20
215.7991574835356
 30
0.0
 11
762.7064653074429
 21
215.7991574835356
 31
0.0
  0
LINE
  5
60B
330
2
100
AcDbEntity
  8
0
100
AcDbLine
 10
769.106458907443
 20
225.0491482335356
 30
0.0
 11
769.106458907443
 21
214.4491588335355
 31
0.0
  0
LINE
  5
60C
330
2
100
AcDbEntity
  8
0
100
AcDbLine
 10
773.1064549074427
 20
215.249158037369
 30
0.0
 11
773.1064549074427
 21
224.2491490297025
 31
0.0
  0
LINE
  5
60D
330
2
100
AcDbEntity
  8
0
100
AcDbLine
 10
774.3064537074426
 20
215.5491577356025
 30
0.0
 11
774.3064537074426
 21
223.9491493314691
 31
0.0
  0
LINE
  5
60E
330
2
100
AcDbEntity
  8
0
100
AcDbLine
 10
764.1064639074429
 20
223.6991495835355
 30
0.0
 11
762.7064653074429
 21
223.6991495835355
 31
0.0
  0
LINE
  5
60F
330
2
100
AcDbEntity
  8
0
100
AcDbLine
 10
769.106458907443
 20
223.7991494835356
 30
0.0
 11
773.1064549074427
 21
223.7991494835356
 31
0.0
  0
LINE
  5
610
330
2
100
AcDbEntity
  8
0
100
AcDbLine
 10
774.3064537074426
 20
223.2991499835358
 30
0.0
 11
778.0064500074423
 21
222.6799829491034
 31
0.0
  0
LINE
  5
611
102
{ACAD_REACTORS
330
643
102
}
330
2
100
AcDbEntity
  8
0
100
AcDbLine
 10
760.6064674074423
 20
224.6491486335358
 30
0.0
 11
762.7064653074429
 21
224.6491486335358
 31
0.0
  0
LINE
  5
612
330
2
100
AcDbEntity
  8
0
100
AcDbLine
 10
764.1064639074429
 20
224.6491486335358
 30
0.0
 11
767.8064602074429
 21
224.6491486335358
 31
0.0
  0
LINE
  5
613
330
2
100
AcDbEntity
  8
0
100
AcDbLine
 10
778.0064500074423
 20
223.2991499835358
 30
0.0
 11
781.8064462074428
 21
222.6632487049374
 31
0.0
  0
LINE
  5
614
330
2
100
AcDbEntity
  8
0
100
AcDbLine
 10
781.8064462074428
 20
223.2991499835358
 30
0.0
 11
785.5559567499287
 21
222.671697106589
 31
0.0
  0
LINE
  5
615
330
2
100
AcDbEntity
  8
0
100
AcDbLine
 10
773.1064549074427
 20
224.2491490335356
 30
0.0
 11
774.3064537074426
 21
223.9491493335354
 31
0.0
  0
LINE
  5
616
102
{ACAD_REACTORS
330
652
102
}
330
2
100
AcDbEntity
  8
0
100
AcDbLine
 10
778.0064500074423
 20
216.1991570835358
 30
0.0
 11
778.0064500074423
 21
223.2991499835358
 31
0.0
  0
LINE
  5
617
330
2
100
AcDbEntity
  8
0
100
AcDbLine
 10
768.2064598074433
 20
225.4491478335354
 30
0.0
 11
768.7064593074429
 21
225.4491478335354
 31
0.0
  0
LINE
  5
618
330
2
100
AcDbEntity
  8
0
100
AcDbLine
 10
781.8064462074428
 20
216.1991570835358
 30
0.0
 11
781.8064462074428
 21
223.2991499835358
 31
0.0
  0
LINE
  5
619
102
{ACAD_REACTORS
330
64F
102
}
330
2
100
AcDbEntity
  8
0
100
AcDbLine
 10
785.8064422074432
 20
222.3758116726081
 30
0.0
 11
785.8064422074432
 21
217.122495394463
 31
0.0
  0
LINE
  5
61A
330
2
100
AcDbEntity
  8
0
100
AcDbLine
 10
738.8269644718086
 20
223.9999248972268
 30
0.0
 11
736.0529809444618
 21
221.2259413698794
 31
0.0
  0
LINE
  5
61B
330
2
100
AcDbEntity
  8
0
100
AcDbLine
 10
736.0529809444618
 20
218.2723656971917
 30
0.0
 11
738.8269644718086
 21
215.4983821698448
 31
0.0
  0
LINE
  5
61C
330
2
100
AcDbEntity
  8
0
100
AcDbLine
 10
738.6040694534042
 20
218.4737343232228
 30
0.0
 11
739.7039193131534
 21
219.573584182972
 31
0.0
  0
LINE
  5
61D
330
2
100
AcDbEntity
  8
0
100
AcDbLine
 10
740.4793216586833
 20
220.3489865285352
 30
0.0
 11
741.5791715184322
 21
221.4488363882843
 31
0.0
  0
LINE
  5
61E
330
2
100
AcDbEntity
  8
0
100
AcDbLine
 10
742.0034351629013
 20
221.0245727438488
 30
0.0
 11
740.9035853031521
 21
219.9247228840996
 31
0.0
  0
LINE
  5
61F
330
2
100
AcDbEntity
  8
0
100
AcDbLine
 10
740.1281829575894
 20
219.149320538536
 30
0.0
 11
739.0283330978402
 21
218.0494706787868
 31
0.0
  0
LINE
  5
620
330
2
100
AcDbEntity
  8
0
100
AcDbLine
 10
741.7805401444967
 20
215.4983821698448
 30
0.0
 11
744.5545236718437
 21
218.2723656971917
 31
0.0
  0
LINE
  5
621
330
2
100
AcDbEntity
  8
0
100
AcDbLine
 10
744.5545236718437
 20
221.2259413698794
 30
0.0
 11
741.7805401444967
 21
223.9999248972268
 31
0.0
  0
ARC
  5
622
330
2
100
AcDbEntity
  8
0
100
AcDbCircle
 10
760.6064674074423
 20
224.0491492335355
 30
0.0
 40
0.5999994000000001
100
AcDbArc
 50
90.0
 51
180.0000018531953
  0
ARC
  5
623
102
{ACAD_REACTORS
330
643
102
}
330
2
100
AcDbEntity
  8
0
100
AcDbCircle
 10
760.6064674074423
 20
215.4491578335356
 30
0.0
 40
0.5999994000000001
100
AcDbArc
 50
179.9999981468046
 51
270.0
  0
ARC
  5
624
330
2
100
AcDbEntity
  8
0
100
AcDbCircle
 10
768.7064593074429
 20
214.4491588335355
 30
0.0
 40
0.3999995999999999
100
AcDbArc
 50
270.0
 51
0.0000053740996857
  0
ARC
  5
625
330
2
100
AcDbEntity
  8
0
100
AcDbCircle
 10
768.7064593074429
 20
225.0491482335356
 30
0.0
 40
0.3999995999999999
100
AcDbArc
 50
359.9999946259003
 51
90.0
  0
ARC
  5
626
330
2
100
AcDbEntity
  8
0
100
AcDbCircle
 10
768.2064598074433
 20
214.4491588335355
 30
0.0
 40
0.3999995999999999
100
AcDbArc
 50
179.9999973759905
 51
270.0
  0
ARC
  5
627
330
2
100
AcDbEntity
  8
0
100
AcDbCircle
 10
768.2064598074433
 20
225.0491482335356
 30
0.0
 40
0.3999995999999999
100
AcDbArc
 50
90.0
 51
180.0000026240095
  0
ARC
  5
628
330
2
100
AcDbEntity
  8
0
100
AcDbCircle
 10
785.5064425074426
 20
217.122495343363
 30
0.0
 40
0.2999997
100
AcDbArc
 50
279.5000019850879
 51
0.0000097601116644
  0
ARC
  5
629
330
2
100
AcDbEntity
  8
0
100
AcDbCircle
 10
785.5064425074426
 20
222.3758117237081
 30
0.0
 40
0.2999997
100
AcDbArc
 50
359.9999902398883
 51
80.49999801491209
  0
CIRCLE
  5
62A
330
2
100
AcDbEntity
  8
0
100
AcDbCircle
 10
740.3037523081532
 20
219.7491535335353
 30
0.0
 40
5.6999943
  0
ARC
  5
62B
330
2
100
AcDbEntity
  8
0
100
AcDbCircle
 10
740.3037523081532
 20
219.7491535335353
 30
0.0
 40
4.499995499999998
100
AcDbArc
 50
160.8419327632169
 51
199.158067236783
  0
ARC
  5
62C
330
2
100
AcDbEntity
  8
0
100
AcDbCircle
 10
740.3037523081532
 20
219.7491535335353
 30
0.0
 40
4.499995499999998
100
AcDbArc
 50
340.8419327632168
 51
19.15806723678306
  0
ARC
  5
62D
330
2
100
AcDbEntity
  8
0
100
AcDbCircle
 10
740.3037523081532
 20
219.7491535335353
 30
0.0
 40
4.499995499999998
100
AcDbArc
 50
250.8419327632225
 51
289.1580672367775
  0
ARC
  5
62E
330
2
100
AcDbEntity
  8
0
100
AcDbCircle
 10
740.3037523081532
 20
219.7491535335353
 30
0.0
 40
4.499995499999998
100
AcDbArc
 50
70.84193276322245
 51
109.1580672367775
  0
ARC
  5
62F
330
2
100
AcDbEntity
  8
0
100
AcDbCircle
 10
740.3037523081532
 20
219.7491535335353
 30
0.0
 40
4.199995799999999
100
AcDbArc
 50
150.3588855808011
 51
209.6411144191988
  0
ARC
  5
630
330
2
100
AcDbEntity
  8
0
100
AcDbCircle
 10
740.3037523081532
 20
219.7491535335353
 30
0.0
 40
4.199995799999999
100
AcDbArc
 50
60.35888558080278
 51
119.6411144191972
  0
ARC
  5
631
330
2
100
AcDbEntity
  8
0
100
AcDbCircle
 10
740.3037523081532
 20
219.7491535335353
 30
0.0
 40
4.199995799999999
100
AcDbArc
 50
330.3588855808012
 51
29.64111441919878
  0
ARC
  5
632
330
2
100
AcDbEntity
  8
0
100
AcDbCircle
 10
740.3037523081532
 20
219.7491535335353
 30
0.0
 40
4.199995799999999
100
AcDbArc
 50
240.3588855808028
 51
299.6411144191972
  0
CIRCLE
  5
633
330
2
100
AcDbEntity
  8
0
100
AcDbCircle
 10
740.3037523081532
 20
219.7491535335353
 30
0.0
 40
3.54999645
  0
CIRCLE
  5
634
330
2
100
AcDbEntity
  8
0
100
AcDbCircle
 10
740.3037523081532
 20
219.7491535335353
 30
0.0
 40
2.124997875
  0
ARC
  5
635
330
2
100
AcDbEntity
  8
0
100
AcDbCircle
 10
740.3037523081532
 20
219.7491535335353
 30
0.0
 40
0.624999375
100
AcDbArc
 50
73.68540201403823
 51
196.3145979859007
  0
ARC
  5
636
330
2
100
AcDbEntity
  8
0
100
AcDbCircle
 10
740.3037523081532
 20
219.7491535335353
 30
0.0
 40
0.624999375
100
AcDbArc
 50
253.6854020140382
 51
16.31459798590094
  0
SPLINE
  5
637
330
2
100
AcDbEntity
  8
0
100
AcDbSpline
210
0.0
220
0.0
230
1.0
 70
     8
 71
     3
 72
    11
 73
     7
 74
     0
 42
0.000000001
 43
0.0000000001
 40
0.0
 40
0.0
 40
0.0
 40
0.0
 40
0.2553842364
 40
0.5079977369
 40
0.7567936909000002
 40
1.0
 40
1.0
 40
1.0
 40
1.0
 10
773.1064549074427
 20
218.2723656971917
 30
0.0
 10
773.2124652740988
 20
218.2293728163514
 30
0.0
 10
773.4222402525902
 20
218.1411087184152
 30
0.0
 10
773.7301872596101
 20
217.9991618997292
 30
0.0
 10
774.0265955141677
 20
217.8459522212721
 30
0.0
 10
774.2158404576559
 20
217.7324572236671
 30
0.0
 10
774.3064537074426
 20
217.6719797830447
 30
0.0
  0
SPLINE
  5
638
330
2
100
AcDbEntity
  8
0
100
AcDbSpline
210
0.0
220
0.0
230
1.0
 70
     8
 71
     3
 72
    11
 73
     7
 74
     0
 42
0.000000001
 43
0.0000000001
 40
0.0
 40
0.0
 40
0.0
 40
0.0
 40
0.2432062993
 40
0.4920021203000001
 40
0.7446157028
 40
1.0
 40
1.0
 40
1.0
 40
1.0
 10
774.3064537074426
 20
216.0987680839913
 30
0.0
 10
774.2158404615231
 20
216.0382906459354
 30
0.0
 10
774.0265955160014
 20
215.9247957784306
 30
0.0
 10
773.7301873562427
 20
215.7715859859737
 30
0.0
 10
773.4222403507239
 20
215.6296391472875
 30
0.0
 10
773.2124652990988
 20
215.5413750608182
 30
0.0
 10
773.1064549074427
 20
215.4983821698448
 30
0.0
  0
SPLINE
  5
639
330
2
100
AcDbEntity
  8
0
100
AcDbSpline
210
0.0
220
0.0
230
1.0
 70
     8
 71
     3
 72
    11
 73
     7
 74
     0
 42
0.000000001
 43
0.0000000001
 40
0.0
 40
0.0
 40
0.0
 40
0.0
 40
0.2432062993
 40
0.4920021203000001
 40
0.7446157028
 40
1.0
 40
1.0
 40
1.0
 40
1.0
 10
774.3064537074426
 20
221.8263272840264
 30
0.0
 10
774.2158404615231
 20
221.7658498460042
 30
0.0
 10
774.0265955160014
 20
221.6523549784657
 30
0.0
 10
773.7301873562427
 20
221.4991451860088
 30
0.0
 10
773.4222403507239
 20
221.3571983473558
 30
0.0
 10
773.2124652990988
 20
221.2689342608533
 30
0.0
 10
773.1064549074427
 20
221.2259413698794
 30
0.0
  0
SPLINE
  5
63A
330
2
100
AcDbEntity
  8
0
100
AcDbSpline
210
0.0
220
0.0
230
1.0
 70
     8
 71
     3
 72
    11
 73
     7
 74
     0
 42
0.000000001
 43
0.0000000001
 40
0.0
 40
0.0
 40
0.0
 40
0.0
 40
0.2553842364
 40
0.5079977369
 40
0.7567936909000002
 40
1.0
 40
1.0
 40
1.0
 40
1.0
 10
773.1064549074427
 20
223.9999248972268
 30
0.0
 10
773.2124652740988
 20
223.9569320163865
 30
0.0
 10
773.4222402525902
 20
223.8686679184507
 30
0.0
 10
773.7301872596101
 20
223.7267210997976
 30
0.0
 10
774.0265955141677
 20
223.5735114213071
 30
0.0
 10
774.2158404576559
 20
223.4600164237023
 30
0.0
 10
774.3064537074426
 20
223.3995389830798
 30
0.0
  0
LINE
  5
63B
330
2
100
AcDbEntity
  8
CEN
100
AcDbLine
 10
787.0535257377435
 20
219.7493135294849
 30
0.0
 11
758.5853902714436
 21
219.7493135294849
 31
0.0
  0
LINE
  5
63C
330
2
100
AcDbEntity
  8
CEN
100
AcDbLine
 10
733.9600785670703
 20
219.7491535335353
 30
0.0
 11
746.7821975776526
 21
219.7491535335353
 31
0.0
  0
LINE
  5
63D
330
2
100
AcDbEntity
  8
CEN
100
AcDbLine
 10
740.3037523081532
 20
226.031828207787
 30
0.0
 11
740.3037523081532
 21
213.270708264035
 31
0.0
  0
DIMENSION
  5
641
102
{ACAD_XDICTIONARY
360
642
102
}
102
{ACAD_REACTORS
330
643
102
}
330
2
100
AcDbEntity
  8
DIM
100
AcDbDimension
280
     0
  2
*D3
 10
757.6258752469077
 20
214.8491584335357
 30
0.0
 11
756.1258752469077
 21
219.7491535335359
 31
0.0
 70
    32
  1
%%C<>
 71
     5
 42
9.799990200000136
 73
     0
 74
     0
 75
     0
  3
01
100
AcDbAlignedDimension
 13
761.6564663574429
 23
224.6491486335358
 33
0.0
 14
760.6064674074423
 24
214.8491584335357
 34
0.0
 50
90.0
100
AcDbRotatedDimension
  0
DIMENSION
  5
647
102
{ACAD_XDICTIONARY
360
648
102
}
102
{ACAD_REACTORS
330
649
102
}
330
2
100
AcDbEntity
  8
DIM
100
AcDbDimension
280
     0
  2
*D4
 10
767.8064602074429
 20
210.1271317566908
 30
0.0
 11
763.9064641074431
 21
211.6271317566908
 31
0.0
 70
    32
 71
     5
 42
7.799992199999906
 73
     0
 74
     0
 75
     0
  3
01
100
AcDbAlignedDimension
 13
760.0064680074431
 23
215.9538778820238
 33
0.0
 14
767.8064602074429
 24
215.9538778820238
 34
0.0
 50
0.0
100
AcDbRotatedDimension
  0
DIMENSION
  5
64D
102
{ACAD_XDICTIONARY
360
64E
102
}
102
{ACAD_REACTORS
330
64F
102
}
330
2
100
AcDbEntity
  8
DIM
100
AcDbDimension
280
     0
  2
*D5
 10
785.8064422074432
 20
206.6073572415542
 30
0.0
 11
772.9064551074432
 21
208.1073572415542
 31
0.0
 70
    32
 71
     5
 42
25.79997420000018
 73
     0
 74
     0
 75
     0
  3
01
100
AcDbAlignedDimension
 13
760.0064680074431
 23
212.2096681323433
 33
0.0
 14
785.8064422074432
 24
218.2145797942881
 34
0.0
 50
0.0
100
AcDbRotatedDimension
  0
DIMENSION
  5
650
102
{ACAD_XDICTIONARY
360
651
102
}
102
{ACAD_REACTORS
330
652
102
}
330
2
100
AcDbEntity
  8
DIM
100
AcDbDimension
280
     0
  2
*D6
 10
791.1665106738928
 20
216.1991570835358
 30
0.0
 11
789.6665106738928
 21
219.7491535335359
 31
0.0
 70
    32
  1
%%C<>
 71
     5
 42
7.099992899999961
 73
     0
 74
     0
 75
     0
  3
01
100
AcDbAlignedDimension
 13
778.0064500074423
 23
223.2991499835358
 33
0.0
 14
778.0064500074423
 24
216.1991570835358
 34
0.0
 50
90.0
100
AcDbRotatedDimension
  0
DIMENSION
  5
B3D
330
2
100
AcDbEntity
  8
DIM
100
AcDbDimension
280
     0
  2
*D7
 10
753.7638407168818
 20
225.4491478335356
 30
0.0
 11
752.263840716882
 21
219.7491535335353
 31
0.0
 70
    32
  1
%%C<>
 71
     5
 42
11.39998859999991
 73
     0
 74
     0
 75
     0
  3
01
100
AcDbAlignedDimension
 13
768.2064598074433
 23
214.0491592335355
 33
0.0
 14
768.2064598074433
 24
225.4491478335354
 34
0.0
 50
90.0
100
AcDbRotatedDimension
  0
ENDSEC
  0
SECTION
  2
OBJECTS
  0
DICTIONARY
  5
B
330
0
100
AcDbDictionary
281
     1
  3
ACAD_CIP_PREVIOUS_PRODUCT_INFO
350
A74
  3
ACAD_COLOR
350
1F4
  3
ACAD_DATALINK
350
B94
  3
ACAD_DETAILVIEWSTYLE
350
A69
  3
ACAD_GROUP
350
1E1
  3
ACAD_IMAGE_VARS
350
B98
  3
ACAD_LAYOUT
350
1C2
  3
ACAD_MATERIAL
350
D
  3
ACAD_MLEADERSTYLE
350
255
  3
ACAD_MLINESTYLE
350
1E2
  3
ACAD_PLOTSETTINGS
350
1E3
  3
ACAD_PLOTSTYLENAME
350
A
  3
ACAD_SCALELIST
350
1F5
  3
ACAD_SECTIONVIEWSTYLE
350
A67
  3
ACAD_TABLESTYLE
350
1F6
  3
ACAD_VISUALSTYLE
350
1DB
  3
ACDB_RECOMPOSE_DATA
350
B93
  3
AcDbVariableDictionary
350
21E
  0
DICTIONARY
  5
1DC
330
1D8
100
AcDbDictionary
280
     1
281
     1
  0
DICTIONARY
  5
1CD
330
1CC
100
AcDbDictionary
280
     1
281
     1
  3
ACAD_LAYERFILTERS
360
3D5
  3
ACAD_LAYERSTATES
360
1CF
  3
ACLYDICTIONARY
360
3D4
  0
DICTIONARY
  5
7
330
6
100
AcDbDictionary
280
     1
281
     1
  3
ADSK_XREC_LAYER_RECONCILED
360
8
  0
DICTIONARY
  5
18
330
17
100
AcDbDictionary
280
     1
281
     1
  3
ADSK_XREC_LAYER_RECONCILED
360
19
  0
DICTIONARY
  5
26
330
25
100
AcDbDictionary
280
     1
281
     1
  3
ADSK_XREC_LAYER_RECONCILED
360
27
  0
DICTIONARY
  5
3
330
2
100
AcDbDictionary
280
     1
281
     1
  3
ACAD_SORTENTS
360
21D
  0
DICTIONARY
  5
A7F
330
A7E
100
AcDbDictionary
280
     1
281
     1
  0
DICTIONARY
  5
AC4
330
AC3
100
AcDbDictionary
280
     1
281
     1
  0
DICTIONARY
  5
AC6
330
AC5
100
AcDbDictionary
280
     1
281
     1
  0
DICTIONARY
  5
AEC
330
AEB
100
AcDbDictionary
280
     1
281
     1
  0
DICTIONARY
  5
AF0
330
AEF
100
AcDbDictionary
280
     1
281
     1
  0
DICTIONARY
  5
AF2
330
AF1
100
AcDbDictionary
280
     1
281
     1
  0
DICTIONARY
  5
AFD
330
AFC
100
AcDbDictionary
280
     1
281
     1
  0
DICTIONARY
  5
AFF
330
AFE
100
AcDbDictionary
280
     1
281
     1
  0
DICTIONARY
  5
B01
330
B00
100
AcDbDictionary
280
     1
281
     1
  0
DICTIONARY
  5
B10
330
B0F
100
AcDbDictionary
280
     1
281
     1
  0
DICTIONARY
  5
B12
330
B11
100
AcDbDictionary
280
     1
281
     1
  0
DICTIONARY
  5
B14
330
B13
100
AcDbDictionary
280
     1
281
     1
  0
DICTIONARY
  5
A59
330
97D
100
AcDbDictionary
280
     1
281
     1
  0
DICTIONARY
  5
A30
330
E6
100
AcDbDictionary
280
     1
281
     1
  0
DICTIONARY
  5
642
330
641
100
AcDbDictionary
280
     1
281
     1
  3
ACAD_DIMASSOC
360
643
  0
DICTIONARY
  5
648
330
647
100
AcDbDictionary
280
     1
281
     1
  3
ACAD_DIMASSOC
360
649
  0
DICTIONARY
  5
64E
330
64D
100
AcDbDictionary
280
     1
281
     1
  3
ACAD_DIMASSOC
360
64F
  0
DICTIONARY
  5
651
330
650
100
AcDbDictionary
280
     1
281
     1
  3
ACAD_DIMASSOC
360
652
  0
XRECORD
  5
A74
102
{ACAD_REACTORS
330
B
102
}
330
B
100
AcDbXrecord
280
     1
300
ACD
300
2018
300
ACD_F_S
  0
DICTIONARY
  5
1F4
102
{ACAD_REACTORS
330
B
102
}
330
B
100
AcDbDictionary
281
     1
  0
DICTIONARY
  5
B94
102
{ACAD_REACTORS
330
B
102
}
330
B
100
AcDbDictionary
280
     1
281
     1
  0
DICTIONARY
  5
A69
102
{ACAD_REACTORS
330
B
102
}
330
B
100
AcDbDictionary
281
     1
  3
Imperial24
350
A6A
  0
DICTIONARY
  5
1E1
102
{ACAD_REACTORS
330
B
102
}
330
B
100
AcDbDictionary
281
     1
  0
RASTERVARIABLES
  5
B98
102
{ACAD_REACTORS
330
B
102
}
330
B
100
AcDbRasterVariables
 90
        0
 70
     1
 71
     1
 72
     1
  0
DICTIONARY
  5
1C2
102
{ACAD_REACTORS
330
B
102
}
330
B
100
AcDbDictionary
281
     1
  3
Layout1
350
1C7
  3
Layout2
350
1CB
  3
Model
350
1C1
  0
DICTIONARY
  5
D
102
{ACAD_REACTORS
330
B
102
}
330
B
100
AcDbDictionary
281
     1
  3
ByBlock
350
1EC
  3
ByLayer
350
1E4
  3
Global
350
C
  0
DICTIONARY
  5
255
102
{ACAD_REACTORS
330
B
102
}
330
B
100
AcDbDictionary
281
     1
  3
Standard
350
256
  0
DICTIONARY
  5
1E2
102
{ACAD_REACTORS
330
B
102
}
330
B
100
AcDbDictionary
281
     1
  3
Standard
350
1F7
  0
DICTIONARY
  5
1E3
102
{ACAD_REACTORS
330
B
102
}
330
B
100
AcDbDictionary
281
     1
  0
ACDBDICTIONARYWDFLT
  5
A
102
{ACAD_REACTORS
330
B
102
}
330
B
100
AcDbDictionary
281
     1
  3
Normal
350
9
100
AcDbDictionaryWithDefault
340
9
  0
DICTIONARY
  5
1F5
102
{ACAD_REACTORS
330
B
102
}
330
B
100
AcDbDictionary
281
     1
  3
A0
350
1FC
  3
A1
350
1FD
  3
A2
350
1FE
  3
A3
350
1FF
  3
A4
350
200
  3
A5
350
201
  3
A6
350
202
  3
A7
350
203
  3
A8
350
204
  3
A9
350
205
  3
B0
350
206
  3
B1
350
207
  3
B2
350
208
  3
B3
350
209
  3
B4
350
20A
  3
B5
350
20B
  3
B6
350
20C
  3
B7
350
20D
  3
B8
350
20E
  3
B9
350
20F
  3
C0
350
210
  3
C1
350
211
  3
C2
350
212
  3
C3
350
213
  3
C4
350
214
  3
C5
350
215
  3
C6
350
216
  3
C7
350
217
  3
C8
350
218
  3
C9
350
219
  3
D0
350
21A
  3
D1
350
21B
  3
D2
350
21C
  0
DICTIONARY
  5
A67
102
{ACAD_REACTORS
330
B
102
}
330
B
100
AcDbDictionary
281
     1
  3
Imperial24
350
A68
  0
DICTIONARY
  5
1F6
102
{ACAD_REACTORS
330
B
102
}
330
B
100
AcDbDictionary
281
     1
  3
Standard
350
1F8
  0
DICTIONARY
  5
1DB
102
{ACAD_REACTORS
330
B
102
}
330
B
100
AcDbDictionary
281
     1
  3
2dWireframe
350
1DA
  3
3D Hidden
350
24D
  3
3dWireframe
350
1FB
  3
Basic
350
24C
  3
Brighten
350
250
  3
ColorChange
350
254
  3
Conceptual
350
24E
  3
Dim
350
24F
  3
EdgeColorOff
350
A66
  3
Facepattern
350
253
  3
Flat
350
248
  3
FlatWithEdges
350
249
  3
Gouraud
350
24A
  3
GouraudWithEdges
350
24B
  3
Hidden
350
A5E
  3
JitterOff
350
A64
  3
Linepattern
350
252
  3
OverhangOff
350
A65
  3
Realistic
350
1FA
  3
Shaded
350
A63
  3
Shaded with edges
350
A62
  3
Shades of Gray
350
A5F
  3
Sketchy
350
A60
  3
Thicken
350
251
  3
Wireframe
350
A5D
  3
X-Ray
350
A61
  0
XRECORD
  5
B93
102
{ACAD_REACTORS
330
B
102
}
330
B
100
AcDbXrecord
280
     1
 90
        1
330
1F8
  0
DICTIONARY
  5
21E
102
{ACAD_REACTORS
330
B
102
}
330
B
100
AcDbDictionary
281
     1
  3
CANNOSCALE
350
221
  3
CMLEADERSTYLE
350
220
  3
CTABLESTYLE
350
21F
  3
CVIEWDETAILSTYLE
350
B25
  3
CVIEWSECTIONSTYLE
350
B26
  3
DIMASSOC
350
357
  3
HIDETEXT
350
356
  3
INDEXCTL
350
355
  3
LAYEREVAL
350
B27
  3
LAYERNOTIFY
350
B28
  3
LIGHTINGUNITS
350
222
  3
MSLTSCALE
350
353
  3
SORTENTS
350
354
  0
DICTIONARY
  5
3D5
102
{ACAD_REACTORS
330
1CD
102
}
330
1CD
100
AcDbDictionary
281
     1
  0
DICTIONARY
  5
1CF
102
{ACAD_REACTORS
330
1CD
102
}
330
1CD
100
AcDbDictionary
281
     1
  0
DICTIONARY
  5
3D4
102
{ACAD_REACTORS
330
1CD
102
}
330
1CD
100
AcDbDictionary
281
     1
1001
ACAD
1000
<All
  0
XRECORD
  5
8
102
{ACAD_REACTORS
330
7
102
}
330
7
100
AcDbXrecord
280
     1
290
     1
  0
XRECORD
  5
19
102
{ACAD_REACTORS
330
18
102
}
330
18
100
AcDbXrecord
280
     1
290
     1
  0
XRECORD
  5
27
102
{ACAD_REACTORS
330
26
102
}
330
26
100
AcDbXrecord
280
     1
290
     1
  0
SORTENTSTABLE
  5
21D
102
{ACAD_REACTORS
330
3
102
}
330
3
100
AcDbSortentsTable
330
2
331
30B
  5
39E
331
309
  5
39C
331
30C
  5
39F
331
30D
  5
3A0
331
E6
  5
F6
331
30A
  5
39D
  0
DIMASSOC
  5
643
102
{ACAD_REACTORS
330
642
102
}
330
642
100
AcDbDimAssoc
330
641
 90
        3
 70
     0
 71
     0
  1
AcDbOsnapPointRef
 72
     2
331
611
 73
     2
 91
        0
 40
0.5
 10
0.0
 20
0.0
 30
0.0
 75
     0
  1
AcDbOsnapPointRef
 72
     1
331
623
 73
     2
 91
        0
 40
4.712388980384688
 10
0.0
 20
0.0
 30
1.999999999999998E+50
 75
     0
  0
DIMASSOC
  5
649
102
{ACAD_REACTORS
330
648
102
}
330
648
100
AcDbDimAssoc
330
647
 90
        3
 70
     0
 71
     0
  1
AcDbOsnapPointRef
 72
    10
331
5FE
 73
     2
 91
        0
 40
0.0586884844367989
 10
0.0
 20
0.0
 30
0.0
 75
     0
  1
AcDbOsnapPointRef
 72
     8
331
607
 73
     2
 91
        0
 40
0.8580452308293489
 10
0.0
 20
0.0
 30
0.0
 75
     1
  1
AcDbOsnapPointRef
 72
    10
331
5FE
 73
     2
 91
        0
 40
0.0586884844367989
 10
0.0
 20
0.0
 30
0.0
 75
     0
  0
DIMASSOC
  5
64F
102
{ACAD_REACTORS
330
64E
102
}
330
64E
100
AcDbDimAssoc
330
64D
 90
        2
 70
     0
 71
     0
  1
AcDbOsnapPointRef
 72
    10
331
619
 73
     2
 91
        0
 40
0.7921152388314364
 10
0.0
 20
0.0
 30
0.0
 75
     0
  0
DIMASSOC
  5
652
102
{ACAD_REACTORS
330
651
102
}
330
651
100
AcDbDimAssoc
330
650
 90
        3
 70
     0
 71
     0
  1
AcDbOsnapPointRef
 72
     1
331
616
 73
     2
 91
        0
 40
1.0
 10
0.0
 20
0.0
 30
1.999999999999998E+50
 75
     0
  1
AcDbOsnapPointRef
 72
    13
331
616
 73
     2
 91
        0
 40
0.0
 10
0.0
 20
0.0
 30
1.999999999999998E+50
 75
     0
  0
ACDBDETAILVIEWSTYLE
  5
A6A
102
{ACAD_REACTORS
330
A69
102
}
330
A69
100
AcDbModelDocViewStyle
 70
     0
  3
Imperial24
290
     0
300
Imperial24
 90
        0
100
AcDbDetailViewStyle
 70
     0
 71
     0
 90
        3
 71
     1
340
48
 62
   256
 40
0.24
340
0
 62
   256
 40
0.24
300

 40
0.36
280
     3
 71
     2
340
15
 90
       25
 62
   256
 71
     3
340
48
 62
   256
 40
0.24
 90
        1
 40
0.75
 90
        1
300
%<\AcVar ViewType \f "%tc1">% %<\AcVar ViewDetailId>%\PSCALE %<\AcVar ViewScale \f "%sn">%
 71
     4
340
15
 90
       25
 62
   256
340
15
 90
       25
 62
   256
280
     0
  0
LAYOUT
  5
1C7
102
{ACAD_REACTORS
330
1C2
102
}
330
1C2
100
AcDbPlotSettings
  1

  2
none_device
  4

  6

 40
0.0
 41
0.0
 42
0.0
 43
0.0
 44
0.0
 45
0.0
 46
0.0
 47
0.0
 48
0.0
 49
0.0
140
0.0
141
0.0
142
1.0
143
1.0
 70
   688
 72
     0
 73
     0
 74
     5
  7

 75
    16
 76
     0
 77
     2
 78
   300
147
1.0
148
0.0
149
0.0
100
AcDbLayout
  1
Layout1
 70
     1
 71
     1
 10
0.0
 20
0.0
 11
12.0
 21
9.0
 12
0.0
 22
0.0
 32
0.0
 14
1.000000000000000E+20
 24
1.000000000000000E+20
 34
1.000000000000000E+20
 15
-1.000000000000000E+20
 25
-1.000000000000000E+20
 35
-1.000000000000000E+20
146
0.0
 13
0.0
 23
0.0
 33
0.0
 16
1.0
 26
0.0
 36
0.0
 17
0.0
 27
1.0
 37
0.0
 76
     0
330
1C4
  0
LAYOUT
  5
1CB
102
{ACAD_REACTORS
330
1C2
102
}
330
1C2
100
AcDbPlotSettings
  1

  2
none_device
  4

  6

 40
0.0
 41
0.0
 42
0.0
 43
0.0
 44
0.0
 45
0.0
 46
0.0
 47
0.0
 48
0.0
 49
0.0
140
0.0
141
0.0
142
1.0
143
1.0
 70
   688
 72
     0
 73
     0
 74
     5
  7

 75
    16
 76
     0
 77
     2
 78
   300
147
1.0
148
0.0
149
0.0
100
AcDbLayout
  1
Layout2
 70
     1
 71
     2
 10
0.0
 20
0.0
 11
0.0
 21
0.0
 12
0.0
 22
0.0
 32
0.0
 14
0.0
 24
0.0
 34
0.0
 15
0.0
 25
0.0
 35
0.0
146
0.0
 13
0.0
 23
0.0
 33
0.0
 16
1.0
 26
0.0
 36
0.0
 17
0.0
 27
1.0
 37
0.0
 76
     0
330
1C8
  0
LAYOUT
  5
1C1
102
{ACAD_REACTORS
330
1C2
102
}
330
1C2
100
AcDbPlotSettings
  1

  2
Microsoft Print to PDF_3.pc5
  4
A4
  6

 40
0.0
 41
0.0
 42
0.0
 43
0.0
 44
297.0106666666667
 45
210.0156666666666
 46
0.0
 47
0.0036203314259353
 48
600.5828285799999
 49
9.60833492
140
749.08220355
141
114.60833492
142
1.0
143
0.4999799388910838
 70
  3764
 72
     1
 73
     0
 74
     4
  7
monochrome.ctb
 75
     0
 76
     1
 77
     2
 78
   300
147
2.000080247655378
148
-600.5828285799999
149
-9.60833492
100
AcDbLayout
  1
Model
 70
     1
 71
     0
 10
0.0
 20
0.0
 11
12.0
 21
9.0
 12
0.0
 22
0.0
 32
0.0
 14
1.000000000000000E+20
 24
1.000000000000000E+20
 34
1.000000000000000E+20
 15
-1.000000000000000E+20
 25
-1.000000000000000E+20
 35
-1.000000000000000E+20
146
0.0
 13
0.0
 23
0.0
 33
0.0
 16
1.0
 26
0.0
 36
0.0
 17
0.0
 27
1.0
 37
0.0
 76
     0
330
2
331
1D9
1001
ACAD_PSEXT
1000
Microsoft Print to PDF_3.pc5
1000
Microsoft Print to PDF_3
1000
PORTPROMPT:
1000

1070
     0
  0
MATERIAL
  5
1EC
102
{ACAD_XDICTIONARY
360
1ED
102
}
102
{ACAD_REACTORS
330
D
102
}
330
D
100
AcDbMaterial
  1
ByBlock
 72
     0
 73
     2
 43
0.0208333333333333
 43
0.0
 43
0.0
 43
0.0
 43
0.0
 43
0.0208333333333333
 43
0.0
 43
0.0
 43
0.0
 43
0.0
 43
1.0
 43
0.0
 43
0.0
 43
0.0
 43
0.0
 43
1.0
 77
     0
 78
     2
 47
0.0208333333333333
 47
0.0
 47
0.0
 47
0.0
 47
0.0
 47
0.0208333333333333
 47
0.0
 47
0.0
 47
0.0
 47
0.0
 47
1.0
 47
0.0
 47
0.0
 47
0.0
 47
0.0
 47
1.0
171
     0
172
     2
 49
0.0208333333333333
 49
0.0
 49
0.0
 49
0.0
 49
0.0
 49
0.0208333333333333
 49
0.0
 49
0.0
 49
0.0
 49
0.0
 49
1.0
 49
0.0
 49
0.0
 49
0.0
 49
0.0
 49
1.0
175
     0
176
     2
142
0.0208333333333333
142
0.0
142
0.0
142
0.0
142
0.0
142
0.0208333333333333
142
0.0
142
0.0
142
0.0
142
0.0
142
1.0
142
0.0
142
0.0
142
0.0
142
0.0
142
1.0
179
     0
270
     2
144
0.0208333333333333
144
0.0
144
0.0
144
0.0
144
0.0
144
0.0208333333333333
144
0.0
144
0.0
144
0.0
144
0.0
144
1.0
144
0.0
144
0.0
144
0.0
144
0.0
144
1.0
274
     2
147
0.0208333333333333
147
0.0
147
0.0
147
0.0
147
0.0
147
0.0208333333333333
147
0.0
147
0.0
147
0.0
147
0.0
147
1.0
147
0.0
147
0.0
147
0.0
147
0.0
147
1.0
 94
      127
  0
MATERIAL
  5
1E4
102
{ACAD_XDICTIONARY
360
1E5
102
}
102
{ACAD_REACTORS
330
D
102
}
330
D
100
AcDbMaterial
  1
ByLayer
 72
     0
 73
     2
 43
0.0208333333333333
 43
0.0
 43
0.0
 43
0.0
 43
0.0
 43
0.0208333333333333
 43
0.0
 43
0.0
 43
0.0
 43
0.0
 43
1.0
 43
0.0
 43
0.0
 43
0.0
 43
0.0
 43
1.0
 77
     0
 78
     2
 47
0.0208333333333333
 47
0.0
 47
0.0
 47
0.0
 47
0.0
 47
0.0208333333333333
 47
0.0
 47
0.0
 47
0.0
 47
0.0
 47
1.0
 47
0.0
 47
0.0
 47
0.0
 47
0.0
 47
1.0
171
     0
172
     2
 49
0.0208333333333333
 49
0.0
 49
0.0
 49
0.0
 49
0.0
 49
0.0208333333333333
 49
0.0
 49
0.0
 49
0.0
 49
0.0
 49
1.0
 49
0.0
 49
0.0
 49
0.0
 49
0.0
 49
1.0
175
     0
176
     2
142
0.0208333333333333
142
0.0
142
0.0
142
0.0
142
0.0
142
0.0208333333333333
142
0.0
142
0.0
142
0.0
142
0.0
142
1.0
142
0.0
142
0.0
142
0.0
142
0.0
142
1.0
179
     0
270
     2
144
0.0208333333333333
144
0.0
144
0.0
144
0.0
144
0.0
144
0.0208333333333333
144
0.0
144
0.0
144
0.0
144
0.0
144
1.0
144
0.0
144
0.0
144
0.0
144
0.0
144
1.0
274
     2
147
0.0208333333333333
147
0.0
147
0.0
147
0.0
147
0.0
147
0.0208333333333333
147
0.0
147
0.0
147
0.0
147
0.0
147
1.0
147
0.0
147
0.0
147
0.0
147
0.0
147
1.0
 94
      127
  0
MATERIAL
  5
C
102
{ACAD_XDICTIONARY
360
E
102
}
102
{ACAD_REACTORS
330
D
102
}
330
D
100
AcDbMaterial
  1
Global
 72
     0
 73
     2
 43
0.0208333333333333
 43
0.0
 43
0.0
 43
0.0
 43
0.0
 43
0.0208333333333333
 43
0.0
 43
0.0
 43
0.0
 43
0.0
 43
1.0
 43
0.0
 43
0.0
 43
0.0
 43
0.0
 43
1.0
 77
     0
 78
     2
 47
0.0208333333333333
 47
0.0
 47
0.0
 47
0.0
 47
0.0
 47
0.0208333333333333
 47
0.0
 47
0.0
 47
0.0
 47
0.0
 47
1.0
 47
0.0
 47
0.0
 47
0.0
 47
0.0
 47
1.0
171
     0
172
     2
 49
0.0208333333333333
 49
0.0
 49
0.0
 49
0.0
 49
0.0
 49
0.0208333333333333
 49
0.0
 49
0.0
 49
0.0
 49
0.0
 49
1.0
 49
0.0
 49
0.0
 49
0.0
 49
0.0
 49
1.0
175
     0
176
     2
142
0.0208333333333333
142
0.0
142
0.0
142
0.0
142
0.0
142
0.0208333333333333
142
0.0
142
0.0
142
0.0
142
0.0
142
1.0
142
0.0
142
0.0
142
0.0
142
0.0
142
1.0
179
     0
270
     2
144
0.0208333333333333
144
0.0
144
0.0
144
0.0
144
0.0
144
0.0208333333333333
144
0.0
144
0.0
144
0.0
144
0.0
144
1.0
144
0.0
144
0.0
144
0.0
144
0.0
144
1.0
274
     2
147
0.0208333333333333
147
0.0
147
0.0
147
0.0
147
0.0
147
0.0208333333333333
147
0.0
147
0.0
147
0.0
147
0.0
147
1.0
147
0.0
147
0.0
147
0.0
147
0.0
147
1.0
 94
      127
  0
MLEADERSTYLE
  5
256
102
{ACAD_REACTORS
330
255
102
}
330
255
100
AcDbMLeaderStyle
179
     2
170
     2
171
     1
172
     0
 90
        2
 40
0.0
 41
0.0
173
     1
 91
-1056964608
340
1D4
 92
       -2
290
     1
 42
0.09
291
     1
 43
0.36
  3
Standard
 44
0.18
300

342
48
174
     1
178
     6
175
     1
176
     0
 93
-1056964608
 45
0.18
292
     0
297
     0
 46
0.18
 94
-1056964608
 47
1.0
 49
1.0
140
1.0
293
     1
141
0.0
294
     1
177
     0
142
1.0
295
     0
296
     0
143
0.125
271
     0
272
     9
273
     9
298
     0
1001
ACAD_MLEADERVER
1070
     2
  0
MLINESTYLE
  5
1F7
102
{ACAD_REACTORS
330
1E2
102
}
330
1E2
100
AcDbMlineStyle
  2
STANDARD
 70
     0
  3

 62
   256
 51
90.0
 52
90.0
 71
     2
 49
0.5
 62
   256
  6
BYLAYER
 49
-0.5
 62
   256
  6
BYLAYER
  0
ACDBPLACEHOLDER
  5
9
102
{ACAD_REACTORS
330
A
102
}
330
A
  0
SCALE
  5
1FC
102
{ACAD_REACTORS
330
1F5
102
}
330
1F5
100
AcDbScale
 70
     0
300
1:1
140
1.0
141
1.0
290
     1
  0
SCALE
  5
1FD
102
{ACAD_REACTORS
330
1F5
102
}
330
1F5
100
AcDbScale
 70
     0
300
1:2
140
1.0
141
2.0
290
     0
  0
SCALE
  5
1FE
102
{ACAD_REACTORS
330
1F5
102
}
330
1F5
100
AcDbScale
 70
     0
300
1:4
140
1.0
141
4.0
290
     0
  0
SCALE
  5
1FF
102
{ACAD_REACTORS
330
1F5
102
}
330
1F5
100
AcDbScale
 70
     0
300
1:5
140
1.0
141
5.0
290
     0
  0
SCALE
  5
200
102
{ACAD_REACTORS
330
1F5
102
}
330
1F5
100
AcDbScale
 70
     0
300
1:8
140
1.0
141
8.0
290
     0
  0
SCALE
  5
201
102
{ACAD_REACTORS
330
1F5
102
}
330
1F5
100
AcDbScale
 70
     0
300
1:10
140
1.0
141
10.0
290
     0
  0
SCALE
  5
202
102
{ACAD_REACTORS
330
1F5
102
}
330
1F5
100
AcDbScale
 70
     0
300
1:16
140
1.0
141
16.0
290
     0
  0
SCALE
  5
203
102
{ACAD_REACTORS
330
1F5
102
}
330
1F5
100
AcDbScale
 70
     0
300
1:20
140
1.0
141
20.0
290
     0
  0
SCALE
  5
204
102
{ACAD_REACTORS
330
1F5
102
}
330
1F5
100
AcDbScale
 70
     0
300
1:30
140
1.0
141
30.0
290
     0
  0
SCALE
  5
205
102
{ACAD_REACTORS
330
1F5
102
}
330
1F5
100
AcDbScale
 70
     0
300
1:40
140
1.0
141
40.0
290
     0
  0
SCALE
  5
206
102
{ACAD_REACTORS
330
1F5
102
}
330
1F5
100
AcDbScale
 70
     0
300
1:50
140
1.0
141
50.0
290
     0
  0
SCALE
  5
207
102
{ACAD_REACTORS
330
1F5
102
}
330
1F5
100
AcDbScale
 70
     0
300
1:100
140
1.0
141
100.0
290
     0
  0
SCALE
  5
208
102
{ACAD_REACTORS
330
1F5
102
}
330
1F5
100
AcDbScale
 70
     0
300
2:1
140
2.0
141
1.0
290
     0
  0
SCALE
  5
209
102
{ACAD_REACTORS
330
1F5
102
}
330
1F5
100
AcDbScale
 70
     0
300
4:1
140
4.0
141
1.0
290
     0
  0
SCALE
  5
20A
102
{ACAD_REACTORS
330
1F5
102
}
330
1F5
100
AcDbScale
 70
     0
300
8:1
140
8.0
141
1.0
290
     0
  0
SCALE
  5
20B
102
{ACAD_REACTORS
330
1F5
102
}
330
1F5
100
AcDbScale
 70
     0
300
10:1
140
10.0
141
1.0
290
     0
  0
SCALE
  5
20C
102
{ACAD_REACTORS
330
1F5
102
}
330
1F5
100
AcDbScale
 70
     0
300
100:1
140
100.0
141
1.0
290
     0
  0
SCALE
  5
20D
102
{ACAD_REACTORS
330
1F5
102
}
330
1F5
100
AcDbScale
 70
     0
300
1/128" = 1'-0"
140
0.0078125
141
12.0
290
     0
  0
SCALE
  5
20E
102
{ACAD_REACTORS
330
1F5
102
}
330
1F5
100
AcDbScale
 70
     0
300
1/64" = 1'-0"
140
0.015625
141
12.0
290
     0
  0
SCALE
  5
20F
102
{ACAD_REACTORS
330
1F5
102
}
330
1F5
100
AcDbScale
 70
     0
300
1/32" = 1'-0"
140
0.03125
141
12.0
290
     0
  0
SCALE
  5
210
102
{ACAD_REACTORS
330
1F5
102
}
330
1F5
100
AcDbScale
 70
     0
300
1/16" = 1'-0"
140
0.0625
141
12.0
290
     0
  0
SCALE
  5
211
102
{ACAD_REACTORS
330
1F5
102
}
330
1F5
100
AcDbScale
 70
     0
300
3/32" = 1'-0"
140
0.09375
141
12.0
290
     0
  0
SCALE
  5
212
102
{ACAD_REACTORS
330
1F5
102
}
330
1F5
100
AcDbScale
 70
     0
300
1/8" = 1'-0"
140
0.125
141
12.0
290
     0
  0
SCALE
  5
213
102
{ACAD_REACTORS
330
1F5
102
}
330
1F5
100
AcDbScale
 70
     0
300
3/16" = 1'-0"
140
0.1875
141
12.0
290
     0
  0
SCALE
  5
214
102
{ACAD_REACTORS
330
1F5
102
}
330
1F5
100
AcDbScale
 70
     0
300
1/4" = 1'-0"
140
0.25
141
12.0
290
     0
  0
SCALE
  5
215
102
{ACAD_REACTORS
330
1F5
102
}
330
1F5
100
AcDbScale
 70
     0
300
3/8" = 1'-0"
140
0.375
141
12.0
290
     0
  0
SCALE
  5
216
102
{ACAD_REACTORS
330
1F5
102
}
330
1F5
100
AcDbScale
 70
     0
300
1/2" = 1'-0"
140
0.5
141
12.0
290
     0
  0
SCALE
  5
217
102
{ACAD_REACTORS
330
1F5
102
}
330
1F5
100
AcDbScale
 70
     0
300
3/4" = 1'-0"
140
0.75
141
12.0
290
     0
  0
SCALE
  5
218
102
{ACAD_REACTORS
330
1F5
102
}
330
1F5
100
AcDbScale
 70
     0
300
1" = 1'-0"
140
1.0
141
12.0
290
     0
  0
SCALE
  5
219
102
{ACAD_REACTORS
330
1F5
102
}
330
1F5
100
AcDbScale
 70
     0
300
1-1/2" = 1'-0"
140
1.5
141
12.0
290
     0
  0
SCALE
  5
21A
102
{ACAD_REACTORS
330
1F5
102
}
330
1F5
100
AcDbScale
 70
     0
300
3" = 1'-0"
140
3.0
141
12.0
290
     0
  0
SCALE
  5
21B
102
{ACAD_REACTORS
330
1F5
102
}
330
1F5
100
AcDbScale
 70
     0
300
6" = 1'-0"
140
6.0
141
12.0
290
     0
  0
SCALE
  5
21C
102
{ACAD_REACTORS
330
1F5
102
}
330
1F5
100
AcDbScale
 70
     0
300
1'-0" = 1'-0"
140
12.0
141
12.0
290
     0
  0
ACDBSECTIONVIEWSTYLE
  5
A68
102
{ACAD_REACTORS
330
A67
102
}
330
A67
100
AcDbModelDocViewStyle
 70
     0
  3
Imperial24
290
     0
300
Imperial24
 90
        0
100
AcDbSectionViewStyle
 70
     0
 71
     0
 90
       78
 71
     1
340
48
 62
   256
 40
0.24
340
0
340
0
 62
   256
 40
0.24
300
I, O, Q, S, X, Z
 40
0.48
 90
        3
 40
0.18
 90
        1
 71
     2
340
15
 90
       25
 62
   256
340
15
 90
       50
 62
   256
 40
0.24
 40
0.0
 40
0.24
 71
     3
340
48
 62
   256
 40
0.24
 90
        1
 40
0.75
 90
        1
300
%<\AcVar ViewType \f "%tc1">% %<\AcVar ViewSectionStartId>%-%<\AcVar ViewSectionEndId>%\PSCALE %<\AcVar ViewScale \f "%sn">%
 71
     4
 62
   256
 62
   257
300
ANSI31
 40
1.0
 90
        0
290
     0
290
     0
 90
        6
 40
0.0
 40
1.570796326794896
 40
0.2617993877991494
 40
1.308996938995747
 40
-0.2617993877991494
 40
1.832595714594044
  0
TABLESTYLE
  5
1F8
102
{ACAD_XDICTIONARY
360
1F9
102
}
102
{ACAD_REACTORS
330
1F6
102
}
330
1F6
100
AcDbTableStyle
280
     0
  3
Standard
 70
     0
 71
     0
 40
0.06
 41
0.06
280
     0
281
     0
  7
Standard
140
0.18
170
     2
 62
     0
 63
     7
283
     0
 90
      512
 91
        0
  1

274
    -2
284
     1
 64
     0
275
    -2
285
     1
 65
     0
276
    -2
286
     1
 66
     0
277
    -2
287
     1
 67
     0
278
    -2
288
     1
 68
     0
279
    -2
289
     1
 69
     0
  7
Standard
140
0.25
170
     5
 62
     0
 63
     7
283
     0
 90
      512
 91
        0
  1

274
    -2
284
     1
 64
     0
275
    -2
285
     1
 65
     0
276
    -2
286
     1
 66
     0
277
    -2
287
     1
 67
     0
278
    -2
288
     1
 68
     0
279
    -2
289
     1
 69
     0
  7
Standard
140
0.18
170
     5
 62
     0
 63
     7
283
     0
 90
      512
 91
        0
  1

274
    -2
284
     1
 64
     0
275
    -2
285
     1
 65
     0
276
    -2
286
     1
 66
     0
277
    -2
287
     1
 67
     0
278
    -2
288
     1
 68
     0
279
    -2
289
     1
 69
     0
  0
VISUALSTYLE
  5
1DA
102
{ACAD_REACTORS
330
1DB
102
}
330
1DB
100
AcDbVisualStyle
  2

 70
     4
177
     3
291
     0
 70
    58
 90
        0
176
     1
 90
        2
176
     1
 90
        0
176
     1
 90
        0
176
     1
 40
0.6
176
     1
 40
30.0
176
     1
 62
     7
176
     1
 90
        1
176
     1
 90
        4
176
     1
 62
     7
176
     1
 62
   257
176
     1
 90
        1
176
     1
 90
        1
176
     1
 40
1.0
176
     1
 90
        0
176
     1
 62
   257
176
     1
 40
1.0
176
     1
 90
        1
176
     1
 90
        6
176
     1
 90
        2
176
     1
 62
     7
176
     1
 90
        5
176
     1
 90
        0
176
     1
 90
        0
176
     1
290
     0
176
     1
 90
        1
176
     1
 40
0.0
176
     1
 90
        0
176
     1
290
     1
176
     1
290
     1
176
     1
290
     0
176
     1
290
     0
176
     1
290
     0
176
     1
290
     0
176
     1
290
     0
176
     1
290
     0
176
     1
290
     0
176
     1
 90
       50
176
     1
 40
0.0
176
     1
 40
1.0
176
     1
 90
        0
176
     1
 62
    18
176
     1
 90
       50
176
     1
 90
        3
176
     1
 62
     5
420
      255
176
     1
290
     0
176
     1
 90
       50
176
     1
 90
       50
176
     1
 90
       50
176
     1
290
     0
176
     1
 90
       50
176
     1
 62
   256
176
     0
 40
1.0
176
     0
 90
        2
176
     1
  1
strokes_ogs.tif
176
     1
290
     0
176
     1
 40
1.0
176
     1
 40
1.0
176
     1
1001
ACAD
1000
AcDbSavedByObjectVersion
1070
     0
1000
AcDbSavedByObjectVersion
1070
     0
1000
AcDbSavedByObjectVersion
1070
     0
1000
AcDbSavedByObjectVersion
1070
     0
1000
AcDbSavedByObjectVersion
1070
     0
1000
AcDbSavedByObjectVersion
1070
     0
1000
AcDbSavedByObjectVersion
1070
     0
1000
AcDbSavedByObjectVersion
1070
     0
1000
AcDbSavedByObjectVersion
1070
     0
1000
AcDbSavedByObjectVersion
1070
     0
1000
AcDbSavedByObjectVersion
1070
     0
1000
AcDbSavedByObjectVersion
1070
     0
1000
AcDbSavedByObjectVersion
1070
     0
1000
AcDbSavedByObjectVersion
1070
     0
1000
AcDbSavedByObjectVersion
1070
     0
1000
AcDbSavedByObjectVersion
1070
     0
1000
AcDbSavedByObjectVersion
1070
     0
1000
AcDbSavedByObjectVersion
1070
     0
1000
AcDbSavedByObjectVersion
1070
     0
1000
AcDbSavedByObjectVersion
1070
     0
1000
AcDbSavedByObjectVersion
1070
     0
1000
AcDbSavedByObjectVersion
1070
     0
1000
AcDbSavedByObjectVersion
1070
     0
1000
AcDbSavedByObjectVersion
1070
     0
1000
AcDbSavedByObjectVersion
1070
     0
1000
AcDbSavedByObjectVersion
1070
     0
1000
AcDbSavedByObjectVersion
1070
     0
1000
AcDbSavedByObjectVersion
1070
     0
1000
AcDbSavedByObjectVersion
1070
     0
1000
AcDbSavedByObjectVersion
1070
     0
1000
AcDbSavedByObjectVersion
1070
     0
1000
AcDbSavedByObjectVersion
1070
     0
1000
AcDbSavedByObjectVersion
1070
     0
1000
AcDbSavedByObjectVersion
1070
     0
1000
AcDbSavedByObjectVersion
1070
     0
1000
AcDbSavedByObjectVersion
1070
     0
1000
AcDbSavedByObjectVersion
1070
     0
  0
VISUALSTYLE
  5
24D
102
{ACAD_REACTORS
330
1DB
102
}
330
1DB
100
AcDbVisualStyle
  2

 70
     6
177
     3
291
     0
 70
    58
 90
        1
176
     1
 90
        2
176
     1
 90
        2
176
     1
 90
        0
176
     1
 40
0.6
176
     1
 40
30.0
176
     1
 62
     7
176
     1
 90
        2
176
     1
 90
        2
176
     1
 62
     7
176
     1
 62
   257
176
     1
 90
        2
176
     1
 90
        1
176
     1
 40
40.0
176
     1
 90
        0
176
     1
 62
   257
176
     1
 40
1.0
176
     1
 90
        1
176
     1
 90
        6
176
     1
 90
        2
176
     1
 62
     7
176
     1
 90
        3
176
     1
 90
        0
176
     1
 90
        0
176
     1
290
     0
176
     1
 90
        1
176
     1
 40
0.0
176
     1
 90
        0
176
     1
290
     0
176
     1
290
     1
176
     1
290
     1
176
     1
290
     0
176
     1
290
     0
176
     1
290
     0
176
     1
290
     0
176
     1
290
     0
176
     1
290
     0
176
     1
 90
       50
176
     1
 40
0.0
176
     1
 40
1.0
176
     1
 90
        0
176
     1
 62
    18
176
     1
 90
       50
176
     1
 90
        3
176
     1
 62
     5
420
      255
176
     1
290
     0
176
     1
 90
       50
176
     1
 90
       50
176
     1
 90
       50
176
     1
290
     0
176
     1
 90
       50
176
     1
 62
   256
176
     0
 40
1.0
176
     0
 90
        2
176
     1
  1
strokes_ogs.tif
176
     1
290
     0
176
     1
 40
1.0
176
     1
 40
1.0
176
     1
1001
ACAD
1000
AcDbSavedByObjectVersion
1070
     0
1000
AcDbSavedByObjectVersion
1070
     0
1000
AcDbSavedByObjectVersion
1070
     0
1000
AcDbSavedByObjectVersion
1070
     0
  0
VISUALSTYLE
  5
1FB
102
{ACAD_REACTORS
330
1DB
102
}
330
1DB
100
AcDbVisualStyle
  2

 70
     5
177
     3
291
     0
 70
    58
 90
        0
176
     1
 90
        2
176
     1
 90
        0
176
     1
 90
        0
176
     1
 40
0.6
176
     1
 40
30.0
176
     1
 62
     7
176
     1
 90
        1
176
     1
 90
        4
176
     1
 62
     7
176
     1
 62
   257
176
     1
 90
        1
176
     1
 90
        1
176
     1
 40
1.0
176
     1
 90
        0
176
     1
 62
   257
176
     1
 40
1.0
176
     1
 90
        1
176
     1
 90
        6
176
     1
 90
        2
176
     1
 62
     7
176
     1
 90
        5
176
     1
 90
        0
176
     1
 90
        0
176
     1
290
     0
176
     1
 90
        1
176
     1
 40
0.0
176
     1
 90
        0
176
     1
290
     0
176
     1
290
     1
176
     1
290
     1
176
     1
290
     0
176
     1
290
     0
176
     1
290
     0
176
     1
290
     0
176
     1
290
     0
176
     1
290
     0
176
     1
 90
       50
176
     1
 40
0.0
176
     1
 40
1.0
176
     1
 90
        0
176
     1
 62
    18
176
     1
 90
       50
176
     1
 90
        3
176
     1
 62
     5
420
      255
176
     1
290
     0
176
     1
 90
       50
176
     1
 90
       50
176
     1
 90
       50
176
     1
290
     0
176
     1
 90
       50
176
     1
 62
   256
176
     0
 40
1.0
176
     0
 90
        2
176
     1
  1
strokes_ogs.tif
176
     1
290
     0
176
     1
 40
1.0
176
     1
 40
1.0
176
     1
1001
ACAD
1000
AcDbSavedByObjectVersion
1070
     0
1000
AcDbSavedByObjectVersion
1070
     0
1000
AcDbSavedByObjectVersion
1070
     0
1000
AcDbSavedByObjectVersion
1070
     0
1000
AcDbSavedByObjectVersion
1070
     0
1000
AcDbSavedByObjectVersion
1070
     0
1000
AcDbSavedByObjectVersion
1070
     0
1000
AcDbSavedByObjectVersion
1070
     0
1000
AcDbSavedByObjectVersion
1070
     0
1000
AcDbSavedByObjectVersion
1070
     0
1000
AcDbSavedByObjectVersion
1070
     0
1000
AcDbSavedByObjectVersion
1070
     0
1000
AcDbSavedByObjectVersion
1070
     0
1000
AcDbSavedByObjectVersion
1070
     0
1000
AcDbSavedByObjectVersion
1070
     0
1000
AcDbSavedByObjectVersion
1070
     0
1000
AcDbSavedByObjectVersion
1070
     0
1000
AcDbSavedByObjectVersion
1070
     0
1000
AcDbSavedByObjectVersion
1070
     0
1000
AcDbSavedByObjectVersion
1070
     0
1000
AcDbSavedByObjectVersion
1070
     0
1000
AcDbSavedByObjectVersion
1070
     0
1000
AcDbSavedByObjectVersion
1070
     0
1000
AcDbSavedByObjectVersion
1070
     0
1000
AcDbSavedByObjectVersion
1070
     0
1000
AcDbSavedByObjectVersion
1070
     0
1000
AcDbSavedByObjectVersion
1070
     0
1000
AcDbSavedByObjectVersion
1070
     0
1000
AcDbSavedByObjectVersion
1070
     0
1000
AcDbSavedByObjectVersion
1070
     0
1000
AcDbSavedByObjectVersion
1070
     0
1000
AcDbSavedByObjectVersion
1070
     0
1000
AcDbSavedByObjectVersion
1070
     0
1000
AcDbSavedByObjectVersion
1070
     0
1000
AcDbSavedByObjectVersion
1070
     0
1000
AcDbSavedByObjectVersion
1070
     0
1000
AcDbSavedByObjectVersion
1070
     0
  0
VISUALSTYLE
  5
24C
102
{ACAD_REACTORS
330
1DB
102
}
330
1DB
100
AcDbVisualStyle
  2

 70
     7
177
     3
291
     1
 70
    58
 90
        1
176
     1
 90
        0
176
     1
 90
        1
176
     1
 90
        0
176
     1
 40
0.6
176
     1
 40
30.0
176
     1
 62
     7
176
     1
 90
        0
176
     1
 90
        4
176
     1
 62
     7
176
     1
 62
   257
176
     1
 90
        1
176
     1
 90
        1
176
     1
 40
1.0
176
     1
 90
        8
176
     1
 62
     7
176
     1
 40
1.0
176
     1
 90
        1
176
     1
 90
        6
176
     1
 90
        2
176
     1
 62
     7
176
     1
 90
        5
176
     1
 90
        0
176
     1
 90
        0
176
     1
290
     0
176
     1
 90
        1
176
     1
 40
0.0
176
     1
 90
        0
176
     1
290
     0
176
     1
290
     1
176
     1
290
     1
176
     1
290
     0
176
     1
290
     0
176
     1
290
     0
176
     1
290
     0
176
     1
290
     0
176
     1
290
     0
176
     1
 90
       50
176
     1
 40
0.0
176
     1
 40
1.0
176
     1
 90
        0
176
     1
 62
    18
176
     1
 90
       50
176
     1
 90
        3
176
     1
 62
     5
420
      255
176
     1
290
     0
176
     1
 90
       50
176
     1
 90
       50
176
     1
 90
       50
176
     1
290
     0
176
     1
 90
       50
176
     1
 62
   256
176
     0
 40
1.0
176
     0
 90
        2
176
     1
  1
strokes_ogs.tif
176
     1
290
     0
176
     1
 40
1.0
176
     1
 40
1.0
176
     1
1001
ACAD
1000
AcDbSavedByObjectVersion
1070
     0
1000
AcDbSavedByObjectVersion
1070
     0
1000
AcDbSavedByObjectVersion
1070
     0
1000
AcDbSavedByObjectVersion
1070
     0
  0
VISUALSTYLE
  5
250
102
{ACAD_REACTORS
330
1DB
102
}
330
1DB
100
AcDbVisualStyle
  2

 70
    12
177
     3
291
     1
 70
    58
 90
        2
176
     1
 90
        2
176
     1
 90
        0
176
     1
 90
        0
176
     1
 40
0.6
176
     1
 40
30.0
176
     1
 62
     7
176
     1
 90
        1
176
     1
 90
        4
176
     1
 62
     7
176
     1
 62
   257
176
     1
 90
        1
176
     1
 90
        1
176
     1
 40
1.0
176
     1
 90
        8
176
     1
 62
     7
176
     1
 40
1.0
176
     1
 90
        1
176
     1
 90
        6
176
     1
 90
        2
176
     1
 62
     7
176
     1
 90
        5
176
     1
 90
        0
176
     1
 90
        0
176
     1
290
     0
176
     1
 90
        1
176
     1
 40
50.0
176
     1
 90
        0
176
     1
290
     0
176
     1
290
     1
176
     1
290
     1
176
     1
290
     0
176
     1
290
     0
176
     1
290
     0
176
     1
290
     0
176
     1
290
     0
176
     1
290
     0
176
     1
 90
       50
176
     1
 40
0.0
176
     1
 40
1.0
176
     1
 90
        0
176
     1
 62
    18
176
     1
 90
       50
176
     1
 90
        3
176
     1
 62
     5
420
      255
176
     1
290
     0
176
     1
 90
       50
176
     1
 90
       50
176
     1
 90
       50
176
     1
290
     0
176
     1
 90
       50
176
     1
 62
   256
176
     0
 40
1.0
176
     0
 90
        2
176
     1
  1
strokes_ogs.tif
176
     1
290
     0
176
     1
 40
1.0
176
     1
 40
1.0
176
     1
1001
ACAD
1000
AcDbSavedByObjectVersion
1070
     0
1000
AcDbSavedByObjectVersion
1070
     0
1000
AcDbSavedByObjectVersion
1070
     0
1000
AcDbSavedByObjectVersion
1070
     0
  0
VISUALSTYLE
  5
254
102
{ACAD_REACTORS
330
1DB
102
}
330
1DB
100
AcDbVisualStyle
  2

 70
    16
177
     3
291
     1
 70
    58
 90
        2
176
     1
 90
        2
176
     1
 90
        3
176
     1
 90
        0
176
     1
 40
0.6
176
     1
 40
30.0
176
     1
 62
     8
176
     1
 90
        1
176
     1
 90
        4
176
     1
 62
     7
176
     1
 62
   257
176
     1
 90
        1
176
     1
 90
        1
176
     1
 40
1.0
176
     1
 90
        8
176
     1
 62
     8
176
     1
 40
1.0
176
     1
 90
        1
176
     1
 90
        6
176
     1
 90
        2
176
     1
 62
     7
176
     1
 90
        5
176
     1
 90
        0
176
     1
 90
        0
176
     1
290
     0
176
     1
 90
        1
176
     1
 40
0.0
176
     1
 90
        0
176
     1
290
     0
176
     1
290
     1
176
     1
290
     1
176
     1
290
     0
176
     1
290
     0
176
     1
290
     0
176
     1
290
     0
176
     1
290
     0
176
     1
290
     0
176
     1
 90
       50
176
     1
 40
0.0
176
     1
 40
1.0
176
     1
 90
        0
176
     1
 62
    18
176
     1
 90
       50
176
     1
 90
        3
176
     1
 62
     5
420
      255
176
     1
290
     0
176
     1
 90
       50
176
     1
 90
       50
176
     1
 90
       50
176
     1
290
     0
176
     1
 90
       50
176
     1
 62
   256
176
     0
 40
1.0
176
     0
 90
        2
176
     1
  1
strokes_ogs.tif
176
     1
290
     0
176
     1
 40
1.0
176
     1
 40
1.0
176
     1
1001
ACAD
1000
AcDbSavedByObjectVersion
1070
     0
1000
AcDbSavedByObjectVersion
1070
     0
1000
AcDbSavedByObjectVersion
1070
     0
1000
AcDbSavedByObjectVersion
1070
     0
  0
VISUALSTYLE
  5
24E
102
{ACAD_REACTORS
330
1DB
102
}
330
1DB
100
AcDbVisualStyle
  2

 70
     9
177
     3
291
     0
 70
    58
 90
        3
176
     1
 90
        2
176
     1
 90
        0
176
     1
 90
        0
176
     1
 40
0.6
176
     1
 40
30.0
176
     1
 62
     7
176
     1
 90
        2
176
     1
 90
        2
176
     1
 62
     7
176
     1
 62
   257
176
     1
 90
        1
176
     1
 90
        1
176
     1
 40
40.0
176
     1
 90
        8
176
     1
 62
     7
176
     1
 40
1.0
176
     1
 90
        1
176
     1
 90
        6
176
     1
 90
        2
176
     1
 62
     7
176
     1
 90
        3
176
     1
 90
        0
176
     1
 90
        0
176
     1
290
     0
176
     1
 90
        1
176
     1
 40
0.0
176
     1
 90
        0
176
     1
290
     0
176
     1
290
     1
176
     1
290
     1
176
     1
290
     0
176
     1
290
     0
176
     1
290
     0
176
     1
290
     0
176
     1
290
     0
176
     1
290
     0
176
     1
 90
       50
176
     1
 40
0.0
176
     1
 40
1.0
176
     1
 90
        0
176
     1
 62
    18
176
     1
 90
       50
176
     1
 90
        3
176
     1
 62
     5
420
      255
176
     1
290
     0
176
     1
 90
       50
176
     1
 90
       50
176
     1
 90
       50
176
     1
290
     0
176
     1
 90
       50
176
     1
 62
   256
176
     0
 40
1.0
176
     0
 90
        2
176
     1
  1
strokes_ogs.tif
176
     1
290
     0
176
     1
 40
1.0
176
     1
 40
1.0
176
     1
1001
ACAD
1000
AcDbSavedByObjectVersion
1070
     0
1000
AcDbSavedByObjectVersion
1070
     0
1000
AcDbSavedByObjectVersion
1070
     0
1000
AcDbSavedByObjectVersion
1070
     0
  0
VISUALSTYLE
  5
24F
102
{ACAD_REACTORS
330
1DB
102
}
330
1DB
100
AcDbVisualStyle
  2

 70
    11
177
     3
291
     1
 70
    58
 90
        2
176
     1
 90
        2
176
     1
 90
        0
176
     1
 90
        0
176
     1
 40
0.6
176
     1
 40
30.0
176
     1
 62
     7
176
     1
 90
        1
176
     1
 90
        4
176
     1
 62
     7
176
     1
 62
   257
176
     1
 90
        1
176
     1
 90
        1
176
     1
 40
1.0
176
     1
 90
        8
176
     1
 62
     7
176
     1
 40
1.0
176
     1
 90
        1
176
     1
 90
        6
176
     1
 90
        2
176
     1
 62
     7
176
     1
 90
        5
176
     1
 90
        0
176
     1
 90
        0
176
     1
290
     0
176
     1
 90
        1
176
     1
 40
-50.0
176
     1
 90
        0
176
     1
290
     0
176
     1
290
     1
176
     1
290
     1
176
     1
290
     0
176
     1
290
     0
176
     1
290
     0
176
     1
290
     0
176
     1
290
     0
176
     1
290
     0
176
     1
 90
       50
176
     1
 40
0.0
176
     1
 40
1.0
176
     1
 90
        0
176
     1
 62
    18
176
     1
 90
       50
176
     1
 90
        3
176
     1
 62
     5
420
      255
176
     1
290
     0
176
     1
 90
       50
176
     1
 90
       50
176
     1
 90
       50
176
     1
290
     0
176
     1
 90
       50
176
     1
 62
   256
176
     0
 40
1.0
176
     0
 90
        2
176
     1
  1
strokes_ogs.tif
176
     1
290
     0
176
     1
 40
1.0
176
     1
 40
1.0
176
     1
1001
ACAD
1000
AcDbSavedByObjectVersion
1070
     0
1000
AcDbSavedByObjectVersion
1070
     0
1000
AcDbSavedByObjectVersion
1070
     0
1000
AcDbSavedByObjectVersion
1070
     0
  0
VISUALSTYLE
  5
A66
102
{ACAD_REACTORS
330
1DB
102
}
330
1DB
100
AcDbVisualStyle
  2
EdgeColorOff
 70
    22
177
     3
291
     1
 70
    58
 90
        2
176
     0
 90
        2
176
     0
 90
        0
176
     0
 90
        0
176
     0
 40
0.6
176
     0
 40
30.0
176
     0
 62
     7
420
 16777215
176
     0
 90
        1
176
     0
 90
        4
176
     0
 62
     7
176
     0
 62
   257
176
     0
 90
        1
176
     0
 90
        1
176
     0
 40
1.0
176
     0
 90
        8
176
     2
 62
     7
176
     0
 40
1.0
176
     0
 90
        1
176
     0
 90
        6
176
     0
 90
        2
176
     0
 62
     7
176
     0
 90
        5
176
     0
 90
        0
176
     0
 90
        0
176
     0
290
     0
176
     0
 90
        1
176
     0
 40
0.0
176
     0
 90
        0
176
     0
290
     0
176
     1
290
     1
176
     1
290
     1
176
     1
290
     0
176
     1
290
     0
176
     1
290
     0
176
     1
290
     0
176
     1
290
     0
176
     1
290
     0
176
     1
 90
       50
176
     0
 40
0.0
176
     0
 40
1.0
176
     0
 90
        0
176
     0
 62
    18
176
     0
 90
       50
176
     0
 90
        3
176
     0
 62
     5
420
      255
176
     0
290
     0
176
     1
 90
       50
176
     0
 90
       50
176
     0
 90
       50
176
     0
290
     0
176
     1
 90
       50
176
     0
 62
   256
176
     0
 40
1.0
176
     0
 90
        2
176
     0
  1
strokes_ogs.tif
176
     0
290
     0
176
     1
 40
1.0
176
     0
 40
1.0
176
     0
  0
VISUALSTYLE
  5
253
102
{ACAD_REACTORS
330
1DB
102
}
330
1DB
100
AcDbVisualStyle
  2

 70
    15
177
     3
291
     1
 70
    58
 90
        2
176
     1
 90
        2
176
     1
 90
        0
176
     1
 90
        0
176
     1
 40
0.6
176
     1
 40
30.0
176
     1
 62
     7
176
     1
 90
        1
176
     1
 90
        4
176
     1
 62
     7
176
     1
 62
   257
176
     1
 90
        1
176
     1
 90
        1
176
     1
 40
1.0
176
     1
 90
        8
176
     1
 62
     7
176
     1
 40
1.0
176
     1
 90
        1
176
     1
 90
        6
176
     1
 90
        2
176
     1
 62
     7
176
     1
 90
        5
176
     1
 90
        0
176
     1
 90
        0
176
     1
290
     0
176
     1
 90
        1
176
     1
 40
0.0
176
     1
 90
        0
176
     1
290
     0
176
     1
290
     1
176
     1
290
     1
176
     1
290
     0
176
     1
290
     0
176
     1
290
     0
176
     1
290
     0
176
     1
290
     0
176
     1
290
     0
176
     1
 90
       50
176
     1
 40
0.0
176
     1
 40
1.0
176
     1
 90
        0
176
     1
 62
    18
176
     1
 90
       50
176
     1
 90
        3
176
     1
 62
     5
420
      255
176
     1
290
     0
176
     1
 90
       50
176
     1
 90
       50
176
     1
 90
       50
176
     1
290
     0
176
     1
 90
       50
176
     1
 62
   256
176
     0
 40
1.0
176
     0
 90
        2
176
     1
  1
strokes_ogs.tif
176
     1
290
     0
176
     1
 40
1.0
176
     1
 40
1.0
176
     1
1001
ACAD
1000
AcDbSavedByObjectVersion
1070
     0
1000
AcDbSavedByObjectVersion
1070
     0
1000
AcDbSavedByObjectVersion
1070
     0
1000
AcDbSavedByObjectVersion
1070
     0
  0
VISUALSTYLE
  5
248
102
{ACAD_REACTORS
330
1DB
102
}
330
1DB
100
AcDbVisualStyle
  2

 70
     0
177
     3
291
     1
 70
    58
 90
        2
176
     1
 90
        1
176
     1
 90
        1
176
     1
 90
        2
176
     1
 40
0.6
176
     1
 40
30.0
176
     1
 62
     7
176
     1
 90
        0
176
     1
 90
        4
176
     1
 62
     7
176
     1
 62
   257
176
     1
 90
        1
176
     1
 90
        1
176
     1
 40
1.0
176
     1
 90
        8
176
     1
 62
     7
176
     1
 40
1.0
176
     1
 90
        1
176
     1
 90
        6
176
     1
 90
        2
176
     1
 62
     7
176
     1
 90
        5
176
     1
 90
        0
176
     1
 90
        0
176
     1
290
     0
176
     1
 90
       13
176
     1
 40
0.0
176
     1
 90
        0
176
     1
290
     0
176
     1
290
     1
176
     1
290
     1
176
     1
290
     0
176
     1
290
     0
176
     1
290
     0
176
     1
290
     0
176
     1
290
     0
176
     1
290
     0
176
     1
 90
       50
176
     1
 40
0.0
176
     1
 40
1.0
176
     1
 90
        0
176
     1
 62
    18
176
     1
 90
       50
176
     1
 90
        3
176
     1
 62
     5
420
      255
176
     1
290
     0
176
     1
 90
       50
176
     1
 90
       50
176
     1
 90
       50
176
     1
290
     0
176
     1
 90
       50
176
     1
 62
   256
176
     0
 40
1.0
176
     0
 90
        2
176
     1
  1
strokes_ogs.tif
176
     1
290
     0
176
     1
 40
1.0
176
     1
 40
1.0
176
     1
1001
ACAD
1000
AcDbSavedByObjectVersion
1070
     0
1000
AcDbSavedByObjectVersion
1070
     0
1000
AcDbSavedByObjectVersion
1070
     0
1000
AcDbSavedByObjectVersion
1070
     0
  0
VISUALSTYLE
  5
249
102
{ACAD_REACTORS
330
1DB
102
}
330
1DB
100
AcDbVisualStyle
  2

 70
     1
177
     3
291
     1
 70
    58
 90
        2
176
     1
 90
        1
176
     1
 90
        1
176
     1
 90
        2
176
     1
 40
0.6
176
     1
 40
30.0
176
     1
 62
     7
176
     1
 90
        1
176
     1
 90
        4
176
     1
 62
     7
176
     1
 62
   257
176
     1
 90
        1
176
     1
 90
        1
176
     1
 40
1.0
176
     1
 90
        0
176
     1
 62
   257
176
     1
 40
1.0
176
     1
 90
        1
176
     1
 90
        6
176
     1
 90
        2
176
     1
 62
     7
176
     1
 90
        5
176
     1
 90
        0
176
     1
 90
        0
176
     1
290
     0
176
     1
 90
       13
176
     1
 40
0.0
176
     1
 90
        0
176
     1
290
     0
176
     1
290
     1
176
     1
290
     1
176
     1
290
     0
176
     1
290
     0
176
     1
290
     0
176
     1
290
     0
176
     1
290
     0
176
     1
290
     0
176
     1
 90
       50
176
     1
 40
0.0
176
     1
 40
1.0
176
     1
 90
        0
176
     1
 62
    18
176
     1
 90
       50
176
     1
 90
        3
176
     1
 62
     5
420
      255
176
     1
290
     0
176
     1
 90
       50
176
     1
 90
       50
176
     1
 90
       50
176
     1
290
     0
176
     1
 90
       50
176
     1
 62
   256
176
     0
 40
1.0
176
     0
 90
        2
176
     1
  1
strokes_ogs.tif
176
     1
290
     0
176
     1
 40
1.0
176
     1
 40
1.0
176
     1
1001
ACAD
1000
AcDbSavedByObjectVersion
1070
     0
1000
AcDbSavedByObjectVersion
1070
     0
1000
AcDbSavedByObjectVersion
1070
     0
1000
AcDbSavedByObjectVersion
1070
     0
  0
VISUALSTYLE
  5
24A
102
{ACAD_REACTORS
330
1DB
102
}
330
1DB
100
AcDbVisualStyle
  2

 70
     2
177
     3
291
     1
 70
    58
 90
        2
176
     1
 90
        2
176
     1
 90
        1
176
     1
 90
        2
176
     1
 40
0.6
176
     1
 40
30.0
176
     1
 62
     7
176
     1
 90
        0
176
     1
 90
        4
176
     1
 62
     7
176
     1
 62
   257
176
     1
 90
        1
176
     1
 90
        1
176
     1
 40
1.0
176
     1
 90
        0
176
     1
 62
     7
176
     1
 40
1.0
176
     1
 90
        1
176
     1
 90
        6
176
     1
 90
        2
176
     1
 62
     7
176
     1
 90
        5
176
     1
 90
        0
176
     1
 90
        0
176
     1
290
     0
176
     1
 90
       13
176
     1
 40
0.0
176
     1
 90
        0
176
     1
290
     0
176
     1
290
     1
176
     1
290
     1
176
     1
290
     0
176
     1
290
     0
176
     1
290
     0
176
     1
290
     0
176
     1
290
     0
176
     1
290
     0
176
     1
 90
       50
176
     1
 40
0.0
176
     1
 40
1.0
176
     1
 90
        0
176
     1
 62
    18
176
     1
 90
       50
176
     1
 90
        3
176
     1
 62
     5
420
      255
176
     1
290
     0
176
     1
 90
       50
176
     1
 90
       50
176
     1
 90
       50
176
     1
290
     0
176
     1
 90
       50
176
     1
 62
   256
176
     0
 40
1.0
176
     0
 90
        2
176
     1
  1
strokes_ogs.tif
176
     1
290
     0
176
     1
 40
1.0
176
     1
 40
1.0
176
     1
1001
ACAD
1000
AcDbSavedByObjectVersion
1070
     0
1000
AcDbSavedByObjectVersion
1070
     0
1000
AcDbSavedByObjectVersion
1070
     0
1000
AcDbSavedByObjectVersion
1070
     0
  0
VISUALSTYLE
  5
24B
102
{ACAD_REACTORS
330
1DB
102
}
330
1DB
100
AcDbVisualStyle
  2

 70
     3
177
     3
291
     1
 70
    58
 90
        2
176
     1
 90
        2
176
     1
 90
        1
176
     1
 90
        2
176
     1
 40
0.6
176
     1
 40
30.0
176
     1
 62
     7
176
     1
 90
        1
176
     1
 90
        4
176
     1
 62
     7
176
     1
 62
   257
176
     1
 90
        1
176
     1
 90
        1
176
     1
 40
1.0
176
     1
 90
        0
176
     1
 62
   257
176
     1
 40
1.0
176
     1
 90
        1
176
     1
 90
        6
176
     1
 90
        2
176
     1
 62
     7
176
     1
 90
        5
176
     1
 90
        0
176
     1
 90
        0
176
     1
290
     0
176
     1
 90
       13
176
     1
 40
0.0
176
     1
 90
        0
176
     1
290
     0
176
     1
290
     1
176
     1
290
     1
176
     1
290
     0
176
     1
290
     0
176
     1
290
     0
176
     1
290
     0
176
     1
290
     0
176
     1
290
     0
176
     1
 90
       50
176
     1
 40
0.0
176
     1
 40
1.0
176
     1
 90
        0
176
     1
 62
    18
176
     1
 90
       50
176
     1
 90
        3
176
     1
 62
     5
420
      255
176
     1
290
     0
176
     1
 90
       50
176
     1
 90
       50
176
     1
 90
       50
176
     1
290
     0
176
     1
 90
       50
176
     1
 62
   256
176
     0
 40
1.0
176
     0
 90
        2
176
     1
  1
strokes_ogs.tif
176
     1
290
     0
176
     1
 40
1.0
176
     1
 40
1.0
176
     1
1001
ACAD
1000
AcDbSavedByObjectVersion
1070
     0
1000
AcDbSavedByObjectVersion
1070
     0
1000
AcDbSavedByObjectVersion
1070
     0
1000
AcDbSavedByObjectVersion
1070
     0
  0
VISUALSTYLE
  5
A5E
102
{ACAD_REACTORS
330
1DB
102
}
330
1DB
100
AcDbVisualStyle
  2
Hidden
 70
     6
177
     3
291
     0
 70
    58
 90
        1
176
     1
 90
        2
176
     1
 90
        2
176
     1
 90
        0
176
     1
 40
0.6
176
     1
 40
30.0
176
     1
 62
     7
420
 16777215
176
     1
 90
        2
176
     1
 90
        2
176
     1
 62
     7
176
     1
 62
   257
176
     1
 90
        2
176
     1
 90
        1
176
     1
 40
40.0
176
     1
 90
        0
176
     1
 62
   257
176
     1
 40
1.0
176
     1
 90
        1
176
     1
 90
        6
176
     1
 90
        2
176
     1
 62
     7
176
     1
 90
        3
176
     1
 90
        0
176
     1
 90
        0
176
     1
290
     0
176
     1
 90
        1
176
     1
 40
0.0
176
     1
 90
        0
176
     1
290
     0
176
     1
290
     1
176
     1
290
     1
176
     1
290
     0
176
     1
290
     0
176
     1
290
     0
176
     1
290
     0
176
     1
290
     0
176
     1
290
     0
176
     1
 90
       50
176
     1
 40
0.0
176
     1
 40
1.0
176
     1
 90
        0
176
     1
 62
    18
176
     1
 90
       50
176
     1
 90
        3
176
     1
 62
     5
420
      255
176
     1
290
     0
176
     1
 90
       50
176
     1
 90
       50
176
     1
 90
       50
176
     1
290
     0
176
     1
 90
       50
176
     1
 62
   256
176
     0
 40
1.0
176
     0
 90
        2
176
     1
  1
strokes_ogs.tif
176
     1
290
     0
176
     1
 40
1.0
176
     1
 40
1.0
176
     1
  0
VISUALSTYLE
  5
A64
102
{ACAD_REACTORS
330
1DB
102
}
330
1DB
100
AcDbVisualStyle
  2
JitterOff
 70
    20
177
     3
291
     1
 70
    58
 90
        2
176
     0
 90
        2
176
     0
 90
        0
176
     0
 90
        0
176
     0
 40
0.6
176
     0
 40
30.0
176
     0
 62
     7
420
 16777215
176
     0
 90
        1
176
     0
 90
        4
176
     0
 62
     7
176
     0
 62
   257
176
     0
 90
        1
176
     0
 90
        1
176
     0
 40
1.0
176
     0
 90
       10
176
     2
 62
     7
176
     0
 40
1.0
176
     0
 90
        1
176
     0
 90
        6
176
     0
 90
        2
176
     0
 62
     7
176
     0
 90
        5
176
     0
 90
        0
176
     0
 90
        0
176
     0
290
     0
176
     0
 90
        1
176
     0
 40
0.0
176
     0
 90
        0
176
     0
290
     0
176
     1
290
     1
176
     1
290
     1
176
     1
290
     0
176
     1
290
     0
176
     1
290
     0
176
     1
290
     0
176
     1
290
     0
176
     1
290
     0
176
     1
 90
       50
176
     0
 40
0.0
176
     0
 40
1.0
176
     0
 90
        0
176
     0
 62
    18
176
     0
 90
       50
176
     0
 90
        3
176
     0
 62
     5
420
      255
176
     0
290
     0
176
     1
 90
       50
176
     0
 90
       50
176
     0
 90
       50
176
     0
290
     0
176
     1
 90
       50
176
     0
 62
   256
176
     0
 40
1.0
176
     0
 90
        2
176
     0
  1
strokes_ogs.tif
176
     0
290
     0
176
     1
 40
1.0
176
     0
 40
1.0
176
     0
  0
VISUALSTYLE
  5
252
102
{ACAD_REACTORS
330
1DB
102
}
330
1DB
100
AcDbVisualStyle
  2

 70
    14
177
     3
291
     1
 70
    58
 90
        2
176
     1
 90
        2
176
     1
 90
        0
176
     1
 90
        0
176
     1
 40
0.6
176
     1
 40
30.0
176
     1
 62
     7
176
     1
 90
        1
176
     1
 90
        4
176
     1
 62
     7
176
     1
 62
   257
176
     1
 90
        7
176
     1
 90
        7
176
     1
 40
1.0
176
     1
 90
        8
176
     1
 62
     7
176
     1
 40
1.0
176
     1
 90
        1
176
     1
 90
        6
176
     1
 90
        2
176
     1
 62
     7
176
     1
 90
        5
176
     1
 90
        0
176
     1
 90
        0
176
     1
290
     0
176
     1
 90
        1
176
     1
 40
0.0
176
     1
 90
        0
176
     1
290
     0
176
     1
290
     1
176
     1
290
     1
176
     1
290
     0
176
     1
290
     0
176
     1
290
     0
176
     1
290
     0
176
     1
290
     0
176
     1
290
     0
176
     1
 90
       50
176
     1
 40
0.0
176
     1
 40
1.0
176
     1
 90
        0
176
     1
 62
    18
176
     1
 90
       50
176
     1
 90
        3
176
     1
 62
     5
420
      255
176
     1
290
     0
176
     1
 90
       50
176
     1
 90
       50
176
     1
 90
       50
176
     1
290
     0
176
     1
 90
       50
176
     1
 62
   256
176
     0
 40
1.0
176
     0
 90
        2
176
     1
  1
strokes_ogs.tif
176
     1
290
     0
176
     1
 40
1.0
176
     1
 40
1.0
176
     1
1001
ACAD
1000
AcDbSavedByObjectVersion
1070
     0
1000
AcDbSavedByObjectVersion
1070
     0
1000
AcDbSavedByObjectVersion
1070
     0
1000
AcDbSavedByObjectVersion
1070
     0
  0
VISUALSTYLE
  5
A65
102
{ACAD_REACTORS
330
1DB
102
}
330
1DB
100
AcDbVisualStyle
  2
OverhangOff
 70
    21
177
     3
291
     1
 70
    58
 90
        2
176
     0
 90
        2
176
     0
 90
        0
176
     0
 90
        0
176
     0
 40
0.6
176
     0
 40
30.0
176
     0
 62
     7
420
 16777215
176
     0
 90
        1
176
     0
 90
        4
176
     0
 62
     7
176
     0
 62
   257
176
     0
 90
        1
176
     0
 90
        1
176
     0
 40
1.0
176
     0
 90
        9
176
     2
 62
     7
176
     0
 40
1.0
176
     0
 90
        1
176
     0
 90
        6
176
     0
 90
        2
176
     0
 62
     7
176
     0
 90
        5
176
     0
 90
        0
176
     0
 90
        0
176
     0
290
     0
176
     0
 90
        1
176
     0
 40
0.0
176
     0
 90
        0
176
     0
290
     0
176
     1
290
     1
176
     1
290
     1
176
     1
290
     0
176
     1
290
     0
176
     1
290
     0
176
     1
290
     0
176
     1
290
     0
176
     1
290
     0
176
     1
 90
       50
176
     0
 40
0.0
176
     0
 40
1.0
176
     0
 90
        0
176
     0
 62
    18
176
     0
 90
       50
176
     0
 90
        3
176
     0
 62
     5
420
      255
176
     0
290
     0
176
     1
 90
       50
176
     0
 90
       50
176
     0
 90
       50
176
     0
290
     0
176
     1
 90
       50
176
     0
 62
   256
176
     0
 40
1.0
176
     0
 90
        2
176
     0
  1
strokes_ogs.tif
176
     0
290
     0
176
     1
 40
1.0
176
     0
 40
1.0
176
     0
  0
VISUALSTYLE
  5
1FA
102
{ACAD_REACTORS
330
1DB
102
}
330
1DB
100
AcDbVisualStyle
  2

 70
     8
177
     3
291
     0
 70
    58
 90
        2
176
     1
 90
        2
176
     1
 90
        0
176
     1
 90
        0
176
     1
 40
0.6
176
     1
 40
30.0
176
     1
 62
     7
176
     1
 90
        1
176
     1
 90
        0
176
     1
 62
     7
176
     1
 62
   257
176
     1
 90
        1
176
     1
 90
        1
176
     1
 40
1.0
176
     1
 90
        8
176
     1
 62
     8
176
     1
 40
1.0
176
     1
 90
        1
176
     1
 90
        6
176
     1
 90
        2
176
     1
 62
     7
176
     1
 90
        5
176
     1
 90
        0
176
     1
 90
        0
176
     1
290
     0
176
     1
 90
       13
176
     1
 40
0.0
176
     1
 90
        0
176
     1
290
     0
176
     1
290
     1
176
     1
290
     1
176
     1
290
     0
176
     1
290
     0
176
     1
290
     0
176
     1
290
     0
176
     1
290
     0
176
     1
290
     0
176
     1
 90
       50
176
     1
 40
0.0
176
     1
 40
1.0
176
     1
 90
        0
176
     1
 62
    18
176
     1
 90
       50
176
     1
 90
        3
176
     1
 62
     5
420
      255
176
     1
290
     0
176
     1
 90
       50
176
     1
 90
       50
176
     1
 90
       50
176
     1
290
     0
176
     1
 90
       50
176
     1
 62
   256
176
     0
 40
1.0
176
     0
 90
        2
176
     1
  1
strokes_ogs.tif
176
     1
290
     0
176
     1
 40
1.0
176
     1
 40
1.0
176
     1
1001
ACAD
1000
AcDbSavedByObjectVersion
1070
     0
1000
AcDbSavedByObjectVersion
1070
     0
1000
AcDbSavedByObjectVersion
1070
     0
1000
AcDbSavedByObjectVersion
1070
     0
1000
AcDbSavedByObjectVersion
1070
     0
1000
AcDbSavedByObjectVersion
1070
     0
1000
AcDbSavedByObjectVersion
1070
     0
1000
AcDbSavedByObjectVersion
1070
     0
1000
AcDbSavedByObjectVersion
1070
     0
1000
AcDbSavedByObjectVersion
1070
     0
1000
AcDbSavedByObjectVersion
1070
     0
1000
AcDbSavedByObjectVersion
1070
     0
1000
AcDbSavedByObjectVersion
1070
     0
1000
AcDbSavedByObjectVersion
1070
     0
1000
AcDbSavedByObjectVersion
1070
     0
1000
AcDbSavedByObjectVersion
1070
     0
1000
AcDbSavedByObjectVersion
1070
     0
1000
AcDbSavedByObjectVersion
1070
     0
1000
AcDbSavedByObjectVersion
1070
     0
1000
AcDbSavedByObjectVersion
1070
     0
1000
AcDbSavedByObjectVersion
1070
     0
1000
AcDbSavedByObjectVersion
1070
     0
1000
AcDbSavedByObjectVersion
1070
     0
1000
AcDbSavedByObjectVersion
1070
     0
1000
AcDbSavedByObjectVersion
1070
     0
1000
AcDbSavedByObjectVersion
1070
     0
1000
AcDbSavedByObjectVersion
1070
     0
1000
AcDbSavedByObjectVersion
1070
     0
1000
AcDbSavedByObjectVersion
1070
     0
1000
AcDbSavedByObjectVersion
1070
     0
1000
AcDbSavedByObjectVersion
1070
     0
1000
AcDbSavedByObjectVersion
1070
     0
1000
AcDbSavedByObjectVersion
1070
     0
1000
AcDbSavedByObjectVersion
1070
     0
1000
AcDbSavedByObjectVersion
1070
     0
1000
AcDbSavedByObjectVersion
1070
     0
1000
AcDbSavedByObjectVersion
1070
     0
  0
VISUALSTYLE
  5
A63
102
{ACAD_REACTORS
330
1DB
102
}
330
1DB
100
AcDbVisualStyle
  2
Shaded
 70
    27
177
     3
291
     0
 70
    58
 90
        2
176
     1
 90
        2
176
     1
 90
        1
176
     1
 90
        2
176
     1
 40
0.6
176
     1
 40
30.0
176
     1
 62
     7
420
 16777215
176
     1
 90
        0
176
     1
 90
        4
176
     1
 62
     7
176
     1
 62
   257
176
     1
 90
        1
176
     1
 90
        1
176
     1
 40
1.0
176
     1
 90
        8
176
     1
 62
   257
176
     1
 40
1.0
176
     1
 90
        1
176
     1
 90
        6
176
     1
 90
        2
176
     1
 62
     8
420
  7895160
176
     1
 90
        3
176
     1
 90
        0
176
     1
 90
        0
176
     1
290
     0
176
     1
 90
        5
176
     1
 40
0.0
176
     1
 90
        0
176
     1
290
     0
176
     1
290
     1
176
     1
290
     1
176
     1
290
     0
176
     1
290
     0
176
     1
290
     0
176
     1
290
     0
176
     1
290
     0
176
     1
290
     0
176
     1
 90
       50
176
     1
 40
0.0
176
     1
 40
1.0
176
     1
 90
        0
176
     1
 62
    18
176
     1
 90
       50
176
     1
 90
        3
176
     1
 62
     5
420
      255
176
     1
290
     0
176
     1
 90
       50
176
     1
 90
       50
176
     1
 90
       50
176
     1
290
     0
176
     1
 90
       50
176
     1
 62
   256
176
     0
 40
1.0
176
     0
 90
        2
176
     1
  1
strokes_ogs.tif
176
     1
290
     0
176
     1
 40
1.0
176
     1
 40
1.0
176
     1
  0
VISUALSTYLE
  5
A62
102
{ACAD_REACTORS
330
1DB
102
}
330
1DB
100
AcDbVisualStyle
  2
Shaded with edges
 70
    26
177
     3
291
     0
 70
    58
 90
        2
176
     1
 90
        2
176
     1
 90
        1
176
     1
 90
        2
176
     1
 40
0.6
176
     1
 40
30.0
176
     1
 62
     7
420
 16777215
176
     1
 90
        1
176
     1
 90
        2
176
     1
 62
     7
176
     1
 62
   257
176
     1
 90
        2
176
     1
 90
        1
176
     1
 40
1.0
176
     1
 90
        8
176
     1
 62
   257
176
     1
 40
1.0
176
     1
 90
        1
176
     1
 90
        6
176
     1
 90
        2
176
     1
 62
     7
176
     1
 90
        3
176
     1
 90
        0
176
     1
 90
        0
176
     1
290
     0
176
     1
 90
        5
176
     1
 40
0.0
176
     1
 90
        0
176
     1
290
     0
176
     1
290
     1
176
     1
290
     1
176
     1
290
     0
176
     1
290
     0
176
     1
290
     0
176
     1
290
     0
176
     1
290
     0
176
     1
290
     0
176
     1
 90
       50
176
     1
 40
0.0
176
     1
 40
1.0
176
     1
 90
        0
176
     1
 62
    18
176
     1
 90
       50
176
     1
 90
        3
176
     1
 62
     5
420
      255
176
     1
290
     0
176
     1
 90
       50
176
     1
 90
       50
176
     1
 90
       50
176
     1
290
     0
176
     1
 90
       50
176
     1
 62
   256
176
     0
 40
1.0
176
     0
 90
        2
176
     1
  1
strokes_ogs.tif
176
     1
290
     0
176
     1
 40
1.0
176
     1
 40
1.0
176
     1
  0
VISUALSTYLE
  5
A5F
102
{ACAD_REACTORS
330
1DB
102
}
330
1DB
100
AcDbVisualStyle
  2
Shades of Gray
 70
    23
177
     3
291
     0
 70
    58
 90
        2
176
     1
 90
        2
176
     1
 90
        3
176
     1
 90
        0
176
     1
 40
0.6
176
     1
 40
30.0
176
     1
 62
     7
420
 16777215
176
     1
 90
        2
176
     1
 90
        2
176
     1
 62
     7
176
     1
 62
     7
176
     1
 90
        1
176
     1
 90
        1
176
     1
 40
40.0
176
     1
 90
        8
176
     1
 62
     7
176
     1
 40
1.0
176
     1
 90
        1
176
     1
 90
        6
176
     1
 90
        2
176
     1
 62
     7
176
     1
 90
        3
176
     1
 90
        0
176
     1
 90
        0
176
     1
290
     0
176
     1
 90
        1
176
     1
 40
0.0
176
     1
 90
        0
176
     1
290
     0
176
     1
290
     1
176
     1
290
     1
176
     1
290
     0
176
     1
290
     0
176
     1
290
     0
176
     1
290
     0
176
     1
290
     0
176
     1
290
     0
176
     1
 90
       50
176
     1
 40
0.0
176
     1
 40
1.0
176
     1
 90
        0
176
     1
 62
    18
176
     1
 90
       50
176
     1
 90
        3
176
     1
 62
     5
420
      255
176
     1
290
     0
176
     1
 90
       50
176
     1
 90
       50
176
     1
 90
       50
176
     1
290
     0
176
     1
 90
       50
176
     1
 62
   256
176
     0
 40
1.0
176
     0
 90
        2
176
     1
  1
strokes_ogs.tif
176
     1
290
     0
176
     1
 40
1.0
176
     1
 40
1.0
176
     1
  0
VISUALSTYLE
  5
A60
102
{ACAD_REACTORS
330
1DB
102
}
330
1DB
100
AcDbVisualStyle
  2
Sketchy
 70
    24
177
     3
291
     0
 70
    58
 90
        1
176
     1
 90
        2
176
     1
 90
        2
176
     1
 90
        0
176
     1
 40
0.6
176
     1
 40
30.0
176
     1
 62
     7
420
 16777215
176
     1
 90
        2
176
     1
 90
        2
176
     1
 62
     7
176
     1
 62
     7
176
     1
 90
        1
176
     1
 90
        1
176
     1
 40
40.0
176
     1
 90
       11
176
     1
 62
     7
176
     1
 40
1.0
176
     1
 90
        1
176
     1
 90
        6
176
     1
 90
        2
176
     1
 62
     7
176
     1
 90
        6
176
     1
 90
        0
176
     1
 90
        0
176
     1
290
     0
176
     1
 90
        1
176
     1
 40
0.0
176
     1
 90
        0
176
     1
290
     0
176
     1
290
     1
176
     1
290
     1
176
     1
290
     0
176
     1
290
     0
176
     1
290
     0
176
     1
290
     0
176
     1
290
     0
176
     1
290
     0
176
     1
 90
       50
176
     1
 40
0.0
176
     1
 40
1.0
176
     1
 90
        0
176
     1
 62
    18
176
     1
 90
       50
176
     1
 90
        3
176
     1
 62
     5
420
      255
176
     1
290
     0
176
     1
 90
       50
176
     1
 90
       50
176
     1
 90
       50
176
     1
290
     0
176
     1
 90
       50
176
     1
 62
   256
176
     0
 40
1.0
176
     0
 90
        2
176
     1
  1
strokes_ogs.tif
176
     1
290
     0
176
     1
 40
1.0
176
     1
 40
1.0
176
     1
  0
VISUALSTYLE
  5
251
102
{ACAD_REACTORS
330
1DB
102
}
330
1DB
100
AcDbVisualStyle
  2

 70
    13
177
     3
291
     1
 70
    58
 90
        2
176
     1
 90
        2
176
     1
 90
        0
176
     1
 90
        0
176
     1
 40
0.6
176
     1
 40
30.0
176
     1
 62
     7
176
     1
 90
        1
176
     1
 90
        4
176
     1
 62
     7
176
     1
 62
   257
176
     1
 90
        1
176
     1
 90
        1
176
     1
 40
1.0
176
     1
 90
       12
176
     1
 62
     7
176
     1
 40
1.0
176
     1
 90
        1
176
     1
 90
        6
176
     1
 90
        2
176
     1
 62
     7
176
     1
 90
        5
176
     1
 90
        0
176
     1
 90
        0
176
     1
290
     0
176
     1
 90
        1
176
     1
 40
0.0
176
     1
 90
        0
176
     1
290
     0
176
     1
290
     1
176
     1
290
     1
176
     1
290
     0
176
     1
290
     0
176
     1
290
     0
176
     1
290
     0
176
     1
290
     0
176
     1
290
     0
176
     1
 90
       50
176
     1
 40
0.0
176
     1
 40
1.0
176
     1
 90
        0
176
     1
 62
    18
176
     1
 90
       50
176
     1
 90
        3
176
     1
 62
     5
420
      255
176
     1
290
     0
176
     1
 90
       50
176
     1
 90
       50
176
     1
 90
       50
176
     1
290
     0
176
     1
 90
       50
176
     1
 62
   256
176
     0
 40
1.0
176
     0
 90
        2
176
     1
  1
strokes_ogs.tif
176
     1
290
     0
176
     1
 40
1.0
176
     1
 40
1.0
176
     1
1001
ACAD
1000
AcDbSavedByObjectVersion
1070
     0
1000
AcDbSavedByObjectVersion
1070
     0
1000
AcDbSavedByObjectVersion
1070
     0
1000
AcDbSavedByObjectVersion
1070
     0
  0
VISUALSTYLE
  5
A5D
102
{ACAD_REACTORS
330
1DB
102
}
330
1DB
100
AcDbVisualStyle
  2
Wireframe
 70
     5
177
     3
291
     0
 70
    58
 90
        0
176
     1
 90
        2
176
     1
 90
        0
176
     1
 90
        0
176
     1
 40
0.6
176
     1
 40
30.0
176
     1
 62
     7
420
 16777215
176
     1
 90
        1
176
     1
 90
        4
176
     1
 62
     7
176
     1
 62
   257
176
     1
 90
        1
176
     1
 90
        1
176
     1
 40
1.0
176
     1
 90
        0
176
     1
 62
   257
176
     1
 40
1.0
176
     1
 90
        1
176
     1
 90
        6
176
     1
 90
        2
176
     1
 62
     7
176
     1
 90
        3
176
     1
 90
        0
176
     1
 90
        0
176
     1
290
     0
176
     1
 90
        1
176
     1
 40
0.0
176
     1
 90
        0
176
     1
290
     0
176
     1
290
     1
176
     1
290
     1
176
     1
290
     0
176
     1
290
     0
176
     1
290
     0
176
     1
290
     0
176
     1
290
     0
176
     1
290
     0
176
     1
 90
       50
176
     1
 40
0.0
176
     1
 40
1.0
176
     1
 90
        0
176
     1
 62
    18
176
     1
 90
       50
176
     1
 90
        3
176
     1
 62
     5
420
      255
176
     1
290
     0
176
     1
 90
       50
176
     1
 90
       50
176
     1
 90
       50
176
     1
290
     0
176
     1
 90
       50
176
     1
 62
   256
176
     0
 40
1.0
176
     0
 90
        2
176
     1
  1
strokes_ogs.tif
176
     1
290
     0
176
     1
 40
1.0
176
     1
 40
1.0
176
     1
  0
VISUALSTYLE
  5
A61
102
{ACAD_REACTORS
330
1DB
102
}
330
1DB
100
AcDbVisualStyle
  2
X-Ray
 70
    25
177
     3
291
     0
 70
    58
 90
        2
176
     1
 90
        2
176
     1
 90
        1
176
     1
 90
        1
176
     1
 40
0.5
176
     1
 40
30.0
176
     1
 62
     7
420
 16777215
176
     1
 90
        1
176
     1
 90
        0
176
     1
 62
     7
176
     1
 62
   257
176
     1
 90
        1
176
     1
 90
        1
176
     1
 40
1.0
176
     1
 90
        8
176
     1
 62
     7
176
     1
 40
1.0
176
     1
 90
        1
176
     1
 90
        6
176
     1
 90
        2
176
     1
 62
     7
176
     1
 90
        3
176
     1
 90
        0
176
     1
 90
        0
176
     1
290
     0
176
     1
 90
       13
176
     1
 40
0.0
176
     1
 90
        0
176
     1
290
     0
176
     1
290
     1
176
     1
290
     1
176
     1
290
     0
176
     1
290
     0
176
     1
290
     0
176
     1
290
     0
176
     1
290
     0
176
     1
290
     0
176
     1
 90
       50
176
     1
 40
0.0
176
     1
 40
1.0
176
     1
 90
        0
176
     1
 62
    18
176
     1
 90
       50
176
     1
 90
        3
176
     1
 62
     5
420
      255
176
     1
290
     0
176
     1
 90
       50
176
     1
 90
       50
176
     1
 90
       50
176
     1
290
     0
176
     1
 90
       50
176
     1
 62
   256
176
     0
 40
1.0
176
     0
 90
        2
176
     1
  1
strokes_ogs.tif
176
     1
290
     0
176
     1
 40
1.0
176
     1
 40
1.0
176
     1
  0
DICTIONARYVAR
  5
221
102
{ACAD_REACTORS
330
21E
102
}
330
21E
100
DictionaryVariables
280
     0
  1
1:1
  0
DICTIONARYVAR
  5
220
102
{ACAD_REACTORS
330
21E
102
}
330
21E
100
DictionaryVariables
280
     0
  1
STANDARD
  0
DICTIONARYVAR
  5
21F
102
{ACAD_REACTORS
330
21E
102
}
330
21E
100
DictionaryVariables
280
     0
  1
STANDARD
  0
DICTIONARYVAR
  5
B25
102
{ACAD_REACTORS
330
21E
102
}
330
21E
100
DictionaryVariables
280
     0
  1
Imperial24
  0
DICTIONARYVAR
  5
B26
102
{ACAD_REACTORS
330
21E
102
}
330
21E
100
DictionaryVariables
280
     0
  1
Imperial24
  0
DICTIONARYVAR
  5
357
102
{ACAD_REACTORS
330
21E
102
}
330
21E
100
DictionaryVariables
280
     0
  1
1
  0
DICTIONARYVAR
  5
356
102
{ACAD_REACTORS
330
21E
102
}
330
21E
100
DictionaryVariables
280
     0
  1
1
  0
DICTIONARYVAR
  5
355
102
{ACAD_REACTORS
330
21E
102
}
330
21E
100
DictionaryVariables
280
     0
  1
0
  0
DICTIONARYVAR
  5
B27
102
{ACAD_REACTORS
330
21E
102
}
330
21E
100
DictionaryVariables
280
     0
  1
1
  0
DICTIONARYVAR
  5
B28
102
{ACAD_REACTORS
330
21E
102
}
330
21E
100
DictionaryVariables
280
     0
  1
15
  0
DICTIONARYVAR
  5
222
102
{ACAD_REACTORS
330
21E
102
}
330
21E
100
DictionaryVariables
280
     0
  1
0
  0
DICTIONARYVAR
  5
353
102
{ACAD_REACTORS
330
21E
102
}
330
21E
100
DictionaryVariables
280
     0
  1
1
  0
DICTIONARYVAR
  5
354
102
{ACAD_REACTORS
330
21E
102
}
330
21E
100
DictionaryVariables
280
     0
  1
127
  0
DICTIONARY
  5
1ED
330
1EC
100
AcDbDictionary
280
     1
281
     1
  3
ACAD_XREC_ROUNDTRIP
360
37F
  3
BUMPTILE
360
1EE
  3
DIFFUSETILE
360
1EF
  3
OPACITYTILE
360
1F0
  3
REFLECTIONTILE
360
1F1
  3
REFRACTIONTILE
360
1F2
  3
SPECULARTILE
360
1F3
  0
DICTIONARY
  5
1E5
330
1E4
100
AcDbDictionary
280
     1
281
     1
  3
ACAD_XREC_ROUNDTRIP
360
37E
  3
BUMPTILE
360
1E6
  3
DIFFUSETILE
360
1E7
  3
OPACITYTILE
360
1E8
  3
REFLECTIONTILE
360
1E9
  3
REFRACTIONTILE
360
1EA
  3
SPECULARTILE
360
1EB
  0
DICTIONARY
  5
E
330
C
100
AcDbDictionary
280
     1
281
     1
  3
ACAD_XREC_ROUNDTRIP
360
376
  3
BUMPTILE
360
F
  3
DIFFUSETILE
360
10
  3
FBXASSET
360
B8A
  3
OPACITYTILE
360
11
  3
REFLECTIONTILE
360
12
  3
REFRACTIONTILE
360
13
  3
SPECULARTILE
360
14
  0
DICTIONARY
  5
1F9
330
1F8
100
AcDbDictionary
280
     1
281
     1
  3
ACAD_ROUNDTRIP_2008_TABLESTYLE_CELLSTYLEMAP
360
B9C
  0
XRECORD
  5
37F
102
{ACAD_REACTORS
330
1ED
102
}
330
1ED
100
AcDbXrecord
280
     1
102
MATERIAL
148
0.0
149
0.0
149
0.0
 93
        0
 94
      127
282
     0
 72
     0
 77
     0
171
     0
175
     0
179
     0
273
     0
  0
XRECORD
  5
1EE
102
{ACAD_REACTORS
330
1ED
102
}
330
1ED
100
AcDbXrecord
280
     1
270
     1
271
     1
  0
XRECORD
  5
1EF
102
{ACAD_REACTORS
330
1ED
102
}
330
1ED
100
AcDbXrecord
280
     1
270
     1
271
     1
  0
XRECORD
  5
1F0
102
{ACAD_REACTORS
330
1ED
102
}
330
1ED
100
AcDbXrecord
280
     1
270
     1
271
     1
  0
XRECORD
  5
1F1
102
{ACAD_REACTORS
330
1ED
102
}
330
1ED
100
AcDbXrecord
280
     1
270
     1
271
     1
  0
XRECORD
  5
1F2
102
{ACAD_REACTORS
330
1ED
102
}
330
1ED
100
AcDbXrecord
280
     1
270
     1
271
     1
  0
XRECORD
  5
1F3
102
{ACAD_REACTORS
330
1ED
102
}
330
1ED
100
AcDbXrecord
280
     1
270
     1
271
     1
  0
XRECORD
  5
37E
102
{ACAD_REACTORS
330
1E5
102
}
330
1E5
100
AcDbXrecord
280
     1
102
MATERIAL
148
0.0
149
0.0
149
0.0
 93
        0
 94
      127
282
     0
 72
     0
 77
     0
171
     0
175
     0
179
     0
273
     0
  0
XRECORD
  5
1E6
102
{ACAD_REACTORS
330
1E5
102
}
330
1E5
100
AcDbXrecord
280
     1
270
     1
271
     1
  0
XRECORD
  5
1E7
102
{ACAD_REACTORS
330
1E5
102
}
330
1E5
100
AcDbXrecord
280
     1
270
     1
271
     1
  0
XRECORD
  5
1E8
102
{ACAD_REACTORS
330
1E5
102
}
330
1E5
100
AcDbXrecord
280
     1
270
     1
271
     1
  0
XRECORD
  5
1E9
102
{ACAD_REACTORS
330
1E5
102
}
330
1E5
100
AcDbXrecord
280
     1
270
     1
271
     1
  0
XRECORD
  5
1EA
102
{ACAD_REACTORS
330
1E5
102
}
330
1E5
100
AcDbXrecord
280
     1
270
     1
271
     1
  0
XRECORD
  5
1EB
102
{ACAD_REACTORS
330
1E5
102
}
330
1E5
100
AcDbXrecord
280
     1
270
     1
271
     1
  0
XRECORD
  5
376
102
{ACAD_REACTORS
330
E
102
}
330
E
100
AcDbXrecord
280
     1
102
MATERIAL
148
0.0
149
0.0
149
0.0
 93
        0
 94
      127
282
     0
 72
     0
 77
     0
171
     0
175
     0
179
     0
273
     0
  0
XRECORD
  5
F
102
{ACAD_REACTORS
330
E
102
}
330
E
100
AcDbXrecord
280
     1
270
     1
271
     1
  0
XRECORD
  5
10
102
{ACAD_REACTORS
330
E
102
}
330
E
100
AcDbXrecord
280
     1
270
     1
271
     1
  0
XRECORD
  5
B8A
102
{ACAD_REACTORS
330
E
102
}
330
E
100
AcDbXrecord
280
     1
 70
     1
 90
652598616
 71
     1
  1
116201B1-15EA-499F-A799-54904644571C
311
504B0304140006080800B45C8B574B85AE1834010000A80100004F00000030303631324546382D354634432D343545442D393238432D4445383935464646423739422F4173736574446174612F446566696E6974696F6E4974657261746F7250726F706572746965732E62696E35504B4EC330101D588058B040E2002CD89A
311
C49FA4311242CD8F151B38007283A7AD94A65593882D4BAE3077F29D8C2DCA48CFF37FF3E41F00F0270B219C057C87F73AF8173BD8E3B67BEF367667E02256FAFDCAF4F7212A73D17059654CE42267AAD592E9AC6819D742D4692555A1D2F3307719505B34733F45CAD7EDD8D9BE3783DDCFE34D289C6EDCEDCC146E99FE21
311
2E5D0144F71D00FF8D3132ADFF1445915F01E6F3F0F86CC6D14E4F499AE65C346DC1B256554C654DCDB4282A563785CEDAB62D17BA4CDEECB89F8F9D1D13CE7391F292339E354BA6B46ED972A135CB944E55AE54B6E055326DE6F835B751C66A30DB3E499393848FC3B026940EA547044489D108D1217A2440923123427248
311
1E1DA093B1E9089D43E7D1037A1966D1137A87DE1300818CAB40048EC09304923232C95F504B0304140006080800B45C8B5716CF1E180A010000300200004500000030303631324546382D354634432D343545442D393238432D4445383935464646423739422F4173736574446174612F496E7374616E636550726F706572
311
746965732E62696E6D513B4EC340147C81483480728814416825AFBDB6B5957F713840948EC6B22D85821451A4B42EE9B8476E40CB19A0E708DB509BD9F50F70467AFBE6CD9BD995EC1722AA5B80D20455E1BC417F2877E5FE295FE7DBF2399B43E0DCB32D1E73C6DD346242CA158B7C29992BA4253C215C9F27574350471C
311
2E96A9ED6A8F7098F06CCEE255BC64DC77ACC44B1219A51236F32EDD3DBEBE7F2F3E02F40B6815AA9B4DC70CA8A07113CD429A19C91CF370E06719820D7A72D606B137A84B4C15AA8D7EB5FD1AD218FA3B0E9BFE9291B1780B47DA1F611CD5572F7E795430C5A4FFD62D6A7DCC0EF996C5FB6C579485DE34D89C3EAB7B4337
311
277D4303A554ADABEE969DFD7F1FE244E03AF303504B0304140006080800B45C8B5788E57597CD3F0000904100006B00000030303631324546382D354634432D343545442D393238432D4445383935464646423739422F5265736F75726365732F31313632303142312D313545412D343939462D413739392D353439303436
311
3434353731432F7468756D626E61696C2F302F67656E657269635F706E67355B773CD4FF1FBF73E71C0E67EF7576C9DEF3EC995D46C6A1EC5046649CBDF79E192942562825CE965D8A868C2842C8DE9FDFD1F7E7F138F7078FCF6B3F5FCFD7EBFDFEC41B196891913091804020321D6D7513FC77D8C5070EC3FFEE51B21F06
311
8154CC75D455CC028A3EA68992803810109FDDE5D5CEC5521B28A1B422BF80741695D5B529DA1C2D058AD2388BDA9F476F7C2CADC939304173DBF48A452BF8A700C0C70C3D121C1AA15A5270C22E2B9E28763651F7DA0D12CE11077B2ECD0D560B5E3DE2368B1E65C5E1C87384A4CC5F2D9FB8BE39E9B77C753783A37998F5
311
CEF1B4FEE553463245C9712270880DF339E0B882A6BA713D865F6F384C842D440934EF264F4A304F8DE4EEFA1E2BF5E2D91F5ADD9613D6E31DDB33ED31DB1D7916CAF091286EA3D31B9CFECB78BB0060245B943C4C040119FF780A74DD308BA9D028678674EB5504ECF284EE814DAED07440BAF649BE4B55DA2890F4D73E2D
311
489A59EE54FDB0A85B59F2F52C4858A02705C4815A792B0C4A996A2023ECB195073E115E3E3647F64243A8338F2000BCB58DA5692C7E7C3D413F963FEDF3CF00FBB0F831A9D51360FECA43819F527B89FA260EB63C5DA676830AA3626A3693B23F1A17A0DFFCE3EE164E31B5365EDF0C89EF64D8E38AB0BA9A1117D7C3A0EC
311
44F44F4023095E80BA610DE336D0F99593A88BFC5306E72DF98F7FD132ED95878DF2964EA7E43071359FD83B2BDF9C6B5BDF768F0F3C0FC351199526F53D9460A34511F75D1B63E488178569472C91A94497807A3FD4A390C6558F26D416365C3656DE6E769DA9D8FC73774E1709812842DD8EF96AED1960F79D21B395CDDF
311
E6F92CB4EB962A4668C76990E2EF29798C8941D67DA50F4A5F947872460F1F6FDB794E8A29FD7AC0C0D6E0714339CE258FB17AE8535221E3464A10F29A0BE5EEECEFC5675926A89F49EB14E5711894F6586DB5754EB4D5DA9C6437EBA57DB97A24F8B8A8DB295FFD73266CF57E82694DF5166DDF93573AFE9C9C5EB05F8FEF
311
8E89E0A8917B0B3724DB7BEBB53252581EFC3E38166BA131A3A5B42FE2AD00A769BBFA4458D2DE7822F8C4F63D0B8E21B285AE13325F3410A435C648C9D91FDEB109E73CEDA7BC796961AF79175E1A3CE4C5E8B0D009B0C9E29EFD98BC8E97554E3D8D838424E270F7685226E5AC268E021EDE3522D583E8F20C0BDE2959EF
311
5BBFEEDAB32FE9A3ED0E39F211A86AA9DEBFC68182EDED132AB8BB794442D2D7EA9F4D8BFF52BC4D55BB165124EE90A42D101E67BBBB292FFB4F66DE5BF2300E44546757DA7CEF8932BFC9F92A0707953491A55C5A5ACEDABD9FA1AEA01BAC3DC5A24E22E7C47213493996EFBC369D086ED9397C9BA6C7F9855C7BD5E15BFC
311
8C53DB3D2A4C5901A57ACD2FBDF4D1676E95338B2C2BCE65FDA4C64F5FEFDC7D9CA5AA1FCF11E193F2FDABF0F4916BF13FB916A224380E6462A9815F2300DC49CC4DF8D055CEF76462F4B7A7ACA7365C2707891370BC1D0AA6203C44CCAB47084FEC057F27FFCD57F89B8B9852459798A675C66BD7CE572CAF71FF7E6D7ECF
311
7BF62CAB7B3F1107DCD04DC55A3F9961700286141C94A4F771FEB2BCDA2DDEE0CB0BAE402FF1DB0100F8E475DFFFC074DDB4498AB7D186A7654DDB1CB680D703D47CEB4E72F8CB13D86A4AA68116E26387B93FD6738779B34FEDB8E517EDF2BAF28D9BE93A1D3A164320E07D42E514725C29515FF361754213EDE06B079A2E
311
99EB1CA82A02019EADEEB87B9AF005BD04BBCECB14AACD6B24EFBE482194A97DD32400685FF1FEF1544D1B14EFB1E7F08E6D2CD2AF52DE757F35F5E62332EE88EA26417AD5C3E0E319D68F25414E6D672BD4522B278C57D18F0113921C71D96527E091F00CEB15AE23D24667369BD3CEFA10C7549D930890BA4366F4EBC55F
311
01F746109F98ABCDD5A3EE06619C6AD78AB33E48E4C9BD21BF7478B385EC05C4F8987E2C1BFA0A60EBEDAA0AE0B015C2720ECE180FB6F2DEFBEB822D96338C9B63822183BBF52FB664A7AE57003AABCE512BF77E7E31BDA2E739AC4C131657DDFE5225E900FB56CC01CDE808FA4A9C9DA16AC679656BB64796283D89812B8F
311
91136AE18EE5EBBAF47A73BE3C153EB5D4CD491B4BFB4FE690A4CF9ABA08C0D8AA64220C438C96EA6CA80B58FE5761E697B3A292EB9FBDA502FA863E49FE694ADDFFF9D62C520BDD1A22014147A0903A05B9B729F54272EF83931FEEC057BFF8C8055C279EAC5C0011804828734024F6CFA319C9CC6867C727184465CD9BB7
311
ED386AFFD96B294A85E3802FAE47244602D8273615952B98C4F23F7EAE4463D9D638EEE374A20959E0FE519C4CFB0FBFE5DD80C2AA3F9DB961D1BDE57E67C9BB47B77FDD74EE3094F5DBBE3EBC1FBDB7393F5116263009E2EFE1AF9A221B2AE234C902BF70E9F280ED23E73908361565964333A3F01D0B006AF32FB21AA131
311
6744B489D5A198E85299241735BE559675130955C902A8ED761FC0DBE337A9F91919AF5CE32AF902ADF9AB2615E00E8A94586BA1A90839B61832FF1BFB76D2EFADE6DB1BA04CCAD3DA649E7E2A0219F592E22F2AD54847EEA8E42271011E9074F8F3DD9FBA6CDF88FFC9FC7E811AD1CA8F4557CE4AFC7BBEDCF0114A48689F
311
20A584520C74DA8127124B767E2FB91A6B186246727BE63C9445BAE02088D58B8EFDC0F1072407CD9B89A13F6303B4A928F593AD489B58E6869325790ADC406036C591729FE14021F94B7796BB11848D463536A092A26F077F94639F7CEEE2A724C66EC885F4A24F8B8A0AC321F8FD149BA529460FAA34E4663C02D41FDF80
311
BCA222D42F0ABFF8490F4FA74C673807C2051D8E467B47B616072860069A9A303ABA9B319D58404461401B0A0F9BE5E1E151C14BC33B32ABE03DDE91708DFAEB15E7C0D593C86BB7D7EC17BE56E57975F077BFD5525F3A1A361D584A75E08CF29FC7B44B2B3085014F3A5A14517377C3F6B8F37E59514C3B12F8AACDEDDA4D
311
FC49BE5710101534CD6FB6DE15B50F11A09472AABA727F0C49D9CB906B158030065F48EB3625E010CEC1D511D0053474B11E6A4F01C0D6EF1BED3A944FDEC70E0DDCDC756C86545910E0DAE3BE3AA9A404574C2995CD5CAF9549226BC94B4F4F0F5F9086F418F6B32346464610D8BC7391D3C3A3CCF04CFC1FB2A3A3170E36
311
9511868F14EEA4E5E438CC73DB1F3248AA94B6B2FF33B222FF3D1E7BF146CAD229770158063BCE4F5391964DF62F7E52A7BE0EEA829C9E13C4C147D6F93FE59E111DAB5E4594D6F3CD1AD375EE039930EFE5AF2BB2D41C83C7DABD8C659BAFBE8FAB392CA634F3D15C1D945DB4588D2B0824A4EC928AAC565557CA2F0DAA58
311
8CA5BE30B3A8004F7BF005E96CBF891D7F18112A3619FDF530DC8AA64954258E1811789B5189B49B4EB53F5F89F7D37523894F3EB57B373763C91E502F52CC99EB7BDDF933FC324C4FFC2561DFFA7339FAFDD0A4BFBE6D3A8FF9ED1FC49898139864602458968913181918F719CCF5A68B2EE9C1FF050E34E63107003B8120
311
FA982C21B30A874E4F5E4B38D5A8290C4B8D9BE48A0BE31EA995BDC37AC6DE90BA17D259DEF53605D55922FEB1855D915B659FBEB350EE0DFB2F9F766E1C84CC8964B75D08667445EAB966015F63A18A9E0A325C1B3DC628C0D3CB60F767FA93CC65F25458BD23C3B312716E5F40E5858AC06EBA9AB14F95DB99147B832069
311
201541D09A0D856E12C629CF32683760EE855537D1901988D5EBC156676C7DD51D7207CF3267AF1D76C2AD867315E44618015313A98B19941C696FED3461CAA9B5415F918556D7802EDACEFD6B2E45853A9735DFC9DBF7E440F9319F8B6805A973BCCDC76C069A9144E51F187EDCC12FC31B5DEAAF0A76137199B106EC84AD
311
A6B6EE697D4E6A96E007417F4E880E8B1E89B4BCE9D81EF611E2ED8F0C1A6C25F620FAFAAB656A7C42D464880E8AFAB0E0FC8EA38CA9A8AEEAEE3E4648BA4680270A89743CDD3E6C6CBF34B7B640EFA285ABC7EA0A1E28F3CC963D114A80123EE66D0AF7D5380EB41909B605AB4765B709B808590458157E69BA1378FEC4B4
311
8CAF6A730E3BE3C5EF2DD1A5EAF94B1DDE50CEB55DDFD7EE9A16747FA4B223359FB1FCC69E1194892BABB93A1D5C4E807AC0EA2E30180811E77A2291F6E7F7FAA5E0F60215BC6024E48DE436C511F0628B8CA189982D4D83CCA17D305A7E923C37941CFDFDCD93ACAF735EF5F0E61BBD3E6C41A59B242790D3A3BAC7064DCD
311
89AA2E37214EC839820949D5CAA31E240D2948E48F690298974A96BA9A8432BC90F5071D6537C9666EA4564796B7AFFFA548077BEEA75F63083435074BA182F3699557397F71548383FDA8CA34D99B981E72835ECDA5DDDC151315173D05A21F651AAF8524E88209E2E7A737ED1045800CE3390050BCFB8BE588DF11161787
311
4C62575039CA588EEFDEFEFE319B739DE2EDC147092A262611E159650E787917885EF08F1F51B8F2D8A71D60B58B190FEF9541A1BE94BC19FEA50784DA1419FE4B0FB51B8D36B5FF8E1286FD8AF42B91E59A5F1CC4D60174E764045FD8C57B18209B217F89A62252BD20BE0E63E12B8E8F029FE19E0E8D0870F58721A55708
311
2250D5424F7909369376E41666C0EE77CD87CB283F661D5FB6D0DA023CB67320A20DC7BE661E9E1BFE5463085C557DA1FF9BE835733766C3D139F2CF9E2208873AD0EB4814DE9E6BF2CAF81614D4D43906ED1C05A3265CABBFE192770FC2F64F940CB6B17B5F166F133C9AEEAD2641807C3E69515171DD74C4A85311513D6E
311
C9530B3B601B6BA3EBFF3B5C3D2F7D69765141E345F75433953D013ADDF8F6AA7DC3F4A7563FE5C7D367937E2900D7EAD0F9FC9A4A1A9B5BDF1FEF08532660C01C5D6DE22199AA774383E306DAB87E301ABB7D213887F9869D4942D0D71E94B27EDF216A318BD488D45DF84529EF575AF3C3938C0AAA0215B01994153E2054
311
A0B894DA5C784980633AAD48576957CF4AEAEAFADC7C587368551C73DBE1E57C58AC713303A8BFC258BD04B51724459FF9E24C03A81E0E0679CEB9B348C0DC998FEB9C6D6EFA77D247CC8F92D3848599ED89A23218D0636465AD1CEEB7DC140D7426F83491C4E8E8281C2FB35240918FFECE880CA2A42D70E8B20B34DF5221
311
C7DB0CF90ECCB9C745B37A47E9B716FF7A97B7A252C1F3814DC7B1E1A7F72B8751D524EF7CAE45B0C73B3BE7D08ED39781B380DDFC9AA4A4749C9493DB5BAD07A6EA6C092FBD0E85DB004DF06B8C9D3089C5320187E4CE1846158C7EA7DDAE8AD9AFFF21AA3A1026BB06A259845E8232DEE62811A4DA9CEAB3A4887320B76E
311
2AE5615EAB7BDF738CBDD01F1E64064BC13D9EC53576751CA8CACD58B3CEB0E6CA585BD089B2A59B9FC101403387AADBDBE70586B93D64BF3AD4453EF9C3B6A93817E8346991798601344F79A83C51F3D50F7BF2683A3605F51A72449489E0EE6169C749C60B1035651103AEE24D24E51A759C840DD3FC6504DA6FE107510E
311
447B43461C79D22970B75DE5E1BD3007D1AFC619A4A4A69B5626AF5E9B8374E20677F77E2F8E73DF868E8BEC7EBA7B6A75EEF7205E1AB9486CB642741D6E03FF13FCCEDB1C4AC129886268B01CDF4B124AF797CF784F3C6DEC97A17D4B558070A0F1C04DA4FF9BDBF34159AEFE958479824B3F58EBD1E19088A2AFDE501B6F
311
2052368A3FD0E650A179EFAB1561E1D27527077136E652676C3670F42DCB3352F48F6BC86D2C3B0051727E41A0A4DC6CE2BE9D47F5CAA2935A3C0539AF080665997194ABECD723B08129CC5B6B21D2E7D54CD4D12610E7E9FB8306771A89576C7A982002775ED44F3F744CF21EEBB27A631671D921938AAEE3EB0D19CD1E08
311
3727F607823E817BF599DCED5394E37EEBC2E88782E638920CA641EF74D4CDFCDEF06F4278ECB18E31E7E9876F2D783C8BF429C75395F57E98C2B495A3DA077EB3AC3C158608B6B57FE3EA48484D9A480096FCEE0DE880950E7E5A5714131C5C41AAA29FD19AE81AC145FA1B9E85C7169A5AB837B213493DF7E9AA4B5FBF9C
311
DEB36EBD21EF1181B7CF7366AB2A951D01E37AF4EB835D1BE8C117CFBE7625D2EBCDB0B20C5A4B45CED0BCDE3EE8DA9DA78C2E21DEAAFFD1197E463C33CC6A80FB785669B856EFF7A8CCCA2841B5A5369173320B1170C368B2748D81062EA0296E5E2D95D7667A4A46D98A6FF475C76AAB0A8C8D45E226FAFC9FE0133EA9F6
311
0111F99CA81ACE03A1D14C89E8B0D69079C91464FA1D99E651D0EAF606F345C42A8A1AA9BA391031582B96D5B4176A77AADB01F12FD298A75DEEBB2C82F0B8650E880722F8DDD90C56A7A058E5FDEF1AC93545BA27367C76F5D8F9690CB6F8DAE141EDD7971F0FB548A2AE435F224D6E5954CA155512F7332029D5A1230854
311
B79F258EC5FFDB09F5F6343A8EB193229B7F7E79B3E48F8E183860B38C8269D1B53738FF1E0BACF6AADA6D4869E9DE708E79B5DADCC09B1BC76F649731CFAF59A83FD8BAE4C749D66FA87A3810D4D62FFE826FA400C0F325D2BC0F3CA35F5847B82A2ACC7961745C823E4D863D54460AF792CE6F79B5C7A33B25C3AEA6CDE1
311
5A919B6367D781E9D44F61BF828672594A3E1D9EDD6DF179A81F27EAC05B936575D73E05C209DDD2115CFB705DF9BBF3C911589B3640735E9E618FC9C36A7326C82B2205E244C55D56FDB9D5DC93CE958D4BF8174D2B3DA54CB3C09F2C2A6DFF73D23B2197355761AD421EC581284A7EF8DE2CE3497C0C804D49B41DFD6A73
311
60844E5BEFFB495CFCDB97A4595911CDBA623274CE852B5E278AF0BEB1770E9D37CD977B2766A7DED0E94B840E1E95E8C77DE5CB6354AF7871427C28ADBEEF7BA0A28E19DE9ACD75F379FE373EAE6DDDAE3834692F9C2B03B4FCA8FCA9ABE8EEEBEBB725B88A7C90941E850682CA04061A7DF0CE82ED49BFAFFD42C309818F
311
AE14755CAAE78B0F73243ECCCAD7DF58FCB9CDFAE7A4D3E6671A613639130D056C8383C8F4FCF4808C331E544DD26E4755D09EA05253B3049A1E32587CC25D72E073E2CD96D04A71BBCB0038FEC3F53D254199C3CDC67CD66640269431860225392B2CB3ECD0B4498AAE78BA1994246AE1EE78F2EDFB79F6C6CB6B5E279C4D
311
373FBC21CB2698C9ACBBEB6A4BB6B39E16AB0E421CCBFC7654D81ED86022F9BB522146F9F4772E2D0E4FA70120C95A85A417BF5078B232F4754363EB1750B2AC2148EB46B1EA72AD9B4D23ADCBC589D70106C3EC2ABEEED84DFE28E718C6C83502C28E9FDD3B09DA0A6F6F7B72B706A31C9E2A331EE70DA56A083D2177BFD6
311
3C55B11D8D949FAFCF90B23A1E24B9B5018B9A17E99F2890EC302F330FE7936E2C23F0D237EC8916F5166AB84B62A21BB0B950146962D754F92CC2C8877BED8FC7B7B25726DD19545392570B3A2C66B58F027BEF412E552D12A588C4A3CC5C3193FCB3485EFFF700D0B9EEC077754A33DC1FB9E25AF814628F91DDFECB667D
311
3F7690803F38D13F8AE39353523BB08FC6760144AFA2CE28236F65EDBB3D5F59A57D612B99E3D7E5F8A851666BF9B5A6658EFC96EEB37A378ABB0EB3FDDF1303AF32C41BD1C8560745D7BD81066B0D6313359CF488563D3BA3F8E2185D1FAA3EBA1397C9D0E3DD232180A4DCADB6AF25DB3AC3CC26589C8239E66E81547BC7
311
E2F328F9884764CA37EB5DBE390DFC03A5246B456A7C3684C4377D0EEF9A350680FA9A077E8B2957B489E09AB1AD41316944C2254B5984830F691C93CAA767EECF976FA5647538830B5E63236A6F0365C1E0F3E327F24FE35EDDBD7360B0F7374837409F7A6311BECC12B7026D4FA1AE204FA3F5FE904B1F420C7A9044AE58
311
E403E7C4848E7DA25DC9EDAC79DD756FAA26B9EA83ACE8A214A2612A22AFA19DAE7DBAC5F8CDE1292A485F98DAC731A29FE01A3966E96BCB9FB5A4C8830E1B9AF0C54B87FBE221A097036E5D28D1F869F810C06A9BB0AC0612F69AEBAF893C6E7AD59460208BAB3A6B09CA4F6BDDAB8CF0D1F84B72487498395A70DCD75479
311
6E271099A567A55CF242BBED64696378BB6CF25EF0FCDB589F3A82F1116D010A9AB9FA4358809EE0C973A2B4229BAA876A70B03AB49CBA7FBE71DB1832FFD32F9BF2C8E98075CACAFB36921235D0F552B6A67E94E094097A5D7DF681B40623DA535ADA7A9AD8E9A62407D7C9A5AE51D62A17A83A23728DE86BB56115804D3F
311
2675F2C6B87541A0FC497BF0CA86420F558C9859EBE9FAD62747E323E3AADC03FDCDDFE7407B09DA90B44E3185723C5381EAEF589765E2F7A099BA46695BAD60CEF3491B8A171F5F56444F7CE9455312C3498C74173AEA0214EC029833B34B650CBB5A5508D5091665309642791708ECF27CF11DB3D797D6CFE474453BD4BF
311
ADB768094B2147814D81C7CBAF8228DCAF5564B5891F5EF6A860EB2E323CB82AB868D8EA048880D63B0DE5341F1B3D53297B928A11E15F25E5148990F710747C3509ED14909C552EBE3973246FCE55D00564D8310BC3EBC5085D08D806799B77D6C57FDF5E55837F9E934F09C03C729271B64F12D0A9F9E938107CAF7BF1EC
311
8CF1BB9B42363D33070F4CACB425E605DDB0A34A12BB936DE286B9887A4E2E558F0886498BFF49C311D96C277CF6A9FC0D75AD0ECC5226D7E0E3572012E56D7FDE4410CEC7A6D0F997F225A2055B8B92E3956E875AE4993CB3D4C9063AF98FD45E1BAB165640A43439A2C9181A7C355B297C0A0CCFFAE19B6FA3C2BA238A88
311
5FBC98B8F6DAF4B94B97304878DF4D8BFF6A4AEDF79E90ED4E68F00CD7299F4E0D83E35601AF0CBEF18C1E870E74758FA91F5131075004DB3CFCF09AE1DABC11957FD9808C92E8A678CE9DBE40DDA0E0D1D505AAFBCBA208232BFB6FB3704E8985E61ADE53DE74152F5C7DE74B1DEDCD37DC3E8FB30D7EBA8B9EFFC3606BF9
311
0B8D438279CB7709FC7C00D327F41817EEA71CD9E49FE9C8C9A81C70915D9F0F15958EC5AA4C3BBFAF46986B90F188BDB24B89DE3C6F29EC3E6F66D84856EE96A35E657CA41B41EFD8DBFA16AD6E91439EA92B40B21C053249F51AE50EB0B24C770FFAF40DF12C8436366819C48E36547D4E7B72FE2BBF10828583057814A6
311
68BDF183F6B2E58DFB151103E56303E63D00F39C27C4661605DB644D19175D02E3F0241E8FC3458D17AAAADB117CE9EEA690D0DB01E634878C04C2C9310B69FCAB831151E3AD293BEF6E46B0ABCECB50F5939B39C613D41E81FAE8D34CAE3C4566B761D37185FE864AC32FCB71AEF39DAA5BAB88609BB980CD2F07A8F94165
311
3B529567726E2B2A58D079DD57E1E5E31426CF184A04D7B03B985F276D47406AF276FE32E3328BA866EB1FD39BEF57863A317634AA5FE467409B3873F5069EF0D71AF00AD189D17BA1974ECDB2D623E9E14086386A6AAB5807825C37B015BFE892AFD154920EC437EB945D958E18622E1E0FE2FA06557CE4BB9BBD05A2D40E
311
774DA2B65473791E314B7D6C886820B2FCFE4AA272B3B8B15E7344A145E8AF919B5454D89D36D413E87211186BF6F645E5EC94DCCE8E1C799022E4EC9BC86D7A0F2AFB1FC4B2CE48F84B3F49ECE65BAD24CADCC07EFF39AB06BE9E6B27A059938EA7208838455383DDBCFCD967DDE4650EF92A14FF933C975DB20BD7FEEBC4
311
487576485963D757D16340D9599FEB362F775F38CA4185A86F74B629C81B133644A3B18FD056E997E0734F9BE26D11C0AAFC669E2AC9FC41D281F8B2E1C35AE27BCE05F3DA295488096688719D974DF1B5D182DB7792288697F8763CFB43562C1CDEE11C4AABD5C22B6E33F6F389CFC3477C5919DC0D533F8A7A1846B7ADB6
311
0ABDC26C43D0CFC8910B7C15EE22675BD02702ED39DB77A87A192CA7A543E6205B979B9F5A6B512A3CA799E198B2D5797C0AF8D1D872CA455D4D431A7879D4DD76110B5FF7F4176B54477A9EB5E4A5D11214FDA585F0382751D8E2582BA5D2075053298FEB8F1537304E32CB22C2E2B693DC0A760B1DFCA751BDC445AFDCBB
311
12820ED85F6D5298933C7EF1211E9E057684056CDA3FEF3BB6052355E162DF27C59E965A8DDB7F9437EB72CDDA3A090DE65A5B2F50326247B7EC67B73ACC7047FC9B353D6EE990F772207C6EC52B39DC2F3C0754821DAB559F7C1809C7D0DD5B0499D0442E0A6E391B3D5DB46D11E731E6794EC77523FBDAA242ED67F9FA1F
311
B684255671F63C9BCFE6E7E896D51001A6113EF2298BA494E0B0980D1FA5B9D60796554C02256B1E0345FB7C6186B6A19D2DCA270416262845FA4F42DB5D9B0A0B6F07FCA2E56C242522E001E0CEB734AF310FC8BFB57E38E03AACE93B3326A2197891E68452B26A6307FDABFEE0223D3C03C3C73D2D5BC054C8311F12004C
311
AE488E5C29287F8156A2CAA4AD0D7BE6B97264E4139F437CE73ADF52E5134C52B819777C18B323A5924E4F67AFD13B1CDC3A61793A79FAF5C0CEB718E441071E797C6DCCB9EFCF7E4A1E9F3DF3C2F9C9E8294E9586868788C972857FB0556D7A26941A7EEB9B580AD78EC40B85DC906B4120A563CA3B87797ED612D3B03596
311
2BB75F6515A393F4CB057F564CDF54F2E5A024514E6A1F901DB80C7E70B1FC05E356A7E72FABF4775B3E3FB8F70A2A8E7B6A94542BB304157978CCC999E707A29CC795E67A59CC546A5D47B368954CA7B6E75EC9E1F6FC73CE3B4F71F8CB1A6B15923D61EAAEB14626AAA9D04A26EB9C66CD1BE86CA31A5D8703DE04CD1EBC
311
E4F5CCB62F93909AD11E55799A781A956ED27D3E738F4538CB04ADABC7DAEF20BC35BA6A90BCC1DC61BA05F20D8832FFB9BC9B15E2DB838A0AFBB7E0C82A562127E0446894F427794C3037186F622BF24DE1B00AA10A23BFA47B2A180D6DA5AD6F7326FEB8C100C2D7142EB2A0B2A9D1008A09BA343D70E054AB69E2A7EDB7
311
83CBD92537FAF4A44D1296AC2792729104B3276C276C951D0CF3CF3F1E6B017720A7B8505A5FF9589365979678C36F1BAF759EAF57C60F1FF5FE9DCF5F8E764FF25A2D06CF25117A8FED51884C13B2B750DB0E4F5E3D64124FCF11F0AD8F1CC3B3DA4B38ED22BF1CB2585EE6BFEBBA63FBFD44F9537B9B37BDD6B358720F98
311
A8125AED4349CCFEB0E135F19E208A04CA7E2B10711185D72E381F448036EF57C9F874E54A971CA37A639E986AC0226DC5AA00D5B14FEA9192234B3DE617814FC221C92F33F1D392F297731B567FD98FD91D989379AF567A65B8ADF177591DB90FBEA99BF4ED11B16E50A0AB1DBF1156D034BBE04D69D08F939D8E92BF525A
311
1DDAFF80ECBC95D8F45D3FDD289FD23F7D8B452F8EBB34EC082DEEE68E18EDDF072060FAD2AB1504DD4879BF67099FC58F6E9DEFBF645D16334A3E9A127C6F1AF6132CF287E433B43A0EE93812B4AA0B194E03EE3FF91EF9C6ED0074A2F6EB18A96A7C9890B1FCDA1F2095E944DB911ED54C60DF16FB74C8CE9BDC7C54C4F1
311
4078CF73C2FFF1F1BBCCD7CF64F71407EA1683DBC410D226627F66E509060D5C0AFD611DE681D509DB8DD12FB1265B03C6F5C55FF4C30BD94187FF692B4F152982502F193098A789526A038AB529A52BC0DC4FB6285CBAC10A8B8DB75DCD9BDABBB221E27D1F8DA9F5EE5926A1C8AA9BA9BC09239C6A7F12914EA3B59EFF7A
311
AEC3FFCCE56F1C5C2980AD072793527565E774F4631DB178CEEC691B1F367BEA0CF2907E1D6B854D527065979DDEF002D8B2ACEA7CE21AE297737EDE1D45B31233B73FEA35BCFDD0B09721FDBAF6432681F2FD10C3E9EFB246FD6E854B344ACC9D8A0EEF876A7314B49B6A499FC650B099D650DBFEC7638ADFD245E2B7839D
311
A5AC5F7D5623FC0ECEEC8653FC9B2BDD1AD4D00A566FBA7186DD3C9CD26512551637498CADB950FEC71ADB9A5524285DE328B8EC7EC75D2345AEC6A27C42AF6D9B92155315C80DBFCABBB7DA0FAE425C4FB896B15C9BFAC4FE67DF5A23D30C93DA4D8F36FB15D100050DA6062E22AEC5F4DAC4F6FEEF97AE05DE63C6D38F9E
311
068A20BC5E3B6BCD75320C5090924E7F93640A7735B1A43451C2D91EE62C6238B797349E59890AF3A520DF4A87095F3ABEC2E61F0593416CE46CDCBE0E00E2523FCCD04408588B5B6C9DB6459C786CE378770B54F51DA3A5E1DF2A3349BEAAC234A6CF8993B598B3B25B4B113E353A4D750FA7534749430F3EBF2512E7EA3F
311
D43C6AB9A1F765A58463B306721A15D224FAFE8C6F5E3432D57EE697DA0DD5A9D4866A8BCCAAA9DFF1F06047851408FEC060471D0E3EB86BFAF46E4B5E60311DC3E3CEA147C75CF971BE74689507154FF2D2E92F15CDB2B9182B11459FD8ACAC5A85F174BC94A7F4EE4C4F5CAFA7C02E37BF0BC77B7DCD0C047BC316F562A0
311
1A441AFA7931CC84A28CB9F4AA367EB515778F29BFE61195FA671F4352E5E46E3A64773F1F76EE5EB36D7BCE9BCEAD837A4D77F8DB8C92AEEF6711920D7C7D0F76B0FD0EB7AB83724CD35BCA7D36DDDF5FBB7FF6F04A91F3E2BB3B8F1A43CD659639507FF6331C5F697BCC782AE57D757A27D97F1AB9E0AEDB43F92F1B2AAC
311
DF5FEC8ADBAF9F814E2027003BA2F9E144B1938A7A04050AE5D953B82C45619165C813A10E76DD6906B3C16438064D14CDA713AEC420034613E1AC7241904A49FBF87409AFB1FCB9B72FE7933A87D8FBEDACECE4EDCF6A4FE9FB94D5DEB74FAB7CFEAE17EE965DF980DCCA2D04134994F9A2E94D2265DA4FE6AA7B7AC15FAC
311
AC2B5ABBCD7DFF542C5314FDAB2E1B9D8B65220B8E2B638BE008E8DCA22678C820C5053664D15E89F2D735B51A84955E81A443545E9FF787BE0FA700A76D136C27DA179A7C6E8939E01BE756E19CB292798063D8B97F44E8A27BCF3A614FEB8BE974A718E86F7EC99B53CA35FA24F61F2B07266684623A3D4CF073E511F3A1
311
0A8FDAFAF0078C577F4DF9D339FE7862E5FA47CF4344209E5BF76D783B1B48E152AD281B15FCB934DCDA49CEC5706B1EE8B460F435324A5CAD154725E21AB8044B75A557A79F6C807B9340AA3D92503E866F4274412926C8C504E4D5EF8C0E68DD0B028781A6B4054F11CF18941F101C57CCC796773ABC8DED9CD91FE57888
311
06C05E548895354AEAC96546D55B0E94A59F148D061F42AA398D822CDECA4CDE79E13469BDCC44FDC990F366BA5978C15F97ED80CBFD73B0CD9B8B83A4F6845BDFBFAF034019473FB9A63BD55D3A4A7284757071574029A4D016DCCBE95DD679EF3C4880BF169422F8C89B68A988D2B13793CAED4F74DE7486C72DC94DF46B
311
8E93D8E02EFCB1FF9B3BA10C8AE7F653DF94F4AF466CDDCEF5776687F7C4C14B63E4EED1719DC2EC482D7DBCC7AE518CDE3D5FF86D39000EC3673C0044E1D308BF05F74D1B5F033A7D1BE7F74BC55BBE3E4A20F920946CA0271EB17BD2B80E5660ACB8A29A79F5E4BBA49D4D945B6EEF4A7EFEAA65E5555BBB57A7E15D2F83
311
C69F30BBB978D2B39F1F26FC097424D39BB33CA3D87ABF64E307938B685BAD44F71556A30B7E712CA4FE600613C3E554B69ADE949A7CFE214DF1FFF05CB82151EC6FC31950239F94CF7AD39DC473F6EA356E5EC2C4EFA04383CEFE985A127484366FBEE3C0EC4FEA363E4F6632AE781392FD45D67B63FB8DF70E82734F431F
311
D3443172A0E30A83D60982D55FA6A2CF86DBA8382502ACC6CDEF3B907982EED1160E14863FA242F9757347E1544275CCDCF71ECD5F8621CBEA326B8BA884AD7F825781923E66971F04010D574C541D8427A438A37EEF8AF88240EED7362C953F5A81DE2D56109CDE2524EA0F5D2F87308C0C47BD97AD605878AB8589E17CA8
311
3930CB5E0DCCD75853D68B1AB136594926DE426C367428E9334AFAFF90ECE221BB5DC9E5BB53D2CDEF954EAA9CD814F0E5725F1965DD458E5F8487683AD86B9D0076BE3EE91EB1CECC5331A67A3F79D8B27587C12EC2A6A70474749F27B4C0BBAFB94B34189E88DC18964BE4121B9137FD516C7755356E50D6714E31ACD222
311
621EBBCD1CFF81D87479056A9DA0E0B8EA19D24CF937DA89F78E8650CCBDC110AAB6C4E46DCBFD0446BA9E2060E81F314AC2031E88135E5476AC0160EF5C0DD2EEF1B8B5CB2D198BE9A554A9093B5F7D7E4B5407DDFCA1D9C152FD97F55BFFFDFE802954DFEC8995B983E28AC92F1971E28F531DC407A1280EB125F64A72E6
311
17EFB27DFBCEDCDA2D6F2BDADA36873EE46B9BE1782998C63DA7182BC383FB6FD15DA472B175D7E8B4FC88F38D6E07FEAA3FA3CBB8F6B449ECF14D2175E5C5CCA3A42ABF24CA6C9395AF74535F4DDB38CB84F56614B0FD32D7E19CA5CF988DB4449C40E23DF2B16772594554579094450F56F253CD25EA7F77366FB1CFE796
311
96C428BB64D5A41E986189427E5E4D7E2DAE3D5BB4972B3DC44EAABDDDD63A2264ECFA5C786EB0EE1FDC5BE34FA0F08376869FD1E61EA06CAE15191135445EE8F0394161C3266A596AA035572BB0C8876180D8B9C77D307DF9DCDF7365ABDA6F3A2366436457A4DFC1F259666569A9E4A79C817BDD5610E5200FCE894A358E
311
C72858D50EF67545DA81C6FACE3D457BAF70367E1E6BDD9A952FB4F56247F58F523B97E640246051A72F79BE42FFA0B3187F63097F91C48B868586F714B0EBD5A00A8412C1236E1298F60C72BE6C96B82B404CADAA304AE9F303176B14BA53FBC2D5E86377E35542019E24D97B96A49B2C0E5006E7795954DEAF5DA5895883
311
9043C6C70BD3B1B33B6DC5C31316D8A6923F142E26F6711A2258AF977DDF1F970ECC4F1F2B434B96D81BEB6E89BF3BBB3C7C8CC80505070723D6D7D7D3C8CA27CA164A26024FED94B12A86031867241DA53D929636DA600F050BC40CE48B8BA03D69224720DEE2ED2127390BDF5E6EA64527BBD4C4C63FA76BB801FEEC0E61
311
218EC98A8A86CD8313781617877E66692839B9468CF4DB8E50A73986E558E309C0D6F676F921BE02F1185454DC75B111572FF9D27D85EA14C05AD7271225B391C4275659CA4A43759D0BA44639BE4C30A84DB7F67A41399FB95CBF923B1B1672ABC807C1590557FB18D811983FA97F5E609516D62281D38B1281F68FC75528
311
C35E4CD7DF0F7DBB5E5DD69C414EBEA2F4A5B241B996BA77AE6C772E367408C633EA3E438B68563EA8BE7667F3A4C4FDEEA52ABD78A2820F443B7914A15F180018D231E64519C56A12F6CA7C8DAE18F06F6B769DBF92329EF6A5D18FBCE600F36BD8E8198DE5CDAA96181F3A756EBA5501CEE58F497EA4F418A2B82565B9BC
311
C611713C0B708CCA1F398B78C5F7D03B3437CC18F13061F55C7BEDADD5ACB1DB0E36D3CE47FF6EA1A563A57E9649EA5D14D1A50EAA457463381C073777EF1600607BAF6428A7DDC079D47A204EF1E1F1F0589FB054D45E02CE623B3823C317C601E589E22B1E88B448524B86A82828E32345EC18AE17214B42F8C41C6D4280
311
16D9BA31DDCB47572561E5A402E5BA4FCE55F78AF7268524AA04130F3A20BA5D1E9F9948EA48FC8F5314FDB35E21898198060034ACE5E3E2BBCA34092518F275190AF65F45867FF0900AA4B81F25427414C372BF51DC29AA855C5428EE1EEDD6B849AD60F6E73475C2D2523F8A2772C840A478DED18A8C5C91B085F255DC4F
311
54EA7AA8947354FD17ECF8FB3B4A0DE7B483CAF3A1165EE05BBA413E5C1FEF3DE1D6B8F2F3F3251C17D9FCAB48A9AAF63AC773A0E413BBC46A9ADF84A566FC920E4D8C52C9769EE3301CADEEEDD92B312E02E2A7E35B7F1E7D203FE5A7D75578B06E99D0E46FFADB8FDA17ED8880390DA29094202D6F645F76F6F96409CDA0
311
5495A96E84B04A00D1A6C6C81D7F3DE9376E828CCF144EE50E364ACCE7237EA0BFB5607ED1AC3CFE73794E5B61739D14DF1743441B1AC98F00ECEDE9E7301FA29755FBEFA68C91EF2B314CF510537EF1ABFC9A762496280B546F5EDAAF8A5B387D469FC9A878A92828C88608453ACEC6094DCA54111E7AD5B2663DFE2DD151
311
B7F123B9F4FEF8EE36AB125FD7AD52A59B1B765B3E3F73E3F73DEA93875004D2AFFE3CDE9493B87A9904DD052028949041A91DC0E1BA47BA714343FD5B25E0A6A09503AFC17C790058A836A324FE31D7893512E28230332F153181C1E018E1124EBE1BA262AA428A518237D1EA7275E48C5C561BD19ED6912EDD8367DA0F31
311
E40EEAE9683DA9257525AEA7B632B97119E17145A90231768A4F3B9120FF32E8319B015E3CBE26F1A754177D8185345817C096B0CE443A955D13AC15E1FB5DEEA0239EC32A3C92241A237B0B02FFCB4F93CF2B02570C8D192E2F2A68CEEB42F12E6F8CEEFF46C251E22B4341C56FB08CCE550E7A9D6F4D6564B9EA52A83D5B
311
F2C6E03FA19D2775E15A8A7ACF30A13C259EE7F5EF2AC3BA354F1500E1A07FC63FB4686E2F12EC69719F9ECF5FE3F35598DF2CE944008CE78F0911BA5BE5D0A34E0098FF038669C26030BA9B300303039852A8F6F496341737CA7E0D2E3AAA36DE0A70AA7D9CA0D54D9AD84B18A44C9E625475E1C97B93BEBB38DCE7D227E6
311
7A2D00F531436136355F243D1FC0D712C5765754FA22FCFFAE97919161F46D6E61ACB37D83777B385889770B50765B127768443A5C4D3A4E35A3151111F146B7CA116F918A049F1C272F2CD7976C69A0068773451659A97E0F4A08FE604C3FF6CE7385DB19F4D3ABC8A0D80DA8A42096AC377DB49382B36E270B6FA7570188
311
B4B7D1DDDDA82ACA487CCA5D38BD3BD039ADBAFA4ACFF27809239B722081E2EB9F145320553D183F28471C388BC8814E5045676767AB58A8E72D1CED2CA731379515D2E533E4CF0B39DFC625F97AC4836831A4DE330E87A8126FA17EBE583D614E71E22A8DBF2825599743E0640037303E8E1B1E8EA4E1ABFA4F62907B5E4E
311
0E5DCFDAB417C36C6848A2B8D15F1E505434C0707E16B1CFC2A1C36A42BBF55734F8F4301DDC2A5110CEE8C0747F69519265012A2174BF4E955ECD4FDE095A3ABC70536B7AD0B9D7892F81287D667C108703C9B66A221E9A0929D030008F77FF6F5D2108EF5706FC87A3069B976F7C9FC3239D13D283CDEA83597461079FEE
311
E049B0F392889898B7D87D31F8D60ED7B56B91823A8E4EDDB36C6172ECEE42BD42B12CD67994FA0F0DFAE9389356F4CD4425A4B8AA55CBF7ECD585C6A2C2316791E43D5C06841ADBB226A87FD61515FFBB0167B74E56BD7F3E90A57A97FEDCBDF483A0D6699A8C0849CAEB4947FAA90D8E332D9DEBD9F4738C37DA0CAF9CF3
311
DAA68BCB67C420459C7A64498D6E848E5CADE92BB6901F607AA331104A67F7CD650EE169B1DAE94D2C31C2F993632259B6957E246EFE4C5481107B07118607700040E5812A2A2A38DA0076875258C753F60E0F2662C748EDD5F3F3686B8FC3BD6FE631ECCAA1E8B1C1E565AD117E54893E79F4672E32F9E46B2A183DFDCF3E
311
ECB4D4D077DBEA0DA254D256045109670050129E9B9B1A9E4A11344D61497A992778095151510C4BB7EF2009B63AA4360635312E4CF668B7E0D3D85A8688E2BD83B569439892ADB63461930D428E0DE42E4AC57CE48DA5CC1449530D8BD3D6A0F08DF20C8E8F570F2CFFFCEA286E30969B4654D498A58D9DA782E19FE3F002
311
181838925592C4A1EF0B332D88B61A92C644547BED490D3A42CFFAB70E36D961F694F6307F72FF15A1C79D5B1B5CEFD353D9E2B52566DEC8F8F09CB3E8359C0F68EBBB7898243E34E12A015B2685AB303C04D3A9E00671FF3DFF0A184E4A2ABEB2B666AF5B3A209C73D8EF29DCDB069C9F391EEE9DD0F74C7BCDE16F8F02E3
311
B8816122BBEB50665775B600549D8BB33A54A6BF940C028118BC6878C79958D6784F9DEAA6E26748386FFAF8D0D0101E2847B6563F5D8DC1D78F787BE00E2C941AE12148D4A81599FE8F68D4DA5CDED75530ADE138240300EE13B0FC13A1687FED6774662C05A2B7DFB186732F0D7A93545D8B0A6390AE5054D9CB582DA846
311
D7A061B3358B45E2B52DDE63E114397EDB7E09233A579155D795BE76102CF277F4DF8B188C4F2879BEAE3C08347124BF9ED23B128259FE107D31E34A652F090B30B39E0D9AF917B76A2806135621A8A60681F16AF216514BBD02711585B5B1AE823F4B2D0369EA5B6BCB863072727FFC871CA6C9AB79A814D989057E9470A3
311
D238BC87CBB4A0EA49AFE2B86F22E499793CAA9047080450166BDC357524561E258C77CB697F1ABB32562CF87C3B7AA12F911EF19FB3E5C02222E887D08202A60A17151F5E053A86B437771088B4FEE14D652C43E8D939995D34545E12E2FF93D4E366EAD25F10CB7DED141563C3D0C447AF06078A91135FD4B9611583CB4B
311
F3BD167F2399CEAB0E0100F8FFC305F00F1711717173138B4B48C83022295DE657EFEDD97F238ECA80F528AFB4F8D67AD4E2594B9A3AA86D7487EFC313BA95745C186F0CDD84CC12DC9CB0424B42203D351FD9C0A3AF10CC7F388E0329279087386421F194F4A29464C1DEF7EF8BE515E4A199DCD5B909342598D8FE6A231F
311
71336248D5CEC5454455C7BE383B3BC7B260FED27F703FDC39A170F3827239102F59D4DEE7FEF82EAA1A5E4BA94DCC4CC44E7E2EDE20F24244E4454369D2E87C3F823F193FD4FD27E1C23984B01898D15ABC20711A8A558054951A6AE280096BA36CBA439603B7B0B4C45F248C14B2383B4B5CD8ECECE4FF859AD4A6CA2326
311
D020EF090F4041D28DB66E5256B56232CC52829DE8060BAE6BBF37D4B7469B822454FE93210A3E8D15E69FFCF01123222611C51C4FD0A041A0CFA2471CF6BE38D2B20FA4C3525B5B8B586759475CF80ADFE67A284AC24651E52B8E683D24C2622642F27E7C3C22783BCF63648BC398BD6CD0D9C97E7E7E3EACB6126DB7A6C1
311
FD9F1031302EE67ED96F22B77C7CA0239BB324207559B105E4693EB26EC46182A92C9C0DBD24F29B31C5C5AC1F84300E0E17CEEAC15F5736FA4A98971E2F1423BFCD68D4BBD5F86E74B40A369F39507C88FCDB35D2DD8DEBEA4AF999E23CF2816D204200DF6E611781B9884C1AC8888B4DE397320472959434323A5A36B22A
311
8E1F721A270DF3BD65E4A31C11FF048AFB0D8B7B6881423793963A23CFCE935FC189ED36FAE35C46DA3574C979E4394BE52084F3081837BE033396D2EBD80F1F691B273F660D2B32FA27A33B1DE4ADA5F0FA4651511102DFA410DDA86E065272CA314D5249DF91B06BB92807B28EFD54F08F7B525252782CD276DD02E6B031
311
9B13DF87B1F6361AD6B28FC0D711CF445429B9E5A433CD493051C49A9E03DDB1B147D880253514A5DED88009018620EE229101C041950E2D8AA8E1F5F5438E0C0C0C60EEDEE9E3E0C051948C69F84BB7B2A48A1F3C8EB9E6864687F4F4F6F6E2FA87608ADAF9C5E117B7C1A737E710769DA1D15ECE6A84502AA855398712D5
311
FB51BE92E4EF824969CE18278798AC303C2C7980DD2500ADF8FB1E6D6C2FAAFF9987178923334A244758BAA01A9A1B70FA5097D01E1CC2A58DAD0EC94CE6430AA9B0C10D75E3C6BAC670EFBADEE1607739CE0FC18A2587E3EC3058562014C64219C69BC269082D5C2F4A659278D585755912176D78A1B641719C2A394CED49
311
5A1AC5D583FD2F5EDD93308EA7EAE8A6DD396598BDBD3D4CFED62D18A5BDFDE0DD5C80D1A89BA62697B131AE7CE9A6594138582F1B37D68F1749AC7CB67A70695D48A4A056AC1FBD4E82358CEAE38F54B95A9016F9000F9879C0D9D131768635CA798895F27D6F1614F11F2838A83611AA51C9A3DDB539D42979C29F104656
311
55C17BEC3E2760B80DCBF609198C7B171A531905F3EC218D696025975E986C6B4C666666787271F202805577DD5A3EF0CAFAF91B62DC4B2DB4217A7606282F31D8DDBC290593BAA93EA6353AFA9939B877978481E15CFC9F2755CDC00C538F63A4BA3E80AE009B73CA0185687D339A507D165B74290D6EE46D5C58148F020C
311
3668ABE9EF2F7549170DC80DB41FFC1D678FF19AEB10C7133832B104B80F691B3138F97A92D26E551F1F110400D45AC71A9B9AC41A1A1B1DAEED0B0810638EFFB511D46B121C6FEA0F38CD00E03CFFEB9713FE1F9C263E4DDEC160D0497FA9A132BA608584057FB15380825DE6C7FC3C667EE947D488A09898D8E939C4953B
311
F4EC9836344D2CC6B2971B2A21A572B06096F4982D2CC7232D46E8EA69DC83722E267754D777F97F96D5DA74E1E75178084D0E70F12AD33E5F71EF2AFA599B2BEBF60A5BE475F444F240CBFE8143C334E7ED9150FEEFEF7EB020C4DBED388DD1D6A167A76F3CBF119B578AE8CFA7736ACAFA4440A1C47185638A0D2F3EB5BD
311
DEFDA958FB13CE4AA4923D5BF840392D45544329525749734866684BF7F8D9D54D892E19BCA9F829A0F8BFCBEEA6CFDFC61D74EA1A645ED7A1FF241739F15694BD835B66FEC5677E40FE69BD3F91AE402F036537218A401CB0828604AD189E575015C6F3F6BBC8AC79CF6C70653847254B31551EFCBEB5978B9DB85D58D0FA
311
41A9DFE9C624834AA04949D24B5AE6D299E072D152D12097920F14AA92C31C3B97E28B6C2E6E9C23D63043ECBBC0A60FDF5BD0C33C127EA8A3308B8B6AFFEB28B4455BF6E7AF4FC6222728357EB8E46E85053E6A8843AB23295BF838ABDA94658FEF3F832F147046B4ACD6F7D48E8FCC9618582961C898D1C7A253C91BFECB
311
DA6BA18A1FCF70755DCCEE2222F41B76D23CA98D0CB3D95F0CF66D57FFF65E2A90F5DF40FC3187621E981BD0BC1D992787212688976B94A8F0C6EF646624B570B78E068826F87CE27041A95C9A4871FF65CC17FCB1639629AD6A9517000D63AC231F3D741CB8430777E7ECF80CE7A3F73C0F162F7E56AA71F4DA80A33CD6AC
311
EE78E2C11FAC03DAFCE929B106F8F6B3ED2DC71FF994BD9CEF4E9A94896EF1B6E2B7B4978168BCF0847A3D2A4F1B0500B926E634B174548E9FBAD27153FB5FC36799B1E6C7C38A94E1F9E996796D7B485E635D5287A2AE76FBD11A341DB3F8F810385BB7296391973DC6C37C452A9305AEBBE0CDB6C566DB59FE60C8E94B1F
311
D090354BF51439FFD1B48D725228FFA88C84F686F547107A7A235665A4593B7C34D748C1AC8D56DD5DA861EEFBADDECBBD65117E65851F90351AEB65F0EFCFF4BCFEF24CB7A5879699FAC437A7AF9099186CF006BB923A59E37D7A36A29FD8D2CBB914A5E9D0A8FD212FBF796AE9A67958FF1D5D8B85F78F96219D4714EB91
311
9929241B6C018AAE0C02069F8D919961EC5DDFBFB7573E3AC8E08BFB7C8534BE6DE045B3CD63DBD71F7638BA2309CAE398EA3A7D8F98BBBC7AEB367EFA5CFA27A9F8F2F52FE878058E6209C026453F8E7E8A237DFC389E9590F6059B397CFD65183BBF936E86896612A5B5FEE49DAC8455D026218AFEBEC12B3523A45B57B8
311
2C9C97E02ACFA1184DB18E48CF615DBF39C3CC6F0B4AE6BBEEA2E39D944E290302FA3DE33FA7E40296E2EF7BF1CD855BBECFAD0FD622BEE9746FC4FDFDE545AE6E3BC234CADF83A0FB76DFB145BF3828AE3436368AC24989454F8FF70A177672C711CAA1A76107218CF948CA01F873520E7A2B118EBB161ABAD43293202962
311
8B6761590C98AB590C8C8C79798CE9F715BA696E839E9131A4BB68BE923F1747FBFF165331FFDD4D05997ACD168F12CA75348DAC04C7F509FE83898A8B421181AF492861CE81E4A2DD0A30850CFA95E05F097FF70F9E777310D584A75BA7018922E271DAB1D785671157685B7D383D3E074DDB4F1E44EF04B07BAAC75A0620
311
77C54B9752C738C9D804D402E02851F3F89605AF189738C18C021D2139EAF72513824E10DDD3047BACC8521ED7E98B257D1166903B1B08FA6F918FD7E162913FEC7D0EF4787E29C35FBA8C6E2C9C20E9AB30AE42CA2A01A090E7D010C1B5BF9CEE2A304BF3A987FB40D836979B79E18D70F257DA61E808472DD85B82761825
311
779D6B90CAEB0F23360C6F80A7D7D77545E95B3DFF0CF96A827F9B5BCECD2C9698718417EF80FEEDEE938AFF55859D0D540B7FE09435583A6F04874A0C7E8CF234DF4879722000167F5872CEC6BF3EF7E5A8CC8121E6A359227C8A29C95212F9F735BC72A887D56B8F309FC525BFB4FD767AAEC4AEFF249CFBBD2DE1AB9969
311
A6155C7D8DABC307E47324C1F916C7BCFF40ABA5644E9FFB9238D19ADADA49D9610F01ABBA57E4DFCBDCCBB2B93C8953206C91DE01B0E2651A6D6C31721915B31F7B7CBCE55466F6D70402788FA91D73BE4ADCBA99A35F17D6B83383704917D6833F0FA3CD45C926ADB8BC17999A4A0AFBCE2541F7B8CF4C2F5FBA611B3E62
311
6D64407CB32C122DFF4EF8674D6EDBB86C8F7C6A16D50FA685E2CCA34F8F7D1D8265BB0042E9D7F1F666F7BE5FAA5184DF58E12122A42EF02F461B3F369AC746F96528AD208512AB56844CF75B97F352DF7995024FB02855385854F3798670D01CAC771AC3E1889EC25F61A20C1F8CAB46898817F9C47E2CDA1F286BF2F358
311
298709FE567C91133E2638C8B53975E753EA8BFD3578B5F7186B7BF084EBA3F77BAC3132A5779902EC22AF2D2E79F42D324E083386DAEE9810D1B44A5DAA54513C7A71E52A4AB9257D975B621308FE4D2141CC3DCFE946C154A3C1DFCCA7629EC69ACFA831634ADDA93C0388D2A9A2DDAFCF957C6995BCE7FBB6DC4EBAE79E
311
63EB08E9A25F52F67076F7093CA545CA3053B5BF576DEAD4E0017143C5F759F32B2D6F145B52B67B48909B7C7FCA6586EE385A2189C16932CB6DDFD9152AE317C430492A578ED27B72D85D40C7C93C097939E1B50F4D67F05334FE9DC362C30B7FF561B95259138ECFD9274C8D695C31B14D4EAA9F3D7FA8DDF652F8C5DEFA
311
23284C799B7D94416DEE81E05A866302DC70192A5368EA65E1CED8BF107A1E2D3119A71E85DC1A7B0C1E93274CE04DD0F2ABC8AC7C987FDB002B6F81757B43502EF7A0D92E416494FAEEA4C9C090CD9557AA4D532F4996A272B94355C5A0E4974EEA9627476F30809B94D8D8D860062E02204643BEC7D0438AF800FC7E2B26
311
955D595421E83C69E1A07E0E3122285835F014AD538188CF9737CE76D464A353FA55A001AB2526B84E985083693BC76FE211CA1D000679C889E3C009832C87E1AC2EDD05C302557422DF0800E316FCAC86978A371F025A6C7DAA9F333E7BD160403A1A06EA75AA9888FF01504B0304140006080800B45C8B5728BB58AF8001
311
00009E0500003D00000030303631324546382D354634432D343545442D393238432D4445383935464646423739422F536368656D61732F436F6D6D6F6E536368656D612E786D6CBD544D4FC23018BEFB2B96DE15493C78601010A34B880709DEDFB52FD0D8B54BD70DF6EFED3AC0B12E6442E2716BFB3CEFF3D18E26FB4404
311
05EA8C2B1992E1C323095052C5B8DC842437EBFB673219DF8DA659866649B798C078B48AE6410122242F2A4994AC7F93815DF85C049C8564CA0A901499DD886B2EB9B1E02448F358701A9235880C49A0119892A20C89D1B9FD768815CAD268CB5E0355B40B1E47F3E37A2020464BED06AA57CE8FCC20C3C3446D46761A2632
311
A8C1283D07031EFF2AE7CCB1BFEEE916E406DFAC8E36FFD99A9D60A6944090EEDC3B670C7DC13DE86B6B2C5C240D6E503BB85ACD579D513F1B9F9A69DC9CC22AFA80C426D40AF0B21EA168559156B6276F0F726A6BFF04DCD513A87A62CAD41FB24FCB2858B3952E3D852084DA25B9303C15687973CC8E8AAE11DF2836C38C
311
6A9E765E8C1BA1BFB1DC29CDFE518C8B5A7655A4ED7E77291ABEB80DBD82EC866ADE1B8D05AF9E35CF09D7A061F38A986D9EC412B8F0F65E5D81534D9B231D1E5A8FE577A241F3A5FD01504B0304140006080800B45C8B57E336299B9F040000341300003E00000030303631324546382D354634432D343545442D39323843
311
2D4445383935464646423739422F536368656D61732F47656E65726963536368656D612E786D6CD5585B6FE238147EDF5F61E5BD1498E9A895A02398AA5D1E2A5665BAAF96710C78D6B9C87168D95FBFE7F81242134A968E469A4855437C72AEDFB965F4F53551642B7421B3741C0D7AFD88889467B14CD7E3A834AB8BEBE8
311
EBED1FA3495108B3E01B91B0DBD1F3EC8E6C991A470F22155A72F73CBABC1D4D5921DCD1934863A11F990102A6F61466977B8AC49FB13C174CB3940BE4504A22E3713489B7F82406516225536940BD88E4E552493E8E564C1522225AB0384BD56E1C195DC26FAB13882C2EBD62E1FF9E5B0FCC453132C99548446A1872B622
311
67078F1EF14C3DB1DD1952DDBBB384AD456779F387C51992E0ADCE12FED2622BC5CB1952FC9BDF3295E9206E961AB116DA7ACE45F76F07A26EFC3FD762FD7362FC3C0BAA4DB34C09E682CA5167BADCD16CF94370E331E2F1A3D852008AAD5D64BA2373478338AEB1583B905396D158182655E1B938D07926CF007CC7E85E67
311
09999B0D3827C0BF406BEF55C68CF5579DA32C8C85BE03EFE788787E8FEC95DC85C3E31A615658D81F9A34499612004CE69CAB12531B15A887ACA642C110F8C1A8C1974A85853F407794695C905C688E69B116550ACA946B9B4785FC179E0E229240B62665328E86D5BD2C800CF5D80289F35AC25E3DD51508F4BF9A74A0F5
311
A557BB3D284BC6FF59312E282F956A75C5D453906F48D11A876599E49425602400842995BDF02C4D012E226658F78A710416AC552831FDDEF0E6F0BABEBEA9DC36718CCEF4DAC5A0DF871AECBDD8F448F015F8DA113A473609D1751672B723874B2CAB21ECD6E284E51DCC7D1A47A00F60EC21DC4CC3CDC406DC03760A4E6C
311
772F2F4D561A9AE58C4B03F5B4838701472139EDCB36819A66C472B52AB1139C648956F43E0DAEC067B56B0818F5961D3D446B8F1E1E78C0EAD7EE02AF2895D813E88AC5014A7B436DBB20F778D40A1D9737EFE45B47D49CC8360F9966B15AABAC802C1005548A93EE469F5D55317CD8BF0AA86CABADB2A009D4D6F60CFE53
311
AE370AFE8C45415B15D362A5A038E766E34B00F8C2E3E7098E2093B1C96349FDAEA158903B4BDAEA665F473FECE72186E3BDDCACCADA31839CD6D4FA7D47DF5469006ED340EBE71DF960DDEE88A3E17557039B58C278A1795BA8079419DA8FC5BA1BAA1A66238BF69C7B2BE4E6274839122B7D00BE8B7D52CF61B2D6321604
311
6008C8B330FC10F8907787DEF061F47965BBA02FD8F53BA12F9827614979F53563D0BB1AD67A03DC0E00E2FB2CF3EFB457E70E65A3D7C78E7D700DBB45132AE9BBA5E468CD861408961AD8B00A55C2FCC677F4456039FD9F1907A5B3E2D0EE845FDBA2DAFA88C64195671AD6D282DA2E45B1F50A0D632B0D0B6718757DCC7C
311
84A70A3656F222CDA6DBF07E204AB358961D1BE31E53A82C2C0D56DBF61A5608B5A252A932A1DC6E32462430853353EA30417C8199A662E946A4EF352268B8CDB9A9C6762515ACE8E09BBC031C608A02C4BA89C9DDC074E46E0E26A17BCBD4ED43270D03E3645ADB81F6D62CC07A3243EB81C07E01681DDF2DB4730631E6DD
311
A6CBBD048BE9F06AEB3CF06B31DD6C9575E37E9FF17161342C4C76D95519672A6509E0F5C4E71B4B1916440059F57D0921F496237E473A83E3E4E06353BD9D27593594D7B6707C08D22FEBDFBFFE03504B0304140006080800B45C8B578DFFFC99640100009B0300004500000030303631324546382D354634432D34354544
311
2D393238432D4445383935464646423739422F536368656D61732F52656E6465724D6174657269616C536368656D612E786D6CA5535D6BC230147DDFAF08799F5FDB600FADA20EA430D968A7AF12D36B1B481349529DFF7EF9A85A718860DFDA73EFB987734EA3D16FC5D10E946652C4B8DFE9610482CA9C8922C6B5D93CBF
311
E3D1F0291A6B0D26A3255464182D920FB4233CC629881CD49C18508CF000E3EE309A100D61622AAB4A8A33B2483F11CB639C545B0E1508438C3D3C0361192846DB7ACD198DF186700D182920B914FC1063A36AFBEE8FBA03FFD3CC1D1F4FC9E151A2AF59F628C5B7821D83FDFD3489305080F2EE04BF962195FB285E9D2DD3
311
52320A9E827AE357594914E42B1F5FE35F83688F60C4C91A6C946ED0668E8F244BC2EB0BA6E3BCCFC0B6A4B507F9F9F8D51EB315D9BA9E08D308E89F96931666E577837E2B4172199C68C4FE306156D47DF51C698C7B9D97FE5BEFE2190C3C38BB054E6E8163FB039CB4B993C80BF18D969203116D6BBD26238B821F9BB909
311
AD6D9C71B85BCD8C33D66FEA3D31B4BC0AD45BEA46BBEDDFEC0F504B0304140006080800B45C8B57AA792D1951000000570000004700000030303631324546382D354634432D343545442D393238432D4445383935464646423739422F4173736574446174612F41737365745461626C654F66436F6E74656E74732E62696E
311
536160603034343332307432D435347575D435B1B474D37534B7B4D43535B13430313331313537741602AACB4D2C492DCA4CCC492C28484D2C4ACC4B4E050A82012F90744FCD03CA26072767A4E6260200504B0304140006080800B45C8B57C55C663656000000680000004500000030303631324546382D354634432D3435
311
45442D393238432D4445383935464646423739422F4173736574446174612F53747265616D56657273696F6E5461626C652E696E665D8CBD0A80300C06F73E4B29FE6CDD8A2E82A083B8B7F209014925C9FBA3AEAEC7DD2555D896CB85E51C2A1BD834F6A1F56EC4494C4695278364ABB24ABD2146F88CCEBB89D5321FF8F3
311
F43D672A3B44DF3CB6A1710F504B0304140006080800B45C8B579D04F09737010000A20400003600000030303631324546382D354634432D343545442D393238432D4445383935464646423739422F4173736574446174612F636E782E786D6CCD94314FC3301085FF4A648931719C22812AC71582A51348540C6C57E7D25A
311
75ECC8BE20F8F7D86D0650115387AEA7EFEE9E9FFC4EAE3E075B7C6088C6BB9689AA66053AED3BE3762D9BA82FEF59B15232784F3F30563818B065B9CC94DC053F8D73A9C31E269BABD6B8C35C7C881169035B8BCFFDA377848E222BB485185B16F51E07A86022DF613C541D1054A20A18FD1434A64964069C27E98040D831
311
D5D4CDA2144D29C44688E5E26E792BDE25CFA4925BEFEDCC9BB42CF8F1A6A9F5692F53B5E41950720A66A6F26B98FA4B65B5354EF2442A19292457E60EFA1A53078CA3351A2899C7BD26A432410883E42758499E5DF8E5C513F6C699DCB24ED2807C7849023190C12BF4E43FB597F766ED2281D378CD8E9C6BBCBC0FAFC75F
311
F4768AE53137D79796738D9571FD05B2C28FE72445275F17F50D504B0304140006080800B45C8B57C8ECE3D3E6000000600100006700000030303631324546382D354634432D343545442D393238432D4445383935464646423739422F5265736F75726365732F31313632303142312D313545412D343939462D413739392D
311
3534393034363434353731432F7468756D626E61696C2F302F636E782E786D6C4D90C16EC4200C447F2542EA3121642BB55A11F627F6D44BE5126F8A966004A66AFFBED072D8D358E327CB33FAF27DF8E10B53761456A1A6590C182C6D2EECAB287C1B5FC570313A11F10326860007AEA2D9C2E83D5189DDDAF006C537D7BB
311
70EFE68E0193B3EF31EC62B01E725E45B69F78C0048569C37C9F366098D49430534916EB017607F6033621306EC22CF3721AD5322A7555EA7C7A393FAB372D1B69F40791EFBC0B8C89E2D3325BAA63A8FFCC5A36C0E8925CA75A08611E9ED3B22E8DCE9C6AFE0EF14FAC10C4E89D05AE3549B28C3C5608E1D0F21F365AB6BC
311
55FECAA8DABA31BF504B0304140006080800B45C8B57A233C2345D000000800000006500000030303631324546382D354634432D343545442D393238432D4445383935464646423739422F5265736F75726365732F31313632303142312D313545412D343939462D413739392D3534393034363434353731432F7468756D62
311
6E61696C2F636E782E786D6C4D8B490E80201004BF42E6EE76F3C0F216234B883063108CCF170C074F95AE5473F5C4C06E932E4F28601967600677D21E9D8092EDB002539227A2FCCB80E1168D80A6417297A89C5D6963B7129A0D1E8F2EE73AA7B62BBEB8B27DE50B504B0304140006080800B45C8B57BE89762363000000
311
880000005B00000030303631324546382D354634432D343545442D393238432D4445383935464646423739422F5265736F75726365732F31313632303142312D313545412D343939462D413739392D3534393034363434353731432F636E782E786D6C4DCC3B0E80201004D0AB90EDFD75167CCE820A4A845D83603CBE602C
311
AC26799919AEEEE0D965E2E908050C6D0FCCE04C8BC355404EB6198129C92351FAD580A10E464065907C8D948F8F166375F655BDC3FDC3B4E530A176BE7057BDC43B2A593FE403504B0304140006080800B45C8B57ACD356047E000000A30000003600000030303631324546382D354634432D343545442D393238432D4445
311
383935464646423739422F5265736F75726365732F636E782E786D6C4D8CD10AC22018465F45FE7BCB7FE896A08E15F51EA3B921390D9BD1E3A7B18BAE3E387CE7A8FEB37AF2B6E9E562D0800706C4867B9C5C5834E46DA62720BD5129C6EDEF06248CABD5503118B5A4989F3B9AEC3C665FA977E1B143C4B66178468AE23A
311
502EE58D0E9D945470C978CBB9E8F0528C6355CAFC7A656BDE7C01504B0304140006080800B45C8B57CA69A21D0B010000550300003400000030303631324546382D354634432D343545442D393238432D4445383935464646423739422F536368656D61732F636E782E786D6CCD93BD4E042114855F65426239C3306BA2D9
311
306C616165A35676087777C90277C28FD1B717468ADDC44E8BEDE0E4CBCD39072EDF7D3ADB7D408806FD4CD830920EBC426DFC612639EDFB7BD2ED040F88E90C239D970E66526522F821605E9AA4612FB3ADAA35FED4C407740EFD8B3A8293A45356C63893B85E0799136A88A741CB2407360488988382322119076D820A20
311
136822A671DAF46CEA197B656CBBB9DBDEB2374E2B29F83BA26DBCF109022E37D3A8B01C7D3134725A01C173308DAA2988387737943E382D84E03185D24223D3D75248B92CD628994A5974057F18C1690D7B11F9113C04A3AE35F385BD7F0BFD0C5E43782A2F158CB4D79AFD37977FAB80AE1B50BE415D08F10D504B030414
311
0006080800B45C8B57E3603EBE7A000000C20000002C00000030303631324546382D354634432D343545442D393238432D4445383935464646423739422F636E782E786D6C6DCD410EC2201085E1AB90D9DBEACE05D09878023D01A1D34A8419C380F1F82DA68B9AB8FDFEC93C3D7C52546FCC12980C9CBA232824CF63A0D9
311
402DD3E10C6AB03A3397DD192872090D3406ABE7CCF5B5D18893ABB1690CF4DCF02282E5EA8A5BB96FFE536F285CB347F95BEFFE81C9ED5AFF9D5B1FB575BB00504B0304140006080800B45C8B57898141047E000000A300000007000000636E782E786D6C4D8CD10A832018465F45FE7B378BDC14D4A0D2F78865212B0D97
311
638F3F1D5DECEA83C3778E683FDB8ADE36BE5CF012AA0B0164FD234CCE2F12D2316306A855228670FCDD00F971B3120A06259618D27EA2C9CE635A0B5D9D7F9E90905B556BC330354D8F1BAA07CC6BD6E341334E8D31DD9D77D9B81625CFAF97B7E4D517504B0304140006080800B45C8B57CA1DF9C9A90000007301000013
311
0000005B436F6E74656E745F54797065735D2E786D6CA590410EC2300C04BF12E5DEBA70400835E500FC800F84E0B411AD13252E2ABF27A55740421CEDDDD9B55CEFA7A117778CC979527255565220197F75D42A39B22DB652EC9BFAFC089844F65252B2630E3B80643A1C742A7D40CA8AF571D09CC7D842D0E6A65B847555
311
6DC07862242E78CE904D7D44ABC79EC569CAEBA537E3521C16DF5CA5A40EA17746733E0B6615DE7217475F386F18B9481C510F1F021CD9FF027EA0E1F5C4E609504B0304140006080800B45C8B573DEE336E64000000790000001B0000006175746F6465736B2D64657369676E2D7061636B6167652E786D6C35CBC10E8320
311
0C00D05F21DCA56CA76D41FC96062B120735B69A7DBE268BB7777961F8D5AF396893C2ADB70FE7ADA196782C2DF776D7A97B5933C430F15651E5469C55D70F80A4992A3ADC954792C525AE70A1E4D6AD9816CC044FEFDF01FE3FDE907802504B0304140006080800B45C8B57C287E9BFF80000009601000037000000303036
311
31324546382D354634432D343545442D393238432D4445383935464646423739422F4173736574446174612F636F72652E786D6C8550CB6E833010FC15B47703C654A1917184A07C414FBD59B643AC041BF951F5F36B072AB5A79E76353B33BB3BF4F2B53E8A4FE5BCB6A6075CD6502823ACD466E921862BEAA0B830EAAC0D
311
BF685018BEAA1E320C8C2ECEC6ED80843541998C1A2BD50172EF5580423C52D3831737B5F292C79018FE5E6E5CDCF9A24A5CEE3C4663D4F2906A99DCF4552B076C24F36968E71A918E9C505B4F231AA6970175188FAFDDDC90B7B6A55516331AF4FAB35D38C58392C09ABA21083708E3778CCFE4746EF107AD3293511F5CFA
311
F9589ABF0336E4AB271E38ADF6E91FD7B8C9FF5DA336813487EBAEF0C0703AF23960B4CA29A5F28C30D59C28FB06504B0304140006080800B45C8B579B42921CF30000008E0100006800000030303631324546382D354634432D343545442D393238432D4445383935464646423739422F5265736F75726365732F31313632
311
303142312D313545412D343939462D413739392D3534393034363434353731432F7468756D626E61696C2F302F636F72652E786D6C8550CB6E833010FC15B47703C654D0C83842A47C414FBD59B643AC041BF951F5F36B072AB5A79E76353B33BB3BF4FCB53E8A4FE5BCB666005CD6502823ACD4661920862BEAA13833EAAC
311
0DBF685018BEAA01320C8C2ECEC6ED80843541998C1A2BD50172EF5580423C5233801737B5F292C79018FE5E6E5CDCF9A24A5CEE3C4663D4F2906A99DCF4552B076C227337B6738D484F3AD4D697098D979711F5184FAFFDDC90B7B6A55516331AF4FAB35D38C58392C09ABA21083708E3778C4FA43BB5F8835699C9A80F2E
311
FD7C2CCDDF01AB69B5A37FDCE226FF778BDA04D21C6EBBC203C3E9B8E780D12AA793CA33BA547392EC1B504B0304140006080800B45C8B57A249D8BDF9000000960100006600000030303631324546382D354634432D343545442D393238432D4445383935464646423739422F5265736F75726365732F3131363230314231
311
2D313545412D343939462D413739392D3534393034363434353731432F7468756D626E61696C2F636F72652E786D6C8550CB6E833010FC15B47703C654D0C83842A47C414FBDB9C62156C0467E44FDFCDA814AEDA9A75DCDCECCEE0E3D7FAD4BF690D629A33BC0790999D4C24C4ACF1D047F452D646746AD31FE170D32CD57
311
D9418281D1D99AB01D9030DA4B9D506D267980DC39E921134B6C3A70E226579EF3E023C3DDF38D8B3B9F658EF39DC768086A3AA46A8A6EEAAAA4053690B1E9EBB144A4250DAACBCB80FACB4B8F5A8C87D776ACC85B5DD3228919F56AFDD92EACE45E4EC0AAB222085708E3778C4FA439D5F8831689C9A8F336FE7C2C4DDF01
311
F3B7B07E6AAE165AECD33FAE619BFE770D4A7B521DAEBBC201C3F1C8E780D122A514CB33C25853A2EC1B504B0304140006080800B45C8B571C043CD40C010000B10100005C00000030303631324546382D354634432D343545442D393238432D4445383935464646423739422F5265736F75726365732F3131363230314231
311
2D313545412D343939462D413739392D3534393034363434353731432F636F72652E786D6C8590516F83201485FF8AE11DF50A566D90C6D9FA0BF6B437A2D492563002CB7EFEA075C9F6B4A74B0EE7F0710F3B7D2D8FE4536E5619DD22487394483D9A49E9B945DE5D718D9213679B31EE970D255A2CB24551469CCD9BF1EB
311
2E8D463BA9A3AACD247751582B1D4AC64738B4C88E37B9885478171CF69EAE62BC8B59A690BE7C9C79AFA63DAAA6F09ABA2AB921DE93A1EAE8906352930AD3FCDCE3EE5C76B806E89B7A28C8855296C530674E2D3FF47193C2C909F1222F08860203BC031C4975A4F0C1B2E8E4CCBA2DECBC43E37688031C8A1CDE004379E9
311
306D9A017755D3E09236393D505A56D0B3EC15FC03F4EBF43FD02BED48B1035F091B98E1FFCF0BCEB2586018CF76C38C65F36F504B0304140006080800B45C8B5756DB8EE2FA000000960100003700000030303631324546382D354634432D343545442D393238432D4445383935464646423739422F5265736F7572636573
311
2F636F72652E786D6C8550CB6EC32010FC156BEFD8C6B8B21B61A228693EA0EAA937041B1725868847D5CF2FC4AED49E7ADAD5ECCCECEEF0FDD772AB3ED107E3EC04B46EA142AB9C36769E20C50B19A1DA0BEE9D8BBF685059B9E0040506C167EFD27D8394B3116D41ADD3B88132048C50A95B6E2608EA031759CB1433235C
311
EBBB545739634DEB9527784A466F52A3B39BB918F4208EEC3C1CFA734BD8C806D2B7A723399C9E0E64A4F4F83C9E3BF6D2F7BC2962C1A3597EB62B8F32A206D1B51D23B42394BE51BA63C3AEA7EFBC294CC143F4F9E76D69F90EC42B0697BCC2C09B75FAC735DDF5FFAEC9D8C8BACD75550410341FF91808DE949472794498
311
6B49547C03504B0304140006080800B45C8B570B45B476F7000000940100003500000030303631324546382D354634432D343545442D393238432D4445383935464646423739422F536368656D61732F636F72652E786D6C8550CB6E833010FC15B47703C654D0C83842A4FC407BEACDB21D6A25D8C88FAA9F5F9B50A93DF5
311
B4ABD999D9DDA1E7AFF55E7C2AE7B53503E0B286421961A536CB00315C510FC59951676DF84583C2F0550D9061607471366E0724AC09CA64D458A90E907BAF0214E29E9A01BCF8502B2F790C89E16FE5C6C58D2FAAC4E583C7688C5A1E522D939BBE6AE5804D64EEC676AE11E94987DAFA32A1F1F234A21EE3E9B99F1BF2D2
311
B6B4CA6246835E7FB60BA778501258533704E10661FC86F18974A716BFD32A3319F5C1A59F8FA5F93B60AFFB9D9E568FD91FCFB8C9FF3DA336813487E743E181E174E23E60B4CA19A5B207986ACE937D03504B0304140006080800B45C8B57CD64DDE803010000D80100002D00000030303631324546382D354634432D3435
311
45442D393238432D4445383935464646423739422F636F72652E786D6C95914D6EC3201085AF82668F6DFCD33811265212FB045D7547CDC44189C1025CF5F8C5B5ABB6BB76057A7C6F8637C38FEFE383BCA1F3DA9A0658920141D35BA5CDD0C01CAEB4067214DC591B7E60408C1CB1814506C10767E769937A6B029A453556
311
E1264AEF3100E91FF1D280EF6F38CA44CE2112FE9E4CB2BFCB011396AC9CE0418F5FD6DEA10CA840E4595E509653C69E193B14BB43C95E78BA9082CFDA8422DF9AE1F88A8AD829C44820AA82A7EB73C466AD3648ABF8497DD5E84064D913CBDBAEA655579E6959B517BACFEB33BDB4F5BEEABAEEB4DB9F62916816DC071747
311
B3155986F057FB6AFC156D9ED43FA3AD0E0F827D874A97390B9E7E2E219ECB4EC407504B0304140006080800B45C8B57EE6CA87606010000B201000008000000636F72652E786D6C8D50C16E842014FC15F2EEA8888D76836C8C5BBFA0A7DEA8B096AC8211D8B47F5F586DD2DE7A7A6466DE9B61D8F97399D15D6D4E5BD302
311
C90A40CA8C566A33B510FC153780CE9C6DD6FA5F3240462CAA85040367D366C37A40A3355E99841A2BD5010AE7940734CEF1D1821B3FD42232117C54B85BB68AF1262695916CD771E6F5F2B33A6E4A78258197454931293121AF849C687DAAC81BCB9392B310B43CACB48CEEFAAAD506BCA743DD55438169436B5C15971E77
311
97A70E3784F4CFCD50D297AA62795AE6CCF92DFEF93812737AE4C43DF9B27CA7387BB7763E04319444D6CC5FC00B9627E24FE8B0CA7F84D6C6D3F238B86F38E024067A10D1383518C7A3DE3853DBFC1B504B01021400140006080800B45C8B574B85AE1834010000A80100004F000000000000000000000000000000000030
311
303631324546382D354634432D343545442D393238432D4445383935464646423739422F4173736574446174612F446566696E6974696F6E4974657261746F7250726F706572746965732E62696E504B01021400140006080800B45C8B5716CF1E180A010000300200004500000000000000000000000000A1010000303036
311
31324546382D354634432D343545442D393238432D4445383935464646423739422F4173736574446174612F496E7374616E636550726F706572746965732E62696E504B01021400140006080800B45C8B5788E57597CD3F0000904100006B000000000000000000000000000E03000030303631324546382D354634432D34
311
3545442D393238432D4445383935464646423739422F5265736F75726365732F31313632303142312D313545412D343939462D413739392D3534393034363434353731432F7468756D626E61696C2F302F67656E657269635F706E67504B01021400140006080800B45C8B5728BB58AF800100009E0500003D000000000000
311
000000000000006443000030303631324546382D354634432D343545442D393238432D4445383935464646423739422F536368656D61732F436F6D6D6F6E536368656D612E786D6C504B01021400140006080800B45C8B57E336299B9F040000341300003E000000000000000000000000003F45000030303631324546382D
311
354634432D343545442D393238432D4445383935464646423739422F536368656D61732F47656E65726963536368656D612E786D6C504B01021400140006080800B45C8B578DFFFC99640100009B03000045000000000000000000000000003A4A000030303631324546382D354634432D343545442D393238432D44453839
311
35464646423739422F536368656D61732F52656E6465724D6174657269616C536368656D612E786D6C504B01021400140006080800B45C8B57AA792D1951000000570000004700000000000000000000000000014C000030303631324546382D354634432D343545442D393238432D4445383935464646423739422F417373
311
6574446174612F41737365745461626C654F66436F6E74656E74732E62696E504B01021400140006080800B45C8B57C55C663656000000680000004500000000000000000000000000B74C000030303631324546382D354634432D343545442D393238432D4445383935464646423739422F4173736574446174612F537472
311
65616D56657273696F6E5461626C652E696E66504B01021400140006080800B45C8B579D04F09737010000A20400003600000000000000000000000000704D000030303631324546382D354634432D343545442D393238432D4445383935464646423739422F4173736574446174612F636E782E786D6C504B010214001400
311
06080800B45C8B57C8ECE3D3E6000000600100006700000000000000000000000000FB4E000030303631324546382D354634432D343545442D393238432D4445383935464646423739422F5265736F75726365732F31313632303142312D313545412D343939462D413739392D3534393034363434353731432F7468756D62
311
6E61696C2F302F636E782E786D6C504B01021400140006080800B45C8B57A233C2345D0000008000000065000000000000000000000000006650000030303631324546382D354634432D343545442D393238432D4445383935464646423739422F5265736F75726365732F31313632303142312D313545412D343939462D41
311
3739392D3534393034363434353731432F7468756D626E61696C2F636E782E786D6C504B01021400140006080800B45C8B57BE89762363000000880000005B000000000000000000000000004651000030303631324546382D354634432D343545442D393238432D4445383935464646423739422F5265736F75726365732F
311
31313632303142312D313545412D343939462D413739392D3534393034363434353731432F636E782E786D6C504B01021400140006080800B45C8B57ACD356047E000000A300000036000000000000000000000000002252000030303631324546382D354634432D343545442D393238432D4445383935464646423739422F
311
5265736F75726365732F636E782E786D6C504B01021400140006080800B45C8B57CA69A21D0B010000550300003400000000000000000000000000F452000030303631324546382D354634432D343545442D393238432D4445383935464646423739422F536368656D61732F636E782E786D6C504B01021400140006080800
311
B45C8B57E3603EBE7A000000C20000002C000000000000000000000000005154000030303631324546382D354634432D343545442D393238432D4445383935464646423739422F636E782E786D6C504B01021400140006080800B45C8B57898141047E000000A3000000070000000000000000000000000015550000636E78
311
2E786D6C504B01021400140006080800B45C8B57CA1DF9C9A9000000730100001300000000000000000000000000B85500005B436F6E74656E745F54797065735D2E786D6C504B01021400140006080800B45C8B573DEE336E64000000790000001B00000000000000000000000000925600006175746F6465736B2D646573
311
69676E2D7061636B6167652E786D6C504B01021400140006080800B45C8B57C287E9BFF80000009601000037000000000000000000000000002F57000030303631324546382D354634432D343545442D393238432D4445383935464646423739422F4173736574446174612F636F72652E786D6C504B010214001400060808
311
00B45C8B579B42921CF30000008E01000068000000000000000000000000007C58000030303631324546382D354634432D343545442D393238432D4445383935464646423739422F5265736F75726365732F31313632303142312D313545412D343939462D413739392D3534393034363434353731432F7468756D626E6169
311
6C2F302F636F72652E786D6C504B01021400140006080800B45C8B57A249D8BDF9000000960100006600000000000000000000000000F559000030303631324546382D354634432D343545442D393238432D4445383935464646423739422F5265736F75726365732F31313632303142312D313545412D343939462D413739
311
392D3534393034363434353731432F7468756D626E61696C2F636F72652E786D6C504B01021400140006080800B45C8B571C043CD40C010000B10100005C00000000000000000000000000725B000030303631324546382D354634432D343545442D393238432D4445383935464646423739422F5265736F75726365732F31
311
313632303142312D313545412D343939462D413739392D3534393034363434353731432F636F72652E786D6C504B01021400140006080800B45C8B5756DB8EE2FA000000960100003700000000000000000000000000F85C000030303631324546382D354634432D343545442D393238432D4445383935464646423739422F
311
5265736F75726365732F636F72652E786D6C504B01021400140006080800B45C8B570B45B476F7000000940100003500000000000000000000000000475E000030303631324546382D354634432D343545442D393238432D4445383935464646423739422F536368656D61732F636F72652E786D6C504B0102140014000608
311
0800B45C8B57CD64DDE803010000D80100002D00000000000000000000000000915F000030303631324546382D354634432D343545442D393238432D4445383935464646423739422F636F72652E786D6C504B01021400140006080800B45C8B57EE6CA87606010000B20100000800000000000000000000000000DF600000
311
636F72652E786D6C504B0506000000001A001A00210B00000B6200000000
310
504B0304140006080800B45C8B57000000000000000000000000370000006662782F38333134343632422D374444382D344531392D424435382D4632393233454444303835412F617474726962757465732E62696E504B0304140006080800B45C8B57000000000000000000000000350000006662782F3833313434363242
310
2D374444382D344531392D424435382D4632393233454444303835412F76657274696365732E62696E504B0304140006080800B45C8B57F270F1330600000004000000360000006662782F38333134343632422D374444382D344531392D424435382D4632393233454444303835412F747269616E676C65732E62696E6366
310
60600000504B0304140006080800B45C8B5788E57597CD3F000090410000420000006662782F38333134343632422D374444382D344531392D424435382D4632393233454444303835412F7265736F75726365732F322F305F67656E657269632E706E67355B773CD4FF1FBF73E71C0E67EF7576C9DEF3EC995D46C6A1EC50
310
46649CBDF79E192942562825CE965D8A868C2842C8DE9FDFD1F7E7F138F7078FCF6B3F5FCFD7EBFDFEC41B196891913091804020321D6D7513FC77D8C5070EC3FFEE51B21F068154CC75D455CC028A3EA68992803810109FDDE5D5CEC5521B28A1B422BF80741695D5B529DA1C2D058AD2388BDA9F476F7C2CADC939304173
310
DBF48A452BF8A700C0C70C3D121C1AA15A5270C22E2B9E28763651F7DA0D12CE11077B2ECD0D560B5E3DE2368B1E65C5E1C87384A4CC5F2D9FB8BE39E9B77C753783A37998F5CEF1B4FEE553463245C9712270880DF339E0B882A6BA713D865F6F384C842D440934EF264F4A304F8DE4EEFA1E2BF5E2D91F5ADD9613D6E31D
310
DB33ED31DB1D7916CAF091286EA3D31B9CFECB78BB0060245B943C4C040119FF780A74DD308BA9D028678674EB5504ECF284EE814DAED07440BAF649BE4B55DA2890F4D73E2D489A59EE54FDB0A85B59F2F52C4858A02705C4815A792B0C4A996A2023ECB195073E115E3E3647F64243A8338F2000BCB58DA5692C7E7C3D41
310
3F963FEDF3CF00FBB0F831A9D51360FECA43819F527B89FA260EB63C5DA676830AA3626A3693B23F1A17A0DFFCE3EE164E31B5365EDF0C89EF64D8E38AB0BA9A1117D7C3A0EC44F44F4023095E80BA610DE336D0F99593A88BFC5306E72DF98F7FD132ED95878DF2964EA7E43071359FD83B2BDF9C6B5BDF768F0F3C0FC351
310
199526F53D9460A34511F75D1B63E488178569472C91A94497807A3FD4A390C6558F26D416365C3656DE6E769DA9D8FC73774E1709812842DD8EF96AED1960F79D21B395CDDFE6F92CB4EB962A4668C76990E2EF29798C8941D67DA50F4A5F947872460F1F6FDB794E8A29FD7AC0C0D6E0714339CE258FB17AE8535221E346
310
4A10F29A0BE5EEECEFC5675926A89F49EB14E5711894F6586DB5754EB4D5DA9C6437EBA57DB97A24F8B8A8DB295FFD73266CF57E82694DF5166DDF93573AFE9C9C5EB05F8FEF8E89E0A8917B0B3724DB7BEBB53252581EFC3E38166BA131A3A5B42FE2AD00A769BBFA4458D2DE7822F8C4F63D0B8E21B285AE13325F3410A4
310
35C648C9D91FDEB109E73CEDA7BC796961AF79175E1A3CE4C5E8B0D009B0C9E29EFD98BC8E97554E3D8D838424E270F7685226E5AC268E021EDE3522D583E8F20C0BDE2959EF5BBFEEDAB32FE9A3ED0E39F211A86AA9DEBFC68182EDED132AB8BB794442D2D7EA9F4D8BFF52BC4D55BB165124EE90A42D101E67BBBB292FFB
310
4F66DE5BF2300E44546757DA7CEF8932BFC9F92A0707953491A55C5A5ACEDABD9FA1AEA01BAC3DC5A24E22E7C47213493996EFBC369D086ED9397C9BA6C7F9855C7BD5E15BFC8C53DB3D2A4C5901A57ACD2FBDF4D1676E95338B2C2BCE65FDA4C64F5FEFDC7D9CA5AA1FCF11E193F2FDABF0F4916BF13FB916A224380E6462
310
A9815F2300DC49CC4DF8D055CEF76462F4B7A7ACA7365C2707891370BC1D0AA6203C44CCAB47084FEC057F27FFCD57F89B8B9852459798A675C66BD7CE572CAF71FF7E6D7ECF7BF62CAB7B3F1107DCD04DC55A3F9961700286141C94A4F771FEB2BCDA2DDEE0CB0BAE402FF1DB0100F8E475DFFFC074DDB4498AB7D186A765
310
4DDB1CB680D703D47CEB4E72F8CB13D86A4AA68116E26387B93FD6738779B34FEDB8E517EDF2BAF28D9BE93A1D3A164320E07D42E514725C29515FF361754213EDE06B079A2E99EB1CA82A02019EADEEB87B9AF005BD04BBCECB14AACD6B24EFBE482194A97DD32400685FF1FEF1544D1B14EFB1E7F08E6D2CD2AF52DE757F
310
35F5E62332EE88EA26417AD5C3E0E319D68F25414E6D672BD4522B278C57D18F0113921C71D96527E091F00CEB15AE23D24667369BD3CEFA10C7549D930890BA4366F4EBC55F01F746109F98ABCDD5A3EE06619C6AD78AB33E48E4C9BD21BF7478B385EC05C4F8987E2C1BFA0A60EBEDAA0AE0B015C2720ECE180FB6F2DEFB
310
EB822D96338C9B63822183BBF52FB664A7AE57003AABCE512BF77E7E31BDA2E739AC4C131657DDFE5225E900FB56CC01CDE808FA4A9C9DA16AC679656BB64796283D89812B8F91136AE18EE5EBBAF47A73BE3C153EB5D4CD491B4BFB4FE690A4CF9ABA08C0D8AA64220C438C96EA6CA80B58FE5761E697B3A292EB9FBDA502
310
FA863E49FE694ADDFFF9D62C520BDD1A22014147A0903A05B9B729F54272EF83931FEEC057BFF8C8055C279EAC5C0011804828734024F6CFA319C9CC6867C727184465CD9BB7ED386AFFD96B294A85E3802FAE47244602D8273615952B98C4F23F7EAE4463D9D638EEE374A20959E0FE519C4CFB0FBFE5DD80C2AA3F9DB961
310
D1BDE57E67C9BB47B77FDD74EE3094F5DBBE3EBC1FBDB7393F5116263009E2EFE1AF9A221B2AE234C902BF70E9F280ED23E73908361565964333A3F01D0B006AF32FB21AA1316744B489D5A198E85299241735BE559675130955C902A8ED761FC0DBE337A9F91919AF5CE32AF902ADF9AB2615E00E8A94586BA1A90839B618
310
32FF1BFB76D2EFADE6DB1BA04CCAD3DA649E7E2A0219F592E22F2AD54847EEA8E42271011E9074F8F3DD9FBA6CDF88FFC9FC7E811AD1CA8F4557CE4AFC7BBEDCF0114A48689F20A584520C74DA8127124B767E2FB91A6B186246727BE63C9445BAE02088D58B8EFDC0F1072407CD9B89A13F6303B4A928F593AD489B58E686
310
9325790ADC406036C591729FE14021F94B7796BB11848D463536A092A26F077F94639F7CEEE2A724C66EC885F4A24F8B8A0AC321F8FD149BA529460FAA34E4663C02D41FDF80BCA222D42F0ABFF8490F4FA74C673807C2051D8E467B47B616072860069A9A303ABA9B319D58404461401B0A0F9BE5E1E151C14BC33B32ABE0
310
3DDE91708DFAEB15E7C0D593C86BB7D7EC17BE56E57975F077BFD5525F3A1A361D584A75E08CF29FC7B44B2B3085014F3A5A14517377C3F6B8F37E59514C3B12F8AACDEDDA4DFC49BE5710101534CD6FB6DE15B50F11A09472AABA727F0C49D9CB906B158030065F48EB3625E010CEC1D511D0053474B11E6A4F01C0D6EF1B
310
ED3A944FDEC70E0DDCDC756C86545910E0DAE3BE3AA9A404574C2995CD5CAF9549226BC94B4F4F0F5F9086F418F6B32346464610D8BC7391D3C3A3CCF04CFC1FB2A3A3170E369511868F14EEA4E5E438CC73DB1F3248AA94B6B2FF33B222FF3D1E7BF146CAD229770158063BCE4F5391964DF62F7E52A7BE0EEA829C9E13C4
310
C147D6F93FE59E111DAB5E4594D6F3CD1AD375EE039930EFE5AF2BB2D41C83C7DABD8C659BAFBE8FAB392CA634F3D15C1D945DB4588D2B0824A4EC928AAC565557CA2F0DAA588CA5BE30B3A8004F7BF005E96CBF891D7F18112A3619FDF530DC8AA64954258E1811789B5189B49B4EB53F5F89F7D37523894F3EB57B373763
310
C91E502F52CC99EB7BDDF933FC324C4FFC2561DFFA7339FAFDD0A4BFBE6D3A8FF9ED1FC49898139864602458968913181918F719CCF5A68B2EE9C1FF050E34E63107003B8120FA982C21B30A874E4F5E4B38D5A8290C4B8D9BE48A0BE31EA995BDC37AC6DE90BA17D259DEF53605D55922FEB1855D915B659FBEB350EE0DFB
310
2F9F766E1C84CC8964B75D08667445EAB966015F63A18A9E0A325C1B3DC628C0D3CB60F767FA93CC65F25458BD23C3B312716E5F40E5858AC06EBA9AB14F95DB99147B832069201541D09A0D856E12C629CF32683760EE855537D1901988D5EBC156676C7DD51D7207CF3267AF1D76C2AD867315E44618015313A98B19941C
310
696FED3461CAA9B5415F918556D7802EDACEFD6B2E45853A9735DFC9DBF7E440F9319F8B6805A973BCCDC76C069A9144E51F187EDCC12FC31B5DEAAF0A76137199B106EC84ADA6B6EE697D4E6A96E007417F4E880E8B1E89B4BCE9D81EF611E2ED8F0C1A6C25F620FAFAAB656A7C42D464880E8AFAB0E0FC8EA38CA9A8AEEA
310
EE3E4648BA4680270A89743CDD3E6C6CBF34B7B640EFA285ABC7EA0A1E28F3CC963D114A80123EE66D0AF7D5380EB41909B605AB4765B709B808590458157E69BA1378FEC4B48CAF6A730E3BE3C5EF2DD1A5EAF94B1DDE50CEB55DDFD7EE9A16747FA4B223359FB1FCC69E1194892BABB93A1D5C4E807AC0EA2E30180811E7
310
7A2291F6E7F7FAA5E0F60215BC6024E48DE436C511F0628B8CA189982D4D83CCA17D305A7E923C37941CFDFDCD93ACAF735EF5F0E61BBD3E6C41A59B242790D3A3BAC7064DCD89AA2E37214EC839820949D5CAA31E240D2948E48F690298974A96BA9A8432BC90F5071D6537C9666EA4564796B7AFFFA548077BEEA75F6308
310
3435074BA182F3699557397F71548383FDA8CA34D99B981E72835ECDA5DDDC151315173D05A21F651AAF8524E88209E2E7A737ED1045800CE3390050BCFB8BE588DF111617874C62575039CA588EEFDEFEFE319B739DE2EDC147092A262611E159650E787917885EF08F1F51B8F2D8A71D60B58B190FEF9541A1BE94BC19FE
310
A50784DA1419FE4B0FB51B8D36B5FF8E1286FD8AF42B91E59A5F1CC4D60174E764045FD8C57B18209B217F89A62252BD20BE0E63E12B8E8F029FE19E0E8D0870F58721A557082250D5424F7909369376E41666C0EE77CD87CB283F661D5FB6D0DA023CB67320A20DC7BE661E9E1BFE5463085C557DA1FF9BE835733766C3D1
310
39F2CF9E2208873AD0EB4814DE9E6BF2CAF81614D4D43906ED1C05A3265CABBFE192770FC2F64F940CB6B17B5F166F133C9AEEAD2641807C3E69515171DD74C4A85311513D6EC9530B3B601B6BA3EBFF3B5C3D2F7D69765141E345F75433953D013ADDF8F6AA7DC3F4A7563FE5C7D367937E2900D7EAD0F9FC9A4A1A9B5BDF
310
1FEF08532660C01C5D6DE22199AA774383E306DAB87E301ABB7D213887F9869D4942D0D71E94B27EDF216A318BD488D45DF84529EF575AF3C3938C0AAA0215B01994153E2054A0B894DA5C784980633AAD48576957CF4AEAEAFADC7C587368551C73DBE1E57C58AC713303A8BFC258BD04B51724459FF9E24C03A81E0E0679
310
CEB9B348C0DC998FEB9C6D6EFA77D247CC8F92D3848599ED89A23218D0636465AD1CEEB7DC140D7426F83491C4E8E8281C2FB35240918FFECE880CA2A42D70E8B20B34DF5221C7DB0CF90ECCB9C745B37A47E9B716FF7A97B7A252C1F3814DC7B1E1A7F72B8751D524EF7CAE45B0C73B3BE7D08ED39781B380DDFC9AA4A474
310
9C9493DB5BAD07A6EA6C092FBD0E85DB004DF06B8C9D3089C5320187E4CE1846158C7EA7DDAE8AD9AFFF21AA3A1026BB06A259845E8232DEE62811A4DA9CEAB3A4887320B76E2AE5615EAB7BDF738CBDD01F1E64064BC13D9EC53576751CA8CACD58B3CEB0E6CA585BD089B2A59B9FC101403387AADBDBE70586B93D64BF3A
310
D4453EF9C3B6A93817E8346991798601344F79A83C51F3D50F7BF2683A3605F51A72449489E0EE6169C749C60B1035651103AEE24D24E51A759C840DD3FC6504DA6FE107510E447B43461C79D22970B75DE5E1BD3007D1AFC619A4A4A69B5626AF5E9B8374E20677F77E2F8E73DF868E8BEC7EBA7B6A75EEF7205E1AB9486C
310
B642741D6E03FF13FCCEDB1C4AC129886268B01CDF4B124AF797CF784F3C6DEC97A17D4B558070A0F1C04DA4FF9BDBF34159AEFE958479824B3F58EBD1E19088A2AFDE501B6F2052368A3FD0E650A179EFAB1561E1D27527077136E652676C3670F42DCB3352F48F6BC86D2C3B0051727E41A0A4DC6CE2BE9D47F5CAA2935A
310
3C0539AF080665997194ABECD723B08129CC5B6B21D2E7D54CD4D12610E7E9FB8306771A89576C7A982002775ED44F3F744CF21EEBB27A631671D921938AAEE3EB0D19CD1E083727F607823E817BF599DCED5394E37EEBC2E88782E638920CA641EF74D4CDFCDEF06F4278ECB18E31E7E9876F2D783C8BF429C75395F57E98
310
C2B495A3DA077EB3AC3C158608B6B57FE3EA48484D9A480096FCEE0DE880950E7E5A5714131C5C41AAA29FD19AE81AC145FA1B9E85C7169A5AB837B213493DF7E9AA4B5FBF9CDEB36EBD21EF1181B7CF7366AB2A951D01E37AF4EB835D1BE8C117CFBE7625D2EBCDB0B20C5A4B45CED0BCDE3EE8DA9DA78C2E21DEAAFFD119
310
7E463C33CC6A80FB785669B856EFF7A8CCCA2841B5A5369173320B1170C368B2748D81062EA0296E5E2D95D7667A4A46D98A6FF475C76AAB0A8C8D45E226FAFC9FE0133EA9F60111F99CA81ACE03A1D14C89E8B0D69079C91464FA1D99E651D0EAF606F345C42A8A1AA9BA391031582B96D5B4176A77AADB01F12FD298A75D
310
EEBB2C82F0B8650E880722F8DDD90C56A7A058E5FDEF1AC93545BA27367C76F5D8F9690CB6F8DAE141EDD7971F0FB548A2AE435F224D6E5954CA155512F7332029D5A1230854B79F258EC5FFDB09F5F6343A8EB193229B7F7E79B3E48F8E183860B38C8269D1B53738FF1E0BACF6AADA6D4869E9DE708E79B5DADCC09B1BC7
310
6F649731CFAF59A83FD8BAE4C749D66FA87A3810D4D62FFE826FA400C0F325D2BC0F3CA35F5847B82A2ACC7961745C823E4D863D54460AF792CE6F79B5C7A33B25C3AEA6CDE15A919B6367D781E9D44F61BF828672594A3E1D9EDD6DF179A81F27EAC05B936575D73E05C209DDD2115CFB705DF9BBF3C911589B3640735E9E
310
618FC9C36A7326C82B2205E244C55D56FDB9D5DC93CE958D4BF8174D2B3DA54CB3C09F2C2A6DFF73D23B2197355761AD421EC581284A7EF8DE2CE3497C0C804D49B41DFD6A7360844E5BEFFB495CFCDB97A4595911CDBA623274CE852B5E278AF0BEB1770E9D37CD977B2766A7DED0E94B840E1E95E8C77DE5CB6354AF7871
310
427C28ADBEEF7BA0A28E19DE9ACD75F379FE373EAE6DDDAE3834692F9C2B03B4FCA8FCA9ABE8EEEBEBB725B88A7C90941E850682CA04061A7DF0CE82ED49BFAFFD42C309818FAE14755CAAE78B0F73243ECCCAD7DF58FCB9CDFAE7A4D3E6671A613639130D056C8383C8F4FCF4808C331E544DD26E4755D09EA05253B3049A
310
1E32587CC25D72E073E2CD96D04A71BBCB0038FEC3F53D254199C3CDC67CD66640269431860225392B2CB3ECD0B4498AAE78BA1994246AE1EE78F2EDFB79F6C6CB6B5E279C4D373FBC21CB2698C9ACBBEB6A4BB6B39E16AB0E421CCBFC7654D81ED86022F9BB522146F9F4772E2D0E4FA70120C95A85A417BF5078B232F475
310
4363EB1750B2AC2148EB46B1EA72AD9B4D23ADCBC589D70106C3EC2ABEEED84DFE28E718C6C83502C28E9FDD3B09DA0A6F6F7B72B706A31C9E2A331EE70DA56A083D2177BFD63C55B11D8D949FAFCF90B23A1E24B9B5018B9A17E99F2890EC302F330FE7936E2C23F0D237EC8916F5166AB84B62A21BB0B950146962D754F9
310
2CC2C8877BED8FC7B7B25726DD19545392570B3A2C66B58F027BEF412E552D12A588C4A3CC5C3193FCB3485EFFF700D0B9EEC077754A33DC1FB9E25AF814628F91DDFECB667D3F7690803F38D13F8AE39353523BB08FC6760144AFA2CE28236F65EDBB3D5F59A57D612B99E3D7E5F8A851666BF9B5A6658EFC96EEB37A378A
310
BB0EB3FDDF1303AF32C41BD1C8560745D7BD81066B0D6313359CF488563D3BA3F8E2185D1FAA3EBA1397C9D0E3DD232180A4DCADB6AF25DB3AC3CC26589C8239E66E81547BC7E2F328F9884764CA37EB5DBE390DFC03A5246B456A7C3684C4377D0EEF9A350680FA9A077E8B2957B489E09AB1AD41316944C2254B5984830F
310
691C93CAA767EECF976FA5647538830B5E63236A6F0365C1E0F3E327F24FE35EDDBD7360B0F7374837409F7A6311BECC12B7026D4FA1AE204FA3F5FE904B1F420C7A9044AE58E403E7C4848E7DA25DC9EDAC79DD756FAA26B9EA83ACE8A214A2612A22AFA19DAE7DBAC5F8CDE1292A485F98DAC731A29FE01A3966E96BCB9F
310
B5A4C8830E1B9AF0C54B87FBE221A097036E5D28D1F869F810C06A9BB0AC0612F69AEBAF893C6E7AD59460208BAB3A6B09CA4F6BDDAB8CF0D1F84B72487498395A70DCD754796E271099A567A55CF242BBED64696378BB6CF25EF0FCDB589F3A82F1116D010A9AB9FA4358809EE0C973A2B4229BAA876A70B03AB49CBA7FBE
310
71DB1832FFD32F9BF2C8E98075CACAFB36921235D0F552B6A67E94E094097A5D7DF681B40623DA535ADA7A9AD8E9A62407D7C9A5AE51D62A17A83A23728DE86BB56115804D3F2675F2C6B87541A0FC497BF0CA86420F558C9859EBE9FAD62747E323E3AADC03FDCDDFE7407B09DA90B44E3185723C5381EAEF589765E2F7A0
310
99BA46695BAD60CEF3491B8A171F5F56444F7CE9455312C3498C74173AEA0214EC029833B34B650CBB5A5508D5091665309642791708ECF27CF11DB3D797D6CFE474453BD4BFADB768094B2147814D81C7CBAF8228DCAF5564B5891F5EF6A860EB2E323CB82AB868D8EA048880D63B0DE5341F1B3D53297B928A11E15F25E5
310
148990F710747C3509ED14909C552EBE3973246FCE55D00564D8310BC3EBC5085D08D806799B77D6C57FDF5E55837F9E934F09C03C729271B64F12D0A9F9E938107CAF7BF1EC8CF1BB9B42363D33070F4CACB425E605DDB0A34A12BB936DE286B9887A4E2E558F0886498BFF49C311D96C277CF6A9FC0D75AD0ECC5226D7E0
310
E3572012E56D7FDE4410CEC7A6D0F997F225A2055B8B92E3956E875AE4993CB3D4C9063AF98FD45E1BAB165640A43439A2C9181A7C355B297C0A0CCFFAE19B6FA3C2BA238A885FBC98B8F6DAF4B94B97304878DF4D8BFF6A4AEDF79E90ED4E68F00CD7299F4E0D83E35601AF0CBEF18C1E870E74758FA91F5131075004DB3C
310
FCF09AE1DABC11957FD9808C92E8A678CE9DBE40DDA0E0D1D505AAFBCBA208232BFB6FB3704E8985E61ADE53DE74152F5C7DE74B1DEDCD37DC3E8FB30D7EBA8B9EFFC3606BF90B8D438279CB7709FC7C00D327F41817EEA71CD9E49FE9C8C9A81C70915D9F0F15958EC5AA4C3BBFAF46986B90F188BDB24B89DE3C6F29EC3E
310
6F66D84856EE96A35E657CA41B41EFD8DBFA16AD6E91439EA92B40B21C053249F51AE50EB0B24C770FFAF40DF12C8436366819C48E36547D4E7B72FE2BBF10828583057814A668BDF183F6B2E58DFB151103E56303E63D00F39C27C4661605DB644D19175D02E3F0241E8FC3458D17AAAADB117CE9EEA690D0DB01E634878C
310
04C2C9310B69FCAB831151E3AD293BEF6E46B0ABCECB50F5939B39C613D41E81FAE8D34CAE3C4566B761D37185FE864AC32FCB71AEF39DAA5BAB88609BB980CD2F07A8F941653B529567726E2B2A58D079DD57E1E5E31426CF184A04D7B03B985F276D47406AF276FE32E3328BA866EB1FD39BEF57863A317634AA5FE46740
310
9B3873F5069EF0D71AF00AD189D17BA1974ECDB2D623E9E14086386A6AAB5807825C37B015BFE892AFD154920EC437EB945D958E18622E1E0FE2FA06557CE4BB9BBD05A2D40E774DA2B65473791E314B7D6C886820B2FCFE4AA272B3B8B15E7344A145E8AF919B5454D89D36D413E87211186BF6F645E5EC94DCCE8E1C7990
310
22E4EC9BC86D7A0F2AFB1FC4B2CE48F84B3F49ECE65BAD24CADCC07EFF39AB06BE9E6B27A059938EA7208838455383DDBCFCD967DDE4650EF92A14FF933C975DB20BD7FEEBC4487576485963D757D16340D9599FEB362F775F38CA4185A86F74B629C81B133644A3B18FD056E997E0734F9BE26D11C0AAFC669E2AC9FC41D2
310
81F8B2E1C35AE27BCE05F3DA295488096688719D974DF1B5D182DB7792288697F8763CFB43562C1CDEE11C4AABD5C22B6E33F6F389CFC3477C5919DC0D533F8A7A1846B7ADB60ABDC26C43D0CFC8910B7C15EE22675BD02702ED39DB77A87A192CA7A543E6205B979B9F5A6B512A3CA799E198B2D5797C0AF8D1D872CA455D
310
4D431A7879D4DD76110B5FF7F4176B54477A9EB5E4A5D11214FDA585F0382751D8E2582BA5D2075053298FEB8F1537304E32CB22C2E2B693DC0A760B1DFCA751BDC445AFDCBB12820ED85F6D5298933C7EF1211E9E057684056CDA3FEF3BB6052355E162DF27C59E965A8DDB7F9437EB72CDDA3A090DE65A5B2F50326247B7
310
EC67B73ACC7047FC9B353D6EE990F772207C6EC52B39DC2F3C0754821DAB559F7C1809C7D0DD5B0499D0442E0A6E391B3D5DB46D11E731E6794EC77523FBDAA242ED67F9FA1FB684255671F63C9BCFE6E7E896D51001A6113EF2298BA494E0B0980D1FA5B9D60796554C02256B1E0345FB7C6186B6A19D2DCA270416262845
310
FA4F42DB5D9B0A0B6F07FCA2E56C242522E001E0CEB734AF310FC8BFB57E38E03AACE93B3326A2197891E68452B26A6307FDABFEE0223D3C03C3C73D2D5BC054C8311F12004CAE488E5C29287F8156A2CAA4AD0D7BE6B97264E4139F437CE73ADF52E5134C52B819777C18B323A5924E4F67AFD13B1CDC3A61793A79FAF5C0
310
CEB718E441071E797C6DCCB9EFCF7E4A1E9F3DF3C2F9C9E8294E9586868788C972857FB0556D7A26941A7EEB9B580AD78EC40B85DC906B4120A563CA3B87797ED612D3B035962BB75F6515A393F4CB057F564CDF54F2E5A024514E6A1F901DB80C7E70B1FC05E356A7E72FABF4775B3E3FB8F70A2A8E7B6A94542BB3041579
310
78CCC999E707A29CC795E67A59CC546A5D47B368954CA7B6E75EC9E1F6FC73CE3B4F71F8CB1A6B15923D61EAAEB14626AAA9D04A26EB9C66CD1BE86CA31A5D8703DE04CD1EBCE4F5CCB62F93909AD11E55799A781A956ED27D3E738F4538CB04ADABC7DAEF20BC35BA6A90BCC1DC61BA05F20D8832FFB9BC9B15E2DB838A0A
310
FBB7E0C82A562127E0446894F427794C3037186F622BF24DE1B00AA10A23BFA47B2A180D6DA5AD6F7326FEB8C100C2D7142EB2A0B2A9D1008A09BA343D70E054AB69E2A7EDB783CBD92537FAF4A44D1296AC2792729104B3276C276C951D0CF3CF3F1E6B017720A7B8505A5FF9589365979678C36F1BAF759EAF57C60F1FF5
310
FE9DCF5F8E764FF25A2D06CF25117A8FED51884C13B2B750DB0E4F5E3D64124FCF11F0AD8F1CC3B3DA4B38ED22BF1CB2585EE6BFEBBA63FBFD44F9537B9B37BDD6B358720F98A8125AED4349CCFEB0E135F19E208A04CA7E2B10711185D72E381F448036EF57C9F874E54A971CA37A639E986AC0226DC5AA00D5B14FEA9192
310
234B3DE617814FC221C92F33F1D392F297731B567FD98FD91D989379AF567A65B8ADF177591DB90FBEA99BF4ED11B16E50A0AB1DBF1156D034BBE04D69D08F939D8E92BF525A1DDAFF80ECBC95D8F45D3FDD289FD23F7D8B452F8EBB34EC082DEEE68E18EDDF072060FAD2AB1504DD4879BF67099FC58F6E9DEFBF645D1633
310
4A3E9A127C6F1AF6132CF287E433B43A0EE93812B4AA0B194E03EE3FF91EF9C6ED0074A2F6EB18A96A7C9890B1FCDA1F2095E944DB911ED54C60DF16FB74C8CE9BDC7C54C4F14078CF73C2FFF1F1BBCCD7CF64F71407EA1683DBC410D226627F66E509060D5C0AFD611DE681D509DB8DD12FB1265B03C6F5C55FF4C30BD941
310
87FF692B4F152982502F193098A789526A038AB529A52BC0DC4FB6285CBAC10A8B8DB75DCD9BDABBB221E27D1F8DA9F5EE5926A1C8AA9BA9BC09239C6A7F12914EA3B59EFF7AAEC3FFCCE56F1C5C2980AD072793527565E774F4631DB178CEEC691B1F367BEA0CF2907E1D6B854D527065979DDEF002D8B2ACEA7CE21AE297
310
737EDE1D45B31233B73FEA35BCFDD0B09721FDBAF6432681F2FD10C3E9EFB246FD6E854B344ACC9D8A0EEF876A7314B49B6A499FC650B099D650DBFEC7638ADFD245E2B7839DA5AC5F7D5623FC0ECEEC8653FC9B2BDD1AD4D00A566FBA7186DD3C9CD26512551637498CADB950FEC71ADB9A5524285DE328B8EC7EC75D2345
310
AEC6A27C42AF6D9B92155315C80DBFCABBB7DA0FAE425C4FB896B15C9BFAC4FE67DF5A23D30C93DA4D8F36FB15D100050DA6062E22AEC5F4DAC4F6FEEF97AE05DE63C6D38F9E068A20BC5E3B6BCD75320C5090924E7F93640A7735B1A43451C2D91EE62C6238B797349E59890AF3A520DF4A87095F3ABEC2E61F0593416CE4
310
6CDCBE0E00E2523FCCD04408588B5B6C9DB6459C786CE378770B54F51DA3A5E1DF2A3349BEAAC234A6CF8993B598B3B25B4B113E353A4D750FA7534749430F3EBF2512E7EA3FD43C6AB9A1F765A58463B306721A15D224FAFE8C6F5E3432D57EE697DA0DD5A9D4866A8BCCAAA9DFF1F06047851408FEC060471D0E3EB86BFA
310
F46E4B5E60311DC3E3CEA147C75CF971BE74689507154FF2D2E92F15CDB2B9182B11459FD8ACAC5A85F174BC94A7F4EE4C4F5CAFA7C02E37BF0BC77B7DCD0C047BC316F562A01A441AFA7931CC84A28CB9F4AA367EB515778F29BFE61195FA671F4352E5E46E3A64773F1F76EE5EB36D7BCE9BCEAD837A4D77F8DB8C92AEEF
310
6711920D7C7D0F76B0FD0EB7AB83724CD35BCA7D36DDDF5FBB7FF6F04A91F3E2BB3B8F1A43CD659639507FF6331C5F697BCC782AE57D757A27D97F1AB9E0AEDB43F92F1B2AACDF5FEC8ADBAF9F814E2027003BA2F9E144B1938A7A04050AE5D953B82C45619165C813A10E76DD6906B3C16438064D14CDA713AEC420034613
310
E1AC7241904A49FBF87409AFB1FCB9B72FE7933A87D8FBEDACECE4EDCF6A4FE9FB94D5DEB74FAB7CFEAE17EE965DF980DCCA2D04134994F9A2E94D2265DA4FE6AA7B7AC15FACAC2B5ABBCD7DFF542C5314FDAB2E1B9D8B65220B8E2B638BE008E8DCA22678C820C5053664D15E89F2D735B51A84955E81A443545E9FF787BE
310
0FA700A76D136C27DA179A7C6E8939E01BE756E19CB292798063D8B97F44E8A27BCF3A614FEB8BE974A718E86F7EC99B53CA35FA24F61F2B07266684623A3D4CF073E511F3A10A8FDAFAF0078C577F4DF9D339FE7862E5FA47CF4344209E5BF76D783B1B48E152AD281B15FCB934DCDA49CEC5706B1EE8B460F435324A5CAD
310
154725E21AB8044B75A557A79F6C807B9340AA3D92503E866F4274412926C8C504E4D5EF8C0E68DD0B028781A6B4054F11CF18941F101C57CCC796773ABC8DED9CD91FE5788806C05E548895354AEAC96546D55B0E94A59F148D061F42AA398D822CDECA4CDE79E13469BDCC44FDC990F366BA5978C15F97ED80CBFD73B0CD
310
9B8B83A4F6845BDFBFAF034019473FB9A63BD55D3A4A7284757071574029A4D016DCCBE95DD679EF3C4880BF169422F8C89B68A988D2B13793CAED4F74DE7486C72DC94DF46B8E93D8E02EFCB1FF9B3BA10C8AE7F653DF94F4AF466CDDCEF5776687F7C4C14B63E4EED1719DC2EC482D7DBCC7AE518CDE3D5FF86D39000EC3
310
673C0044E1D308BF05F74D1B5F033A7D1BE7F74BC55BBE3E4A20F920946CA0271EB17BD2B80E5660ACB8A29A79F5E4BBA49D4D945B6EEF4A7EFEAA65E5555BBB57A7E15D2F83C69F30BBB978D2B39F1F26FC097424D39BB33CA3D87ABF64E307938B685BAD44F71556A30B7E712CA4FE600613C3E554B69ADE949A7CFE214D
310
F1FFF05CB82151EC6FC31950239F94CF7AD39DC473F6EA356E5EC2C4EFA04383CEFE985A127484366FBEE3C0EC4FEA363E4F6632AE781392FD45D67B63FB8DF70E82734F431FD3443172A0E30A83D60982D55FA6A2CF86DBA8382502ACC6CDEF3B907982EED1160E14863FA242F9757347E1544275CCDCF71ECD5F8621CBEA
310
326B8BA884AD7F825781923E66971F04010D574C541D8427A438A37EEF8AF88240EED7362C953F5A81DE2D56109CDE2524EA0F5D2F87308C0C47BD97AD605878AB8589E17CA83930CB5E0DCCD75853D68B1AB136594926DE426C367428E9334AFAFF90ECE221BB5DC9E5BB53D2CDEF954EAA9CD814F0E5725F1965DD458E5F
310
8487683AD86B9D0076BE3EE91EB1CECC5331A67A3F79D8B27587C12EC2A6A70474749F27B4C0BBAFB94B34189E88DC18964BE4121B9137FD516C7755356E50D6714E31ACD222621EBBCD1CFF81D87479056A9DA0E0B8EA19D24CF937DA89F78E8650CCBDC110AAB6C4E46DCBFD0446BA9E2060E81F314AC2031E88135E5476
310
AC0160EF5C0DD2EEF1B8B5CB2D198BE9A554A9093B5F7D7E4B5407DDFCA1D9C152FD97F55BFFFDFE802954DFEC8995B983E28AC92F1971E28F531DC407A1280EB125F64A72E617EFB27DFBCEDCDA2D6F2BDADA36873EE46B9BE1782998C63DA7182BC383FB6FD15DA472B175D7E8B4FC88F38D6E07FEAA3FA3CBB8F6B449EC
310
F14D2175E5C5CCA3A42ABF24CA6C9395AF74535F4DDB38CB84F56614B0FD32D7E19CA5CF988DB4449C40E23DF2B16772594554579094450F56F253CD25EA7F77366FB1CFE79696C428BB64D5A41E986189427E5E4D7E2DAE3D5BB4972B3DC44EAABDDDD63A2264ECFA5C786EB0EE1FDC5BE34FA0F08376869FD1E61EA06CAE
310
15191135445EE8F0394161C3266A596AA035572BB0C8876180D8B9C77D307DF9DCDF7365ABDA6F3A2366436457A4DFC1F259666569A9E4A79C817BDD5610E5200FCE894A358EC72858D50EF67545DA81C6FACE3D457BAF70367E1E6BDD9A952FB4F56247F58F523B97E640246051A72F79BE42FFA0B3187F63097F91C48B86
310
8586F714B0EBD5A00A8412C1236E1298F60C72BE6C96B82B404CADAA304AE9F303176B14BA53FBC2D5E86377E35542019E24D97B96A49B2C0E5006E7795954DEAF5DA58958839043C6C70BD3B1B33B6DC5C31316D8A6923F142E26F6711A2258AF977DDF1F970ECC4F1F2B434B96D81BEB6E89BF3BBB3C7C8CC80505070723
310
D6D7D7D3C8CA27CA164A26024FED94B12A86031867241DA53D929636DA600F050BC40CE48B8BA03D69224720DEE2ED2127390BDF5E6EA64527BBD4C4C63FA76BB801FEEC0E61218EC98A8A86CD8313781617877E66692839B9468CF4DB8E50A73986E558E309C0D6F676F921BE02F1185454DC75B111572FF9D27D85EA14C0
310
5AD7271225B391C4275659CA4A43759D0BA44639BE4C30A84DB7F67A41399FB95CBF923B1B1672ABC807C1590557FB18D811983FA97F5E609516D62281D38B1281F68FC75528C35E4CD7DF0F7DBB5E5DD69C414EBEA2F4A5B241B996BA77AE6C772E367408C633EA3E438B68563EA8BE7667F3A4C4FDEEA52ABD78A2820F44
310
3B7914A15F180018D231E64519C56A12F6CA7C8DAE18F06F6B769DBF92329EF6A5D18FBCE600F36BD8E8198DE5CDAA96181F3A756EBA5501CEE58F497EA4F418A2B82565B9BCC611713C0B708CCA1F398B78C5F7D03B3437CC18F13061F55C7BEDADD5ACB1DB0E36D3CE47FF6EA1A563A57E9649EA5D14D1A50EAA45746338
310
1C073777EF1600607BAF6428A7DDC079D47A204EF1E1F1F0589FB054D45E02CE623B3823C317C601E589E22B1E88B448524B86A82828E32345EC18AE17214B42F8C41C6D428016D9BA31DDCB47572561E5A402E5BA4FCE55F78AF7268524AA04130F3A20BA5D1E9F9948EA48FC8F5314FDB35E21898198060034ACE5E3E2BB
310
CA34092518F275190AF65F45867FF0900AA4B81F25427414C372BF51DC29AA855C5428EE1EEDD6B849AD60F6E73475C2D2523F8A2772C840A478DED18A8C5C91B085F255DC4F54EA7AA8947354FD17ECF8FB3B4A0DE7B483CAF3A1165EE05BBA413E5C1FEF3DE1D6B8F2F3F3251C17D9FCAB48A9AAF63AC773A0E413BBC46A
310
9ADF84A566FC920E4D8C52C9769EE3301CADEEEDD92B312E02E2A7E35B7F1E7D203FE5A7D75578B06E99D0E46FFADB8FDA17ED8880390DA29094202D6F645F76F6F96409CDA05495A96E84B04A00D1A6C6C81D7F3DE9376E828CCF144EE50E364ACCE7237EA0BFB5607ED1AC3CFE73794E5B61739D14DF1743441B1AC98F00
310
ECEDE9E7301FA29755FBEFA68C91EF2B314CF510537EF1ABFC9A762496280B546F5EDAAF8A5B387D469FC9A878A92828C88608453ACEC6094DCA54111E7AD5B2663DFE2DD151B7F123B9F4FEF8EE36AB125FD7AD52A59B1B765B3E3F73E3F73DEA93875004D2AFFE3CDE9493B87A9904DD052028949041A91DC0E1BA47BA71
310
4343FD5B25E0A6A09503AFC17C790058A836A324FE31D7893512E28230332F153181C1E018E1124EBE1BA262AA428A518237D1EA7275E48C5C561BD19ED6912EDD8367DA0F31E40EEAE9683DA9257525AEA7B632B97119E17145A90231768A4F3B9120FF32E8319B015E3CBE26F1A754177D8185345817C096B0CE443A955D
310
13AC15E1FB5DEEA0239EC32A3C92241A237B0B02FFCB4F93CF2B02570C8D192E2F2A68CEEB42F12E6F8CEEFF46C251E22B4341C56FB08CCE550E7A9D6F4D6564B9EA52A83D5BF2C6E03FA19D2775E15A8A7ACF30A13C259EE7F5EF2AC3BA354F1500E1A07FC63FB4686E2F12EC69719F9ECF5FE3F35598DF2CE944008CE78F
310
0911BA5BE5D0A34E0098FF038669C26030BA9B300303039852A8F6F496341737CA7E0D2E3AAA36DE0A70AA7D9CA0D54D9AD84B18A44C9E625475E1C97B93BEBB38DCE7D227E67A2D00F531436136355F243D1FC0D712C5765754FA22FCFFAE97919161F46D6E61ACB37D83777B385889770B50765B127768443A5C4D3A4E35
310
A3151111F146B7CA116F918A049F1C272F2CD7976C69A0068773451659A97E0F4A08FE604C3FF6CE7385DB19F4D3ABC8A0D80DA8A42096AC377DB49382B36E270B6FA7570188B4B7D1DDDDA82ACA487CCA5D38BD3BD039ADBAFA4ACFF27809239B722081E2EB9F145320553D183F28471C388BC8814E5045676767AB58A8E7
310
2D1CED2CA731379515D2E533E4CF0B39DFC625F97AC4836831A4DE330E87A8126FA17EBE583D614E71E22A8DBF2825599743E0640037303E8E1B1E8EA4E1ABFA4F62907B5E4E0E5DCFDAB417C36C6848A2B8D15F1E505434C0707E16B1CFC2A1C36A42BBF55734F8F4301DDC2A5110CEE8C0747F69519265012A2174BF4E95
310
5ECD4FDE095A3ABC70536B7AD0B9D7892F81287D667C108703C9B66A221E9A0929D030008F77FF6F5D2108EF5706FC87A3069B976F7C9FC3239D13D283CDEA83597461079FEEE049B0F392889898B7D87D31F8D60ED7B56B91823A8E4EDDB36C6172ECEE42BD42B12CD67994FA0F0DFAE9389356F4CD4425A4B8AA55CBF7EC
310
D585C6A2C2316791E43D5C06841ADBB226A87FD61515FFBB0167B74E56BD7F3E90A57A97FEDCBDF483A0D6699A8C0849CAEB4947FAA90D8E332D9DEBD9F4738C37DA0CAF9CF3DAA68BCB67C420459C7A64498D6E848E5CADE92BB6901F607AA331104A67F7CD650EE169B1DAE94D2C31C2F993632259B6957E246EFE4C5481
310
107B07118607700040E5812A2A2A38DA0076875258C753F60E0F2662C748EDD5F3F3686B8FC3BD6FE631ECCAA1E8B1C1E565AD117E54893E79F4672E32F9E46B2A183DFDCF3EECB4D4D077DBEA0DA254D256045109670050129E9B9B1A9E4A11344D61497A992778095151510C4BB7EF2009B63AA4360635312E4CF668B7E0
310
D3D85A8688E2BD83B569439892ADB63461930D428E0DE42E4AC57CE48DA5CC1449530D8BD3D6A0F08DF20C8E8F570F2CFFFCEA286E30969B4654D498A58D9DA782E19FE3F002181838925592C4A1EF0B332D88B61A92C644547BED490D3A42CFFAB70E36D961F694F6307F72FF15A1C79D5B1B5CEFD353D9E2B52566DEC8F8
310
F09CB3E8359C0F68EBBB7898243E34E12A015B2685AB303C04D3A9E00671FF3DFF0A184E4A2ABEB2B666AF5B3A209C73D8EF29DCDB069C9F391EEE9DD0F74C7BCDE16F8F02E3B8816122BBEB50665775B600549D8BB33A54A6BF940C028118BC6878C79958D6784F9DEAA6E26748386FFAF8D0D0101E2847B6563F5D8DC1D7
310
8F787BE00E2C941AE12148D4A81599FE8F68D4DA5CDED75530ADE138240300EE13B0FC13A1687FED6774662C05A2B7DFB186732F0D7A93545D8B0A6390AE5054D9CB582DA846D7A061B3358B45E2B52DDE63E114397EDB7E09233A579155D795BE76102CF277F4DF8B188C4F2879BEAE3C08347124BF9ED23B128259FE107D
310
31E34A652F090B30B39E0D9AF917B76A2806135621A8A60681F16AF216514BBD02711585B5B1AE823F4B2D0369EA5B6BCB863072727FFC871CA6C9AB79A814D989057E9470A3D238BC87CBB4A0EA49AFE2B86F22E499793CAA9047080450166BDC357524561E258C77CB697F1ABB32562CF87C3B7AA12F911EF19FB3E5C022
310
22E887D08202A60A17151F5E053A86B437771088B4FEE14D652C43E8D939995D34545E12E2FF93D4E366EAD25F10CB7DED141563C3D0C447AF06078A91135FD4B9611583CB4BF3BD167F2399CEAB0E0100F8FFC305F00F1711717173138B4B48C83022295DE657EFEDD97F238ECA80F528AFB4F8D67AD4E2594B9A3AA86D74
310
87EFC313BA95745C186F0CDD84CC12DC9CB0424B42203D351FD9C0A3AF10CC7F388E0329279087386421F194F4A29464C1DEF7EF8BE515E4A199DCD5B909342598D8FE6A231F71336248D5CEC5454455C7BE383B3BC7B260FED27F703FDC39A170F3827239102F59D4DEE7FEF82EAA1A5E4BA94DCC4CC44E7E2EDE20F24244
310
E4454369D2E87C3F823F193FD4FD27E1C23984B01898D15ABC20711A8A558054951A6AE280096BA36CBA439603B7B0B4C45F248C14B2383B4B5CD8ECECE4FF859AD4A6CA2326D020EF090F4041D28DB66E5256B56232CC52829DE8060BAE6BBF37D4B7469B822454FE93210A3E8D15E69FFCF01123222611C51C4FD0A041A0
310
CFA2471CF6BE38D2B20FA4C3525B5B8B586759475CF80ADFE67A284AC24651E52B8E683D24C2622642F27E7C3C22783BCF63648BC398BD6CD0D9C97E7E7E3EACB6126DB7A6C1FD9F1031302EE67ED96F22B77C7CA0239BB324207559B105E4693EB26EC46182A92C9C0DBD24F29B31C5C5AC1F84300E0E17CEEAC15F5736FA
310
4A98971E2F1423BFCD68D4BBD5F86E74B40A369F39507C88FCDB35D2DD8DEBEA4AF999E23CF2816D204200DF6E611781B9884C1AC8888B4DE397320472959434323A5A36B22A8E1F721A270DF3BD65E4A31C11FF048AFB0D8B7B6881423793963A23CFCE935FC189ED36FAE35C46DA3574C979E4394BE52084F3081837BE03
310
3396D2EBD80F1F691B273F660D2B32FA27A33B1DE4ADA5F0FA4651511102DFA410DDA86E065272CA314D5249DF91B06BB92807B28EFD54F08F7B525252782CD276DD02E6B0319B13DF87B1F6361AD6B28FC0D711CF445429B9E5A433CD493051C49A9E03DDB1B147D880253514A5DED88009018620EE229101C041950E2D8A
310
A8E1F5F5438E0C0C0C60EEDEE9E3E0C051948C69F84BB7B2A48A1F3C8EB9E6864687F4F4F6F6E2FA87608ADAF9C5E117B7C1A737E710769DA1D15ECE6A84502AA855398712D5FB51BE92E4EF824969CE18278798AC303C2C7980DD2500ADF8FB1E6D6C2FAAFF9987178923334A244758BAA01A9A1B70FA5097D01E1CC2A58D
310
AD0EC94CE6430AA9B0C10D75E3C6BAC670EFBADEE1607739CE0FC18A2587E3EC3058562014C64219C69BC269082D5C2F4A659278D585755912176D78A1B641719C2A394CED495A1AC5D583FD2F5EDD93308EA7EAE8A6DD396598BDBD3D4CFED62D18A5BDFDE0DD5C80D1A89BA62697B131AE7CE9A6594138582F1B37D68F17
310
49AC7CB67A70695D48A4A056AC1FBD4E82358CEAE38F54B95A9016F9000F9879C0D9D131768635CA798895F27D6F1614F11F2838A83611AA51C9A3DDB539D42979C29F10465655C17BEC3E2760B80DCBF609198C7B171A531905F3EC218D696025975E986C6B4C666666787271F202805577DD5A3EF0CAFAF91B62DC4B2DB4
310
217A7606282F31D8DDBC290593BAA93EA6353AFA9939B877978481E15CFC9F2755CDC00C538F63A4BA3E80AE009B73CA0185687D339A507D165B74290D6EE46D5C58148F020C3668ABE9EF2F7549170DC80DB41FFC1D678FF19AEB10C7133832B104B80F691B3138F97A92D26E551F1F110400D45AC71A9B9AC41A1A1B1DAE
310
ED0B0810638EFFB511D46B121C6FEA0F38CD00E03CFFEB9713FE1F9C263E4DDEC160D0497FA9A132BA608584057FB15380825DE6C7FC3C667EE947D488A09898D8E939C4953BF4EC9836344D2CC6B2971B2A21A572B06096F4982D2CC7232D46E8EA69DC83722E267754D777F97F96D5DA74E1E75178084D0E70F12AD33E5F
310
71EF2AFA599B2BEBF60A5BE475F444F240CBFE8143C334E7ED9150FEEFEF7EB020C4DBED388DD1D6A167A76F3CBF119B578AE8CFA7736ACAFA4440A1C47185638A0D2F3EB5BDDEFDA958FB13CE4AA4923D5BF840392D45544329525749734866684BF7F8D9D54D892E19BCA9F829A0F8BFCBEEA6CFDFC61D74EA1A645ED7A1
310
FF241739F15694BD835B66FEC5677E40FE69BD3F91AE402F036537218A401CB0828604AD189E575015C6F3F6BBC8AC79CF6C70653847254B31551EFCBEB5978B9DB85D58D0FA41A9DFE9C624834AA04949D24B5AE6D299E072D152D12097920F14AA92C31C3B97E28B6C2E6E9C23D63043ECBBC0A60FDF5BD0C33C127EA8A3
310
308B8B6AFFEB28B4455BF6E7AF4FC6222728357EB8E46E85053E6A8843AB23295BF838ABDA94658FEF3F832F147046B4ACD6F7D48E8FCC9618582961C898D1C7A253C91BFECBDA6BA18A1FCF70755DCCEE2222F41B76D23CA98D0CB3D95F0CF66D57FFF65E2A90F5DF40FC3187621E981BD0BC1D992787212688976B94A8F0
310
C6EF646624B570B78E068826F87CE27041A95C9A4871FF65CC17FCB1639629AD6A9517000D63AC231F3D741CB8430777E7ECF80CE7A3F73C0F162F7E56AA71F4DA80A33CD6ACEE78E2C11FAC03DAFCE929B106F8F6B3ED2DC71FF994BD9CEF4E9A94896EF1B6E2B7B4978168BCF0847A3D2A4F1B0500B926E634B174548E9F
310
BAD27153FB5FC36799B1E6C7C38A94E1F9E996796D7B485E635D5287A2AE76FBD11A341DB3F8F810385BB7296391973DC6C37C452A9305AEBBE0CDB6C566DB59FE60C8E94B1FD090354BF51439FFD1B48D725228FFA88C84F686F547107A7A235665A4593B7C34D748C1AC8D56DD5DA861EEFBADDECBBD65117E65851F9035
310
1AEB65F0EFCFF4BCFEF24CB7A5879699FAC437A7AF9099186CF006BB923A59E37D7A36A29FD8D2CBB914A5E9D0A8FD212FBF796AE9A67958FF1D5D8B85F78F96219D4714EB919929241B6C018AAE0C02069F8D919961EC5DDFBFB7573E3AC8E08BFB7C8534BE6DE045B3CD63DBD71F7638BA2309CAE398EA3A7D8F98BBBC7A
310
EB367EFA5CFA27A9F8F2F52FE878058E6209C026453F8E7E8A237DFC389E9590F6059B397CFD65183BBF936E86896612A5B5FEE49DAC8455D026218AFEBEC12B3523A45B57B82C9C97E02ACFA1184DB18E48CF615DBF39C3CC6F0B4AE6BBEEA2E39D944E290302FA3DE33FA7E40296E2EF7BF1CD855BBECFAD0FD622BEE974
310
6FC4FDFDE545AE6E3BC234CADF83A0FB76DFB145BF3828AE3436368AC24989454F8FF70A177672C711CAA1A76107218CF948CA01F873520E7A2B118EBB161ABAD432932029628B6761590C98AB590C8C8C79798CE9F715BA696E839E9131A4BB68BE923F1747FBFF165331FFDD4D05997ACD168F12CA75348DAC04C7F509FE
310
83898A8B421181AF492861CE81E4A2DD0A30850CFA95E05F097FF70F9E777310D584A75BA7018922E271DAB1D785671157685B7D383D3E074DDB4F1E44EF04B07BAAC75A062077C54B9752C738C9D804D402E02851F3F89605AF189738C18C021D2139EAF72513824E10DDD3047BACC8521ED7E98B257D1166903B1B08FA6F
310
918FD7E162913FEC7D0EF4787E29C35FBA8C6E2C9C20E9AB30AE42CA2A01A090E7D010C1B5BF9CEE2A304BF3A987FB40D836979B79E18D70F257DA61E808472DD85B82761825779D6B90CAEB0F23360C6F80A7D7D77545E95B3DFF0CF96A827F9B5BCECD2C9698718417EF80FEEDEE938AFF55859D0D540B7FE09435583A6F
310
04874A0C7E8CF234DF4879722000167F5872CEC6BF3EF7E5A8CC8121E6A359227C8A29C95212F9F735BC72A887D56B8F309FC525BFB4FD767AAEC4AEFF249CFBBD2DE1AB9969A6155C7D8DABC307E47324C1F916C7BCFF40ABA5644E9FFB9238D19ADADA49D9610F01ABBA57E4DFCBDCCBB2B93C8953206C91DE01B0E2651A
310
6D6C31721915B31F7B7CBCE55466F6D70402788FA91D73BE4ADCBA99A35F17D6B83383704917D6833F0FA3CD45C926ADB8BC17999A4A0AFBCE2541F7B8CF4C2F5FBA611B3E626D64407CB32C122DFF4EF8674D6EDBB86C8F7C6A16D50FA685E2CCA34F8F7D1D8265BB0042E9D7F1F666F7BE5FAA5184DF58E12122A42EF02F
310
461B3F369AC746F96528AD208512AB56844CF75B97F352DF7995024FB02855385854F3798670D01CAC771AC3E1889EC25F61A20C1F8CAB46898817F9C47E2CDA1F286BF2F358298709FE567C91133E2638C8B53975E753EA8BFD3578B5F7186B7BF084EBA3F77BAC3132A5779902EC22AF2D2E79F42D324E083386DAEE9810
310
D1B44A5DAA54513C7A71E52A4AB9257D975B621308FE4D2141CC3DCFE946C154A3C1DFCCA7629EC69ACFA831634ADDA93C0388D2A9A2DDAFCF957C6995BCE7FBB6DC4EBAE79E63EB08E9A25F52F67076F7093CA545CA3053B5BF576DEAD4E0017143C5F759F32B2D6F145B52B67B48909B7C7FCA6586EE385A2189C16932CB
310
6DDFD9152AE317C430492A578ED27B72D85D40C7C93C097939E1B50F4D67F05334FE9DC362C30B7FF561B95259138ECFD9274C8D695C31B14D4EAA9F3D7FA8DDF652F8C5DEFA23284C799B7D94416DEE81E05A866302DC70192A5368EA65E1CED8BF107A1E2D3119A71E85DC1A7B0C1E93274CE04DD0F2ABC8AC7C987FDB00
310
2B6F81757B43502EF7A0D92E416494FAEEA4C9C090CD9557AA4D532F4996A272B94355C5A0E4974EEA9627476F30809B94D8D8D860062E02204643BEC7D0438AF800FC7E2B26955D595421E83C69E1A07E0E3122285835F014AD538188CF9737CE76D464A353FA55A001AB2526B84E985083693BC76FE211CA1D000679C889
310
E3C009832C87E1AC2EDD05C302557422DF0800E316FCAC86978A371F025A6C7DAA9F333E7BD160403A1A06EA75AA9888FF01504B0304140006080800B45C8B5751464CB48900000043010000360000006662782F38333134343632422D374444382D344531392D424435382D4632393233454444303835412F646972656374
310
6F72792E786D6C9D8F310EC2300C45AF127987122606C71DD918B841D4B851A43646695A717C52A85029031293A5A76FBF6FACEF7DA7264E43906840EF0FA03836E242F406C6DCEE4EA06AC22492573150D1F66C60C640E8938CB705396EEDD86DE9B5042FE27813D640EA63BB001C722AF6E55CB61E4863F58284D5D3F53D
310
D715CE1C3985E63FD7F1B7EBDD617E9F1E504B0304140006080800B45C8B57B9FB6B9447070000541C0000340000006662782F38333134343632422D374444382D344531392D424435382D4632393233454444303835412F6F626A656374732E786D6CDD59596FDB3810FE2B84F665F74197AFD885E322B193C028D21635BA
310
D837819669871BEA0025254E7FFD0E29521615D9567A00C53A80AD50D470E69B7B347DBF8F187A223CA3497C69F98E67211287C986C6BB4BABC8B7F6D842EF6768CA9324AFEDB3508C23726989656B36DDF1A448D5D2866C71C19AABB7D7FFA02C2431B150C870965D5A59F84022ECE0224F36247B743638C7CE6EBB777CA7
310
DC6892DD719C3E348E4A3127710EACC27A0C541407BEF92F88E4CEA6AED8606CEB77DBD63BB1CD95829B8CD238CB711CBEE2AA715CEF08578DE3FAFE6071D31B4EECE160D0B707A39E6F5FDF5E2F6CFFA2EFCD47F3F9E4EA6662A1D9749D24AC52404AE20D68F1C59AF95357DCA9C45728B4F11D26714C428566DB860D5174
310
29C99A9818C0FA52B49A424A596B0BFD8EC21FD9D609148325036D2D9CFEAD5B6FB2FE1740C8BA5829CF88B0F22CE7A06B857DE90FDED42D570DBDD00C4538279C6286185D73CC4141B0B554904146788B20850466528B9A5E9D5730ECF3BED4C6E5B6604CF8AF35939E16803F923C939CD16F841FB8AF9F063C81B4058DF3
310
B112367F4981C464EACAC5F25EBFA76E9640A22DC33BB01610536CEAF71A78CD452C582EACD987DBF57E25E243FBE1294F52C2736179D29995DF690DD64C0B8CAF032825AEA6EE0EA87C01E83F02F2152F680A9AE3743FD80FB4EC1CC7D936E111680779C8F6E0CB43E2F2D5D5D4AD1E9E2164C4CA639882DBFE244C0D318C
310
B36B90CEA64F60F409EF2BE156216660D3F734167E0E868258024B10EFB7EBBD355B42308545780A33901EFEA6AEB844F053D28178D3D0505BF8EDA028ED304D3F3BE8EA0E6C86D3B0529521E3317C873F05DFABC5EAC3AAE05B1C927BE5D80BB2A531CD2199B63364806EB8FCD7E547E991772C59637678DAD814C231BB44
310
C48D16B5AC945A90D40B7022D270A919B9724FC1DB19C331498A4CADB7C5A93061090FD62F41E9C2AD67FDAD6DA03C4C19406B2C83E41E729A0A4CAC99D25615089D9AA06061982B0BDC955A0DD6459406384A8A5884DAD7A6D8E403E28CB044A02AA969C3D65EABC96EE8765B6410BC5A49CE0D20953F6BC2A5850F208EB5
310
F1CBC9966348A2491C50C8C1E02CAD27180754E09DE639236C1B50C68A28D85206792488707A847E4709EA99EB91BC3C277CD34AD0B42CED93DA8604E00A580D92CE5665CC573AE5E4898A3253E6339D0D8C1DAA0EB5668323E942648A1640B5319601C91FF53CFFDAB7FDE1CD953D984C6EEDAB8B8928A026DE6034180C2F
310
7C8047598944E010ADEAF90E5429CA1CC3FFF287225AC79832B82128E04DFAEEBDCC9E972E8446770C9509D468D7F6C56231B60737FEC4BE5E0CC7F66D6FD2EBDF2C16DE7878E5729225050F49E6F65C2FD02699C6BB635C55B154642D901FBE15A450D69C4F765A5F4D61FEC731B499130C25FEAE41B48A5D2D0561D7202A
310
1E6D86501C3E8A14158450F5B5BA4F238836F9688B736F8CCB9ED3F7E4C7F7273D6FD21B4F86C38E614F9EF4C391AE4D86103ACF220F921487346F4FA90D643AB2FCA6ECE2F4FD61898DFEEEF510E0D579B562EA7466524C0534C23B126CB1E82B5A42E939895BB3DE8E2559466392C9BEF055BDD8A0E939507E9959BAC56C
310
69164424C7DF63B1B2D168780144731640079B8B19C2D93AA27201D5B31CA328FA6548F552FE9720C351CACADEF81C067E4F43A0BBA2360B154C8B239EC03E039C07DE86C851C739EA15FBBAA268D55A93FAE4BBC91F81475742BF101E7D44F762CB19FA13F11943181A0DFDFEE8A252C539B4F461B9E8FD5801DD6AF8123C
310
13BA7BE8549C76D34AADCC2B0BF19C44D0FAE2BCE09D3C7604D144DB9616484586864BD44E7A6341297B3EDDF5C161B2E93B5612D78E81DA95C6301BEB24C82B295A8D58EA42CE01C5B8EB0D9EADB1394BF58723E62FAFB2EBEE174171D80507A8B0CB10ACE28F5187B756EA460D953DE33C8450BA92BFF63578C4866C0ECD
310
9C41AEADACD735EDB98A7B29426A04535E2C22EDBDB8605F30A81A3AEECCBD2B0B3DB75C5F8AD4E6C040FBC087C1B449EBD3DDAA4105563A3FFD5960449E1B14D4EA5C74D027487D5D1EE6040D0A4AA2AFCB138FFF165D885660AD1B81097296300A837CB2413B9240FE865145870E8547249379F9D0D9E8B7081D9E7E2AE7
310
B0395E33DD17850F1886D94CF56F45088354C89997965A477FC0E8544C2FE540CB7984D64DC5300B159C5E5A60B139850ECD59C3084C0E1C25F5C688131C1BC73B91F1CBA7AAFF0F8FBDEAD8AA3D5D70519219CE04A5702ADF2D40DD57DE984DBF5F74CD0EC2395CAE8BBC12E6B070904681A05F2294C2C1A4F051C1BB8792
310
E2B45CBE23F7184D6CA769FE493B28A9DA39E63B3992AFD9E4D5E2B32BA6E9CB4F2865C54EA8F354C76C50B245A7CE8A72723505C35062A6585491F377EE679EC06BA908DD523002F4E77E3CFACB9D275194C4E5927BA55E6EA1D503BCAADAB87A4C08ADBFE78F5D393950AF028235CE888337D9232C806A3915F3D41262C3
310
00AA685A3300AD11A10B78CCD8BF5C20551DD5A62AF5B02BE091EF0110389278FF23DCA6BEA136B4045F00AEE4CDC3855E98BA1C06E7B3FF00504B0304140006080800B45C8B572040E934E1000000550100003C0000006662782F38333134343632422D374444382D344531392D424435382D463239323345444430383541
310
2F7265736F75726365732F322F636E782E786D6C4D90CD6AC33010845FC5087AB464398596202B2F91532F419137AA88AC35FA29EDDB6795AAD0D32E331FCBECA8D3F716862F48D9635C98E4131B205A5C7D740BABE536BEB3E1A455422CFF303644B3C1C29ACCB47209EBDEA5156EA686A6061FEF5D9C2E0E22246F2F7B74
310
6CB0C1E4BCB06C3F6133DCD4822BE43B5F4D315CF204196BB240278ADFA09FB0094C8195E9799A0FA39C4729CF521E0F6FC757F9A14423B5BA2286CEFB5820E1FE324F16698D946852A2015AD5E43BD5DE20E32F1EA7784A90AD552E893AE858F9D909F39B71209EC8AFAB95684FD2783640B315A21F504B03041400060808
310
00B45C8B57FF15A4A45D000000800000003A0000006662782F38333134343632422D374444382D344531392D424435382D4632393233454444303835412F7265736F75726365732F636E782E786D6C4D8B3B0E80201005AF42B6F75B59F0390B113044D83508C6E30BC6C26AF226F3B8BA6360974DA7271430F523308B2B19
310
8F9B80925DB700539227A2FCCB80A18E5640D320F996A81C9F32D6E9129A0D1EF74FCE750E6D57BC7165FBCA07504B0304140006080800B45C8B57272C93194201000056050000300000006662782F38333134343632422D374444382D344531392D424435382D4632393233454444303835412F636E782E786D6CCD94C14A
310
033110865F650978DCEC662B28259B82079FC08378CB66A76B6C36599289D8B737A9DB5691A287427B0B932FF0FF337F86AF3E4653BC830FDAD996305A9302AC72BDB6434B22AECB7B52AC04F7CEE1378C14568ED0925C26820FDEC5692EF5B096D1E4AAD176331725A2D75D4408A4504686D092A05E61945446743D840DED
310
254ACAA887E0A25790DEA31E617EAF3C48849E88A66E16256B4AC69E185B2EEE96B7EC85579914BC73CECCBCB608DE4D374DAD5C3ADA24A7E65506048F5ECF54F640C4511BEDB4E555BA173C24BD769839DC4E999B26A395C4D4A8CA29042C130472E4D5172C78951DFFF0FDF8F07CD4904EBDF6A0D0F9EDC5DAC04EB5E120
310
8DA644FCAF0B3BF02FF3AE7B4B962F37F79386676167B3BB4F6E48D1FD9D8494276907738D1FE020EDFCF94F8B05B5BA46D37B6567F25CED56601A7CDE88E213504B0304140006080800B45C8B5785565E177E000000A30000000B0000006662782F636E782E786D6C4D8CD10E822018465F85FDF79420166E80CB61EFE112
310
1D13A191B41E3F685E74F56D67DF39A2FB6C0EBD4D7CD9E025905305C8F84798AC5F24A47DC61C50A7440C61FFBB01F2E36624140C4A2C31A4E78126338FC915EAAC5F0FC86BC2D885F6F8AA35C76C202DEE75C3F19DB6B41EB4AE7873CBC6B928797EBDBC25AFBE504B0304140006080800B45C8B57A6D797065F00000082
310
00000007000000636E782E786D6C4DCB3B0E80201045D1AD90E9FD7516806B51190811670C8A61F982B1B0BAC9C97B72CA7B1037C6D3332918DA1E04D2CAC69353902EDB8C20262D23F3F59B81A079470595414B17391D1F19B4730A5583A7ED43BBE4025D9592775E5ADFFA01504B0304140006080800B45C8B57ECFD112D
310
A800000026010000130000005B436F6E74656E745F54797065735D2E786D6C7D4F4B0EC22010BD0A61DF525D18634ABB506FE00510A79458060253536F2FD89D5197F3FED3F68B9BD80362B21E25DFD40D6780DADF2C1AC9671AAA3D677DD75E9E0112CB5A4C928F44E12044D22338956A1F003333F8E814E5331A1194BE2B
310
0362DB343BA13D122055543278D79E6050F344ECBC6478EDCD76CE8EABAE5449AE4298AC56946789C28AAFBEABC53F3EAF09A84A1441B91F0101CD4780756578C173A578FFDDBD00504B0304140006080800B45C8B573DEE336E64000000790000001B0000006175746F6465736B2D64657369676E2D7061636B6167652E78
310
6D6C35CBC10E83200C00D05F21DCA56CA76D41FC96062B120735B69A7DBE268BB7777961F8D5AF396893C2ADB70FE7ADA196782C2DF776D7A97B5933C430F15651E5469C55D70F80A4992A3ADC954792C525AE70A1E4D6AD9816CC044FEFDF01FE3FDE907802504B0304140006080800B45C8B579F2553A7F00000008E0100
310
003D0000006662782F38333134343632422D374444382D344531392D424435382D4632393233454444303835412F7265736F75726365732F322F636F72652E786D6C8550CB6EC32010FC158B3BB6179CD88A305155D95FD0536F08888B1283C5A3EAE71762576A4F3DED6A76667677D8F56B7D549FDA07E3EC88A06E51A5AD
310
74CAD8654429DEF080AA2B67DEB9F88B862A2B563DA20223CE16EFD27640D2D9A86D41AD53FA0045083AA24A3E7233A2203FF42A6A916266847BBD0979178BAEA1DE799CA564D421352ABB999BD11E714AE79E02CC78389F26DC7530958E60FA7A7A21D3D0CF2D3DB3A688398B66FDD92EBD16512BC4494B28068201DE002E
310
B4BF74F0CE9AC2E42C449F7F3E9696EF329D353BFAC72D6DEA7FB7646CA4E470DB150171C8C73D079C35259D5C9ED1E55A92E4DF504B0304140006080800B45C8B571251ADBEF6000000960100003B0000006662782F38333134343632422D374444382D344531392D424435382D4632393233454444303835412F7265736F
310
75726365732F636F72652E786D6C8550CB6E833010FC15B4771EB6494091715455F0053DF566990DB5126CE447D5CFAF1DA8D49E7ADAD5ECCCECEEF0EBD7FA283ED1796DCD00A46AA040A3ECACCD32400CB7B287E22AB8B336FCA24161E48A036418045F9C8DDB01296B029A8C1A3BE3014AEF3140A11EA919C0AB0F5C6525
310
63480C7FAF36A9EE72C18A543B4FF018F57C48F59CDCF44DA303C1D8D43142A6B23F9FC6B26DC9983B5AB2D7D30B1DFB6E6AD899D7592C78D0EBCF76E550069C41D086B292D0929037422EACBBB4E49DD79929B80F2EFD7C2CCDDF8170E86D740A3DAFF7E91FD7B8CDFFBB466D02A387EBAEF020483AF23910BCCE29A5F28C
310
30D59CA8F806504B0304140006080800B45C8B570ED78455F2000000B1010000310000006662782F38333134343632422D374444382D344531392D424435382D4632393233454444303835412F636F72652E786D6C8D50CB6EC32010FC156BEF60839DC689305123A75FD0536F08888B1283C5A3EAE71762576A6F392D9A9D
310
6166879DBEE77BF5A57D30CE0E40700395B6D22963A70152BCA21EAA1367DEB9F887069515B31EA0C0C0D9E45D5A36483A1BB52DA8754A6FA0084147A8E43D3F0608F253CF028B143323DCF022E44D4C1A13BCF2388B66FE954AAF45D40A386D688B084584BC13726CF7C78E7CB0BA30394BC9A8CDCAA8EC6EAE467BE07D4B
310
BAEE859ED17E1C7BD45DC8019DC75D8FDEE881B697716CFADD2BAB8B98B3107DBE79FBA45CF7AC7C15FECB9C16F5446663634B37C3551180939CE7B1E0AC2E05E6F16837CF5236FF01504B0304140006080800B45C8B57D19FE88A51010000DD0200000C0000006662782F636F72652E786D6C8D52CB6E833010FC15E43B0F
310
63F250641C5555F2053DF5E618875A011B191BE5F3BBE621CAA1698504ABD9DD999D11F4FC6C9B6890B65746970827198AA416A652BA2E9177F7F888A233A3D618F7630C459AB7B24401468CD6D6F86E8684D14EEA806A53C919E47D2F1D8A440345897AF1255B9E70EF60A27F241D170F5ECB0427D31CA3DEAB6A5E5515B0
310
A9BB92163142AE0782F1353EEE7797B828F02554794CDE776FF9E578B866644FD3B0CCA853EDA22EACE44E5688E5594E629CC7187F607C228753813F691A2619ED9D05CFB3687087D8FDF6A4E9846FF87C57FDCDE79576249FF9A68D1E310CE78D0D46D3900F7CC6F0B6198230E4E7F8AD592C3C001AA470C616D0A98C5F5B
310
036FBC04EA2C1A1F9A4E5D601E097EE3C95FF0BCE680A0B8AEE134EEA0BC7917D4B73775D2C6837B46DAD89637EB71D389EB7B15DA585AD685698CFDCFF6627509330D3F26FB06504B0304140006080800B45C8B578A673B7405010000B201000008000000636F72652E786D6C8D50416EC32010FC0ADA3BB601278E224C54
310
55F60B7AEA8D0271506CB00C8EDADF1762576A6F3DED6A66766776F9E5731AD1C32CC17AD702292A40C629AFAD1B5A58E3159F005D045FBC8FBF64809C9C4C0B1906C187C5AFF30E29EFA27119755E9B1D94219808488DA96921A89B996421D79814E15ECC52DDE5600A526C3AC1A39D7E46D56264341A04AD28C3846242DE
310
0839B3E65C93775E66A5E0EB6AF56E657572B7576B16108CF50D23A4C7A7E3A1C3754DBADC51CC5E0F2FB43B357DC58EBCCCC38287B8A49BF725296744413EB22F2F374AF00FEFC75D904269E4DDF805A2E26526FE845E67FD8FD0D64546F785DB44004152A027918CF3075379BE37D5FC6DF10D504B010214001400060808
310
00B45C8B570000000000000000000000003700000000000000000000000000000000006662782F38333134343632422D374444382D344531392D424435382D4632393233454444303835412F617474726962757465732E62696E504B01021400140006080800B45C8B57000000000000000000000000350000000000000000
310
0000000000550000006662782F38333134343632422D374444382D344531392D424435382D4632393233454444303835412F76657274696365732E62696E504B01021400140006080800B45C8B57F270F13306000000040000003600000000000000000000000000A80000006662782F38333134343632422D374444382D34
310
4531392D424435382D4632393233454444303835412F747269616E676C65732E62696E504B01021400140006080800B45C8B5788E57597CD3F0000904100004200000000000000000000000000020100006662782F38333134343632422D374444382D344531392D424435382D4632393233454444303835412F7265736F75
310
726365732F322F305F67656E657269632E706E67504B01021400140006080800B45C8B5751464CB4890000004301000036000000000000000000000000002F4100006662782F38333134343632422D374444382D344531392D424435382D4632393233454444303835412F6469726563746F72792E786D6C504B0102140014
310
0006080800B45C8B57B9FB6B9447070000541C000034000000000000000000000000000C4200006662782F38333134343632422D374444382D344531392D424435382D4632393233454444303835412F6F626A656374732E786D6C504B01021400140006080800B45C8B572040E934E1000000550100003C00000000000000
310
000000000000A54900006662782F38333134343632422D374444382D344531392D424435382D4632393233454444303835412F7265736F75726365732F322F636E782E786D6C504B01021400140006080800B45C8B57FF15A4A45D000000800000003A00000000000000000000000000E04A00006662782F38333134343632
310
422D374444382D344531392D424435382D4632393233454444303835412F7265736F75726365732F636E782E786D6C504B01021400140006080800B45C8B57272C931942010000560500003000000000000000000000000000954B00006662782F38333134343632422D374444382D344531392D424435382D463239323345
310
4444303835412F636E782E786D6C504B01021400140006080800B45C8B5785565E177E000000A30000000B00000000000000000000000000254D00006662782F636E782E786D6C504B01021400140006080800B45C8B57A6D797065F000000820000000700000000000000000000000000CC4D0000636E782E786D6C504B01
310
021400140006080800B45C8B57ECFD112DA8000000260100001300000000000000000000000000504E00005B436F6E74656E745F54797065735D2E786D6C504B01021400140006080800B45C8B573DEE336E64000000790000001B00000000000000000000000000294F00006175746F6465736B2D64657369676E2D706163
310
6B6167652E786D6C504B01021400140006080800B45C8B579F2553A7F00000008E0100003D00000000000000000000000000C64F00006662782F38333134343632422D374444382D344531392D424435382D4632393233454444303835412F7265736F75726365732F322F636F72652E786D6C504B01021400140006080800
310
B45C8B571251ADBEF6000000960100003B00000000000000000000000000115100006662782F38333134343632422D374444382D344531392D424435382D4632393233454444303835412F7265736F75726365732F636F72652E786D6C504B01021400140006080800B45C8B570ED78455F2000000B1010000310000000000
310
0000000000000000605200006662782F38333134343632422D374444382D344531392D424435382D4632393233454444303835412F636F72652E786D6C504B01021400140006080800B45C8B57D19FE88A51010000DD0200000C00000000000000000000000000A15300006662782F636F72652E786D6C504B010214001400
310
06080800B45C8B578A673B7405010000B201000008000000000000000000000000001C550000636F72652E786D6C504B050600000000120012002D060000475600000000
  0
XRECORD
  5
11
102
{ACAD_REACTORS
330
E
102
}
330
E
100
AcDbXrecord
280
     1
270
     1
271
     1
  0
XRECORD
  5
12
102
{ACAD_REACTORS
330
E
102
}
330
E
100
AcDbXrecord
280
     1
270
     1
271
     1
  0
XRECORD
  5
13
102
{ACAD_REACTORS
330
E
102
}
330
E
100
AcDbXrecord
280
     1
270
     1
271
     1
  0
XRECORD
  5
14
102
{ACAD_REACTORS
330
E
102
}
330
E
100
AcDbXrecord
280
     1
270
     1
271
     1
  0
CELLSTYLEMAP
  5
B9C
102
{ACAD_REACTORS
330
1F9
102
}
330
1F9
100
AcDbCellStyleMap
 90
        3
300
CELLSTYLE
  1
TABLEFORMAT_BEGIN
 90
        5
170
     1
 91
        0
 92
    32768
 62
   257
 93
        1
300
CONTENTFORMAT
  1
CONTENTFORMAT_BEGIN
 90
        0
 91
        0
 92
      512
 93
        0
300

 40
0.0
140
1.0
 94
        5
 62
     0
340
48
144
0.25
309
CONTENTFORMAT_END
171
     1
301
MARGIN
  1
CELLMARGIN_BEGIN
 40
0.06
 40
0.06
 40
0.06
 40
0.06
 40
0.18
 40
0.18
309
CELLMARGIN_END
 94
        6
 95
        1
302
GRIDFORMAT
  1
GRIDFORMAT_BEGIN
 90
        0
 91
        1
 62
     0
 92
       -2
340
0
 93
        0
 40
0.045
309
GRIDFORMAT_END
 95
        2
302
GRIDFORMAT
  1
GRIDFORMAT_BEGIN
 90
        0
 91
        1
 62
     0
 92
       -2
340
0
 93
        0
 40
0.045
309
GRIDFORMAT_END
 95
        4
302
GRIDFORMAT
  1
GRIDFORMAT_BEGIN
 90
        0
 91
        1
 62
     0
 92
       -2
340
0
 93
        0
 40
0.045
309
GRIDFORMAT_END
 95
        8
302
GRIDFORMAT
  1
GRIDFORMAT_BEGIN
 90
        0
 91
        1
 62
     0
 92
       -2
340
0
 93
        0
 40
0.045
309
GRIDFORMAT_END
 95
       16
302
GRIDFORMAT
  1
GRIDFORMAT_BEGIN
 90
        0
 91
        1
 62
     0
 92
       -2
340
0
 93
        0
 40
0.045
309
GRIDFORMAT_END
 95
       32
302
GRIDFORMAT
  1
GRIDFORMAT_BEGIN
 90
        0
 91
        1
 62
     0
 92
       -2
340
0
 93
        0
 40
0.045
309
GRIDFORMAT_END
309
TABLEFORMAT_END
  1
CELLSTYLE_BEGIN
 90
        1
 91
        1
300
_TITLE
309
CELLSTYLE_END
300
CELLSTYLE
  1
TABLEFORMAT_BEGIN
 90
        5
170
     1
 91
        0
 92
        0
 62
   257
 93
        1
300
CONTENTFORMAT
  1
CONTENTFORMAT_BEGIN
 90
        0
 91
        0
 92
      512
 93
        0
300

 40
0.0
140
1.0
 94
        5
 62
     0
340
48
144
0.18
309
CONTENTFORMAT_END
171
     1
301
MARGIN
  1
CELLMARGIN_BEGIN
 40
0.06
 40
0.06
 40
0.06
 40
0.06
 40
0.18
 40
0.18
309
CELLMARGIN_END
 94
        6
 95
        1
302
GRIDFORMAT
  1
GRIDFORMAT_BEGIN
 90
        0
 91
        1
 62
     0
 92
       -2
340
0
 93
        0
 40
0.045
309
GRIDFORMAT_END
 95
        2
302
GRIDFORMAT
  1
GRIDFORMAT_BEGIN
 90
        0
 91
        1
 62
     0
 92
       -2
340
0
 93
        0
 40
0.045
309
GRIDFORMAT_END
 95
        4
302
GRIDFORMAT
  1
GRIDFORMAT_BEGIN
 90
        0
 91
        1
 62
     0
 92
       -2
340
0
 93
        0
 40
0.045
309
GRIDFORMAT_END
 95
        8
302
GRIDFORMAT
  1
GRIDFORMAT_BEGIN
 90
        0
 91
        1
 62
     0
 92
       -2
340
0
 93
        0
 40
0.045
309
GRIDFORMAT_END
 95
       16
302
GRIDFORMAT
  1
GRIDFORMAT_BEGIN
 90
        0
 91
        1
 62
     0
 92
       -2
340
0
 93
        0
 40
0.045
309
GRIDFORMAT_END
 95
       32
302
GRIDFORMAT
  1
GRIDFORMAT_BEGIN
 90
        0
 91
        1
 62
     0
 92
       -2
340
0
 93
        0
 40
0.045
309
GRIDFORMAT_END
309
TABLEFORMAT_END
  1
CELLSTYLE_BEGIN
 90
        2
 91
        1
300
_HEADER
309
CELLSTYLE_END
300
CELLSTYLE
  1
TABLEFORMAT_BEGIN
 90
        5
170
     1
 91
        0
 92
        0
 62
   257
 93
        1
300
CONTENTFORMAT
  1
CONTENTFORMAT_BEGIN
 90
        0
 91
        0
 92
      512
 93
        0
300

 40
0.0
140
1.0
 94
        2
 62
     0
340
48
144
0.18
309
CONTENTFORMAT_END
171
     1
301
MARGIN
  1
CELLMARGIN_BEGIN
 40
0.06
 40
0.06
 40
0.06
 40
0.06
 40
0.18
 40
0.18
309
CELLMARGIN_END
 94
        6
 95
        1
302
GRIDFORMAT
  1
GRIDFORMAT_BEGIN
 90
        0
 91
        1
 62
     0
 92
       -2
340
0
 93
        0
 40
0.045
309
GRIDFORMAT_END
 95
        2
302
GRIDFORMAT
  1
GRIDFORMAT_BEGIN
 90
        0
 91
        1
 62
     0
 92
       -2
340
0
 93
        0
 40
0.045
309
GRIDFORMAT_END
 95
        4
302
GRIDFORMAT
  1
GRIDFORMAT_BEGIN
 90
        0
 91
        1
 62
     0
 92
       -2
340
0
 93
        0
 40
0.045
309
GRIDFORMAT_END
 95
        8
302
GRIDFORMAT
  1
GRIDFORMAT_BEGIN
 90
        0
 91
        1
 62
     0
 92
       -2
340
0
 93
        0
 40
0.045
309
GRIDFORMAT_END
 95
       16
302
GRIDFORMAT
  1
GRIDFORMAT_BEGIN
 90
        0
 91
        1
 62
     0
 92
       -2
340
0
 93
        0
 40
0.045
309
GRIDFORMAT_END
 95
       32
302
GRIDFORMAT
  1
GRIDFORMAT_BEGIN
 90
        0
 91
        1
 62
     0
 92
       -2
340
0
 93
        0
 40
0.045
309
GRIDFORMAT_END
309
TABLEFORMAT_END
  1
CELLSTYLE_BEGIN
 90
        3
 91
        2
300
_DATA
309
CELLSTYLE_END
  0
ENDSEC
  0
SECTION
  2
ACDSDATA
 70
     2
 71
     2
  0
ACDSSCHEMA
 90
        0
  1
AcDb_Thumbnail_Schema
  2
AcDbDs::ID
280
    10
 91
        0
  2
Thumbnail_Data
280
    15
 91
        0
101
ACDSRECORD
 95
        0
 90
        2
  2
AcDbDs::TreatedAsObjectData
280
     1
291
     1
101
ACDSRECORD
 95
        0
 90
        3
  2
AcDbDs::Legacy
280
     1
291
     1
101
ACDSRECORD
  1
AcDbDs::ID
 90
        4
  2
AcDs:Indexable
280
     1
291
     1
101
ACDSRECORD
  1
AcDbDs::ID
 90
        5
  2
AcDbDs::HandleAttribute
280
     7
282
     1
  0
ACDSSCHEMA
 90
        1
  1
AcDb3DSolid_ASM_Data
  2
AcDbDs::ID
280
    10
 91
        0
  2
ASM_Data
280
    15
 91
        0
101
ACDSRECORD
 95
        1
 90
        2
  2
AcDbDs::TreatedAsObjectData
280
     1
291
     1
101
ACDSRECORD
 95
        1
 90
        3
  2
AcDbDs::Legacy
280
     1
291
     1
101
ACDSRECORD
  1
AcDbDs::ID
 90
        4
  2
AcDs:Indexable
280
     1
291
     1
101
ACDSRECORD
  1
AcDbDs::ID
 90
        5
  2
AcDbDs::HandleAttribute
280
     7
282
     1
  0
ACDSSCHEMA
 90
        2
  1
AcDbDs::TreatedAsObjectDataSchema
  2
AcDbDs::TreatedAsObjectData
280
     1
 91
        0
  0
ACDSSCHEMA
 90
        3
  1
AcDbDs::LegacySchema
  2
AcDbDs::Legacy
280
     1
 91
        0
  0
ACDSSCHEMA
 90
        4
  1
AcDbDs::IndexedPropertySchema
  2
AcDs:Indexable
280
     1
 91
        0
  0
ACDSSCHEMA
 90
        5
  1
AcDbDs::HandleAttributeSchema
  2
AcDbDs::HandleAttribute
280
     7
 91
        8
  0
ACDSRECORD
 90
        0
  2
AcDbDs::ID
280
    10
320
1C1
  2
Thumbnail_Data
280
    15
 94
     2085
310
89504E470D0A1A0A0000000D4948445200000100000000700803000000C6F95E2100000300504C5445000000FFFFFF0000000000000000000000000000000000000000000000000000000000330000660000990000CC0000FF0033000033330033660033990033CC0033FF0066000066330066660066990066CC0066FF0099
310
000099330099660099990099CC0099FF00CC0000CC3300CC6600CC9900CCCC00CCFF00FF0000FF3300FF6600FF9900FFCC00FFFF3300003300333300663300993300CC3300FF3333003333333333663333993333CC3333FF3366003366333366663366993366CC3366FF3399003399333399663399993399CC3399FF33CC00
310
33CC3333CC6633CC9933CCCC33CCFF33FF0033FF3333FF6633FF9933FFCC33FFFF6600006600336600666600996600CC6600FF6633006633336633666633996633CC6633FF6666006666336666666666996666CC6666FF6699006699336699666699996699CC6699FF66CC0066CC3366CC6666CC9966CCCC66CCFF66FF0066
310
FF3366FF6666FF9966FFCC66FFFF9900009900339900669900999900CC9900FF9933009933339933669933999933CC9933FF9966009966339966669966999966CC9966FF9999009999339999669999999999CC9999FF99CC0099CC3399CC6699CC9999CCCC99CCFF99FF0099FF3399FF6699FF9999FFCC99FFFFCC0000CC00
310
33CC0066CC0099CC00CCCC00FFCC3300CC3333CC3366CC3399CC33CCCC33FFCC6600CC6633CC6666CC6699CC66CCCC66FFCC9900CC9933CC9966CC9999CC99CCCC99FFCCCC00CCCC33CCCC66CCCC99CCCCCCCCCCFFCCFF00CCFF33CCFF66CCFF99CCFFCCCCFFFFFF0000FF0033FF0066FF0099FF00CCFF00FFFF3300FF3333
310
FF3366FF3399FF33CCFF33FFFF6600FF6633FF6666FF6699FF66CCFF66FFFF9900FF9933FF9966FF9999FF99CCFF99FFFFCC00FFCC33FFCC66FFCC99FFCCCCFFCCFFFFFF00FFFF33FFFF66FFFF99FFFFCCFFFFFF0000000D0D0D1A1A1A2828283535354343435050505D5D5D6B6B6B787878868686939393A1A1A1AEAEAEBB
310
BBBBC9C9C9D6D6D6E4E4E4F1F1F1FFFFFF0000000000000000000000000000000000000000000000000000000000003AE5ACE900000001624B47440088051D48000000097048597300000EC400000EC401952B0E1B000004BE49444154789CED9DC19AAB200C46F3386C7CFF9D1B9F89FD28040818019916A2E5FF6EABAD28
310
E69804507A07E0AE56D1BA6DCE7DF5A8A3597D00E8481DAAAC572700B033B0EF6621481340973AACE913C00D005BCBA6962D230084B389CE6BA39FAEB7C0673F8C680524A99F07C8D40430014C001D6A990026805F07B065FA7563A5B709A0432D3304268009A0432D4D9A00268009A0432D13C004300174A8A54913C01C0D
310
4E0FE850CB0430014C001D6A69D204F04A000A555174029003207B22F72656D5DB2F16C0A6B648EAEED43203A0028318005AAF918DC769ADC6729C5C0176764995D0F62701D006003170B52F0DDEF663E578C5BE7175FAC67239000A832163DAAAFDFCA965590200B000C07E00ED5FA62C7BFAC4034AA726E2D198B11F564D
310
5C605977084B0A0031F81782E2240C403E046C98DB10C082BB610C00480098720559060A2E7048C801E7C9DBC7953D3CA034CDFBCA035CFE53BE47201A0066B8354CA2348619E3FE1502048085C2D52D0280312D4D82A51050590091A22621C62002807581D5E642A3EB56C035865A6FC556C035062110CE71200380EF07D0
310
5DCC6E0A5B06E5277626FD80AB34CF0000C9008E425199E3B40E53ED05D79B69FAA3F29FB9CF2A0900FDB0ADE958E0543E03204EFFD9EEA054004E1BD80E11636DDE031E0880954DF50D00A28364084807B07B00DC07700E81E702C04E1F63C0A342A0F9D1D8169647281CCE906E2A293F20123118CA8858D90A202FF921E0
310
5797C5360878C8F5370064C68219CF4E3360260F4A07D0A89F07E00780F8CF7EC3957B27007A23A0D016BE1300A441F0C300F2DDA0B70248B2DFEF01009704C1BC7204DE0920F580070F869A250C40FF7982FE79880F0387C1DD28B412F168EC1BE2BA825C8B287D34D8AC4B00CA3E27737A710E6092BF72CF87D009D45B01
310
842BCF87007976FC4E00C0870044DFFC06806253F84E006CF21308804E09F98A2A66CA8D04808FFDBE505F3A4122F36C6020003B1DE05B3EF00400CE05BE1706CA4D87183E166000E0543732316A88460120131FD3E7FE7D35683488F10F152D41F37F1256A7ADCB38EDE4017EFA2B141B021DBF715BE98A06B6A89B5ECA1C
310
604808A0EBEB8AAEC05D007C5A4D01F8AC3814405557A8CDB371E760E705984100C8C914DBC0DB21C07B80340021F4FB02607C651080CC4581A4EC4764899BCAC86078A00704DB0AFB7EA81520B4A3D1E11000240194BBC15F0000A33DC0C7694D17B0C1D7C3814FAD0053BE3F00FA23A0B26800D378D6E43BC086DE0F2FB8
310
7E0059441BBA77855D2EAAB39F5EBBF375F4504013541C00572ABD4934E0C18826AF0AD5397EAD460120D66A77F96B01845F8B448E40C613B18976A7E43DDA1A1FBE3B80AB447D213A68480CE5BE7649308CB3CE8CE2F29D01E089D7DF03A8F6EED43FA8D5C39360D25EB3CE7821BC6BA23168FD12BF8E8E0BD7BC8072183A
310
1A4402D5FBBA53E700588B8C316E457E0E007A212A743B044C6E4758071371006E5D7F1A02107B006E8578050184B2665D5012BC2D77A2D500E277E701F8CB93F3E11F03E09FB293CDCF3FD37D008068912E5DD70E8867840E52B074B7737D2A009BBB749AEDAD891A9F0342DA3A300076022AD5530084FC9DB6F76700242F
310
50007B1260660DF40320569D00105DFEC19BDCDFD269DAA9EE431700A275DB9C3F31EEB38EED75C0360000000049454E44AE426082
  0
ENDSEC
  0
EOF
