  0
SECTION
  2
HEADER
  9
$ACADVER
  1
AC1021
  9
$ACADMAINTVER
 70
    25
  9
$DWGCODEPAGE
  3
ANSI_936
  9
$LASTSAVEDBY
  1
14609
  9
$INSBASE
 10
0.0
 20
0.0
 30
0.0
  9
$EXTMIN
 10
531.0145825243231
 20
184.1768297936648
 30
0.0
  9
$EXTMAX
 10
679.5139576665757
 20
289.1768299845588
 30
0.0
  9
$LIMMIN
 10
0.0
 20
0.0
  9
$LIMMAX
 10
12.0
 20
9.0
  9
$ORTHOMODE
 70
     0
  9
$REGENMODE
 70
     1
  9
$FILLMODE
 70
     1
  9
$QTEXTMODE
 70
     0
  9
$MIRRTEXT
 70
     1
  9
$LTSCALE
 40
1.0
  9
$ATTMODE
 70
     1
  9
$TEXTSIZE
 40
0.2
  9
$TRACEWID
 40
0.05
  9
$TEXTSTYLE
  7
Standard
  9
$CLAYER
  8
DIM
  9
$CELTYPE
  6
ByLayer
  9
$CECOLOR
 62
   256
  9
$CELTSCALE
 40
1.0
  9
$DISPSILH
 70
     0
  9
$DIMSCALE
 40
1.0
  9
$DIMASZ
 40
1.5
  9
$DIMEXO
 40
0.2
  9
$DIMDLI
 40
0.2
  9
$DIMRND
 40
0.0
  9
$DIMDLE
 40
0.0
  9
$DIMEXE
 40
0.3
  9
$DIMTP
 40
0.0
  9
$DIMTM
 40
0.0
  9
$DIMTXT
 40
2.0
  9
$DIMCEN
 40
0.0
  9
$DIMTSZ
 40
0.0
  9
$DIMTOL
 70
     0
  9
$DIMLIM
 70
     0
  9
$DIMTIH
 70
     0
  9
$DIMTOH
 70
     0
  9
$DIMSE1
 70
     0
  9
$DIMSE2
 70
     0
  9
$DIMTAD
 70
     1
  9
$DIMZIN
 70
     8
  9
$DIMBLK
  1

  9
$DIMASO
 70
     1
  9
$DIMSHO
 70
     1
  9
$DIMPOST
  1

  9
$DIMAPOST
  1

  9
$DIMALT
 70
     0
  9
$DIMALTD
 70
     2
  9
$DIMALTF
 40
25.4
  9
$DIMLFAC
 40
1.0
  9
$DIMTOFL
 70
     0
  9
$DIMTVP
 40
0.0
  9
$DIMTIX
 70
     0
  9
$DIMSOXD
 70
     0
  9
$DIMSAH
 70
     0
  9
$DIMBLK1
  1

  9
$DIMBLK2
  1

  9
$DIMSTYLE
  2
01
  9
$DIMCLRD
 70
     1
  9
$DIMCLRE
 70
     6
  9
$DIMCLRT
 70
     4
  9
$DIMTFAC
 40
1.0
  9
$DIMGAP
 40
0.3
  9
$DIMJUST
 70
     0
  9
$DIMSD1
 70
     0
  9
$DIMSD2
 70
     0
  9
$DIMTOLJ
 70
     1
  9
$DIMTZIN
 70
     0
  9
$DIMALTZ
 70
     0
  9
$DIMALTTZ
 70
     0
  9
$DIMUPT
 70
     0
  9
$DIMDEC
 70
     1
  9
$DIMTDEC
 70
     1
  9
$DIMALTU
 70
     2
  9
$DIMALTTD
 70
     2
  9
$DIMTXSTY
  7
Romans字体
  9
$DIMAUNIT
 70
     0
  9
$DIMADEC
 70
     2
  9
$DIMALTRND
 40
0.0
  9
$DIMAZIN
 70
     2
  9
$DIMDSEP
 70
    46
  9
$DIMATFIT
 70
     3
  9
$DIMFRAC
 70
     0
  9
$DIMLDRBLK
  1

  9
$DIMLUNIT
 70
     2
  9
$DIMLWD
 70
    -2
  9
$DIMLWE
 70
    -2
  9
$DIMTMOVE
 70
     0
  9
$DIMFXL
 40
1.0
  9
$DIMFXLON
 70
     0
  9
$DIMJOGANG
 40
0.7853981633974483
  9
$DIMTFILL
 70
     0
  9
$DIMTFILLCLR
 70
     0
  9
$DIMARCSYM
 70
     0
  9
$DIMLTYPE
  6

  9
$DIMLTEX1
  6

  9
$DIMLTEX2
  6

  9
$LUNITS
 70
     2
  9
$LUPREC
 70
     4
  9
$SKETCHINC
 40
0.1
  9
$FILLETRAD
 40
0.5
  9
$AUNITS
 70
     0
  9
$AUPREC
 70
     0
  9
$MENU
  1
.
  9
$ELEVATION
 40
0.0
  9
$PELEVATION
 40
0.0
  9
$THICKNESS
 40
0.0
  9
$LIMCHECK
 70
     0
  9
$CHAMFERA
 40
0.5
  9
$CHAMFERB
 40
0.5
  9
$CHAMFERC
 40
1.0
  9
$CHAMFERD
 40
0.0
  9
$SKPOLY
 70
     0
  9
$TDCREATE
 40
2456524.383632987
  9
$TDUCREATE
 40
2456524.050299653
  9
$TDUPDATE
 40
2460346.538124908
  9
$TDUUPDATE
 40
2460346.204791574
  9
$TDINDWG
 40
1.3207500579
  9
$TDUSRTIMER
 40
1.3207281134
  9
$USRTIMER
 70
     1
  9
$ANGBASE
 50
0.0
  9
$ANGDIR
 70
     0
  9
$PDMODE
 70
     0
  9
$PDSIZE
 40
0.0
  9
$PLINEWID
 40
0.0
  9
$SPLFRAME
 70
     0
  9
$SPLINETYPE
 70
     6
  9
$SPLINESEGS
 70
     8
  9
$HANDSEED
  5
17679
  9
$SURFTAB1
 70
     6
  9
$SURFTAB2
 70
     6
  9
$SURFTYPE
 70
     6
  9
$SURFU
 70
     6
  9
$SURFV
 70
     6
  9
$UCSBASE
  2

  9
$UCSNAME
  2

  9
$UCSORG
 10
0.0
 20
0.0
 30
0.0
  9
$UCSXDIR
 10
1.0
 20
0.0
 30
0.0
  9
$UCSYDIR
 10
0.0
 20
1.0
 30
0.0
  9
$UCSORTHOREF
  2

  9
$UCSORTHOVIEW
 70
     0
  9
$UCSORGTOP
 10
0.0
 20
0.0
 30
0.0
  9
$UCSORGBOTTOM
 10
0.0
 20
0.0
 30
0.0
  9
$UCSORGLEFT
 10
0.0
 20
0.0
 30
0.0
  9
$UCSORGRIGHT
 10
0.0
 20
0.0
 30
0.0
  9
$UCSORGFRONT
 10
0.0
 20
0.0
 30
0.0
  9
$UCSORGBACK
 10
0.0
 20
0.0
 30
0.0
  9
$PUCSBASE
  2

  9
$PUCSNAME
  2

  9
$PUCSORG
 10
0.0
 20
0.0
 30
0.0
  9
$PUCSXDIR
 10
1.0
 20
0.0
 30
0.0
  9
$PUCSYDIR
 10
0.0
 20
1.0
 30
0.0
  9
$PUCSORTHOREF
  2

  9
$PUCSORTHOVIEW
 70
     0
  9
$PUCSORGTOP
 10
0.0
 20
0.0
 30
0.0
  9
$PUCSORGBOTTOM
 10
0.0
 20
0.0
 30
0.0
  9
$PUCSORGLEFT
 10
0.0
 20
0.0
 30
0.0
  9
$PUCSORGRIGHT
 10
0.0
 20
0.0
 30
0.0
  9
$PUCSORGFRONT
 10
0.0
 20
0.0
 30
0.0
  9
$PUCSORGBACK
 10
0.0
 20
0.0
 30
0.0
  9
$USERI1
 70
     0
  9
$USERI2
 70
     0
  9
$USERI3
 70
     0
  9
$USERI4
 70
     0
  9
$USERI5
 70
     0
  9
$USERR1
 40
0.0
  9
$USERR2
 40
0.0
  9
$USERR3
 40
0.0
  9
$USERR4
 40
0.0
  9
$USERR5
 40
0.0
  9
$WORLDVIEW
 70
     1
  9
$SHADEDGE
 70
     3
  9
$SHADEDIF
 70
    70
  9
$TILEMODE
 70
     1
  9
$MAXACTVP
 70
    64
  9
$PINSBASE
 10
0.0
 20
0.0
 30
0.0
  9
$PLIMCHECK
 70
     0
  9
$PEXTMIN
 10
1.000000000000000E+20
 20
1.000000000000000E+20
 30
1.000000000000000E+20
  9
$PEXTMAX
 10
-1.000000000000000E+20
 20
-1.000000000000000E+20
 30
-1.000000000000000E+20
  9
$PLIMMIN
 10
0.0
 20
0.0
  9
$PLIMMAX
 10
12.0
 20
9.0
  9
$UNITMODE
 70
     0
  9
$VISRETAIN
 70
     1
  9
$PLINEGEN
 70
     0
  9
$PSLTSCALE
 70
     1
  9
$TREEDEPTH
 70
  3020
  9
$CMLSTYLE
  2
Standard
  9
$CMLJUST
 70
     0
  9
$CMLSCALE
 40
1.0
  9
$PROXYGRAPHICS
 70
     1
  9
$MEASUREMENT
 70
     0
  9
$CELWEIGHT
370
    -1
  9
$ENDCAPS
280
     0
  9
$JOINSTYLE
280
     0
  9
$LWDISPLAY
290
     0
  9
$INSUNITS
 70
     4
  9
$HYPERLINKBASE
  1

  9
$STYLESHEET
  1
MONOCHROME.CTB
  9
$XEDIT
290
     1
  9
$CEPSNTYPE
380
     0
  9
$PSTYLEMODE
290
     1
  9
$FINGERPRINTGUID
  2
{4A02065B-8BB3-4A96-9036-502DC906C165}
  9
$VERSIONGUID
  2
{B3FDB62A-9E46-4153-BD1A-2B553EDC6E6A}
  9
$EXTNAMES
290
     1
  9
$PSVPSCALE
 40
0.0
  9
$OLESTARTUP
290
     0
  9
$SORTENTS
280
   127
  9
$INDEXCTL
280
     0
  9
$HIDETEXT
280
     0
  9
$XCLIPFRAME
290
     0
  9
$HALOGAP
280
     0
  9
$OBSCOLOR
 70
   257
  9
$OBSLTYPE
280
     0
  9
$INTERSECTIONDISPLAY
280
     0
  9
$INTERSECTIONCOLOR
 70
   257
  9
$DIMASSOC
280
     1
  9
$PROJECTNAME
  1

  9
$CAMERADISPLAY
290
     0
  9
$LENSLENGTH
 40
50.0
  9
$CAMERAHEIGHT
 40
0.0
  9
$STEPSPERSEC
 40
2.0
  9
$STEPSIZE
 40
6.0
  9
$3DDWFPREC
 40
2.0
  9
$PSOLWIDTH
 40
0.25
  9
$PSOLHEIGHT
 40
4.0
  9
$LOFTANG1
 40
1.570796326794896
  9
$LOFTANG2
 40
1.570796326794896
  9
$LOFTMAG1
 40
0.0
  9
$LOFTMAG2
 40
0.0
  9
$LOFTPARAM
 70
     7
  9
$LOFTNORMALS
280
     1
  9
$LATITUDE
 40
37.795
  9
$LONGITUDE
 40
-122.394
  9
$NORTHDIRECTION
 40
0.0
  9
$TIMEZONE
 70
 -8000
  9
$LIGHTGLYPHDISPLAY
280
     1
  9
$TILEMODELIGHTSYNCH
280
     1
  9
$CMATERIAL
347
4FE6
  9
$SOLIDHIST
280
     1
  9
$SHOWHIST
280
     1
  9
$DWFFRAME
280
     2
  9
$DGNFRAME
280
     0
  9
$REALWORLDSCALE
290
     1
  9
$INTERFERECOLOR
 62
     1
  9
$INTERFEREOBJVS
345
33
  9
$INTERFEREVPVS
346
30
  9
$CSHADOW
280
     0
  9
$SHADOWPLANELOCATION
 40
0.0
  0
ENDSEC
  0
SECTION
  2
CLASSES
  0
CLASS
  1
ACDBDICTIONARYWDFLT
  2
AcDbDictionaryWithDefault
  3
ObjectDBX Classes
 90
        0
 91
        1
280
     0
281
     0
  0
CLASS
  1
VISUALSTYLE
  2
AcDbVisualStyle
  3
ObjectDBX Classes
 90
     4095
 91
       16
280
     0
281
     0
  0
CLASS
  1
MATERIAL
  2
AcDbMaterial
  3
ObjectDBX Classes
 90
     1153
 91
        3
280
     0
281
     0
  0
CLASS
  1
TABLESTYLE
  2
AcDbTableStyle
  3
ObjectDBX Classes
 90
     4095
 91
        1
280
     0
281
     0
  0
CLASS
  1
SCALE
  2
AcDbScale
  3
ObjectDBX Classes
 90
     1153
 91
       33
280
     0
281
     0
  0
CLASS
  1
MLEADERSTYLE
  2
AcDbMLeaderStyle
  3
ACDB_MLEADERSTYLE_CLASS
 90
     4095
 91
        1
280
     0
281
     0
  0
CLASS
  1
CELLSTYLEMAP
  2
AcDbCellStyleMap
  3
ObjectDBX Classes
 90
     1152
 91
        2
280
     0
281
     0
  0
CLASS
  1
DICTIONARYVAR
  2
AcDbDictionaryVar
  3
ObjectDBX Classes
 90
        0
 91
        8
280
     0
281
     0
  0
CLASS
  1
SORTENTSTABLE
  2
AcDbSortentsTable
  3
ObjectDBX Classes
 90
        0
 91
        1
280
     0
281
     0
  0
CLASS
  1
ACAD_EVALUATION_GRAPH
  2
AcDbEvalGraph
  3
ObjectDBX Classes
 90
     1153
 91
        0
280
     0
281
     0
  0
CLASS
  1
ACAECUSTOBJ
  2
AcAeEditorObj
  3
AcAeEditorObj
 90
     1024
 91
        0
280
     0
281
     0
  0
CLASS
  1
ACDB_DYNAMICBLOCKPURGEPREVENTER_VERSION
  2
AcDbDynamicBlockPurgePreventer
  3
ObjectDBX Classes
 90
     1153
 91
        0
280
     0
281
     0
  0
CLASS
  1
MENTALRAYRENDERSETTINGS
  2
AcDbMentalRayRenderSettings
  3
SCENEOE
 90
     1024
 91
        1
280
     0
281
     0
  0
CLASS
  1
ACDB_BLOCKREPRESENTATION_DATA
  2
AcDbBlockRepresentationData
  3
ObjectDBX Classes
 90
     1153
 91
        0
280
     0
281
     0
  0
CLASS
  1
DIMASSOC
  2
AcDbDimAssoc
  3
"AcDbDimAssoc|Product Desc:     AcDim ARX App For Dimension|Company:          Autodesk, Inc.|WEB Address:      www.autodesk.com"
 90
        0
 91
        2
280
     0
281
     0
  0
ENDSEC
  0
SECTION
  2
TABLES
  0
TABLE
  2
VPORT
  5
8
102
{ACAD_XDICTIONARY
360
50EE
102
}
330
0
100
AcDbSymbolTable
 70
     1
  0
VPORT
  5
29
330
8
100
AcDbSymbolTableRecord
100
AcDbViewportTableRecord
  2
*Active
 70
     0
 10
0.0
 20
0.0
 11
1.0
 21
1.0
 12
489.4892449725796
 22
78.23710313200215
 13
0.0
 23
0.0
 14
0.5
 24
0.5
 15
0.5
 25
0.5
 16
0.0
 26
0.0
 36
1.0
 17
104.9654968719086
 27
148.5022307685978
 37
0.0
 40
130.5002190582722
 41
1.967136150234741
 42
50.0
 43
0.0
 44
0.0
 50
0.0
 51
0.0
 71
     0
 72
   100
 73
     1
 74
     3
 75
     0
 76
     0
 77
     0
 78
     0
281
     0
 65
     1
110
0.0
120
0.0
130
0.0
111
1.0
121
0.0
131
0.0
112
0.0
122
1.0
132
0.0
 79
     0
146
0.0
348
2F
 60
     3
 61
     5
292
     1
282
     1
141
0.0
142
0.0
 63
   250
421
  3355443
  0
ENDTAB
  0
TABLE
  2
LTYPE
  5
5
330
0
100
AcDbSymbolTable
 70
     3
  0
LTYPE
  5
14
330
5
100
AcDbSymbolTableRecord
100
AcDbLinetypeTableRecord
  2
ByBlock
 70
     0
  3

 72
    65
 73
     0
 40
0.0
  0
LTYPE
  5
15
330
5
100
AcDbSymbolTableRecord
100
AcDbLinetypeTableRecord
  2
ByLayer
 70
     0
  3

 72
    65
 73
     0
 40
0.0
  0
LTYPE
  5
16
330
5
100
AcDbSymbolTableRecord
100
AcDbLinetypeTableRecord
  2
Continuous
 70
     0
  3
Solid line
 72
    65
 73
     0
 40
0.0
  0
LTYPE
  5
67BA
330
5
100
AcDbSymbolTableRecord
100
AcDbLinetypeTableRecord
  2
CENTER
 70
     0
  3
Center ____ _ ____ _ ____ _ ____ _ ____ _ ____
 72
    65
 73
     4
 40
2.0
 49
1.25
 74
     0
 49
-0.25
 74
     0
 49
0.25
 74
     0
 49
-0.25
 74
     0
  0
LTYPE
  5
16179
330
5
100
AcDbSymbolTableRecord
100
AcDbLinetypeTableRecord
  2
CENTERX2
 70
     0
  3
Center (2x) ________  __  ________  __  _____
 72
    65
 73
     4
 40
4.0
 49
2.5
 74
     0
 49
-0.5
 74
     0
 49
0.5
 74
     0
 49
-0.5
 74
     0
  0
ENDTAB
  0
TABLE
  2
LAYER
  5
2
102
{ACAD_XDICTIONARY
360
50B8
102
}
330
0
100
AcDbSymbolTable
 70
    13
  0
LAYER
  5
10
102
{ACAD_XDICTIONARY
360
50D0
102
}
330
2
100
AcDbSymbolTableRecord
100
AcDbLayerTableRecord
  2
0
 70
     0
 62
     7
  6
Continuous
370
    30
390
F
347
4FF6
  0
LAYER
  5
3B
102
{ACAD_XDICTIONARY
360
50D2
102
}
330
2
100
AcDbSymbolTableRecord
100
AcDbLayerTableRecord
  2
图层 1
 70
     0
 62
     7
  6
Continuous
370
    -3
390
F
347
4FF6
  0
LAYER
  5
50AE
102
{ACAD_XDICTIONARY
360
50AF
102
}
330
2
100
AcDbSymbolTableRecord
100
AcDbLayerTableRecord
  2
图框
 70
     0
 62
     7
  6
Continuous
370
    20
390
F
347
4FF6
  0
LAYER
  5
5141
330
2
100
AcDbSymbolTableRecord
100
AcDbLayerTableRecord
  2
Defpoints
 70
     0
 62
     7
  6
Continuous
290
     0
370
    -3
390
F
347
4FF6
  0
LAYER
  5
5144
330
2
100
AcDbSymbolTableRecord
100
AcDbLayerTableRecord
  2
DIM
 70
     0
 62
     3
  6
Continuous
370
    15
390
F
347
4FF6
1001
AcAecLayerStandard
1000

1000

  0
LAYER
  5
52F3
330
2
100
AcDbSymbolTableRecord
100
AcDbLayerTableRecord
  2
打标文字
 70
     0
 62
     3
  6
Continuous
370
    20
390
F
347
4FF6
  0
LAYER
  5
67B7
330
2
100
AcDbSymbolTableRecord
100
AcDbLayerTableRecord
  2
CEN
 70
     0
 62
     1
  6
CENTER
370
    15
390
F
347
4FF6
1001
AcAecLayerStandard
1000

1000

  0
LAYER
  5
11B6B
330
2
100
AcDbSymbolTableRecord
100
AcDbLayerTableRecord
  2
hat
 70
     0
 62
     6
  6
Continuous
370
    15
390
F
347
4FF6
1001
AcAecLayerStandard
1000

1000

  0
LAYER
  5
16FE4
330
2
100
AcDbSymbolTableRecord
100
AcDbLayerTableRecord
  2
CKSF70WEISHOUKOU_DXF_HATCHING
 70
     0
 62
     7
  6
Continuous
370
    -3
390
F
347
4FF6
  0
LAYER
  5
16FE5
330
2
100
AcDbSymbolTableRecord
100
AcDbLayerTableRecord
  2
CKSF70-25_DXF_CONTINUOUS_LINE
 70
     0
 62
     7
  6
Continuous
370
    -3
390
F
347
4FF6
  0
LAYER
  5
16FE6
330
2
100
AcDbSymbolTableRecord
100
AcDbLayerTableRecord
  2
CKSF70-25_DXF_AXIS
 70
     0
 62
     7
  6
Continuous
370
    -3
390
F
347
4FF6
  0
LAYER
  5
16FE7
330
2
100
AcDbSymbolTableRecord
100
AcDbLayerTableRecord
  2
CKSM70_DXF_CONTINUOUS_LINE
 70
     0
 62
     7
  6
Continuous
370
    -3
390
F
347
4FF6
  0
LAYER
  5
16FE8
330
2
100
AcDbSymbolTableRecord
100
AcDbLayerTableRecord
  2
CKSM70-25_DXF_AXIS
 70
     0
 62
     7
  6
Continuous
370
    -3
390
F
347
4FF6
  0
ENDTAB
  0
TABLE
  2
STYLE
  5
3
330
0
100
AcDbSymbolTable
 70
     4
  0
STYLE
  5
11
330
3
100
AcDbSymbolTableRecord
100
AcDbTextStyleTableRecord
  2
Standard
 70
     0
 40
0.0
 41
0.75
 50
0.0
 71
     0
 42
0.2
  3

  4

1001
ACAD
1000
仿宋_GB2312
1071
    34353
  0
STYLE
  5
FD48
330
3
100
AcDbSymbolTableRecord
100
AcDbTextStyleTableRecord
  2
Romans字体
 70
     0
 40
0.0
 41
0.75
 50
0.0
 71
     0
 42
0.2
  3
romans.shx
  4

  0
STYLE
  5
11080
330
3
100
AcDbSymbolTableRecord
100
AcDbTextStyleTableRecord
  2
工程字
 70
     0
 40
0.0
 41
1.0
 50
0.0
 71
     0
 42
3.5
  3
gbenor.shx
  4
gbcbig.shx
  0
STYLE
  5
11081
330
3
100
AcDbSymbolTableRecord
100
AcDbTextStyleTableRecord
  2
Chinese
 70
     0
 40
0.0
 41
1.0
 50
0.0
 71
     0
 42
2.5
  3

  4

1001
ACAD
1000
PMingLiU
1071
    34834
  0
ENDTAB
  0
TABLE
  2
VIEW
  5
6
330
0
100
AcDbSymbolTable
 70
     0
  0
ENDTAB
  0
TABLE
  2
UCS
  5
7
330
0
100
AcDbSymbolTable
 70
     0
  0
ENDTAB
  0
TABLE
  2
APPID
  5
9
330
0
100
AcDbSymbolTable
 70
    18
  0
APPID
  5
12
330
9
100
AcDbSymbolTableRecord
100
AcDbRegAppTableRecord
  2
ACAD
 70
     0
  0
APPID
  5
5024
330
9
100
AcDbSymbolTableRecord
100
AcDbRegAppTableRecord
  2
ACAD_MLEADERVER
 70
     0
  0
APPID
  5
50B5
330
9
100
AcDbSymbolTableRecord
100
AcDbRegAppTableRecord
  2
AcDbDynamicBlockGUID
 70
     0
  0
APPID
  5
50B6
330
9
100
AcDbSymbolTableRecord
100
AcDbRegAppTableRecord
  2
AcDbBlockRepETag
 70
     0
  0
APPID
  5
50B7
330
9
100
AcDbSymbolTableRecord
100
AcDbRegAppTableRecord
  2
ACAD_PSEXT
 70
     0
  0
APPID
  5
50CF
330
9
100
AcDbSymbolTableRecord
100
AcDbRegAppTableRecord
  2
AcadAnnoPO
 70
     0
  0
APPID
  5
5146
330
9
100
AcDbSymbolTableRecord
100
AcDbRegAppTableRecord
  2
AcAecLayerStandard
 70
     0
  0
APPID
  5
5147
330
9
100
AcDbSymbolTableRecord
100
AcDbRegAppTableRecord
  2
ACAD_DSTYLE_DIMJAG
 70
     0
  0
APPID
  5
5148
330
9
100
AcDbSymbolTableRecord
100
AcDbRegAppTableRecord
  2
ACAD_DSTYLE_DIMTALN
 70
     0
  0
APPID
  5
52AD
330
9
100
AcDbSymbolTableRecord
100
AcDbRegAppTableRecord
  2
ACAUTHENVIRON
 70
     0
  0
APPID
  5
52B0
330
9
100
AcDbSymbolTableRecord
100
AcDbRegAppTableRecord
  2
AcDbDynamicBlockTrueName
 70
     0
  0
APPID
  5
67C6
330
9
100
AcDbSymbolTableRecord
100
AcDbRegAppTableRecord
  2
ACAD_EXEMPT_FROM_CAD_STANDARDS
 70
     0
  0
APPID
  5
6838
330
9
100
AcDbSymbolTableRecord
100
AcDbRegAppTableRecord
  2
ACAD_NAV_VCDISPLAY
 70
     0
  0
APPID
  5
70A9
330
9
100
AcDbSymbolTableRecord
100
AcDbRegAppTableRecord
  2
DCO15
 70
     0
  0
APPID
  5
8725
330
9
100
AcDbSymbolTableRecord
100
AcDbRegAppTableRecord
  2
AcDbBlockRepBTag
 70
     0
  0
APPID
  5
FE64
330
9
100
AcDbSymbolTableRecord
100
AcDbRegAppTableRecord
  2
ACAD_DSTYLE_DIMRADIAL_EXTENSION
 70
     0
  0
APPID
  5
FF93
330
9
100
AcDbSymbolTableRecord
100
AcDbRegAppTableRecord
  2
ACAD_DSTYLE_DIMBREAK
 70
     0
  0
APPID
  5
15463
330
9
100
AcDbSymbolTableRecord
100
AcDbRegAppTableRecord
  2
ACAD_DSTYLE_DIMINSPECT
 70
     0
  0
ENDTAB
  0
TABLE
  2
DIMSTYLE
  5
A
330
0
100
AcDbSymbolTable
 70
     4
100
AcDbDimStyleTable
 71
     2
340
5145
340
27
  0
DIMSTYLE
105
27
330
A
100
AcDbSymbolTableRecord
100
AcDbDimStyleTableRecord
  2
Standard
 70
     0
340
11
  0
DIMSTYLE
105
5145
102
{ACAD_REACTORS
330
16991
330
16610
330
16616
330
169F6
330
16CBC
330
16D01
330
16D42
102
}
330
A
100
AcDbSymbolTableRecord
100
AcDbDimStyleTableRecord
  2
01
 70
     0
 41
1.5
 42
0.2
 43
0.2
 44
0.3
 73
     0
 74
     0
 77
     1
 78
     8
 79
     2
140
2.0
141
0.0
147
0.3
176
     1
177
     6
178
     4
179
     2
271
     1
272
     1
340
FD48
1001
ACAD_DSTYLE_DIMJAG
1070
   388
1040
1.5
1001
ACAD_DSTYLE_DIMTALN
1070
   392
1070
     0
  0
DIMSTYLE
105
16FE9
330
A
100
AcDbSymbolTableRecord
100
AcDbDimStyleTableRecord
  2
WAIN
 70
     0
 40
0.75
 41
3.5
 42
0.5
 43
0.3
 44
0.5
 47
0.01
 48
0.01000000001
 73
     0
 74
     0
 77
     1
 78
     8
 79
     2
140
3.5
141
0.0
146
0.7
147
0.5
176
     1
177
     6
178
     4
179
     2
271
     2
272
     2
283
     0
284
     8
340
11
1001
ACAD_DSTYLE_DIMJAG
1070
   388
1040
1.5
1001
ACAD_DSTYLE_DIMTALN
1070
   392
1070
     0
  0
DIMSTYLE
105
16FEA
330
A
100
AcDbSymbolTableRecord
100
AcDbDimStyleTableRecord
  2
WAIN$4
 70
     0
 40
0.75
 41
3.5
 42
0.5
 43
0.3
 44
0.5
 47
0.01
 48
0.01000000001
 77
     1
 78
     8
 79
     2
140
3.5
141
0.0
146
0.7
147
0.5
176
     1
177
     6
178
     4
179
     2
271
     2
272
     2
283
     0
284
     8
340
11
1001
ACAD_DSTYLE_DIMBREAK
1070
   391
1040
6.0
1001
ACAD_DSTYLE_DIMJAG
1070
   388
1040
1.5
1001
ACAD_DSTYLE_DIMTALN
1070
   392
1070
     0
  0
ENDTAB
  0
TABLE
  2
BLOCK_RECORD
  5
1
330
0
100
AcDbSymbolTable
 70
    57
  0
BLOCK_RECORD
  5
1F
102
{ACAD_XDICTIONARY
360
67C0
102
}
330
1
100
AcDbSymbolTableRecord
100
AcDbBlockTableRecord
  2
*Model_Space
340
22
 70
     0
280
     1
281
     0
  0
BLOCK_RECORD
  5
1B
330
1
100
AcDbSymbolTableRecord
100
AcDbBlockTableRecord
  2
*Paper_Space
340
1E
 70
     0
280
     1
281
     0
  0
BLOCK_RECORD
  5
23
330
1
100
AcDbSymbolTableRecord
100
AcDbBlockTableRecord
  2
*Paper_Space0
340
26
 70
     0
280
     1
281
     0
  0
BLOCK_RECORD
  5
13E17
102
{ACAD_XDICTIONARY
360
1762F
102
}
330
1
100
AcDbSymbolTableRecord
100
AcDbBlockTableRecord
  2
A4图框-NEW
340
0
310
2800000020000000200000000100080000000000000400000000000000000000000000000000000000000000000080000080000000808000800000008000800080800000C0C0C000C0DCC000F0CAA6000020400000206000002080000020A0000020C0000020E00000400000004020000040400000406000004080000040A0
310
000040C0000040E00000600000006020000060400000606000006080000060A0000060C0000060E00000800000008020000080400000806000008080000080A0000080C0000080E00000A0000000A0200000A0400000A0600000A0800000A0A00000A0C00000A0E00000C0000000C0200000C0400000C0600000C0800000C0
310
A00000C0C00000C0E00000E0000000E0200000E0400000E0600000E0800000E0A00000E0C00000E0E00040000000400020004000400040006000400080004000A0004000C0004000E00040200000402020004020400040206000402080004020A0004020C0004020E000404000004040200040404000404060004040800040
310
40A0004040C0004040E00040600000406020004060400040606000406080004060A0004060C0004060E00040800000408020004080400040806000408080004080A0004080C0004080E00040A0000040A0200040A0400040A0600040A0800040A0A00040A0C00040A0E00040C0000040C0200040C0400040C0600040C08000
310
40C0A00040C0C00040C0E00040E0000040E0200040E0400040E0600040E0800040E0A00040E0C00040E0E00080000000800020008000400080006000800080008000A0008000C0008000E00080200000802020008020400080206000802080008020A0008020C0008020E00080400000804020008040400080406000804080
310
008040A0008040C0008040E00080600000806020008060400080606000806080008060A0008060C0008060E00080800000808020008080400080806000808080008080A0008080C0008080E00080A0000080A0200080A0400080A0600080A0800080A0A00080A0C00080A0E00080C0000080C0200080C0400080C0600080C0
310
800080C0A00080C0C00080C0E00080E0000080E0200080E0400080E0600080E0800080E0A00080E0C00080E0E000C0000000C0002000C0004000C0006000C0008000C000A000C000C000C000E000C0200000C0202000C0204000C0206000C0208000C020A000C020C000C020E000C0400000C0402000C0404000C0406000C0
310
408000C040A000C040C000C040E000C0600000C0602000C0604000C0606000C0608000C060A000C060C000C060E000C0800000C0802000C0804000C0806000C0808000C080A000C080C000C080E000C0A00000C0A02000C0A04000C0A06000C0A08000C0A0A000C0A0C000C0A0E000C0C00000C0C02000C0C04000C0C06000
310
C0C08000C0C0A000F0FBFF00A4A0A000808080000000FF0000FF000000FFFF00FF000000FF00FF00FFFF0000FFFFFF0000000000000000000000000000000000000000000000000000000000000000000000000000000000000000000000000000000000000000000000000000000000000000000000000000000000000000
310
000000000000000000000000000000000000000000000000000000000000000000000000000000000000000000000000000000000000000000000000000000000000000000000000000000000000000000000000000000000000000000000000000000000000000000000000000000000000F9F9F9F9F9F9F9F9F9F9F9F9F9
310
F9F9F9F9F9F9F9F9F9F9F9F9F9F9FF00000000F9FF000000000000000000FFFFFFFFFFFFFFFFFFFFFFFFF9FAFAFAFF00000000F9FF000000000000000000FFFFFFFFFFFFFFFFFFFFFFFFFFFFFFFFFF00000000F9FD000000000000000000FFFFFFFFFFFFFFFFFFFFFFFFFFFFFFFFFF00000000F9FF000000000000000000FF
310
FFFFFFFFFFFFFFFFFFFFFFFFFFFFFFFF00000000F9FD000000000000000000FFFFFFFFFFFFFFFFFFFFFFFFFFFFFFFFFF00000000F9FF00000000000000000000000000000000000000000000000000FF00000000F9FD00000000000000000000000000000000000000000000000000FF00000000F9FF000000000000000000
310
00000000000000000000000000000000FF00000000F9FD00000000000000000000000000000000000000000000000000FF00000000F9FF00000000000000000000000000000000000000000000000000FF00000000F9FD00000000000000000000000000000000000000000000000000FF00000000F9FD0000000000000000
310
0000000000000000000000000000000000FF00000000F9FF00000000000000000000000000000000000000000000000000FF00000000F9FD00000000000000000000000000000000000000000000000000FF00000000F9FF00000000000000000000000000000000000000000000000000FF00000000F9FD00000000000000
310
000000000000000000000000000000000000FF00000000F9FF00000000000000000000000000000000000000000000000000FF00000000F9FFFFFFFFFFFFFFFFFFFFFFFFFFFFFFFFFFFFFFFFFFFFFFFFFFFFFF00000000F9FFFFFFF9F9F9F9F9F9F9F9F9F9F9F9F9F9F9F9F9F9F9F9F9F9F9F9000000000000000000000000
310
00000000000000000000000000000000000000000000000000000000000000000000000000000000000000000000000000000000000000000000000000000000000000000000000000000000000000000000000000000000000000000000000000000000000000000000000000000000000000000000000000000000000000
310
0000000000000000000000000000000000000000000000000000000000000000000000000000000000000000000000000000000000000000
102
{BLKREFS
331
1556A
102
}
 70
     4
280
     1
281
     0
1001
AcDbDynamicBlockGUID
1000
{63FAA6A8-29B1-42DB-B029-82D7C1F0E3C1}
1001
AcDbBlockRepETag
1070
     1
1071
      149
  0
BLOCK_RECORD
  5
1672D
330
1
100
AcDbSymbolTableRecord
100
AcDbBlockTableRecord
  2
*D2
340
0
 70
     0
280
     1
281
     0
  0
BLOCK_RECORD
  5
16747
330
1
100
AcDbSymbolTableRecord
100
AcDbBlockTableRecord
  2
*D3
340
0
 70
     0
280
     1
281
     0
  0
BLOCK_RECORD
  5
16992
330
1
100
AcDbSymbolTableRecord
100
AcDbBlockTableRecord
  2
*D4
340
0
 70
     0
280
     1
281
     0
  0
BLOCK_RECORD
  5
169F7
330
1
100
AcDbSymbolTableRecord
100
AcDbBlockTableRecord
  2
*D5
340
0
 70
     0
280
     1
281
     0
  0
BLOCK_RECORD
  5
16CBD
330
1
100
AcDbSymbolTableRecord
100
AcDbBlockTableRecord
  2
*D6
340
0
 70
     0
280
     1
281
     0
  0
BLOCK_RECORD
  5
16D02
330
1
100
AcDbSymbolTableRecord
100
AcDbBlockTableRecord
  2
*D7
340
0
 70
     0
280
     1
281
     0
  0
BLOCK_RECORD
  5
16D43
330
1
100
AcDbSymbolTableRecord
100
AcDbBlockTableRecord
  2
*D8
340
0
 70
     0
280
     1
281
     0
  0
ENDTAB
  0
ENDSEC
  0
SECTION
  2
BLOCKS
  0
BLOCK
  5
20
330
1F
100
AcDbEntity
  8
0
100
AcDbBlockBegin
  2
*Model_Space
 70
     0
 10
0.0
 20
0.0
 30
0.0
  3
*Model_Space
  1

  0
ENDBLK
  5
21
330
1F
100
AcDbEntity
  8
0
100
AcDbBlockEnd
  0
BLOCK
  5
1C
330
1B
100
AcDbEntity
 67
     1
  8
0
100
AcDbBlockBegin
  2
*Paper_Space
 70
     0
 10
0.0
 20
0.0
 30
0.0
  3
*Paper_Space
  1

  0
ENDBLK
  5
1D
330
1B
100
AcDbEntity
 67
     1
  8
0
100
AcDbBlockEnd
  0
BLOCK
  5
24
330
23
100
AcDbEntity
 67
     1
  8
0
100
AcDbBlockBegin
  2
*Paper_Space0
 70
     0
 10
0.0
 20
0.0
 30
0.0
  3
*Paper_Space0
  1

  0
ENDBLK
  5
25
330
23
100
AcDbEntity
 67
     1
  8
0
100
AcDbBlockEnd
  0
BLOCK
  5
13E19
330
13E17
100
AcDbEntity
  8
0
100
AcDbBlockBegin
  2
A4图框-NEW
 70
     0
 10
0.0
 20
0.0
 30
0.0
  3
A4图框-NEW
  1

  0
MTEXT
  5
1759A
102
{ACAD_XDICTIONARY
360
17661
102
}
330
13E17
100
AcDbEntity
  8
图框
 62
     3
100
AcDbMText
 10
967.6594956750133
 20
499.7664151964293
 30
0.0
 40
2.985513575034151
 41
15.50176341157864
 46
6.292658374511018
 71
     5
 72
     5
  1
BQ LUO
  7
Romans字体
 73
     1
 44
1.0
1001
AcDbBlockRepETag
1070
     1
1071
        0
1005
1759A
1001
ACAD
1000
ACAD_MTEXT_DEFINED_HEIGHT_BEGIN
1070
    46
1040
6.292658374511018
1000
ACAD_MTEXT_DEFINED_HEIGHT_END
  0
MTEXT
  5
1759B
330
13E17
100
AcDbEntity
  8
图框
 62
     3
100
AcDbMText
 10
983.041569333247
 20
499.7664151964293
 30
0.0
 40
2.487927979195124
 41
15.26238390489062
 46
6.292658374511042
 71
     5
 72
     5
  1
{\W0.7;18.10.2010}
  7
Romans字体
 73
     1
 44
1.0
1001
AcDbBlockRepETag
1070
     1
1071
        1
1005
1759B
1001
ACAD
1000
ACAD_MTEXT_DEFINED_HEIGHT_BEGIN
1070
    46
1040
6.292658374511042
1000
ACAD_MTEXT_DEFINED_HEIGHT_END
  0
MTEXT
  5
1759C
330
13E17
100
AcDbEntity
  8
图框
 62
     3
100
AcDbMText
 10
1012.477254728976
 20
487.1810984474071
 30
0.0
 40
2.985513575034151
 41
17.64876416884615
 46
6.292658374511455
 71
     5
 72
     5
  1
YY LIN
  7
Romans字体
 73
     1
 44
1.0
1001
AcDbBlockRepETag
1070
     1
1071
        2
1005
1759C
1001
ACAD
1000
ACAD_MTEXT_DEFINED_HEIGHT_BEGIN
1070
    46
1040
6.292658374511455
1000
ACAD_MTEXT_DEFINED_HEIGHT_END
  0
MTEXT
  5
1759D
330
13E17
100
AcDbEntity
  8
图框
 62
     3
100
AcDbMText
 10
1028.977802139886
 20
487.1810984474071
 30
0.0
 40
2.487927979195124
 41
15.35233065297276
 46
6.292658374511495
 71
     5
 72
     5
  1
{\W0.7;18.10.2010}
  7
Romans字体
 73
     1
 44
1.0
1001
AcDbBlockRepETag
1070
     1
1071
        3
1005
1759D
1001
ACAD
1000
ACAD_MTEXT_DEFINED_HEIGHT_BEGIN
1070
    46
1040
6.292658374511495
1000
ACAD_MTEXT_DEFINED_HEIGHT_END
  0
MTEXT
  5
1759E
330
13E17
100
AcDbEntity
  8
图框
 62
     3
100
AcDbMText
 10
1063.722665487208
 20
525.4145966538831
 30
0.0
 40
2.985513575034151
 41
32.4973914334545
 46
11.82914190181707
 71
     5
 72
     5
  1
-
  7
Romans字体
 73
     1
 44
1.0
1001
AcDbBlockRepETag
1070
     1
1071
        4
1005
1759E
1001
ACAD
1000
ACAD_MTEXT_DEFINED_HEIGHT_BEGIN
1070
    46
1040
11.82914190181707
1000
ACAD_MTEXT_DEFINED_HEIGHT_END
  0
MTEXT
  5
1759F
330
13E17
100
AcDbEntity
  8
图框
 62
     3
100
AcDbMText
 10
1063.727338552349
 20
513.5854547520641
 30
0.0
 40
2.985513575034151
 41
32.48804530317308
 46
11.82914190182139
 71
     5
 72
     5
  1
-
  7
Romans字体
 73
     1
 44
1.0
1001
AcDbBlockRepETag
1070
     1
1071
        5
1005
1759F
1001
ACAD
1000
ACAD_MTEXT_DEFINED_HEIGHT_BEGIN
1070
    46
1040
11.82914190182139
1000
ACAD_MTEXT_DEFINED_HEIGHT_END
  0
MTEXT
  5
175A0
330
13E17
100
AcDbEntity
  8
图框
 62
     3
100
AcDbMText
 10
1110.122306614152
 20
526.8006839312707
 30
0.0
 40
2.985513575034151
 41
33.61239199242139
 46
9.05696734704178
 71
     5
 72
     5
  1
-
  7
Romans字体
 73
     1
 44
1.0
1001
AcDbBlockRepETag
1070
     1
1071
        6
1005
175A0
1001
ACAD
1000
ACAD_MTEXT_DEFINED_HEIGHT_BEGIN
1070
    46
1040
9.05696734704178
1000
ACAD_MTEXT_DEFINED_HEIGHT_END
  0
MTEXT
  5
175A1
330
13E17
100
AcDbEntity
  8
图框
 62
     3
100
AcDbMText
 10
1110.122306614152
 20
500.2775205517162
 30
0.0
 40
2.985513575034151
 41
33.61239199242139
 46
8.871557304763419
 71
     5
 72
     5
  1
-
  7
Romans字体
 73
     1
 44
1.0
1001
AcDbBlockRepETag
1070
     1
1071
        7
1005
175A1
1001
ACAD
1000
ACAD_MTEXT_DEFINED_HEIGHT_BEGIN
1070
    46
1040
8.871557304763419
1000
ACAD_MTEXT_DEFINED_HEIGHT_END
  0
MTEXT
  5
175A2
330
13E17
100
AcDbEntity
  8
图框
 62
     3
100
AcDbMText
 10
967.6594956750133
 20
493.4737568219182
 30
0.0
 40
2.985513575034151
 41
15.50176341157864
 46
6.292658374510335
 71
     5
 72
     5
  1
P RAO
  7
Romans字体
 73
     1
 44
1.0
1001
AcDbBlockRepETag
1070
     1
1071
        8
1005
175A2
1001
ACAD
1000
ACAD_MTEXT_DEFINED_HEIGHT_BEGIN
1070
    46
1040
6.292658374510335
1000
ACAD_MTEXT_DEFINED_HEIGHT_END
  0
MTEXT
  5
175A3
330
13E17
100
AcDbEntity
  8
图框
 62
     3
100
AcDbMText
 10
983.041569333247
 20
493.2441970450405
 30
0.0
 40
2.487927979195124
 41
15.26238390489051
 46
6.751777928266487
 71
     5
 72
     5
  1
{\W0.7;18.10.2010}
  7
Romans字体
 73
     1
 44
1.0
1001
AcDbBlockRepETag
1070
     1
1071
        9
1005
175A3
1001
ACAD
1000
ACAD_MTEXT_DEFINED_HEIGHT_BEGIN
1070
    46
1040
6.751777928266487
1000
ACAD_MTEXT_DEFINED_HEIGHT_END
  0
MTEXT
  5
175A4
330
13E17
100
AcDbEntity
  8
图框
 62
     3
100
AcDbMText
 10
1012.477254728976
 20
499.7664151964291
 30
0.0
 40
2.985513575034151
 41
17.64876416884615
 46
6.292658374511397
 71
     5
 72
     5
  1
-
  7
Romans字体
 73
     1
 44
1.0
1001
AcDbBlockRepETag
1070
     1
1071
       10
1005
175A4
1001
ACAD
1000
ACAD_MTEXT_DEFINED_HEIGHT_BEGIN
1070
    46
1040
6.292658374511397
1000
ACAD_MTEXT_DEFINED_HEIGHT_END
  0
MTEXT
  5
175A5
330
13E17
100
AcDbEntity
  8
图框
 62
     3
100
AcDbMText
 10
1028.977802139886
 20
499.7664151964289
 30
0.0
 40
2.487927979195124
 41
15.35233065297265
 46
6.292658374511382
 71
     5
 72
     5
  1
-
  7
Romans字体
 73
     1
 44
1.0
1001
AcDbBlockRepETag
1070
     1
1071
       11
1005
175A5
1001
ACAD
1000
ACAD_MTEXT_DEFINED_HEIGHT_BEGIN
1070
    46
1040
6.292658374511382
1000
ACAD_MTEXT_DEFINED_HEIGHT_END
  0
MTEXT
  5
175A6
330
13E17
100
AcDbEntity
  8
图框
 62
     3
100
AcDbMText
 10
967.6594956750133
 20
487.1810984474071
 30
0.0
 40
2.985513575034151
 41
15.50176341157863
 46
6.292658374511478
 71
     5
 72
     5
  1
-
  7
Romans字体
 73
     1
 44
1.0
1001
AcDbBlockRepETag
1070
     1
1071
       12
1005
175A6
1001
ACAD
1000
ACAD_MTEXT_DEFINED_HEIGHT_BEGIN
1070
    46
1040
6.292658374511478
1000
ACAD_MTEXT_DEFINED_HEIGHT_END
  0
MTEXT
  5
175A7
330
13E17
100
AcDbEntity
  8
图框
 62
     3
100
AcDbMText
 10
983.041569333247
 20
487.1810984474071
 30
0.0
 40
2.487927979195124
 41
15.26238390489062
 46
6.292658374511495
 71
     5
 72
     5
  1
-
  7
Romans字体
 73
     1
 44
1.0
1001
AcDbBlockRepETag
1070
     1
1071
       13
1005
175A7
1001
ACAD
1000
ACAD_MTEXT_DEFINED_HEIGHT_BEGIN
1070
    46
1040
6.292658374511495
1000
ACAD_MTEXT_DEFINED_HEIGHT_END
  0
MTEXT
  5
175A8
330
13E17
100
AcDbEntity
  8
图框
 62
     3
100
AcDbMText
 10
1074.556686986741
 20
495.8417418993361
 30
0.0
 40
2.985513575034151
 41
10.82934843438978
 46
7.886094601210427
 71
     5
 72
     5
  1
-
  7
Romans字体
 73
     1
 44
1.0
1001
AcDbBlockRepETag
1070
     1
1071
       14
1005
175A8
1001
ACAD
1000
ACAD_MTEXT_DEFINED_HEIGHT_BEGIN
1070
    46
1040
7.886094601210427
1000
ACAD_MTEXT_DEFINED_HEIGHT_END
  0
LINE
  5
175A9
330
13E17
100
AcDbEntity
  8
图框
370
    -3
100
AcDbLine
 10
1036.653967466372
 20
499.7847891999413
 30
0.0
 11
1079.971361203936
 21
499.7847891999413
 31
0.0
1001
AcDbBlockRepETag
1070
     1
1071
       15
1005
175A9
  0
MTEXT
  5
175AA
330
13E17
100
AcDbEntity
  8
图框
 62
     1
370
    20
100
AcDbMText
 10
1108.26336443907
 20
491.5162596080882
 30
0.0
 40
2.699054613030988
 41
82.30831305643079
 46
0.0
 71
     5
 72
     5
  1
{\fSimHei|b0|i0|c134|p2;厦门唯恩电气有限公司}
 73
     1
 44
1.0
1001
AcDbBlockRepETag
1070
     1
1071
       16
1005
175AA
  0
MTEXT
  5
175AB
330
13E17
100
AcDbEntity
  8
图框
 62
     3
370
    20
100
AcDbMText
 10
1108.435451459908
 20
487.298967726064
 30
0.0
 40
1.652482416141417
 41
68.08558693693567
 46
0.0
 71
     5
 72
     5
  1
{\fArial Narrow|b0|i0|c0|p34;XIAMEN WAIN ELECTRICAL CO.LTD}
  7
工程字
 73
     1
 44
1.0
1001
AcDbBlockRepETag
1070
     1
1071
       17
1005
175AB
  0
MTEXT
  5
175AC
330
13E17
100
AcDbEntity
  8
图框
 62
     1
370
    20
100
AcDbMText
 10
1085.711816899387
 20
491.0944802995856
 30
0.0
 40
2.005930044038334
 41
5.047240019334847
 46
0.0
 71
     1
 72
     5
  1
{\fArial|b0|i0|c0|p34;A}
  7
Chinese
 73
     1
 44
1.0
1001
AcDbBlockRepETag
1070
     1
1071
       18
1005
175AC
  0
MTEXT
  5
175AD
330
13E17
100
AcDbEntity
  8
图框
 62
     1
370
    20
100
AcDbMText
 10
1088.213485935716
 20
491.0944802995856
 30
0.0
 40
2.005930044038334
 41
5.047240019334847
 46
0.0
 71
     1
 72
     5
  1
{\fArial|b0|i0|c0|p34;I}
  7
Chinese
 73
     1
 44
1.0
1001
AcDbBlockRepETag
1070
     1
1071
       19
1005
175AD
  0
MTEXT
  5
175AE
330
13E17
100
AcDbEntity
  8
图框
 62
     1
370
    20
100
AcDbMText
 10
1089.142375222864
 20
491.0822866326808
 30
0.0
 40
2.005930044038334
 41
5.047240019334847
 46
0.0
 71
     1
 72
     5
  1
{\fArial|b0|i0|c0|p34;N}
  7
Chinese
 73
     1
 44
1.0
1001
AcDbBlockRepETag
1070
     1
1071
       20
1005
175AE
  0
MTEXT
  5
175AF
330
13E17
100
AcDbEntity
  8
图框
100
AcDbMText
 10
1069.142012769545
 20
487.9667319294409
 30
0.0
 40
2.252848170144607
 41
21.65869686878327
 46
7.863925338579296
 71
     5
 72
     5
  1
{\W0.5;\C1;All Dimensions in mm\POriginal Size DIN A 4}
  7
Romans字体
 73
     1
 44
1.0
1001
AcDbBlockRepETag
1070
     1
1071
       21
1005
175AF
1001
ACAD
1000
ACAD_MTEXT_DEFINED_HEIGHT_BEGIN
1070
    46
1040
7.863925338579296
1000
ACAD_MTEXT_DEFINED_HEIGHT_END
  0
MTEXT
  5
175B0
330
13E17
100
AcDbEntity
  8
图框
  6
ByBlock
 62
     6
370
    18
100
AcDbMText
 10
1127.40434942308
 20
508.7896535755975
 30
0.0
 40
2.651776162684904
 41
2.557913877927211
 46
0.0
 71
     1
 72
     5
  1
A
  7
Romans字体
 11
0.0000000000000001
 21
1.0
 31
0.0
 73
     1
 44
1.0
1001
AcDbBlockRepETag
1070
     1
1071
       22
1005
175B0
  0
MTEXT
  5
175B1
330
13E17
100
AcDbEntity
  8
图框
 62
     6
100
AcDbMText
 10
1127.40434942308
 20
556.3746573232886
 30
0.0
 40
2.651776162684904
 41
2.557913877927211
 46
0.0
 71
     1
 72
     5
  1
B
  7
Romans字体
 11
0.0000000000000001
 21
1.0
 31
0.0
 73
     1
 44
1.0
1001
AcDbBlockRepETag
1070
     1
1071
       23
1005
175B1
  0
MTEXT
  5
175B2
330
13E17
100
AcDbEntity
  8
图框
 62
     6
100
AcDbMText
 10
1127.40434942308
 20
607.5539372630998
 30
0.0
 40
2.651776162684904
 41
2.557913877927211
 46
0.0
 71
     1
 72
     5
  1
C
  7
Romans字体
 11
0.0000000000000001
 21
1.0
 31
0.0
 73
     1
 44
1.0
1001
AcDbBlockRepETag
1070
     1
1071
       24
1005
175B2
  0
MTEXT
  5
175B3
330
13E17
100
AcDbEntity
  8
图框
 62
     6
100
AcDbMText
 10
1127.40434942308
 20
658.7332172029115
 30
0.0
 40
2.651776162684904
 41
2.557913877927211
 46
0.0
 71
     1
 72
     5
  1
D
  7
Romans字体
 11
0.0000000000000001
 21
1.0
 31
0.0
 73
     1
 44
1.0
1001
AcDbBlockRepETag
1070
     1
1071
       25
1005
175B3
  0
LINE
  5
175B4
330
13E17
100
AcDbEntity
  8
图框
 62
     6
100
AcDbLine
 10
1130.411601781241
 20
634.0726090796082
 30
0.0
 11
1126.928502610363
 21
634.0726090796082
 31
0.0
1001
AcDbBlockRepETag
1070
     1
1071
       26
1005
175B4
  0
LINE
  5
175B5
330
13E17
100
AcDbEntity
  8
图框
 62
     6
100
AcDbLine
 10
1130.411601781241
 20
582.89332913979
 30
0.0
 11
1126.928502610363
 21
582.89332913979
 31
0.0
1001
AcDbBlockRepETag
1070
     1
1071
       27
1005
175B5
  0
MTEXT
  5
175B6
330
13E17
100
AcDbEntity
  8
图框
 62
     6
100
AcDbMText
 10
1105.329704038389
 20
483.6164543011163
 30
0.0
 40
2.651776162684904
 41
2.557913877927211
 46
0.0
 71
     1
 72
     5
  1
6
  7
Romans字体
 73
     1
 44
1.0
1001
AcDbBlockRepETag
1070
     1
1071
       28
1005
175B6
  0
LINE
  5
175B7
330
13E17
100
AcDbEntity
  8
图框
 62
     6
100
AcDbLine
 10
1081.088565155284
 20
484.0347692601515
 30
0.0
 11
1081.088565155284
 21
480.5347692601475
 31
0.0
1001
AcDbBlockRepETag
1070
     1
1071
       29
1005
175B7
  0
MTEXT
  5
175B8
330
13E17
100
AcDbEntity
  8
图框
 62
     6
100
AcDbMText
 10
1055.900596365941
 20
483.520053108993
 30
0.0
 40
2.651776162684904
 41
2.557913877927211
 46
0.0
 71
     1
 72
     5
  1
5
  7
Romans字体
 73
     1
 44
1.0
1001
AcDbBlockRepETag
1070
     1
1071
       30
1005
175B8
  0
LINE
  5
175B9
330
13E17
100
AcDbEntity
  8
图框
 62
     6
100
AcDbLine
 10
1031.553386436349
 20
484.0347692601515
 30
0.0
 11
1031.553386436349
 21
480.5347692601475
 31
0.0
1001
AcDbBlockRepETag
1070
     1
1071
       31
1005
175B9
  0
MTEXT
  5
175BA
330
13E17
100
AcDbEntity
  8
图框
 62
     6
100
AcDbMText
 10
1006.383180575197
 20
483.5687958215896
 30
0.0
 40
2.651776162684904
 41
2.557913877927211
 46
0.0
 71
     1
 72
     5
  1
4
  7
Romans字体
 73
     1
 44
1.0
1001
AcDbBlockRepETag
1070
     1
1071
       32
1005
175BA
  0
LINE
  5
175BB
330
13E17
100
AcDbEntity
  8
图框
 62
     6
100
AcDbLine
 10
982.0182077173887
 20
484.0347692601515
 30
0.0
 11
982.0182077173887
 21
480.5347692601475
 31
0.0
1001
AcDbBlockRepETag
1070
     1
1071
       33
1005
175BB
  0
MTEXT
  5
175BC
330
13E17
100
AcDbEntity
  8
图框
 62
     6
100
AcDbMText
 10
956.8302389280352
 20
483.5989680297948
 30
0.0
 40
2.651776162684904
 41
2.557913877927211
 46
0.0
 71
     1
 72
     5
  1
3
  7
Romans字体
 73
     1
 44
1.0
1001
AcDbBlockRepETag
1070
     1
1071
       34
1005
175BC
  0
LINE
  5
175BD
330
13E17
100
AcDbEntity
  8
图框
 62
     6
100
AcDbLine
 10
932.4830289984245
 20
484.0347692601515
 30
0.0
 11
932.4830289984245
 21
480.5347692601475
 31
0.0
1001
AcDbBlockRepETag
1070
     1
1071
       35
1005
175BD
  0
MTEXT
  5
175BE
330
13E17
100
AcDbEntity
  8
图框
 62
     6
100
AcDbMText
 10
906.0252349826365
 20
483.6475250013156
 30
0.0
 40
2.651776162684904
 41
2.557913877927211
 46
0.0
 71
     1
 72
     5
  1
2
  7
Romans字体
 73
     1
 44
1.0
1001
AcDbBlockRepETag
1070
     1
1071
       36
1005
175BE
  0
LINE
  5
175BF
330
13E17
100
AcDbEntity
  8
图框
 62
     6
100
AcDbLine
 10
882.9478502794648
 20
484.0347692601515
 30
0.0
 11
882.9478502794648
 21
480.5347692601475
 31
0.0
1001
AcDbBlockRepETag
1070
     1
1071
       37
1005
175BF
  0
MTEXT
  5
175C0
330
13E17
100
AcDbEntity
  8
图框
 62
     6
100
AcDbMText
 10
857.7598814901191
 20
483.651829494754
 30
0.0
 40
2.651776162684904
 41
2.557913877927211
 46
0.0
 71
     1
 72
     5
  1
1
  7
Romans字体
 73
     1
 44
1.0
1001
AcDbBlockRepETag
1070
     1
1071
       38
1005
175C0
  0
LINE
  5
175C1
330
13E17
100
AcDbEntity
  8
图框
370
    50
100
AcDbLine
 10
836.8548209370597
 20
484.0347692601515
 30
0.0
 11
1126.928502610363
 21
484.0347692601515
 31
0.0
1001
AcDbBlockRepETag
1070
     1
1071
       39
1005
175C1
  0
LINE
  5
175C2
330
13E17
100
AcDbEntity
  8
图框
370
    50
100
AcDbLine
 10
836.9128518455362
 20
484.0178684310246
 30
0.0
 11
836.9128518455394
 21
675.0207195125422
 31
0.0
1001
AcDbBlockRepETag
1070
     1
1071
       40
1005
175C2
  0
MTEXT
  5
175C3
330
13E17
100
AcDbEntity
  8
图框
 62
     6
100
AcDbMText
 10
833.8475685789031
 20
658.7332172029115
 30
0.0
 40
2.651776162684904
 41
2.557913877927211
 46
0.0
 71
     1
 72
     5
  1
D
  7
Romans字体
 11
0.0000000000000001
 21
1.0
 31
0.0
 73
     1
 44
1.0
1001
AcDbBlockRepETag
1070
     1
1071
       41
1005
175C3
  0
LINE
  5
175C4
330
13E17
100
AcDbEntity
  8
图框
 62
     6
100
AcDbLine
 10
836.9128518455386
 20
634.0726090796082
 30
0.0
 11
833.4128518455365
 21
634.0726090796082
 31
0.0
1001
AcDbBlockRepETag
1070
     1
1071
       42
1005
175C4
  0
MTEXT
  5
175C5
330
13E17
100
AcDbEntity
  8
图框
 62
     6
100
AcDbMText
 10
833.9039177480142
 20
607.5539372630998
 30
0.0
 40
2.651776162684904
 41
2.557913877927211
 46
0.0
 71
     1
 72
     5
  1
C
  7
Romans字体
 11
0.0000000000000001
 21
1.0
 31
0.0
 73
     1
 44
1.0
1001
AcDbBlockRepETag
1070
     1
1071
       43
1005
175C5
  0
LINE
  5
175C6
330
13E17
100
AcDbEntity
  8
图框
 62
     6
100
AcDbLine
 10
836.9128518455378
 20
582.89332913979
 30
0.0
 11
833.4128518455365
 21
582.89332913979
 31
0.0
1001
AcDbBlockRepETag
1070
     1
1071
       44
1005
175C6
  0
MTEXT
  5
175C7
330
13E17
100
AcDbEntity
  8
图框
 62
     6
100
AcDbMText
 10
833.9039177480142
 20
556.3746573232886
 30
0.0
 40
2.651776162684904
 41
2.557913877927211
 46
0.0
 71
     1
 72
     5
  1
B
  7
Romans字体
 11
0.0000000000000001
 21
1.0
 31
0.0
 73
     1
 44
1.0
1001
AcDbBlockRepETag
1070
     1
1071
       45
1005
175C7
  0
LINE
  5
175C8
330
13E17
100
AcDbEntity
  8
图框
 62
     6
100
AcDbLine
 10
836.9128518455367
 20
531.714049199969
 30
0.0
 11
833.4128518455365
 21
531.714049199969
 31
0.0
1001
AcDbBlockRepETag
1070
     1
1071
       46
1005
175C8
  0
MTEXT
  5
175C9
330
13E17
100
AcDbEntity
  8
图框
 62
     6
100
AcDbMText
 10
833.9039177480142
 20
508.7896535755975
 30
0.0
 40
2.651776162684904
 41
2.557913877927211
 46
0.0
 71
     1
 72
     5
  1
A
  7
Romans字体
 11
0.0000000000000001
 21
1.0
 31
0.0
 73
     1
 44
1.0
1001
AcDbBlockRepETag
1070
     1
1071
       47
1005
175C9
  0
LINE
  5
175CA
330
13E17
100
AcDbEntity
  8
图框
370
    -3
100
AcDbLine
 10
836.9128518455394
 20
675.0207195125422
 30
0.0
 11
836.9128518455394
 21
684.5021384922564
 31
0.0
1001
AcDbBlockRepETag
1070
     1
1071
       48
1005
175CA
  0
LINE
  5
175CB
330
13E17
100
AcDbEntity
  8
图框
370
    -3
100
AcDbLine
 10
842.6237321475781
 20
675.5347692601515
 30
0.0
 11
842.6237321475781
 21
685.0161882398658
 31
0.0
1001
AcDbBlockRepETag
1070
     1
1071
       49
1005
175CB
  0
LINE
  5
175CC
330
13E17
100
AcDbEntity
  8
图框
370
    -3
100
AcDbLine
 10
848.3346124496179
 20
675.5347692601515
 30
0.0
 11
848.3346124496179
 21
685.0161882398658
 31
0.0
1001
AcDbBlockRepETag
1070
     1
1071
       50
1005
175CC
  0
LINE
  5
175CD
330
13E17
100
AcDbEntity
  8
图框
370
    -3
100
AcDbLine
 10
854.0454927516588
 20
675.5347692601515
 30
0.0
 11
854.0454927516588
 21
685.0161882398658
 31
0.0
1001
AcDbBlockRepETag
1070
     1
1071
       51
1005
175CD
  0
LINE
  5
175CE
330
13E17
100
AcDbEntity
  8
图框
370
    -3
100
AcDbLine
 10
861.5351874539182
 20
675.5347692601515
 30
0.0
 11
861.5351874539182
 21
686.7901958362482
 31
0.0
1001
AcDbBlockRepETag
1070
     1
1071
       52
1005
175CE
  0
MTEXT
  5
175CF
330
13E17
100
AcDbEntity
  8
图框
 62
     6
100
AcDbMText
 10
1105.329704038389
 20
678.859919059449
 30
0.0
 40
2.651776162684904
 41
2.557913877927211
 46
0.0
 71
     1
 72
     5
  1
6
  7
Romans字体
 73
     1
 44
1.0
1001
AcDbBlockRepETag
1070
     1
1071
       53
1005
175CF
  0
LINE
  5
175D0
330
13E17
100
AcDbEntity
  8
图框
 62
     6
100
AcDbLine
 10
1081.088565155284
 20
679.0347692601516
 30
0.0
 11
1081.088565155284
 21
675.5347692601515
 31
0.0
1001
AcDbBlockRepETag
1070
     1
1071
       54
1005
175D0
  0
MTEXT
  5
175D1
330
13E17
100
AcDbEntity
  8
图框
 62
     6
100
AcDbMText
 10
1055.900596365941
 20
678.859919059449
 30
0.0
 40
2.651776162684904
 41
2.557913877927211
 46
0.0
 71
     1
 72
     5
  1
5
  7
Romans字体
 73
     1
 44
1.0
1001
AcDbBlockRepETag
1070
     1
1071
       55
1005
175D1
  0
LINE
  5
175D2
330
13E17
100
AcDbEntity
  8
图框
 62
     6
100
AcDbLine
 10
1031.553386436349
 20
679.0347692601516
 30
0.0
 11
1031.553386436349
 21
675.5347692601515
 31
0.0
1001
AcDbBlockRepETag
1070
     1
1071
       56
1005
175D2
  0
MTEXT
  5
175D3
330
13E17
100
AcDbEntity
  8
图框
 62
     6
100
AcDbMText
 10
1006.36541764698
 20
678.7312083656147
 30
0.0
 40
2.651776162684904
 41
2.557913877927211
 46
0.0
 71
     1
 72
     5
  1
4
  7
Romans字体
 73
     1
 44
1.0
1001
AcDbBlockRepETag
1070
     1
1071
       57
1005
175D3
  0
LINE
  5
175D4
330
13E17
100
AcDbEntity
  8
图框
 62
     6
100
AcDbLine
 10
982.0182077173887
 20
679.0347692601516
 30
0.0
 11
982.0182077173887
 21
675.5347692601515
 31
0.0
1001
AcDbBlockRepETag
1070
     1
1071
       58
1005
175D4
  0
MTEXT
  5
175D5
330
13E17
100
AcDbEntity
  8
图框
 62
     6
100
AcDbMText
 10
956.8302389280352
 20
678.859919059449
 30
0.0
 40
2.651776162684904
 41
2.557913877927211
 46
0.0
 71
     1
 72
     5
  1
3
  7
Romans字体
 73
     1
 44
1.0
1001
AcDbBlockRepETag
1070
     1
1071
       59
1005
175D5
  0
LINE
  5
175D6
330
13E17
100
AcDbEntity
  8
图框
 62
     6
100
AcDbLine
 10
932.4830289984245
 20
679.0347692601516
 30
0.0
 11
932.4830289984245
 21
675.5347692601515
 31
0.0
1001
AcDbBlockRepETag
1070
     1
1071
       60
1005
175D6
  0
MTEXT
  5
175D7
330
13E17
100
AcDbEntity
  8
图框
 62
     6
100
AcDbMText
 10
907.295060209082
 20
678.859919059449
 30
0.0
 40
2.651776162684904
 41
2.557913877927211
 46
0.0
 71
     1
 72
     5
  1
2
  7
Romans字体
 73
     1
 44
1.0
1001
AcDbBlockRepETag
1070
     1
1071
       61
1005
175D7
  0
LINE
  5
175D8
330
13E17
100
AcDbEntity
  8
图框
 62
     6
100
AcDbLine
 10
882.9478502794648
 20
678.7962435131815
 30
0.0
 11
882.9478502794648
 21
675.5347692601515
 31
0.0
1001
AcDbBlockRepETag
1070
     1
1071
       62
1005
175D8
  0
MTEXT
  5
175D9
330
13E17
100
AcDbEntity
  8
图框
 62
     6
100
AcDbMText
 10
862.6286629643733
 20
678.859919059449
 30
0.0
 40
2.651776162684904
 41
2.557913877927211
 46
0.0
 71
     1
 72
     5
  1
1
  7
Romans字体
 73
     1
 44
1.0
1001
AcDbBlockRepETag
1070
     1
1071
       63
1005
175D9
  0
LINE
  5
175DA
330
13E17
100
AcDbEntity
  8
图框
370
    -3
100
AcDbLine
 10
836.9128518455394
 20
675.0207195125422
 30
0.0
 11
836.9128518455394
 21
686.7901958362482
 31
0.0
1001
AcDbBlockRepETag
1070
     1
1071
       64
1005
175DA
  0
LINE
  5
175DB
330
13E17
100
AcDbEntity
  8
图框
370
    50
100
AcDbLine
 10
836.9128518455394
 20
675.5347692601515
 30
0.0
 11
1126.928502610363
 21
675.5347692601515
 31
0.0
1001
AcDbBlockRepETag
1070
     1
1071
       65
1005
175DB
  0
LINE
  5
175DC
330
13E17
100
AcDbEntity
  8
图框
370
    -3
100
AcDbLine
 10
842.6237321475781
 20
675.5347692601515
 30
0.0
 11
842.6237321475781
 21
686.7901958362482
 31
0.0
1001
AcDbBlockRepETag
1070
     1
1071
       66
1005
175DC
  0
LINE
  5
175DD
330
13E17
100
AcDbEntity
  8
图框
370
    -3
100
AcDbLine
 10
848.3346124496179
 20
675.5347692601515
 30
0.0
 11
848.3346124496179
 21
686.7901958362482
 31
0.0
1001
AcDbBlockRepETag
1070
     1
1071
       67
1005
175DD
  0
MTEXT
  5
175DE
102
{ACAD_XDICTIONARY
360
17663
102
}
330
13E17
100
AcDbEntity
  8
图框
100
AcDbMText
 10
857.7903401027889
 20
686.7901958362482
 30
0.0
 40
1.958998408821398
 41
11.25542657609672
 46
7.489694702258906
 71
     4
 72
     5
  1
\pi2.8203;档案员{\H0.7x;\P\pi1.4159;\Fromans|c134;Filing Clerk\fFangSong_GB2312|b0|i0|c134|p49; }
 11
-0.0000000000000002
 21
-1.0
 31
0.0
 73
     1
 44
1.0
1001
AcDbBlockRepETag
1070
     1
1071
       68
1005
175DE
1001
ACAD
1000
ACAD_MTEXT_DEFINED_HEIGHT_BEGIN
1070
    46
1040
7.489694702258906
1000
ACAD_MTEXT_DEFINED_HEIGHT_END
  0
MTEXT
  5
175DF
102
{ACAD_XDICTIONARY
360
17665
102
}
330
13E17
100
AcDbEntity
  8
图框
100
AcDbMText
 10
845.479172298598
 20
686.7901958362482
 30
0.0
 40
1.958998408821398
 41
11.25542657609672
 46
5.710880302039671
 71
     4
 72
     5
  1
\pi0.7115;日期{\Fromans|c134;/Date}
 11
-0.0000000000000002
 21
-1.0
 31
0.0
 73
     1
 44
1.0
1001
AcDbBlockRepETag
1070
     1
1071
       69
1005
175DF
1001
ACAD
1000
ACAD_MTEXT_DEFINED_HEIGHT_BEGIN
1070
    46
1040
5.710880302039671
1000
ACAD_MTEXT_DEFINED_HEIGHT_END
  0
LINE
  5
175E0
330
13E17
100
AcDbEntity
  8
图框
370
    -3
100
AcDbLine
 10
854.0454927516588
 20
675.5347692601515
 30
0.0
 11
854.0454927516588
 21
686.7901958362482
 31
0.0
1001
AcDbBlockRepETag
1070
     1
1071
       70
1005
175E0
  0
LINE
  5
175E1
330
13E17
100
AcDbEntity
  8
图框
370
    -3
100
AcDbLine
 10
1036.653967466372
 20
531.3291676047914
 30
0.0
 11
1036.653967466372
 21
484.0126019753161
 31
0.0
1001
AcDbBlockRepETag
1070
     1
1071
       71
1005
175E1
  0
LINE
  5
175E2
330
13E17
100
AcDbEntity
  8
图框
370
    -3
100
AcDbLine
 10
1047.483315900763
 20
507.6708838011533
 30
0.0
 11
1047.483315900763
 21
491.8986945987308
 31
0.0
1001
AcDbBlockRepETag
1070
     1
1071
       72
1005
175E2
  0
LINE
  5
175E3
330
13E17
100
AcDbEntity
  8
图框
370
    -3
100
AcDbLine
 10
1058.312664335153
 20
507.6708838011533
 30
0.0
 11
1058.312664335153
 21
484.0347692601515
 31
0.0
1001
AcDbBlockRepETag
1070
     1
1071
       73
1005
175E3
  0
LINE
  5
175E4
330
13E17
100
AcDbEntity
  8
图框
370
    25
100
AcDbLine
 10
1048.474135214456
 20
488.1095628329926
 30
0.0
 11
1054.946420288459
 21
488.1095628329926
 31
0.0
1001
AcDbBlockRepETag
1070
     1
1071
       74
1005
175E4
  0
LINE
  5
175E5
330
13E17
100
AcDbEntity
  8
图框
370
    25
100
AcDbLine
 10
1054.232527365989
 20
487.0761716842634
 30
0.0
 11
1049.156490914508
 21
486.4576273751
 31
0.0
1001
AcDbBlockRepETag
1070
     1
1071
       75
1005
175E5
  0
LINE
  5
175E6
330
13E17
100
AcDbEntity
  8
图框
370
    25
100
AcDbLine
 10
1054.232527365989
 20
489.1429539817209
 30
0.0
 11
1049.156490914508
 21
489.7614982908846
 31
0.0
1001
AcDbBlockRepETag
1070
     1
1071
       76
1005
175E6
  0
LINE
  5
175E7
330
13E17
100
AcDbEntity
  8
图框
370
    25
100
AcDbLine
 10
1049.156490914508
 20
489.7614982908846
 30
0.0
 11
1049.156490914508
 21
486.4576273751
 31
0.0
1001
AcDbBlockRepETag
1070
     1
1071
       77
1005
175E7
  0
LINE
  5
175E8
330
13E17
100
AcDbEntity
  8
图框
370
    25
100
AcDbLine
 10
1054.232527365989
 20
489.1429539817209
 30
0.0
 11
1054.232527365989
 21
487.0761716842634
 31
0.0
1001
AcDbBlockRepETag
1070
     1
1071
       78
1005
175E8
  0
CIRCLE
  5
175E9
330
13E17
100
AcDbEntity
  8
图框
370
    25
100
AcDbCircle
 10
1042.502700458579
 20
488.1095628329926
 30
0.0
 40
1.651935457891863
1001
AcDbBlockRepETag
1070
     1
1071
       79
1005
175E9
  0
CIRCLE
  5
175EA
330
13E17
100
AcDbEntity
  8
图框
370
    25
100
AcDbCircle
 10
1042.502700458579
 20
488.1095628329926
 30
0.0
 40
1.033391148728775
1001
AcDbBlockRepETag
1070
     1
1071
       80
1005
175EA
  0
LINE
  5
175EB
330
13E17
100
AcDbEntity
  8
图框
370
    25
100
AcDbLine
 10
1040.136872078216
 20
488.1095628329926
 30
0.0
 11
1044.868528838943
 21
488.1095628329926
 31
0.0
1001
AcDbBlockRepETag
1070
     1
1071
       81
1005
175EB
  0
LINE
  5
175EC
330
13E17
100
AcDbEntity
  8
图框
370
    25
100
AcDbLine
 10
1042.502700458579
 20
490.475391213355
 30
0.0
 11
1042.502700458579
 21
485.743734452629
 31
0.0
1001
AcDbBlockRepETag
1070
     1
1071
       82
1005
175EC
  0
LINE
  5
175ED
330
13E17
100
AcDbEntity
  8
图框
370
    -3
100
AcDbLine
 10
1069.142012769546
 20
507.6708838011533
 30
0.0
 11
1069.142012769546
 21
491.8986945987308
 31
0.0
1001
AcDbBlockRepETag
1070
     1
1071
       83
1005
175ED
  0
MTEXT
  5
175EE
330
13E17
100
AcDbEntity
  8
图框
100
AcDbMText
 10
1086.643735910939
 20
526.8006839312707
 30
0.0
 40
2.154898249703542
 41
13.34474941400573
 46
9.056967347041775
 71
     5
 72
     5
  1
图号{\Ftxt|c134;\P\Fromans|c134;\W0.65;Drawing No.}
 73
     1
 44
1.0
1001
AcDbBlockRepETag
1070
     1
1071
       84
1005
175EE
1001
ACAD
1000
ACAD_MTEXT_DEFINED_HEIGHT_BEGIN
1070
    46
1040
9.056967347041775
1000
ACAD_MTEXT_DEFINED_HEIGHT_END
  0
LINE
  5
175EF
330
13E17
100
AcDbEntity
  8
图框
370
    -3
100
AcDbLine
 10
1093.316110617942
 20
531.3291676047914
 30
0.0
 11
1093.316110617942
 21
495.8417418993347
 31
0.0
1001
AcDbBlockRepETag
1070
     1
1071
       85
1005
175EF
  0
LINE
  5
175F0
330
13E17
100
AcDbEntity
  8
图框
370
    -3
100
AcDbLine
 10
1047.473969770481
 20
531.3291676047914
 30
0.0
 11
1047.473969770481
 21
507.6708838011533
 31
0.0
1001
AcDbBlockRepETag
1070
     1
1071
       86
1005
175F0
  0
MTEXT
  5
175F1
330
13E17
100
AcDbEntity
  8
图框
100
AcDbMText
 10
1063.72733855235
 20
503.7278365005473
 30
0.0
 40
2.252848170144607
 41
10.82934843439208
 46
7.886094601212128
 71
     5
 72
     5
  1
重量\P{\Fromans|c134;Weight}
 73
     1
 44
1.0
1001
AcDbBlockRepETag
1070
     1
1071
       87
1005
175F1
1001
ACAD
1000
ACAD_MTEXT_DEFINED_HEIGHT_BEGIN
1070
    46
1040
7.886094601212128
1000
ACAD_MTEXT_DEFINED_HEIGHT_END
  0
LINE
  5
175F2
330
13E17
100
AcDbEntity
  8
图框
370
    -3
100
AcDbLine
 10
1036.653967466372
 20
519.5000257029746
 30
0.0
 11
1079.971361203936
 21
519.5000257029746
 31
0.0
1001
AcDbBlockRepETag
1070
     1
1071
       88
1005
175F2
  0
MTEXT
  5
175F3
330
13E17
100
AcDbEntity
  8
图框
100
AcDbMText
 10
1074.556686986741
 20
503.7278365005473
 30
0.0
 40
2.252848170144607
 41
10.82934843438984
 46
7.886094601212141
 71
     5
 72
     5
  1
数量\P{\Fromans|c134;Qty.}
 73
     1
 44
1.0
1001
AcDbBlockRepETag
1070
     1
1071
       89
1005
175F3
1001
ACAD
1000
ACAD_MTEXT_DEFINED_HEIGHT_BEGIN
1070
    46
1040
7.886094601212141
1000
ACAD_MTEXT_DEFINED_HEIGHT_END
  0
LINE
  5
175F4
330
13E17
100
AcDbEntity
  8
图框
370
    -3
100
AcDbLine
 10
1079.971361203936
 20
495.8417418993347
 30
0.0
 11
1126.928502610363
 21
495.8417418993342
 31
0.0
1001
AcDbBlockRepETag
1070
     1
1071
       90
1005
175F4
  0
LINE
  5
175F5
330
13E17
100
AcDbEntity
  8
图框
370
    -3
100
AcDbLine
 10
1079.971361203936
 20
504.7132992040975
 30
0.0
 11
1126.928502610363
 21
504.7132992040975
 31
0.0
1001
AcDbBlockRepETag
1070
     1
1071
       91
1005
175F5
  0
MTEXT
  5
175F6
330
13E17
100
AcDbEntity
  8
图框
100
AcDbMText
 10
1052.893317052817
 20
503.7278365005473
 30
0.0
 40
2.252848170144607
 41
10.83869456467139
 46
7.886094601212101
 71
     5
 72
     5
  1
版本\P{\Fromans|c134;REV.}
 73
     1
 44
1.0
1001
AcDbBlockRepETag
1070
     1
1071
       92
1005
175F6
1001
ACAD
1000
ACAD_MTEXT_DEFINED_HEIGHT_BEGIN
1070
    46
1040
7.886094601212101
1000
ACAD_MTEXT_DEFINED_HEIGHT_END
  0
MTEXT
  5
175F7
330
13E17
100
AcDbEntity
  8
图框
100
AcDbMText
 10
1042.068641683568
 20
503.7278365005473
 30
0.0
 40
2.252848170144607
 41
10.8293484343908
 46
7.886094601212136
 71
     5
 72
     5
  1
比例\P{\Fromans|c134;Scale}
 73
     1
 44
1.0
1001
AcDbBlockRepETag
1070
     1
1071
       93
1005
175F7
1001
ACAD
1000
ACAD_MTEXT_DEFINED_HEIGHT_BEGIN
1070
    46
1040
7.886094601212136
1000
ACAD_MTEXT_DEFINED_HEIGHT_END
  0
LINE
  5
175F8
330
13E17
100
AcDbEntity
  8
图框
370
    -3
100
AcDbLine
 10
1036.653967466372
 20
507.6708838011533
 30
0.0
 11
1079.971361203936
 21
507.6708838011533
 31
0.0
1001
AcDbBlockRepETag
1070
     1
1071
       94
1005
175F8
  0
LINE
  5
175F9
330
13E17
100
AcDbEntity
  8
图框
370
    -3
100
AcDbLine
 10
1036.653967466372
 20
491.8986945987308
 30
0.0
 11
1079.971361203936
 21
491.8986945987308
 31
0.0
1001
AcDbBlockRepETag
1070
     1
1071
       95
1005
175F9
  0
LINE
  5
175FA
330
13E17
100
AcDbEntity
  8
图框
370
    -3
100
AcDbLine
 10
1079.971361203936
 20
531.3291676047914
 30
0.0
 11
1079.971361203936
 21
484.0125999975168
 31
0.0
1001
AcDbBlockRepETag
1070
     1
1071
       96
1005
175FA
  0
MTEXT
  5
175FB
330
13E17
100
AcDbEntity
  8
图框
100
AcDbMText
 10
1042.063968618426
 20
525.4145966538832
 30
0.0
 40
2.252848170144607
 41
10.82000230410933
 46
11.82914190181708
 71
     5
 72
     5
  1
表面处理\P{\Fromans|c134;Finish}
 73
     1
 44
1.0
1001
AcDbBlockRepETag
1070
     1
1071
       97
1005
175FB
1001
ACAD
1000
ACAD_MTEXT_DEFINED_HEIGHT_BEGIN
1070
    46
1040
11.82914190181708
1000
ACAD_MTEXT_DEFINED_HEIGHT_END
  0
MTEXT
  5
175FC
330
13E17
100
AcDbEntity
  8
图框
100
AcDbMText
 10
1042.063968618426
 20
513.5854547520639
 30
0.0
 40
2.252848170144607
 41
10.82000230410933
 46
11.8291419018212
 71
     5
 72
     5
  1
材料\P{\Fromans|c134;Material}
 73
     1
 44
1.0
1001
AcDbBlockRepETag
1070
     1
1071
       98
1005
175FC
1001
ACAD
1000
ACAD_MTEXT_DEFINED_HEIGHT_BEGIN
1070
    46
1040
11.8291419018212
1000
ACAD_MTEXT_DEFINED_HEIGHT_END
  0
LINE
  5
175FD
330
13E17
100
AcDbEntity
  8
图框
370
    -3
100
AcDbLine
 10
1079.971361203936
 20
522.27220025775
 30
0.0
 11
1126.928502610363
 21
522.27220025775
 31
0.0
1001
AcDbBlockRepETag
1070
     1
1071
       99
1005
175FD
  0
LINE
  5
175FE
330
13E17
100
AcDbEntity
  8
图框
370
    -3
100
AcDbLine
 10
1079.971361203936
 20
513.5854547520641
 30
0.0
 11
1126.928502610363
 21
513.5854547520639
 31
0.0
1001
AcDbBlockRepETag
1070
     1
1071
      100
1005
175FE
  0
MTEXT
  5
175FF
330
13E17
100
AcDbEntity
  8
图框
100
AcDbMText
 10
1086.643735910939
 20
517.9288275049072
 30
0.0
 40
1.958998408821398
 41
13.34474941400573
 46
8.686745505685811
 71
     5
 72
     5
  1
产品代号\P{\Fromans|c134;Part Code}
 73
     1
 44
1.0
1001
AcDbBlockRepETag
1070
     1
1071
      101
1005
175FF
1001
ACAD
1000
ACAD_MTEXT_DEFINED_HEIGHT_BEGIN
1070
    46
1040
8.686745505685811
1000
ACAD_MTEXT_DEFINED_HEIGHT_END
  0
LINE
  5
17600
330
13E17
100
AcDbEntity
  8
图框
370
    -3
100
AcDbLine
 10
946.9285026103634
 20
525.7982263931411
 30
0.0
 11
1036.653967466372
 21
525.7982263931411
 31
0.0
1001
AcDbBlockRepETag
1070
     1
1071
      102
1005
17600
  0
LINE
  5
17601
330
13E17
100
AcDbEntity
  8
图框
370
    -3
100
AcDbLine
 10
946.9285026103634
 20
520.2672851814959
 30
0.0
 11
1036.653967466372
 21
520.2672851814959
 31
0.0
1001
AcDbBlockRepETag
1070
     1
1071
      103
1005
17601
  0
LINE
  5
17602
330
13E17
100
AcDbEntity
  8
图框
370
    35
100
AcDbLine
 10
946.9285026103634
 20
531.3291676047914
 30
0.0
 11
1126.928502610363
 21
531.3291676047914
 31
0.0
1001
AcDbBlockRepETag
1070
     1
1071
      104
1005
17602
  0
LINE
  5
17603
330
13E17
100
AcDbEntity
  8
图框
370
    -3
100
AcDbLine
 10
990.6727612856927
 20
509.2054027581959
 30
0.0
 11
990.6727612856927
 21
484.0347692601515
 31
0.0
1001
AcDbBlockRepETag
1070
     1
1071
      105
1005
17603
  0
MTEXT
  5
17604
102
{ACAD_XDICTIONARY
360
17667
102
}
330
13E17
100
AcDbEntity
  8
图框
100
AcDbMText
 10
997.1628169651232
 20
499.816589978722
 30
0.0
 40
2.252848170144607
 41
12.98011135886052
 46
6.19230880992475
 71
     5
 72
     5
  1
{\fSimSun|b0|i0|c134|p2;标准化}\PStand.
  7
Romans字体
 73
     1
 44
1.0
1001
AcDbBlockRepETag
1070
     1
1071
      106
1005
17604
1001
ACAD
1000
ACAD_MTEXT_DEFINED_HEIGHT_BEGIN
1070
    46
1040
6.19230880992475
1000
ACAD_MTEXT_DEFINED_HEIGHT_END
  0
LINE
  5
17605
330
13E17
100
AcDbEntity
  8
图框
370
    -3
100
AcDbLine
 10
975.4103773808022
 20
509.2054027581959
 30
0.0
 11
975.4103773808022
 21
484.0347692601515
 31
0.0
1001
AcDbBlockRepETag
1070
     1
1071
      107
1005
17605
  0
MTEXT
  5
17606
330
13E17
100
AcDbEntity
  8
图框
100
AcDbMText
 10
984.5089229802068
 20
511.9708733640202
 30
0.0
 40
2.448748011026752
 41
38.287899328693
 46
5.530941211648832
 71
     5
 72
     5
  1
  变更描述{\Fromans|c134;/Description}
 73
     1
 44
1.0
1001
AcDbBlockRepETag
1070
     1
1071
      108
1005
17606
1001
ACAD
1000
ACAD_MTEXT_DEFINED_HEIGHT_BEGIN
1070
    46
1040
5.530941211648832
1000
ACAD_MTEXT_DEFINED_HEIGHT_END
  0
MTEXT
  5
17607
102
{ACAD_XDICTIONARY
360
17669
102
}
330
13E17
100
AcDbEntity
  8
图框
100
AcDbMText
 10
1012.477254728976
 20
511.9708733640202
 30
0.0
 40
1.958998408821398
 41
17.64876416884548
 46
5.530941211649166
 71
     5
 72
     5
  1
签名\P{\Fromans|c134;Signature} 
 73
     1
 44
1.0
1001
AcDbBlockRepETag
1070
     1
1071
      109
1005
17607
1001
ACAD
1000
ACAD_MTEXT_DEFINED_HEIGHT_BEGIN
1070
    46
1040
5.530941211649166
1000
ACAD_MTEXT_DEFINED_HEIGHT_END
  0
MTEXT
  5
17608
102
{ACAD_XDICTIONARY
360
1766B
102
}
330
13E17
100
AcDbEntity
  8
图框
100
AcDbMText
 10
960.7558556394856
 20
511.9708733640202
 30
0.0
 40
1.958998408821398
 41
9.218235352749283
 46
5.530941211648841
 71
     5
 72
     5
  1
处数\P{\Fromans|c134;Number }
 73
     1
 44
1.0
1001
AcDbBlockRepETag
1070
     1
1071
      110
1005
17608
1001
ACAD
1000
ACAD_MTEXT_DEFINED_HEIGHT_BEGIN
1070
    46
1040
5.530941211648841
1000
ACAD_MTEXT_DEFINED_HEIGHT_END
  0
LINE
  5
17609
330
13E17
100
AcDbEntity
  8
图框
370
    -3
100
AcDbLine
 10
946.9285026103634
 20
514.7363439698449
 30
0.0
 11
1036.653967466372
 21
514.7363439698449
 31
0.0
1001
AcDbBlockRepETag
1070
     1
1071
      111
1005
17609
  0
LINE
  5
1760A
330
13E17
100
AcDbEntity
  8
图框
370
    -3
100
AcDbLine
 10
946.9285026103634
 20
509.2054027581959
 30
0.0
 11
1036.653967466372
 21
509.2054027581959
 31
0.0
1001
AcDbBlockRepETag
1070
     1
1071
      112
1005
1760A
  0
LINE
  5
1760B
330
13E17
100
AcDbEntity
  8
图框
370
    -3
100
AcDbLine
 10
946.9285026103634
 20
502.9127443836848
 30
0.0
 11
1036.653967466372
 21
502.9127443836848
 31
0.0
1001
AcDbBlockRepETag
1070
     1
1071
      113
1005
1760B
  0
LINE
  5
1760C
330
13E17
100
AcDbEntity
  8
图框
370
    -3
100
AcDbLine
 10
946.9285026103634
 20
496.620086009173
 30
0.0
 11
1036.653967466372
 21
496.620086009173
 31
0.0
1001
AcDbBlockRepETag
1070
     1
1071
      114
1005
1760C
  0
LINE
  5
1760D
330
13E17
100
AcDbEntity
  8
图框
370
    35
380
     1
100
AcDbLine
 10
946.9285026103634
 20
531.3291676047914
 30
0.0
 11
946.9285026103634
 21
484.0347692601515
 31
0.0
1001
AcDbBlockRepETag
1070
     1
1071
      115
1005
1760D
  0
LINE
  5
1760E
330
13E17
100
AcDbEntity
  8
图框
370
    -3
100
AcDbLine
 10
1021.301636813399
 20
531.3291676047914
 30
0.0
 11
1021.301636813399
 21
484.0347692601515
 31
0.0
1001
AcDbBlockRepETag
1070
     1
1071
      116
1005
1760E
  0
LINE
  5
1760F
330
13E17
100
AcDbEntity
  8
图框
370
    -3
100
AcDbLine
 10
1003.652872644553
 20
531.3291676047914
 30
0.0
 11
1003.652872644553
 21
484.0347692601515
 31
0.0
1001
AcDbBlockRepETag
1070
     1
1071
      117
1005
1760F
  0
LINE
  5
17610
330
13E17
100
AcDbEntity
  8
图框
370
    -3
100
AcDbLine
 10
965.3649733158603
 20
531.3291676047914
 30
0.0
 11
965.3649733158603
 21
509.2054027581959
 31
0.0
1001
AcDbBlockRepETag
1070
     1
1071
      118
1005
17610
  0
LINE
  5
17611
330
13E17
100
AcDbEntity
  8
图框
370
    -3
100
AcDbLine
 10
956.1467379631109
 20
531.3291676047914
 30
0.0
 11
956.1467379631109
 21
509.2054027581959
 31
0.0
1001
AcDbBlockRepETag
1070
     1
1071
      119
1005
17611
  0
MTEXT
  5
17612
102
{ACAD_XDICTIONARY
360
1766D
102
}
330
13E17
100
AcDbEntity
  8
图框
100
AcDbMText
 10
951.537620286737
 20
511.9708733640202
 30
0.0
 40
1.958998408821398
 41
9.218235352747692
 46
5.530941211648832
 71
     5
 72
     5
  1
标记\P{\Fromans|c134;Mark}
 73
     1
 44
1.0
1001
AcDbBlockRepETag
1070
     1
1071
      120
1005
17612
1001
ACAD
1000
ACAD_MTEXT_DEFINED_HEIGHT_BEGIN
1070
    46
1040
5.530941211648832
1000
ACAD_MTEXT_DEFINED_HEIGHT_END
  0
MTEXT
  5
17613
102
{ACAD_XDICTIONARY
360
1766F
102
}
330
13E17
100
AcDbEntity
  8
图框
100
AcDbMText
 10
953.4185582897936
 20
493.4737568219182
 30
0.0
 40
2.252848170144607
 41
12.98011135886041
 46
6.292658374510382
 71
     5
 72
     5
  1
审核\P{\Fromans|c134;Checked}
 73
     1
 44
1.0
1001
AcDbBlockRepETag
1070
     1
1071
      121
1005
17613
1001
ACAD
1000
ACAD_MTEXT_DEFINED_HEIGHT_BEGIN
1070
    46
1040
6.292658374510382
1000
ACAD_MTEXT_DEFINED_HEIGHT_END
  0
MTEXT
  5
17614
102
{ACAD_XDICTIONARY
360
17671
102
}
330
13E17
100
AcDbEntity
  8
图框
100
AcDbMText
 10
953.4185582897936
 20
499.8775635376777
 30
0.0
 40
2.252848170144607
 41
12.98011135886041
 46
6.070361692014189
 71
     5
 72
     5
  1
绘图\P{\Fromans|c134;Drawn\Ftxt|c134; }
 73
     1
 44
1.0
1001
AcDbBlockRepETag
1070
     1
1071
      122
1005
17614
1001
ACAD
1000
ACAD_MTEXT_DEFINED_HEIGHT_BEGIN
1070
    46
1040
6.070361692014189
1000
ACAD_MTEXT_DEFINED_HEIGHT_END
  0
ARC
  5
17615
330
13E17
100
AcDbEntity
  8
图框
 62
     4
370
    35
100
AcDbCircle
 10
1086.900627017421
 20
490.0179944151195
 30
0.0
 40
4.063310408393665
100
AcDbArc
 50
18.95237904564806
 51
161.0476209543519
1001
AcDbBlockRepETag
1070
     1
1071
      123
1005
17615
  0
ARC
  5
17616
330
13E17
100
AcDbEntity
  8
图框
 62
     4
370
    35
100
AcDbCircle
 10
1086.900627017421
 20
490.0179944151195
 30
0.0
 40
4.063310408393665
100
AcDbArc
 50
198.952379045648
 51
341.0476209543519
1001
AcDbBlockRepETag
1070
     1
1071
      124
1005
17616
  0
LINE
  5
17617
330
13E17
100
AcDbEntity
  8
图框
 62
     4
370
    35
100
AcDbLine
 10
1083.057593369548
 20
488.6983035966752
 30
0.0
 11
1090.74366066529
 21
488.6983035966752
 31
0.0
1001
AcDbBlockRepETag
1070
     1
1071
      125
1005
17617
  0
LINE
  5
17618
330
13E17
100
AcDbEntity
  8
图框
 62
     4
370
    35
100
AcDbLine
 10
1083.057593369548
 20
491.3376852335652
 30
0.0
 11
1090.74366066529
 21
491.3376852335652
 31
0.0
1001
AcDbBlockRepETag
1070
     1
1071
      126
1005
17618
  0
MTEXT
  5
17619
330
13E17
100
AcDbEntity
  8
图框
 62
     1
370
    20
100
AcDbMText
 10
1083.034582879669
 20
491.0506288081688
 30
0.0
 40
2.005930044038334
 41
5.047240019334847
 46
0.0
 71
     1
 72
     5
  1
{\fArial|b0|i0|c0|p34;W}
  7
Chinese
 73
     1
 44
1.0
1001
AcDbBlockRepETag
1070
     1
1071
      127
1005
17619
  0
LINE
  5
1761A
330
13E17
100
AcDbEntity
  8
图框
370
    -3
100
AcDbLine
 10
946.9285026103634
 20
490.327427634663
 30
0.0
 11
1036.653967466372
 21
490.327427634663
 31
0.0
1001
AcDbBlockRepETag
1070
     1
1071
      128
1005
1761A
  0
LINE
  5
1761B
330
13E17
100
AcDbEntity
  8
图框
370
    -3
100
AcDbLine
 10
959.9086139692238
 20
509.2054027581959
 30
0.0
 11
959.9086139692238
 21
484.0347692601515
 31
0.0
1001
AcDbBlockRepETag
1070
     1
1071
      129
1005
1761B
  0
MTEXT
  5
1761C
330
13E17
100
AcDbEntity
  8
图框
100
AcDbMText
 10
967.6594956750129
 20
506.0590735709403
 30
0.0
 40
2.252848170144607
 41
15.50176341157869
 46
6.292658374511246
 71
     5
 72
     5
  1
姓名{\Fromans|c134;/Name\Ftxt|c134; }
 73
     1
 44
1.0
1001
AcDbBlockRepETag
1070
     1
1071
      130
1005
1761C
1001
ACAD
1000
ACAD_MTEXT_DEFINED_HEIGHT_BEGIN
1070
    46
1040
6.292658374511246
1000
ACAD_MTEXT_DEFINED_HEIGHT_END
  0
MTEXT
  5
1761D
330
13E17
100
AcDbEntity
  8
图框
100
AcDbMText
 10
983.0415693332477
 20
506.0590735709403
 30
0.0
 40
2.252848170144607
 41
15.26238390489042
 46
6.2926583745112
 71
     5
 72
     5
  1
日期{\Fromans|c134;/Date}
 73
     1
 44
1.0
1001
AcDbBlockRepETag
1070
     1
1071
      131
1005
1761D
1001
ACAD
1000
ACAD_MTEXT_DEFINED_HEIGHT_BEGIN
1070
    46
1040
6.2926583745112
1000
ACAD_MTEXT_DEFINED_HEIGHT_END
  0
LINE
  5
1761E
330
13E17
100
AcDbEntity
  8
图框
370
    -3
100
AcDbLine
 10
946.9285026103634
 20
509.2054027581959
 30
0.0
 11
959.9086139692238
 21
502.9127443836848
 31
0.0
1001
AcDbBlockRepETag
1070
     1
1071
      132
1005
1761E
  0
MTEXT
  5
1761F
330
13E17
100
AcDbEntity
  8
图框
100
AcDbMText
 10
1012.931405110086
 20
506.0185715840725
 30
0.0
 40
2.252848170144607
 41
16.93492221063566
 46
0.0
 71
     5
 72
     5
  1
姓名{\Fromans|c134;/Name}
 73
     1
 44
1.0
1001
AcDbBlockRepETag
1070
     1
1071
      133
1005
1761F
  0
MTEXT
  5
17620
330
13E17
100
AcDbEntity
  8
图框
100
AcDbMText
 10
1028.977802139886
 20
506.0590735709403
 30
0.0
 40
2.252848170144607
 41
15.35233065297283
 46
6.292658374511256
 71
     5
 72
     5
  1
日期{\Fromans|c134;/Date}
 73
     1
 44
1.0
1001
AcDbBlockRepETag
1070
     1
1071
      134
1005
17620
1001
ACAD
1000
ACAD_MTEXT_DEFINED_HEIGHT_BEGIN
1070
    46
1040
6.292658374511256
1000
ACAD_MTEXT_DEFINED_HEIGHT_END
  0
LINE
  5
17621
330
13E17
100
AcDbEntity
  8
图框
370
    -3
100
AcDbLine
 10
1003.652872644553
 20
502.9127443836848
 30
0.0
 11
990.6727612856927
 21
509.2054027581959
 31
0.0
1001
AcDbBlockRepETag
1070
     1
1071
      135
1005
17621
  0
MTEXT
  5
17622
102
{ACAD_XDICTIONARY
360
17673
102
}
330
13E17
100
AcDbEntity
  8
图框
100
AcDbMText
 10
997.1628169651232
 20
487.1810984474071
 30
0.0
 40
2.252848170144607
 41
12.98011135886052
 46
6.292658374511517
 71
     5
 72
     5
  1
批准\P{\Fromans|c134;Approved}
 73
     1
 44
1.0
1001
AcDbBlockRepETag
1070
     1
1071
      136
1005
17622
1001
ACAD
1000
ACAD_MTEXT_DEFINED_HEIGHT_BEGIN
1070
    46
1040
6.292658374511517
1000
ACAD_MTEXT_DEFINED_HEIGHT_END
  0
MTEXT
  5
17623
102
{ACAD_XDICTIONARY
360
17675
102
}
330
13E17
100
AcDbEntity
  8
图框
100
AcDbMText
 10
953.4185582897936
 20
487.1810984474071
 30
0.0
 40
2.252848170144607
 41
12.98011135886041
 46
6.292658374511495
 71
     5
 72
     5
  1
工艺\P{\Fromans|c134;Process}
 73
     1
 44
1.0
1001
AcDbBlockRepETag
1070
     1
1071
      137
1005
17623
1001
ACAD
1000
ACAD_MTEXT_DEFINED_HEIGHT_BEGIN
1070
    46
1040
6.292658374511495
1000
ACAD_MTEXT_DEFINED_HEIGHT_END
  0
MTEXT
  5
17624
102
{ACAD_XDICTIONARY
360
17677
102
}
330
13E17
100
AcDbEntity
  8
图框
100
AcDbMText
 10
1028.977802139886
 20
511.9708733640202
 30
0.0
 40
1.958998408821398
 41
15.35233065297235
 46
5.530941211648912
 71
     5
 72
     5
  1
日期\P{\Fromans|c134;Date}
 73
     1
 44
1.0
1001
AcDbBlockRepETag
1070
     1
1071
      138
1005
17624
1001
ACAD
1000
ACAD_MTEXT_DEFINED_HEIGHT_BEGIN
1070
    46
1040
5.530941211648912
1000
ACAD_MTEXT_DEFINED_HEIGHT_END
  0
MTEXT
  5
17625
330
13E17
100
AcDbEntity
  8
图框
100
AcDbMText
 10
1086.643735910939
 20
509.1493769780809
 30
0.0
 40
2.154898249703542
 41
13.34474941400573
 46
8.87215554796615
 71
     5
 72
     5
  1
产品料号\P{\Fromans|c134;Part No.}
 73
     1
 44
1.0
1001
AcDbBlockRepETag
1070
     1
1071
      139
1005
17625
1001
ACAD
1000
ACAD_MTEXT_DEFINED_HEIGHT_BEGIN
1070
    46
1040
8.87215554796615
1000
ACAD_MTEXT_DEFINED_HEIGHT_END
  0
MTEXT
  5
17626
330
13E17
100
AcDbEntity
  8
图框
100
AcDbMText
 10
1086.643735910939
 20
500.2775205517163
 30
0.0
 40
1.958998408821398
 41
13.34474941400573
 46
8.871557304763321
 71
     5
 72
     5
  1
产品名称\P{\Fromans|c134;Part Name}
 73
     1
 44
1.0
1001
AcDbBlockRepETag
1070
     1
1071
      140
1005
17626
1001
ACAD
1000
ACAD_MTEXT_DEFINED_HEIGHT_BEGIN
1070
    46
1040
8.871557304763321
1000
ACAD_MTEXT_DEFINED_HEIGHT_END
  0
LINE
  5
17627
330
13E17
100
AcDbEntity
  8
图框
 62
     1
370
    18
100
AcDbLine
 10
833.4128518455365
 20
690.5347692601515
 30
0.0
 11
833.4128518455365
 21
480.5347692601515
 31
0.0
1001
AcDbBlockRepETag
1070
     1
1071
      141
1005
17627
  0
LINE
  5
17628
330
13E17
100
AcDbEntity
  8
图框
 62
     1
370
    18
100
AcDbLine
 10
833.4128518455365
 20
480.5347692601515
 30
0.0
 11
1130.411601781236
 21
480.5347692601515
 31
0.0
1001
AcDbBlockRepETag
1070
     1
1071
      142
1005
17628
  0
LINE
  5
17629
330
13E17
100
AcDbEntity
  8
图框
 62
     1
370
    18
100
AcDbLine
 10
833.4128518455365
 20
690.5347692601515
 30
0.0
 11
1130.411601781236
 21
690.5347692601515
 31
0.0
1001
AcDbBlockRepETag
1070
     1
1071
      143
1005
17629
  0
LINE
  5
1762A
330
13E17
100
AcDbEntity
  8
图框
 62
     1
370
    18
100
AcDbLine
 10
1130.411601781236
 20
480.5347692601515
 30
0.0
 11
1130.411601781236
 21
690.5347692601515
 31
0.0
1001
AcDbBlockRepETag
1070
     1
1071
      144
1005
1762A
  0
LINE
  5
1762B
330
13E17
100
AcDbEntity
  8
图框
370
    18
100
AcDbLine
 10
836.9128518455394
 20
686.7901958362482
 30
0.0
 11
861.5351874539182
 21
686.7901958362482
 31
0.0
1001
AcDbBlockRepETag
1070
     1
1071
      145
1005
1762B
  0
LINE
  5
1762C
330
13E17
100
AcDbEntity
  8
图框
370
    50
100
AcDbLine
 10
1126.928502610363
 20
484.3410054693078
 30
0.0
 11
1126.928502610363
 21
675.5347692601515
 31
0.0
1001
AcDbBlockRepETag
1070
     1
1071
      146
1005
1762C
  0
MTEXT
  5
1762D
330
13E17
100
AcDbEntity
  8
图框
 62
     3
100
AcDbMText
 10
1052.897990117958
 20
495.8417418993364
 30
0.0
 40
2.985513575034151
 41
10.82934843439114
 46
7.886094601211307
 71
     5
 72
     5
  1
V1.2
  7
Romans字体
 73
     1
 44
1.0
1001
AcDbBlockRepETag
1070
     1
1071
      147
1005
1762D
1001
ACAD
1000
ACAD_MTEXT_DEFINED_HEIGHT_BEGIN
1070
    46
1040
7.886094601211307
1000
ACAD_MTEXT_DEFINED_HEIGHT_END
  0
LINE
  5
1762E
330
13E17
100
AcDbEntity
  8
图框
 62
     6
100
AcDbLine
 10
1126.911601781236
 20
531.714049199969
 30
0.0
 11
1130.411601781236
 21
531.714049199969
 31
0.0
1001
AcDbBlockRepETag
1070
     1
1071
      148
1005
1762E
  0
ENDBLK
  5
13EAE
330
13E17
100
AcDbEntity
  8
0
100
AcDbBlockEnd
  0
BLOCK
  5
1672E
330
1672D
100
AcDbEntity
  8
0
100
AcDbBlockBegin
  2
*D2
 70
     1
 10
0.0
 20
0.0
 30
0.0
  3
*D2
  1

  0
LINE
  5
16DC0
330
1672D
100
AcDbEntity
  8
DIM
 62
     6
370
    -2
100
AcDbLine
 10
582.1800832446911
 20
232.5825591896589
 30
0.0
 11
578.1298106354942
 21
232.5825591896589
 31
0.0
  0
LINE
  5
16DC1
330
1672D
100
AcDbEntity
  8
DIM
 62
     6
370
    -2
100
AcDbLine
 10
582.1800832446911
 20
221.082559189659
 30
0.0
 11
578.1298106354942
 21
221.082559189659
 31
0.0
  0
LINE
  5
16DC2
330
1672D
100
AcDbEntity
  8
DIM
 62
     1
370
    -2
100
AcDbLine
 10
578.429810635494
 20
231.0825591896589
 30
0.0
 11
578.429810635494
 21
222.5825591896589
 31
0.0
  0
SOLID
  5
16DC3
330
1672D
100
AcDbEntity
  8
DIM
 62
     1
100
AcDbTrace
 10
578.179810635494
 20
231.0825591896589
 30
0.0
 11
578.679810635494
 21
231.0825591896589
 31
0.0
 12
578.429810635494
 22
232.5825591896589
 32
0.0
 13
578.429810635494
 23
232.5825591896589
 33
0.0
  0
SOLID
  5
16DC4
330
1672D
100
AcDbEntity
  8
DIM
 62
     1
100
AcDbTrace
 10
578.179810635494
 20
222.5825591896589
 30
0.0
 11
578.679810635494
 21
222.5825591896589
 31
0.0
 12
578.429810635494
 22
221.082559189659
 32
0.0
 13
578.429810635494
 23
221.082559189659
 33
0.0
  0
MTEXT
  5
16DC5
330
1672D
100
AcDbEntity
  8
DIM
 62
     4
100
AcDbMText
 10
577.1298106354938
 20
226.8325591896589
 30
0.0
 40
2.0
 41
0.0
 46
0.0
 71
     5
 72
     1
  1
\A1;%%C11.5
  7
Romans字体
 11
0.0000000000000001
 21
1.0
 31
0.0
 73
     1
 44
1.0
  0
POINT
  5
16DC6
330
1672D
100
AcDbEntity
  8
Defpoints
 62
     0
100
AcDbPoint
 10
582.3800832446912
 20
232.5825591896589
 30
0.0
  0
POINT
  5
16DC7
330
1672D
100
AcDbEntity
  8
Defpoints
 62
     0
100
AcDbPoint
 10
582.3800832446912
 20
221.082559189659
 30
0.0
  0
POINT
  5
16DC8
330
1672D
100
AcDbEntity
  8
Defpoints
 62
     0
100
AcDbPoint
 10
578.429810635494
 20
221.082559189659
 30
0.0
  0
ENDBLK
  5
1672F
330
1672D
100
AcDbEntity
  8
0
100
AcDbBlockEnd
  0
BLOCK
  5
16748
330
16747
100
AcDbEntity
  8
0
100
AcDbBlockBegin
  2
*D3
 70
     1
 10
0.0
 20
0.0
 30
0.0
  3
*D3
  1

  0
LINE
  5
16DC9
330
16747
100
AcDbEntity
  8
DIM
 62
     6
370
    -2
100
AcDbLine
 10
582.3800832446912
 20
248.8060476447352
 30
0.0
 11
582.3800832446912
 21
245.1566749661854
 31
0.0
  0
LINE
  5
16DCA
330
16747
100
AcDbEntity
  8
DIM
 62
     6
370
    -2
100
AcDbLine
 10
597.8805057406962
 20
251.0561089748004
 30
0.0
 11
597.8805057406962
 21
245.1566749661854
 31
0.0
  0
LINE
  5
16DCB
330
16747
100
AcDbEntity
  8
DIM
 62
     1
370
    -2
100
AcDbLine
 10
583.8800832446914
 20
245.4566749661854
 30
0.0
 11
596.3805057406962
 21
245.4566749661854
 31
0.0
  0
SOLID
  5
16DCC
330
16747
100
AcDbEntity
  8
DIM
 62
     1
100
AcDbTrace
 10
583.8800832446914
 20
245.7066749661855
 30
0.0
 11
583.8800832446914
 21
245.2066749661854
 31
0.0
 12
582.3800832446912
 22
245.4566749661854
 32
0.0
 13
582.3800832446912
 23
245.4566749661854
 33
0.0
  0
SOLID
  5
16DCD
330
16747
100
AcDbEntity
  8
DIM
 62
     1
100
AcDbTrace
 10
596.3805057406962
 20
245.7066749661855
 30
0.0
 11
596.3805057406962
 21
245.2066749661854
 31
0.0
 12
597.8805057406962
 22
245.4566749661854
 32
0.0
 13
597.8805057406962
 23
245.4566749661854
 33
0.0
  0
MTEXT
  5
16DCE
330
16747
100
AcDbEntity
  8
DIM
 62
     4
100
AcDbMText
 10
590.6574668291657
 20
246.7566749661854
 30
0.0
 40
2.0
 41
0.0
 46
0.0
 71
     5
 72
     1
  1
\A1;15.5
  7
Romans字体
 73
     1
 44
1.0
  0
POINT
  5
16DCF
330
16747
100
AcDbEntity
  8
Defpoints
 62
     0
100
AcDbPoint
 10
582.3800832446912
 20
249.0060476447352
 30
0.0
  0
POINT
  5
16DD0
330
16747
100
AcDbEntity
  8
Defpoints
 62
     0
100
AcDbPoint
 10
597.8805057406962
 20
251.2561089748003
 30
0.0
  0
POINT
  5
16DD1
330
16747
100
AcDbEntity
  8
Defpoints
 62
     0
100
AcDbPoint
 10
597.8805057406962
 20
245.4566749661854
 30
0.0
  0
ENDBLK
  5
16749
330
16747
100
AcDbEntity
  8
0
100
AcDbBlockEnd
  0
BLOCK
  5
16993
330
16992
100
AcDbEntity
  8
0
100
AcDbBlockBegin
  2
*D4
 70
     1
 10
0.0
 20
0.0
 30
0.0
  3
*D4
  1

  0
LINE
  5
16DD2
330
16992
100
AcDbEntity
  8
DIM
 62
     6
370
    -2
100
AcDbLine
 10
582.3800832446912
 20
222.3109173372373
 30
0.0
 11
582.3800832446912
 21
215.4945357187988
 31
0.0
  0
LINE
  5
16DD3
330
16992
100
AcDbEntity
  8
DIM
 62
     6
370
    -2
100
AcDbLine
 10
617.3804821115118
 20
225.7004931349126
 30
0.0
 11
617.3804821115118
 21
215.4945357187988
 31
0.0
  0
LINE
  5
16DD4
330
16992
100
AcDbEntity
  8
DIM
 62
     1
370
    -2
100
AcDbLine
 10
583.8800832446914
 20
215.7945357187988
 30
0.0
 11
615.8804821115118
 21
215.7945357187988
 31
0.0
  0
SOLID
  5
16DD5
330
16992
100
AcDbEntity
  8
DIM
 62
     1
100
AcDbTrace
 10
583.8800832446914
 20
216.0445357187988
 30
0.0
 11
583.8800832446914
 21
215.5445357187988
 31
0.0
 12
582.3800832446912
 22
215.7945357187988
 32
0.0
 13
582.3800832446912
 23
215.7945357187988
 33
0.0
  0
SOLID
  5
16DD6
330
16992
100
AcDbEntity
  8
DIM
 62
     1
100
AcDbTrace
 10
615.8804821115118
 20
216.0445357187988
 30
0.0
 11
615.8804821115118
 21
215.5445357187988
 31
0.0
 12
617.3804821115118
 22
215.7945357187988
 32
0.0
 13
617.3804821115118
 23
215.7945357187988
 33
0.0
  0
MTEXT
  5
16DD7
330
16992
100
AcDbEntity
  8
DIM
 62
     4
100
AcDbMText
 10
599.8802826781017
 20
217.0945357187988
 30
0.0
 40
2.0
 41
0.0
 46
0.0
 71
     5
 72
     1
  1
\A1;35
  7
Romans字体
 73
     1
 44
1.0
  0
POINT
  5
16DD8
330
16992
100
AcDbEntity
  8
Defpoints
 62
     0
100
AcDbPoint
 10
582.3800832446912
 20
222.5109173372373
 30
0.0
  0
POINT
  5
16DD9
330
16992
100
AcDbEntity
  8
Defpoints
 62
     0
100
AcDbPoint
 10
617.3804821115118
 20
225.9004931349126
 30
0.0
  0
POINT
  5
16DDA
330
16992
100
AcDbEntity
  8
Defpoints
 62
     0
100
AcDbPoint
 10
617.3804821115118
 20
215.7945357187988
 30
0.0
  0
ENDBLK
  5
16994
330
16992
100
AcDbEntity
  8
0
100
AcDbBlockEnd
  0
BLOCK
  5
169F8
330
169F7
100
AcDbEntity
  8
0
100
AcDbBlockBegin
  2
*D5
 70
     1
 10
0.0
 20
0.0
 30
0.0
  3
*D5
  1

  0
LINE
  5
16DDB
330
169F7
100
AcDbEntity
  8
DIM
 62
     6
370
    -2
100
AcDbLine
 10
615.3444141340121
 20
229.8325591896757
 30
0.0
 11
621.4647538518748
 21
229.8325591896757
 31
0.0
  0
LINE
  5
16DDC
330
169F7
100
AcDbEntity
  8
DIM
 62
     6
370
    -2
100
AcDbLine
 10
614.5223240201856
 20
223.8325591896757
 30
0.0
 11
621.4647538518748
 21
223.8325591896757
 31
0.0
  0
LINE
  5
16DDD
330
169F7
100
AcDbEntity
  8
DIM
 62
     1
370
    -2
100
AcDbLine
 10
621.1647538518747
 20
228.3325591896756
 30
0.0
 11
621.1647538518747
 21
225.3325591896757
 31
0.0
  0
SOLID
  5
16DDE
330
169F7
100
AcDbEntity
  8
DIM
 62
     1
100
AcDbTrace
 10
620.9147538518748
 20
228.3325591896756
 30
0.0
 11
621.4147538518748
 21
228.3325591896756
 31
0.0
 12
621.1647538518747
 22
229.8325591896757
 32
0.0
 13
621.1647538518747
 23
229.8325591896757
 33
0.0
  0
SOLID
  5
16DDF
330
169F7
100
AcDbEntity
  8
DIM
 62
     1
100
AcDbTrace
 10
620.9147538518748
 20
225.3325591896757
 30
0.0
 11
621.4147538518748
 21
225.3325591896757
 31
0.0
 12
621.1647538518747
 22
223.8325591896757
 32
0.0
 13
621.1647538518747
 23
223.8325591896757
 33
0.0
  0
MTEXT
  5
16DE0
330
169F7
100
AcDbEntity
  8
DIM
 62
     4
100
AcDbMText
 10
619.8647538518748
 20
226.8325591896758
 30
0.0
 40
2.0
 41
0.0
 46
0.0
 71
     5
 72
     1
  1
\A1;%%C6
  7
Romans字体
 11
0.0000000000000001
 21
1.0
 31
0.0
 73
     1
 44
1.0
  0
POINT
  5
16DE1
330
169F7
100
AcDbEntity
  8
Defpoints
 62
     0
100
AcDbPoint
 10
615.1444141340121
 20
229.8325591896757
 30
0.0
  0
POINT
  5
16DE2
330
169F7
100
AcDbEntity
  8
Defpoints
 62
     0
100
AcDbPoint
 10
614.3223240201854
 20
223.8325591896757
 30
0.0
  0
POINT
  5
16DE3
330
169F7
100
AcDbEntity
  8
Defpoints
 62
     0
100
AcDbPoint
 10
621.1647538518747
 20
223.8325591896757
 30
0.0
  0
ENDBLK
  5
169F9
330
169F7
100
AcDbEntity
  8
0
100
AcDbBlockEnd
  0
BLOCK
  5
16CBE
330
16CBD
100
AcDbEntity
  8
0
100
AcDbBlockBegin
  2
*D6
 70
     1
 10
0.0
 20
0.0
 30
0.0
  3
*D6
  1

  0
LINE
  5
16DE4
330
16CBD
100
AcDbEntity
  8
DIM
 62
     6
370
    -2
100
AcDbLine
 10
590.9553065286866
 20
231.8326954787093
 30
0.0
 11
591.6035022240622
 21
231.8326954787093
 31
0.0
  0
LINE
  5
16DE5
330
16CBD
100
AcDbEntity
  8
DIM
 62
     6
370
    -2
100
AcDbLine
 10
590.9553065286866
 20
221.8324229006419
 30
0.0
 11
591.6035022240622
 21
221.8324229006419
 31
0.0
  0
LINE
  5
16DE6
330
16CBD
100
AcDbEntity
  8
DIM
 62
     1
370
    -2
100
AcDbLine
 10
591.3035022240623
 20
230.3326954787093
 30
0.0
 11
591.3035022240623
 21
223.3324229006419
 31
0.0
  0
SOLID
  5
16DE7
330
16CBD
100
AcDbEntity
  8
DIM
 62
     1
100
AcDbTrace
 10
591.0535022240622
 20
230.3326954787093
 30
0.0
 11
591.5535022240622
 21
230.3326954787093
 31
0.0
 12
591.3035022240623
 22
231.8326954787093
 32
0.0
 13
591.3035022240623
 23
231.8326954787093
 33
0.0
  0
SOLID
  5
16DE8
330
16CBD
100
AcDbEntity
  8
DIM
 62
     1
100
AcDbTrace
 10
591.0535022240622
 20
223.3324229006419
 30
0.0
 11
591.5535022240622
 21
223.3324229006419
 31
0.0
 12
591.3035022240623
 22
221.8324229006419
 32
0.0
 13
591.3035022240623
 23
221.8324229006419
 33
0.0
  0
MTEXT
  5
16DE9
330
16CBD
100
AcDbEntity
  8
DIM
 62
     4
100
AcDbMText
 10
590.0035022240622
 20
226.8325591896757
 30
0.0
 40
2.0
 41
0.0
 46
0.0
 71
     5
 72
     1
  1
\A1;%%CD
  7
Romans字体
 11
0.0000000000000001
 21
1.0
 31
0.0
 73
     1
 44
1.0
  0
POINT
  5
16DEA
330
16CBD
100
AcDbEntity
  8
Defpoints
 62
     0
100
AcDbPoint
 10
590.7553065286863
 20
231.8326954787093
 30
0.0
  0
POINT
  5
16DEB
330
16CBD
100
AcDbEntity
  8
Defpoints
 62
     0
100
AcDbPoint
 10
590.7553065286863
 20
221.8324229006419
 30
0.0
  0
POINT
  5
16DEC
330
16CBD
100
AcDbEntity
  8
Defpoints
 62
     0
100
AcDbPoint
 10
591.3035022240623
 20
221.8324229006419
 30
0.0
  0
ENDBLK
  5
16CBF
330
16CBD
100
AcDbEntity
  8
0
100
AcDbBlockEnd
  0
BLOCK
  5
16D03
330
16D02
100
AcDbEntity
  8
0
100
AcDbBlockBegin
  2
*D7
 70
     1
 10
0.0
 20
0.0
 30
0.0
  3
*D7
  1

  0
LINE
  5
16DED
330
16D02
100
AcDbEntity
  8
DIM
 62
     6
370
    -2
100
AcDbLine
 10
597.1804821115198
 20
232.5827159220643
 30
0.0
 11
594.570563711167
 21
232.5827159220643
 31
0.0
  0
LINE
  5
16DEE
330
16D02
100
AcDbEntity
  8
DIM
 62
     6
370
    -2
100
AcDbLine
 10
597.1804821115198
 20
221.082559189659
 30
0.0
 11
594.570563711167
 21
221.082559189659
 31
0.0
  0
LINE
  5
16DEF
330
16D02
100
AcDbEntity
  8
DIM
 62
     1
370
    -2
100
AcDbLine
 10
594.8705637111668
 20
222.5825591896589
 30
0.0
 11
594.8705637111668
 21
231.0827159220643
 31
0.0
  0
LINE
  5
16DF0
330
16D02
100
AcDbEntity
  8
DIM
 62
     1
370
    -2
100
AcDbLine
 10
594.8705637111668
 20
232.5827159220643
 30
0.0
 11
594.8705637111668
 21
240.6112873506357
 31
0.0
  0
SOLID
  5
16DF1
330
16D02
100
AcDbEntity
  8
DIM
 62
     1
100
AcDbTrace
 10
594.6205637111668
 20
222.5825591896589
 30
0.0
 11
595.1205637111668
 21
222.5825591896589
 31
0.0
 12
594.8705637111668
 22
221.082559189659
 32
0.0
 13
594.8705637111668
 23
221.082559189659
 33
0.0
  0
SOLID
  5
16DF2
330
16D02
100
AcDbEntity
  8
DIM
 62
     1
100
AcDbTrace
 10
594.6205637111668
 20
231.0827159220643
 30
0.0
 11
595.1205637111668
 21
231.0827159220643
 31
0.0
 12
594.8705637111668
 22
232.5827159220643
 32
0.0
 13
594.8705637111668
 23
232.5827159220643
 33
0.0
  0
MTEXT
  5
16DF3
330
16D02
100
AcDbEntity
  8
DIM
 62
     4
100
AcDbMText
 10
593.5705637111667
 20
237.3470016363501
 30
0.0
 40
2.0
 41
0.0
 46
0.0
 71
     5
 72
     1
  1
\A1;%%C11.5
  7
Romans字体
 11
0.0000000000000001
 21
1.0
 31
0.0
 73
     1
 44
1.0
  0
POINT
  5
16DF4
330
16D02
100
AcDbEntity
  8
Defpoints
 62
     0
100
AcDbPoint
 10
597.38048211152
 20
232.5827159220643
 30
0.0
  0
POINT
  5
16DF5
330
16D02
100
AcDbEntity
  8
Defpoints
 62
     0
100
AcDbPoint
 10
597.38048211152
 20
221.082559189659
 30
0.0
  0
POINT
  5
16DF6
330
16D02
100
AcDbEntity
  8
Defpoints
 62
     0
100
AcDbPoint
 10
594.8705637111668
 20
221.082559189659
 30
0.0
  0
ENDBLK
  5
16D04
330
16D02
100
AcDbEntity
  8
0
100
AcDbBlockEnd
  0
BLOCK
  5
16D44
330
16D43
100
AcDbEntity
  8
0
100
AcDbBlockBegin
  2
*D8
 70
     1
 10
0.0
 20
0.0
 30
0.0
  3
*D8
  1

  0
LINE
  5
16DF7
330
16D43
100
AcDbEntity
  8
DIM
 62
     6
370
    -2
100
AcDbLine
 10
583.9121804565754
 20
258.2562997794474
 30
0.0
 11
578.429810635494
 21
258.2562997794474
 31
0.0
  0
LINE
  5
16DF8
330
16D43
100
AcDbEntity
  8
DIM
 62
     6
370
    -2
100
AcDbLine
 10
583.9121804565754
 20
251.2561089748004
 30
0.0
 11
578.429810635494
 21
251.2561089748004
 31
0.0
  0
LINE
  5
16DF9
330
16D43
100
AcDbEntity
  8
DIM
 62
     1
370
    -2
100
AcDbLine
 10
578.7298106354941
 20
256.7562997794474
 30
0.0
 11
578.7298106354938
 21
252.7561089748004
 31
0.0
  0
SOLID
  5
16DFA
330
16D43
100
AcDbEntity
  8
DIM
 62
     1
100
AcDbTrace
 10
578.4798106354941
 20
256.7562997794474
 30
0.0
 11
578.9798106354941
 21
256.7562997794474
 31
0.0
 12
578.7298106354941
 22
258.2562997794474
 32
0.0
 13
578.7298106354941
 23
258.2562997794474
 33
0.0
  0
SOLID
  5
16DFB
330
16D43
100
AcDbEntity
  8
DIM
 62
     1
100
AcDbTrace
 10
578.479810635494
 20
252.7561089748004
 30
0.0
 11
578.979810635494
 21
252.7561089748004
 31
0.0
 12
578.7298106354938
 22
251.2561089748004
 32
0.0
 13
578.7298106354938
 23
251.2561089748004
 33
0.0
  0
MTEXT
  5
16DFC
330
16D43
100
AcDbEntity
  8
DIM
 62
     4
100
AcDbMText
 10
577.429810635494
 20
254.756204377124
 30
0.0
 40
2.0
 41
0.0
 46
0.0
 71
     5
 72
     1
  1
\A1;%%Cd
  7
Romans字体
 11
0.0000000000000001
 21
1.0
 31
0.0
 73
     1
 44
1.0
  0
POINT
  5
16DFD
330
16D43
100
AcDbEntity
  8
Defpoints
 62
     0
100
AcDbPoint
 10
584.1121804565755
 20
258.2562997794474
 30
0.0
  0
POINT
  5
16DFE
330
16D43
100
AcDbEntity
  8
Defpoints
 62
     0
100
AcDbPoint
 10
584.1121804565755
 20
251.2561089748004
 30
0.0
  0
POINT
  5
16DFF
330
16D43
100
AcDbEntity
  8
Defpoints
 62
     0
100
AcDbPoint
 10
578.7298106354938
 20
251.2561089748004
 30
0.0
  0
ENDBLK
  5
16D45
330
16D43
100
AcDbEntity
  8
0
100
AcDbBlockEnd
  0
ENDSEC
  0
SECTION
  2
ENTITIES
  0
HATCH
  5
28AE
330
1F
100
AcDbEntity
  8
图层 1
 62
     7
100
AcDbHatch
 10
0.0
 20
0.0
 30
0.0
210
0.0
220
0.0
230
1.0
  2
SOLID
 70
     1
 71
     0
 91
        1
 92
        1
 93
        2
 72
     4
 94
        3
 73
     0
 74
     0
 95
       17
 96
       13
 40
0.0
 40
0.0
 40
0.0
 40
0.0
 40
0.3527780104152769
 40
0.3527780104152769
 40
0.3527780104152769
 40
0.7055560208305538
 40
0.7055560208305538
 40
0.7055560208305538
 40
1.058334031245828
 40
1.058334031245828
 40
1.058334031245828
 40
1.411112041661104
 40
1.411112041661104
 40
1.411112041661104
 40
1.411112041661104
 10
11.07013262565829
 20
29.50312817963231
 10
11.07013262565829
 20
29.50312817963231
 10
10.9431807732774
 20
29.50312817963231
 10
10.9431807732774
 20
29.50312817963231
 10
10.9431807732774
 20
29.50312817963231
 10
10.85843136843155
 20
29.22786486877117
 10
10.85843136843155
 20
29.22786486877117
 10
10.85843136843155
 20
29.22786486877117
 10
10.90080607085448
 20
29.2068497724476
 10
10.90080607085448
 20
29.2068497724476
 10
10.94455881238059
 20
29.31571486159919
 10
11.00346998404173
 20
29.40907701083995
 10
11.07013262565829
 20
29.50312817963231
 72
     1
 10
11.07013262565829
 20
29.50312817963231
 11
11.07013262565829
 21
29.50312817963231
 97
        0
 75
     0
 76
     1
 98
        0
450
        0
451
        0
460
0.0
461
0.0
452
        0
462
0.0
453
        0
470

  0
HATCH
  5
2C65
330
1F
100
AcDbEntity
  8
图层 1
 62
     7
100
AcDbHatch
 10
0.0
 20
0.0
 30
0.0
210
0.0
220
0.0
230
1.0
  2
SOLID
 70
     1
 71
     0
 91
        1
 92
        1
 93
        2
 72
     4
 94
        3
 73
     0
 74
     0
 95
       47
 96
       43
 40
0.0
 40
0.0
 40
0.0
 40
0.0
 40
0.3527780104152769
 40
0.3527780104152769
 40
0.3527780104152769
 40
0.7055560208305538
 40
0.7055560208305538
 40
0.7055560208305538
 40
1.058334031245828
 40
1.058334031245828
 40
1.058334031245828
 40
1.411112041661104
 40
1.411112041661104
 40
1.411112041661104
 40
1.763890052076384
 40
1.763890052076384
 40
1.763890052076384
 40
2.116668062491659
 40
2.116668062491659
 40
2.116668062491659
 40
2.469446072906936
 40
2.469446072906936
 40
2.469446072906936
 40
2.822224083322215
 40
2.822224083322215
 40
2.822224083322215
 40
3.175002093737492
 40
3.175002093737492
 40
3.175002093737492
 40
3.527780104152768
 40
3.527780104152768
 40
3.527780104152768
 40
3.880558114568044
 40
3.880558114568044
 40
3.880558114568044
 40
4.233336124983321
 40
4.233336124983321
 40
4.233336124983321
 40
4.586114135398599
 40
4.586114135398599
 40
4.586114135398599
 40
4.938892145813873
 40
4.938892145813873
 40
4.938892145813873
 40
4.938892145813873
 10
162.8986914070121
 20
257.4895347631509
 10
162.8986914070121
 20
257.4895347631509
 10
162.9200510131114
 20
257.4471600607279
 10
162.9200510131114
 20
257.4471600607279
 10
162.9200510131114
 20
257.4471600607279
 10
162.9200510131114
 20
257.404785358305
 10
162.9200510131114
 20
257.404785358305
 10
162.9200510131114
 20
257.404785358305
 10
162.8986914070121
 20
257.36258291077
 10
162.8986914070121
 20
257.36258291077
 10
162.8986914070121
 20
257.36258291077
 10
162.8986914070121
 20
257.320208208347
 10
162.8986914070121
 20
257.320208208347
 10
162.8986914070121
 20
257.320208208347
 10
162.8563167045891
 20
257.2990208571356
 10
162.8563167045891
 20
257.2990208571356
 10
162.8563167045891
 20
257.2990208571356
 10
162.8139420021662
 20
257.2563016449369
 10
162.8139420021662
 20
257.2563016449369
 10
162.8139420021662
 20
257.2563016449369
 10
162.7295371070961
 20
257.2563016449369
 10
162.7295371070961
 20
257.2563016449369
 10
162.7295371070961
 20
257.2563016449369
 10
162.6658027985738
 20
257.2778335059241
 10
162.6658027985738
 20
257.2778335059241
 10
162.6658027985738
 20
257.2778335059241
 10
162.6237726059267
 20
257.2990208571356
 10
162.6237726059267
 20
257.2990208571356
 10
162.6237726059267
 20
257.2990208571356
 10
162.5813979035038
 20
257.3413955595585
 10
162.5813979035038
 20
257.3413955595585
 10
162.5813979035038
 20
257.3413955595585
 10
162.5813979035038
 20
257.4895347631509
 10
162.5813979035038
 20
257.4895347631509
 10
162.5813979035038
 20
257.4895347631509
 10
162.6447877022503
 20
257.5525800521216
 10
162.6447877022503
 20
257.5525800521216
 10
162.6447877022503
 20
257.5525800521216
 10
162.7081775009967
 20
257.5525800521216
 10
162.7081775009967
 20
257.5525800521216
 10
162.8749202324821
 20
257.5424170137356
 10
162.7918933765152
 20
257.5939212252171
 10
162.8986914070121
 20
257.4895347631509
 72
     1
 10
162.8986914070121
 20
257.4895347631509
 11
162.8986914070121
 21
257.4895347631509
 97
        0
 75
     0
 76
     1
 98
        0
450
        0
451
        0
460
0.0
461
0.0
452
        0
462
0.0
453
        0
470

  0
HATCH
  5
2EE7
330
1F
100
AcDbEntity
  8
图层 1
 62
     7
100
AcDbHatch
 10
0.0
 20
0.0
 30
0.0
210
0.0
220
0.0
230
1.0
  2
SOLID
 70
     1
 71
     0
 91
        1
 92
        1
 93
        2
 72
     4
 94
        3
 73
     0
 74
     0
 95
       56
 96
       52
 40
0.0
 40
0.0
 40
0.0
 40
0.0
 40
0.3527780104152769
 40
0.3527780104152769
 40
0.3527780104152769
 40
0.7055560208305538
 40
0.7055560208305538
 40
0.7055560208305538
 40
1.058334031245828
 40
1.058334031245828
 40
1.058334031245828
 40
1.411112041661104
 40
1.411112041661104
 40
1.411112041661104
 40
1.763890052076384
 40
1.763890052076384
 40
1.763890052076384
 40
2.116668062491659
 40
2.116668062491659
 40
2.116668062491659
 40
2.469446072906936
 40
2.469446072906936
 40
2.469446072906936
 40
2.822224083322215
 40
2.822224083322215
 40
2.822224083322215
 40
3.175002093737492
 40
3.175002093737492
 40
3.175002093737492
 40
3.527780104152768
 40
3.527780104152768
 40
3.527780104152768
 40
3.880558114568044
 40
3.880558114568044
 40
3.880558114568044
 40
4.233336124983321
 40
4.233336124983321
 40
4.233336124983321
 40
4.586114135398599
 40
4.586114135398599
 40
4.586114135398599
 40
4.938892145813873
 40
4.938892145813873
 40
4.938892145813873
 40
5.291670156229153
 40
5.291670156229153
 40
5.291670156229153
 40
5.64444816664443
 40
5.64444816664443
 40
5.64444816664443
 40
5.997226177059705
 40
5.997226177059705
 40
5.997226177059705
 40
5.997226177059705
 10
185.4837187788815
 20
241.4451977396596
 10
185.4837187788815
 20
241.4451977396596
 10
185.4837187788815
 20
241.4028230372367
 10
185.4837187788815
 20
241.4028230372367
 10
185.4837187788815
 20
241.4028230372367
 10
185.5047338752051
 20
241.3604483348137
 10
185.5047338752051
 20
241.3604483348137
 10
185.4520238795082
 20
241.2782827532863
 10
185.4671823096433
 20
241.1897437409066
 10
185.335579575289
 20
241.2119646214456
 10
185.335579575289
 20
241.2119646214456
 10
185.2932048728662
 20
241.2119646214456
 10
185.2932048728662
 20
241.2119646214456
 10
185.2932048728662
 20
241.2119646214456
 10
185.2294705643439
 20
241.2334964824328
 10
185.2294705643439
 20
241.2334964824328
 10
185.2294705643439
 20
241.2334964824328
 10
185.1660807655974
 20
241.2543393238685
 10
185.1660807655974
 20
241.2543393238685
 10
185.1660807655974
 20
241.2543393238685
 10
185.1450656692739
 20
241.2758711848558
 10
185.1450656692739
 20
241.2758711848558
 10
185.1450656692739
 20
241.2758711848558
 10
185.1450656692739
 20
241.2967140262914
 10
185.1450656692739
 20
241.2967140262914
 10
185.1450656692739
 20
241.2967140262914
 10
185.1237060631745
 20
241.3604483348137
 10
185.1237060631745
 20
241.3604483348137
 10
185.1237060631745
 20
241.3604483348137
 10
185.1237060631745
 20
241.4028230372367
 10
185.1237060631745
 20
241.4028230372367
 10
185.1237060631745
 20
241.4028230372367
 10
185.1660807655974
 20
241.4875724420825
 10
185.1660807655974
 20
241.4875724420825
 10
185.1660807655974
 20
241.4875724420825
 10
185.2084554680203
 20
241.5085875384061
 10
185.2084554680203
 20
241.5085875384061
 10
185.2084554680203
 20
241.5085875384061
 10
185.2718452667668
 20
241.5297748896175
 10
185.2718452667668
 20
241.5297748896175
 10
185.2718452667668
 20
241.5297748896175
 10
185.3565946716127
 20
241.5297748896175
 10
185.3565946716127
 20
241.5297748896175
 10
185.3565946716127
 20
241.5297748896175
 10
185.4199844703592
 20
241.5085875384061
 10
185.4199844703592
 20
241.5085875384061
 10
185.4199844703592
 20
241.5085875384061
 10
185.4623591727821
 20
241.4875724420825
 10
185.4623591727821
 20
241.4875724420825
 10
185.4623591727821
 20
241.4875724420825
 10
185.4837187788815
 20
241.4451977396596
 10
185.4837187788815
 20
241.4451977396596
 72
     1
 10
185.4837187788815
 20
241.4451977396596
 11
185.4837187788815
 21
241.4451977396596
 97
        0
 75
     0
 76
     1
 98
        0
450
        0
451
        0
460
0.0
461
0.0
452
        0
462
0.0
453
        0
470

  0
HATCH
  5
2F93
330
1F
100
AcDbEntity
  8
图层 1
 62
     7
100
AcDbHatch
 10
0.0
 20
0.0
 30
0.0
210
0.0
220
0.0
230
1.0
  2
SOLID
 70
     1
 71
     0
 91
        1
 92
        1
 93
        2
 72
     4
 94
        3
 73
     0
 74
     0
 95
       38
 96
       34
 40
0.0
 40
0.0
 40
0.0
 40
0.0
 40
0.3527780104152769
 40
0.3527780104152769
 40
0.3527780104152769
 40
0.7055560208305538
 40
0.7055560208305538
 40
0.7055560208305538
 40
1.058334031245828
 40
1.058334031245828
 40
1.058334031245828
 40
1.411112041661104
 40
1.411112041661104
 40
1.411112041661104
 40
1.763890052076384
 40
1.763890052076384
 40
1.763890052076384
 40
2.116668062491659
 40
2.116668062491659
 40
2.116668062491659
 40
2.469446072906936
 40
2.469446072906936
 40
2.469446072906936
 40
2.822224083322215
 40
2.822224083322215
 40
2.822224083322215
 40
3.175002093737492
 40
3.175002093737492
 40
3.175002093737492
 40
3.527780104152768
 40
3.527780104152768
 40
3.527780104152768
 40
3.880558114568044
 40
3.880558114568044
 40
3.880558114568044
 40
3.880558114568044
 10
185.907121293335
 20
220.1937677098971
 10
185.9005756075949
 20
220.0449394867532
 10
185.9329595265197
 20
220.1136691870245
 10
185.864746590912
 20
219.9817219428946
 10
185.864746590912
 20
219.9817219428946
 10
185.822371888489
 20
219.9605345916831
 10
185.822371888489
 20
219.9605345916831
 10
185.822371888489
 20
219.9605345916831
 10
185.6528730787974
 20
219.9605345916831
 10
185.6528730787974
 20
219.9605345916831
 10
185.6528730787974
 20
219.9605345916831
 10
185.5894832800509
 20
220.002909294106
 10
185.5894832800509
 20
220.002909294106
 10
185.5894832800509
 20
220.002909294106
 10
185.5681236739515
 20
220.0240966453175
 10
185.5681236739515
 20
220.0240966453175
 10
185.5681236739515
 20
220.0240966453175
 10
185.5681236739515
 20
220.045283996529
 10
185.5681236739515
 20
220.045283996529
 10
185.5681236739515
 20
220.045283996529
 10
185.547108577628
 20
220.0876586989519
 10
185.547108577628
 20
220.0876586989519
 10
185.547108577628
 20
220.0876586989519
 10
185.547108577628
 20
220.1513930074742
 10
185.547108577628
 20
220.1513930074742
 10
185.547108577628
 20
220.1513930074742
 10
185.5894832800509
 20
220.23614241232
 10
185.5894832800509
 20
220.23614241232
 10
185.5894832800509
 20
220.23614241232
 10
185.6318579824738
 20
220.2573297635315
 10
185.6318579824738
 20
220.2573297635315
 10
185.7055830744942
 20
220.2566407439799
 10
185.8416644359337
 20
220.3310548555519
 10
185.907121293335
 20
220.1937677098971
 72
     1
 10
185.907121293335
 20
220.1937677098971
 11
185.907121293335
 21
220.1937677098971
 97
        0
 75
     0
 76
     1
 98
        0
450
        0
451
        0
460
0.0
461
0.0
452
        0
462
0.0
453
        0
470

  0
HATCH
  5
2FDE
330
1F
100
AcDbEntity
  8
图层 1
 62
     7
100
AcDbHatch
 10
0.0
 20
0.0
 30
0.0
210
0.0
220
0.0
230
1.0
  2
SOLID
 70
     1
 71
     0
 91
        1
 92
        1
 93
        2
 72
     4
 94
        3
 73
     0
 74
     0
 95
       50
 96
       46
 40
0.0
 40
0.0
 40
0.0
 40
0.0
 40
0.3527780104152769
 40
0.3527780104152769
 40
0.3527780104152769
 40
0.7055560208305538
 40
0.7055560208305538
 40
0.7055560208305538
 40
1.058334031245828
 40
1.058334031245828
 40
1.058334031245828
 40
1.411112041661104
 40
1.411112041661104
 40
1.411112041661104
 40
1.763890052076384
 40
1.763890052076384
 40
1.763890052076384
 40
2.116668062491659
 40
2.116668062491659
 40
2.116668062491659
 40
2.469446072906936
 40
2.469446072906936
 40
2.469446072906936
 40
2.822224083322215
 40
2.822224083322215
 40
2.822224083322215
 40
3.175002093737492
 40
3.175002093737492
 40
3.175002093737492
 40
3.527780104152768
 40
3.527780104152768
 40
3.527780104152768
 40
3.880558114568044
 40
3.880558114568044
 40
3.880558114568044
 40
4.233336124983321
 40
4.233336124983321
 40
4.233336124983321
 40
4.586114135398599
 40
4.586114135398599
 40
4.586114135398599
 40
4.938892145813873
 40
4.938892145813873
 40
4.938892145813873
 40
5.291670156229153
 40
5.291670156229153
 40
5.291670156229153
 40
5.291670156229153
 10
180.9117295442905
 20
208.9327766684477
 10
180.9117295442905
 20
208.9327766684477
 10
180.9117295442905
 20
208.7637946234197
 10
180.9117295442905
 20
208.7637946234197
 10
181.2273004989198
 20
208.6749111012643
 10
181.3833634273555
 20
208.6776671794706
 10
181.6948002646751
 20
208.5097186637701
 10
181.9542161258496
 20
208.4294478860095
 10
182.1388733656765
 20
208.2134402565853
 10
182.3297317814676
 20
208.02292635057
 10
182.3297317814676
 20
208.02292635057
 10
182.435496282637
 20
208.065301052993
 10
182.435496282637
 20
208.065301052993
 10
182.288390608372
 20
208.2733849575739
 10
182.3752070718726
 20
208.2134402565853
 10
182.1605774815516
 20
208.3824223016133
 10
182.1605774815516
 20
208.3824223016133
 10
182.1182027791287
 20
208.4247970040363
 10
182.1182027791287
 20
208.4247970040363
 10
182.1182027791287
 20
208.4247970040363
 10
182.0968431730294
 20
208.467516216235
 10
182.0968431730294
 20
208.467516216235
 10
182.0968431730294
 20
208.467516216235
 10
182.0544684706064
 20
208.4883590576707
 10
182.0544684706064
 20
208.4883590576707
 10
182.0544684706064
 20
208.4883590576707
 10
181.9910786718599
 20
208.5305615052057
 10
181.9910786718599
 20
208.5305615052057
 10
181.9910786718599
 20
208.5305615052057
 10
181.948703969437
 20
208.552093366193
 10
181.948703969437
 20
208.552093366193
 10
181.948703969437
 20
208.552093366193
 10
181.9063292670141
 20
208.5729362076286
 10
181.9063292670141
 20
208.5729362076286
 10
181.9063292670141
 20
208.5729362076286
 10
181.8639545645911
 20
208.6156554198274
 10
181.8639545645911
 20
208.6156554198274
 10
181.8639545645911
 20
208.6156554198274
 10
181.821924371944
 20
208.6368427710388
 10
181.821924371944
 20
208.6368427710388
 10
181.6637943848536
 20
208.6742220817127
 10
181.5452830219797
 20
208.8092699138248
 10
181.3771622513911
 20
208.8061693258427
 10
181.2803550043924
 20
208.8573290275484
 10
181.0126709085988
 20
208.8971199066528
 10
180.9117295442905
 20
208.9327766684477
 72
     1
 10
180.9117295442905
 20
208.9327766684477
 11
180.9117295442905
 21
208.9327766684477
 97
        0
 75
     0
 76
     1
 98
        0
450
        0
451
        0
460
0.0
461
0.0
452
        0
462
0.0
453
        0
470

  0
HATCH
  5
35C8
330
1F
100
AcDbEntity
  8
图层 1
 62
     7
100
AcDbHatch
 10
0.0
 20
0.0
 30
0.0
210
0.0
220
0.0
230
1.0
  2
SOLID
 70
     1
 71
     0
 91
        1
 92
        1
 93
        2
 72
     4
 94
        3
 73
     0
 74
     0
 95
       38
 96
       34
 40
0.0
 40
0.0
 40
0.0
 40
0.0
 40
0.3527780104152769
 40
0.3527780104152769
 40
0.3527780104152769
 40
0.7055560208305538
 40
0.7055560208305538
 40
0.7055560208305538
 40
1.058334031245828
 40
1.058334031245828
 40
1.058334031245828
 40
1.411112041661104
 40
1.411112041661104
 40
1.411112041661104
 40
1.763890052076384
 40
1.763890052076384
 40
1.763890052076384
 40
2.116668062491659
 40
2.116668062491659
 40
2.116668062491659
 40
2.469446072906936
 40
2.469446072906936
 40
2.469446072906936
 40
2.822224083322215
 40
2.822224083322215
 40
2.822224083322215
 40
3.175002093737492
 40
3.175002093737492
 40
3.175002093737492
 40
3.527780104152768
 40
3.527780104152768
 40
3.527780104152768
 40
3.880558114568044
 40
3.880558114568044
 40
3.880558114568044
 40
3.880558114568044
 10
189.145513185819
 20
166.8326485368285
 10
189.207869455238
 20
166.740492171803
 10
189.1317327947871
 20
166.6833035490209
 10
189.103138483396
 20
166.6209472796017
 10
189.103138483396
 20
166.6209472796017
 10
189.0607637809731
 20
166.5997599283903
 10
189.0607637809731
 20
166.5997599283903
 10
189.0607637809731
 20
166.5997599283903
 10
188.9973739822266
 20
166.5785725771788
 10
188.9973739822266
 20
166.5785725771788
 10
188.9973739822266
 20
166.5785725771788
 10
188.9549992798037
 20
166.5997599283903
 10
188.9549992798037
 20
166.5997599283903
 10
188.9549992798037
 20
166.5997599283903
 10
188.8916094810572
 20
166.5997599283903
 10
188.8916094810572
 20
166.5997599283903
 10
188.8916094810572
 20
166.5997599283903
 10
188.8492347786343
 20
166.6209472796017
 10
188.8492347786343
 20
166.6209472796017
 10
188.8492347786343
 20
166.6209472796017
 10
188.8278751725349
 20
166.6633219820247
 10
188.8278751725349
 20
166.6633219820247
 10
188.8278751725349
 20
166.6633219820247
 10
188.8068600762114
 20
166.6845093332361
 10
188.8068600762114
 20
166.6845093332361
 10
188.8068600762114
 20
166.6845093332361
 10
188.8068600762114
 20
166.8326485368285
 10
188.8068600762114
 20
166.8326485368285
 10
188.8068600762114
 20
166.8326485368285
 10
188.8702498749578
 20
166.896038335575
 10
188.8702498749578
 20
166.896038335575
 10
189.0228677056355
 20
166.8819134347673
 10
189.0686875058164
 20
166.9411691162043
 10
189.145513185819
 20
166.8326485368285
 72
     1
 10
189.145513185819
 20
166.8326485368285
 11
189.145513185819
 21
166.8326485368285
 97
        0
 75
     0
 76
     1
 98
        0
450
        0
451
        0
460
0.0
461
0.0
452
        0
462
0.0
453
        0
470

  0
HATCH
  5
35D8
330
1F
100
AcDbEntity
  8
图层 1
 62
     7
100
AcDbHatch
 10
0.0
 20
0.0
 30
0.0
210
0.0
220
0.0
230
1.0
  2
SOLID
 70
     1
 71
     0
 91
        1
 92
        1
 93
        2
 72
     4
 94
        3
 73
     0
 74
     0
 95
       68
 96
       64
 40
0.0
 40
0.0
 40
0.0
 40
0.0
 40
0.3527780104152769
 40
0.3527780104152769
 40
0.3527780104152769
 40
0.7055560208305538
 40
0.7055560208305538
 40
0.7055560208305538
 40
1.058334031245828
 40
1.058334031245828
 40
1.058334031245828
 40
1.411112041661104
 40
1.411112041661104
 40
1.411112041661104
 40
1.763890052076384
 40
1.763890052076384
 40
1.763890052076384
 40
2.116668062491659
 40
2.116668062491659
 40
2.116668062491659
 40
2.469446072906936
 40
2.469446072906936
 40
2.469446072906936
 40
2.822224083322215
 40
2.822224083322215
 40
2.822224083322215
 40
3.175002093737492
 40
3.175002093737492
 40
3.175002093737492
 40
3.527780104152768
 40
3.527780104152768
 40
3.527780104152768
 40
3.880558114568044
 40
3.880558114568044
 40
3.880558114568044
 40
4.233336124983321
 40
4.233336124983321
 40
4.233336124983321
 40
4.586114135398599
 40
4.586114135398599
 40
4.586114135398599
 40
4.938892145813873
 40
4.938892145813873
 40
4.938892145813873
 40
5.291670156229153
 40
5.291670156229153
 40
5.291670156229153
 40
5.64444816664443
 40
5.64444816664443
 40
5.64444816664443
 40
5.997226177059705
 40
5.997226177059705
 40
5.997226177059705
 40
6.350004187474984
 40
6.350004187474984
 40
6.350004187474984
 40
6.702782197890257
 40
6.702782197890257
 40
6.702782197890257
 40
7.055560208305537
 40
7.055560208305537
 40
7.055560208305537
 40
7.408338218720808
 40
7.408338218720808
 40
7.408338218720808
 40
7.408338218720808
 10
174.7732543591544
 20
135.4846705078077
 10
174.7732543591544
 20
135.4846705078077
 10
174.7732543591544
 20
135.3789060066383
 10
174.7732543591544
 20
135.3789060066383
 10
174.7732543591544
 20
135.3789060066383
 10
174.8156290615773
 20
135.3789060066383
 10
174.8156290615773
 20
135.3789060066383
 10
174.8156290615773
 20
135.3789060066383
 10
174.8580037640002
 20
135.3578909103147
 10
174.8580037640002
 20
135.3578909103147
 10
174.8580037640002
 20
135.3578909103147
 10
174.9213935627468
 20
135.3578909103147
 10
174.9213935627468
 20
135.3578909103147
 10
174.9213935627468
 20
135.3578909103147
 10
174.9637682651697
 20
135.3365313042154
 10
174.9637682651697
 20
135.3365313042154
 10
174.9637682651697
 20
135.3365313042154
 10
174.9847833614933
 20
135.3365313042154
 10
174.9847833614933
 20
135.3365313042154
 10
174.9847833614933
 20
135.3365313042154
 10
175.0271580639162
 20
135.3155162078918
 10
175.0271580639162
 20
135.3155162078918
 10
175.0271580639162
 20
135.3155162078918
 10
175.0485176700155
 20
135.2941566017924
 10
175.0485176700155
 20
135.2941566017924
 10
175.0485176700155
 20
135.2941566017924
 10
175.0695327663391
 20
135.2941566017924
 10
175.0695327663391
 20
135.2941566017924
 10
175.0695327663391
 20
135.2941566017924
 10
175.0908923724385
 20
135.2731415054689
 10
175.0908923724385
 20
135.2731415054689
 10
175.0908923724385
 20
135.2731415054689
 10
175.1332670748614
 20
135.2731415054689
 10
175.1332670748614
 20
135.2731415054689
 10
175.1332670748614
 20
135.2731415054689
 10
175.154282171185
 20
135.2517818993695
 10
175.154282171185
 20
135.2517818993695
 10
175.154282171185
 20
135.2517818993695
 10
175.154282171185
 20
135.3578909103147
 10
175.154282171185
 20
135.3578909103147
 10
175.154282171185
 20
135.3578909103147
 10
175.1332670748614
 20
135.3789060066383
 10
175.1332670748614
 20
135.3789060066383
 10
175.1332670748614
 20
135.3789060066383
 10
175.0908923724385
 20
135.3789060066383
 10
175.0908923724385
 20
135.3789060066383
 10
175.0908923724385
 20
135.3789060066383
 10
175.0908923724385
 20
135.3999211029619
 10
175.0908923724385
 20
135.3999211029619
 10
175.0908923724385
 20
135.3999211029619
 10
175.0695327663391
 20
135.3999211029619
 10
175.0695327663391
 20
135.3999211029619
 10
175.0695327663391
 20
135.3999211029619
 10
175.0271580639162
 20
135.4212807090612
 10
175.0271580639162
 20
135.4212807090612
 10
175.0271580639162
 20
135.4212807090612
 10
175.0061429675926
 20
135.4212807090612
 10
175.0061429675926
 20
135.4212807090612
 10
175.0061429675926
 20
135.4212807090612
 10
174.9637682651697
 20
135.4422958053848
 10
174.9637682651697
 20
135.4422958053848
 10
174.8996894468716
 20
135.4498750204523
 10
174.8394002361073
 20
135.4860485469109
 10
174.7732543591544
 20
135.4846705078077
 72
     1
 10
174.7732543591544
 20
135.4846705078077
 11
174.7732543591544
 21
135.4846705078077
 97
        0
 75
     0
 76
     1
 98
        0
450
        0
451
        0
460
0.0
461
0.0
452
        0
462
0.0
453
        0
470

  0
HATCH
  5
3807
330
1F
100
AcDbEntity
  8
图层 1
 62
     7
100
AcDbHatch
 10
0.0
 20
0.0
 30
0.0
210
0.0
220
0.0
230
1.0
  2
SOLID
 70
     1
 71
     0
 91
        1
 92
        1
 93
        2
 72
     4
 94
        3
 73
     0
 74
     0
 95
       29
 96
       25
 40
0.0
 40
0.0
 40
0.0
 40
0.0
 40
0.3527780104152769
 40
0.3527780104152769
 40
0.3527780104152769
 40
0.7055560208305538
 40
0.7055560208305538
 40
0.7055560208305538
 40
1.058334031245828
 40
1.058334031245828
 40
1.058334031245828
 40
1.411112041661104
 40
1.411112041661104
 40
1.411112041661104
 40
1.763890052076384
 40
1.763890052076384
 40
1.763890052076384
 40
2.116668062491659
 40
2.116668062491659
 40
2.116668062491659
 40
2.469446072906936
 40
2.469446072906936
 40
2.469446072906936
 40
2.822224083322215
 40
2.822224083322215
 40
2.822224083322215
 40
2.822224083322215
 10
175.4929352807925
 20
164.0174869039101
 10
175.4929352807925
 20
164.0174869039101
 10
175.5139503771161
 20
163.9751122014871
 10
175.5139503771161
 20
163.9751122014871
 10
175.5139503771161
 20
163.9751122014871
 10
175.5139503771161
 20
163.9327374990642
 10
175.5139503771161
 20
163.9327374990642
 10
175.5139503771161
 20
163.9327374990642
 10
175.4929352807925
 20
163.8903627966413
 10
175.4929352807925
 20
163.8903627966413
 10
175.4929352807925
 20
163.8903627966413
 10
175.471920184469
 20
163.8691754454298
 10
175.471920184469
 20
163.8691754454298
 10
175.471920184469
 20
163.8691754454298
 10
175.4505605783696
 20
163.8269729978948
 10
175.4505605783696
 20
163.8269729978948
 10
175.3571984291289
 20
163.7715069239916
 10
175.272449024283
 20
163.8195660377152
 10
175.1966568736079
 20
163.8691754454298
 10
175.208370205985
 20
163.9930267098286
 10
175.1563492298397
 20
164.0216210212197
 10
175.2600466723544
 20
164.0596893514451
 10
175.3330827448232
 20
164.1094710140476
 10
175.4357466580104
 20
164.0753645462439
 10
175.4929352807925
 20
164.0174869039101
 72
     1
 10
175.4929352807925
 20
164.0174869039101
 11
175.4929352807925
 21
164.0174869039101
 97
        0
 75
     0
 76
     1
 98
        0
450
        0
451
        0
460
0.0
461
0.0
452
        0
462
0.0
453
        0
470

  0
HATCH
  5
3895
330
1F
100
AcDbEntity
  8
图层 1
 62
     7
100
AcDbHatch
 10
0.0
 20
0.0
 30
0.0
210
0.0
220
0.0
230
1.0
  2
SOLID
 70
     1
 71
     0
 91
        1
 92
        1
 93
        2
 72
     4
 94
        3
 73
     0
 74
     0
 95
       11
 96
        7
 40
0.0
 40
0.0
 40
0.0
 40
0.0
 40
0.3527780104152769
 40
0.3527780104152769
 40
0.3527780104152769
 40
0.7055560208305538
 40
0.7055560208305538
 40
0.7055560208305538
 40
0.7055560208305538
 10
174.9213935627468
 20
174.5369206529582
 10
174.9213935627468
 20
174.5369206529582
 10
174.9213935627468
 20
174.3043765542958
 10
174.9213935627468
 20
174.3043765542958
 10
174.9213935627468
 20
174.3043765542958
 10
174.9213935627468
 20
174.5369206529582
 10
174.9213935627468
 20
174.5369206529582
 72
     1
 10
174.9213935627468
 20
174.5369206529582
 11
174.9213935627468
 21
174.5369206529582
 97
        0
 75
     0
 76
     1
 98
        0
450
        0
451
        0
460
0.0
461
0.0
452
        0
462
0.0
453
        0
470

  0
HATCH
  5
3943
330
1F
100
AcDbEntity
  8
图层 1
 62
     7
100
AcDbHatch
 10
0.0
 20
0.0
 30
0.0
210
0.0
220
0.0
230
1.0
  2
SOLID
 70
     1
 71
     0
 91
        1
 92
        1
 93
        2
 72
     4
 94
        3
 73
     0
 74
     0
 95
      131
 96
      127
 40
0.0
 40
0.0
 40
0.0
 40
0.0
 40
0.3527780104152769
 40
0.3527780104152769
 40
0.3527780104152769
 40
0.7055560208305538
 40
0.7055560208305538
 40
0.7055560208305538
 40
1.058334031245828
 40
1.058334031245828
 40
1.058334031245828
 40
1.411112041661104
 40
1.411112041661104
 40
1.411112041661104
 40
1.763890052076384
 40
1.763890052076384
 40
1.763890052076384
 40
2.116668062491659
 40
2.116668062491659
 40
2.116668062491659
 40
2.469446072906936
 40
2.469446072906936
 40
2.469446072906936
 40
2.822224083322215
 40
2.822224083322215
 40
2.822224083322215
 40
3.175002093737492
 40
3.175002093737492
 40
3.175002093737492
 40
3.527780104152768
 40
3.527780104152768
 40
3.527780104152768
 40
3.880558114568044
 40
3.880558114568044
 40
3.880558114568044
 40
4.233336124983321
 40
4.233336124983321
 40
4.233336124983321
 40
4.586114135398599
 40
4.586114135398599
 40
4.586114135398599
 40
4.938892145813873
 40
4.938892145813873
 40
4.938892145813873
 40
5.291670156229153
 40
5.291670156229153
 40
5.291670156229153
 40
5.64444816664443
 40
5.64444816664443
 40
5.64444816664443
 40
5.997226177059705
 40
5.997226177059705
 40
5.997226177059705
 40
6.350004187474984
 40
6.350004187474984
 40
6.350004187474984
 40
6.702782197890257
 40
6.702782197890257
 40
6.702782197890257
 40
7.055560208305537
 40
7.055560208305537
 40
7.055560208305537
 40
7.408338218720808
 40
7.408338218720808
 40
7.408338218720808
 40
7.76111622913609
 40
7.76111622913609
 40
7.76111622913609
 40
8.113894239551369
 40
8.113894239551369
 40
8.113894239551369
 40
8.466672249966642
 40
8.466672249966642
 40
8.466672249966642
 40
8.819450260381922
 40
8.819450260381922
 40
8.819450260381922
 40
9.172228270797198
 40
9.172228270797198
 40
9.172228270797198
 40
9.525006281212476
 40
9.525006281212476
 40
9.525006281212476
 40
9.877784291627751
 40
9.877784291627751
 40
9.877784291627751
 40
10.23056230204303
 40
10.23056230204303
 40
10.23056230204303
 40
10.58334031245831
 40
10.58334031245831
 40
10.58334031245831
 40
10.93611832287358
 40
10.93611832287358
 40
10.93611832287358
 40
11.28889633328886
 40
11.28889633328886
 40
11.28889633328886
 40
11.64167434370414
 40
11.64167434370414
 40
11.64167434370414
 40
11.99445235411941
 40
11.99445235411941
 40
11.99445235411941
 40
12.34723036453469
 40
12.34723036453469
 40
12.34723036453469
 40
12.70000837494997
 40
12.70000837494997
 40
12.70000837494997
 40
13.05278638536524
 40
13.05278638536524
 40
13.05278638536524
 40
13.40556439578052
 40
13.40556439578052
 40
13.40556439578052
 40
13.7583424061958
 40
13.7583424061958
 40
13.7583424061958
 40
14.11112041661107
 40
14.11112041661107
 40
14.11112041661107
 40
14.46389842702635
 40
14.46389842702635
 40
14.46389842702635
 40
14.81667643744163
 40
14.81667643744163
 40
14.81667643744163
 40
14.81667643744163
 10
173.3972823146245
 20
126.8274843518258
 10
173.3972823146245
 20
126.8274843518258
 10
173.3972823146245
 20
126.7217198506564
 10
173.3972823146245
 20
126.7217198506564
 10
173.3972823146245
 20
126.7217198506564
 10
173.4186419207238
 20
126.7217198506564
 10
173.4186419207238
 20
126.7217198506564
 10
173.4186419207238
 20
126.7217198506564
 10
173.4820317194703
 20
126.7007047543328
 10
173.4820317194703
 20
126.7007047543328
 10
173.4820317194703
 20
126.7007047543328
 10
173.5244064218933
 20
126.6793451482334
 10
173.5244064218933
 20
126.6793451482334
 10
173.5244064218933
 20
126.6793451482334
 10
173.5877962206398
 20
126.6793451482334
 10
173.5877962206398
 20
126.6793451482334
 10
173.5877962206398
 20
126.6793451482334
 10
173.6301709230627
 20
126.6583300519099
 10
173.6301709230627
 20
126.6583300519099
 10
173.7955356154449
 20
126.5911506456296
 10
173.759706598762
 20
126.6380039751379
 10
173.9478089363468
 20
126.5525655507404
 10
173.9478089363468
 20
126.5525655507404
 10
173.9688240326703
 20
126.4464565397952
 10
173.9688240326703
 20
126.4464565397952
 10
173.9688240326703
 20
126.4464565397952
 10
174.0325583411926
 20
126.5101908483175
 10
174.0325583411926
 20
126.5101908483175
 10
174.0325583411926
 20
126.5101908483175
 10
174.0749330436156
 20
126.5101908483175
 10
174.0749330436156
 20
126.5101908483175
 10
174.0749330436156
 20
126.5101908483175
 10
174.1593379386856
 20
126.4678161458946
 10
174.1593379386856
 20
126.4678161458946
 10
174.1593379386856
 20
126.4678161458946
 10
174.180697544785
 20
126.4464565397952
 10
174.180697544785
 20
126.4464565397952
 10
174.2464989119621
 20
126.3982251711837
 10
174.3298702777047
 20
126.3716979184474
 10
174.3922265471239
 20
126.3196769423022
 10
174.608234176548
 20
126.2059887162895
 10
174.7749769080334
 20
126.0278771622029
 10
174.9637682651697
 20
125.8749148217494
 10
174.9637682651697
 20
125.8749148217494
 10
175.0061429675926
 20
125.9172895241723
 10
175.0061429675926
 20
125.9172895241723
 10
174.961356696739
 20
125.9631093243532
 10
174.782211613325
 20
126.1246844092016
 10
174.7308796567315
 20
126.1501781326105
 10
174.7308796567315
 20
126.1501781326105
 10
174.6885049543085
 20
126.1925528350335
 10
174.6885049543085
 20
126.1925528350335
 10
174.6885049543085
 20
126.1925528350335
 10
174.667489857985
 20
126.2349275374564
 10
174.667489857985
 20
126.2349275374564
 10
174.667489857985
 20
126.2349275374564
 10
174.625115155562
 20
126.2559426337799
 10
174.625115155562
 20
126.2559426337799
 10
174.625115155562
 20
126.2559426337799
 10
174.5827404531391
 20
126.2983173362029
 10
174.5827404531391
 20
126.2983173362029
 10
174.5827404531391
 20
126.2983173362029
 10
174.5403657507162
 20
126.3196769423022
 10
174.5403657507162
 20
126.3196769423022
 10
174.5403657507162
 20
126.3196769423022
 10
174.4979910482932
 20
126.3620516447252
 10
174.4979910482932
 20
126.3620516447252
 10
174.4735308542117
 20
126.3875453681341
 10
174.3247026310678
 20
126.4695386947736
 10
174.2864620459544
 20
126.4888312422181
 10
174.2864620459544
 20
126.4888312422181
 10
174.2654469496308
 20
126.5101908483175
 10
174.2654469496308
 20
126.5101908483175
 10
174.2654469496308
 20
126.5101908483175
 10
174.2230722472079
 20
126.5312059446411
 10
174.2230722472079
 20
126.5312059446411
 10
174.2230722472079
 20
126.5312059446411
 10
174.2017126411085
 20
126.5525655507404
 10
174.2017126411085
 20
126.5525655507404
 10
174.2017126411085
 20
126.5525655507404
 10
174.1383228423621
 20
126.573580647064
 10
174.1383228423621
 20
126.573580647064
 10
174.1383228423621
 20
126.573580647064
 10
174.1169632362627
 20
126.5945957433876
 10
174.1169632362627
 20
126.5945957433876
 10
174.1169632362627
 20
126.5945957433876
 10
174.0959481399391
 20
126.7007047543328
 10
174.0959481399391
 20
126.7007047543328
 10
174.0959481399391
 20
126.7007047543328
 10
174.0325583411926
 20
126.6369704458105
 10
174.0325583411926
 20
126.6369704458105
 10
174.0325583411926
 20
126.6369704458105
 10
173.9901836387697
 20
126.6369704458105
 10
173.9901836387697
 20
126.6369704458105
 10
173.9901836387697
 20
126.6369704458105
 10
173.9054342339239
 20
126.6793451482334
 10
173.9054342339239
 20
126.6793451482334
 10
173.9054342339239
 20
126.6793451482334
 10
173.8420444351773
 20
126.7007047543328
 10
173.8420444351773
 20
126.7007047543328
 10
173.8420444351773
 20
126.7007047543328
 10
173.7996697327544
 20
126.7217198506564
 10
173.7996697327544
 20
126.7217198506564
 10
173.7996697327544
 20
126.7217198506564
 10
173.7572950303315
 20
126.7217198506564
 10
173.7572950303315
 20
126.7217198506564
 10
173.7572950303315
 20
126.7217198506564
 10
173.6725456254856
 20
126.7640945530793
 10
173.6725456254856
 20
126.7640945530793
 10
173.6725456254856
 20
126.7640945530793
 10
173.6515305291621
 20
126.7640945530793
 10
173.6515305291621
 20
126.7640945530793
 10
173.6515305291621
 20
126.7640945530793
 10
173.5667811243162
 20
126.7851096494029
 10
173.5667811243162
 20
126.7851096494029
 10
173.5667811243162
 20
126.7851096494029
 10
173.5033913255697
 20
126.8064692555022
 10
173.5033913255697
 20
126.8064692555022
 10
173.5033913255697
 20
126.8064692555022
 10
173.4396570170474
 20
126.8064692555022
 10
173.4396570170474
 20
126.8064692555022
 10
173.4396570170474
 20
126.8064692555022
 10
173.4186419207238
 20
126.8274843518258
 10
173.4186419207238
 20
126.8274843518258
 10
173.4186419207238
 20
126.8274843518258
 10
173.3972823146245
 20
126.8274843518258
 10
173.3972823146245
 20
126.8274843518258
 72
     1
 10
173.3972823146245
 20
126.8274843518258
 11
173.3972823146245
 21
126.8274843518258
 97
        0
 75
     0
 76
     1
 98
        0
450
        0
451
        0
460
0.0
461
0.0
452
        0
462
0.0
453
        0
470

  0
HATCH
  5
4842
330
1F
100
AcDbEntity
  8
图层 1
 62
     7
100
AcDbHatch
 10
0.0
 20
0.0
 30
0.0
210
0.0
220
0.0
230
1.0
  2
SOLID
 70
     1
 71
     0
 91
        1
 92
        1
 93
        2
 72
     4
 94
        3
 73
     0
 74
     0
 95
       47
 96
       43
 40
0.0
 40
0.0
 40
0.0
 40
0.0
 40
0.3527780104152769
 40
0.3527780104152769
 40
0.3527780104152769
 40
0.7055560208305538
 40
0.7055560208305538
 40
0.7055560208305538
 40
1.058334031245828
 40
1.058334031245828
 40
1.058334031245828
 40
1.411112041661104
 40
1.411112041661104
 40
1.411112041661104
 40
1.763890052076384
 40
1.763890052076384
 40
1.763890052076384
 40
2.116668062491659
 40
2.116668062491659
 40
2.116668062491659
 40
2.469446072906936
 40
2.469446072906936
 40
2.469446072906936
 40
2.822224083322215
 40
2.822224083322215
 40
2.822224083322215
 40
3.175002093737492
 40
3.175002093737492
 40
3.175002093737492
 40
3.527780104152768
 40
3.527780104152768
 40
3.527780104152768
 40
3.880558114568044
 40
3.880558114568044
 40
3.880558114568044
 40
4.233336124983321
 40
4.233336124983321
 40
4.233336124983321
 40
4.586114135398599
 40
4.586114135398599
 40
4.586114135398599
 40
4.938892145813873
 40
4.938892145813873
 40
4.938892145813873
 40
4.938892145813873
 10
180.1920486226523
 20
255.6479577566324
 10
180.1920486226523
 20
255.6479577566324
 10
180.2130637189759
 20
255.6055830542095
 10
180.2130637189759
 20
255.6055830542095
 10
180.2130637189759
 20
255.6055830542095
 10
180.2130637189759
 20
255.5210059042515
 10
180.2130637189759
 20
255.5210059042515
 10
180.2130637189759
 20
255.5210059042515
 10
180.1920486226523
 20
255.4786312018286
 10
180.1920486226523
 20
255.4786312018286
 10
180.1920486226523
 20
255.4786312018286
 10
180.1496739202294
 20
255.4359119896299
 10
180.1496739202294
 20
255.4359119896299
 10
180.1496739202294
 20
255.4359119896299
 10
180.1283143141301
 20
255.4147246384184
 10
180.1283143141301
 20
255.4147246384184
 10
180.1283143141301
 20
255.4147246384184
 10
180.0225498129606
 20
255.4147246384184
 10
180.0225498129606
 20
255.4147246384184
 10
180.0225498129606
 20
255.4147246384184
 10
179.9591600142141
 20
255.4359119896299
 10
179.9591600142141
 20
255.4359119896299
 10
179.9591600142141
 20
255.4359119896299
 10
179.9167853117912
 20
255.4570993408414
 10
179.9167853117912
 20
255.4570993408414
 10
179.9167853117912
 20
255.4570993408414
 10
179.8957702154676
 20
255.4786312018286
 10
179.8957702154676
 20
255.4786312018286
 10
179.8957702154676
 20
255.4786312018286
 10
179.8744106093683
 20
255.4994740432643
 10
179.8744106093683
 20
255.4994740432643
 10
179.8744106093683
 20
255.4994740432643
 10
179.8744106093683
 20
255.6479577566324
 10
179.8744106093683
 20
255.6479577566324
 10
179.9608825630931
 20
255.7323626517025
 10
180.045631967939
 20
255.7085914771726
 10
180.1496739202294
 20
255.7115198102668
 10
180.1496739202294
 20
255.7115198102668
 10
180.170689016553
 20
255.6688005980681
 10
180.170689016553
 20
255.6688005980681
 10
180.170689016553
 20
255.6688005980681
 10
180.1920486226523
 20
255.6479577566324
 10
180.1920486226523
 20
255.6479577566324
 72
     1
 10
180.1920486226523
 20
255.6479577566324
 11
180.1920486226523
 21
255.6479577566324
 97
        0
 75
     0
 76
     1
 98
        0
450
        0
451
        0
460
0.0
461
0.0
452
        0
462
0.0
453
        0
470

  0
LINE
  5
15523
330
1F
100
AcDbEntity
  8
图框
 62
     1
370
    18
100
AcDbLine
 10
531.0145826987259
 20
289.1768299845588
 30
0.0
 11
679.5139576665757
 21
289.1768299845588
 31
0.0
1001
AcDbBlockRepETag
1070
     1
1071
      143
1005
15523
  0
LINE
  5
15525
330
1F
100
AcDbEntity
  8
图框
370
    -3
100
AcDbLine
 10
532.7645826987271
 20
276.2681013801327
 30
0.0
 11
554.0085979499083
 21
276.2681013801334
 31
0.0
  0
LINE
  5
15526
330
1F
100
AcDbEntity
  8
图框
370
    -3
100
AcDbLine
 10
554.0085979512419
 20
276.2681013801337
 30
0.0
 11
592.1261227658138
 21
276.2681013801347
 31
0.0
  0
LINE
  5
15527
330
1F
100
AcDbEntity
  8
图框
370
    -3
100
AcDbLine
 10
532.7645826987271
 20
273.5636570065008
 30
0.0
 11
554.0085979499083
 21
273.5636570065008
 31
0.0
  0
LINE
  5
15528
330
1F
100
AcDbEntity
  8
图框
370
    -3
100
AcDbLine
 10
554.0085979512419
 20
273.5636570065008
 30
0.0
 11
592.1261227658136
 21
273.5636570065008
 31
0.0
  0
MTEXT
  5
15529
330
1F
100
AcDbEntity
  8
图框
100
AcDbMText
 10
558.6142565646804
 20
278.6940962797893
 30
0.0
 40
1.200004709114095
 41
13.71936813429339
 46
2.704444373770122
 71
     5
 72
     5
  1
{\fFangSong_GB2312|b0|i0|c134|p49;\C4;线径\Fromans|c134;\PWire Gauge}
  7
Romans字体
 73
     1
 44
1.0
1001
ACAD
1000
ACAD_MTEXT_DEFINED_HEIGHT_BEGIN
1070
    46
1040
2.704444373770122
1000
ACAD_MTEXT_DEFINED_HEIGHT_END
  0
LINE
  5
1552A
330
1F
100
AcDbEntity
  8
图框
370
    -3
100
AcDbLine
 10
532.7645826987271
 20
270.8592126328706
 30
0.0
 11
554.0085979499083
 21
270.8592126328705
 31
0.0
  0
LINE
  5
1552B
330
1F
100
AcDbEntity
  8
图框
370
    -3
100
AcDbLine
 10
554.0085979512419
 20
270.8592126328705
 30
0.0
 11
592.1261227658135
 21
270.8592126328702
 31
0.0
  0
MTEXT
  5
1552E
330
1F
100
AcDbEntity
  8
图框
100
AcDbMText
 10
558.4258714486021
 20
274.9158791933172
 30
0.0
 40
1.200004709114095
 41
7.819322494052451
 46
2.704444373633005
 71
     5
 72
     5
  1
{\C4;6}
  7
Romans字体
 73
     1
 44
1.0
1001
ACAD
1000
ACAD_MTEXT_DEFINED_HEIGHT_BEGIN
1070
    46
1040
2.704444373633005
1000
ACAD_MTEXT_DEFINED_HEIGHT_END
  0
MTEXT
  5
1552F
330
1F
100
AcDbEntity
  8
图框
100
AcDbMText
 10
558.4258714486021
 20
272.2114348196854
 30
0.0
 40
1.200004709114095
 41
7.819322494052451
 46
2.704444373630458
 71
     5
 72
     5
  1
{\C4;10}
  7
Romans字体
 73
     1
 44
1.0
1001
ACAD
1000
ACAD_MTEXT_DEFINED_HEIGHT_BEGIN
1070
    46
1040
2.704444373630458
1000
ACAD_MTEXT_DEFINED_HEIGHT_END
  0
MTEXT
  5
15532
330
1F
100
AcDbEntity
  8
图框
100
AcDbMText
 10
547.9417639517254
 20
278.9724656823458
 30
0.0
 40
1.200004709114095
 41
12.13366799636653
 46
5.408728604425681
 71
     5
 72
     5
  1
{\fFangSong_GB2312|b0|i0|c134|p49;\C4;产品料号\Fromans|c134;\PPart NO.}
  7
Romans字体
 73
     1
 44
1.0
1001
ACAD
1000
ACAD_MTEXT_DEFINED_HEIGHT_BEGIN
1070
    46
1040
5.408728604425681
1000
ACAD_MTEXT_DEFINED_HEIGHT_END
  0
MTEXT
  5
15533
330
1F
100
AcDbEntity
  8
图框
100
AcDbMText
 10
565.3506836053322
 20
278.9724656823466
 30
0.0
 40
1.200004709114095
 41
4.86580745145943
 46
5.408728604424871
 71
     5
 72
     5
  1
{\C4;d}
  7
Romans字体
 73
     1
 44
1.0
1001
ACAD
1000
ACAD_MTEXT_DEFINED_HEIGHT_BEGIN
1070
    46
1040
5.408728604424871
1000
ACAD_MTEXT_DEFINED_HEIGHT_END
  0
MTEXT
  5
15534
330
1F
100
AcDbEntity
  8
图框
100
AcDbMText
 10
537.3197563268015
 20
274.9158791933164
 30
0.0
 40
1.200004709114095
 41
9.110347256148227
 46
2.7044443736324
 71
     5
 72
     5
  1
{\C4;CKSM70-6}
  7
Romans字体
 73
     1
 44
1.0
1001
ACAD
1000
ACAD_MTEXT_DEFINED_HEIGHT_BEGIN
1070
    46
1040
2.7044443736324
1000
ACAD_MTEXT_DEFINED_HEIGHT_END
  0
MTEXT
  5
15535
330
1F
100
AcDbEntity
  8
图框
100
AcDbMText
 10
565.3506836053322
 20
274.9158791933175
 30
0.0
 40
1.200004709114095
 41
4.865807451458961
 46
2.704444373633339
 71
     5
 72
     5
  1
{\C4;3.5}
  7
Romans字体
 73
     1
 44
1.0
1001
ACAD
1000
ACAD_MTEXT_DEFINED_HEIGHT_BEGIN
1070
    46
1040
2.704444373633339
1000
ACAD_MTEXT_DEFINED_HEIGHT_END
  0
MTEXT
  5
15536
330
1F
100
AcDbEntity
  8
图框
100
AcDbMText
 10
565.3506836053322
 20
272.2114348196853
 30
0.0
 40
1.200004709114095
 41
4.865807451458945
 46
2.704444373630395
 71
     5
 72
     5
  1
{\C4;4.3}
  7
Romans字体
 73
     1
 44
1.0
1001
ACAD
1000
ACAD_MTEXT_DEFINED_HEIGHT_BEGIN
1070
    46
1040
2.704444373630395
1000
ACAD_MTEXT_DEFINED_HEIGHT_END
  0
MTEXT
  5
15539
330
1F
100
AcDbEntity
  8
图框
100
AcDbMText
 10
570.2164910561244
 20
278.9724656823466
 30
0.0
 40
1.200004709114095
 41
4.865807450125148
 46
5.408728604424871
 71
     5
 72
     5
  1
{\C4;D}
  7
Romans字体
 73
     1
 44
1.0
1001
ACAD
1000
ACAD_MTEXT_DEFINED_HEIGHT_BEGIN
1070
    46
1040
5.408728604424871
1000
ACAD_MTEXT_DEFINED_HEIGHT_END
  0
MTEXT
  5
1553A
330
1F
100
AcDbEntity
  8
图框
100
AcDbMText
 10
570.2164910561244
 20
272.2114348196853
 30
0.0
 40
1.200004709114095
 41
4.865807450125021
 46
2.704444373630395
 71
     5
 72
     5
  1
{\C4;5.6}
  7
Romans字体
 73
     1
 44
1.0
1001
ACAD
1000
ACAD_MTEXT_DEFINED_HEIGHT_BEGIN
1070
    46
1040
2.704444373630395
1000
ACAD_MTEXT_DEFINED_HEIGHT_END
  0
MTEXT
  5
1553B
330
1F
100
AcDbEntity
  8
图框
100
AcDbMText
 10
570.2164910561244
 20
274.9158791933175
 30
0.0
 40
1.200004709114095
 41
4.865807450125195
 46
2.70444437363364
 71
     5
 72
     5
  1
{\C4;5}
  7
Romans字体
 73
     1
 44
1.0
1001
ACAD
1000
ACAD_MTEXT_DEFINED_HEIGHT_BEGIN
1070
    46
1040
2.70444437363364
1000
ACAD_MTEXT_DEFINED_HEIGHT_END
  0
LINE
  5
1553C
330
1F
100
AcDbEntity
  8
图框
370
    35
380
     1
100
AcDbLine
 10
567.7835873310617
 20
281.6769901275335
 30
0.0
 11
567.7835873310617
 21
268.15476825924
 31
0.0
  0
LINE
  5
1553D
330
1F
100
AcDbEntity
  8
图框
370
    -3
100
AcDbLine
 10
562.9177798809357
 20
281.6769901275335
 30
0.0
 11
562.917779880937
 21
268.15476825924
 31
0.0
  0
LINE
  5
1553F
330
1F
100
AcDbEntity
  8
图框
370
    -3
100
AcDbLine
 10
541.8749299548756
 20
268.15476825924
 30
0.0
 11
541.8749299548756
 21
278.9725657608987
 31
0.0
  0
LINE
  5
15540
330
1F
100
AcDbEntity
  8
图框
370
    -3
100
AcDbLine
 10
554.0085979512419
 20
268.15476825924
 30
0.0
 11
554.0085979512419
 21
281.6769901275332
 31
0.0
  0
MTEXT
  5
15541
330
1F
100
AcDbEntity
  8
图框
100
AcDbMText
 10
558.4258714492688
 20
269.5069904460551
 30
0.0
 40
1.19999583169232
 41
7.819322492718757
 46
2.704444373630559
 71
     5
 72
     5
  1
{\C4;16}
  7
Romans字体
 73
     1
 44
1.0
1001
ACAD
1000
ACAD_MTEXT_DEFINED_HEIGHT_BEGIN
1070
    46
1040
2.704444373630559
1000
ACAD_MTEXT_DEFINED_HEIGHT_END
  0
MTEXT
  5
15543
330
1F
100
AcDbEntity
  8
图框
100
AcDbMText
 10
565.3506836059995
 20
269.5069904460552
 30
0.0
 40
1.19999583169232
 41
4.865807450125251
 46
2.704444373630491
 71
     5
 72
     5
  1
{\C4;5.5}
  7
Romans字体
 73
     1
 44
1.0
1001
ACAD
1000
ACAD_MTEXT_DEFINED_HEIGHT_BEGIN
1070
    46
1040
2.704444373630491
1000
ACAD_MTEXT_DEFINED_HEIGHT_END
  0
MTEXT
  5
15548
330
1F
100
AcDbEntity
  8
图框
100
AcDbMText
 10
570.2164910561244
 20
269.5069904460549
 30
0.0
 40
1.19999583169232
 41
4.865807450125076
 46
2.704444373630188
 71
     5
 72
     5
  1
{\C4;8.5}
  7
Romans字体
 73
     1
 44
1.0
1001
ACAD
1000
ACAD_MTEXT_DEFINED_HEIGHT_BEGIN
1070
    46
1040
2.704444373630188
1000
ACAD_MTEXT_DEFINED_HEIGHT_END
  0
LINE
  5
1554D
330
1F
100
AcDbEntity
  8
图框
370
    -3
100
AcDbLine
 10
562.9177798796023
 20
281.6768299845589
 30
0.0
 11
562.9177798796034
 21
268.15476825924
 31
0.0
  0
LINE
  5
1554F
330
1F
100
AcDbEntity
  8
图框
370
    -3
100
AcDbLine
 10
541.8749299535418
 20
268.15476825924
 30
0.0
 11
541.874929953542
 21
281.6768299845588
 31
0.0
  0
LINE
  5
15550
330
1F
100
AcDbEntity
  8
图框
370
    -3
100
AcDbLine
 10
554.0085979499083
 20
268.15476825924
 30
0.0
 11
554.0085979499083
 21
281.6768299845588
 31
0.0
  0
LINE
  5
15551
330
1F
100
AcDbEntity
  8
图框
370
    35
380
     1
100
AcDbLine
 10
584.3068002730948
 20
281.6768299845595
 30
0.0
 11
584.3068002730948
 21
268.1547682592399
 31
0.0
  0
LINE
  5
15552
330
1F
100
AcDbEntity
  8
图框
370
    -3
100
AcDbLine
 10
532.7645826987271
 20
268.1547682592401
 30
0.0
 11
592.1261227658134
 21
268.1547682592397
 31
0.0
  0
MTEXT
  5
15556
102
{ACAD_XDICTIONARY
360
1765F
102
}
330
1F
100
AcDbEntity
  8
打标文字
 62
     3
100
AcDbMText
 10
630.8866909504843
 20
256.9673501536353
 30
0.0
 40
1.5
 41
46.88571713065463
 46
47.39332115782246
 71
     1
 72
     5
  3
\A1;{\f仿宋_GB2312|b0|i0|c134|p49;技术参数}:\P- {\f仿宋_GB2312|b0|i0|c134|p49;材料}: {\f仿宋_GB2312|b0|i0|c134|p49;铜合金}\P- {\f仿宋_GB2312|b0|i0|c134|p49;表面处理}: {\f仿宋_GB2312|b0|i0|c134|p49;镀银}\P- {\f仿宋_GB2312|b0|i0|c134|p49;额定电流}: 70A\P- {\f仿宋_GB2312|b0|i0|c134|p49
  3
;接触电阻}: ≤0.5mΩ\P- {\f仿宋_GB2312|b0|i0|c134|p49;线径范围}: 6-16mm{\H0.7x;\S2^ ;}\P- {\f仿宋_GB2312|b0|i0|c134|p49;可插拔次数}: {\f仿宋_GB2312|b0|i0|c134|p49;≥}500\P- {\f仿宋_GB2312|b0|i0|c134|p49;电缆绞线标准}: IEC 60228-5\P\PTechnical specification:\P- Material: copper all
  1
oy\P- Surface: hard-silver plated\P- Rated current: 70A\P- Contact resistance: ≤0.5mΩ\P- Wire gauge: 6-16mm{\H0.7x;\S2^ ;}\P- Mating cycles: {\f仿宋_GB2312|b0|i0|c134|p49;≥}500\P- For stranded fine wire acc. to: IEC 60228-5
  7
Romans字体
 73
     1
 44
1.0
1001
ACAD
1000
ACAD_MTEXT_DEFINED_HEIGHT_BEGIN
1070
    46
1040
47.39332115782246
1000
ACAD_MTEXT_DEFINED_HEIGHT_END
  0
MTEXT
  5
15557
330
1F
100
AcDbEntity
  8
图框
100
AcDbMText
 10
537.3197563261348
 20
278.9725557573309
 30
0.0
 40
1.200004709114095
 41
9.110347254814612
 46
5.408548454455798
 71
     5
 72
     5
  1
{\fFangSong_GB2312|b0|i0|c134|p49;\C4;产品代号\P\Fromans|c134;Part code}
  7
Romans字体
 73
     1
 44
1.0
1001
ACAD
1000
ACAD_MTEXT_DEFINED_HEIGHT_BEGIN
1070
    46
1040
5.408548454455798
1000
ACAD_MTEXT_DEFINED_HEIGHT_END
  0
MTEXT
  5
15558
330
1F
100
AcDbEntity
  8
图框
100
AcDbMText
 10
547.9417639530587
 20
274.9158791933165
 30
0.0
 40
1.200004709114095
 41
12.13366799636653
 46
2.704444373632686
 71
     5
 72
     5
  1
{\C4;1010341101301}
  7
Romans字体
 73
     1
 44
1.0
1001
ACAD
1000
ACAD_MTEXT_DEFINED_HEIGHT_BEGIN
1070
    46
1040
2.704444373632686
1000
ACAD_MTEXT_DEFINED_HEIGHT_END
  0
MTEXT
  5
15559
330
1F
100
AcDbEntity
  8
图框
100
AcDbMText
 10
547.9417639530587
 20
272.2114348196835
 30
0.0
 40
1.200004709114095
 41
12.13366799636653
 46
2.704444373632686
 71
     5
 72
     5
  1
{\C4;1010341101401}
  7
Romans字体
 73
     1
 44
1.0
1001
ACAD
1000
ACAD_MTEXT_DEFINED_HEIGHT_BEGIN
1070
    46
1040
2.704444373632686
1000
ACAD_MTEXT_DEFINED_HEIGHT_END
  0
MTEXT
  5
1555A
330
1F
100
AcDbEntity
  8
图框
100
AcDbMText
 10
547.9417639530587
 20
269.5069904460531
 30
0.0
 40
1.200004709114095
 41
12.13366799636653
 46
2.704444373632686
 71
     5
 72
     5
  1
{\C4;1010341101501}
  7
Romans字体
 73
     1
 44
1.0
1001
ACAD
1000
ACAD_MTEXT_DEFINED_HEIGHT_BEGIN
1070
    46
1040
2.704444373632686
1000
ACAD_MTEXT_DEFINED_HEIGHT_END
  0
LINE
  5
1555D
330
1F
100
AcDbEntity
  8
图框
370
    -3
100
AcDbLine
 10
554.0085979512419
 20
281.6768299845588
 30
0.0
 11
554.0085979512419
 21
268.15476825924
 31
0.0
  0
LINE
  5
1555E
330
1F
100
AcDbEntity
  8
图框
 62
     1
100
AcDbLine
 10
677.7724080811392
 20
281.6769901273708
 30
0.0
 11
677.7724080811392
 21
262.1472338978545
 31
0.0
  0
MTEXT
  5
1555F
330
1F
100
AcDbEntity
  8
图框
100
AcDbMText
 10
578.4780975271407
 20
278.9724656823466
 30
0.0
 40
1.199999999999999
 41
11.65740549190757
 46
5.408728604424518
 71
     5
 72
     5
  1
{\fFangSong_GB2312|b0|i0|c134|p49;\C4;剥线长度\Fromans|c134;\PStripping length}
  7
Romans字体
 73
     1
 44
1.0
1001
ACAD
1000
ACAD_MTEXT_DEFINED_HEIGHT_BEGIN
1070
    46
1040
5.408728604424518
1000
ACAD_MTEXT_DEFINED_HEIGHT_END
  0
LINE
  5
15560
330
1F
100
AcDbEntity
  8
图框
370
    35
380
     1
100
AcDbLine
 10
572.6493947811867
 20
281.6768299845589
 30
0.0
 11
572.6493947811867
 21
268.15476825924
 31
0.0
  0
MTEXT
  5
15561
330
1F
100
AcDbEntity
  8
图框
100
AcDbMText
 10
578.4780975271407
 20
274.9158791933175
 30
0.0
 40
1.200004709114095
 41
11.65740549190751
 46
2.70444437363364
 71
     5
 72
     5
  1
{\C4;15.5}
  7
Romans字体
 73
     1
 44
1.0
1001
ACAD
1000
ACAD_MTEXT_DEFINED_HEIGHT_BEGIN
1070
    46
1040
2.70444437363364
1000
ACAD_MTEXT_DEFINED_HEIGHT_END
  0
MTEXT
  5
15562
330
1F
100
AcDbEntity
  8
图框
100
AcDbMText
 10
578.4780975271407
 20
272.211434819684
 30
0.0
 40
1.200004709114095
 41
11.65740549190751
 46
2.704444373633473
 71
     5
 72
     5
  1
{\C4;15.5}
  7
Romans字体
 73
     1
 44
1.0
1001
ACAD
1000
ACAD_MTEXT_DEFINED_HEIGHT_BEGIN
1070
    46
1040
2.704444373633473
1000
ACAD_MTEXT_DEFINED_HEIGHT_END
  0
MTEXT
  5
15563
330
1F
100
AcDbEntity
  8
图框
100
AcDbMText
 10
578.4780975271407
 20
269.5069904460536
 30
0.0
 40
1.200004709114095
 41
11.65740549190751
 46
2.704444373633473
 71
     5
 72
     5
  1
{\C4;15.5}
  7
Romans字体
 73
     1
 44
1.0
1001
ACAD
1000
ACAD_MTEXT_DEFINED_HEIGHT_BEGIN
1070
    46
1040
2.704444373633473
1000
ACAD_MTEXT_DEFINED_HEIGHT_END
  0
MTEXT
  5
15566
330
1F
100
AcDbEntity
  8
图框
 62
     3
100
AcDbMText
 10
669.36931007112
 20
202.8738589380055
 30
0.0
 40
1.492756789270166
 41
16.80619601594785
 46
4.343372757943781
 71
     5
 72
     5
  1
CKSM70-16
  7
Romans字体
 73
     1
 44
1.0
1001
ACAD
1000
ACAD_MTEXT_DEFINED_HEIGHT_BEGIN
1070
    46
1040
4.343372757943781
1000
ACAD_MTEXT_DEFINED_HEIGHT_END
  0
MTEXT
  5
15567
330
1F
100
AcDbEntity
  8
图框
 62
     3
100
AcDbMText
 10
669.36931007112
 20
198.484133669437
 30
0.0
 40
1.492756789270166
 41
16.80619601594785
 46
4.436077779192771
 71
     5
 72
     5
  1
1010341101501
  7
Romans字体
 73
     1
 44
1.0
1001
ACAD
1000
ACAD_MTEXT_DEFINED_HEIGHT_BEGIN
1070
    46
1040
4.436077779192771
1000
ACAD_MTEXT_DEFINED_HEIGHT_END
  0
MTEXT
  5
15568
330
1F
100
AcDbEntity
  8
图框
 62
     3
100
AcDbMText
 10
635.3424775658663
 20
191.8303161222501
 30
0.0
 40
1.492756789270166
 41
5.414674223554219
 46
3.943047305235955
 71
     5
 72
     5
  1
2:1 
  7
Romans字体
 73
     1
 44
1.0
1001
ACAD
1000
ACAD_MTEXT_DEFINED_HEIGHT_BEGIN
1070
    46
1040
3.943047305235955
1000
ACAD_MTEXT_DEFINED_HEIGHT_END
  0
MTEXT
  5
15569
330
1F
100
AcDbEntity
  8
图框
 62
     3
100
AcDbMText
 10
646.1718260129758
 20
191.8303161222504
 30
0.0
 40
1.492756789270166
 41
5.414674223555065
 46
3.943047305235904
 71
     5
 72
     5
  1
10.6g 
  7
Romans字体
 73
     1
 44
1.0
1001
ACAD
1000
ACAD_MTEXT_DEFINED_HEIGHT_BEGIN
1070
    46
1040
3.943047305235904
1000
ACAD_MTEXT_DEFINED_HEIGHT_END
  0
INSERT
  5
1556A
330
1F
100
AcDbEntity
  8
DIM
100
AcDbBlockReference
  2
A4图框-NEW
 10
114.3081561121811
 20
-56.09055511857542
 30
0.0
 41
0.5000000005871926
 42
0.5000000005871926
 43
0.5000000005871991
  0
MTEXT
  5
1556B
330
1F
100
AcDbEntity
  8
图框
100
AcDbMText
 10
588.2164615194541
 20
274.9158791933165
 30
0.0
 40
1.200004709114095
 41
7.819322492718905
 46
2.704444373633061
 71
     5
 72
     5
  1
{\C4;10}
  7
Romans字体
 73
     1
 44
1.0
1001
ACAD
1000
ACAD_MTEXT_DEFINED_HEIGHT_BEGIN
1070
    46
1040
2.704444373633061
1000
ACAD_MTEXT_DEFINED_HEIGHT_END
  0
MTEXT
  5
1556C
330
1F
100
AcDbEntity
  8
图框
100
AcDbMText
 10
588.2164615194542
 20
280.3246878691609
 30
0.0
 40
1.200004709114095
 41
7.819322492718882
 46
2.704284230795455
 71
     5
 72
     5
  1
{\fFangSong_GB2312|b0|i0|c134|p49;\C4;重量\Fromans|c134;/Weight}
  7
Romans字体
 73
     1
 44
1.0
1001
ACAD
1000
ACAD_MTEXT_DEFINED_HEIGHT_BEGIN
1070
    46
1040
2.704284230795455
1000
ACAD_MTEXT_DEFINED_HEIGHT_END
  0
MTEXT
  5
1556D
330
1F
100
AcDbEntity
  8
图框
100
AcDbMText
 10
588.2164615194542
 20
277.6203235669485
 30
0.0
 40
1.200004709114095
 41
7.819322492718764
 46
2.704444373629943
 71
     5
 72
     5
  1
{\C4;g}
  7
Romans字体
 73
     1
 44
1.0
1001
ACAD
1000
ACAD_MTEXT_DEFINED_HEIGHT_BEGIN
1070
    46
1040
2.704444373629943
1000
ACAD_MTEXT_DEFINED_HEIGHT_END
  0
LINE
  5
1556E
330
1F
100
AcDbEntity
  8
图框
370
    -3
100
AcDbLine
 10
592.1261227658138
 20
281.6768299845588
 30
0.0
 11
592.1261227658134
 21
268.1547682592399
 31
0.0
  0
MTEXT
  5
1556F
330
1F
100
AcDbEntity
  8
图框
100
AcDbMText
 10
588.216461519454
 20
272.2114348196835
 30
0.0
 40
1.200004709114095
 41
7.819322492718905
 46
2.704444373633061
 71
     5
 72
     5
  1
{\C4;9}
  7
Romans字体
 73
     1
 44
1.0
1001
ACAD
1000
ACAD_MTEXT_DEFINED_HEIGHT_BEGIN
1070
    46
1040
2.704444373633061
1000
ACAD_MTEXT_DEFINED_HEIGHT_END
  0
MTEXT
  5
15570
330
1F
100
AcDbEntity
  8
图框
100
AcDbMText
 10
588.2164615194541
 20
269.5069904460532
 30
0.0
 40
1.200004709114095
 41
7.819322492718905
 46
2.704444373633061
 71
     5
 72
     5
  1
{\C4;10.6}
  7
Romans字体
 73
     1
 44
1.0
1001
ACAD
1000
ACAD_MTEXT_DEFINED_HEIGHT_BEGIN
1070
    46
1040
2.704444373633061
1000
ACAD_MTEXT_DEFINED_HEIGHT_END
  0
MTEXT
  5
155D8
330
1F
100
AcDbEntity
  8
图框
100
AcDbMText
 10
537.3197563268015
 20
272.2114348196842
 30
0.0
 40
1.200004709114095
 41
9.110347256148227
 46
2.7044443736324
 71
     5
 72
     5
  1
{\C4;CKSM70-10}
  7
Romans字体
 73
     1
 44
1.0
1001
ACAD
1000
ACAD_MTEXT_DEFINED_HEIGHT_BEGIN
1070
    46
1040
2.7044443736324
1000
ACAD_MTEXT_DEFINED_HEIGHT_END
  0
MTEXT
  5
155D9
330
1F
100
AcDbEntity
  8
图框
100
AcDbMText
 10
537.3197563281348
 20
269.5069904460539
 30
0.0
 40
1.200004709114095
 41
9.110347256148227
 46
2.7044443736324
 71
     5
 72
     5
  1
{\C4;CKSM70-16}
  7
Romans字体
 73
     1
 44
1.0
1001
ACAD
1000
ACAD_MTEXT_DEFINED_HEIGHT_BEGIN
1070
    46
1040
2.7044443736324
1000
ACAD_MTEXT_DEFINED_HEIGHT_END
  0
HATCH
  5
165AF
330
1F
100
AcDbEntity
  8
hat
100
AcDbHatch
 10
0.0
 20
0.0
 30
0.0
210
0.0
220
0.0
230
1.0
  2
ANSI31
 70
     0
 71
     1
 91
        3
 92
        5
 93
       16
 72
     1
 10
599.9012867634171
 20
254.7562043771239
 11
597.8805057406961
 21
251.2561089748003
 72
     1
 10
597.8805057406961
 20
251.2561089748003
 11
584.1121804565755
 21
251.2561089748003
 72
     1
 10
584.1121804565755
 20
251.2561089748003
 11
582.3800832446912
 21
250.2560817169936
 72
     1
 10
582.3800832446912
 20
250.2560817169936
 11
582.3800832446912
 21
249.0060476447352
 72
     1
 10
582.3800832446912
 20
249.0060476447352
 11
583.380110502498
 21
249.0060476447352
 72
     1
 10
583.380110502498
 20
249.0060476447352
 11
584.1301309458531
 21
249.7560680880901
 72
     1
 10
584.1301309458531
 20
249.7560680880901
 11
597.3804821115196
 21
249.7560680880901
 72
     1
 10
597.3804821115196
 20
249.7560680880901
 11
597.38048211152
 21
249.0060476447352
 72
     1
 10
597.38048211152
 20
249.0060476447352
 11
599.1815012020127
 21
249.0060476447352
 72
     4
 94
        3
 73
     1
 74
     0
 95
        8
 96
        4
 40
0.0
 40
0.0
 40
0.0
 40
0.0
 40
1.0
 40
1.0
 40
1.0
 40
1.0
 10
599.1815012020124
 20
249.0060476447351
 42
1.0
 10
599.3645188924381
 20
249.0060476447352
 42
0.9106836024999999
 10
599.5230168616593
 20
249.0975564899643
 42
0.9106836024999999
 10
599.6145257068892
 20
249.2560544591868
 42
1.0
 72
     1
 10
599.6145193138006
 20
249.2560480660982
 11
600.9993748237491
 21
251.6546471892213
 72
     2
 10
601.1734728422237
 20
251.5561989255624
 40
0.2000054515613338
 50
209.4871205366167
 51
270.0000000405146
 73
     0
 72
     1
 10
601.1734728423653
 20
251.7562043771238
 11
615.1444141340203
 21
251.7562043771238
 72
     2
 10
615.14441413402
 20
254.7562043771238
 40
3.000000000000003
 50
270.0000000000043
 51
318.189685104225
 73
     1
 72
     1
 10
617.38048211152
 20
252.7562043771239
 11
617.38048211152
 21
254.7562043771239
 72
     1
 10
617.38048211152
 20
254.7562043771239
 11
599.9012867634171
 21
254.7562043771239
 97
       16
330
165B0
330
16630
330
16602
330
16600
330
16601
330
165FF
330
165FE
330
165FD
330
165FC
330
165FB
330
165FA
330
165F9
330
16625
330
16620
330
16624
330
16621
 92
        5
 93
       13
 72
     1
 10
617.38048211152
 20
254.7562043771239
 11
617.38048211152
 21
256.7562043771238
 72
     2
 10
615.1444141340201
 20
254.7562043771238
 40
3.000000000000006
 50
41.81031489577811
 51
89.99999999999785
 73
     1
 72
     1
 10
615.1444141340203
 20
257.7562043771238
 11
601.1734728423653
 21
257.7562043771238
 72
     2
 10
601.1734728422237
 20
257.9562098286851
 40
0.2000054515613137
 50
89.99999995948542
 51
150.5128794583004
 73
     0
 72
     1
 10
600.9993748237579
 20
257.8577615650109
 11
599.6145193138006
 21
260.2563606881493
 72
     4
 94
        3
 73
     1
 74
     0
 95
        8
 96
        4
 40
0.0
 40
0.0
 40
0.0
 40
0.0
 40
1.0
 40
1.0
 40
1.0
 40
1.0
 10
599.6145257068892
 20
260.2563542950609
 42
1.0
 10
599.5230168616593
 20
260.4148522643171
 42
0.9106836024999999
 10
599.3645188924381
 20
260.5063611095125
 42
0.9106836024999999
 10
599.1815012020124
 20
260.5063611095127
 42
1.0
 72
     1
 10
599.1815012020127
 20
260.5063611095125
 11
597.38048211152
 21
260.5063611095125
 72
     1
 10
597.38048211152
 20
260.5063611095125
 11
597.38048211152
 21
259.7563406661576
 72
     1
 10
597.38048211152
 20
259.7563406661576
 11
596.8304884831614
 21
259.7563406661576
 72
     1
 10
596.8304884831614
 20
259.7563406661576
 11
596.8304884831616
 21
258.2562997794474
 72
     1
 10
596.8304884831616
 20
258.2562997794474
 11
597.8805057406962
 21
258.2562997794474
 72
     1
 10
597.8805057406962
 20
258.2562997794474
 11
599.9012867634171
 21
254.7562043771239
 72
     1
 10
599.9012867634171
 20
254.7562043771239
 11
617.38048211152
 21
254.7562043771239
 97
       13
330
16623
330
16622
330
165E9
330
165F7
330
165F8
330
165F5
330
165F6
330
165F2
330
165F3
330
165F4
330
16631
330
165B0
330
16621
 92
       23
 72
     0
 73
     1
 93
        7
 10
595.9304612253552
 20
258.2562997794474
 10
595.9304612253547
 20
259.7563406661576
 10
584.1301309458532
 20
259.7563406661576
 10
583.380110502498
 20
260.5063611095125
 10
582.3800832446912
 20
260.5063611095125
 10
582.3800832446912
 20
259.2563270372542
 10
584.1121804565755
 20
258.2562997794474
 97
        7
330
165F1
330
165EF
330
165ED
330
165EE
330
165EC
330
165EB
330
165F0
 75
     0
 76
     1
 52
0.0
 41
0.2
 77
     0
 78
     1
 53
45.0
 43
-596.8207296814397
 44
-65.45492692374054
 45
-0.4490128060534576
 46
0.4490128060534577
 79
     0
 47
0.0353821562790436
 98
        3
 10
603.4288327679282
 20
254.1326324860553
 10
603.2229249928977
 20
256.1899885073041
 10
593.8521574982105
 20
258.8598514644019
1001
ACAD
1010
0.0
1020
0.0
1030
0.0
  0
LINE
  5
165B0
102
{ACAD_REACTORS
330
165AF
102
}
330
1F
100
AcDbEntity
  8
hat
  6
CENTERX2
 62
     1
100
AcDbLine
 10
581.2221392654505
 20
254.7562043771239
 30
0.0
 11
618.2221492654507
 21
254.7562043771239
 31
0.0
  0
LINE
  5
165BF
330
1F
100
AcDbEntity
  8
CEN
  6
ByBlock
 62
     6
100
AcDbLine
 10
594.6491976647258
 20
231.8326954787093
 30
0.0
 11
589.4525647874716
 21
231.8326954787093
 31
0.0
  0
LINE
  5
165C0
330
1F
100
AcDbEntity
  8
CEN
  6
ByBlock
 62
     6
100
AcDbLine
 10
594.6491976647258
 20
221.8324229006419
 30
0.0
 11
589.4525647874716
 21
221.8324229006419
 31
0.0
  0
LINE
  5
165C2
330
1F
100
AcDbEntity
  8
0
100
AcDbLine
 10
582.3800832446912
 20
260.5063611095125
 30
0.0
 11
582.3800832446912
 21
249.0060476447352
 31
0.0
  0
LINE
  5
165C3
330
1F
100
AcDbEntity
  8
0
100
AcDbLine
 10
584.1121804565755
 20
258.2562997794474
 30
0.0
 11
584.1121804565755
 21
251.2561089748003
 31
0.0
  0
LINE
  5
165C4
330
1F
100
AcDbEntity
  8
0
100
AcDbLine
 10
583.380110502498
 20
249.0060476447352
 30
0.0
 11
584.1301309458531
 21
249.7560680880901
 31
0.0
  0
LINE
  5
165C5
330
1F
100
AcDbEntity
  8
0
100
AcDbLine
 10
583.380110502498
 20
260.5063611095125
 30
0.0
 11
584.1301309458531
 21
259.7563406661576
 31
0.0
  0
LINE
  5
165C6
330
1F
100
AcDbEntity
  8
0
100
AcDbLine
 10
582.3800832446912
 20
249.0060476447352
 30
0.0
 11
583.380110502498
 21
249.0060476447352
 31
0.0
  0
LINE
  5
165C7
330
1F
100
AcDbEntity
  8
0
100
AcDbLine
 10
597.38048211152
 20
249.0060476447352
 30
0.0
 11
599.1815012020124
 21
249.0060476447352
 31
0.0
  0
LINE
  5
165C8
330
1F
100
AcDbEntity
  8
0
100
AcDbLine
 10
584.1301309458531
 20
249.7560680880901
 30
0.0
 11
597.3804821115196
 21
249.7560680880901
 31
0.0
  0
LINE
  5
165C9
330
1F
100
AcDbEntity
  8
0
100
AcDbLine
 10
582.3800832446912
 20
250.2560817169936
 30
0.0
 11
584.1121804565755
 21
251.2561089748003
 31
0.0
  0
LINE
  5
165CA
330
1F
100
AcDbEntity
  8
0
100
AcDbLine
 10
584.1121804565755
 20
251.2561089748003
 30
0.0
 11
597.8805057406962
 21
251.2561089748003
 31
0.0
  0
LINE
  5
165CB
330
1F
100
AcDbEntity
  8
0
100
AcDbLine
 10
582.3800832446912
 20
259.2563270372542
 30
0.0
 11
584.1121804565755
 21
258.2562997794474
 31
0.0
  0
LINE
  5
165CC
330
1F
100
AcDbEntity
  8
hat
  6
CENTERX2
 62
     1
100
AcDbLine
 10
596.3804748542583
 20
257.2450341679286
 30
0.0
 11
596.3804748542583
 21
260.406358383732
 31
0.0
  0
LINE
  5
165CD
330
1F
100
AcDbEntity
  8
0
100
AcDbLine
 10
597.38048211152
 20
260.5063611095125
 30
0.0
 11
597.38048211152
 21
259.7563406661576
 31
0.0
  0
LINE
  5
165CE
330
1F
100
AcDbEntity
  8
0
100
AcDbLine
 10
597.3804821115196
 20
249.7560680880901
 30
0.0
 11
597.38048211152
 21
249.0060476447352
 31
0.0
  0
LINE
  5
165CF
330
1F
100
AcDbEntity
  8
0
100
AcDbLine
 10
597.8805057406962
 20
258.2562997794474
 30
0.0
 11
597.8805057406962
 21
251.2561089748003
 31
0.0
  0
LINE
  5
165D0
330
1F
100
AcDbEntity
  8
0
100
AcDbLine
 10
599.6145230049152
 20
249.2560544591868
 30
0.0
 11
600.4219517398182
 21
250.6545381577462
 31
0.0
  0
LINE
  5
165D1
330
1F
100
AcDbEntity
  8
0
100
AcDbLine
 10
584.1121804565755
 20
258.2562997794474
 30
0.0
 11
595.8804612253552
 21
258.2562997794474
 31
0.0
  0
LINE
  5
165D2
330
1F
100
AcDbEntity
  8
0
100
AcDbLine
 10
596.8804884831613
 20
258.2562997794474
 30
0.0
 11
597.8805057406962
 21
258.2562997794474
 31
0.0
  0
LINE
  5
165D3
330
1F
100
AcDbEntity
  8
0
100
AcDbLine
 10
599.6145230049152
 20
260.2563542950609
 30
0.0
 11
600.4219517398182
 21
258.8578705965016
 31
0.0
  0
LINE
  5
165D4
330
1F
100
AcDbEntity
  8
0
100
AcDbLine
 10
584.1301309458531
 20
259.7563406661576
 30
0.0
 11
595.9304612253921
 21
259.7563406661576
 31
0.0
  0
LINE
  5
165D5
330
1F
100
AcDbEntity
  8
0
100
AcDbLine
 10
596.8304884831622
 20
259.7563406661576
 30
0.0
 11
597.38048211152
 21
259.7563406661576
 31
0.0
  0
LINE
  5
165D6
330
1F
100
AcDbEntity
  8
0
100
AcDbLine
 10
582.3800832446912
 20
260.5063611095125
 30
0.0
 11
583.380110502498
 21
260.5063611095125
 31
0.0
  0
LINE
  5
165D7
330
1F
100
AcDbEntity
  8
0
100
AcDbLine
 10
597.38048211152
 20
260.5063611095125
 30
0.0
 11
599.1815012020124
 21
260.5063611095125
 31
0.0
  0
LINE
  5
165D8
102
{ACAD_REACTORS
330
16612
102
}
330
1F
100
AcDbEntity
  8
0
100
AcDbLine
 10
582.3800832446912
 20
221.082559189659
 30
0.0
 11
582.3800832446912
 21
232.5825591896589
 31
0.0
  0
LINE
  5
165D9
330
1F
100
AcDbEntity
  8
0
100
AcDbLine
 10
583.380110502498
 20
221.0824024572869
 30
0.0
 11
583.380110502498
 21
232.5827159220643
 31
0.0
  0
LINE
  5
165DA
330
1F
100
AcDbEntity
  8
0
100
AcDbLine
 10
584.1301309458531
 20
221.8324229006419
 30
0.0
 11
584.1301309458531
 21
231.8326954787093
 31
0.0
  0
LINE
  5
165DB
330
1F
100
AcDbEntity
  8
0
100
AcDbLine
 10
583.380110502498
 20
221.0824024572869
 30
0.0
 11
584.1301309458531
 21
221.8324229006419
 31
0.0
  0
LINE
  5
165DC
330
1F
100
AcDbEntity
  8
0
100
AcDbLine
 10
583.380110502498
 20
232.5827159220643
 30
0.0
 11
584.1301309458531
 21
231.8326954787093
 31
0.0
  0
LINE
  5
165DD
330
1F
100
AcDbEntity
  8
0
100
AcDbLine
 10
582.3800832446912
 20
221.0824024572869
 30
0.0
 11
583.380110502498
 21
221.0824024572869
 31
0.0
  0
LINE
  5
165DE
330
1F
100
AcDbEntity
  8
0
100
AcDbLine
 10
597.38048211152
 20
221.0824024572869
 30
0.0
 11
598.6815012020124
 21
221.0824024572869
 31
0.0
  0
LINE
  5
165DF
330
1F
100
AcDbEntity
  8
0
100
AcDbLine
 10
584.1301309458531
 20
221.8324229006419
 30
0.0
 11
597.38048211152
 21
221.8324229006419
 31
0.0
  0
LINE
  5
165E0
330
1F
100
AcDbEntity
  8
0
100
AcDbLine
 10
597.38048211152
 20
221.082559189659
 30
0.0
 11
597.38048211152
 21
232.5825591896589
 31
0.0
  0
LINE
  5
165E1
330
1F
100
AcDbEntity
  8
0
100
AcDbLine
 10
584.1301309458531
 20
231.8326954787093
 30
0.0
 11
597.38048211152
 21
231.8326954787093
 31
0.0
  0
LINE
  5
165E2
330
1F
100
AcDbEntity
  8
0
100
AcDbLine
 10
582.3800832446912
 20
232.5827159220643
 30
0.0
 11
583.380110502498
 21
232.5827159220643
 31
0.0
  0
LINE
  5
165E3
330
1F
100
AcDbEntity
  8
0
100
AcDbLine
 10
597.38048211152
 20
232.5827159220643
 30
0.0
 11
598.6815012020124
 21
232.5827159220643
 31
0.0
  0
ARC
  5
165E4
330
1F
100
AcDbEntity
  8
0
100
AcDbCircle
 10
596.339257607438
 20
260.542229679835
 30
0.0
 40
2.322195080375121
100
AcDbArc
 50
259.8608858252997
 51
271.0170111549164
  0
ARC
  5
165E5
330
1F
100
AcDbEntity
  8
0
100
AcDbCircle
 10
599.1815012020124
 20
249.5060612736385
 30
0.0
 40
0.5000136289033682
100
AcDbArc
 50
270.0
 51
329.9999999999849
  0
ARC
  5
165E6
330
1F
100
AcDbEntity
  8
0
100
AcDbCircle
 10
598.6815012020124
 20
232.082702293161
 30
0.0
 40
0.5000136289033682
100
AcDbArc
 50
30.00000000001512
 51
90.0
  0
ARC
  5
165E7
330
1F
100
AcDbEntity
  8
0
100
AcDbCircle
 10
596.4216912760831
 20
260.5422400228633
 30
0.0
 40
2.322205407147034
100
AcDbArc
 50
268.9830137261036
 51
280.139089287802
  0
ARC
  5
165E8
330
1F
100
AcDbEntity
  8
0
100
AcDbCircle
 10
599.1815012020124
 20
260.0063474806092
 30
0.0
 40
0.5000136289033682
100
AcDbArc
 50
30.00000000001512
 51
90.0
  0
ARC
  5
165E9
102
{ACAD_REACTORS
330
165AF
102
}
330
1F
100
AcDbEntity
  8
0
100
AcDbCircle
 10
601.1734728423653
 20
257.9562098284351
 30
0.0
 40
0.2000054515613473
100
AcDbArc
 50
209.4871204550861
 51
269.9971352109912
  0
ARC
  5
165EA
330
1F
100
AcDbEntity
  8
0
100
AcDbCircle
 10
598.6815012020124
 20
221.5824160861903
 30
0.0
 40
0.5000136289033682
100
AcDbArc
 50
270.0
 51
329.9999999999849
  0
LINE
  5
165EB
102
{ACAD_REACTORS
330
165AF
102
}
330
1F
100
AcDbEntity
  8
0
100
AcDbLine
 10
584.1121804565755
 20
258.2562997794474
 30
0.0
 11
595.9304612253554
 21
258.2562997794474
 31
0.0
  0
LINE
  5
165EC
102
{ACAD_REACTORS
330
165AF
102
}
330
1F
100
AcDbEntity
  8
0
100
AcDbLine
 10
582.3800832446912
 20
259.2563270372542
 30
0.0
 11
584.1121804565755
 21
258.2562997794474
 31
0.0
  0
LINE
  5
165ED
102
{ACAD_REACTORS
330
165AF
102
}
330
1F
100
AcDbEntity
  8
0
100
AcDbLine
 10
582.3800832446912
 20
260.5063611095125
 30
0.0
 11
583.380110502498
 21
260.5063611095125
 31
0.0
  0
LINE
  5
165EE
102
{ACAD_REACTORS
330
165AF
102
}
330
1F
100
AcDbEntity
  8
0
100
AcDbLine
 10
582.3800832446912
 20
260.5063611095125
 30
0.0
 11
582.3800832446912
 21
259.2563270372542
 31
0.0
  0
LINE
  5
165EF
102
{ACAD_REACTORS
330
165AF
102
}
330
1F
100
AcDbEntity
  8
0
100
AcDbLine
 10
583.380110502498
 20
260.5063611095125
 30
0.0
 11
584.1301309458531
 21
259.7563406661576
 31
0.0
  0
LINE
  5
165F0
102
{ACAD_REACTORS
330
165AF
102
}
330
1F
100
AcDbEntity
  8
0
100
AcDbLine
 10
595.9304612253547
 20
259.7563406661576
 30
0.0
 11
595.9304612253552
 21
258.2562997794474
 31
0.0
  0
LINE
  5
165F1
102
{ACAD_REACTORS
330
165AF
102
}
330
1F
100
AcDbEntity
  8
0
100
AcDbLine
 10
584.1301309458531
 20
259.7563406661576
 30
0.0
 11
595.9304612253925
 21
259.7563406661576
 31
0.0
  0
LINE
  5
165F2
102
{ACAD_REACTORS
330
165AF
102
}
330
1F
100
AcDbEntity
  8
0
100
AcDbLine
 10
596.8304884831622
 20
259.7563406661576
 30
0.0
 11
597.38048211152
 21
259.7563406661576
 31
0.0
  0
LINE
  5
165F3
102
{ACAD_REACTORS
330
165AF
102
}
330
1F
100
AcDbEntity
  8
0
100
AcDbLine
 10
596.8304884831614
 20
259.7563406661576
 30
0.0
 11
596.8304884831616
 21
258.2562997794474
 31
0.0
  0
LINE
  5
165F4
102
{ACAD_REACTORS
330
165AF
102
}
330
1F
100
AcDbEntity
  8
0
100
AcDbLine
 10
596.8304884831616
 20
258.2562997794474
 30
0.0
 11
597.8805057406962
 21
258.2562997794474
 31
0.0
  0
LINE
  5
165F5
102
{ACAD_REACTORS
330
165AF
102
}
330
1F
100
AcDbEntity
  8
0
100
AcDbLine
 10
597.38048211152
 20
260.5063611095125
 30
0.0
 11
599.1815012020124
 21
260.5063611095125
 31
0.0
  0
LINE
  5
165F6
102
{ACAD_REACTORS
330
165AF
102
}
330
1F
100
AcDbEntity
  8
0
100
AcDbLine
 10
597.38048211152
 20
260.5063611095125
 30
0.0
 11
597.38048211152
 21
259.7563406661576
 31
0.0
  0
LINE
  5
165F7
102
{ACAD_REACTORS
330
165AF
102
}
330
1F
100
AcDbEntity
  8
0
100
AcDbLine
 10
599.6145230049152
 20
260.2563542950609
 30
0.0
 11
601.0011666385707
 21
257.8546581037416
 31
0.0
  0
SPLINE
  5
165F8
102
{ACAD_REACTORS
330
165AF
102
}
330
1F
100
AcDbEntity
  8
0
100
AcDbSpline
210
0.0
220
0.0
230
1.0
 70
    12
 71
     3
 72
     8
 73
     4
 74
     0
 42
0.0000000001
 43
0.0000000001
 40
0.0
 40
0.0
 40
0.0
 40
0.0
 40
1.0
 40
1.0
 40
1.0
 40
1.0
 10
599.1815012020124
 20
260.5063611095127
 30
0.0
 41
1.0
 10
599.3645188924381
 20
260.5063611095125
 30
0.0
 41
0.9106836024999999
 10
599.5230168616593
 20
260.4148522643171
 30
0.0
 41
0.9106836024999999
 10
599.6145257068892
 20
260.2563542950609
 30
0.0
 41
1.0
  0
LINE
  5
165F9
102
{ACAD_REACTORS
330
165AF
102
}
330
1F
100
AcDbEntity
  8
0
100
AcDbLine
 10
599.6145230049152
 20
249.2560544591868
 30
0.0
 11
601.0011666385763
 21
251.6577506505154
 31
0.0
  0
SPLINE
  5
165FA
102
{ACAD_REACTORS
330
165AF
102
}
330
1F
100
AcDbEntity
  8
0
100
AcDbSpline
210
0.0
220
0.0
230
1.0
 70
    12
 71
     3
 72
     8
 73
     4
 74
     0
 42
0.0000000001
 43
0.0000000001
 40
0.0
 40
0.0
 40
0.0
 40
0.0
 40
1.0
 40
1.0
 40
1.0
 40
1.0
 10
599.1815012020124
 20
249.0060476447351
 30
0.0
 41
1.0
 10
599.3645188924381
 20
249.0060476447352
 30
0.0
 41
0.9106836024999999
 10
599.5230168616593
 20
249.0975564899643
 30
0.0
 41
0.9106836024999999
 10
599.6145257068892
 20
249.2560544591868
 30
0.0
 41
1.0
  0
LINE
  5
165FB
102
{ACAD_REACTORS
330
165AF
102
}
330
1F
100
AcDbEntity
  8
0
100
AcDbLine
 10
597.38048211152
 20
249.0060476447352
 30
0.0
 11
599.1815012020124
 21
249.0060476447352
 31
0.0
  0
LINE
  5
165FC
102
{ACAD_REACTORS
330
165AF
102
}
330
1F
100
AcDbEntity
  8
0
100
AcDbLine
 10
597.3804821115196
 20
249.7560680880901
 30
0.0
 11
597.38048211152
 21
249.0060476447352
 31
0.0
  0
LINE
  5
165FD
102
{ACAD_REACTORS
330
165AF
102
}
330
1F
100
AcDbEntity
  8
0
100
AcDbLine
 10
584.1301309458531
 20
249.7560680880901
 30
0.0
 11
597.3804821115196
 21
249.7560680880901
 31
0.0
  0
LINE
  5
165FE
102
{ACAD_REACTORS
330
165AF
102
}
330
1F
100
AcDbEntity
  8
0
100
AcDbLine
 10
583.380110502498
 20
249.0060476447352
 30
0.0
 11
584.1301309458531
 21
249.7560680880901
 31
0.0
  0
LINE
  5
165FF
102
{ACAD_REACTORS
330
165AF
102
}
330
1F
100
AcDbEntity
  8
0
100
AcDbLine
 10
582.3800832446912
 20
249.0060476447352
 30
0.0
 11
583.380110502498
 21
249.0060476447352
 31
0.0
  0
LINE
  5
16600
102
{ACAD_REACTORS
330
165AF
102
}
330
1F
100
AcDbEntity
  8
0
100
AcDbLine
 10
582.3800832446912
 20
250.2560817169936
 30
0.0
 11
584.1121804565755
 21
251.2561089748003
 31
0.0
  0
LINE
  5
16601
102
{ACAD_REACTORS
330
16618
330
165AF
102
}
330
1F
100
AcDbEntity
  8
0
100
AcDbLine
 10
582.3800832446912
 20
250.2560817169936
 30
0.0
 11
582.3800832446912
 21
249.0060476447352
 31
0.0
  0
LINE
  5
16602
102
{ACAD_REACTORS
330
165AF
102
}
330
1F
100
AcDbEntity
  8
0
100
AcDbLine
 10
584.1121804565755
 20
251.2561089748003
 30
0.0
 11
597.8805057406962
 21
251.2561089748003
 31
0.0
  0
DIMENSION
  5
16610
102
{ACAD_XDICTIONARY
360
16611
102
}
102
{ACAD_REACTORS
330
16612
102
}
330
1F
100
AcDbEntity
  8
DIM
100
AcDbDimension
  2
*D2
 10
578.429810635494
 20
221.082559189659
 30
0.0
 11
578.429810635494
 21
226.8325591896589
 31
0.0
 70
   160
  1
%%C<>
 71
     5
 42
11.5
 73
     0
 74
     0
 75
     0
  3
01
100
AcDbAlignedDimension
 13
582.3800832446912
 23
232.5825591896589
 33
0.0
 14
582.3800832446912
 24
221.082559189659
 34
0.0
 50
90.0
100
AcDbRotatedDimension
  0
DIMENSION
  5
16616
102
{ACAD_XDICTIONARY
360
16617
102
}
102
{ACAD_REACTORS
330
16618
102
}
330
1F
100
AcDbEntity
  8
DIM
100
AcDbDimension
  2
*D3
 10
597.8805057406962
 20
245.4566749661854
 30
0.0
 11
590.6574668291657
 21
245.4566749661854
 31
0.0
 70
   160
 71
     5
 42
15.50042249600483
 73
     0
 74
     0
 75
     0
  3
01
100
AcDbAlignedDimension
 13
582.3800832446912
 23
249.0060476447352
 33
0.0
 14
597.8805057406962
 24
251.2561089748003
 34
0.0
100
AcDbRotatedDimension
  0
CIRCLE
  5
16619
330
1F
100
AcDbEntity
  8
0
100
AcDbCircle
 10
596.3804748542583
 20
226.8325591896757
 30
0.0
 40
0.45
  0
LINE
  5
16620
102
{ACAD_REACTORS
330
165AF
102
}
330
1F
100
AcDbEntity
  8
0
100
AcDbLine
 10
601.1734628385802
 20
251.7562043771238
 30
0.0
 11
615.1444141340203
 21
251.7562043771238
 31
0.0
  0
LINE
  5
16621
102
{ACAD_REACTORS
330
165AF
102
}
330
1F
100
AcDbEntity
  8
0
100
AcDbLine
 10
617.38048211152
 20
252.7562043771239
 30
0.0
 11
617.38048211152
 21
256.7562043771238
 31
0.0
  0
LINE
  5
16622
102
{ACAD_REACTORS
330
165AF
102
}
330
1F
100
AcDbEntity
  8
0
100
AcDbLine
 10
615.1444141340203
 20
257.7562043771238
 30
0.0
 11
601.173462841979
 21
257.7562043771238
 31
0.0
  0
ARC
  5
16623
102
{ACAD_REACTORS
330
165AF
102
}
330
1F
100
AcDbEntity
  8
0
100
AcDbCircle
 10
615.1444141340203
 20
254.7562043771239
 30
0.0
 40
3.0
100
AcDbArc
 50
41.81031489577432
 51
90.0
  0
ARC
  5
16624
102
{ACAD_REACTORS
330
165AF
102
}
330
1F
100
AcDbEntity
  8
0
100
AcDbCircle
 10
615.1444141340203
 20
254.7562043771239
 30
0.0
 40
3.0
100
AcDbArc
 50
270.0
 51
318.1896851042257
  0
ARC
  5
16625
102
{ACAD_REACTORS
330
165AF
102
}
330
1F
100
AcDbEntity
  8
0
100
AcDbCircle
 10
601.1734728423653
 20
251.5561989258126
 30
0.0
 40
0.2000054515613473
100
AcDbArc
 50
90.0028647890087
 51
150.5128795449118
  0
ARC
  5
16626
330
1F
100
AcDbEntity
  8
0
100
AcDbCircle
 10
600.6734728423571
 20
230.032564640987
 30
0.0
 40
0.2000054515613473
100
AcDbArc
 50
209.4871204550862
 51
269.9971352109912
  0
LINE
  5
16627
330
1F
100
AcDbEntity
  8
0
100
AcDbLine
 10
599.1145230049068
 20
232.3327091076128
 30
0.0
 11
600.5011666385626
 21
229.9310129162936
 31
0.0
  0
LINE
  5
16628
330
1F
100
AcDbEntity
  8
0
100
AcDbLine
 10
599.1145230049068
 20
221.3324092717387
 30
0.0
 11
600.5011666385678
 21
223.7341054630672
 31
0.0
  0
LINE
  5
16629
330
1F
100
AcDbEntity
  8
0
100
AcDbLine
 10
600.6734628385721
 20
223.8325591896757
 30
0.0
 11
615.1444141340121
 21
223.8325591896757
 31
0.0
  0
LINE
  5
1662A
330
1F
100
AcDbEntity
  8
0
100
AcDbLine
 10
617.3804821115118
 20
224.8325591896757
 30
0.0
 11
617.3804821115118
 21
228.8325591896758
 31
0.0
  0
LINE
  5
1662B
330
1F
100
AcDbEntity
  8
0
100
AcDbLine
 10
615.1444141340121
 20
229.8325591896757
 30
0.0
 11
600.6734628419707
 21
229.8325591896757
 31
0.0
  0
ARC
  5
1662C
330
1F
100
AcDbEntity
  8
0
100
AcDbCircle
 10
615.1444141340121
 20
226.8325591896757
 30
0.0
 40
3.0
100
AcDbArc
 50
41.8103148957743
 51
90.0
  0
ARC
  5
1662D
330
1F
100
AcDbEntity
  8
0
100
AcDbCircle
 10
615.1444141340121
 20
226.8325591896757
 30
0.0
 40
3.0
100
AcDbArc
 50
270.0
 51
318.1896851042257
  0
ARC
  5
1662E
330
1F
100
AcDbEntity
  8
0
100
AcDbCircle
 10
600.6734728423571
 20
223.6325537383646
 30
0.0
 40
0.2000054515613473
100
AcDbArc
 50
90.0028647890087
 51
150.5128795449138
  0
LINE
  5
1662F
330
1F
100
AcDbEntity
  8
0
100
AcDbLine
 10
600.5011666389592
 20
229.9310129156206
 30
0.0
 11
600.4993748237416
 21
223.7310020017743
 31
0.0
  0
LINE
  5
16630
102
{ACAD_REACTORS
330
165AF
102
}
330
1F
100
AcDbEntity
  8
0
100
AcDbLine
 10
599.9012867634171
 20
254.7562043771239
 30
0.0
 11
597.8805057406962
 21
251.2561089748005
 31
0.0
  0
LINE
  5
16631
102
{ACAD_REACTORS
330
165AF
102
}
330
1F
100
AcDbEntity
  8
0
100
AcDbLine
 10
599.9012867634171
 20
254.7562043771239
 30
0.0
 11
597.8805057406962
 21
258.2562997794474
 31
0.0
  0
LINE
  5
16645
330
1F
100
AcDbEntity
  8
hat
  6
CENTERX2
 62
     1
100
AcDbLine
 10
581.1613744670911
 20
226.8325596111068
 30
0.0
 11
587.5868203373449
 21
226.8325596111068
 31
0.0
  0
ARC
  5
16646
330
1F
100
AcDbEntity
  8
0
100
AcDbCircle
 10
596.3255039645089
 20
262.665496826997
 30
0.0
 40
2.935855639141379
100
AcDbArc
 50
262.2669404857881
 51
271.0728674805044
  0
ARC
  5
16647
330
1F
100
AcDbEntity
  8
0
100
AcDbCircle
 10
596.4362702562753
 20
262.6513267050971
 30
0.0
 40
2.921703642750964
100
AcDbArc
 50
268.9057632856616
 51
277.754428747622
  0
LINE
  5
16649
330
1F
100
AcDbEntity
  8
hat
  6
CENTERX2
 62
     1
100
AcDbLine
 10
596.3804748542583
 20
225.2518970817739
 30
0.0
 11
596.3804748542583
 21
228.4132212975773
 31
0.0
  0
LINE
  5
16653
330
1F
100
AcDbEntity
  8
0
100
AcDbLine
 10
549.598305863186
 20
194.0038592384549
 30
0.0
 11
549.6756822822758
 21
193.7403940634666
 31
0.0
  0
LINE
  5
16654
330
1F
100
AcDbEntity
  8
0
100
AcDbLine
 10
541.2866283198635
 20
199.564112507527
 30
0.0
 11
541.0135756842943
 21
199.5350734500814
 31
0.0
  0
LINE
  5
16655
330
1F
100
AcDbEntity
  8
0
100
AcDbLine
 10
557.3939541721085
 20
204.3082459655491
 30
0.0
 11
556.7673040712389
 21
203.3715056195857
 31
0.0
  0
LINE
  5
16656
330
1F
100
AcDbEntity
  8
0
100
AcDbLine
 10
549.5974530468579
 20
192.6537402832845
 30
0.0
 11
549.0853157095155
 21
191.8881779608693
 31
0.0
  0
LINE
  5
16657
330
1F
100
AcDbEntity
  8
0
100
AcDbLine
 10
555.5291310350026
 20
202.8694817215445
 30
0.0
 11
549.3581859515384
 21
193.644918884344
 31
0.0
  0
LINE
  5
16659
330
1F
100
AcDbEntity
  8
0
100
AcDbLine
 10
563.5790864661587
 20
218.4998261638205
 30
0.0
 11
556.1283514065775
 21
207.3621847149261
 31
0.0
  0
LINE
  5
1665A
330
1F
100
AcDbEntity
  8
0
100
AcDbLine
 10
556.3521990641262
 20
207.6968006862389
 30
0.0
 11
556.8216567504995
 21
207.0579920618432
 31
0.0
  0
LINE
  5
1665D
330
1F
100
AcDbEntity
  8
0
100
AcDbLine
 10
551.3651858888041
 20
211.0329570958759
 30
0.0
 11
550.5955571662513
 21
211.2230586668027
 31
0.0
  0
LINE
  5
1665E
330
1F
100
AcDbEntity
  8
0
100
AcDbLine
 10
558.5920732908365
 20
221.8359825734574
 30
0.0
 11
551.1413382312552
 21
210.6983411245632
 31
0.0
  0
LINE
  5
1665F
330
1F
100
AcDbEntity
  8
0
100
AcDbLine
 10
549.9958673119989
 20
211.3389953249068
 30
0.0
 11
550.5955571662513
 21
211.2230586668027
 31
0.0
  0
LINE
  5
16661
330
1F
100
AcDbEntity
  8
0
100
AcDbLine
 10
547.2174521070654
 20
208.4297329208423
 30
0.0
 11
541.046508408216
 21
199.2051721534162
 31
0.0
  0
LINE
  5
16662
330
1F
100
AcDbEntity
  8
0
100
AcDbLine
 10
547.8355441141076
 20
210.7025244364252
 30
0.0
 11
547.2088940132386
 21
209.7657840904618
 31
0.0
  0
LINE
  5
16663
330
1F
100
AcDbEntity
  8
0
100
AcDbLine
 10
540.0390429888573
 20
199.0480187541606
 30
0.0
 11
539.5269056515145
 21
198.2824564317454
 31
0.0
  0
LINE
  5
16664
330
1F
100
AcDbEntity
  8
0
100
AcDbLine
 10
561.1977833051879
 20
223.1532302924857
 30
0.0
 11
560.970592979079
 21
223.1656648859615
 31
0.0
  0
ARC
  5
16665
330
1F
100
AcDbEntity
  8
0
100
AcDbCircle
 10
549.3065785715233
 20
206.4021854412263
 30
0.0
 40
4.985971895833333
100
AcDbArc
 50
82.06656176008056
 51
82.35684822446783
  0
ARC
  5
16666
330
1F
100
AcDbEntity
  8
0
100
AcDbCircle
 10
549.381417329129
 20
206.7603137685562
 30
0.0
 40
4.619726569399999
100
AcDbArc
 50
82.35668483717132
 51
82.70984230046638
  0
ARC
  5
16667
330
1F
100
AcDbEntity
  8
0
100
AcDbCircle
 10
553.6852239956673
 20
204.5188152258487
 30
0.0
 40
4.021612209799998
100
AcDbArc
 50
26.47467142625987
 51
27.91024217197195
  0
ARC
  5
16668
330
1F
100
AcDbEntity
  8
0
100
AcDbCircle
 10
561.085661388695
 20
220.1677585712933
 30
0.0
 40
3.000155468333332
100
AcDbArc
 50
92.19877670447399
 51
146.2172620823771
  0
ARC
  5
16669
330
1F
100
AcDbEntity
  8
0
100
AcDbCircle
 10
561.0854180415691
 20
220.1679235823092
 30
0.0
 40
3.0001519386
100
AcDbArc
 50
326.2201243572623
 51
20.23868018978508
  0
SPLINE
  5
1666A
330
1F
100
AcDbEntity
  8
0
100
AcDbSpline
210
0.0
220
0.0
230
1.0
 70
     8
 71
     3
 72
    21
 73
    17
 74
     0
 42
0.0000000001
 43
0.0000000001
 40
0.0
 40
0.0
 40
0.0
 40
0.0
 40
0.0523271568
 40
0.1096479648
 40
0.1713257584
 40
0.2366859982
 40
0.3049868531
 40
0.3753692664999999
 40
0.5187151237
 40
0.6593918084000002
 40
0.7264951960000002
 40
0.7903170219
 40
0.8501182783999999
 40
0.9052803911999999
 40
0.9553283590999999
 40
1.0
 40
1.0
 40
1.0
 40
1.0
 10
561.1977833051879
 20
223.1532302924854
 30
0.0
 10
561.2572512094486
 20
223.1452503874185
 30
0.0
 10
561.3810189098666
 20
223.121989649399
 30
0.0
 10
561.5706858066411
 20
223.0701878386925
 30
0.0
 10
561.7703846607252
 20
223.0003781752463
 30
0.0
 10
561.9770565607185
 20
222.9137156142726
 30
0.0
 10
562.1876066677615
 20
222.811431934823
 30
0.0
 10
562.4709925901623
 20
222.655394599221
 30
0.0
 10
562.8122012021012
 20
222.4334723953059
 30
0.0
 10
563.1280365697119
 20
222.1826176352195
 30
0.0
 10
563.3558310113216
 20
221.9700465084064
 30
0.0
 10
563.5070045620381
 20
221.8118226380188
 30
0.0
 10
563.6388999570603
 20
221.6546777713656
 30
0.0
 10
563.7496178238449
 20
221.5009795261582
 30
0.0
 10
563.8374740586924
 20
221.3529954188272
 30
0.0
 10
563.8826137838052
 20
221.2538361123122
 30
0.0
 10
563.9003281396477
 20
221.205773973168
 30
0.0
  0
SPLINE
  5
1666B
330
1F
100
AcDbEntity
  8
0
100
AcDbSpline
210
0.0
220
0.0
230
1.0
 70
     8
 71
     3
 72
    31
 73
    27
 74
     0
 42
0.0000000001
 43
0.0000000001
 40
0.0
 40
0.0
 40
0.0
 40
0.0
 40
0.015500428
 40
0.0315038343
 40
0.0484551468
 40
0.0667125447
 40
0.0865337342
 40
0.1080882788
 40
0.1314735304
 40
0.1567227006
 40
0.1838281208
 40
0.2127379782
 40
0.2433742712
 40
0.2756324254
 40
0.3444790029
 40
0.418097609
 40
0.495095637
 40
0.5739541404999999
 40
0.6530875219
 40
0.7309001149
 40
0.8058457254
 40
0.8764745951
 40
0.9097740213999999
 40
0.9415458077
 40
0.9716623990999998
 40
1.0
 40
1.0
 40
1.0
 40
1.0
 10
539.526842086959
 20
198.282337932404
 30
0.0
 10
539.4946784775046
 20
198.2342488156108
 30
0.0
 10
539.4389993330621
 20
198.1296491213209
 30
0.0
 10
539.3862283542206
 20
197.9556304097207
 30
0.0
 10
539.3634615854643
 20
197.7649655478644
 30
0.0
 10
539.3705981595293
 20
197.559016209693
 30
0.0
 10
539.4071664064266
 20
197.3389327255006
 30
0.0
 10
539.4727954160306
 20
197.1058739714584
 30
0.0
 10
539.5670538797141
 20
196.8611035687818
 30
0.0
 10
539.6892918800148
 20
196.6059258032493
 30
0.0
 10
539.8388812677152
 20
196.3418311811753
 30
0.0
 10
540.014876016295
 20
196.0702909252977
 30
0.0
 10
540.2162981444602
 20
195.7929128448068
 30
0.0
 10
540.5239014363528
 20
195.4091048118922
 30
0.0
 10
540.9647722964177
 20
194.9275214772564
 30
0.0
 10
541.5609021379865
 20
194.3648578126207
 30
0.0
 10
542.2213771927596
 20
193.8186488317681
 30
0.0
 10
542.9306551448113
 20
193.3018183551953
 30
0.0
 10
543.6720503231064
 20
192.8265721689673
 30
0.0
 10
544.4280799628947
 20
192.4040786186569
 30
0.0
 10
545.180876300817
 20
192.0443044273694
 30
0.0
 10
545.8025514886743
 20
191.7989513164146
 30
0.0
 10
546.2843925462906
 20
191.642439328057
 30
0.0
 10
546.6269707293831
 20
191.5477854769929
 30
0.0
 10
546.9557145027189
 20
191.4741171679169
 30
0.0
 10
547.171048301938
 20
191.4381017251976
 30
0.0
 10
547.2758759675522
 20
191.4240350647377
 30
0.0
  0
SPLINE
  5
1666C
330
1F
100
AcDbEntity
  8
0
100
AcDbSpline
210
0.0
220
0.0
230
1.0
 70
     8
 71
     3
 72
    13
 73
     9
 74
     0
 42
0.0000000001
 43
0.0000000001
 40
0.0
 40
0.0
 40
0.0
 40
0.0
 40
0.2895891235
 40
0.5471734644000003
 40
0.6662904100000003
 40
0.7804404943000001
 40
0.8911133718999998
 40
1.0
 40
1.0
 40
1.0
 40
1.0
 10
541.0135730859762
 20
199.5350759660979
 30
0.0
 10
540.9056540074093
 20
199.5235963801723
 30
0.0
 10
540.702698303143
 20
199.48862792746
 30
0.0
 10
540.4661684972023
 20
199.4030362562575
 30
0.0
 10
540.3059559903498
 20
199.3118408276143
 30
0.0
 10
540.2022600206199
 20
199.2346784960049
 30
0.0
 10
540.112395388857
 20
199.1471766240998
 30
0.0
 10
540.0617458572748
 20
199.0819272238207
 30
0.0
 10
540.0390538389362
 20
199.0480114956353
 30
0.0
  0
SPLINE
  5
1666E
330
1F
100
AcDbEntity
  8
0
100
AcDbSpline
210
0.0
220
0.0
230
1.0
 70
     8
 71
     3
 72
    31
 73
    27
 74
     0
 42
0.0000000001
 43
0.0000000001
 40
0.0
 40
0.0
 40
0.0
 40
0.0
 40
0.015500428
 40
0.0315038343
 40
0.0484551468
 40
0.0667125447
 40
0.0865337342
 40
0.1080882788
 40
0.1314735304
 40
0.1567227006
 40
0.1838281208
 40
0.2127379782
 40
0.2433742712
 40
0.2756324254
 40
0.3444790029
 40
0.418097609
 40
0.495095637
 40
0.5739541404999999
 40
0.6530875219
 40
0.7309001149
 40
0.8058457254
 40
0.8764745951
 40
0.9097740213999999
 40
0.9415458077
 40
0.9716623990999998
 40
1.0
 40
1.0
 40
1.0
 40
1.0
 10
547.2088253273847
 20
209.7656579356095
 30
0.0
 10
547.1766617179304
 20
209.7175688188164
 30
0.0
 10
547.120982573488
 20
209.6129691245263
 30
0.0
 10
547.0682115946462
 20
209.4389504129261
 30
0.0
 10
547.0454448258712
 20
209.2482855510424
 30
0.0
 10
547.0525813999365
 20
209.042336212871
 30
0.0
 10
547.089149646834
 20
208.8222527286786
 30
0.0
 10
547.154778656438
 20
208.5891939746363
 30
0.0
 10
547.2490371201399
 20
208.3444235719873
 30
0.0
 10
547.3712751204219
 20
208.0892458064272
 30
0.0
 10
547.5208645081221
 20
207.8251511843532
 30
0.0
 10
547.6968592567024
 20
207.5536109284757
 30
0.0
 10
547.8982813848673
 20
207.2762328479847
 30
0.0
 10
548.2058846767601
 20
206.8924248150699
 30
0.0
 10
548.6467555368248
 20
206.4108414804341
 30
0.0
 10
549.2428853784123
 20
205.8481778158264
 30
0.0
 10
549.9033604331668
 20
205.301968834946
 30
0.0
 10
550.6126383852366
 20
204.7851383584009
 30
0.0
 10
551.3540335635322
 20
204.3098921721731
 30
0.0
 10
552.1100632033205
 20
203.8873986218628
 30
0.0
 10
552.8628595412241
 20
203.5276244305474
 30
0.0
 10
553.4845347291001
 20
203.2822713196201
 30
0.0
 10
553.9663757866978
 20
203.1257593312347
 30
0.0
 10
554.3089539697903
 20
203.0311054801708
 30
0.0
 10
554.6376977431258
 20
202.9574371710948
 30
0.0
 10
554.8530315423636
 20
202.9214217284033
 30
0.0
 10
554.9578592079592
 20
202.9073550679157
 30
0.0
  0
SPLINE
  5
1666F
330
1F
100
AcDbEntity
  8
0
100
AcDbSpline
210
0.0
220
0.0
230
1.0
 70
     8
 71
     3
 72
    16
 73
    12
 74
     0
 42
0.0000000001
 43
0.0000000001
 40
0.0
 40
0.0
 40
0.0
 40
0.0
 40
0.1154287302
 40
0.2306327593
 40
0.3473780293999999
 40
0.4664977925000002
 40
0.5275799845
 40
0.5899189855
 40
0.7192031146
 40
0.8558022162
 40
1.0
 40
1.0
 40
1.0
 40
1.0
 10
547.8355441141074
 20
210.7025244364249
 30
0.0
 10
547.8857641900559
 20
210.7775953113093
 30
0.0
 10
548.0022004940982
 20
210.917521063795
 30
0.0
 10
548.2163424462648
 20
211.0875688748227
 30
0.0
 10
548.4600488711281
 20
211.2172546934536
 30
0.0
 10
548.6809767818153
 20
211.2921089159152
 30
0.0
 10
548.8660427886157
 20
211.3345686028676
 30
0.0
 10
549.0612383356062
 20
211.3668750447836
 30
0.0
 10
549.3178297177279
 20
211.3866846613874
 30
0.0
 10
549.6390251754553
 20
211.3806984114904
 30
0.0
 10
549.8578985396465
 20
211.3588663353839
 30
0.0
 10
549.9697271798289
 20
211.3438602250814
 30
0.0
  0
SPLINE
  5
16670
330
1F
100
AcDbEntity
  8
0
100
AcDbSpline
210
0.0
220
0.0
230
1.0
 70
     8
 71
     3
 72
    15
 73
    11
 74
     0
 42
0.0000000001
 43
0.0000000001
 40
0.0
 40
0.0
 40
0.0
 40
0.0
 40
0.0961809226
 40
0.1960186269
 40
0.3026948483
 40
0.4186484679
 40
0.5455885102
 40
0.6845784931000001
 40
0.8360994156
 40
1.0
 40
1.0
 40
1.0
 40
1.0
 10
549.0853895167321
 20
191.888311771269
 30
0.0
 10
549.0504331226542
 20
191.836047048955
 30
0.0
 10
548.9672675651178
 20
191.7370265208163
 30
0.0
 10
548.8101509236583
 20
191.614677831583
 30
0.0
 10
548.6216806086535
 20
191.5178697937155
 30
0.0
 10
548.4036239607591
 20
191.4468497648334
 30
0.0
 10
548.1574698014537
 20
191.4016849307936
 30
0.0
 10
547.8847804082318
 20
191.3823966908682
 30
0.0
 10
547.5874419402855
 20
191.3890417173443
 30
0.0
 10
547.382072402076
 20
191.4097847312915
 30
0.0
 10
547.2758759675522
 20
191.4240350647377
 30
0.0
  0
SPLINE
  5
16671
330
1F
100
AcDbEntity
  8
0
100
AcDbSpline
210
0.0
220
0.0
230
1.0
 70
     8
 71
     3
 72
     9
 73
     5
 74
     0
 42
0.0000000001
 43
0.0000000001
 40
0.0
 40
0.0
 40
0.0
 40
0.0
 40
0.2411107105
 40
1.0
 40
1.0
 40
1.0
 40
1.0
 10
549.9947553324126
 20
211.3404370034369
 30
0.0
 10
550.0434828066272
 20
211.3336468454729
 30
0.0
 10
550.2451611231109
 20
211.302513916095
 30
0.0
 10
550.4450487514076
 20
211.2601917926081
 30
0.0
 10
550.5953849333145
 20
211.2230751294366
 30
0.0
  0
SPLINE
  5
16672
330
1F
100
AcDbEntity
  8
0
100
AcDbSpline
210
0.0
220
0.0
230
1.0
 70
     8
 71
     3
 72
    18
 73
    14
 74
     0
 42
0.0000000001
 43
0.0000000001
 40
0.0
 40
0.0
 40
0.0
 40
0.0
 40
0.1513259997
 40
0.2928794824
 40
0.4249748361
 40
0.4878068321000001
 40
0.5487172155
 40
0.6657480910000002
 40
0.7787252527000002
 40
0.8342074188999999
 40
0.8892354525
 40
0.9442817167999999
 40
1.0
 40
1.0
 40
1.0
 40
1.0
 10
556.820875110603
 20
207.0590397441914
 30
0.0
 10
556.9101144600655
 20
206.9376689212108
 30
0.0
 10
557.0752362095288
 20
206.6969965928275
 30
0.0
 10
557.2866677098401
 20
206.3300105863891
 30
0.0
 10
557.426194340058
 20
206.0247325514359
 30
0.0
 10
557.5115330064833
 20
205.7846029518081
 30
0.0
 10
557.5774993442275
 20
205.5540341543929
 30
0.0
 10
557.6274128646176
 20
205.2674993900281
 30
0.0
 10
557.6259242790107
 20
204.9813255932231
 30
0.0
 10
557.5898129063838
 20
204.761387100327
 30
0.0
 10
557.5446273721808
 20
204.6024725417811
 30
0.0
 10
557.4803385181816
 20
204.4500194114335
 30
0.0
 10
557.424795889602
 20
204.3543493349971
 30
0.0
 10
557.3939541721081
 20
204.3082459655488
 30
0.0
  0
SPLINE
  5
16673
330
1F
100
AcDbEntity
  8
0
100
AcDbSpline
210
0.0
220
0.0
230
1.0
 70
     8
 71
     3
 72
    13
 73
     9
 74
     0
 42
0.0000000001
 43
0.0000000001
 40
0.0
 40
0.0
 40
0.0
 40
0.0
 40
0.289593984
 40
0.5471995070000001
 40
0.6663029143000001
 40
0.7804460256
 40
0.891117389
 40
1.0
 40
1.0
 40
1.0
 40
1.0
 10
549.6756822706815
 20
193.7403940684959
 30
0.0
 10
549.7062640377746
 20
193.6362619476074
 30
0.0
 10
549.7513690291342
 20
193.4353100477632
 30
0.0
 10
549.7626071636236
 20
193.1840136995568
 30
0.0
 10
549.7394194037759
 20
193.0011256683926
 30
0.0
 10
549.707667565454
 20
192.8758423305268
 30
0.0
 10
549.6611235766996
 20
192.7593739481401
 30
0.0
 10
549.6201334158055
 20
192.687662075332
 30
0.0
 10
549.597442196807
 20
192.6537475417909
 30
0.0
  0
SPLINE
  5
16674
330
1F
100
AcDbEntity
  8
0
100
AcDbSpline
210
0.0
220
0.0
230
1.0
 70
     8
 71
     3
 72
    15
 73
    11
 74
     0
 42
0.0000000001
 43
0.0000000001
 40
0.0
 40
0.0
 40
0.0
 40
0.0
 40
0.0961809226
 40
0.1960186269
 40
0.3026948483
 40
0.4186484679
 40
0.5455885102
 40
0.6845784931000001
 40
0.8360994156
 40
1.0
 40
1.0
 40
1.0
 40
1.0
 10
556.7673727571392
 20
203.371631774447
 30
0.0
 10
556.7324163630614
 20
203.319367052133
 30
0.0
 10
556.6492508055248
 20
203.2203465239943
 30
0.0
 10
556.492134164084
 20
203.0979978347888
 30
0.0
 10
556.3036638490606
 20
203.0011897968934
 30
0.0
 10
556.085607201166
 20
202.9301697680113
 30
0.0
 10
555.8394530418792
 20
202.8850049339992
 30
0.0
 10
555.5667636486576
 20
202.865716694074
 30
0.0
 10
555.2694251806923
 20
202.872361720522
 30
0.0
 10
555.0640556424831
 20
202.8931047344695
 30
0.0
 10
554.9578592079592
 20
202.9073550679157
 30
0.0
  0
SPLINE
  5
16676
330
1F
100
AcDbEntity
  8
0
100
AcDbSpline
210
0.0
220
0.0
230
1.0
 70
     8
 71
     3
 72
    32
 73
    28
 74
     0
 42
0.0000000001
 43
0.0000000001
 40
0.0
 40
0.0
 40
0.0
 40
0.0
 40
0.0237059353
 40
0.0451318229
 40
0.0645469302
 40
0.08237422
 40
0.0992157469
 40
0.1158081475
 40
0.1329332992
 40
0.151285975
 40
0.1714010684
 40
0.1936346058
 40
0.2181817944
 40
0.2451312807
 40
0.2744662491
 40
0.3061058682
 40
0.3399196418
 40
0.3757219171
 40
0.4524056151
 40
0.5341678944
 40
0.6187150109
 40
0.7036097874000001
 40
0.786395643
 40
0.8647106041
 40
0.9364926692999999
 40
0.9693872996999999
 40
1.0
 40
1.0
 40
1.0
 40
1.0
 10
560.9705768240127
 20
223.1656813748535
 30
0.0
 10
560.9362401748507
 20
223.1643723094502
 30
0.0
 10
560.8709045605228
 20
223.1586260796809
 30
0.0
 10
560.7792243702333
 20
223.1385174764741
 30
0.0
 10
560.6996057058855
 20
223.1074597443919
 30
0.0
 10
560.6328175034134
 20
223.0653529538694
 30
0.0
 10
560.5797567004798
 20
223.012379971053
 30
0.0
 10
560.5413614842547
 20
222.9491161085307
 30
0.0
 10
560.5183141197917
 20
222.8765708292536
 30
0.0
 10
560.5104563164074
 20
222.7958681631378
 30
0.0
 10
560.5175765471807
 20
222.7077911089885
 30
0.0
 10
560.5393580004157
 20
222.6130238390953
 30
0.0
 10
560.5754603295146
 20
222.5122188935316
 30
0.0
 10
560.6256356270399
 20
222.406170109267
 30
0.0
 10
560.6893929205822
 20
222.2956822204637
 30
0.0
 10
560.7662302990426
 20
222.1816656518832
 30
0.0
 10
560.8555287087003
 20
222.0650871608323
 30
0.0
 10
560.9933349363654
 20
221.9037984099674
 30
0.0
 10
561.1917520885937
 20
221.7034462995385
 30
0.0
 10
561.4592823591873
 20
221.4738522224207
 30
0.0
 10
561.7526214836247
 20
221.2575885775457
 30
0.0
 10
562.0618605150533
 20
221.0619817318717
 30
0.0
 10
562.3765782156151
 20
220.8936350992265
 30
0.0
 10
562.6861369321638
 20
220.7581212304512
 30
0.0
 10
562.9381991817466
 20
220.6738884921007
 30
0.0
 10
563.1289467554543
 20
220.6279540019819
 30
0.0
 10
563.2197247029258
 20
220.612147528046
 30
0.0
 10
563.2637034204464
 20
220.606246092749
 30
0.0
  0
SPLINE
  5
16677
330
1F
100
AcDbEntity
  8
0
100
AcDbSpline
210
0.0
220
0.0
230
1.0
 70
     8
 71
     3
 72
    29
 73
    25
 74
     0
 42
0.0000000001
 43
0.0000000001
 40
0.0
 40
0.0
 40
0.0
 40
0.0
 40
0.0155010647
 40
0.0315041801
 40
0.04845632
 40
0.0667122634
 40
0.0865340966
 40
0.1080885192
 40
0.1314725545
 40
0.1567235498
 40
0.1838271984
 40
0.2127386042
 40
0.2756153098
 40
0.3444639618
 40
0.4180859122000001
 40
0.4950871216000002
 40
0.5739488142
 40
0.6530858837000002
 40
0.7309028956
 40
0.8058524722999999
 40
0.8764829664
 40
0.9415456686
 40
0.9716640986999999
 40
1.0
 40
1.0
 40
1.0
 40
1.0
 10
541.0465211184726
 20
199.2051636508506
 30
0.0
 10
541.0185510794478
 20
199.1633468615076
 30
0.0
 10
540.9701201480328
 20
199.0724023321538
 30
0.0
 10
540.9241808489465
 20
198.9210929138902
 30
0.0
 10
540.9044156082829
 20
198.7553005150287
 30
0.0
 10
540.9105454177846
 20
198.5762166656254
 30
0.0
 10
540.9423653646705
 20
198.3848468591391
 30
0.0
 10
540.999410022603
 20
198.1821899821801
 30
0.0
 10
541.0813413195137
 20
197.9693344900306
 30
0.0
 10
541.1876594783006
 20
197.7474633157378
 30
0.0
 10
541.3176841672727
 20
197.5177833106996
 30
0.0
 10
541.527706960066
 20
197.1938589101614
 30
0.0
 10
541.8462801486631
 20
196.7800420465506
 30
0.0
 10
542.2966706337441
 20
196.2879531582801
 30
0.0
 10
542.8150977268337
 20
195.7986466032552
 30
0.0
 10
543.3894219931618
 20
195.3236753487824
 30
0.0
 10
544.0061978506331
 20
194.8742398562975
 30
0.0
 10
544.6508998859532
 20
194.4609544903768
 30
0.0
 10
545.3083262831677
 20
194.0935595498497
 30
0.0
 10
545.9629828792365
 20
193.7806784242425
 30
0.0
 10
546.5994515612861
 20
193.5295330981422
 30
0.0
 10
547.1150441867296
 20
193.3725760337182
 30
0.0
 10
547.5063598088974
 20
193.2848574861907
 30
0.0
 10
547.69360526259
 20
193.2535398054538
 30
0.0
 10
547.7847524887858
 20
193.241308901731
 30
0.0
  0
SPLINE
  5
16678
330
1F
100
AcDbEntity
  8
0
100
AcDbSpline
210
0.0
220
0.0
230
1.0
 70
     8
 71
     3
 72
    20
 73
    16
 74
     0
 42
0.0000000001
 43
0.0000000001
 40
0.0
 40
0.0
 40
0.0
 40
0.0
 40
0.1382837373
 40
0.1997588851
 40
0.2567893165
 40
0.3102460951
 40
0.3612427862
 40
0.4111174873
 40
0.4613269797
 40
0.5132794973000001
 40
0.5682268722
 40
0.6271791904999999
 40
0.6908820056
 40
0.8342731845999999
 40
1.0
 40
1.0
 40
1.0
 40
1.0
 10
563.9003281396477
 20
221.205773973168
 30
0.0
 10
563.9184408022312
 20
221.1566311584105
 30
0.0
 10
563.9394508880219
 20
221.083265345597
 30
0.0
 10
563.9496602952857
 20
220.9863302015463
 30
0.0
 10
563.9478405275434
 20
220.9210005153469
 30
0.0
 10
563.9368290112802
 20
220.8605679622162
 30
0.0
 10
563.9165651540353
 20
220.8054039040415
 30
0.0
 10
563.8870458553351
 20
220.7559871578431
 30
0.0
 10
563.8485614248938
 20
220.7127117626775
 30
0.0
 10
563.8014704887498
 20
220.6758536547351
 30
0.0
 10
563.7461245837775
 20
220.6456236793821
 30
0.0
 10
563.6829028857007
 20
220.6220773927215
 30
0.0
 10
563.5846663230697
 20
220.5987175582518
 30
0.0
 10
563.4429563242925
 20
220.5886211980017
 30
0.0
 10
563.325914252374
 20
220.5978981185253
 30
0.0
 10
563.2637034204464
 20
220.606246092749
 30
0.0
  0
SPLINE
  5
1667A
330
1F
100
AcDbEntity
  8
0
100
AcDbSpline
210
0.0
220
0.0
230
1.0
 70
     8
 71
     3
 72
     9
 73
     5
 74
     0
 42
0.0000000001
 43
0.0000000001
 40
0.0
 40
0.0
 40
0.0
 40
0.0
 40
0.2560428268
 40
1.0
 40
1.0
 40
1.0
 40
1.0
 10
556.2091113563923
 20
207.4564760297826
 30
0.0
 10
556.2088397760536
 20
207.4485661658151
 30
0.0
 10
556.207259642768
 20
207.4176949095836
 30
0.0
 10
556.2035382935971
 20
207.3869218602153
 30
0.0
 10
556.1994309431326
 20
207.3642952198075
 30
0.0
  0
SPLINE
  5
1667B
330
1F
100
AcDbEntity
  8
0
100
AcDbSpline
210
0.0
220
0.0
230
1.0
 70
     8
 71
     3
 72
    15
 73
    11
 74
     0
 42
0.0000000001
 43
0.0000000001
 40
0.0
 40
0.0
 40
0.0
 40
0.0
 40
0.1037015607
 40
0.2038020136
 40
0.306332393
 40
0.4168052059000001
 40
0.5393931663
 40
0.6767609235
 40
0.8302833591999998
 40
1.0
 40
1.0
 40
1.0
 40
1.0
 10
556.1994309431326
 20
207.3642952198075
 30
0.0
 10
556.1916248197623
 20
207.3212927175488
 30
0.0
 10
556.1665294239105
 20
207.2380294494033
 30
0.0
 10
556.0969277397718
 20
207.1274193945553
 30
0.0
 10
555.9979424569851
 20
207.0378798140322
 30
0.0
 10
555.8723181266921
 20
206.9704439975077
 30
0.0
 10
555.7220649850203
 20
206.9251348493911
 30
0.0
 10
555.5488128690937
 20
206.9016647341032
 30
0.0
 10
555.3542980732121
 20
206.9000557393174
 30
0.0
 10
555.2184354506407
 20
206.9127281762851
 30
0.0
 10
555.1475433779105
 20
206.9222410726311
 30
0.0
  0
LINE
  5
1667C
330
1F
100
AcDbEntity
  8
0
100
AcDbLine
 10
556.821655780463
 20
207.0579922514127
 30
0.0
 11
556.8284315684064
 21
207.0487559132384
 31
0.0
  0
SPLINE
  5
1667D
330
1F
100
AcDbEntity
  8
0
100
AcDbSpline
210
0.0
220
0.0
230
1.0
 70
     8
 71
     3
 72
     9
 73
     5
 74
     0
 42
0.0000000001
 43
0.0000000001
 40
0.0
 40
0.0
 40
0.0
 40
0.0
 40
0.519418999
 40
1.0
 40
1.0
 40
1.0
 40
1.0
 10
556.8284315684064
 20
207.0487559132382
 30
0.0
 10
556.9069099234838
 20
206.9415852129141
 30
0.0
 10
557.0518764865234
 20
206.7306716092247
 30
0.0
 10
557.1815306460431
 20
206.5098919272617
 30
0.0
 10
557.2390501917956
 20
206.4012827908912
 30
0.0
  0
SPLINE
  5
1667E
330
1F
100
AcDbEntity
  8
0
100
AcDbSpline
210
0.0
220
0.0
230
1.0
 70
     8
 71
     3
 72
    23
 73
    19
 74
     0
 42
0.0000000001
 43
0.0000000001
 40
0.0
 40
0.0
 40
0.0
 40
0.0
 40
0.0781419521
 40
0.1502546597
 40
0.2165025158
 40
0.277288531
 40
0.3332695706
 40
0.3854336202000001
 40
0.4350955628000003
 40
0.4838403686000003
 40
0.5333645011
 40
0.5852731994
 40
0.6408991002000001
 40
0.7012527590000001
 40
0.7670329188000001
 40
0.8386769939999998
 40
0.9163617843
 40
1.0
 40
1.0
 40
1.0
 40
1.0
 10
557.2850958598702
 20
206.3116585896764
 30
0.0
 10
557.325526882809
 20
206.2304281212997
 30
0.0
 10
557.397826543765
 20
206.0714133752019
 30
0.0
 10
557.482209851756
 20
205.834235857491
 30
0.0
 10
557.5375410225753
 20
205.6092352130806
 30
0.0
 10
557.5634625429326
 20
205.3977094735242
 30
0.0
 10
557.5594708419993
 20
205.2008159371648
 30
0.0
 10
557.5252269504058
 20
205.0198147883638
 30
0.0
 10
557.4605133166918
 20
204.8561562733778
 30
0.0
 10
557.3655237774516
 20
204.7115742943394
 30
0.0
 10
557.2413311764452
 20
204.5875144983976
 30
0.0
 10
557.0892770858709
 20
204.485036375121
 30
0.0
 10
556.9109310712478
 20
204.404386777376
 30
0.0
 10
556.7075386685018
 20
204.345782898572
 30
0.0
 10
556.4803344731866
 20
204.3092561703048
 30
0.0
 10
556.2306026714942
 20
204.2948941859151
 30
0.0
 10
555.9599266013382
 20
204.3027028391857
 30
0.0
 10
555.7734135065568
 20
204.3218596593127
 30
0.0
 10
555.6771579585871
 20
204.3347760407142
 30
0.0
  0
SPLINE
  5
16680
330
1F
100
AcDbEntity
  8
0
100
AcDbSpline
210
0.0
220
0.0
230
1.0
 70
     8
 71
     3
 72
    15
 73
    11
 74
     0
 42
0.0000000001
 43
0.0000000001
 40
0.0
 40
0.0
 40
0.0
 40
0.0
 40
0.09618009
 40
0.1960188669
 40
0.3026969699
 40
0.4186523709000002
 40
0.5455934215
 40
0.6845832269
 40
0.8361025262999998
 40
1.0
 40
1.0
 40
1.0
 40
1.0
 10
549.597442196807
 20
192.6537475417909
 30
0.0
 10
549.5624800809089
 20
192.6014927973106
 30
0.0
 10
549.4793053453965
 20
192.5024924089616
 30
0.0
 10
549.3221842817842
 20
192.3801713808554
 30
0.0
 10
549.1337165863548
 20
192.2833859664075
 30
0.0
 10
548.9156687594037
 20
192.2123836347205
 30
0.0
 10
548.6695292122025
 20
192.1672314752227
 30
0.0
 10
548.3968598198177
 20
192.1479510368473
 30
0.0
 10
548.0995463232458
 20
192.1545989070121
 30
0.0
 10
547.8941948882399
 20
192.1753407038103
 30
0.0
 10
547.7880081835782
 20
192.1895897316145
 30
0.0
  0
SPLINE
  5
16681
330
1F
100
AcDbEntity
  8
0
100
AcDbSpline
210
0.0
220
0.0
230
1.0
 70
     8
 71
     3
 72
     9
 73
     5
 74
     0
 42
0.0000000001
 43
0.0000000001
 40
0.0
 40
0.0
 40
0.0
 40
0.0
 40
0.2593058203
 40
1.0
 40
1.0
 40
1.0
 40
1.0
 10
551.2208718740411
 20
210.8190298099902
 30
0.0
 10
551.2096086008133
 20
210.8143850290206
 30
0.0
 10
551.1666260607395
 20
210.7954100532751
 30
0.0
 10
551.1255522156691
 20
210.7719736148812
 30
0.0
 10
551.0970560312738
 20
210.7519962041428
 30
0.0
  0
SPLINE
  5
16682
330
1F
100
AcDbEntity
  8
0
100
AcDbSpline
210
0.0
220
0.0
230
1.0
 70
     8
 71
     3
 72
    29
 73
    25
 74
     0
 42
0.0000000001
 43
0.0000000001
 40
0.0
 40
0.0
 40
0.0
 40
0.0
 40
0.0164057591
 40
0.0323265746
 40
0.0483484564
 40
0.065042538
 40
0.0829020637
 40
0.1022987597
 40
0.1234927537
 40
0.1466394668
 40
0.1718095805
 40
0.1990170818
 40
0.2592996625
 40
0.3267494115
 40
0.4001539726
 40
0.4780051849000003
 40
0.558602732
 40
0.6401346493000001
 40
0.7207513598000001
 40
0.7986405125
 40
0.8720904336
 40
0.9396222614
 40
0.9707822402999999
 40
1.0
 40
1.0
 40
1.0
 40
1.0
 10
551.0970560312738
 20
210.7519962041428
 30
0.0
 10
551.0691890010333
 20
210.7324598654418
 30
0.0
 10
551.0176127179487
 20
210.6887990593666
 30
0.0
 10
550.9556784338435
 20
210.608981557009
 30
0.0
 10
550.9117799551606
 20
210.5173119378757
 30
0.0
 10
550.8862332070608
 20
210.414890355998
 30
0.0
 10
550.8790277034171
 20
210.3026879201377
 30
0.0
 10
550.8898082460839
 20
210.1815203368175
 30
0.0
 10
550.9183965713438
 20
210.0521172640239
 30
0.0
 10
550.9644790612691
 20
209.9152409720594
 30
0.0
 10
551.0276879991145
 20
209.7716877149916
 30
0.0
 10
551.1381703149806
 20
209.5655313031128
 30
0.0
 10
551.3183510903894
 20
209.298371231518
 30
0.0
 10
551.5857053971173
 20
208.9773506224135
 30
0.0
 10
551.9045049654063
 20
208.6538826740982
 30
0.0
 10
552.2664128683731
 20
208.3365235422267
 30
0.0
 10
552.6619577959037
 20
208.0336645487862
 30
0.0
 10
553.0806906012343
 20
207.7533452997271
 30
0.0
 10
553.5115253220451
 20
207.5029953173242
 30
0.0
 10
553.9430518798268
 20
207.2892252124177
 30
0.0
 10
554.363844739892
 20
207.1175808774984
 30
0.0
 10
554.7051424104842
 20
207.0105513133149
 30
0.0
 10
554.9638819249388
 20
206.9512297865842
 30
0.0
 10
555.0874710362434
 20
206.9303020861974
 30
0.0
 10
555.1475433779105
 20
206.9222410726311
 30
0.0
  0
SPLINE
  5
16683
330
1F
100
AcDbEntity
  8
0
100
AcDbSpline
210
0.0
220
0.0
230
1.0
 70
     8
 71
     3
 72
    40
 73
    36
 74
     0
 42
0.0000000001
 43
0.0000000001
 40
0.0
 40
0.0
 40
0.0
 40
0.0
 40
0.0282221204
 40
0.0539070445
 40
0.0770659972
 40
0.0877587732
 40
0.0979034811
 40
0.1167392802
 40
0.1255916398
 40
0.1341731546
 40
0.1425852129
 40
0.1509365372
 40
0.159338553
 40
0.1679007775
 40
0.1858739235
 40
0.2055589884
 40
0.2274131664
 40
0.2517030313
 40
0.2785398264
 40
0.3079253523999999
 40
0.3397703854
 40
0.3739257444
 40
0.4101852941
 40
0.4483075837000002
 40
0.5289859745000002
 40
0.6135007301
 40
0.6563617285
 40
0.6991570229999999
 40
0.7831489004000001
 40
0.8236906699999998
 40
0.8628320158000001
 40
0.9002759843999999
 40
0.9357681405000001
 40
0.9690825225000001
 40
1.0
 40
1.0
 40
1.0
 40
1.0
 10
549.9676339220988
 20
211.3426956472389
 30
0.0
 10
549.8504523646235
 20
211.3576853689618
 30
0.0
 10
549.6253555446843
 20
211.3777615864202
 30
0.0
 10
549.3022330681935
 20
211.3757799878505
 30
0.0
 10
549.0541033645603
 20
211.3451623879517
 30
0.0
 10
548.874759272553
 20
211.3024455726721
 30
0.0
 10
548.7167410122971
 20
211.251020957561
 30
0.0
 10
548.5727393626177
 20
211.182196645209
 30
0.0
 10
548.4481385378812
 20
211.0949535190523
 30
0.0
 10
548.367120400856
 20
211.0228528085183
 30
0.0
 10
548.2968993523561
 20
210.9429620717408
 30
0.0
 10
548.2376673501106
 20
210.8555138963524
 30
0.0
 10
548.1896190003701
 20
210.7607474084201
 30
0.0
 10
548.1398802027928
 20
210.622876330948
 30
0.0
 10
548.1072646690619
 20
210.4304341477657
 30
0.0
 10
548.1154039472419
 20
210.1801666849864
 30
0.0
 10
548.1687667022826
 20
209.9088322043356
 30
0.0
 10
548.2665252506087
 20
209.6186710046668
 30
0.0
 10
548.4075048552823
 20
209.3119862934478
 30
0.0
 10
548.5904771904142
 20
208.9914996291341
 30
0.0
 10
548.8136684811792
 20
208.6600497661095
 30
0.0
 10
549.0750942926223
 20
208.3207804801441
 30
0.0
 10
549.3722388096895
 20
207.9768057402934
 30
0.0
 10
549.8209351353835
 20
207.5074839167028
 30
0.0
 10
550.4513187491713
 20
206.93400079766
 30
0.0
 10
551.1410070153157
 20
206.4007460486037
 30
0.0
 10
551.7284654454847
 20
205.9976015458518
 30
0.0
 10
552.3289788380765
 20
205.6183188665785
 30
0.0
 10
552.9422624883419
 20
205.2781343891165
 30
0.0
 10
553.5610773120903
 20
204.983673762406
 30
0.0
 10
554.0127770934708
 20
204.7925614545015
 30
0.0
 10
554.4532137498166
 20
204.6304045702113
 30
0.0
 10
554.8782643377993
 20
204.4986794074808
 30
0.0
 10
555.2838195689655
 20
204.3987378654827
 30
0.0
 10
555.5488886174579
 20
204.3519883029759
 30
0.0
 10
555.6771579585871
 20
204.3347760407142
 30
0.0
  0
SPLINE
  5
16684
330
1F
100
AcDbEntity
  8
0
100
AcDbSpline
210
0.0
220
0.0
230
1.0
 70
     8
 71
     3
 72
    31
 73
    27
 74
     0
 42
0.0000000001
 43
0.0000000001
 40
0.0
 40
0.0
 40
0.0
 40
0.0
 40
0.0155004225
 40
0.0315034559
 40
0.0484541193
 40
0.0667106862
 40
0.0865309548
 40
0.1080845521
 40
0.131468887
 40
0.1567172055
 40
0.1838218647
 40
0.2127310721
 40
0.2433668328
 40
0.2756245827
 40
0.3444707305
 40
0.4180893968000003
 40
0.4950879201000002
 40
0.5739472736
 40
0.6530817638000001
 40
0.7308956185
 40
0.8058425353
 40
0.8764726506999998
 40
0.9097726458
 40
0.9415449512999998
 40
0.971662004
 40
1.0
 40
1.0
 40
1.0
 40
1.0
 10
540.0390538389362
 20
199.0480114956353
 30
0.0
 10
540.0068819508968
 20
198.9999270548754
 30
0.0
 10
539.9511856710247
 20
198.8953362810814
 30
0.0
 10
539.8983895396878
 20
198.7213265765815
 30
0.0
 10
539.875599372185
 20
198.5306688149948
 30
0.0
 10
539.8827142847493
 20
198.3247248970224
 30
0.0
 10
539.9192627912754
 20
198.1046453326936
 30
0.0
 10
539.9848737379524
 20
197.8715889894712
 30
0.0
 10
540.0791160416812
 20
197.6268195673759
 30
0.0
 10
540.2013396916037
 20
197.3716413445233
 30
0.0
 10
540.3509166211223
 20
197.1075448835279
 30
0.0
 10
540.5269008604395
 20
196.8360015146397
 30
0.0
 10
540.7283143671588
 20
196.5586190687148
 30
0.0
 10
541.0359092658283
 20
196.1748027858671
 30
0.0
 10
541.4767746700389
 20
195.693206966306
 30
0.0
 10
542.0729040518373
 20
195.1305268352189
 30
0.0
 10
542.7333849639823
 20
194.5842994984191
 30
0.0
 10
543.442674178974
 20
194.0674498811464
 30
0.0
 10
544.1840849121373
 20
193.5921848410255
 30
0.0
 10
544.9401331390007
 20
193.1696737428821
 30
0.0
 10
545.6929497459493
 20
192.8098842370827
 30
0.0
 10
546.3146425072342
 20
192.5645206357042
 30
0.0
 10
546.7964973860531
 20
192.408002090105
 30
0.0
 10
547.1390852224571
 20
192.3133444353789
 30
0.0
 10
547.467838048005
 20
192.2396733810244
 30
0.0
 10
547.6831777213341
 20
192.2036567673629
 30
0.0
 10
547.7880081835782
 20
192.1895897316145
 30
0.0
  0
SPLINE
  5
16685
330
1F
100
AcDbEntity
  8
0
100
AcDbSpline
210
0.0
220
0.0
230
1.0
 70
     8
 71
     3
 72
    15
 73
    11
 74
     0
 42
0.0000000001
 43
0.0000000001
 40
0.0
 40
0.0
 40
0.0
 40
0.0
 40
0.0961803489
 40
0.196022779
 40
0.3026940959
 40
0.4186468741000002
 40
0.5455903932
 40
0.6845987798000001
 40
0.8361229596999999
 40
1.0
 40
1.0
 40
1.0
 40
1.0
 10
549.3581732413278
 20
193.6449273869183
 30
0.0
 10
549.3277775601094
 20
193.599484125402
 30
0.0
 10
549.2554530717367
 20
193.5133887057346
 30
0.0
 10
549.1188072882621
 20
193.4070522225529
 30
0.0
 10
548.9549445592468
 20
193.3228570634527
 30
0.0
 10
548.7653323692954
 20
193.2611381290363
 30
0.0
 10
548.5512913985748
 20
193.2218591431372
 30
0.0
 10
548.3141703058443
 20
193.2051102750243
 30
0.0
 10
548.0556357962615
 20
193.2108884976336
 30
0.0
 10
547.8770773208021
 20
193.2289199769427
 30
0.0
 10
547.7847524887858
 20
193.241308901731
 30
0.0
  0
DIMENSION
  5
16991
330
1F
100
AcDbEntity
  8
DIM
100
AcDbDimension
  2
*D4
 10
617.3804821115118
 20
215.7945357187988
 30
0.0
 11
599.8802826781017
 21
217.0945357187988
 31
0.0
 70
    32
 71
     5
 42
35.00039886682043
 73
     0
 74
     0
 75
     0
  3
01
100
AcDbAlignedDimension
 13
582.3800832446912
 23
222.5109173372373
 33
0.0
 14
617.3804821115118
 24
225.9004931349126
 34
0.0
100
AcDbRotatedDimension
  0
DIMENSION
  5
169F6
330
1F
100
AcDbEntity
  8
DIM
100
AcDbDimension
  2
*D5
 10
621.1647538518747
 20
223.8325591896757
 30
0.0
 11
619.8647538518748
 21
226.8325591896758
 31
0.0
 70
    32
  1
%%C<>
 71
     5
 42
6.0
 73
     0
 74
     0
 75
     0
  3
01
100
AcDbAlignedDimension
 13
615.1444141340121
 23
229.8325591896757
 33
0.0
 14
614.3223240201854
 24
223.8325591896757
 34
0.0
 50
90.0
100
AcDbRotatedDimension
  0
DIMENSION
  5
16CBC
330
1F
100
AcDbEntity
  8
DIM
100
AcDbDimension
  2
*D6
 10
591.3035022240623
 20
221.8324229006419
 30
0.0
 11
590.0035022240622
 21
226.8325591896757
 31
0.0
 70
    32
  1
%%CD
 71
     5
 42
10.00027257806744
 73
     0
 74
     0
 75
     0
  3
01
100
AcDbAlignedDimension
 13
590.7553065286863
 23
231.8326954787093
 33
0.0
 14
590.7553065286863
 24
221.8324229006419
 34
0.0
 50
90.0
100
AcDbRotatedDimension
  0
DIMENSION
  5
16D01
330
1F
100
AcDbEntity
  8
DIM
100
AcDbDimension
  2
*D7
 10
594.8705637111668
 20
221.082559189659
 30
0.0
 11
594.8705637111668
 21
237.3470016363501
 31
0.0
 70
   160
  1
%%C<>
 71
     5
 42
11.50015673240534
 73
     0
 74
     0
 75
     0
  3
01
100
AcDbAlignedDimension
 13
597.38048211152
 23
232.5827159220643
 33
0.0
 14
597.38048211152
 24
221.082559189659
 34
0.0
 50
90.0
100
AcDbRotatedDimension
  0
DIMENSION
  5
16D42
330
1F
100
AcDbEntity
  8
DIM
100
AcDbDimension
  2
*D8
 10
578.7298106354938
 20
251.2561089748004
 30
0.0
 11
577.429810635494
 21
254.756204377124
 31
0.0
 70
    32
  1
%%Cd
 71
     5
 42
7.000190804647019
 73
     0
 74
     0
 75
     0
  3
01
100
AcDbAlignedDimension
 13
584.1121804565755
 23
258.2562997794474
 33
0.0
 14
584.1121804565755
 24
251.2561089748004
 34
0.0
 50
90.0
100
AcDbRotatedDimension
  0
LINE
  5
16D6B
330
1F
100
AcDbEntity
  8
hat
  6
CENTERX2
 62
     1
100
AcDbLine
 10
592.989248641548
 20
226.8325596111068
 30
0.0
 11
618.1613844670915
 21
226.8325596111068
 31
0.0
  0
ENDSEC
  0
SECTION
  2
OBJECTS
  0
DICTIONARY
  5
C
330
0
100
AcDbDictionary
281
     1
  3
ACAD_COLOR
350
4FFE
  3
ACAD_GROUP
350
D
  3
ACAD_LAYOUT
350
1A
  3
ACAD_MATERIAL
350
4FE5
  3
ACAD_MLEADERSTYLE
350
5022
  3
ACAD_MLINESTYLE
350
17
  3
ACAD_PLOTSETTINGS
350
19
  3
ACAD_PLOTSTYLENAME
350
E
  3
ACAD_RENDER_PLOT_SETTINGS
350
6537
  3
ACAD_SCALELIST
350
5000
  3
ACAD_TABLESTYLE
350
4FE3
  3
ACAD_VISUALSTYLE
350
2A
  3
ACDB_RECOMPOSE_DATA
350
50EC
  3
AcDbVariableDictionary
350
5108
  3
ASE_INDEX_DICTIONARY
350
14143
  0
DICTIONARY
  5
50EE
330
8
100
AcDbDictionary
280
     1
281
     1
  0
DICTIONARY
  5
50B8
330
2
100
AcDbDictionary
280
     1
281
     1
  3
ACAD_LAYERFILTERS
360
146E2
  3
ACAD_LAYERSTATES
360
50B9
  3
ACLYDICTIONARY
360
146E1
  0
DICTIONARY
  5
50D0
330
10
100
AcDbDictionary
280
     1
281
     1
  3
ADSK_XREC_LAYER_RECONCILED
360
50D1
  0
DICTIONARY
  5
50D2
330
3B
100
AcDbDictionary
280
     1
281
     1
  3
ADSK_XREC_LAYER_RECONCILED
360
50D3
  0
DICTIONARY
  5
50AF
330
50AE
100
AcDbDictionary
280
     1
281
     1
  3
ADSK_XREC_LAYER_RECONCILED
360
50D4
  0
DICTIONARY
  5
67C0
330
1F
100
AcDbDictionary
280
     1
281
     1
  3
ACAD_SORTENTS
360
67C1
  0
DICTIONARY
  5
1762F
330
13E17
100
AcDbDictionary
280
     1
281
     1
  0
DICTIONARY
  5
17661
330
1759A
100
AcDbDictionary
280
     1
281
     1
  3
ACAD_MTEXT_2008_RT
360
17662
  0
DICTIONARY
  5
17663
330
175DE
100
AcDbDictionary
280
     1
281
     1
  3
ACAD_MTEXT_2008_RT
360
17664
  0
DICTIONARY
  5
17665
330
175DF
100
AcDbDictionary
280
     1
281
     1
  3
ACAD_MTEXT_2008_RT
360
17666
  0
DICTIONARY
  5
17667
330
17604
100
AcDbDictionary
280
     1
281
     1
  3
ACAD_MTEXT_2008_RT
360
17668
  0
DICTIONARY
  5
17669
330
17607
100
AcDbDictionary
280
     1
281
     1
  3
ACAD_MTEXT_2008_RT
360
1766A
  0
DICTIONARY
  5
1766B
330
17608
100
AcDbDictionary
280
     1
281
     1
  3
ACAD_MTEXT_2008_RT
360
1766C
  0
DICTIONARY
  5
1766D
330
17612
100
AcDbDictionary
280
     1
281
     1
  3
ACAD_MTEXT_2008_RT
360
1766E
  0
DICTIONARY
  5
1766F
330
17613
100
AcDbDictionary
280
     1
281
     1
  3
ACAD_MTEXT_2008_RT
360
17670
  0
DICTIONARY
  5
17671
330
17614
100
AcDbDictionary
280
     1
281
     1
  3
ACAD_MTEXT_2008_RT
360
17672
  0
DICTIONARY
  5
17673
330
17622
100
AcDbDictionary
280
     1
281
     1
  3
ACAD_MTEXT_2008_RT
360
17674
  0
DICTIONARY
  5
17675
330
17623
100
AcDbDictionary
280
     1
281
     1
  3
ACAD_MTEXT_2008_RT
360
17676
  0
DICTIONARY
  5
17677
330
17624
100
AcDbDictionary
280
     1
281
     1
  3
ACAD_MTEXT_2008_RT
360
17678
  0
DICTIONARY
  5
1765F
330
15556
100
AcDbDictionary
280
     1
281
     1
  3
ACAD_MTEXT_2008_RT
360
17660
  0
DICTIONARY
  5
16611
330
16610
100
AcDbDictionary
280
     1
281
     1
  3
ACAD_DIMASSOC
360
16612
  0
DICTIONARY
  5
16617
330
16616
100
AcDbDictionary
280
     1
281
     1
  3
ACAD_DIMASSOC
360
16618
  0
DICTIONARY
  5
4FFE
102
{ACAD_REACTORS
330
C
102
}
330
C
100
AcDbDictionary
281
     1
  0
DICTIONARY
  5
D
102
{ACAD_REACTORS
330
C
102
}
330
C
100
AcDbDictionary
281
     1
  0
DICTIONARY
  5
1A
102
{ACAD_REACTORS
330
C
102
}
330
C
100
AcDbDictionary
281
     1
  3
Layout1
350
1E
  3
Layout2
350
26
  3
Model
350
22
  0
DICTIONARY
  5
4FE5
102
{ACAD_REACTORS
330
C
102
}
330
C
100
AcDbDictionary
281
     1
  3
ByBlock
350
4FEE
  3
ByLayer
350
4FE6
  3
Global
350
4FF6
  0
DICTIONARY
  5
5022
102
{ACAD_REACTORS
330
C
102
}
330
C
100
AcDbDictionary
281
     1
  3
Standard
350
5023
  0
DICTIONARY
  5
17
102
{ACAD_REACTORS
330
C
102
}
330
C
100
AcDbDictionary
281
     1
  3
Standard
350
18
  0
DICTIONARY
  5
19
102
{ACAD_REACTORS
330
C
102
}
330
C
100
AcDbDictionary
281
     1
  0
ACDBDICTIONARYWDFLT
  5
E
102
{ACAD_REACTORS
330
C
102
}
330
C
100
AcDbDictionary
281
     1
  3
Normal
350
F
100
AcDbDictionaryWithDefault
340
F
  0
DICTIONARY
  5
6537
102
{ACAD_REACTORS
330
C
102
}
330
C
100
AcDbDictionary
281
     1
  3
{1DC63513-1B1A-422F-9880-65CFD2B8D533}
350
6538
  0
DICTIONARY
  5
5000
102
{ACAD_REACTORS
330
C
102
}
330
C
100
AcDbDictionary
281
     1
  3
A0
350
5001
  3
A1
350
5002
  3
A2
350
5003
  3
A3
350
5004
  3
A4
350
5005
  3
A5
350
5006
  3
A6
350
5007
  3
A7
350
5008
  3
A8
350
5009
  3
A9
350
500A
  3
B0
350
500B
  3
B1
350
500C
  3
B2
350
500D
  3
B3
350
500E
  3
B4
350
500F
  3
B5
350
5010
  3
B6
350
5011
  3
B7
350
5012
  3
B8
350
5013
  3
B9
350
5014
  3
C0
350
5015
  3
C1
350
5016
  3
C2
350
5017
  3
C3
350
5018
  3
C4
350
5019
  3
C5
350
501A
  3
C6
350
501B
  3
C7
350
501C
  3
C8
350
501D
  3
C9
350
501E
  3
D0
350
501F
  3
D1
350
5020
  3
D2
350
5021
  0
DICTIONARY
  5
4FE3
102
{ACAD_REACTORS
330
C
102
}
330
C
100
AcDbDictionary
281
     1
  3
Standard
350
4FFF
  0
DICTIONARY
  5
2A
102
{ACAD_REACTORS
330
C
102
}
330
C
100
AcDbDictionary
281
     1
  3
2dWireframe
350
2F
  3
3D Hidden
350
31
  3
3dWireframe
350
30
  3
Basic
350
32
  3
Brighten
350
36
  3
ColorChange
350
3A
  3
Conceptual
350
34
  3
Dim
350
35
  3
Facepattern
350
39
  3
Flat
350
2B
  3
FlatWithEdges
350
2C
  3
Gouraud
350
2D
  3
GouraudWithEdges
350
2E
  3
Linepattern
350
38
  3
Realistic
350
33
  3
Thicken
350
37
  0
XRECORD
  5
50EC
102
{ACAD_REACTORS
330
C
102
}
330
C
100
AcDbXrecord
280
     1
 90
        1
330
4FFF
330
15556
330
1759A
330
175DE
330
175DF
330
17604
330
17607
330
17608
330
17612
330
17613
330
17614
330
17622
330
17623
330
17624
  0
DICTIONARY
  5
5108
102
{ACAD_REACTORS
330
C
102
}
330
C
100
AcDbDictionary
281
     1
  3
CANNOSCALE
350
510B
  3
CMLEADERSTYLE
350
510A
  3
CTABLESTYLE
350
5109
  3
DIMASSOC
350
510E
  3
INDEXCTL
350
510D
  3
LIGHTINGUNITS
350
17650
  3
MSLTSCALE
350
1764F
  3
SORTENTS
350
510C
  0
DICTIONARY
  5
14143
102
{ACAD_REACTORS
330
C
102
}
330
C
100
AcDbDictionary
281
     1
  3
ASEBlockHierarchyIndexRecord
350
14144
1001
DCO15
1040
1903428632.093
  0
DICTIONARY
  5
146E2
102
{ACAD_REACTORS
330
50B8
102
}
330
50B8
100
AcDbDictionary
281
     1
  0
DICTIONARY
  5
50B9
102
{ACAD_REACTORS
330
50B8
102
}
330
50B8
100
AcDbDictionary
281
     1
  0
DICTIONARY
  5
146E1
102
{ACAD_REACTORS
330
50B8
102
}
330
50B8
100
AcDbDictionary
281
     1
1001
ACAD
1000
<All
  0
XRECORD
  5
50D1
102
{ACAD_REACTORS
330
50D0
102
}
330
50D0
100
AcDbXrecord
280
     1
290
     1
  0
XRECORD
  5
50D3
102
{ACAD_REACTORS
330
50D2
102
}
330
50D2
100
AcDbXrecord
280
     1
290
     1
  0
XRECORD
  5
50D4
102
{ACAD_REACTORS
330
50AF
102
}
330
50AF
100
AcDbXrecord
280
     1
290
     1
  0
SORTENTSTABLE
  5
67C1
102
{ACAD_REACTORS
330
67C0
102
}
330
67C0
100
AcDbSortentsTable
330
1F
331
2C65
  5
2EE7
331
15563
  5
15563
331
165F9
  5
165F9
331
165C2
  5
165C2
331
16601
  5
16601
331
1556B
  5
1556B
331
165CA
  5
165CA
331
15534
  5
15534
331
165D2
  5
165D2
331
16619
  5
16619
331
1553C
  5
1553C
331
165DA
  5
165DA
331
16621
  5
16621
331
165E2
  5
165E2
331
16629
  5
16629
331
16668
  5
16669
331
165EA
  5
165EA
331
16631
  5
16631
331
16670
  5
16671
331
165F2
  5
165F2
331
16678
  5
16679
331
28AE
  5
2A38
331
3895
  5
3943
331
15525
  5
15525
331
165FA
  5
165FA
331
16680
  5
16681
331
16649
  5
16653
331
165C3
  5
165C3
331
16602
  5
16602
331
1556C
  5
1556C
331
165CB
  5
165CB
331
15535
  5
15535
331
165D3
  5
165D3
331
16659
  5
1665A
331
1553D
  5
1553D
331
2FDE
  5
35C8
331
16661
  5
16662
331
165DB
  5
165DB
331
16622
  5
16622
331
165E3
  5
165E3
331
1662A
  5
1662A
331
16669
  5
1666A
331
1554D
  5
1554D
331
165EB
  5
165EB
331
16671
  5
16672
331
1555D
  5
1555D
331
165F3
  5
165F3
331
2EE7
  5
2F93
331
15526
  5
15526
331
165FB
  5
165FB
331
16681
  5
16682
331
165C4
  5
165C4
331
1552E
  5
1552E
331
1556D
  5
1556D
331
165CC
  5
165CC
331
15536
  5
15536
331
165D4
  5
165D4
331
1665A
  5
1665B
331
16991
  5
169F6
331
16662
  5
16663
331
165DC
  5
165DC
331
16623
  5
16623
331
165E4
  5
165E4
331
1662B
  5
1662B
331
1666A
  5
1666B
331
15556
  5
15556
331
165EC
  5
165EC
331
16672
  5
16673
331
1555E
  5
1555E
331
165F4
  5
165F4
331
1667A
  5
1667B
331
3807
  5
3895
331
15566
  5
15566
331
15527
  5
15527
331
165FC
  5
165FC
331
16682
  5
16683
331
165C5
  5
165C5
331
16D01
  5
16D42
331
1552F
  5
1552F
331
1556E
  5
1556E
331
165CD
  5
165CD
331
16653
  5
16654
331
165D5
  5
165D5
331
1553F
  5
1553F
331
35C8
  5
35D8
331
35D8
  5
3807
331
16663
  5
16664
331
165DD
  5
165DD
331
16624
  5
16624
331
165E5
  5
165E5
331
1662C
  5
1662C
331
1666B
  5
1666C
331
1554F
  5
1554F
331
15557
  5
15557
331
165ED
  5
165ED
331
16673
  5
16674
331
1555F
  5
1555F
331
165F5
  5
165F5
331
1667B
  5
1667C
331
15528
  5
15528
331
15567
  5
15567
331
165FD
  5
165FD
331
16683
  5
16684
331
1556F
  5
1556F
331
165C6
  5
165C6
331
16D42
  5
16D6B
331
16654
  5
16655
331
165CE
  5
165CE
331
165D6
  5
165D6
331
15540
  5
15540
331
16664
  5
16665
331
16625
  5
16625
331
15548
  5
15548
331
165DE
  5
165DE
331
1666C
  5
1666D
331
15550
  5
15550
331
165AF
  5
165AF
331
165E6
  5
165E6
331
1662D
  5
1662D
331
15558
  5
15558
331
165EE
  5
165EE
331
16674
  5
16675
331
165F6
  5
165F6
331
1667C
  5
1667D
331
15560
  5
15560
331
16684
  5
16685
331
165FE
  5
165FE
331
15529
  5
15529
331
15568
  5
15568
331
165BF
  5
165BF
331
16645
  5
16645
331
15570
  5
15570
331
165C7
  5
165C7
331
16616
  5
16616
331
15539
  5
15539
331
155D8
  5
155D8
331
165CF
  5
165CF
331
16655
  5
16656
331
16D6B
  5
16646
331
165D7
  5
165D7
331
1665D
  5
1665E
331
15541
  5
15541
331
16626
  5
16626
331
165DF
  5
165DF
331
16665
  5
16666
331
15551
  5
15551
331
165B0
  5
165B0
331
165E7
  5
165E7
331
1662E
  5
1662E
331
15559
  5
15559
331
165EF
  5
165EF
331
165F7
  5
165F7
331
1667D
  5
1667E
331
2F93
  5
2FDE
331
15561
  5
15561
331
16685
  5
16686
331
165FF
  5
165FF
331
15569
  5
15569
331
165C0
  5
165C0
331
16646
  5
16647
331
16CBC
  5
16D01
331
4842
  5
4E94
331
1552A
  5
1552A
331
165C8
  5
165C8
331
15532
  5
15532
331
165D0
  5
165D0
331
16656
  5
16657
331
1553A
  5
1553A
331
155D9
  5
155D9
331
1665E
  5
1665F
331
165D8
  5
165D8
331
16627
  5
16627
331
165E0
  5
165E0
331
16666
  5
16667
331
1662F
  5
1662F
331
1666E
  5
1666F
331
15552
  5
15552
331
165E8
  5
165E8
331
16676
  5
16677
331
1555A
  5
1555A
331
165F0
  5
165F0
331
1667E
  5
1667F
331
165F8
  5
165F8
331
15562
  5
15562
331
3943
  5
4842
331
15523
  5
15523
331
16600
  5
16600
331
1556A
  5
1556A
331
16647
  5
16649
331
1552B
  5
1552B
331
16610
  5
16610
331
165C9
  5
165C9
331
15533
  5
15533
331
165D1
  5
165D1
331
16657
  5
16658
331
1553B
  5
1553B
331
1665F
  5
16660
331
165D9
  5
165D9
331
15543
  5
15543
331
16620
  5
16620
331
165E1
  5
165E1
331
16628
  5
16628
331
16667
  5
16668
331
169F6
  5
16CBC
331
16630
  5
16630
331
1666F
  5
16670
331
165E9
  5
165E9
331
16677
  5
16678
331
165F1
  5
165F1
  0
XRECORD
  5
17662
102
{ACAD_REACTORS
330
17661
102
}
330
17661
100
AcDbXrecord
280
     1
 40
1527.0
  1
\pxqc;BQ LUO
  0
XRECORD
  5
17664
102
{ACAD_REACTORS
330
17663
102
}
330
17663
100
AcDbXrecord
280
     1
 40
1262561.0
  1
\pxqc;档案员{\H0.7x;\P\Fromans|c134;Filing Clerk\fFangSong_GB2312|b0|i0|c134|p49; }
  0
XRECORD
  5
17666
102
{ACAD_REACTORS
330
17665
102
}
330
17665
100
AcDbXrecord
280
     1
 40
650528.0
  1
\pxqc;日期{\Fromans|c134;/Date}
  0
XRECORD
  5
17668
102
{ACAD_REACTORS
330
17667
102
}
330
17667
100
AcDbXrecord
280
     1
 40
1836818.0
  1
\pxsm0.7;{\fFangSong_GB2312|b0|i0|c134|p49;标准化}\PStand.
  0
XRECORD
  5
1766A
102
{ACAD_REACTORS
330
17669
102
}
330
17669
100
AcDbXrecord
280
     1
 40
118135.0
  1
\pxsm0.7;签名\P{\Fromans|c134;Signature} 
  0
XRECORD
  5
1766C
102
{ACAD_REACTORS
330
1766B
102
}
330
1766B
100
AcDbXrecord
280
     1
 40
108939.0
  1
\pxsm0.7,qc;处数\P{\Fromans|c134;Number }
  0
XRECORD
  5
1766E
102
{ACAD_REACTORS
330
1766D
102
}
330
1766D
100
AcDbXrecord
280
     1
 40
125762.0
  1
\pxsm0.7;标记\P{\Fromans|c134;Mark}
  0
XRECORD
  5
17670
102
{ACAD_REACTORS
330
1766F
102
}
330
1766F
100
AcDbXrecord
280
     1
 40
111973.0
  1
\pxsm0.7;审核\P{\Fromans|c134;Checked}
  0
XRECORD
  5
17672
102
{ACAD_REACTORS
330
17671
102
}
330
17671
100
AcDbXrecord
280
     1
 40
137968.0
  1
\pxsm0.7;绘图\P{\Fromans|c134;Drawn\Ftxt|c134; }
  0
XRECORD
  5
17674
102
{ACAD_REACTORS
330
17673
102
}
330
17673
100
AcDbXrecord
280
     1
 40
106320.0
  1
\pxsm0.7;批准\P{\Fromans|c134;Approved}
  0
XRECORD
  5
17676
102
{ACAD_REACTORS
330
17675
102
}
330
17675
100
AcDbXrecord
280
     1
 40
127283.0
  1
\pxsm0.7;工艺\P{\Fromans|c134;Process}
  0
XRECORD
  5
17678
102
{ACAD_REACTORS
330
17677
102
}
330
17677
100
AcDbXrecord
280
     1
 40
106220.0
  1
\pxsm0.7;日期\P{\Fromans|c134;Date}
  0
XRECORD
  5
17660
102
{ACAD_REACTORS
330
1765F
102
}
330
1765F
100
AcDbXrecord
280
     1
 40
421879397.0
  1
\A1;\pxql;{\f仿宋_GB2312|b0|i0|c134|p49;技术参数}:\P\pq*;- {\f仿宋_GB2312|b0|i0|c134|p49;材料}: {\f仿宋_GB2312|b0|i0|c134|p49;铜合金}\P- {\f仿宋_GB2312|b0|i0|c134|p49;表面处理}: {\f仿宋_GB2312|b0|i0|c134|p49;镀银}\P\pql;- {\f仿宋_GB2312|b0|i0|c134|p49;额定电流}: 70A\P- {\f仿宋_GB231
  1
2|b0|i0|c134|p49;接触电阻}: ≤0.5mΩ\P- {\f仿宋_GB2312|b0|i0|c134|p49;线径范围}: 6-16mm{\H0.7x;\S2^ ;}\P- {\f仿宋_GB2312|b0|i0|c134|p49;可插拔次数}: {\f仿宋_GB2312|b0|i0|c134|p49;≥}500\P- {\f仿宋_GB2312|b0|i0|c134|p49;电缆绞线标准}: IEC 60228-5\P\pq*;\P\pql;Technical specificatio
  1
n:\P- Material: copper alloy\P- Surface: hard-silver plated\P- Rated current: 70A\P- Contact resistance: ≤0.5mΩ\P- Wire gauge: 6-16mm{\H0.7x;\S2^ ;}\P- Mating cycles: {\f仿宋_GB2312|b0|i0|c134|p49;≥}500\P- For stranded fine wire acc. to: IEC 60228-5
  0
DIMASSOC
  5
16612
102
{ACAD_REACTORS
330
16611
102
}
330
16611
100
AcDbDimAssoc
330
16610
 90
        3
 70
     0
 71
     0
  1
AcDbOsnapPointRef
 72
     1
331
165D8
 73
     2
 91
        0
 40
1.0
 10
0.0
 20
0.0
 30
2.000000000000000E+50
 75
     0
  1
AcDbOsnapPointRef
 72
    13
331
165D8
 73
     2
 91
        0
 40
0.0
 10
0.0
 20
0.0
 30
2.000000000000000E+50
 75
     0
  0
DIMASSOC
  5
16618
102
{ACAD_REACTORS
330
16617
102
}
330
16617
100
AcDbDimAssoc
330
16616
 90
        1
 70
     0
 71
     0
  1
AcDbOsnapPointRef
 72
     1
331
16601
 73
     2
 91
        0
 40
1.0
 10
0.0
 20
0.0
 30
2.000000000000000E+50
 75
     0
  0
LAYOUT
  5
1E
102
{ACAD_REACTORS
330
1A
102
}
330
1A
100
AcDbPlotSettings
  1

  2
none_device
  4

  6

 40
0.0
 41
0.0
 42
0.0
 43
0.0
 44
0.0
 45
0.0
 46
0.0
 47
0.0
 48
0.0
 49
0.0
140
0.0
141
0.0
142
1.0
143
1.0
 70
   688
 72
     0
 73
     0
 74
     5
  7

 75
    16
147
1.0
 76
     0
 77
     2
 78
   300
148
0.0
149
0.0
100
AcDbLayout
  1
Layout1
 70
     1
 71
     1
 10
0.0
 20
0.0
 11
12.0
 21
9.0
 12
0.0
 22
0.0
 32
0.0
 14
1.000000000000000E+20
 24
1.000000000000000E+20
 34
1.000000000000000E+20
 15
-1.000000000000000E+20
 25
-1.000000000000000E+20
 35
-1.000000000000000E+20
146
0.0
 13
0.0
 23
0.0
 33
0.0
 16
1.0
 26
0.0
 36
0.0
 17
0.0
 27
1.0
 37
0.0
 76
     0
330
1B
  0
LAYOUT
  5
26
102
{ACAD_REACTORS
330
1A
102
}
330
1A
100
AcDbPlotSettings
  1

  2
none_device
  4

  6

 40
0.0
 41
0.0
 42
0.0
 43
0.0
 44
0.0
 45
0.0
 46
0.0
 47
0.0
 48
0.0
 49
0.0
140
0.0
141
0.0
142
1.0
143
1.0
 70
   688
 72
     0
 73
     0
 74
     5
  7

 75
    16
147
1.0
 76
     0
 77
     2
 78
   300
148
0.0
149
0.0
100
AcDbLayout
  1
Layout2
 70
     1
 71
     2
 10
0.0
 20
0.0
 11
0.0
 21
0.0
 12
0.0
 22
0.0
 32
0.0
 14
0.0
 24
0.0
 34
0.0
 15
0.0
 25
0.0
 35
0.0
146
0.0
 13
0.0
 23
0.0
 33
0.0
 16
1.0
 26
0.0
 36
0.0
 17
0.0
 27
1.0
 37
0.0
 76
     0
330
23
  0
LAYOUT
  5
22
102
{ACAD_REACTORS
330
1A
102
}
330
1A
100
AcDbPlotSettings
  1

  2
Adobe PDF Converter.pc3
  4
A4
  6

 40
3.174999952316281
 41
3.174999952316281
 42
3.17498779296875
 43
3.175003051757812
 44
297.0318298339844
 45
209.9733276367186
 46
0.0000000000000076
 47
1.630241740247063
 48
246.9897427644609
 49
39.36804549891383
140
544.952097801264
141
244.7492402188181
142
1.0
143
1.025046328645055
 70
  3764
 72
     1
 73
     0
 74
     4
  7
monochrome.ctb
 75
     0
147
0.9755656618192436
 76
     1
 77
     2
 78
   300
148
-246.9897427644609
149
-39.36804549891383
100
AcDbLayout
  1
Model
 70
     1
 71
     0
 10
0.0
 20
0.0
 11
12.0
 21
9.0
 12
0.0
 22
0.0
 32
0.0
 14
1.000000000000000E+20
 24
1.000000000000000E+20
 34
1.000000000000000E+20
 15
-1.000000000000000E+20
 25
-1.000000000000000E+20
 35
-1.000000000000000E+20
146
0.0
 13
0.0
 23
0.0
 33
0.0
 16
1.0
 26
0.0
 36
0.0
 17
0.0
 27
1.0
 37
0.0
 76
     0
330
1F
331
29
1001
ACAD_PSEXT
1000
Adobe PDF Converter.pc3
1000
Adobe PDF Converter
1000
桌面\*.pdf
1000

1070
     0
  0
MATERIAL
  5
4FEE
102
{ACAD_XDICTIONARY
360
4FEF
102
}
102
{ACAD_REACTORS
330
4FE5
102
}
330
4FE5
100
AcDbMaterial
  1
ByBlock
 72
     0
 43
0.0208333333333333
 43
0.0
 43
0.0
 43
0.0
 43
0.0
 43
0.0208333333333333
 43
0.0
 43
0.0
 43
0.0
 43
0.0
 43
1.0
 43
0.0
 43
0.0
 43
0.0
 43
0.0
 43
1.0
 77
     0
 47
0.0208333333333333
 47
0.0
 47
0.0
 47
0.0
 47
0.0
 47
0.0208333333333333
 47
0.0
 47
0.0
 47
0.0
 47
0.0
 47
1.0
 47
0.0
 47
0.0
 47
0.0
 47
0.0
 47
1.0
171
     0
 49
0.0208333333333333
 49
0.0
 49
0.0
 49
0.0
 49
0.0
 49
0.0208333333333333
 49
0.0
 49
0.0
 49
0.0
 49
0.0
 49
1.0
 49
0.0
 49
0.0
 49
0.0
 49
0.0
 49
1.0
175
     0
142
0.0208333333333333
142
0.0
142
0.0
142
0.0
142
0.0
142
0.0208333333333333
142
0.0
142
0.0
142
0.0
142
0.0
142
1.0
142
0.0
142
0.0
142
0.0
142
0.0
142
1.0
179
     0
144
0.0208333333333333
144
0.0
144
0.0
144
0.0
144
0.0
144
0.0208333333333333
144
0.0
144
0.0
144
0.0
144
0.0
144
1.0
144
0.0
144
0.0
144
0.0
144
0.0
144
1.0
147
0.0208333333333333
147
0.0
147
0.0
147
0.0
147
0.0
147
0.0208333333333333
147
0.0
147
0.0
147
0.0
147
0.0
147
1.0
147
0.0
147
0.0
147
0.0
147
0.0
147
1.0
  0
MATERIAL
  5
4FE6
102
{ACAD_XDICTIONARY
360
4FE7
102
}
102
{ACAD_REACTORS
330
4FE5
102
}
330
4FE5
100
AcDbMaterial
  1
ByLayer
 72
     0
 43
0.0208333333333333
 43
0.0
 43
0.0
 43
0.0
 43
0.0
 43
0.0208333333333333
 43
0.0
 43
0.0
 43
0.0
 43
0.0
 43
1.0
 43
0.0
 43
0.0
 43
0.0
 43
0.0
 43
1.0
 77
     0
 47
0.0208333333333333
 47
0.0
 47
0.0
 47
0.0
 47
0.0
 47
0.0208333333333333
 47
0.0
 47
0.0
 47
0.0
 47
0.0
 47
1.0
 47
0.0
 47
0.0
 47
0.0
 47
0.0
 47
1.0
171
     0
 49
0.0208333333333333
 49
0.0
 49
0.0
 49
0.0
 49
0.0
 49
0.0208333333333333
 49
0.0
 49
0.0
 49
0.0
 49
0.0
 49
1.0
 49
0.0
 49
0.0
 49
0.0
 49
0.0
 49
1.0
175
     0
142
0.0208333333333333
142
0.0
142
0.0
142
0.0
142
0.0
142
0.0208333333333333
142
0.0
142
0.0
142
0.0
142
0.0
142
1.0
142
0.0
142
0.0
142
0.0
142
0.0
142
1.0
179
     0
144
0.0208333333333333
144
0.0
144
0.0
144
0.0
144
0.0
144
0.0208333333333333
144
0.0
144
0.0
144
0.0
144
0.0
144
1.0
144
0.0
144
0.0
144
0.0
144
0.0
144
1.0
147
0.0208333333333333
147
0.0
147
0.0
147
0.0
147
0.0
147
0.0208333333333333
147
0.0
147
0.0
147
0.0
147
0.0
147
1.0
147
0.0
147
0.0
147
0.0
147
0.0
147
1.0
  0
MATERIAL
  5
4FF6
102
{ACAD_XDICTIONARY
360
4FF7
102
}
102
{ACAD_REACTORS
330
4FE5
102
}
330
4FE5
100
AcDbMaterial
  1
Global
 72
     0
 43
0.0208333333333333
 43
0.0
 43
0.0
 43
0.0
 43
0.0
 43
0.0208333333333333
 43
0.0
 43
0.0
 43
0.0
 43
0.0
 43
1.0
 43
0.0
 43
0.0
 43
0.0
 43
0.0
 43
1.0
 77
     0
 47
0.0208333333333333
 47
0.0
 47
0.0
 47
0.0
 47
0.0
 47
0.0208333333333333
 47
0.0
 47
0.0
 47
0.0
 47
0.0
 47
1.0
 47
0.0
 47
0.0
 47
0.0
 47
0.0
 47
1.0
171
     0
 49
0.0208333333333333
 49
0.0
 49
0.0
 49
0.0
 49
0.0
 49
0.0208333333333333
 49
0.0
 49
0.0
 49
0.0
 49
0.0
 49
1.0
 49
0.0
 49
0.0
 49
0.0
 49
0.0
 49
1.0
175
     0
142
0.0208333333333333
142
0.0
142
0.0
142
0.0
142
0.0
142
0.0208333333333333
142
0.0
142
0.0
142
0.0
142
0.0
142
1.0
142
0.0
142
0.0
142
0.0
142
0.0
142
1.0
179
     0
144
0.0208333333333333
144
0.0
144
0.0
144
0.0
144
0.0
144
0.0208333333333333
144
0.0
144
0.0
144
0.0
144
0.0
144
1.0
144
0.0
144
0.0
144
0.0
144
0.0
144
1.0
147
0.0208333333333333
147
0.0
147
0.0
147
0.0
147
0.0
147
0.0208333333333333
147
0.0
147
0.0
147
0.0
147
0.0
147
1.0
147
0.0
147
0.0
147
0.0
147
0.0
147
1.0
  0
MLEADERSTYLE
  5
5023
102
{ACAD_REACTORS
330
5022
102
}
330
5022
100
AcDbMLeaderStyle
170
     2
171
     1
172
     0
 90
        2
 40
0.0
 41
0.0
173
     1
 91
-1056964608
340
14
 92
       -2
290
     1
 42
0.09
291
     1
 43
0.36
  3
Standard
 44
0.18
300

342
11
174
     1
178
     6
175
     1
176
     0
 93
-1056964608
 45
0.18
292
     0
297
     0
 46
0.18
 94
-1056964608
 47
1.0
 49
1.0
140
1.0
293
     1
141
0.0
294
     1
177
     0
142
1.0
295
     0
296
     0
143
0.125
1001
ACAD_MLEADERVER
1070
     2
  0
MLINESTYLE
  5
18
102
{ACAD_REACTORS
330
17
102
}
330
17
100
AcDbMlineStyle
  2
STANDARD
 70
     0
  3

 62
   256
 51
90.0
 52
90.0
 71
     2
 49
0.5
 62
   256
  6
BYLAYER
 49
-0.5
 62
   256
  6
BYLAYER
  0
ACDBPLACEHOLDER
  5
F
102
{ACAD_REACTORS
330
E
102
}
330
E
  0
MENTALRAYRENDERSETTINGS
  5
6538
102
{ACAD_REACTORS
330
6537
102
}
330
6537
100
AcDbRenderSettings
 90
        2
  1
中
290
     1
290
     1
290
     1
290
     1
  1

  1
渲染质量好于“低级”。包括纹理过滤并且强制双面处于激活状态。处理中等级反锯齿和 5 反射/折射的光线跟踪深度。
 90
        0
100
AcDbMentalRayRenderSettings
 90
        2
 90
        0
 90
        1
 70
     2
 40
3.0
 40
3.0
 40
0.0500000007450581
 40
0.0500000007450581
 40
0.0500000007450581
 40
0.0500000007450581
 70
     0
290
     0
290
     1
 90
        5
 90
        5
 90
        5
290
     0
 90
      500
290
     0
 40
1.0
 90
    10000
 90
        5
 90
        5
 90
        5
290
     0
 90
      200
290
     0
290
     0
290
     0
 40
0.1
 40
1.0
 40
1500.0
 70
     0
 70
     0
 40
10.0
 70
     0
 70
     0
290
     0
  1

 90
       32
 70
     0
 90
     1048
290
     0
 40
1.0
  0
SCALE
  5
5001
102
{ACAD_REACTORS
330
5000
102
}
330
5000
100
AcDbScale
 70
     0
300
1:1
140
1.0
141
1.0
290
     1
  0
SCALE
  5
5002
102
{ACAD_REACTORS
330
5000
102
}
330
5000
100
AcDbScale
 70
     0
300
1:2
140
1.0
141
2.0
290
     0
  0
SCALE
  5
5003
102
{ACAD_REACTORS
330
5000
102
}
330
5000
100
AcDbScale
 70
     0
300
1:4
140
1.0
141
4.0
290
     0
  0
SCALE
  5
5004
102
{ACAD_REACTORS
330
5000
102
}
330
5000
100
AcDbScale
 70
     0
300
1:5
140
1.0
141
5.0
290
     0
  0
SCALE
  5
5005
102
{ACAD_REACTORS
330
5000
102
}
330
5000
100
AcDbScale
 70
     0
300
1:8
140
1.0
141
8.0
290
     0
  0
SCALE
  5
5006
102
{ACAD_REACTORS
330
5000
102
}
330
5000
100
AcDbScale
 70
     0
300
1:10
140
1.0
141
10.0
290
     0
  0
SCALE
  5
5007
102
{ACAD_REACTORS
330
5000
102
}
330
5000
100
AcDbScale
 70
     0
300
1:16
140
1.0
141
16.0
290
     0
  0
SCALE
  5
5008
102
{ACAD_REACTORS
330
5000
102
}
330
5000
100
AcDbScale
 70
     0
300
1:20
140
1.0
141
20.0
290
     0
  0
SCALE
  5
5009
102
{ACAD_REACTORS
330
5000
102
}
330
5000
100
AcDbScale
 70
     0
300
1:30
140
1.0
141
30.0
290
     0
  0
SCALE
  5
500A
102
{ACAD_REACTORS
330
5000
102
}
330
5000
100
AcDbScale
 70
     0
300
1:40
140
1.0
141
40.0
290
     0
  0
SCALE
  5
500B
102
{ACAD_REACTORS
330
5000
102
}
330
5000
100
AcDbScale
 70
     0
300
1:50
140
1.0
141
50.0
290
     0
  0
SCALE
  5
500C
102
{ACAD_REACTORS
330
5000
102
}
330
5000
100
AcDbScale
 70
     0
300
1:100
140
1.0
141
100.0
290
     0
  0
SCALE
  5
500D
102
{ACAD_REACTORS
330
5000
102
}
330
5000
100
AcDbScale
 70
     0
300
2:1
140
2.0
141
1.0
290
     0
  0
SCALE
  5
500E
102
{ACAD_REACTORS
330
5000
102
}
330
5000
100
AcDbScale
 70
     0
300
4:1
140
4.0
141
1.0
290
     0
  0
SCALE
  5
500F
102
{ACAD_REACTORS
330
5000
102
}
330
5000
100
AcDbScale
 70
     0
300
8:1
140
8.0
141
1.0
290
     0
  0
SCALE
  5
5010
102
{ACAD_REACTORS
330
5000
102
}
330
5000
100
AcDbScale
 70
     0
300
10:1
140
10.0
141
1.0
290
     0
  0
SCALE
  5
5011
102
{ACAD_REACTORS
330
5000
102
}
330
5000
100
AcDbScale
 70
     0
300
100:1
140
100.0
141
1.0
290
     0
  0
SCALE
  5
5012
102
{ACAD_REACTORS
330
5000
102
}
330
5000
100
AcDbScale
 70
     0
300
1/128" = 1'-0"
140
0.0078125
141
12.0
290
     0
  0
SCALE
  5
5013
102
{ACAD_REACTORS
330
5000
102
}
330
5000
100
AcDbScale
 70
     0
300
1/64" = 1'-0"
140
0.015625
141
12.0
290
     0
  0
SCALE
  5
5014
102
{ACAD_REACTORS
330
5000
102
}
330
5000
100
AcDbScale
 70
     0
300
1/32" = 1'-0"
140
0.03125
141
12.0
290
     0
  0
SCALE
  5
5015
102
{ACAD_REACTORS
330
5000
102
}
330
5000
100
AcDbScale
 70
     0
300
1/16" = 1'-0"
140
0.0625
141
12.0
290
     0
  0
SCALE
  5
5016
102
{ACAD_REACTORS
330
5000
102
}
330
5000
100
AcDbScale
 70
     0
300
3/32" = 1'-0"
140
0.09375
141
12.0
290
     0
  0
SCALE
  5
5017
102
{ACAD_REACTORS
330
5000
102
}
330
5000
100
AcDbScale
 70
     0
300
1/8" = 1'-0"
140
0.125
141
12.0
290
     0
  0
SCALE
  5
5018
102
{ACAD_REACTORS
330
5000
102
}
330
5000
100
AcDbScale
 70
     0
300
3/16" = 1'-0"
140
0.1875
141
12.0
290
     0
  0
SCALE
  5
5019
102
{ACAD_REACTORS
330
5000
102
}
330
5000
100
AcDbScale
 70
     0
300
1/4" = 1'-0"
140
0.25
141
12.0
290
     0
  0
SCALE
  5
501A
102
{ACAD_REACTORS
330
5000
102
}
330
5000
100
AcDbScale
 70
     0
300
3/8" = 1'-0"
140
0.375
141
12.0
290
     0
  0
SCALE
  5
501B
102
{ACAD_REACTORS
330
5000
102
}
330
5000
100
AcDbScale
 70
     0
300
1/2" = 1'-0"
140
0.5
141
12.0
290
     0
  0
SCALE
  5
501C
102
{ACAD_REACTORS
330
5000
102
}
330
5000
100
AcDbScale
 70
     0
300
3/4" = 1'-0"
140
0.75
141
12.0
290
     0
  0
SCALE
  5
501D
102
{ACAD_REACTORS
330
5000
102
}
330
5000
100
AcDbScale
 70
     0
300
1" = 1'-0"
140
1.0
141
12.0
290
     0
  0
SCALE
  5
501E
102
{ACAD_REACTORS
330
5000
102
}
330
5000
100
AcDbScale
 70
     0
300
1-1/2" = 1'-0"
140
1.5
141
12.0
290
     0
  0
SCALE
  5
501F
102
{ACAD_REACTORS
330
5000
102
}
330
5000
100
AcDbScale
 70
     0
300
3" = 1'-0"
140
3.0
141
12.0
290
     0
  0
SCALE
  5
5020
102
{ACAD_REACTORS
330
5000
102
}
330
5000
100
AcDbScale
 70
     0
300
6" = 1'-0"
140
6.0
141
12.0
290
     0
  0
SCALE
  5
5021
102
{ACAD_REACTORS
330
5000
102
}
330
5000
100
AcDbScale
 70
     0
300
1'-0" = 1'-0"
140
12.0
141
12.0
290
     0
  0
TABLESTYLE
  5
4FFF
102
{ACAD_XDICTIONARY
360
50D6
102
}
102
{ACAD_REACTORS
330
4FE3
102
}
330
4FE3
100
AcDbTableStyle
  3
Standard
 70
     0
 71
     0
 40
0.06
 41
0.06
280
     0
281
     0
  7
Standard
140
0.18
170
     2
 62
     0
 63
     7
283
     0
 90
      512
 91
        0
  1

274
    -2
284
     1
 64
     0
275
    -2
285
     1
 65
     0
276
    -2
286
     1
 66
     0
277
    -2
287
     1
 67
     0
278
    -2
288
     1
 68
     0
279
    -2
289
     1
 69
     0
  7
Standard
140
0.25
170
     5
 62
     0
 63
     7
283
     0
 90
      512
 91
        0
  1

274
    -2
284
     1
 64
     0
275
    -2
285
     1
 65
     0
276
    -2
286
     1
 66
     0
277
    -2
287
     1
 67
     0
278
    -2
288
     1
 68
     0
279
    -2
289
     1
 69
     0
  7
Standard
140
0.18
170
     5
 62
     0
 63
     7
283
     0
 90
      512
 91
        0
  1

274
    -2
284
     1
 64
     0
275
    -2
285
     1
 65
     0
276
    -2
286
     1
 66
     0
277
    -2
287
     1
 67
     0
278
    -2
288
     1
 68
     0
279
    -2
289
     1
 69
     0
  0
VISUALSTYLE
  5
2F
102
{ACAD_REACTORS
330
2A
102
}
330
2A
100
AcDbVisualStyle
  2
2dWireframe
 70
     4
 71
     0
 72
     2
 73
     0
 90
        0
 40
-0.6
 41
-30.0
 62
     5
 63
     7
 74
     1
 91
        4
 64
     7
 65
   257
 75
     1
175
     1
 42
1.0
 92
        0
 66
   257
 43
1.0
 76
     1
 77
     6
 78
     2
 67
     7
 79
     5
170
     0
171
     0
290
     0
174
     0
 93
        1
 44
0.0
173
     0
291
     0
 45
0.0
1001
ACAD
1000
AcDbSavedByObjectVersion
1070
     0
1000
AcDbSavedByObjectVersion
1070
     0
1000
AcDbSavedByObjectVersion
1070
     0
1000
AcDbSavedByObjectVersion
1070
     0
1000
AcDbSavedByObjectVersion
1070
     0
1000
AcDbSavedByObjectVersion
1070
     0
1000
AcDbSavedByObjectVersion
1070
     0
1000
AcDbSavedByObjectVersion
1070
     0
1000
AcDbSavedByObjectVersion
1070
     0
1000
AcDbSavedByObjectVersion
1070
     0
1000
AcDbSavedByObjectVersion
1070
     0
1000
AcDbSavedByObjectVersion
1070
     0
1000
AcDbSavedByObjectVersion
1070
     0
1000
AcDbSavedByObjectVersion
1070
     0
1000
AcDbSavedByObjectVersion
1070
     0
1000
AcDbSavedByObjectVersion
1070
     0
1000
AcDbSavedByObjectVersion
1070
     0
1000
AcDbSavedByObjectVersion
1070
     0
1000
AcDbSavedByObjectVersion
1070
     0
1000
AcDbSavedByObjectVersion
1070
     0
1000
AcDbSavedByObjectVersion
1070
     0
1000
AcDbSavedByObjectVersion
1070
     0
1000
AcDbSavedByObjectVersion
1070
     0
1000
AcDbSavedByObjectVersion
1070
     0
1000
AcDbSavedByObjectVersion
1070
     0
1000
AcDbSavedByObjectVersion
1070
     0
1000
AcDbSavedByObjectVersion
1070
     0
1000
AcDbSavedByObjectVersion
1070
     0
1000
AcDbSavedByObjectVersion
1070
     0
1000
AcDbSavedByObjectVersion
1070
     0
1000
AcDbSavedByObjectVersion
1070
     0
1000
AcDbSavedByObjectVersion
1070
     0
1000
AcDbSavedByObjectVersion
1070
     0
1000
AcDbSavedByObjectVersion
1070
     0
1000
AcDbSavedByObjectVersion
1070
     0
1000
AcDbSavedByObjectVersion
1070
     0
1000
AcDbSavedByObjectVersion
1070
     0
1000
AcDbSavedByObjectVersion
1070
     0
1000
AcDbSavedByObjectVersion
1070
     0
1000
AcDbSavedByObjectVersion
1070
     0
1000
AcDbSavedByObjectVersion
1070
     0
1000
AcDbSavedByObjectVersion
1070
     0
1000
AcDbSavedByObjectVersion
1070
     0
1000
AcDbSavedByObjectVersion
1070
     0
1000
AcDbSavedByObjectVersion
1070
     0
1000
AcDbSavedByObjectVersion
1070
     0
1000
AcDbSavedByObjectVersion
1070
     0
1000
AcDbSavedByObjectVersion
1070
     0
1000
AcDbSavedByObjectVersion
1070
     0
1000
AcDbSavedByObjectVersion
1070
     0
1000
AcDbSavedByObjectVersion
1070
     0
1000
AcDbSavedByObjectVersion
1070
     0
1000
AcDbSavedByObjectVersion
1070
     0
1000
AcDbSavedByObjectVersion
1070
     0
1000
AcDbSavedByObjectVersion
1070
     0
1000
AcDbSavedByObjectVersion
1070
     0
1000
AcDbSavedByObjectVersion
1070
     0
1000
AcDbSavedByObjectVersion
1070
     0
  0
VISUALSTYLE
  5
31
102
{ACAD_REACTORS
330
2A
102
}
330
2A
100
AcDbVisualStyle
  2
3D Hidden
 70
     6
 71
     1
 72
     2
 73
     2
 90
        0
 40
-0.6
 41
-30.0
 62
     5
 63
     7
 74
     2
 91
        2
 64
     7
 65
   257
 75
     2
175
     1
 42
40.0
 92
        0
 66
   257
 43
1.0
 76
     1
 77
     6
 78
     2
 67
     7
 79
     3
170
     0
171
     0
290
     0
174
     0
 93
        1
 44
0.0
173
     0
291
     0
 45
0.0
1001
ACAD
1000
AcDbSavedByObjectVersion
1070
     0
1000
AcDbSavedByObjectVersion
1070
     0
1000
AcDbSavedByObjectVersion
1070
     0
1000
AcDbSavedByObjectVersion
1070
     0
1000
AcDbSavedByObjectVersion
1070
     0
1000
AcDbSavedByObjectVersion
1070
     0
1000
AcDbSavedByObjectVersion
1070
     0
1000
AcDbSavedByObjectVersion
1070
     0
1000
AcDbSavedByObjectVersion
1070
     0
1000
AcDbSavedByObjectVersion
1070
     0
1000
AcDbSavedByObjectVersion
1070
     0
1000
AcDbSavedByObjectVersion
1070
     0
1000
AcDbSavedByObjectVersion
1070
     0
1000
AcDbSavedByObjectVersion
1070
     0
1000
AcDbSavedByObjectVersion
1070
     0
1000
AcDbSavedByObjectVersion
1070
     0
1000
AcDbSavedByObjectVersion
1070
     0
1000
AcDbSavedByObjectVersion
1070
     0
1000
AcDbSavedByObjectVersion
1070
     0
1000
AcDbSavedByObjectVersion
1070
     0
1000
AcDbSavedByObjectVersion
1070
     0
1000
AcDbSavedByObjectVersion
1070
     0
1000
AcDbSavedByObjectVersion
1070
     0
1000
AcDbSavedByObjectVersion
1070
     0
1000
AcDbSavedByObjectVersion
1070
     0
1000
AcDbSavedByObjectVersion
1070
     0
1000
AcDbSavedByObjectVersion
1070
     0
1000
AcDbSavedByObjectVersion
1070
     0
1000
AcDbSavedByObjectVersion
1070
     0
1000
AcDbSavedByObjectVersion
1070
     0
1000
AcDbSavedByObjectVersion
1070
     0
1000
AcDbSavedByObjectVersion
1070
     0
1000
AcDbSavedByObjectVersion
1070
     0
1000
AcDbSavedByObjectVersion
1070
     0
1000
AcDbSavedByObjectVersion
1070
     0
1000
AcDbSavedByObjectVersion
1070
     0
1000
AcDbSavedByObjectVersion
1070
     0
1000
AcDbSavedByObjectVersion
1070
     0
1000
AcDbSavedByObjectVersion
1070
     0
1000
AcDbSavedByObjectVersion
1070
     0
1000
AcDbSavedByObjectVersion
1070
     0
1000
AcDbSavedByObjectVersion
1070
     0
1000
AcDbSavedByObjectVersion
1070
     0
1000
AcDbSavedByObjectVersion
1070
     0
1000
AcDbSavedByObjectVersion
1070
     0
1000
AcDbSavedByObjectVersion
1070
     0
1000
AcDbSavedByObjectVersion
1070
     0
1000
AcDbSavedByObjectVersion
1070
     0
1000
AcDbSavedByObjectVersion
1070
     0
1000
AcDbSavedByObjectVersion
1070
     0
1000
AcDbSavedByObjectVersion
1070
     0
1000
AcDbSavedByObjectVersion
1070
     0
1000
AcDbSavedByObjectVersion
1070
     0
1000
AcDbSavedByObjectVersion
1070
     0
1000
AcDbSavedByObjectVersion
1070
     0
1000
AcDbSavedByObjectVersion
1070
     0
1000
AcDbSavedByObjectVersion
1070
     0
1000
AcDbSavedByObjectVersion
1070
     0
  0
VISUALSTYLE
  5
30
102
{ACAD_REACTORS
330
2A
102
}
330
2A
100
AcDbVisualStyle
  2
3dWireframe
 70
     5
 71
     0
 72
     2
 73
     0
 90
        0
 40
-0.6
 41
-30.0
 62
     5
 63
     7
 74
     1
 91
        4
 64
     7
 65
   257
 75
     1
175
     1
 42
1.0
 92
        0
 66
   257
 43
1.0
 76
     1
 77
     6
 78
     2
 67
     7
 79
     5
170
     0
171
     0
290
     0
174
     0
 93
        1
 44
0.0
173
     0
291
     0
 45
0.0
1001
ACAD
1000
AcDbSavedByObjectVersion
1070
     0
1000
AcDbSavedByObjectVersion
1070
     0
1000
AcDbSavedByObjectVersion
1070
     0
1000
AcDbSavedByObjectVersion
1070
     0
1000
AcDbSavedByObjectVersion
1070
     0
1000
AcDbSavedByObjectVersion
1070
     0
1000
AcDbSavedByObjectVersion
1070
     0
1000
AcDbSavedByObjectVersion
1070
     0
1000
AcDbSavedByObjectVersion
1070
     0
1000
AcDbSavedByObjectVersion
1070
     0
1000
AcDbSavedByObjectVersion
1070
     0
1000
AcDbSavedByObjectVersion
1070
     0
1000
AcDbSavedByObjectVersion
1070
     0
1000
AcDbSavedByObjectVersion
1070
     0
1000
AcDbSavedByObjectVersion
1070
     0
1000
AcDbSavedByObjectVersion
1070
     0
1000
AcDbSavedByObjectVersion
1070
     0
1000
AcDbSavedByObjectVersion
1070
     0
1000
AcDbSavedByObjectVersion
1070
     0
1000
AcDbSavedByObjectVersion
1070
     0
1000
AcDbSavedByObjectVersion
1070
     0
1000
AcDbSavedByObjectVersion
1070
     0
1000
AcDbSavedByObjectVersion
1070
     0
1000
AcDbSavedByObjectVersion
1070
     0
1000
AcDbSavedByObjectVersion
1070
     0
1000
AcDbSavedByObjectVersion
1070
     0
1000
AcDbSavedByObjectVersion
1070
     0
1000
AcDbSavedByObjectVersion
1070
     0
1000
AcDbSavedByObjectVersion
1070
     0
1000
AcDbSavedByObjectVersion
1070
     0
1000
AcDbSavedByObjectVersion
1070
     0
1000
AcDbSavedByObjectVersion
1070
     0
1000
AcDbSavedByObjectVersion
1070
     0
1000
AcDbSavedByObjectVersion
1070
     0
1000
AcDbSavedByObjectVersion
1070
     0
1000
AcDbSavedByObjectVersion
1070
     0
1000
AcDbSavedByObjectVersion
1070
     0
1000
AcDbSavedByObjectVersion
1070
     0
1000
AcDbSavedByObjectVersion
1070
     0
1000
AcDbSavedByObjectVersion
1070
     0
1000
AcDbSavedByObjectVersion
1070
     0
1000
AcDbSavedByObjectVersion
1070
     0
1000
AcDbSavedByObjectVersion
1070
     0
1000
AcDbSavedByObjectVersion
1070
     0
1000
AcDbSavedByObjectVersion
1070
     0
1000
AcDbSavedByObjectVersion
1070
     0
1000
AcDbSavedByObjectVersion
1070
     0
1000
AcDbSavedByObjectVersion
1070
     0
1000
AcDbSavedByObjectVersion
1070
     0
1000
AcDbSavedByObjectVersion
1070
     0
1000
AcDbSavedByObjectVersion
1070
     0
1000
AcDbSavedByObjectVersion
1070
     0
1000
AcDbSavedByObjectVersion
1070
     0
1000
AcDbSavedByObjectVersion
1070
     0
1000
AcDbSavedByObjectVersion
1070
     0
1000
AcDbSavedByObjectVersion
1070
     0
1000
AcDbSavedByObjectVersion
1070
     0
1000
AcDbSavedByObjectVersion
1070
     0
  0
VISUALSTYLE
  5
32
102
{ACAD_REACTORS
330
2A
102
}
330
2A
100
AcDbVisualStyle
  2
Basic
 70
     7
 71
     1
 72
     0
 73
     1
 90
        0
 40
-0.6
 41
-30.0
 62
     5
 63
     7
 74
     0
 91
        4
 64
     7
 65
   257
 75
     1
175
     1
 42
1.0
 92
        8
 66
     7
 43
1.0
 76
     1
 77
     6
 78
     2
 67
     7
 79
     5
170
     0
171
     0
290
     0
174
     0
 93
        1
 44
0.0
173
     0
291
     1
 45
0.0
1001
ACAD
1000
AcDbSavedByObjectVersion
1070
     0
1000
AcDbSavedByObjectVersion
1070
     0
1000
AcDbSavedByObjectVersion
1070
     0
1000
AcDbSavedByObjectVersion
1070
     0
1000
AcDbSavedByObjectVersion
1070
     0
1000
AcDbSavedByObjectVersion
1070
     0
1000
AcDbSavedByObjectVersion
1070
     0
1000
AcDbSavedByObjectVersion
1070
     0
1000
AcDbSavedByObjectVersion
1070
     0
1000
AcDbSavedByObjectVersion
1070
     0
1000
AcDbSavedByObjectVersion
1070
     0
1000
AcDbSavedByObjectVersion
1070
     0
1000
AcDbSavedByObjectVersion
1070
     0
1000
AcDbSavedByObjectVersion
1070
     0
1000
AcDbSavedByObjectVersion
1070
     0
1000
AcDbSavedByObjectVersion
1070
     0
1000
AcDbSavedByObjectVersion
1070
     0
1000
AcDbSavedByObjectVersion
1070
     0
1000
AcDbSavedByObjectVersion
1070
     0
1000
AcDbSavedByObjectVersion
1070
     0
1000
AcDbSavedByObjectVersion
1070
     0
1000
AcDbSavedByObjectVersion
1070
     0
1000
AcDbSavedByObjectVersion
1070
     0
1000
AcDbSavedByObjectVersion
1070
     0
1000
AcDbSavedByObjectVersion
1070
     0
1000
AcDbSavedByObjectVersion
1070
     0
1000
AcDbSavedByObjectVersion
1070
     0
1000
AcDbSavedByObjectVersion
1070
     0
1000
AcDbSavedByObjectVersion
1070
     0
1000
AcDbSavedByObjectVersion
1070
     0
1000
AcDbSavedByObjectVersion
1070
     0
1000
AcDbSavedByObjectVersion
1070
     0
1000
AcDbSavedByObjectVersion
1070
     0
1000
AcDbSavedByObjectVersion
1070
     0
1000
AcDbSavedByObjectVersion
1070
     0
1000
AcDbSavedByObjectVersion
1070
     0
1000
AcDbSavedByObjectVersion
1070
     0
1000
AcDbSavedByObjectVersion
1070
     0
1000
AcDbSavedByObjectVersion
1070
     0
1000
AcDbSavedByObjectVersion
1070
     0
1000
AcDbSavedByObjectVersion
1070
     0
1000
AcDbSavedByObjectVersion
1070
     0
1000
AcDbSavedByObjectVersion
1070
     0
1000
AcDbSavedByObjectVersion
1070
     0
1000
AcDbSavedByObjectVersion
1070
     0
1000
AcDbSavedByObjectVersion
1070
     0
1000
AcDbSavedByObjectVersion
1070
     0
1000
AcDbSavedByObjectVersion
1070
     0
1000
AcDbSavedByObjectVersion
1070
     0
1000
AcDbSavedByObjectVersion
1070
     0
1000
AcDbSavedByObjectVersion
1070
     0
1000
AcDbSavedByObjectVersion
1070
     0
1000
AcDbSavedByObjectVersion
1070
     0
1000
AcDbSavedByObjectVersion
1070
     0
1000
AcDbSavedByObjectVersion
1070
     0
1000
AcDbSavedByObjectVersion
1070
     0
1000
AcDbSavedByObjectVersion
1070
     0
1000
AcDbSavedByObjectVersion
1070
     0
  0
VISUALSTYLE
  5
36
102
{ACAD_REACTORS
330
2A
102
}
330
2A
100
AcDbVisualStyle
  2
Brighten
 70
    12
 71
     2
 72
     2
 73
     0
 90
        0
 40
-0.6
 41
-30.0
 62
     5
 63
     7
 74
     1
 91
        4
 64
     7
 65
   257
 75
     1
175
     1
 42
1.0
 92
        8
 66
     7
 43
1.0
 76
     1
 77
     6
 78
     2
 67
     7
 79
     5
170
     0
171
     0
290
     0
174
     0
 93
        1
 44
50.0
173
     0
291
     1
 45
0.0
1001
ACAD
1000
AcDbSavedByObjectVersion
1070
     0
1000
AcDbSavedByObjectVersion
1070
     0
1000
AcDbSavedByObjectVersion
1070
     0
1000
AcDbSavedByObjectVersion
1070
     0
1000
AcDbSavedByObjectVersion
1070
     0
1000
AcDbSavedByObjectVersion
1070
     0
1000
AcDbSavedByObjectVersion
1070
     0
1000
AcDbSavedByObjectVersion
1070
     0
1000
AcDbSavedByObjectVersion
1070
     0
1000
AcDbSavedByObjectVersion
1070
     0
1000
AcDbSavedByObjectVersion
1070
     0
1000
AcDbSavedByObjectVersion
1070
     0
1000
AcDbSavedByObjectVersion
1070
     0
1000
AcDbSavedByObjectVersion
1070
     0
1000
AcDbSavedByObjectVersion
1070
     0
1000
AcDbSavedByObjectVersion
1070
     0
1000
AcDbSavedByObjectVersion
1070
     0
1000
AcDbSavedByObjectVersion
1070
     0
1000
AcDbSavedByObjectVersion
1070
     0
1000
AcDbSavedByObjectVersion
1070
     0
1000
AcDbSavedByObjectVersion
1070
     0
1000
AcDbSavedByObjectVersion
1070
     0
1000
AcDbSavedByObjectVersion
1070
     0
1000
AcDbSavedByObjectVersion
1070
     0
1000
AcDbSavedByObjectVersion
1070
     0
1000
AcDbSavedByObjectVersion
1070
     0
1000
AcDbSavedByObjectVersion
1070
     0
1000
AcDbSavedByObjectVersion
1070
     0
1000
AcDbSavedByObjectVersion
1070
     0
1000
AcDbSavedByObjectVersion
1070
     0
1000
AcDbSavedByObjectVersion
1070
     0
1000
AcDbSavedByObjectVersion
1070
     0
1000
AcDbSavedByObjectVersion
1070
     0
1000
AcDbSavedByObjectVersion
1070
     0
1000
AcDbSavedByObjectVersion
1070
     0
1000
AcDbSavedByObjectVersion
1070
     0
1000
AcDbSavedByObjectVersion
1070
     0
1000
AcDbSavedByObjectVersion
1070
     0
1000
AcDbSavedByObjectVersion
1070
     0
1000
AcDbSavedByObjectVersion
1070
     0
1000
AcDbSavedByObjectVersion
1070
     0
1000
AcDbSavedByObjectVersion
1070
     0
1000
AcDbSavedByObjectVersion
1070
     0
1000
AcDbSavedByObjectVersion
1070
     0
1000
AcDbSavedByObjectVersion
1070
     0
1000
AcDbSavedByObjectVersion
1070
     0
1000
AcDbSavedByObjectVersion
1070
     0
1000
AcDbSavedByObjectVersion
1070
     0
1000
AcDbSavedByObjectVersion
1070
     0
1000
AcDbSavedByObjectVersion
1070
     0
1000
AcDbSavedByObjectVersion
1070
     0
1000
AcDbSavedByObjectVersion
1070
     0
1000
AcDbSavedByObjectVersion
1070
     0
1000
AcDbSavedByObjectVersion
1070
     0
1000
AcDbSavedByObjectVersion
1070
     0
1000
AcDbSavedByObjectVersion
1070
     0
1000
AcDbSavedByObjectVersion
1070
     0
1000
AcDbSavedByObjectVersion
1070
     0
  0
VISUALSTYLE
  5
3A
102
{ACAD_REACTORS
330
2A
102
}
330
2A
100
AcDbVisualStyle
  2
ColorChange
 70
    16
 71
     2
 72
     2
 73
     3
 90
        0
 40
-0.6
 41
-30.0
 62
     5
 63
     8
 74
     1
 91
        4
 64
     7
 65
   257
 75
     1
175
     1
 42
1.0
 92
        8
 66
     8
 43
1.0
 76
     1
 77
     6
 78
     2
 67
     7
 79
     5
170
     0
171
     0
290
     0
174
     0
 93
        1
 44
0.0
173
     0
291
     1
 45
0.0
1001
ACAD
1000
AcDbSavedByObjectVersion
1070
     0
1000
AcDbSavedByObjectVersion
1070
     0
1000
AcDbSavedByObjectVersion
1070
     0
1000
AcDbSavedByObjectVersion
1070
     0
1000
AcDbSavedByObjectVersion
1070
     0
1000
AcDbSavedByObjectVersion
1070
     0
1000
AcDbSavedByObjectVersion
1070
     0
1000
AcDbSavedByObjectVersion
1070
     0
1000
AcDbSavedByObjectVersion
1070
     0
1000
AcDbSavedByObjectVersion
1070
     0
1000
AcDbSavedByObjectVersion
1070
     0
1000
AcDbSavedByObjectVersion
1070
     0
1000
AcDbSavedByObjectVersion
1070
     0
1000
AcDbSavedByObjectVersion
1070
     0
1000
AcDbSavedByObjectVersion
1070
     0
1000
AcDbSavedByObjectVersion
1070
     0
1000
AcDbSavedByObjectVersion
1070
     0
1000
AcDbSavedByObjectVersion
1070
     0
1000
AcDbSavedByObjectVersion
1070
     0
1000
AcDbSavedByObjectVersion
1070
     0
1000
AcDbSavedByObjectVersion
1070
     0
1000
AcDbSavedByObjectVersion
1070
     0
1000
AcDbSavedByObjectVersion
1070
     0
1000
AcDbSavedByObjectVersion
1070
     0
1000
AcDbSavedByObjectVersion
1070
     0
1000
AcDbSavedByObjectVersion
1070
     0
1000
AcDbSavedByObjectVersion
1070
     0
1000
AcDbSavedByObjectVersion
1070
     0
1000
AcDbSavedByObjectVersion
1070
     0
1000
AcDbSavedByObjectVersion
1070
     0
1000
AcDbSavedByObjectVersion
1070
     0
1000
AcDbSavedByObjectVersion
1070
     0
1000
AcDbSavedByObjectVersion
1070
     0
1000
AcDbSavedByObjectVersion
1070
     0
1000
AcDbSavedByObjectVersion
1070
     0
1000
AcDbSavedByObjectVersion
1070
     0
1000
AcDbSavedByObjectVersion
1070
     0
1000
AcDbSavedByObjectVersion
1070
     0
1000
AcDbSavedByObjectVersion
1070
     0
1000
AcDbSavedByObjectVersion
1070
     0
1000
AcDbSavedByObjectVersion
1070
     0
1000
AcDbSavedByObjectVersion
1070
     0
1000
AcDbSavedByObjectVersion
1070
     0
1000
AcDbSavedByObjectVersion
1070
     0
1000
AcDbSavedByObjectVersion
1070
     0
1000
AcDbSavedByObjectVersion
1070
     0
1000
AcDbSavedByObjectVersion
1070
     0
1000
AcDbSavedByObjectVersion
1070
     0
1000
AcDbSavedByObjectVersion
1070
     0
1000
AcDbSavedByObjectVersion
1070
     0
1000
AcDbSavedByObjectVersion
1070
     0
1000
AcDbSavedByObjectVersion
1070
     0
1000
AcDbSavedByObjectVersion
1070
     0
1000
AcDbSavedByObjectVersion
1070
     0
1000
AcDbSavedByObjectVersion
1070
     0
1000
AcDbSavedByObjectVersion
1070
     0
1000
AcDbSavedByObjectVersion
1070
     0
1000
AcDbSavedByObjectVersion
1070
     0
  0
VISUALSTYLE
  5
34
102
{ACAD_REACTORS
330
2A
102
}
330
2A
100
AcDbVisualStyle
  2
Conceptual
 70
     9
 71
     3
 72
     2
 73
     0
 90
        0
 40
-0.6
 41
-30.0
 62
     5
 63
     7
 74
     2
 91
        2
 64
     7
 65
   257
 75
     1
175
     1
 42
40.0
 92
        8
 66
     7
 43
1.0
 76
     1
 77
     6
 78
     2
 67
     7
 79
     3
170
     0
171
     0
290
     0
174
     0
 93
        1
 44
0.0
173
     0
291
     0
 45
0.0
1001
ACAD
1000
AcDbSavedByObjectVersion
1070
     0
1000
AcDbSavedByObjectVersion
1070
     0
1000
AcDbSavedByObjectVersion
1070
     0
1000
AcDbSavedByObjectVersion
1070
     0
1000
AcDbSavedByObjectVersion
1070
     0
1000
AcDbSavedByObjectVersion
1070
     0
1000
AcDbSavedByObjectVersion
1070
     0
1000
AcDbSavedByObjectVersion
1070
     0
1000
AcDbSavedByObjectVersion
1070
     0
1000
AcDbSavedByObjectVersion
1070
     0
1000
AcDbSavedByObjectVersion
1070
     0
1000
AcDbSavedByObjectVersion
1070
     0
1000
AcDbSavedByObjectVersion
1070
     0
1000
AcDbSavedByObjectVersion
1070
     0
1000
AcDbSavedByObjectVersion
1070
     0
1000
AcDbSavedByObjectVersion
1070
     0
1000
AcDbSavedByObjectVersion
1070
     0
1000
AcDbSavedByObjectVersion
1070
     0
1000
AcDbSavedByObjectVersion
1070
     0
1000
AcDbSavedByObjectVersion
1070
     0
1000
AcDbSavedByObjectVersion
1070
     0
1000
AcDbSavedByObjectVersion
1070
     0
1000
AcDbSavedByObjectVersion
1070
     0
1000
AcDbSavedByObjectVersion
1070
     0
1000
AcDbSavedByObjectVersion
1070
     0
1000
AcDbSavedByObjectVersion
1070
     0
1000
AcDbSavedByObjectVersion
1070
     0
1000
AcDbSavedByObjectVersion
1070
     0
1000
AcDbSavedByObjectVersion
1070
     0
1000
AcDbSavedByObjectVersion
1070
     0
1000
AcDbSavedByObjectVersion
1070
     0
1000
AcDbSavedByObjectVersion
1070
     0
1000
AcDbSavedByObjectVersion
1070
     0
1000
AcDbSavedByObjectVersion
1070
     0
1000
AcDbSavedByObjectVersion
1070
     0
1000
AcDbSavedByObjectVersion
1070
     0
1000
AcDbSavedByObjectVersion
1070
     0
1000
AcDbSavedByObjectVersion
1070
     0
1000
AcDbSavedByObjectVersion
1070
     0
1000
AcDbSavedByObjectVersion
1070
     0
1000
AcDbSavedByObjectVersion
1070
     0
1000
AcDbSavedByObjectVersion
1070
     0
1000
AcDbSavedByObjectVersion
1070
     0
1000
AcDbSavedByObjectVersion
1070
     0
1000
AcDbSavedByObjectVersion
1070
     0
1000
AcDbSavedByObjectVersion
1070
     0
1000
AcDbSavedByObjectVersion
1070
     0
1000
AcDbSavedByObjectVersion
1070
     0
1000
AcDbSavedByObjectVersion
1070
     0
1000
AcDbSavedByObjectVersion
1070
     0
1000
AcDbSavedByObjectVersion
1070
     0
1000
AcDbSavedByObjectVersion
1070
     0
1000
AcDbSavedByObjectVersion
1070
     0
1000
AcDbSavedByObjectVersion
1070
     0
1000
AcDbSavedByObjectVersion
1070
     0
1000
AcDbSavedByObjectVersion
1070
     0
1000
AcDbSavedByObjectVersion
1070
     0
1000
AcDbSavedByObjectVersion
1070
     0
  0
VISUALSTYLE
  5
35
102
{ACAD_REACTORS
330
2A
102
}
330
2A
100
AcDbVisualStyle
  2
Dim
 70
    11
 71
     2
 72
     2
 73
     0
 90
        0
 40
-0.6
 41
-30.0
 62
     5
 63
     7
 74
     1
 91
        4
 64
     7
 65
   257
 75
     1
175
     1
 42
1.0
 92
        8
 66
     7
 43
1.0
 76
     1
 77
     6
 78
     2
 67
     7
 79
     5
170
     0
171
     0
290
     0
174
     0
 93
        1
 44
-50.0
173
     0
291
     1
 45
0.0
1001
ACAD
1000
AcDbSavedByObjectVersion
1070
     0
1000
AcDbSavedByObjectVersion
1070
     0
1000
AcDbSavedByObjectVersion
1070
     0
1000
AcDbSavedByObjectVersion
1070
     0
1000
AcDbSavedByObjectVersion
1070
     0
1000
AcDbSavedByObjectVersion
1070
     0
1000
AcDbSavedByObjectVersion
1070
     0
1000
AcDbSavedByObjectVersion
1070
     0
1000
AcDbSavedByObjectVersion
1070
     0
1000
AcDbSavedByObjectVersion
1070
     0
1000
AcDbSavedByObjectVersion
1070
     0
1000
AcDbSavedByObjectVersion
1070
     0
1000
AcDbSavedByObjectVersion
1070
     0
1000
AcDbSavedByObjectVersion
1070
     0
1000
AcDbSavedByObjectVersion
1070
     0
1000
AcDbSavedByObjectVersion
1070
     0
1000
AcDbSavedByObjectVersion
1070
     0
1000
AcDbSavedByObjectVersion
1070
     0
1000
AcDbSavedByObjectVersion
1070
     0
1000
AcDbSavedByObjectVersion
1070
     0
1000
AcDbSavedByObjectVersion
1070
     0
1000
AcDbSavedByObjectVersion
1070
     0
1000
AcDbSavedByObjectVersion
1070
     0
1000
AcDbSavedByObjectVersion
1070
     0
1000
AcDbSavedByObjectVersion
1070
     0
1000
AcDbSavedByObjectVersion
1070
     0
1000
AcDbSavedByObjectVersion
1070
     0
1000
AcDbSavedByObjectVersion
1070
     0
1000
AcDbSavedByObjectVersion
1070
     0
1000
AcDbSavedByObjectVersion
1070
     0
1000
AcDbSavedByObjectVersion
1070
     0
1000
AcDbSavedByObjectVersion
1070
     0
1000
AcDbSavedByObjectVersion
1070
     0
1000
AcDbSavedByObjectVersion
1070
     0
1000
AcDbSavedByObjectVersion
1070
     0
1000
AcDbSavedByObjectVersion
1070
     0
1000
AcDbSavedByObjectVersion
1070
     0
1000
AcDbSavedByObjectVersion
1070
     0
1000
AcDbSavedByObjectVersion
1070
     0
1000
AcDbSavedByObjectVersion
1070
     0
1000
AcDbSavedByObjectVersion
1070
     0
1000
AcDbSavedByObjectVersion
1070
     0
1000
AcDbSavedByObjectVersion
1070
     0
1000
AcDbSavedByObjectVersion
1070
     0
1000
AcDbSavedByObjectVersion
1070
     0
1000
AcDbSavedByObjectVersion
1070
     0
1000
AcDbSavedByObjectVersion
1070
     0
1000
AcDbSavedByObjectVersion
1070
     0
1000
AcDbSavedByObjectVersion
1070
     0
1000
AcDbSavedByObjectVersion
1070
     0
1000
AcDbSavedByObjectVersion
1070
     0
1000
AcDbSavedByObjectVersion
1070
     0
1000
AcDbSavedByObjectVersion
1070
     0
1000
AcDbSavedByObjectVersion
1070
     0
1000
AcDbSavedByObjectVersion
1070
     0
1000
AcDbSavedByObjectVersion
1070
     0
1000
AcDbSavedByObjectVersion
1070
     0
1000
AcDbSavedByObjectVersion
1070
     0
  0
VISUALSTYLE
  5
39
102
{ACAD_REACTORS
330
2A
102
}
330
2A
100
AcDbVisualStyle
  2
Facepattern
 70
    15
 71
     2
 72
     2
 73
     0
 90
        0
 40
-0.6
 41
-30.0
 62
     5
 63
     7
 74
     1
 91
        4
 64
     7
 65
   257
 75
     1
175
     1
 42
1.0
 92
        8
 66
     7
 43
1.0
 76
     1
 77
     6
 78
     2
 67
     7
 79
     5
170
     0
171
     0
290
     0
174
     0
 93
        1
 44
0.0
173
     0
291
     1
 45
0.0
1001
ACAD
1000
AcDbSavedByObjectVersion
1070
     0
1000
AcDbSavedByObjectVersion
1070
     0
1000
AcDbSavedByObjectVersion
1070
     0
1000
AcDbSavedByObjectVersion
1070
     0
1000
AcDbSavedByObjectVersion
1070
     0
1000
AcDbSavedByObjectVersion
1070
     0
1000
AcDbSavedByObjectVersion
1070
     0
1000
AcDbSavedByObjectVersion
1070
     0
1000
AcDbSavedByObjectVersion
1070
     0
1000
AcDbSavedByObjectVersion
1070
     0
1000
AcDbSavedByObjectVersion
1070
     0
1000
AcDbSavedByObjectVersion
1070
     0
1000
AcDbSavedByObjectVersion
1070
     0
1000
AcDbSavedByObjectVersion
1070
     0
1000
AcDbSavedByObjectVersion
1070
     0
1000
AcDbSavedByObjectVersion
1070
     0
1000
AcDbSavedByObjectVersion
1070
     0
1000
AcDbSavedByObjectVersion
1070
     0
1000
AcDbSavedByObjectVersion
1070
     0
1000
AcDbSavedByObjectVersion
1070
     0
1000
AcDbSavedByObjectVersion
1070
     0
1000
AcDbSavedByObjectVersion
1070
     0
1000
AcDbSavedByObjectVersion
1070
     0
1000
AcDbSavedByObjectVersion
1070
     0
1000
AcDbSavedByObjectVersion
1070
     0
1000
AcDbSavedByObjectVersion
1070
     0
1000
AcDbSavedByObjectVersion
1070
     0
1000
AcDbSavedByObjectVersion
1070
     0
1000
AcDbSavedByObjectVersion
1070
     0
1000
AcDbSavedByObjectVersion
1070
     0
1000
AcDbSavedByObjectVersion
1070
     0
1000
AcDbSavedByObjectVersion
1070
     0
1000
AcDbSavedByObjectVersion
1070
     0
1000
AcDbSavedByObjectVersion
1070
     0
1000
AcDbSavedByObjectVersion
1070
     0
1000
AcDbSavedByObjectVersion
1070
     0
1000
AcDbSavedByObjectVersion
1070
     0
1000
AcDbSavedByObjectVersion
1070
     0
1000
AcDbSavedByObjectVersion
1070
     0
1000
AcDbSavedByObjectVersion
1070
     0
1000
AcDbSavedByObjectVersion
1070
     0
1000
AcDbSavedByObjectVersion
1070
     0
1000
AcDbSavedByObjectVersion
1070
     0
1000
AcDbSavedByObjectVersion
1070
     0
1000
AcDbSavedByObjectVersion
1070
     0
1000
AcDbSavedByObjectVersion
1070
     0
1000
AcDbSavedByObjectVersion
1070
     0
1000
AcDbSavedByObjectVersion
1070
     0
1000
AcDbSavedByObjectVersion
1070
     0
1000
AcDbSavedByObjectVersion
1070
     0
1000
AcDbSavedByObjectVersion
1070
     0
1000
AcDbSavedByObjectVersion
1070
     0
1000
AcDbSavedByObjectVersion
1070
     0
1000
AcDbSavedByObjectVersion
1070
     0
1000
AcDbSavedByObjectVersion
1070
     0
1000
AcDbSavedByObjectVersion
1070
     0
1000
AcDbSavedByObjectVersion
1070
     0
1000
AcDbSavedByObjectVersion
1070
     0
  0
VISUALSTYLE
  5
2B
102
{ACAD_REACTORS
330
2A
102
}
330
2A
100
AcDbVisualStyle
  2
Flat
 70
     0
 71
     2
 72
     1
 73
     1
 90
        2
 40
-0.6
 41
30.0
 62
     5
 63
     7
 74
     0
 91
        4
 64
     7
 65
   257
 75
     1
175
     1
 42
1.0
 92
        8
 66
     7
 43
1.0
 76
     1
 77
     6
 78
     2
 67
     7
 79
     5
170
     0
171
     0
290
     0
174
     0
 93
       13
 44
0.0
173
     0
291
     1
 45
0.0
1001
ACAD
1000
AcDbSavedByObjectVersion
1070
     0
1000
AcDbSavedByObjectVersion
1070
     0
1000
AcDbSavedByObjectVersion
1070
     0
1000
AcDbSavedByObjectVersion
1070
     0
1000
AcDbSavedByObjectVersion
1070
     0
1000
AcDbSavedByObjectVersion
1070
     0
1000
AcDbSavedByObjectVersion
1070
     0
1000
AcDbSavedByObjectVersion
1070
     0
1000
AcDbSavedByObjectVersion
1070
     0
1000
AcDbSavedByObjectVersion
1070
     0
1000
AcDbSavedByObjectVersion
1070
     0
1000
AcDbSavedByObjectVersion
1070
     0
1000
AcDbSavedByObjectVersion
1070
     0
1000
AcDbSavedByObjectVersion
1070
     0
1000
AcDbSavedByObjectVersion
1070
     0
1000
AcDbSavedByObjectVersion
1070
     0
1000
AcDbSavedByObjectVersion
1070
     0
1000
AcDbSavedByObjectVersion
1070
     0
1000
AcDbSavedByObjectVersion
1070
     0
1000
AcDbSavedByObjectVersion
1070
     0
1000
AcDbSavedByObjectVersion
1070
     0
1000
AcDbSavedByObjectVersion
1070
     0
1000
AcDbSavedByObjectVersion
1070
     0
1000
AcDbSavedByObjectVersion
1070
     0
1000
AcDbSavedByObjectVersion
1070
     0
1000
AcDbSavedByObjectVersion
1070
     0
1000
AcDbSavedByObjectVersion
1070
     0
1000
AcDbSavedByObjectVersion
1070
     0
1000
AcDbSavedByObjectVersion
1070
     0
1000
AcDbSavedByObjectVersion
1070
     0
1000
AcDbSavedByObjectVersion
1070
     0
1000
AcDbSavedByObjectVersion
1070
     0
1000
AcDbSavedByObjectVersion
1070
     0
1000
AcDbSavedByObjectVersion
1070
     0
1000
AcDbSavedByObjectVersion
1070
     0
1000
AcDbSavedByObjectVersion
1070
     0
1000
AcDbSavedByObjectVersion
1070
     0
1000
AcDbSavedByObjectVersion
1070
     0
1000
AcDbSavedByObjectVersion
1070
     0
1000
AcDbSavedByObjectVersion
1070
     0
1000
AcDbSavedByObjectVersion
1070
     0
1000
AcDbSavedByObjectVersion
1070
     0
1000
AcDbSavedByObjectVersion
1070
     0
1000
AcDbSavedByObjectVersion
1070
     0
1000
AcDbSavedByObjectVersion
1070
     0
1000
AcDbSavedByObjectVersion
1070
     0
1000
AcDbSavedByObjectVersion
1070
     0
1000
AcDbSavedByObjectVersion
1070
     0
1000
AcDbSavedByObjectVersion
1070
     0
1000
AcDbSavedByObjectVersion
1070
     0
1000
AcDbSavedByObjectVersion
1070
     0
1000
AcDbSavedByObjectVersion
1070
     0
1000
AcDbSavedByObjectVersion
1070
     0
1000
AcDbSavedByObjectVersion
1070
     0
1000
AcDbSavedByObjectVersion
1070
     0
1000
AcDbSavedByObjectVersion
1070
     0
1000
AcDbSavedByObjectVersion
1070
     0
1000
AcDbSavedByObjectVersion
1070
     0
  0
VISUALSTYLE
  5
2C
102
{ACAD_REACTORS
330
2A
102
}
330
2A
100
AcDbVisualStyle
  2
FlatWithEdges
 70
     1
 71
     2
 72
     1
 73
     1
 90
        2
 40
-0.6
 41
30.0
 62
     5
 63
     7
 74
     1
 91
        4
 64
     7
 65
   257
 75
     1
175
     1
 42
1.0
 92
        0
 66
   257
 43
1.0
 76
     1
 77
     6
 78
     2
 67
     7
 79
     5
170
     0
171
     0
290
     0
174
     0
 93
       13
 44
0.0
173
     0
291
     1
 45
0.0
1001
ACAD
1000
AcDbSavedByObjectVersion
1070
     0
1000
AcDbSavedByObjectVersion
1070
     0
1000
AcDbSavedByObjectVersion
1070
     0
1000
AcDbSavedByObjectVersion
1070
     0
1000
AcDbSavedByObjectVersion
1070
     0
1000
AcDbSavedByObjectVersion
1070
     0
1000
AcDbSavedByObjectVersion
1070
     0
1000
AcDbSavedByObjectVersion
1070
     0
1000
AcDbSavedByObjectVersion
1070
     0
1000
AcDbSavedByObjectVersion
1070
     0
1000
AcDbSavedByObjectVersion
1070
     0
1000
AcDbSavedByObjectVersion
1070
     0
1000
AcDbSavedByObjectVersion
1070
     0
1000
AcDbSavedByObjectVersion
1070
     0
1000
AcDbSavedByObjectVersion
1070
     0
1000
AcDbSavedByObjectVersion
1070
     0
1000
AcDbSavedByObjectVersion
1070
     0
1000
AcDbSavedByObjectVersion
1070
     0
1000
AcDbSavedByObjectVersion
1070
     0
1000
AcDbSavedByObjectVersion
1070
     0
1000
AcDbSavedByObjectVersion
1070
     0
1000
AcDbSavedByObjectVersion
1070
     0
1000
AcDbSavedByObjectVersion
1070
     0
1000
AcDbSavedByObjectVersion
1070
     0
1000
AcDbSavedByObjectVersion
1070
     0
1000
AcDbSavedByObjectVersion
1070
     0
1000
AcDbSavedByObjectVersion
1070
     0
1000
AcDbSavedByObjectVersion
1070
     0
1000
AcDbSavedByObjectVersion
1070
     0
1000
AcDbSavedByObjectVersion
1070
     0
1000
AcDbSavedByObjectVersion
1070
     0
1000
AcDbSavedByObjectVersion
1070
     0
1000
AcDbSavedByObjectVersion
1070
     0
1000
AcDbSavedByObjectVersion
1070
     0
1000
AcDbSavedByObjectVersion
1070
     0
1000
AcDbSavedByObjectVersion
1070
     0
1000
AcDbSavedByObjectVersion
1070
     0
1000
AcDbSavedByObjectVersion
1070
     0
1000
AcDbSavedByObjectVersion
1070
     0
1000
AcDbSavedByObjectVersion
1070
     0
1000
AcDbSavedByObjectVersion
1070
     0
1000
AcDbSavedByObjectVersion
1070
     0
1000
AcDbSavedByObjectVersion
1070
     0
1000
AcDbSavedByObjectVersion
1070
     0
1000
AcDbSavedByObjectVersion
1070
     0
1000
AcDbSavedByObjectVersion
1070
     0
1000
AcDbSavedByObjectVersion
1070
     0
1000
AcDbSavedByObjectVersion
1070
     0
1000
AcDbSavedByObjectVersion
1070
     0
1000
AcDbSavedByObjectVersion
1070
     0
1000
AcDbSavedByObjectVersion
1070
     0
1000
AcDbSavedByObjectVersion
1070
     0
1000
AcDbSavedByObjectVersion
1070
     0
1000
AcDbSavedByObjectVersion
1070
     0
1000
AcDbSavedByObjectVersion
1070
     0
1000
AcDbSavedByObjectVersion
1070
     0
1000
AcDbSavedByObjectVersion
1070
     0
1000
AcDbSavedByObjectVersion
1070
     0
  0
VISUALSTYLE
  5
2D
102
{ACAD_REACTORS
330
2A
102
}
330
2A
100
AcDbVisualStyle
  2
Gouraud
 70
     2
 71
     2
 72
     2
 73
     1
 90
        2
 40
-0.6
 41
30.0
 62
     5
 63
     7
 74
     0
 91
        4
 64
     7
 65
   257
 75
     1
175
     1
 42
1.0
 92
        0
 66
     7
 43
1.0
 76
     1
 77
     6
 78
     2
 67
     7
 79
     5
170
     0
171
     0
290
     0
174
     0
 93
       13
 44
0.0
173
     0
291
     1
 45
0.0
1001
ACAD
1000
AcDbSavedByObjectVersion
1070
     0
1000
AcDbSavedByObjectVersion
1070
     0
1000
AcDbSavedByObjectVersion
1070
     0
1000
AcDbSavedByObjectVersion
1070
     0
1000
AcDbSavedByObjectVersion
1070
     0
1000
AcDbSavedByObjectVersion
1070
     0
1000
AcDbSavedByObjectVersion
1070
     0
1000
AcDbSavedByObjectVersion
1070
     0
1000
AcDbSavedByObjectVersion
1070
     0
1000
AcDbSavedByObjectVersion
1070
     0
1000
AcDbSavedByObjectVersion
1070
     0
1000
AcDbSavedByObjectVersion
1070
     0
1000
AcDbSavedByObjectVersion
1070
     0
1000
AcDbSavedByObjectVersion
1070
     0
1000
AcDbSavedByObjectVersion
1070
     0
1000
AcDbSavedByObjectVersion
1070
     0
1000
AcDbSavedByObjectVersion
1070
     0
1000
AcDbSavedByObjectVersion
1070
     0
1000
AcDbSavedByObjectVersion
1070
     0
1000
AcDbSavedByObjectVersion
1070
     0
1000
AcDbSavedByObjectVersion
1070
     0
1000
AcDbSavedByObjectVersion
1070
     0
1000
AcDbSavedByObjectVersion
1070
     0
1000
AcDbSavedByObjectVersion
1070
     0
1000
AcDbSavedByObjectVersion
1070
     0
1000
AcDbSavedByObjectVersion
1070
     0
1000
AcDbSavedByObjectVersion
1070
     0
1000
AcDbSavedByObjectVersion
1070
     0
1000
AcDbSavedByObjectVersion
1070
     0
1000
AcDbSavedByObjectVersion
1070
     0
1000
AcDbSavedByObjectVersion
1070
     0
1000
AcDbSavedByObjectVersion
1070
     0
1000
AcDbSavedByObjectVersion
1070
     0
1000
AcDbSavedByObjectVersion
1070
     0
1000
AcDbSavedByObjectVersion
1070
     0
1000
AcDbSavedByObjectVersion
1070
     0
1000
AcDbSavedByObjectVersion
1070
     0
1000
AcDbSavedByObjectVersion
1070
     0
1000
AcDbSavedByObjectVersion
1070
     0
1000
AcDbSavedByObjectVersion
1070
     0
1000
AcDbSavedByObjectVersion
1070
     0
1000
AcDbSavedByObjectVersion
1070
     0
1000
AcDbSavedByObjectVersion
1070
     0
1000
AcDbSavedByObjectVersion
1070
     0
1000
AcDbSavedByObjectVersion
1070
     0
1000
AcDbSavedByObjectVersion
1070
     0
1000
AcDbSavedByObjectVersion
1070
     0
1000
AcDbSavedByObjectVersion
1070
     0
1000
AcDbSavedByObjectVersion
1070
     0
1000
AcDbSavedByObjectVersion
1070
     0
1000
AcDbSavedByObjectVersion
1070
     0
1000
AcDbSavedByObjectVersion
1070
     0
1000
AcDbSavedByObjectVersion
1070
     0
1000
AcDbSavedByObjectVersion
1070
     0
1000
AcDbSavedByObjectVersion
1070
     0
1000
AcDbSavedByObjectVersion
1070
     0
1000
AcDbSavedByObjectVersion
1070
     0
1000
AcDbSavedByObjectVersion
1070
     0
  0
VISUALSTYLE
  5
2E
102
{ACAD_REACTORS
330
2A
102
}
330
2A
100
AcDbVisualStyle
  2
GouraudWithEdges
 70
     3
 71
     2
 72
     2
 73
     1
 90
        2
 40
-0.6
 41
30.0
 62
     5
 63
     7
 74
     1
 91
        4
 64
     7
 65
   257
 75
     1
175
     1
 42
1.0
 92
        0
 66
   257
 43
1.0
 76
     1
 77
     6
 78
     2
 67
     7
 79
     5
170
     0
171
     0
290
     0
174
     0
 93
       13
 44
0.0
173
     0
291
     1
 45
0.0
1001
ACAD
1000
AcDbSavedByObjectVersion
1070
     0
1000
AcDbSavedByObjectVersion
1070
     0
1000
AcDbSavedByObjectVersion
1070
     0
1000
AcDbSavedByObjectVersion
1070
     0
1000
AcDbSavedByObjectVersion
1070
     0
1000
AcDbSavedByObjectVersion
1070
     0
1000
AcDbSavedByObjectVersion
1070
     0
1000
AcDbSavedByObjectVersion
1070
     0
1000
AcDbSavedByObjectVersion
1070
     0
1000
AcDbSavedByObjectVersion
1070
     0
1000
AcDbSavedByObjectVersion
1070
     0
1000
AcDbSavedByObjectVersion
1070
     0
1000
AcDbSavedByObjectVersion
1070
     0
1000
AcDbSavedByObjectVersion
1070
     0
1000
AcDbSavedByObjectVersion
1070
     0
1000
AcDbSavedByObjectVersion
1070
     0
1000
AcDbSavedByObjectVersion
1070
     0
1000
AcDbSavedByObjectVersion
1070
     0
1000
AcDbSavedByObjectVersion
1070
     0
1000
AcDbSavedByObjectVersion
1070
     0
1000
AcDbSavedByObjectVersion
1070
     0
1000
AcDbSavedByObjectVersion
1070
     0
1000
AcDbSavedByObjectVersion
1070
     0
1000
AcDbSavedByObjectVersion
1070
     0
1000
AcDbSavedByObjectVersion
1070
     0
1000
AcDbSavedByObjectVersion
1070
     0
1000
AcDbSavedByObjectVersion
1070
     0
1000
AcDbSavedByObjectVersion
1070
     0
1000
AcDbSavedByObjectVersion
1070
     0
1000
AcDbSavedByObjectVersion
1070
     0
1000
AcDbSavedByObjectVersion
1070
     0
1000
AcDbSavedByObjectVersion
1070
     0
1000
AcDbSavedByObjectVersion
1070
     0
1000
AcDbSavedByObjectVersion
1070
     0
1000
AcDbSavedByObjectVersion
1070
     0
1000
AcDbSavedByObjectVersion
1070
     0
1000
AcDbSavedByObjectVersion
1070
     0
1000
AcDbSavedByObjectVersion
1070
     0
1000
AcDbSavedByObjectVersion
1070
     0
1000
AcDbSavedByObjectVersion
1070
     0
1000
AcDbSavedByObjectVersion
1070
     0
1000
AcDbSavedByObjectVersion
1070
     0
1000
AcDbSavedByObjectVersion
1070
     0
1000
AcDbSavedByObjectVersion
1070
     0
1000
AcDbSavedByObjectVersion
1070
     0
1000
AcDbSavedByObjectVersion
1070
     0
1000
AcDbSavedByObjectVersion
1070
     0
1000
AcDbSavedByObjectVersion
1070
     0
1000
AcDbSavedByObjectVersion
1070
     0
1000
AcDbSavedByObjectVersion
1070
     0
1000
AcDbSavedByObjectVersion
1070
     0
1000
AcDbSavedByObjectVersion
1070
     0
1000
AcDbSavedByObjectVersion
1070
     0
1000
AcDbSavedByObjectVersion
1070
     0
1000
AcDbSavedByObjectVersion
1070
     0
1000
AcDbSavedByObjectVersion
1070
     0
1000
AcDbSavedByObjectVersion
1070
     0
1000
AcDbSavedByObjectVersion
1070
     0
  0
VISUALSTYLE
  5
38
102
{ACAD_REACTORS
330
2A
102
}
330
2A
100
AcDbVisualStyle
  2
Linepattern
 70
    14
 71
     2
 72
     2
 73
     0
 90
        0
 40
-0.6
 41
-30.0
 62
     5
 63
     7
 74
     1
 91
        4
 64
     7
 65
   257
 75
     7
175
     7
 42
1.0
 92
        8
 66
     7
 43
1.0
 76
     1
 77
     6
 78
     2
 67
     7
 79
     5
170
     0
171
     0
290
     0
174
     0
 93
        1
 44
0.0
173
     0
291
     1
 45
0.0
1001
ACAD
1000
AcDbSavedByObjectVersion
1070
     0
1000
AcDbSavedByObjectVersion
1070
     0
1000
AcDbSavedByObjectVersion
1070
     0
1000
AcDbSavedByObjectVersion
1070
     0
1000
AcDbSavedByObjectVersion
1070
     0
1000
AcDbSavedByObjectVersion
1070
     0
1000
AcDbSavedByObjectVersion
1070
     0
1000
AcDbSavedByObjectVersion
1070
     0
1000
AcDbSavedByObjectVersion
1070
     0
1000
AcDbSavedByObjectVersion
1070
     0
1000
AcDbSavedByObjectVersion
1070
     0
1000
AcDbSavedByObjectVersion
1070
     0
1000
AcDbSavedByObjectVersion
1070
     0
1000
AcDbSavedByObjectVersion
1070
     0
1000
AcDbSavedByObjectVersion
1070
     0
1000
AcDbSavedByObjectVersion
1070
     0
1000
AcDbSavedByObjectVersion
1070
     0
1000
AcDbSavedByObjectVersion
1070
     0
1000
AcDbSavedByObjectVersion
1070
     0
1000
AcDbSavedByObjectVersion
1070
     0
1000
AcDbSavedByObjectVersion
1070
     0
1000
AcDbSavedByObjectVersion
1070
     0
1000
AcDbSavedByObjectVersion
1070
     0
1000
AcDbSavedByObjectVersion
1070
     0
1000
AcDbSavedByObjectVersion
1070
     0
1000
AcDbSavedByObjectVersion
1070
     0
1000
AcDbSavedByObjectVersion
1070
     0
1000
AcDbSavedByObjectVersion
1070
     0
1000
AcDbSavedByObjectVersion
1070
     0
1000
AcDbSavedByObjectVersion
1070
     0
1000
AcDbSavedByObjectVersion
1070
     0
1000
AcDbSavedByObjectVersion
1070
     0
1000
AcDbSavedByObjectVersion
1070
     0
1000
AcDbSavedByObjectVersion
1070
     0
1000
AcDbSavedByObjectVersion
1070
     0
1000
AcDbSavedByObjectVersion
1070
     0
1000
AcDbSavedByObjectVersion
1070
     0
1000
AcDbSavedByObjectVersion
1070
     0
1000
AcDbSavedByObjectVersion
1070
     0
1000
AcDbSavedByObjectVersion
1070
     0
1000
AcDbSavedByObjectVersion
1070
     0
1000
AcDbSavedByObjectVersion
1070
     0
1000
AcDbSavedByObjectVersion
1070
     0
1000
AcDbSavedByObjectVersion
1070
     0
1000
AcDbSavedByObjectVersion
1070
     0
1000
AcDbSavedByObjectVersion
1070
     0
1000
AcDbSavedByObjectVersion
1070
     0
1000
AcDbSavedByObjectVersion
1070
     0
1000
AcDbSavedByObjectVersion
1070
     0
1000
AcDbSavedByObjectVersion
1070
     0
1000
AcDbSavedByObjectVersion
1070
     0
1000
AcDbSavedByObjectVersion
1070
     0
1000
AcDbSavedByObjectVersion
1070
     0
1000
AcDbSavedByObjectVersion
1070
     0
1000
AcDbSavedByObjectVersion
1070
     0
1000
AcDbSavedByObjectVersion
1070
     0
1000
AcDbSavedByObjectVersion
1070
     0
1000
AcDbSavedByObjectVersion
1070
     0
  0
VISUALSTYLE
  5
33
102
{ACAD_REACTORS
330
2A
102
}
330
2A
100
AcDbVisualStyle
  2
Realistic
 70
     8
 71
     2
 72
     2
 73
     0
 90
        0
 40
-0.6
 41
-30.0
 62
     5
 63
     7
 74
     1
 91
        0
 64
     7
 65
   257
 75
     1
175
     1
 42
1.0
 92
        8
 66
     8
 43
1.0
 76
     1
 77
     6
 78
     2
 67
     7
 79
     5
170
     0
171
     0
290
     0
174
     0
 93
       13
 44
0.0
173
     0
291
     0
 45
0.0
1001
ACAD
1000
AcDbSavedByObjectVersion
1070
     0
1000
AcDbSavedByObjectVersion
1070
     0
1000
AcDbSavedByObjectVersion
1070
     0
1000
AcDbSavedByObjectVersion
1070
     0
1000
AcDbSavedByObjectVersion
1070
     0
1000
AcDbSavedByObjectVersion
1070
     0
1000
AcDbSavedByObjectVersion
1070
     0
1000
AcDbSavedByObjectVersion
1070
     0
1000
AcDbSavedByObjectVersion
1070
     0
1000
AcDbSavedByObjectVersion
1070
     0
1000
AcDbSavedByObjectVersion
1070
     0
1000
AcDbSavedByObjectVersion
1070
     0
1000
AcDbSavedByObjectVersion
1070
     0
1000
AcDbSavedByObjectVersion
1070
     0
1000
AcDbSavedByObjectVersion
1070
     0
1000
AcDbSavedByObjectVersion
1070
     0
1000
AcDbSavedByObjectVersion
1070
     0
1000
AcDbSavedByObjectVersion
1070
     0
1000
AcDbSavedByObjectVersion
1070
     0
1000
AcDbSavedByObjectVersion
1070
     0
1000
AcDbSavedByObjectVersion
1070
     0
1000
AcDbSavedByObjectVersion
1070
     0
1000
AcDbSavedByObjectVersion
1070
     0
1000
AcDbSavedByObjectVersion
1070
     0
1000
AcDbSavedByObjectVersion
1070
     0
1000
AcDbSavedByObjectVersion
1070
     0
1000
AcDbSavedByObjectVersion
1070
     0
1000
AcDbSavedByObjectVersion
1070
     0
1000
AcDbSavedByObjectVersion
1070
     0
1000
AcDbSavedByObjectVersion
1070
     0
1000
AcDbSavedByObjectVersion
1070
     0
1000
AcDbSavedByObjectVersion
1070
     0
1000
AcDbSavedByObjectVersion
1070
     0
1000
AcDbSavedByObjectVersion
1070
     0
1000
AcDbSavedByObjectVersion
1070
     0
1000
AcDbSavedByObjectVersion
1070
     0
1000
AcDbSavedByObjectVersion
1070
     0
1000
AcDbSavedByObjectVersion
1070
     0
1000
AcDbSavedByObjectVersion
1070
     0
1000
AcDbSavedByObjectVersion
1070
     0
1000
AcDbSavedByObjectVersion
1070
     0
1000
AcDbSavedByObjectVersion
1070
     0
1000
AcDbSavedByObjectVersion
1070
     0
1000
AcDbSavedByObjectVersion
1070
     0
1000
AcDbSavedByObjectVersion
1070
     0
1000
AcDbSavedByObjectVersion
1070
     0
1000
AcDbSavedByObjectVersion
1070
     0
1000
AcDbSavedByObjectVersion
1070
     0
1000
AcDbSavedByObjectVersion
1070
     0
1000
AcDbSavedByObjectVersion
1070
     0
1000
AcDbSavedByObjectVersion
1070
     0
1000
AcDbSavedByObjectVersion
1070
     0
1000
AcDbSavedByObjectVersion
1070
     0
1000
AcDbSavedByObjectVersion
1070
     0
1000
AcDbSavedByObjectVersion
1070
     0
1000
AcDbSavedByObjectVersion
1070
     0
1000
AcDbSavedByObjectVersion
1070
     0
1000
AcDbSavedByObjectVersion
1070
     0
  0
VISUALSTYLE
  5
37
102
{ACAD_REACTORS
330
2A
102
}
330
2A
100
AcDbVisualStyle
  2
Thicken
 70
    13
 71
     2
 72
     2
 73
     0
 90
        0
 40
-0.6
 41
-30.0
 62
     5
 63
     7
 74
     1
 91
        4
 64
     7
 65
   257
 75
     1
175
     1
 42
1.0
 92
       12
 66
     7
 43
1.0
 76
     1
 77
     6
 78
     2
 67
     7
 79
     5
170
     0
171
     0
290
     0
174
     0
 93
        1
 44
0.0
173
     0
291
     1
 45
0.0
1001
ACAD
1000
AcDbSavedByObjectVersion
1070
     0
1000
AcDbSavedByObjectVersion
1070
     0
1000
AcDbSavedByObjectVersion
1070
     0
1000
AcDbSavedByObjectVersion
1070
     0
1000
AcDbSavedByObjectVersion
1070
     0
1000
AcDbSavedByObjectVersion
1070
     0
1000
AcDbSavedByObjectVersion
1070
     0
1000
AcDbSavedByObjectVersion
1070
     0
1000
AcDbSavedByObjectVersion
1070
     0
1000
AcDbSavedByObjectVersion
1070
     0
1000
AcDbSavedByObjectVersion
1070
     0
1000
AcDbSavedByObjectVersion
1070
     0
1000
AcDbSavedByObjectVersion
1070
     0
1000
AcDbSavedByObjectVersion
1070
     0
1000
AcDbSavedByObjectVersion
1070
     0
1000
AcDbSavedByObjectVersion
1070
     0
1000
AcDbSavedByObjectVersion
1070
     0
1000
AcDbSavedByObjectVersion
1070
     0
1000
AcDbSavedByObjectVersion
1070
     0
1000
AcDbSavedByObjectVersion
1070
     0
1000
AcDbSavedByObjectVersion
1070
     0
1000
AcDbSavedByObjectVersion
1070
     0
1000
AcDbSavedByObjectVersion
1070
     0
1000
AcDbSavedByObjectVersion
1070
     0
1000
AcDbSavedByObjectVersion
1070
     0
1000
AcDbSavedByObjectVersion
1070
     0
1000
AcDbSavedByObjectVersion
1070
     0
1000
AcDbSavedByObjectVersion
1070
     0
1000
AcDbSavedByObjectVersion
1070
     0
1000
AcDbSavedByObjectVersion
1070
     0
1000
AcDbSavedByObjectVersion
1070
     0
1000
AcDbSavedByObjectVersion
1070
     0
1000
AcDbSavedByObjectVersion
1070
     0
1000
AcDbSavedByObjectVersion
1070
     0
1000
AcDbSavedByObjectVersion
1070
     0
1000
AcDbSavedByObjectVersion
1070
     0
1000
AcDbSavedByObjectVersion
1070
     0
1000
AcDbSavedByObjectVersion
1070
     0
1000
AcDbSavedByObjectVersion
1070
     0
1000
AcDbSavedByObjectVersion
1070
     0
1000
AcDbSavedByObjectVersion
1070
     0
1000
AcDbSavedByObjectVersion
1070
     0
1000
AcDbSavedByObjectVersion
1070
     0
1000
AcDbSavedByObjectVersion
1070
     0
1000
AcDbSavedByObjectVersion
1070
     0
1000
AcDbSavedByObjectVersion
1070
     0
1000
AcDbSavedByObjectVersion
1070
     0
1000
AcDbSavedByObjectVersion
1070
     0
1000
AcDbSavedByObjectVersion
1070
     0
1000
AcDbSavedByObjectVersion
1070
     0
1000
AcDbSavedByObjectVersion
1070
     0
1000
AcDbSavedByObjectVersion
1070
     0
1000
AcDbSavedByObjectVersion
1070
     0
1000
AcDbSavedByObjectVersion
1070
     0
1000
AcDbSavedByObjectVersion
1070
     0
1000
AcDbSavedByObjectVersion
1070
     0
1000
AcDbSavedByObjectVersion
1070
     0
1000
AcDbSavedByObjectVersion
1070
     0
  0
DICTIONARYVAR
  5
510B
102
{ACAD_REACTORS
330
5108
102
}
330
5108
100
DictionaryVariables
280
     0
  1
1:1
  0
DICTIONARYVAR
  5
510A
102
{ACAD_REACTORS
330
5108
102
}
330
5108
100
DictionaryVariables
280
     0
  1
STANDARD
  0
DICTIONARYVAR
  5
5109
102
{ACAD_REACTORS
330
5108
102
}
330
5108
100
DictionaryVariables
280
     0
  1
STANDARD
  0
DICTIONARYVAR
  5
510E
102
{ACAD_REACTORS
330
5108
102
}
330
5108
100
DictionaryVariables
280
     0
  1
1
  0
DICTIONARYVAR
  5
510D
102
{ACAD_REACTORS
330
5108
102
}
330
5108
100
DictionaryVariables
280
     0
  1
0
  0
DICTIONARYVAR
  5
17650
102
{ACAD_REACTORS
330
5108
102
}
330
5108
100
DictionaryVariables
280
     0
  1
0
  0
DICTIONARYVAR
  5
1764F
102
{ACAD_REACTORS
330
5108
102
}
330
5108
100
DictionaryVariables
280
     0
  1
0
  0
DICTIONARYVAR
  5
510C
102
{ACAD_REACTORS
330
5108
102
}
330
5108
100
DictionaryVariables
280
     0
  1
127
  0
XRECORD
  5
14144
102
{ACAD_REACTORS
330
14143
102
}
330
14143
100
AcDbXrecord
280
     1
330
0
  0
DICTIONARY
  5
4FEF
330
4FEE
100
AcDbDictionary
280
     1
281
     1
  3
ACAD_XREC_ROUNDTRIP
360
7C2C
  3
BUMPTILE
360
4FF1
  3
DIFFUSETILE
360
4FF0
  3
OPACITYTILE
360
4FF4
  3
REFLECTIONTILE
360
4FF3
  3
REFRACTIONTILE
360
4FF5
  3
SPECULARTILE
360
4FF2
  0
DICTIONARY
  5
4FE7
330
4FE6
100
AcDbDictionary
280
     1
281
     1
  3
ACAD_XREC_ROUNDTRIP
360
7C2B
  3
BUMPTILE
360
4FE9
  3
DIFFUSETILE
360
4FE8
  3
OPACITYTILE
360
4FEC
  3
REFLECTIONTILE
360
4FEB
  3
REFRACTIONTILE
360
4FED
  3
SPECULARTILE
360
4FEA
  0
DICTIONARY
  5
4FF7
330
4FF6
100
AcDbDictionary
280
     1
281
     1
  3
ACAD_XREC_ROUNDTRIP
360
7C2D
  3
BUMPTILE
360
4FF9
  3
DIFFUSETILE
360
4FF8
  3
OPACITYTILE
360
4FFC
  3
REFLECTIONTILE
360
4FFB
  3
REFRACTIONTILE
360
4FFD
  3
SPECULARTILE
360
4FFA
  0
DICTIONARY
  5
50D6
330
4FFF
100
AcDbDictionary
280
     1
281
     1
  3
ACAD_ROUNDTRIP_2008_TABLESTYLE_CELLSTYLEMAP
360
1765E
  0
XRECORD
  5
7C2C
102
{ACAD_REACTORS
330
4FEF
102
}
330
4FEF
100
AcDbXrecord
280
     1
102
MATERIAL
148
0.0
149
0.0
149
0.0
 93
        0
 94
      127
282
     0
 72
     0
 77
     0
171
     0
175
     0
179
     0
273
     0
  0
XRECORD
  5
4FF1
102
{ACAD_REACTORS
330
4FEF
102
}
330
4FEF
100
AcDbXrecord
280
     1
270
     1
271
     1
  0
XRECORD
  5
4FF0
102
{ACAD_REACTORS
330
4FEF
102
}
330
4FEF
100
AcDbXrecord
280
     1
270
     1
271
     1
  0
XRECORD
  5
4FF4
102
{ACAD_REACTORS
330
4FEF
102
}
330
4FEF
100
AcDbXrecord
280
     1
270
     1
271
     1
  0
XRECORD
  5
4FF3
102
{ACAD_REACTORS
330
4FEF
102
}
330
4FEF
100
AcDbXrecord
280
     1
270
     1
271
     1
  0
XRECORD
  5
4FF5
102
{ACAD_REACTORS
330
4FEF
102
}
330
4FEF
100
AcDbXrecord
280
     1
270
     1
271
     1
  0
XRECORD
  5
4FF2
102
{ACAD_REACTORS
330
4FEF
102
}
330
4FEF
100
AcDbXrecord
280
     1
270
     1
271
     1
  0
XRECORD
  5
7C2B
102
{ACAD_REACTORS
330
4FE7
102
}
330
4FE7
100
AcDbXrecord
280
     1
102
MATERIAL
148
0.0
149
0.0
149
0.0
 93
        0
 94
      127
282
     0
 72
     0
 77
     0
171
     0
175
     0
179
     0
273
     0
  0
XRECORD
  5
4FE9
102
{ACAD_REACTORS
330
4FE7
102
}
330
4FE7
100
AcDbXrecord
280
     1
270
     1
271
     1
  0
XRECORD
  5
4FE8
102
{ACAD_REACTORS
330
4FE7
102
}
330
4FE7
100
AcDbXrecord
280
     1
270
     1
271
     1
  0
XRECORD
  5
4FEC
102
{ACAD_REACTORS
330
4FE7
102
}
330
4FE7
100
AcDbXrecord
280
     1
270
     1
271
     1
  0
XRECORD
  5
4FEB
102
{ACAD_REACTORS
330
4FE7
102
}
330
4FE7
100
AcDbXrecord
280
     1
270
     1
271
     1
  0
XRECORD
  5
4FED
102
{ACAD_REACTORS
330
4FE7
102
}
330
4FE7
100
AcDbXrecord
280
     1
270
     1
271
     1
  0
XRECORD
  5
4FEA
102
{ACAD_REACTORS
330
4FE7
102
}
330
4FE7
100
AcDbXrecord
280
     1
270
     1
271
     1
  0
XRECORD
  5
7C2D
102
{ACAD_REACTORS
330
4FF7
102
}
330
4FF7
100
AcDbXrecord
280
     1
102
MATERIAL
148
0.0
149
0.0
149
0.0
 93
        0
 94
      127
282
     0
 72
     0
 77
     0
171
     0
175
     0
179
     0
273
     0
  0
XRECORD
  5
4FF9
102
{ACAD_REACTORS
330
4FF7
102
}
330
4FF7
100
AcDbXrecord
280
     1
270
     1
271
     1
  0
XRECORD
  5
4FF8
102
{ACAD_REACTORS
330
4FF7
102
}
330
4FF7
100
AcDbXrecord
280
     1
270
     1
271
     1
  0
XRECORD
  5
4FFC
102
{ACAD_REACTORS
330
4FF7
102
}
330
4FF7
100
AcDbXrecord
280
     1
270
     1
271
     1
  0
XRECORD
  5
4FFB
102
{ACAD_REACTORS
330
4FF7
102
}
330
4FF7
100
AcDbXrecord
280
     1
270
     1
271
     1
  0
XRECORD
  5
4FFD
102
{ACAD_REACTORS
330
4FF7
102
}
330
4FF7
100
AcDbXrecord
280
     1
270
     1
271
     1
  0
XRECORD
  5
4FFA
102
{ACAD_REACTORS
330
4FF7
102
}
330
4FF7
100
AcDbXrecord
280
     1
270
     1
271
     1
  0
CELLSTYLEMAP
  5
1765E
102
{ACAD_REACTORS
330
50D6
102
}
330
50D6
100
AcDbCellStyleMap
 90
        3
300
CELLSTYLE
  1
TABLEFORMAT_BEGIN
 90
        5
170
     1
 91
        0
 92
    32768
 62
   257
 93
        1
300
CONTENTFORMAT
  1
CONTENTFORMAT_BEGIN
 90
        0
 91
        0
 92
      512
 93
        0
300

 40
0.0
140
1.0
 94
        5
 62
     0
340
11
144
0.25
309
CONTENTFORMAT_END
171
     1
301
MARGIN
  1
CELLMARGIN_BEGIN
 40
0.06
 40
0.06
 40
0.06
 40
0.06
 40
0.18
 40
0.18
309
CELLMARGIN_END
 94
        6
 95
        1
302
GRIDFORMAT
  1
GRIDFORMAT_BEGIN
 90
        0
 91
        1
 62
     0
 92
       -2
340
0
 93
        0
 40
0.045
309
GRIDFORMAT_END
 95
        2
302
GRIDFORMAT
  1
GRIDFORMAT_BEGIN
 90
        0
 91
        1
 62
     0
 92
       -2
340
0
 93
        0
 40
0.045
309
GRIDFORMAT_END
 95
        4
302
GRIDFORMAT
  1
GRIDFORMAT_BEGIN
 90
        0
 91
        1
 62
     0
 92
       -2
340
0
 93
        0
 40
0.045
309
GRIDFORMAT_END
 95
        8
302
GRIDFORMAT
  1
GRIDFORMAT_BEGIN
 90
        0
 91
        1
 62
     0
 92
       -2
340
0
 93
        0
 40
0.045
309
GRIDFORMAT_END
 95
       16
302
GRIDFORMAT
  1
GRIDFORMAT_BEGIN
 90
        0
 91
        1
 62
     0
 92
       -2
340
0
 93
        0
 40
0.045
309
GRIDFORMAT_END
 95
       32
302
GRIDFORMAT
  1
GRIDFORMAT_BEGIN
 90
        0
 91
        1
 62
     0
 92
       -2
340
0
 93
        0
 40
0.045
309
GRIDFORMAT_END
309
TABLEFORMAT_END
  1
CELLSTYLE_BEGIN
 90
        1
 91
        1
300
_TITLE
309
CELLSTYLE_END
300
CELLSTYLE
  1
TABLEFORMAT_BEGIN
 90
        5
170
     1
 91
        0
 92
        0
 62
   257
 93
        1
300
CONTENTFORMAT
  1
CONTENTFORMAT_BEGIN
 90
        0
 91
        0
 92
      512
 93
        0
300

 40
0.0
140
1.0
 94
        5
 62
     0
340
11
144
0.18
309
CONTENTFORMAT_END
171
     1
301
MARGIN
  1
CELLMARGIN_BEGIN
 40
0.06
 40
0.06
 40
0.06
 40
0.06
 40
0.18
 40
0.18
309
CELLMARGIN_END
 94
        6
 95
        1
302
GRIDFORMAT
  1
GRIDFORMAT_BEGIN
 90
        0
 91
        1
 62
     0
 92
       -2
340
0
 93
        0
 40
0.045
309
GRIDFORMAT_END
 95
        2
302
GRIDFORMAT
  1
GRIDFORMAT_BEGIN
 90
        0
 91
        1
 62
     0
 92
       -2
340
0
 93
        0
 40
0.045
309
GRIDFORMAT_END
 95
        4
302
GRIDFORMAT
  1
GRIDFORMAT_BEGIN
 90
        0
 91
        1
 62
     0
 92
       -2
340
0
 93
        0
 40
0.045
309
GRIDFORMAT_END
 95
        8
302
GRIDFORMAT
  1
GRIDFORMAT_BEGIN
 90
        0
 91
        1
 62
     0
 92
       -2
340
0
 93
        0
 40
0.045
309
GRIDFORMAT_END
 95
       16
302
GRIDFORMAT
  1
GRIDFORMAT_BEGIN
 90
        0
 91
        1
 62
     0
 92
       -2
340
0
 93
        0
 40
0.045
309
GRIDFORMAT_END
 95
       32
302
GRIDFORMAT
  1
GRIDFORMAT_BEGIN
 90
        0
 91
        1
 62
     0
 92
       -2
340
0
 93
        0
 40
0.045
309
GRIDFORMAT_END
309
TABLEFORMAT_END
  1
CELLSTYLE_BEGIN
 90
        2
 91
        1
300
_HEADER
309
CELLSTYLE_END
300
CELLSTYLE
  1
TABLEFORMAT_BEGIN
 90
        5
170
     1
 91
        0
 92
        0
 62
   257
 93
        1
300
CONTENTFORMAT
  1
CONTENTFORMAT_BEGIN
 90
        0
 91
        0
 92
      512
 93
        0
300

 40
0.0
140
1.0
 94
        2
 62
     0
340
11
144
0.18
309
CONTENTFORMAT_END
171
     1
301
MARGIN
  1
CELLMARGIN_BEGIN
 40
0.06
 40
0.06
 40
0.06
 40
0.06
 40
0.18
 40
0.18
309
CELLMARGIN_END
 94
        6
 95
        1
302
GRIDFORMAT
  1
GRIDFORMAT_BEGIN
 90
        0
 91
        1
 62
     0
 92
       -2
340
0
 93
        0
 40
0.045
309
GRIDFORMAT_END
 95
        2
302
GRIDFORMAT
  1
GRIDFORMAT_BEGIN
 90
        0
 91
        1
 62
     0
 92
       -2
340
0
 93
        0
 40
0.045
309
GRIDFORMAT_END
 95
        4
302
GRIDFORMAT
  1
GRIDFORMAT_BEGIN
 90
        0
 91
        1
 62
     0
 92
       -2
340
0
 93
        0
 40
0.045
309
GRIDFORMAT_END
 95
        8
302
GRIDFORMAT
  1
GRIDFORMAT_BEGIN
 90
        0
 91
        1
 62
     0
 92
       -2
340
0
 93
        0
 40
0.045
309
GRIDFORMAT_END
 95
       16
302
GRIDFORMAT
  1
GRIDFORMAT_BEGIN
 90
        0
 91
        1
 62
     0
 92
       -2
340
0
 93
        0
 40
0.045
309
GRIDFORMAT_END
 95
       32
302
GRIDFORMAT
  1
GRIDFORMAT_BEGIN
 90
        0
 91
        1
 62
     0
 92
       -2
340
0
 93
        0
 40
0.045
309
GRIDFORMAT_END
309
TABLEFORMAT_END
  1
CELLSTYLE_BEGIN
 90
        3
 91
        2
300
_DATA
309
CELLSTYLE_END
  0
ENDSEC
  0
EOF
