  0
SECTION
  2
HEADER
  9
$ACADVER
  1
AC1021
  9
$ACADMAINTVER
 70
    25
  9
$DWGCODEPAGE
  3
ANSI_936
  9
$LASTSAVEDBY
  1
dn.ye
  9
$INSBASE
 10
0.0
 20
0.0
 30
0.0
  9
$EXTMIN
 10
4770.913536521155
 20
-17.3145831154008
 30
0.0
  9
$EXTMAX
 10
4869.913119832967
 20
52.68541688459953
 30
0.0
  9
$LIMMIN
 10
0.0
 20
0.0
  9
$LIMMAX
 10
12.0
 20
9.0
  9
$ORTHOMODE
 70
     1
  9
$REGENMODE
 70
     1
  9
$FILLMODE
 70
     1
  9
$QTEXTMODE
 70
     0
  9
$MIRRTEXT
 70
     1
  9
$LTSCALE
 40
1.0
  9
$ATTMODE
 70
     1
  9
$TEXTSIZE
 40
2.5
  9
$TRACEWID
 40
0.05
  9
$TEXTSTYLE
  7
Chinese
  9
$CLAYER
  8
DIM
  9
$CELTYPE
  6
ByLayer
  9
$CECOLOR
 62
   256
  9
$CELTSCALE
 40
1.0
  9
$DISPSILH
 70
     0
  9
$DIMSCALE
 40
1.0
  9
$DIMASZ
 40
3.0
  9
$DIMEXO
 40
0.2
  9
$DIMDLI
 40
0.2
  9
$DIMRND
 40
0.0
  9
$DIMDLE
 40
0.0
  9
$DIMEXE
 40
1.199999999999999
  9
$DIMTP
 40
0.0
  9
$DIMTM
 40
0.0
  9
$DIMTXT
 40
3.5
  9
$DIMCEN
 40
0.0
  9
$DIMTSZ
 40
0.0
  9
$DIMTOL
 70
     0
  9
$DIMLIM
 70
     0
  9
$DIMTIH
 70
     0
  9
$DIMTOH
 70
     0
  9
$DIMSE1
 70
     0
  9
$DIMSE2
 70
     0
  9
$DIMTAD
 70
     1
  9
$DIMZIN
 70
     8
  9
$DIMBLK
  1

  9
$DIMASO
 70
     1
  9
$DIMSHO
 70
     1
  9
$DIMPOST
  1

  9
$DIMAPOST
  1

  9
$DIMALT
 70
     0
  9
$DIMALTD
 70
     2
  9
$DIMALTF
 40
25.4
  9
$DIMLFAC
 40
1.0
  9
$DIMTOFL
 70
     0
  9
$DIMTVP
 40
0.0
  9
$DIMTIX
 70
     0
  9
$DIMSOXD
 70
     0
  9
$DIMSAH
 70
     0
  9
$DIMBLK1
  1

  9
$DIMBLK2
  1

  9
$DIMSTYLE
  2
01
  9
$DIMCLRD
 70
     1
  9
$DIMCLRE
 70
     6
  9
$DIMCLRT
 70
     4
  9
$DIMTFAC
 40
1.0
  9
$DIMGAP
 40
0.8
  9
$DIMJUST
 70
     0
  9
$DIMSD1
 70
     0
  9
$DIMSD2
 70
     0
  9
$DIMTOLJ
 70
     1
  9
$DIMTZIN
 70
     0
  9
$DIMALTZ
 70
     0
  9
$DIMALTTZ
 70
     0
  9
$DIMUPT
 70
     0
  9
$DIMDEC
 70
     1
  9
$DIMTDEC
 70
     1
  9
$DIMALTU
 70
     2
  9
$DIMALTTD
 70
     2
  9
$DIMTXSTY
  7
Romans字体
  9
$DIMAUNIT
 70
     0
  9
$DIMADEC
 70
     2
  9
$DIMALTRND
 40
0.0
  9
$DIMAZIN
 70
     2
  9
$DIMDSEP
 70
    46
  9
$DIMATFIT
 70
     3
  9
$DIMFRAC
 70
     0
  9
$DIMLDRBLK
  1

  9
$DIMLUNIT
 70
     2
  9
$DIMLWD
 70
    -2
  9
$DIMLWE
 70
    -2
  9
$DIMTMOVE
 70
     0
  9
$DIMFXL
 40
1.0
  9
$DIMFXLON
 70
     0
  9
$DIMJOGANG
 40
0.7853981633974483
  9
$DIMTFILL
 70
     0
  9
$DIMTFILLCLR
 70
     0
  9
$DIMARCSYM
 70
     0
  9
$DIMLTYPE
  6

  9
$DIMLTEX1
  6

  9
$DIMLTEX2
  6

  9
$LUNITS
 70
     2
  9
$LUPREC
 70
     4
  9
$SKETCHINC
 40
0.1
  9
$FILLETRAD
 40
0.5
  9
$AUNITS
 70
     0
  9
$AUPREC
 70
     0
  9
$MENU
  1
.
  9
$ELEVATION
 40
0.0
  9
$PELEVATION
 40
0.0
  9
$THICKNESS
 40
0.0
  9
$LIMCHECK
 70
     0
  9
$CHAMFERA
 40
0.5
  9
$CHAMFERB
 40
0.5
  9
$CHAMFERC
 40
1.0
  9
$CHAMFERD
 40
0.0
  9
$SKPOLY
 70
     0
  9
$TDCREATE
 40
2456524.383632987
  9
$TDUCREATE
 40
2456524.050299653
  9
$TDUPDATE
 40
2459562.465993507
  9
$TDUUPDATE
 40
2459562.132660174
  9
$TDINDWG
 40
1.0367817361
  9
$TDUSRTIMER
 40
1.0367636574
  9
$USRTIMER
 70
     1
  9
$ANGBASE
 50
0.0
  9
$ANGDIR
 70
     0
  9
$PDMODE
 70
     0
  9
$PDSIZE
 40
0.0
  9
$PLINEWID
 40
0.0
  9
$SPLFRAME
 70
     0
  9
$SPLINETYPE
 70
     6
  9
$SPLINESEGS
 70
     8
  9
$HANDSEED
  5
7EBDE
  9
$SURFTAB1
 70
     6
  9
$SURFTAB2
 70
     6
  9
$SURFTYPE
 70
     6
  9
$SURFU
 70
     6
  9
$SURFV
 70
     6
  9
$UCSBASE
  2

  9
$UCSNAME
  2

  9
$UCSORG
 10
0.0
 20
0.0
 30
0.0
  9
$UCSXDIR
 10
1.0
 20
0.0
 30
0.0
  9
$UCSYDIR
 10
0.0
 20
1.0
 30
0.0
  9
$UCSORTHOREF
  2

  9
$UCSORTHOVIEW
 70
     0
  9
$UCSORGTOP
 10
0.0
 20
0.0
 30
0.0
  9
$UCSORGBOTTOM
 10
0.0
 20
0.0
 30
0.0
  9
$UCSORGLEFT
 10
0.0
 20
0.0
 30
0.0
  9
$UCSORGRIGHT
 10
0.0
 20
0.0
 30
0.0
  9
$UCSORGFRONT
 10
0.0
 20
0.0
 30
0.0
  9
$UCSORGBACK
 10
0.0
 20
0.0
 30
0.0
  9
$PUCSBASE
  2

  9
$PUCSNAME
  2

  9
$PUCSORG
 10
0.0
 20
0.0
 30
0.0
  9
$PUCSXDIR
 10
1.0
 20
0.0
 30
0.0
  9
$PUCSYDIR
 10
0.0
 20
1.0
 30
0.0
  9
$PUCSORTHOREF
  2

  9
$PUCSORTHOVIEW
 70
     0
  9
$PUCSORGTOP
 10
0.0
 20
0.0
 30
0.0
  9
$PUCSORGBOTTOM
 10
0.0
 20
0.0
 30
0.0
  9
$PUCSORGLEFT
 10
0.0
 20
0.0
 30
0.0
  9
$PUCSORGRIGHT
 10
0.0
 20
0.0
 30
0.0
  9
$PUCSORGFRONT
 10
0.0
 20
0.0
 30
0.0
  9
$PUCSORGBACK
 10
0.0
 20
0.0
 30
0.0
  9
$USERI1
 70
     0
  9
$USERI2
 70
     0
  9
$USERI3
 70
     0
  9
$USERI4
 70
     0
  9
$USERI5
 70
     0
  9
$USERR1
 40
0.0
  9
$USERR2
 40
0.0
  9
$USERR3
 40
0.0
  9
$USERR4
 40
0.0
  9
$USERR5
 40
1.5
  9
$WORLDVIEW
 70
     1
  9
$SHADEDGE
 70
     3
  9
$SHADEDIF
 70
    70
  9
$TILEMODE
 70
     1
  9
$MAXACTVP
 70
    64
  9
$PINSBASE
 10
0.0
 20
0.0
 30
0.0
  9
$PLIMCHECK
 70
     0
  9
$PEXTMIN
 10
1.000000000000000E+20
 20
1.000000000000000E+20
 30
1.000000000000000E+20
  9
$PEXTMAX
 10
-1.000000000000000E+20
 20
-1.000000000000000E+20
 30
-1.000000000000000E+20
  9
$PLIMMIN
 10
0.0
 20
0.0
  9
$PLIMMAX
 10
12.0
 20
9.0
  9
$UNITMODE
 70
     0
  9
$VISRETAIN
 70
     1
  9
$PLINEGEN
 70
     0
  9
$PSLTSCALE
 70
     1
  9
$TREEDEPTH
 70
  3020
  9
$CMLSTYLE
  2
Standard
  9
$CMLJUST
 70
     0
  9
$CMLSCALE
 40
1.0
  9
$PROXYGRAPHICS
 70
     1
  9
$MEASUREMENT
 70
     0
  9
$CELWEIGHT
370
    -1
  9
$ENDCAPS
280
     0
  9
$JOINSTYLE
280
     0
  9
$LWDISPLAY
290
     0
  9
$INSUNITS
 70
     4
  9
$HYPERLINKBASE
  1

  9
$STYLESHEET
  1
monochrome.ctb
  9
$XEDIT
290
     1
  9
$CEPSNTYPE
380
     0
  9
$PSTYLEMODE
290
     1
  9
$FINGERPRINTGUID
  2
{4A02065B-8BB3-4A96-9036-502DC906C165}
  9
$VERSIONGUID
  2
{88ABBA28-12DE-4F67-8767-D6417C4B0134}
  9
$EXTNAMES
290
     1
  9
$PSVPSCALE
 40
0.0
  9
$OLESTARTUP
290
     0
  9
$SORTENTS
280
   127
  9
$INDEXCTL
280
     0
  9
$HIDETEXT
280
     0
  9
$XCLIPFRAME
290
     0
  9
$HALOGAP
280
     0
  9
$OBSCOLOR
 70
   257
  9
$OBSLTYPE
280
     0
  9
$INTERSECTIONDISPLAY
280
     0
  9
$INTERSECTIONCOLOR
 70
   257
  9
$DIMASSOC
280
     1
  9
$PROJECTNAME
  1

  9
$CAMERADISPLAY
290
     0
  9
$LENSLENGTH
 40
50.0
  9
$CAMERAHEIGHT
 40
0.0
  9
$STEPSPERSEC
 40
2.0
  9
$STEPSIZE
 40
6.0
  9
$3DDWFPREC
 40
2.0
  9
$PSOLWIDTH
 40
0.25
  9
$PSOLHEIGHT
 40
4.0
  9
$LOFTANG1
 40
1.570796326794896
  9
$LOFTANG2
 40
1.570796326794896
  9
$LOFTMAG1
 40
0.0
  9
$LOFTMAG2
 40
0.0
  9
$LOFTPARAM
 70
     7
  9
$LOFTNORMALS
280
     1
  9
$LATITUDE
 40
37.795
  9
$LONGITUDE
 40
-122.394
  9
$NORTHDIRECTION
 40
0.0
  9
$TIMEZONE
 70
 -8000
  9
$LIGHTGLYPHDISPLAY
280
     1
  9
$TILEMODELIGHTSYNCH
280
     1
  9
$CMATERIAL
347
4FE6
  9
$SOLIDHIST
280
     1
  9
$SHOWHIST
280
     1
  9
$DWFFRAME
280
     2
  9
$DGNFRAME
280
     0
  9
$REALWORLDSCALE
290
     1
  9
$INTERFERECOLOR
 62
     1
  9
$INTERFEREOBJVS
345
33
  9
$INTERFEREVPVS
346
30
  9
$CSHADOW
280
     0
  9
$SHADOWPLANELOCATION
 40
0.0
  0
ENDSEC
  0
SECTION
  2
CLASSES
  0
CLASS
  1
ACDBDICTIONARYWDFLT
  2
AcDbDictionaryWithDefault
  3
ObjectDBX Classes
 90
        0
 91
        1
280
     0
281
     0
  0
CLASS
  1
VISUALSTYLE
  2
AcDbVisualStyle
  3
ObjectDBX Classes
 90
     4095
 91
       19
280
     0
281
     0
  0
CLASS
  1
MATERIAL
  2
AcDbMaterial
  3
ObjectDBX Classes
 90
     1153
 91
        3
280
     0
281
     0
  0
CLASS
  1
TABLESTYLE
  2
AcDbTableStyle
  3
ObjectDBX Classes
 90
     4095
 91
        1
280
     0
281
     0
  0
CLASS
  1
SCALE
  2
AcDbScale
  3
ObjectDBX Classes
 90
     1153
 91
       33
280
     0
281
     0
  0
CLASS
  1
MLEADERSTYLE
  2
AcDbMLeaderStyle
  3
ACDB_MLEADERSTYLE_CLASS
 90
     4095
 91
        1
280
     0
281
     0
  0
CLASS
  1
CELLSTYLEMAP
  2
AcDbCellStyleMap
  3
ObjectDBX Classes
 90
     1152
 91
        2
280
     0
281
     0
  0
CLASS
  1
DICTIONARYVAR
  2
AcDbDictionaryVar
  3
ObjectDBX Classes
 90
        0
 91
        9
280
     0
281
     0
  0
CLASS
  1
SORTENTSTABLE
  2
AcDbSortentsTable
  3
ObjectDBX Classes
 90
        0
 91
        1
280
     0
281
     0
  0
CLASS
  1
ACAD_EVALUATION_GRAPH
  2
AcDbEvalGraph
  3
ObjectDBX Classes
 90
     1153
 91
        2
280
     0
281
     0
  0
CLASS
  1
ACAECUSTOBJ
  2
AcAeEditorObj
  3
AcAeEditorObj
 90
     1024
 91
        2
280
     0
281
     0
  0
CLASS
  1
ACDB_DYNAMICBLOCKPURGEPREVENTER_VERSION
  2
AcDbDynamicBlockPurgePreventer
  3
ObjectDBX Classes
 90
     1153
 91
        2
280
     0
281
     0
  0
CLASS
  1
MENTALRAYRENDERSETTINGS
  2
AcDbMentalRayRenderSettings
  3
SCENEOE
 90
     1024
 91
        1
280
     0
281
     0
  0
CLASS
  1
ACDB_BLOCKREPRESENTATION_DATA
  2
AcDbBlockRepresentationData
  3
ObjectDBX Classes
 90
     1153
 91
        0
280
     0
281
     0
  0
CLASS
  1
VLO-VL
  2
vlo_VL
  3
VL|AutoLISP based application
 90
      129
 91
        1
280
     0
281
     0
  0
CLASS
  1
DIMASSOC
  2
AcDbDimAssoc
  3
"AcDbDimAssoc|Product Desc:     AcDim ARX App For Dimension|Company:          Autodesk, Inc.|WEB Address:      www.autodesk.com"
 90
        0
 91
        0
280
     0
281
     0
  0
ENDSEC
  0
SECTION
  2
TABLES
  0
TABLE
  2
VPORT
  5
8
102
{ACAD_XDICTIONARY
360
50EE
102
}
330
0
100
AcDbSymbolTable
 70
     1
  0
VPORT
  5
29
330
8
100
AcDbSymbolTableRecord
100
AcDbViewportTableRecord
  2
*Active
 70
     0
 10
0.0
 20
0.0
 11
1.0
 21
1.0
 12
4718.069324771658
 22
-131.3394425352638
 13
0.0
 23
0.0
 14
0.5
 24
0.5
 15
0.5
 25
0.5
 16
0.0
 26
0.0
 36
1.0
 17
104.9654968719086
 27
148.5022307685978
 37
0.0
 40
76.50061058478906
 41
2.205495818399044
 42
50.0
 43
0.0
 44
0.0
 50
0.0
 51
0.0
 71
     0
 72
 20000
 73
     1
 74
     3
 75
     0
 76
     0
 77
     0
 78
     0
281
     0
 65
     1
110
0.0
120
0.0
130
0.0
111
1.0
121
0.0
131
0.0
112
0.0
122
1.0
132
0.0
 79
     0
146
0.0
348
2F
 60
     3
 61
     5
292
     1
282
     1
141
0.0
142
0.0
 63
   250
421
  3355443
  0
ENDTAB
  0
TABLE
  2
LTYPE
  5
5
330
0
100
AcDbSymbolTable
 70
     2
  0
LTYPE
  5
14
330
5
100
AcDbSymbolTableRecord
100
AcDbLinetypeTableRecord
  2
ByBlock
 70
     0
  3

 72
    65
 73
     0
 40
0.0
  0
LTYPE
  5
15
330
5
100
AcDbSymbolTableRecord
100
AcDbLinetypeTableRecord
  2
ByLayer
 70
     0
  3

 72
    65
 73
     0
 40
0.0
  0
LTYPE
  5
16
330
5
100
AcDbSymbolTableRecord
100
AcDbLinetypeTableRecord
  2
Continuous
 70
     0
  3
Solid line
 72
    65
 73
     0
 40
0.0
  0
LTYPE
  5
67BA
330
5
100
AcDbSymbolTableRecord
100
AcDbLinetypeTableRecord
  2
CENTER
 70
     0
  3
Center ____ _ ____ _ ____ _ ____ _ ____ _ ____
 72
    65
 73
     4
 40
2.0
 49
1.25
 74
     0
 49
-0.25
 74
     0
 49
0.25
 74
     0
 49
-0.25
 74
     0
  0
ENDTAB
  0
TABLE
  2
LAYER
  5
2
102
{ACAD_XDICTIONARY
360
50B8
102
}
330
0
100
AcDbSymbolTable
 70
    10
  0
LAYER
  5
10
102
{ACAD_XDICTIONARY
360
50D0
102
}
330
2
100
AcDbSymbolTableRecord
100
AcDbLayerTableRecord
  2
0
 70
     0
 62
     7
  6
Continuous
370
    30
390
F
347
4FF6
  0
LAYER
  5
3B
102
{ACAD_XDICTIONARY
360
50D2
102
}
330
2
100
AcDbSymbolTableRecord
100
AcDbLayerTableRecord
  2
图层 1
 70
     0
 62
     7
  6
Continuous
370
    -3
390
F
347
4FF6
  0
LAYER
  5
50AE
102
{ACAD_XDICTIONARY
360
50AF
102
}
330
2
100
AcDbSymbolTableRecord
100
AcDbLayerTableRecord
  2
图框
 70
     0
 62
     7
  6
Continuous
370
    20
390
F
347
4FF6
  0
LAYER
  5
5141
330
2
100
AcDbSymbolTableRecord
100
AcDbLayerTableRecord
  2
Defpoints
 70
     0
 62
     7
  6
Continuous
290
     0
370
    -3
390
F
347
4FF6
  0
LAYER
  5
5144
330
2
100
AcDbSymbolTableRecord
100
AcDbLayerTableRecord
  2
DIM
 70
     0
 62
     3
  6
Continuous
370
    15
390
F
347
4FF6
1001
AcAecLayerStandard
1000

1000

  0
LAYER
  5
52F3
330
2
100
AcDbSymbolTableRecord
100
AcDbLayerTableRecord
  2
打标文字
 70
     0
 62
     3
  6
Continuous
370
    20
390
F
347
4FF6
  0
LAYER
  5
67B7
330
2
100
AcDbSymbolTableRecord
100
AcDbLayerTableRecord
  2
CEN
 70
     0
 62
     1
  6
CENTER
370
    15
390
F
347
4FF6
1001
AcAecLayerStandard
1000

1000

  0
LAYER
  5
7D838
330
2
100
AcDbSymbolTableRecord
100
AcDbLayerTableRecord
  2
hatch
 70
     0
 62
    56
  6
Continuous
370
     0
390
F
347
4FF6
  0
LAYER
  5
7E260
330
2
100
AcDbSymbolTableRecord
100
AcDbLayerTableRecord
  2
文本
 70
     0
 62
     4
  6
Continuous
370
    13
390
F
347
4FF6
1001
AcAecLayerStandard
1000

1000

  0
LAYER
  5
7E369
330
2
100
AcDbSymbolTableRecord
100
AcDbLayerTableRecord
  2
M40-AGF-1-5-DXF_CONTINUOUS_LINE
 70
     0
 62
     7
  6
Continuous
370
    -3
390
F
347
4FF6
  0
ENDTAB
  0
TABLE
  2
STYLE
  5
3
330
0
100
AcDbSymbolTable
 70
     6
  0
STYLE
  5
11
330
3
100
AcDbSymbolTableRecord
100
AcDbTextStyleTableRecord
  2
Standard
 70
     0
 40
0.0
 41
0.75
 50
0.0
 71
     0
 42
0.2
  3

  4

1001
ACAD
1000
仿宋_GB2312
1071
    34353
  0
STYLE
  5
FD48
330
3
100
AcDbSymbolTableRecord
100
AcDbTextStyleTableRecord
  2
Romans字体
 70
     0
 40
0.0
 41
0.75
 50
0.0
 71
     0
 42
0.2
  3
romans.shx
  4

  0
STYLE
  5
11080
330
3
100
AcDbSymbolTableRecord
100
AcDbTextStyleTableRecord
  2
工程字
 70
     0
 40
0.0
 41
1.0
 50
0.0
 71
     0
 42
3.5
  3
gbenor.shx
  4
gbcbig.shx
  0
STYLE
  5
11081
330
3
100
AcDbSymbolTableRecord
100
AcDbTextStyleTableRecord
  2
Chinese
 70
     0
 40
0.0
 41
1.0
 50
0.0
 71
     0
 42
2.5
  3

  4

1001
ACAD
1000
仿宋_GB2312
1071
    34353
  0
ENDTAB
  0
TABLE
  2
VIEW
  5
6
330
0
100
AcDbSymbolTable
 70
     0
  0
ENDTAB
  0
TABLE
  2
UCS
  5
7
330
0
100
AcDbSymbolTable
 70
     0
  0
ENDTAB
  0
TABLE
  2
APPID
  5
9
330
0
100
AcDbSymbolTable
 70
    19
  0
APPID
  5
12
330
9
100
AcDbSymbolTableRecord
100
AcDbRegAppTableRecord
  2
ACAD
 70
     0
  0
APPID
  5
5024
330
9
100
AcDbSymbolTableRecord
100
AcDbRegAppTableRecord
  2
ACAD_MLEADERVER
 70
     0
  0
APPID
  5
50B5
330
9
100
AcDbSymbolTableRecord
100
AcDbRegAppTableRecord
  2
AcDbDynamicBlockGUID
 70
     0
  0
APPID
  5
50B6
330
9
100
AcDbSymbolTableRecord
100
AcDbRegAppTableRecord
  2
AcDbBlockRepETag
 70
     0
  0
APPID
  5
50B7
330
9
100
AcDbSymbolTableRecord
100
AcDbRegAppTableRecord
  2
ACAD_PSEXT
 70
     0
  0
APPID
  5
50CF
330
9
100
AcDbSymbolTableRecord
100
AcDbRegAppTableRecord
  2
AcadAnnoPO
 70
     0
  0
APPID
  5
5146
330
9
100
AcDbSymbolTableRecord
100
AcDbRegAppTableRecord
  2
AcAecLayerStandard
 70
     0
  0
APPID
  5
5147
330
9
100
AcDbSymbolTableRecord
100
AcDbRegAppTableRecord
  2
ACAD_DSTYLE_DIMJAG
 70
     0
  0
APPID
  5
5148
330
9
100
AcDbSymbolTableRecord
100
AcDbRegAppTableRecord
  2
ACAD_DSTYLE_DIMTALN
 70
     0
  0
APPID
  5
52AD
330
9
100
AcDbSymbolTableRecord
100
AcDbRegAppTableRecord
  2
ACAUTHENVIRON
 70
     0
  0
APPID
  5
52B0
330
9
100
AcDbSymbolTableRecord
100
AcDbRegAppTableRecord
  2
AcDbDynamicBlockTrueName
 70
     0
  0
APPID
  5
67C6
330
9
100
AcDbSymbolTableRecord
100
AcDbRegAppTableRecord
  2
ACAD_EXEMPT_FROM_CAD_STANDARDS
 70
     0
  0
APPID
  5
6838
330
9
100
AcDbSymbolTableRecord
100
AcDbRegAppTableRecord
  2
ACAD_NAV_VCDISPLAY
 70
     0
  0
APPID
  5
70A9
330
9
100
AcDbSymbolTableRecord
100
AcDbRegAppTableRecord
  2
DCO15
 70
     0
  0
APPID
  5
8725
330
9
100
AcDbSymbolTableRecord
100
AcDbRegAppTableRecord
  2
AcDbBlockRepBTag
 70
     0
  0
APPID
  5
FE64
330
9
100
AcDbSymbolTableRecord
100
AcDbRegAppTableRecord
  2
ACAD_DSTYLE_DIMRADIAL_EXTENSION
 70
     0
  0
APPID
  5
FF93
330
9
100
AcDbSymbolTableRecord
100
AcDbRegAppTableRecord
  2
ACAD_DSTYLE_DIMBREAK
 70
     0
  0
APPID
  5
1872B
330
9
100
AcDbSymbolTableRecord
100
AcDbRegAppTableRecord
  2
ACAD_DSTYLE_DIMINSPECT
 70
     0
  0
APPID
  5
5B245
330
9
100
AcDbSymbolTableRecord
100
AcDbRegAppTableRecord
  2
AcDbAttr
 70
     0
  0
ENDTAB
  0
TABLE
  2
DIMSTYLE
  5
A
330
0
100
AcDbSymbolTable
 70
     4
100
AcDbDimStyleTable
 71
     2
340
5145
340
27
  0
DIMSTYLE
105
27
330
A
100
AcDbSymbolTableRecord
100
AcDbDimStyleTableRecord
  2
Standard
 70
     0
340
11
  0
DIMSTYLE
105
5145
102
{ACAD_REACTORS
330
7E51B
330
7E533
330
7E58E
330
7E59C
330
7E5AA
102
}
330
A
100
AcDbSymbolTableRecord
100
AcDbDimStyleTableRecord
  2
01
 70
     0
 41
3.0
 42
0.2
 43
0.2
 44
1.199999999999999
 73
     0
 74
     0
 77
     1
 78
     8
 79
     2
140
3.5
141
0.0
147
0.8
176
     1
177
     6
178
     4
179
     2
271
     1
272
     1
340
FD48
1001
ACAD_DSTYLE_DIMJAG
1070
   388
1040
1.5
1001
ACAD_DSTYLE_DIMTALN
1070
   392
1070
     0
  0
ENDTAB
  0
TABLE
  2
BLOCK_RECORD
  5
1
330
0
100
AcDbSymbolTable
 70
    11
  0
BLOCK_RECORD
  5
1F
102
{ACAD_XDICTIONARY
360
67C0
102
}
330
1
100
AcDbSymbolTableRecord
100
AcDbBlockTableRecord
  2
*Model_Space
340
22
 70
     0
280
     1
281
     0
  0
BLOCK_RECORD
  5
1B
330
1
100
AcDbSymbolTableRecord
100
AcDbBlockTableRecord
  2
*Paper_Space
340
1E
 70
     0
280
     1
281
     0
  0
BLOCK_RECORD
  5
23
330
1
100
AcDbSymbolTableRecord
100
AcDbBlockTableRecord
  2
*Paper_Space0
340
26
 70
     0
280
     1
281
     0
  0
BLOCK_RECORD
  5
10FE8
102
{ACAD_XDICTIONARY
360
7EBAB
102
}
330
1
100
AcDbSymbolTableRecord
100
AcDbBlockTableRecord
  2
A4图框-NEW
340
0
310
2800000020000000200000000100080000000000000400000000000000000000000000000000000000000000000080000080000000808000800000008000800080800000C0C0C000C0DCC000F0CAA6000020400000206000002080000020A0000020C0000020E00000400000004020000040400000406000004080000040A0
310
000040C0000040E00000600000006020000060400000606000006080000060A0000060C0000060E00000800000008020000080400000806000008080000080A0000080C0000080E00000A0000000A0200000A0400000A0600000A0800000A0A00000A0C00000A0E00000C0000000C0200000C0400000C0600000C0800000C0
310
A00000C0C00000C0E00000E0000000E0200000E0400000E0600000E0800000E0A00000E0C00000E0E00040000000400020004000400040006000400080004000A0004000C0004000E00040200000402020004020400040206000402080004020A0004020C0004020E000404000004040200040404000404060004040800040
310
40A0004040C0004040E00040600000406020004060400040606000406080004060A0004060C0004060E00040800000408020004080400040806000408080004080A0004080C0004080E00040A0000040A0200040A0400040A0600040A0800040A0A00040A0C00040A0E00040C0000040C0200040C0400040C0600040C08000
310
40C0A00040C0C00040C0E00040E0000040E0200040E0400040E0600040E0800040E0A00040E0C00040E0E00080000000800020008000400080006000800080008000A0008000C0008000E00080200000802020008020400080206000802080008020A0008020C0008020E00080400000804020008040400080406000804080
310
008040A0008040C0008040E00080600000806020008060400080606000806080008060A0008060C0008060E00080800000808020008080400080806000808080008080A0008080C0008080E00080A0000080A0200080A0400080A0600080A0800080A0A00080A0C00080A0E00080C0000080C0200080C0400080C0600080C0
310
800080C0A00080C0C00080C0E00080E0000080E0200080E0400080E0600080E0800080E0A00080E0C00080E0E000C0000000C0002000C0004000C0006000C0008000C000A000C000C000C000E000C0200000C0202000C0204000C0206000C0208000C020A000C020C000C020E000C0400000C0402000C0404000C0406000C0
310
408000C040A000C040C000C040E000C0600000C0602000C0604000C0606000C0608000C060A000C060C000C060E000C0800000C0802000C0804000C0806000C0808000C080A000C080C000C080E000C0A00000C0A02000C0A04000C0A06000C0A08000C0A0A000C0A0C000C0A0E000C0C00000C0C02000C0C04000C0C06000
310
C0C08000C0C0A000F0FBFF00A4A0A000808080000000FF0000FF000000FFFF00FF000000FF00FF00FFFF0000FFFFFF0000000000000000000000000000000000000000000000000000000000000000000000000000000000000000000000000000000000000000000000000000000000000000000000000000000000000000
310
000000000000000000000000000000000000000000000000000000000000000000000000000000000000000000000000000000000000000000000000000000000000000000000000000000000000000000000000000000000000000000000000000000000000000000000000000000000000F9F9F9F9F9F9F9F9F9F9F9F9F9
310
F9F9F9F9F9F9F9F9F9F9F9F9F9F9FF00000000F9FF000000000000000000FFFFFFFFFFFFFFFFFFFFFFFFF9FAFAFAFF00000000F9FF000000000000000000FFFFFFFFFFFFFFFFFFFFFFFFFFFFFFFFFF00000000F9FD000000000000000000FFFFFFFFFFFFFFFFFFFFFFFFFFFFFFFFFF00000000F9FF000000000000000000FF
310
FFFFFFFFFFFFFFFFFFFFFFFFFFFFFFFF00000000F9FD000000000000000000FFFFFFFFFFFFFFFFFFFFFFFFFFFFFFFFFF00000000F9FF00000000000000000000000000000000000000000000000000FF00000000F9FD00000000000000000000000000000000000000000000000000FF00000000F9FF000000000000000000
310
00000000000000000000000000000000FF00000000F9FD00000000000000000000000000000000000000000000000000FF00000000F9FF00000000000000000000000000000000000000000000000000FF00000000F9FD00000000000000000000000000000000000000000000000000FF00000000F9FD0000000000000000
310
0000000000000000000000000000000000FF00000000F9FF00000000000000000000000000000000000000000000000000FF00000000F9FD00000000000000000000000000000000000000000000000000FF00000000F9FF00000000000000000000000000000000000000000000000000FF00000000F9FD00000000000000
310
000000000000000000000000000000000000FF00000000F9FF00000000000000000000000000000000000000000000000000FF00000000F9FFFFFFFFFFFFFFFFFFFFFFFFFFFFFFFFFFFFFFFFFFFFFFFFFFFFFF00000000F9FFFFFFF9F9F9F9F9F9F9F9F9F9F9F9F9F9F9F9F9F9F9F9F9F9F9F9000000000000000000000000
310
00000000000000000000000000000000000000000000000000000000000000000000000000000000000000000000000000000000000000000000000000000000000000000000000000000000000000000000000000000000000000000000000000000000000000000000000000000000000000000000000000000000000000
310
0000000000000000000000000000000000000000000000000000000000000000000000000000000000000000000000000000000000000000
102
{BLKREFS
331
7E7D4
102
}
 70
     4
280
     1
281
     0
1001
AcDbDynamicBlockGUID
1000
{F0F7712F-D40B-42D1-976F-3A6729ADBB76}
1001
AcDbBlockRepETag
1070
     1
1071
      150
  0
BLOCK_RECORD
  5
7E51C
330
1
100
AcDbSymbolTableRecord
100
AcDbBlockTableRecord
  2
*D2
340
0
 70
     0
280
     1
281
     0
  0
BLOCK_RECORD
  5
7E534
330
1
100
AcDbSymbolTableRecord
100
AcDbBlockTableRecord
  2
*D3
340
0
 70
     0
280
     1
281
     0
  0
BLOCK_RECORD
  5
7E58F
330
1
100
AcDbSymbolTableRecord
100
AcDbBlockTableRecord
  2
*D4
340
0
 70
     0
280
     1
281
     0
  0
BLOCK_RECORD
  5
7E59D
330
1
100
AcDbSymbolTableRecord
100
AcDbBlockTableRecord
  2
*D5
340
0
 70
     0
280
     1
281
     0
  0
BLOCK_RECORD
  5
7E5AB
330
1
100
AcDbSymbolTableRecord
100
AcDbBlockTableRecord
  2
*D6
340
0
 70
     0
280
     1
281
     0
  0
ENDTAB
  0
ENDSEC
  0
SECTION
  2
BLOCKS
  0
BLOCK
  5
20
330
1F
100
AcDbEntity
  8
0
100
AcDbBlockBegin
  2
*Model_Space
 70
     0
 10
0.0
 20
0.0
 30
0.0
  3
*Model_Space
  1

  0
ENDBLK
  5
21
330
1F
100
AcDbEntity
  8
0
100
AcDbBlockEnd
  0
BLOCK
  5
1C
330
1B
100
AcDbEntity
 67
     1
  8
0
100
AcDbBlockBegin
  2
*Paper_Space
 70
     0
 10
0.0
 20
0.0
 30
0.0
  3
*Paper_Space
  1

  0
ENDBLK
  5
1D
330
1B
100
AcDbEntity
 67
     1
  8
0
100
AcDbBlockEnd
  0
BLOCK
  5
24
330
23
100
AcDbEntity
 67
     1
  8
0
100
AcDbBlockBegin
  2
*Paper_Space0
 70
     0
 10
0.0
 20
0.0
 30
0.0
  3
*Paper_Space0
  1

  0
ENDBLK
  5
25
330
23
100
AcDbEntity
 67
     1
  8
0
100
AcDbBlockEnd
  0
BLOCK
  5
10FEA
330
10FE8
100
AcDbEntity
  8
0
100
AcDbBlockBegin
  2
A4图框-NEW
 70
     0
 10
0.0
 20
0.0
 30
0.0
  3
A4图框-NEW
  1

  0
MTEXT
  5
7EB17
102
{ACAD_XDICTIONARY
360
7EBC6
102
}
330
10FE8
100
AcDbEntity
  8
图框
 62
     3
100
AcDbMText
 10
967.6594956750133
 20
499.7664151964293
 30
0.0
 40
2.985513575034151
 41
15.50176341157864
 46
6.292658374511018
 71
     5
 72
     5
  1
ZM LIN
  7
Romans字体
 73
     1
 44
1.0
1001
AcDbBlockRepETag
1070
     1
1071
        0
1005
7EB17
1001
ACAD
1000
MTEXTBEGIN
1070
    73
1070
     1
1070
    44
1040
1.0
1070
    74
1070
     0
1000
MTEXTEND
1000
ACAD_MTEXT_DEFINED_HEIGHT_BEGIN
1070
    46
1040
6.292658374511018
1000
ACAD_MTEXT_DEFINED_HEIGHT_END
  0
MTEXT
  5
7EB18
330
10FE8
100
AcDbEntity
  8
图框
 62
     3
100
AcDbMText
 10
983.041569333247
 20
499.7664151964293
 30
0.0
 40
2.487927979195124
 41
15.26238390489051
 46
6.292658374511042
 71
     5
 72
     5
  1
{\W0.7;07.04.2016}
  7
Romans字体
 73
     1
 44
1.0
1001
AcDbBlockRepETag
1070
     1
1071
        1
1005
7EB18
1001
ACAD
1000
MTEXTBEGIN
1070
    73
1070
     1
1070
    44
1040
1.0
1070
    74
1070
     0
1000
MTEXTEND
1000
ACAD_MTEXT_DEFINED_HEIGHT_BEGIN
1070
    46
1040
6.292658374511042
1000
ACAD_MTEXT_DEFINED_HEIGHT_END
  0
MTEXT
  5
7EB19
330
10FE8
100
AcDbEntity
  8
图框
 62
     3
100
AcDbMText
 10
1012.477254728976
 20
487.1810984474071
 30
0.0
 40
2.985513575034151
 41
17.64876416884615
 46
6.292658374511455
 71
     5
 72
     5
  1
YY LUO
  7
Romans字体
 73
     1
 44
1.0
1001
AcDbBlockRepETag
1070
     1
1071
        2
1005
7EB19
1001
ACAD
1000
MTEXTBEGIN
1070
    73
1070
     1
1070
    44
1040
1.0
1070
    74
1070
     0
1000
MTEXTEND
1000
ACAD_MTEXT_DEFINED_HEIGHT_BEGIN
1070
    46
1040
6.292658374511455
1000
ACAD_MTEXT_DEFINED_HEIGHT_END
  0
MTEXT
  5
7EB1A
330
10FE8
100
AcDbEntity
  8
图框
 62
     3
100
AcDbMText
 10
1028.977802139886
 20
487.1810984474071
 30
0.0
 40
2.487927979195124
 41
15.35233065297276
 46
6.292658374511495
 71
     5
 72
     5
  1
{\W0.7;07.04.2016}
  7
Romans字体
 73
     1
 44
1.0
1001
AcDbBlockRepETag
1070
     1
1071
        3
1005
7EB1A
1001
ACAD
1000
MTEXTBEGIN
1070
    73
1070
     1
1070
    44
1040
1.0
1070
    74
1070
     0
1000
MTEXTEND
1000
ACAD_MTEXT_DEFINED_HEIGHT_BEGIN
1070
    46
1040
6.292658374511495
1000
ACAD_MTEXT_DEFINED_HEIGHT_END
  0
MTEXT
  5
7EB1B
330
10FE8
100
AcDbEntity
  8
图框
 62
     3
100
AcDbMText
 10
1110.122306614152
 20
526.8006839312707
 30
0.0
 40
2.985513575034151
 41
33.61239199242139
 46
9.05696734704178
 71
     5
 72
     5
  1
-
  7
Romans字体
 73
     1
 44
1.0
1001
AcDbBlockRepETag
1070
     1
1071
        6
1005
7EB1B
1001
ACAD
1000
MTEXTBEGIN
1070
    73
1070
     1
1070
    44
1040
1.0
1070
    74
1070
     0
1000
MTEXTEND
1000
ACAD_MTEXT_DEFINED_HEIGHT_BEGIN
1070
    46
1040
9.05696734704178
1000
ACAD_MTEXT_DEFINED_HEIGHT_END
  0
MTEXT
  5
7EB1C
330
10FE8
100
AcDbEntity
  8
图框
 62
     3
100
AcDbMText
 10
1110.122306614152
 20
500.2775205517162
 30
0.0
 40
2.985513575034151
 41
33.61239199242139
 46
8.871557304763419
 71
     5
 72
     5
  1
-
  7
Romans字体
 73
     1
 44
1.0
1001
AcDbBlockRepETag
1070
     1
1071
        7
1005
7EB1C
1001
ACAD
1000
MTEXTBEGIN
1070
    73
1070
     1
1070
    44
1040
1.0
1070
    74
1070
     0
1000
MTEXTEND
1000
ACAD_MTEXT_DEFINED_HEIGHT_BEGIN
1070
    46
1040
8.871557304763419
1000
ACAD_MTEXT_DEFINED_HEIGHT_END
  0
MTEXT
  5
7EB1D
330
10FE8
100
AcDbEntity
  8
图框
 62
     3
100
AcDbMText
 10
967.6594956750133
 20
493.4737568219182
 30
0.0
 40
2.985513575034151
 41
15.50176341157864
 46
6.292658374510335
 71
     5
 72
     5
  1
YY LUO
  7
Romans字体
 73
     1
 44
1.0
1001
AcDbBlockRepETag
1070
     1
1071
        8
1005
7EB1D
1001
ACAD
1000
MTEXTBEGIN
1070
    73
1070
     1
1070
    44
1040
1.0
1070
    74
1070
     0
1000
MTEXTEND
1000
ACAD_MTEXT_DEFINED_HEIGHT_BEGIN
1070
    46
1040
6.292658374510335
1000
ACAD_MTEXT_DEFINED_HEIGHT_END
  0
MTEXT
  5
7EB1E
330
10FE8
100
AcDbEntity
  8
图框
 62
     3
100
AcDbMText
 10
983.041569333247
 20
493.2441970450405
 30
0.0
 40
2.487927979195124
 41
15.26238390489051
 46
6.751777928266487
 71
     5
 72
     5
  1
{\W0.7;07.04.2016}
  7
Romans字体
 73
     1
 44
1.0
1001
AcDbBlockRepETag
1070
     1
1071
        9
1005
7EB1E
1001
ACAD
1000
MTEXTBEGIN
1070
    73
1070
     1
1070
    44
1040
1.0
1070
    74
1070
     0
1000
MTEXTEND
1000
ACAD_MTEXT_DEFINED_HEIGHT_BEGIN
1070
    46
1040
6.751777928266487
1000
ACAD_MTEXT_DEFINED_HEIGHT_END
  0
MTEXT
  5
7EB1F
330
10FE8
100
AcDbEntity
  8
图框
 62
     3
100
AcDbMText
 10
1012.477254728976
 20
499.7664151964291
 30
0.0
 40
2.985513575034151
 41
17.64876416884615
 46
6.292658374511397
 71
     5
 72
     5
  1
-
  7
Romans字体
 73
     1
 44
1.0
1001
AcDbBlockRepETag
1070
     1
1071
       10
1005
7EB1F
1001
ACAD
1000
MTEXTBEGIN
1070
    73
1070
     1
1070
    44
1040
1.0
1070
    74
1070
     0
1000
MTEXTEND
1000
ACAD_MTEXT_DEFINED_HEIGHT_BEGIN
1070
    46
1040
6.292658374511397
1000
ACAD_MTEXT_DEFINED_HEIGHT_END
  0
MTEXT
  5
7EB20
330
10FE8
100
AcDbEntity
  8
图框
 62
     3
100
AcDbMText
 10
1028.977802139886
 20
499.7664151964289
 30
0.0
 40
2.487927979195124
 41
15.35233065297265
 46
6.292658374511382
 71
     5
 72
     5
  1
-
  7
Romans字体
 73
     1
 44
1.0
1001
AcDbBlockRepETag
1070
     1
1071
       11
1005
7EB20
1001
ACAD
1000
MTEXTBEGIN
1070
    73
1070
     1
1070
    44
1040
1.0
1070
    74
1070
     0
1000
MTEXTEND
1000
ACAD_MTEXT_DEFINED_HEIGHT_BEGIN
1070
    46
1040
6.292658374511382
1000
ACAD_MTEXT_DEFINED_HEIGHT_END
  0
MTEXT
  5
7EB21
330
10FE8
100
AcDbEntity
  8
图框
 62
     3
100
AcDbMText
 10
967.6594956750133
 20
487.1810984474071
 30
0.0
 40
2.985513575034151
 41
15.50176341157863
 46
6.292658374511478
 71
     5
 72
     5
  1
-
  7
Romans字体
 73
     1
 44
1.0
1001
AcDbBlockRepETag
1070
     1
1071
       12
1005
7EB21
1001
ACAD
1000
MTEXTBEGIN
1070
    73
1070
     1
1070
    44
1040
1.0
1070
    74
1070
     0
1000
MTEXTEND
1000
ACAD_MTEXT_DEFINED_HEIGHT_BEGIN
1070
    46
1040
6.292658374511478
1000
ACAD_MTEXT_DEFINED_HEIGHT_END
  0
MTEXT
  5
7EB22
330
10FE8
100
AcDbEntity
  8
图框
 62
     3
100
AcDbMText
 10
983.041569333247
 20
487.1810984474071
 30
0.0
 40
2.487927979195124
 41
15.26238390489062
 46
6.292658374511495
 71
     5
 72
     5
  1
-
  7
Romans字体
 73
     1
 44
1.0
1001
AcDbBlockRepETag
1070
     1
1071
       13
1005
7EB22
1001
ACAD
1000
MTEXTBEGIN
1070
    73
1070
     1
1070
    44
1040
1.0
1070
    74
1070
     0
1000
MTEXTEND
1000
ACAD_MTEXT_DEFINED_HEIGHT_BEGIN
1070
    46
1040
6.292658374511495
1000
ACAD_MTEXT_DEFINED_HEIGHT_END
  0
MTEXT
  5
7EB23
330
10FE8
100
AcDbEntity
  8
图框
 62
     3
100
AcDbMText
 10
1074.556686986741
 20
495.8417418993361
 30
0.0
 40
2.985513575034151
 41
10.82934843438978
 46
7.886094601210427
 71
     5
 72
     5
  1
-
  7
Romans字体
 73
     1
 44
1.0
1001
AcDbBlockRepETag
1070
     1
1071
       14
1005
7EB23
1001
ACAD
1000
MTEXTBEGIN
1070
    73
1070
     1
1070
    44
1040
1.0
1070
    74
1070
     0
1000
MTEXTEND
1000
ACAD_MTEXT_DEFINED_HEIGHT_BEGIN
1070
    46
1040
7.886094601210427
1000
ACAD_MTEXT_DEFINED_HEIGHT_END
  0
LINE
  5
7EB24
330
10FE8
100
AcDbEntity
  8
图框
370
    -3
100
AcDbLine
 10
1036.653967466372
 20
499.7847891999413
 30
0.0
 11
1079.971361203936
 21
499.7847891999413
 31
0.0
1001
AcDbBlockRepETag
1070
     1
1071
       15
1005
7EB24
  0
MTEXT
  5
7EB25
330
10FE8
100
AcDbEntity
  8
图框
 62
     1
370
    20
100
AcDbMText
 10
1108.26336443907
 20
491.5162596080882
 30
0.0
 40
2.699054613030988
 41
82.30831305643079
 46
0.0
 71
     5
 72
     5
  1
{\fSimHei|b0|i0|c134|p2;厦门唯恩电气有限公司}
 73
     1
 44
1.0
1001
AcDbBlockRepETag
1070
     1
1071
       16
1005
7EB25
1001
ACAD
1000
MTEXTBEGIN
1070
    73
1070
     1
1070
    44
1040
1.0
1070
    74
1070
     0
1000
MTEXTEND
  0
MTEXT
  5
7EB26
330
10FE8
100
AcDbEntity
  8
图框
 62
     3
370
    20
100
AcDbMText
 10
1108.435451459908
 20
487.298967726064
 30
0.0
 40
1.652482416141417
 41
68.08558693693567
 46
0.0
 71
     5
 72
     5
  1
{\fArial Narrow|b0|i0|c0|p34;XIAMEN WAIN ELECTRICAL CO.LTD}
  7
工程字
 73
     1
 44
1.0
1001
AcDbBlockRepETag
1070
     1
1071
       17
1005
7EB26
1001
ACAD
1000
MTEXTBEGIN
1070
    73
1070
     1
1070
    44
1040
1.0
1070
    74
1070
     0
1000
MTEXTEND
  0
MTEXT
  5
7EB27
330
10FE8
100
AcDbEntity
  8
图框
 62
     1
370
    20
100
AcDbMText
 10
1085.711816899387
 20
491.0944802995856
 30
0.0
 40
2.005930044038334
 41
5.047240019334847
 46
0.0
 71
     1
 72
     5
  1
{\fArial|b0|i0|c0|p34;A}
  7
Chinese
 73
     1
 44
1.0
1001
AcDbBlockRepETag
1070
     1
1071
       18
1005
7EB27
1001
ACAD
1000
MTEXTBEGIN
1070
    73
1070
     1
1070
    44
1040
1.0
1070
    74
1070
     0
1000
MTEXTEND
  0
MTEXT
  5
7EB28
330
10FE8
100
AcDbEntity
  8
图框
 62
     1
370
    20
100
AcDbMText
 10
1088.213485935716
 20
491.0944802995856
 30
0.0
 40
2.005930044038334
 41
5.047240019334847
 46
0.0
 71
     1
 72
     5
  1
{\fArial|b0|i0|c0|p34;I}
  7
Chinese
 73
     1
 44
1.0
1001
AcDbBlockRepETag
1070
     1
1071
       19
1005
7EB28
1001
ACAD
1000
MTEXTBEGIN
1070
    73
1070
     1
1070
    44
1040
1.0
1070
    74
1070
     0
1000
MTEXTEND
  0
MTEXT
  5
7EB29
330
10FE8
100
AcDbEntity
  8
图框
 62
     1
370
    20
100
AcDbMText
 10
1089.142375222864
 20
491.0822866326808
 30
0.0
 40
2.005930044038334
 41
5.047240019334847
 46
0.0
 71
     1
 72
     5
  1
{\fArial|b0|i0|c0|p34;N}
  7
Chinese
 73
     1
 44
1.0
1001
AcDbBlockRepETag
1070
     1
1071
       20
1005
7EB29
1001
ACAD
1000
MTEXTBEGIN
1070
    73
1070
     1
1070
    44
1040
1.0
1070
    74
1070
     0
1000
MTEXTEND
  0
MTEXT
  5
7EB2A
330
10FE8
100
AcDbEntity
  8
图框
100
AcDbMText
 10
1069.142012769545
 20
487.9667319294409
 30
0.0
 40
2.252848170144607
 41
21.65869686878327
 46
7.863925338579296
 71
     5
 72
     5
  1
{\W0.5;\C1;All Dimensions in mm\POriginal Size DIN A 4}
  7
Romans字体
 73
     1
 44
1.0
1001
AcDbBlockRepETag
1070
     1
1071
       21
1005
7EB2A
1001
ACAD
1000
MTEXTBEGIN
1070
    73
1070
     1
1070
    44
1040
1.0
1070
    74
1070
     0
1000
MTEXTEND
1000
ACAD_MTEXT_DEFINED_HEIGHT_BEGIN
1070
    46
1040
7.863925338579296
1000
ACAD_MTEXT_DEFINED_HEIGHT_END
  0
MTEXT
  5
7EB2B
330
10FE8
100
AcDbEntity
  8
图框
  6
ByBlock
 62
     6
370
    18
100
AcDbMText
 10
1127.40434942308
 20
508.7896535755975
 30
0.0
 40
2.651776162684904
 41
2.557913877927211
 46
0.0
 71
     1
 72
     5
  1
A
  7
Romans字体
 11
0.0000000000000001
 21
1.0
 31
0.0
 73
     1
 44
1.0
1001
AcDbBlockRepETag
1070
     1
1071
       22
1005
7EB2B
1001
ACAD
1000
MTEXTBEGIN
1070
    73
1070
     1
1070
    44
1040
1.0
1070
    74
1070
     0
1000
MTEXTEND
  0
MTEXT
  5
7EB2C
330
10FE8
100
AcDbEntity
  8
图框
 62
     6
100
AcDbMText
 10
1127.40434942308
 20
556.3746573232886
 30
0.0
 40
2.651776162684904
 41
2.557913877927211
 46
0.0
 71
     1
 72
     5
  1
B
  7
Romans字体
 11
0.0000000000000001
 21
1.0
 31
0.0
 73
     1
 44
1.0
1001
AcDbBlockRepETag
1070
     1
1071
       23
1005
7EB2C
1001
ACAD
1000
MTEXTBEGIN
1070
    73
1070
     1
1070
    44
1040
1.0
1070
    74
1070
     0
1000
MTEXTEND
  0
MTEXT
  5
7EB2D
330
10FE8
100
AcDbEntity
  8
图框
 62
     6
100
AcDbMText
 10
1127.40434942308
 20
607.5539372630998
 30
0.0
 40
2.651776162684904
 41
2.557913877927211
 46
0.0
 71
     1
 72
     5
  1
C
  7
Romans字体
 11
0.0000000000000001
 21
1.0
 31
0.0
 73
     1
 44
1.0
1001
AcDbBlockRepETag
1070
     1
1071
       24
1005
7EB2D
1001
ACAD
1000
MTEXTBEGIN
1070
    73
1070
     1
1070
    44
1040
1.0
1070
    74
1070
     0
1000
MTEXTEND
  0
MTEXT
  5
7EB2E
330
10FE8
100
AcDbEntity
  8
图框
 62
     6
100
AcDbMText
 10
1127.40434942308
 20
658.7332172029115
 30
0.0
 40
2.651776162684904
 41
2.557913877927211
 46
0.0
 71
     1
 72
     5
  1
D
  7
Romans字体
 11
0.0000000000000001
 21
1.0
 31
0.0
 73
     1
 44
1.0
1001
AcDbBlockRepETag
1070
     1
1071
       25
1005
7EB2E
1001
ACAD
1000
MTEXTBEGIN
1070
    73
1070
     1
1070
    44
1040
1.0
1070
    74
1070
     0
1000
MTEXTEND
  0
LINE
  5
7EB2F
330
10FE8
100
AcDbEntity
  8
图框
 62
     6
100
AcDbLine
 10
1130.411601781241
 20
634.0726090796082
 30
0.0
 11
1126.928502610363
 21
634.0726090796082
 31
0.0
1001
AcDbBlockRepETag
1070
     1
1071
       26
1005
7EB2F
  0
LINE
  5
7EB30
330
10FE8
100
AcDbEntity
  8
图框
 62
     6
100
AcDbLine
 10
1130.411601781241
 20
582.89332913979
 30
0.0
 11
1126.928502610363
 21
582.89332913979
 31
0.0
1001
AcDbBlockRepETag
1070
     1
1071
       27
1005
7EB30
  0
MTEXT
  5
7EB31
330
10FE8
100
AcDbEntity
  8
图框
 62
     6
100
AcDbMText
 10
1105.329704038389
 20
483.6164543011163
 30
0.0
 40
2.651776162684904
 41
2.557913877927211
 46
0.0
 71
     1
 72
     5
  1
6
  7
Romans字体
 73
     1
 44
1.0
1001
AcDbBlockRepETag
1070
     1
1071
       28
1005
7EB31
1001
ACAD
1000
MTEXTBEGIN
1070
    73
1070
     1
1070
    44
1040
1.0
1070
    74
1070
     0
1000
MTEXTEND
  0
LINE
  5
7EB32
330
10FE8
100
AcDbEntity
  8
图框
 62
     6
100
AcDbLine
 10
1081.088565155284
 20
484.0347692601515
 30
0.0
 11
1081.088565155284
 21
480.5347692601475
 31
0.0
1001
AcDbBlockRepETag
1070
     1
1071
       29
1005
7EB32
  0
MTEXT
  5
7EB33
330
10FE8
100
AcDbEntity
  8
图框
 62
     6
100
AcDbMText
 10
1055.900596365941
 20
483.520053108993
 30
0.0
 40
2.651776162684904
 41
2.557913877927211
 46
0.0
 71
     1
 72
     5
  1
5
  7
Romans字体
 73
     1
 44
1.0
1001
AcDbBlockRepETag
1070
     1
1071
       30
1005
7EB33
1001
ACAD
1000
MTEXTBEGIN
1070
    73
1070
     1
1070
    44
1040
1.0
1070
    74
1070
     0
1000
MTEXTEND
  0
LINE
  5
7EB34
330
10FE8
100
AcDbEntity
  8
图框
 62
     6
100
AcDbLine
 10
1031.553386436349
 20
484.0347692601515
 30
0.0
 11
1031.553386436349
 21
480.5347692601475
 31
0.0
1001
AcDbBlockRepETag
1070
     1
1071
       31
1005
7EB34
  0
MTEXT
  5
7EB35
330
10FE8
100
AcDbEntity
  8
图框
 62
     6
100
AcDbMText
 10
1006.383180575197
 20
483.5687958215896
 30
0.0
 40
2.651776162684904
 41
2.557913877927211
 46
0.0
 71
     1
 72
     5
  1
4
  7
Romans字体
 73
     1
 44
1.0
1001
AcDbBlockRepETag
1070
     1
1071
       32
1005
7EB35
1001
ACAD
1000
MTEXTBEGIN
1070
    73
1070
     1
1070
    44
1040
1.0
1070
    74
1070
     0
1000
MTEXTEND
  0
LINE
  5
7EB36
330
10FE8
100
AcDbEntity
  8
图框
 62
     6
100
AcDbLine
 10
982.0182077173887
 20
484.0347692601515
 30
0.0
 11
982.0182077173887
 21
480.5347692601475
 31
0.0
1001
AcDbBlockRepETag
1070
     1
1071
       33
1005
7EB36
  0
MTEXT
  5
7EB37
330
10FE8
100
AcDbEntity
  8
图框
 62
     6
100
AcDbMText
 10
956.8302389280352
 20
483.5989680297948
 30
0.0
 40
2.651776162684904
 41
2.557913877927211
 46
0.0
 71
     1
 72
     5
  1
3
  7
Romans字体
 73
     1
 44
1.0
1001
AcDbBlockRepETag
1070
     1
1071
       34
1005
7EB37
1001
ACAD
1000
MTEXTBEGIN
1070
    73
1070
     1
1070
    44
1040
1.0
1070
    74
1070
     0
1000
MTEXTEND
  0
LINE
  5
7EB38
330
10FE8
100
AcDbEntity
  8
图框
 62
     6
100
AcDbLine
 10
932.4830289984245
 20
484.0347692601515
 30
0.0
 11
932.4830289984245
 21
480.5347692601475
 31
0.0
1001
AcDbBlockRepETag
1070
     1
1071
       35
1005
7EB38
  0
MTEXT
  5
7EB39
330
10FE8
100
AcDbEntity
  8
图框
 62
     6
100
AcDbMText
 10
906.0252349826365
 20
483.6475250013156
 30
0.0
 40
2.651776162684904
 41
2.557913877927211
 46
0.0
 71
     1
 72
     5
  1
2
  7
Romans字体
 73
     1
 44
1.0
1001
AcDbBlockRepETag
1070
     1
1071
       36
1005
7EB39
1001
ACAD
1000
MTEXTBEGIN
1070
    73
1070
     1
1070
    44
1040
1.0
1070
    74
1070
     0
1000
MTEXTEND
  0
LINE
  5
7EB3A
330
10FE8
100
AcDbEntity
  8
图框
 62
     6
100
AcDbLine
 10
882.9478502794648
 20
484.0347692601515
 30
0.0
 11
882.9478502794648
 21
480.5347692601475
 31
0.0
1001
AcDbBlockRepETag
1070
     1
1071
       37
1005
7EB3A
  0
MTEXT
  5
7EB3B
330
10FE8
100
AcDbEntity
  8
图框
 62
     6
100
AcDbMText
 10
857.7598814901191
 20
483.651829494754
 30
0.0
 40
2.651776162684904
 41
2.557913877927211
 46
0.0
 71
     1
 72
     5
  1
1
  7
Romans字体
 73
     1
 44
1.0
1001
AcDbBlockRepETag
1070
     1
1071
       38
1005
7EB3B
1001
ACAD
1000
MTEXTBEGIN
1070
    73
1070
     1
1070
    44
1040
1.0
1070
    74
1070
     0
1000
MTEXTEND
  0
LINE
  5
7EB3C
330
10FE8
100
AcDbEntity
  8
图框
370
    50
100
AcDbLine
 10
836.8548209370597
 20
484.0347692601515
 30
0.0
 11
1126.928502610363
 21
484.0347692601515
 31
0.0
1001
AcDbBlockRepETag
1070
     1
1071
       39
1005
7EB3C
  0
LINE
  5
7EB3D
330
10FE8
100
AcDbEntity
  8
图框
370
    50
100
AcDbLine
 10
836.9128518455362
 20
484.0178684310246
 30
0.0
 11
836.9128518455394
 21
675.0207195125422
 31
0.0
1001
AcDbBlockRepETag
1070
     1
1071
       40
1005
7EB3D
  0
MTEXT
  5
7EB3E
330
10FE8
100
AcDbEntity
  8
图框
 62
     6
100
AcDbMText
 10
833.8475685789031
 20
658.7332172029115
 30
0.0
 40
2.651776162684904
 41
2.557913877927211
 46
0.0
 71
     1
 72
     5
  1
D
  7
Romans字体
 11
0.0000000000000001
 21
1.0
 31
0.0
 73
     1
 44
1.0
1001
AcDbBlockRepETag
1070
     1
1071
       41
1005
7EB3E
1001
ACAD
1000
MTEXTBEGIN
1070
    73
1070
     1
1070
    44
1040
1.0
1070
    74
1070
     0
1000
MTEXTEND
  0
LINE
  5
7EB3F
330
10FE8
100
AcDbEntity
  8
图框
 62
     6
100
AcDbLine
 10
836.9128518455386
 20
634.0726090796082
 30
0.0
 11
833.4128518455365
 21
634.0726090796082
 31
0.0
1001
AcDbBlockRepETag
1070
     1
1071
       42
1005
7EB3F
  0
MTEXT
  5
7EB40
330
10FE8
100
AcDbEntity
  8
图框
 62
     6
100
AcDbMText
 10
833.9039177480142
 20
607.5539372630998
 30
0.0
 40
2.651776162684904
 41
2.557913877927211
 46
0.0
 71
     1
 72
     5
  1
C
  7
Romans字体
 11
0.0000000000000001
 21
1.0
 31
0.0
 73
     1
 44
1.0
1001
AcDbBlockRepETag
1070
     1
1071
       43
1005
7EB40
1001
ACAD
1000
MTEXTBEGIN
1070
    73
1070
     1
1070
    44
1040
1.0
1070
    74
1070
     0
1000
MTEXTEND
  0
LINE
  5
7EB41
330
10FE8
100
AcDbEntity
  8
图框
 62
     6
100
AcDbLine
 10
836.9128518455378
 20
582.89332913979
 30
0.0
 11
833.4128518455365
 21
582.89332913979
 31
0.0
1001
AcDbBlockRepETag
1070
     1
1071
       44
1005
7EB41
  0
MTEXT
  5
7EB42
330
10FE8
100
AcDbEntity
  8
图框
 62
     6
100
AcDbMText
 10
833.9039177480142
 20
556.3746573232886
 30
0.0
 40
2.651776162684904
 41
2.557913877927211
 46
0.0
 71
     1
 72
     5
  1
B
  7
Romans字体
 11
0.0000000000000001
 21
1.0
 31
0.0
 73
     1
 44
1.0
1001
AcDbBlockRepETag
1070
     1
1071
       45
1005
7EB42
1001
ACAD
1000
MTEXTBEGIN
1070
    73
1070
     1
1070
    44
1040
1.0
1070
    74
1070
     0
1000
MTEXTEND
  0
LINE
  5
7EB43
330
10FE8
100
AcDbEntity
  8
图框
 62
     6
100
AcDbLine
 10
836.9128518455367
 20
531.714049199969
 30
0.0
 11
833.4128518455365
 21
531.714049199969
 31
0.0
1001
AcDbBlockRepETag
1070
     1
1071
       46
1005
7EB43
  0
MTEXT
  5
7EB44
330
10FE8
100
AcDbEntity
  8
图框
 62
     6
100
AcDbMText
 10
833.9039177480142
 20
508.7896535755975
 30
0.0
 40
2.651776162684904
 41
2.557913877927211
 46
0.0
 71
     1
 72
     5
  1
A
  7
Romans字体
 11
0.0000000000000001
 21
1.0
 31
0.0
 73
     1
 44
1.0
1001
AcDbBlockRepETag
1070
     1
1071
       47
1005
7EB44
1001
ACAD
1000
MTEXTBEGIN
1070
    73
1070
     1
1070
    44
1040
1.0
1070
    74
1070
     0
1000
MTEXTEND
  0
LINE
  5
7EB45
330
10FE8
100
AcDbEntity
  8
图框
370
    -3
100
AcDbLine
 10
836.9128518455394
 20
675.0207195125422
 30
0.0
 11
836.9128518455394
 21
684.5021384922564
 31
0.0
1001
AcDbBlockRepETag
1070
     1
1071
       48
1005
7EB45
  0
LINE
  5
7EB46
330
10FE8
100
AcDbEntity
  8
图框
370
    -3
100
AcDbLine
 10
842.6237321475781
 20
675.5347692601515
 30
0.0
 11
842.6237321475781
 21
685.0161882398658
 31
0.0
1001
AcDbBlockRepETag
1070
     1
1071
       49
1005
7EB46
  0
LINE
  5
7EB47
330
10FE8
100
AcDbEntity
  8
图框
370
    -3
100
AcDbLine
 10
848.3346124496179
 20
675.5347692601515
 30
0.0
 11
848.3346124496179
 21
685.0161882398658
 31
0.0
1001
AcDbBlockRepETag
1070
     1
1071
       50
1005
7EB47
  0
LINE
  5
7EB48
330
10FE8
100
AcDbEntity
  8
图框
370
    -3
100
AcDbLine
 10
854.0454927516588
 20
675.5347692601515
 30
0.0
 11
854.0454927516588
 21
685.0161882398658
 31
0.0
1001
AcDbBlockRepETag
1070
     1
1071
       51
1005
7EB48
  0
LINE
  5
7EB49
330
10FE8
100
AcDbEntity
  8
图框
370
    -3
100
AcDbLine
 10
861.5351874539182
 20
675.5347692601515
 30
0.0
 11
861.5351874539182
 21
686.7901958362482
 31
0.0
1001
AcDbBlockRepETag
1070
     1
1071
       52
1005
7EB49
  0
MTEXT
  5
7EB4A
330
10FE8
100
AcDbEntity
  8
图框
 62
     6
100
AcDbMText
 10
1105.329704038389
 20
678.859919059449
 30
0.0
 40
2.651776162684904
 41
2.557913877927211
 46
0.0
 71
     1
 72
     5
  1
6
  7
Romans字体
 73
     1
 44
1.0
1001
AcDbBlockRepETag
1070
     1
1071
       53
1005
7EB4A
1001
ACAD
1000
MTEXTBEGIN
1070
    73
1070
     1
1070
    44
1040
1.0
1070
    74
1070
     0
1000
MTEXTEND
  0
LINE
  5
7EB4B
330
10FE8
100
AcDbEntity
  8
图框
 62
     6
100
AcDbLine
 10
1081.088565155284
 20
679.0347692601516
 30
0.0
 11
1081.088565155284
 21
675.5347692601515
 31
0.0
1001
AcDbBlockRepETag
1070
     1
1071
       54
1005
7EB4B
  0
MTEXT
  5
7EB4C
330
10FE8
100
AcDbEntity
  8
图框
 62
     6
100
AcDbMText
 10
1055.900596365941
 20
678.859919059449
 30
0.0
 40
2.651776162684904
 41
2.557913877927211
 46
0.0
 71
     1
 72
     5
  1
5
  7
Romans字体
 73
     1
 44
1.0
1001
AcDbBlockRepETag
1070
     1
1071
       55
1005
7EB4C
1001
ACAD
1000
MTEXTBEGIN
1070
    73
1070
     1
1070
    44
1040
1.0
1070
    74
1070
     0
1000
MTEXTEND
  0
LINE
  5
7EB4D
330
10FE8
100
AcDbEntity
  8
图框
 62
     6
100
AcDbLine
 10
1031.553386436349
 20
679.0347692601516
 30
0.0
 11
1031.553386436349
 21
675.5347692601515
 31
0.0
1001
AcDbBlockRepETag
1070
     1
1071
       56
1005
7EB4D
  0
MTEXT
  5
7EB4E
330
10FE8
100
AcDbEntity
  8
图框
 62
     6
100
AcDbMText
 10
1006.36541764698
 20
678.7312083656147
 30
0.0
 40
2.651776162684904
 41
2.557913877927211
 46
0.0
 71
     1
 72
     5
  1
4
  7
Romans字体
 73
     1
 44
1.0
1001
AcDbBlockRepETag
1070
     1
1071
       57
1005
7EB4E
1001
ACAD
1000
MTEXTBEGIN
1070
    73
1070
     1
1070
    44
1040
1.0
1070
    74
1070
     0
1000
MTEXTEND
  0
LINE
  5
7EB4F
330
10FE8
100
AcDbEntity
  8
图框
 62
     6
100
AcDbLine
 10
982.0182077173887
 20
679.0347692601516
 30
0.0
 11
982.0182077173887
 21
675.5347692601515
 31
0.0
1001
AcDbBlockRepETag
1070
     1
1071
       58
1005
7EB4F
  0
MTEXT
  5
7EB50
330
10FE8
100
AcDbEntity
  8
图框
 62
     6
100
AcDbMText
 10
956.8302389280352
 20
678.859919059449
 30
0.0
 40
2.651776162684904
 41
2.557913877927211
 46
0.0
 71
     1
 72
     5
  1
3
  7
Romans字体
 73
     1
 44
1.0
1001
AcDbBlockRepETag
1070
     1
1071
       59
1005
7EB50
1001
ACAD
1000
MTEXTBEGIN
1070
    73
1070
     1
1070
    44
1040
1.0
1070
    74
1070
     0
1000
MTEXTEND
  0
LINE
  5
7EB51
330
10FE8
100
AcDbEntity
  8
图框
 62
     6
100
AcDbLine
 10
932.4830289984245
 20
679.0347692601516
 30
0.0
 11
932.4830289984245
 21
675.5347692601515
 31
0.0
1001
AcDbBlockRepETag
1070
     1
1071
       60
1005
7EB51
  0
MTEXT
  5
7EB52
330
10FE8
100
AcDbEntity
  8
图框
 62
     6
100
AcDbMText
 10
907.295060209082
 20
678.859919059449
 30
0.0
 40
2.651776162684904
 41
2.557913877927211
 46
0.0
 71
     1
 72
     5
  1
2
  7
Romans字体
 73
     1
 44
1.0
1001
AcDbBlockRepETag
1070
     1
1071
       61
1005
7EB52
1001
ACAD
1000
MTEXTBEGIN
1070
    73
1070
     1
1070
    44
1040
1.0
1070
    74
1070
     0
1000
MTEXTEND
  0
LINE
  5
7EB53
330
10FE8
100
AcDbEntity
  8
图框
 62
     6
100
AcDbLine
 10
882.9478502794648
 20
678.7962435131815
 30
0.0
 11
882.9478502794648
 21
675.5347692601515
 31
0.0
1001
AcDbBlockRepETag
1070
     1
1071
       62
1005
7EB53
  0
MTEXT
  5
7EB54
330
10FE8
100
AcDbEntity
  8
图框
 62
     6
100
AcDbMText
 10
862.6286629643733
 20
678.859919059449
 30
0.0
 40
2.651776162684904
 41
2.557913877927211
 46
0.0
 71
     1
 72
     5
  1
1
  7
Romans字体
 73
     1
 44
1.0
1001
AcDbBlockRepETag
1070
     1
1071
       63
1005
7EB54
1001
ACAD
1000
MTEXTBEGIN
1070
    73
1070
     1
1070
    44
1040
1.0
1070
    74
1070
     0
1000
MTEXTEND
  0
LINE
  5
7EB55
330
10FE8
100
AcDbEntity
  8
图框
370
    -3
100
AcDbLine
 10
836.9128518455394
 20
675.0207195125422
 30
0.0
 11
836.9128518455394
 21
686.7901958362482
 31
0.0
1001
AcDbBlockRepETag
1070
     1
1071
       64
1005
7EB55
  0
LINE
  5
7EB56
330
10FE8
100
AcDbEntity
  8
图框
370
    50
100
AcDbLine
 10
836.9128518455394
 20
675.5347692601515
 30
0.0
 11
1126.928502610363
 21
675.5347692601515
 31
0.0
1001
AcDbBlockRepETag
1070
     1
1071
       65
1005
7EB56
  0
LINE
  5
7EB57
330
10FE8
100
AcDbEntity
  8
图框
370
    -3
100
AcDbLine
 10
842.6237321475781
 20
675.5347692601515
 30
0.0
 11
842.6237321475781
 21
686.7901958362482
 31
0.0
1001
AcDbBlockRepETag
1070
     1
1071
       66
1005
7EB57
  0
LINE
  5
7EB58
330
10FE8
100
AcDbEntity
  8
图框
370
    -3
100
AcDbLine
 10
848.3346124496179
 20
675.5347692601515
 30
0.0
 11
848.3346124496179
 21
686.7901958362482
 31
0.0
1001
AcDbBlockRepETag
1070
     1
1071
       67
1005
7EB58
  0
MTEXT
  5
7EB59
102
{ACAD_XDICTIONARY
360
7EBC8
102
}
330
10FE8
100
AcDbEntity
  8
图框
100
AcDbMText
 10
857.7903401027889
 20
686.7901958362482
 30
0.0
 40
1.958998408821398
 41
11.25542657609672
 46
7.489694702258906
 71
     4
 72
     5
  1
\pi2.8203;档案员{\H0.7x;\P\pi1.4159;\Fromans|c134;Filing Clerk\fFangSong_GB2312|b0|i0|c134|p49; }
 11
-0.0000000000000002
 21
-1.0
 31
0.0
 73
     1
 44
1.0
1001
AcDbBlockRepETag
1070
     1
1071
       68
1005
7EB59
1001
ACAD
1000
MTEXTBEGIN
1070
    73
1070
     1
1070
    44
1040
1.0
1070
    74
1070
     0
1000
MTEXTEND
1000
ACAD_MTEXT_DEFINED_HEIGHT_BEGIN
1070
    46
1040
7.489694702258906
1000
ACAD_MTEXT_DEFINED_HEIGHT_END
  0
MTEXT
  5
7EB5A
102
{ACAD_XDICTIONARY
360
7EBCA
102
}
330
10FE8
100
AcDbEntity
  8
图框
100
AcDbMText
 10
845.479172298598
 20
686.7901958362482
 30
0.0
 40
1.958998408821398
 41
11.25542657609672
 46
5.710880302039671
 71
     4
 72
     5
  1
\pi0.7115;日期{\Fromans|c134;/Date}
 11
-0.0000000000000002
 21
-1.0
 31
0.0
 73
     1
 44
1.0
1001
AcDbBlockRepETag
1070
     1
1071
       69
1005
7EB5A
1001
ACAD
1000
MTEXTBEGIN
1070
    73
1070
     1
1070
    44
1040
1.0
1070
    74
1070
     0
1000
MTEXTEND
1000
ACAD_MTEXT_DEFINED_HEIGHT_BEGIN
1070
    46
1040
5.710880302039671
1000
ACAD_MTEXT_DEFINED_HEIGHT_END
  0
LINE
  5
7EB5B
330
10FE8
100
AcDbEntity
  8
图框
370
    -3
100
AcDbLine
 10
854.0454927516588
 20
675.5347692601515
 30
0.0
 11
854.0454927516588
 21
686.7901958362482
 31
0.0
1001
AcDbBlockRepETag
1070
     1
1071
       70
1005
7EB5B
  0
LINE
  5
7EB5C
330
10FE8
100
AcDbEntity
  8
图框
370
    -3
100
AcDbLine
 10
1036.653967466372
 20
531.3291676047914
 30
0.0
 11
1036.653967466372
 21
484.0126019753161
 31
0.0
1001
AcDbBlockRepETag
1070
     1
1071
       71
1005
7EB5C
  0
LINE
  5
7EB5D
330
10FE8
100
AcDbEntity
  8
图框
370
    -3
100
AcDbLine
 10
1047.483315900763
 20
507.6708838011533
 30
0.0
 11
1047.483315900763
 21
491.8986945987308
 31
0.0
1001
AcDbBlockRepETag
1070
     1
1071
       72
1005
7EB5D
  0
LINE
  5
7EB5E
330
10FE8
100
AcDbEntity
  8
图框
370
    -3
100
AcDbLine
 10
1058.312664335153
 20
507.6708838011533
 30
0.0
 11
1058.312664335153
 21
484.0347692601515
 31
0.0
1001
AcDbBlockRepETag
1070
     1
1071
       73
1005
7EB5E
  0
LINE
  5
7EB5F
330
10FE8
100
AcDbEntity
  8
图框
370
    25
100
AcDbLine
 10
1048.474135214456
 20
488.1095628329926
 30
0.0
 11
1054.946420288459
 21
488.1095628329926
 31
0.0
1001
AcDbBlockRepETag
1070
     1
1071
       74
1005
7EB5F
  0
LINE
  5
7EB60
330
10FE8
100
AcDbEntity
  8
图框
370
    25
100
AcDbLine
 10
1054.232527365989
 20
487.0761716842634
 30
0.0
 11
1049.156490914508
 21
486.4576273751
 31
0.0
1001
AcDbBlockRepETag
1070
     1
1071
       75
1005
7EB60
  0
LINE
  5
7EB61
330
10FE8
100
AcDbEntity
  8
图框
370
    25
100
AcDbLine
 10
1054.232527365989
 20
489.1429539817209
 30
0.0
 11
1049.156490914508
 21
489.7614982908846
 31
0.0
1001
AcDbBlockRepETag
1070
     1
1071
       76
1005
7EB61
  0
LINE
  5
7EB62
330
10FE8
100
AcDbEntity
  8
图框
370
    25
100
AcDbLine
 10
1049.156490914508
 20
489.7614982908846
 30
0.0
 11
1049.156490914508
 21
486.4576273751
 31
0.0
1001
AcDbBlockRepETag
1070
     1
1071
       77
1005
7EB62
  0
LINE
  5
7EB63
330
10FE8
100
AcDbEntity
  8
图框
370
    25
100
AcDbLine
 10
1054.232527365989
 20
489.1429539817209
 30
0.0
 11
1054.232527365989
 21
487.0761716842634
 31
0.0
1001
AcDbBlockRepETag
1070
     1
1071
       78
1005
7EB63
  0
CIRCLE
  5
7EB64
330
10FE8
100
AcDbEntity
  8
图框
370
    25
100
AcDbCircle
 10
1042.502700458579
 20
488.1095628329926
 30
0.0
 40
1.651935457891863
1001
AcDbBlockRepETag
1070
     1
1071
       79
1005
7EB64
  0
CIRCLE
  5
7EB65
330
10FE8
100
AcDbEntity
  8
图框
370
    25
100
AcDbCircle
 10
1042.502700458579
 20
488.1095628329926
 30
0.0
 40
1.033391148728775
1001
AcDbBlockRepETag
1070
     1
1071
       80
1005
7EB65
  0
LINE
  5
7EB66
330
10FE8
100
AcDbEntity
  8
图框
370
    25
100
AcDbLine
 10
1040.136872078216
 20
488.1095628329926
 30
0.0
 11
1044.868528838943
 21
488.1095628329926
 31
0.0
1001
AcDbBlockRepETag
1070
     1
1071
       81
1005
7EB66
  0
LINE
  5
7EB67
330
10FE8
100
AcDbEntity
  8
图框
370
    25
100
AcDbLine
 10
1042.502700458579
 20
490.475391213355
 30
0.0
 11
1042.502700458579
 21
485.743734452629
 31
0.0
1001
AcDbBlockRepETag
1070
     1
1071
       82
1005
7EB67
  0
LINE
  5
7EB68
330
10FE8
100
AcDbEntity
  8
图框
370
    -3
100
AcDbLine
 10
1069.142012769546
 20
507.6708838011533
 30
0.0
 11
1069.142012769546
 21
491.8986945987308
 31
0.0
1001
AcDbBlockRepETag
1070
     1
1071
       83
1005
7EB68
  0
MTEXT
  5
7EB69
330
10FE8
100
AcDbEntity
  8
图框
100
AcDbMText
 10
1086.643735910939
 20
526.8006839312707
 30
0.0
 40
2.154898249703542
 41
13.34474941400573
 46
9.056967347041775
 71
     5
 72
     5
  1
图号{\Ftxt|c134;\P\Fromans|c134;\W0.65;Drawing No.}
 73
     1
 44
1.0
1001
AcDbBlockRepETag
1070
     1
1071
       84
1005
7EB69
1001
ACAD
1000
MTEXTBEGIN
1070
    73
1070
     1
1070
    44
1040
1.0
1070
    74
1070
     0
1000
MTEXTEND
1000
ACAD_MTEXT_DEFINED_HEIGHT_BEGIN
1070
    46
1040
9.056967347041775
1000
ACAD_MTEXT_DEFINED_HEIGHT_END
  0
LINE
  5
7EB6A
330
10FE8
100
AcDbEntity
  8
图框
370
    -3
100
AcDbLine
 10
1093.316110617942
 20
531.3291676047914
 30
0.0
 11
1093.316110617942
 21
495.8417418993347
 31
0.0
1001
AcDbBlockRepETag
1070
     1
1071
       85
1005
7EB6A
  0
LINE
  5
7EB6B
330
10FE8
100
AcDbEntity
  8
图框
370
    -3
100
AcDbLine
 10
1047.473969770481
 20
531.3291676047914
 30
0.0
 11
1047.473969770481
 21
507.6708838011533
 31
0.0
1001
AcDbBlockRepETag
1070
     1
1071
       86
1005
7EB6B
  0
MTEXT
  5
7EB6C
330
10FE8
100
AcDbEntity
  8
图框
100
AcDbMText
 10
1063.72733855235
 20
503.7278365005473
 30
0.0
 40
2.252848170144607
 41
10.82934843439208
 46
7.886094601212128
 71
     5
 72
     5
  1
重量\P{\Fromans|c134;Weight}
 73
     1
 44
1.0
1001
AcDbBlockRepETag
1070
     1
1071
       87
1005
7EB6C
1001
ACAD
1000
MTEXTBEGIN
1070
    73
1070
     1
1070
    44
1040
1.0
1070
    74
1070
     0
1000
MTEXTEND
1000
ACAD_MTEXT_DEFINED_HEIGHT_BEGIN
1070
    46
1040
7.886094601212128
1000
ACAD_MTEXT_DEFINED_HEIGHT_END
  0
LINE
  5
7EB6D
330
10FE8
100
AcDbEntity
  8
图框
370
    -3
100
AcDbLine
 10
1036.653967466372
 20
519.5000257029746
 30
0.0
 11
1079.971361203936
 21
519.5000257029746
 31
0.0
1001
AcDbBlockRepETag
1070
     1
1071
       88
1005
7EB6D
  0
MTEXT
  5
7EB6E
330
10FE8
100
AcDbEntity
  8
图框
100
AcDbMText
 10
1074.556686986741
 20
503.7278365005473
 30
0.0
 40
2.252848170144607
 41
10.82934843438984
 46
7.886094601212141
 71
     5
 72
     5
  1
数量\P{\Fromans|c134;Qty.}
 73
     1
 44
1.0
1001
AcDbBlockRepETag
1070
     1
1071
       89
1005
7EB6E
1001
ACAD
1000
MTEXTBEGIN
1070
    73
1070
     1
1070
    44
1040
1.0
1070
    74
1070
     0
1000
MTEXTEND
1000
ACAD_MTEXT_DEFINED_HEIGHT_BEGIN
1070
    46
1040
7.886094601212141
1000
ACAD_MTEXT_DEFINED_HEIGHT_END
  0
LINE
  5
7EB6F
330
10FE8
100
AcDbEntity
  8
图框
370
    -3
100
AcDbLine
 10
1079.971361203936
 20
495.8417418993347
 30
0.0
 11
1126.928502610363
 21
495.8417418993342
 31
0.0
1001
AcDbBlockRepETag
1070
     1
1071
       90
1005
7EB6F
  0
LINE
  5
7EB70
330
10FE8
100
AcDbEntity
  8
图框
370
    -3
100
AcDbLine
 10
1079.971361203936
 20
504.7132992040975
 30
0.0
 11
1126.928502610363
 21
504.7132992040975
 31
0.0
1001
AcDbBlockRepETag
1070
     1
1071
       91
1005
7EB70
  0
MTEXT
  5
7EB71
330
10FE8
100
AcDbEntity
  8
图框
100
AcDbMText
 10
1052.893317052817
 20
503.7278365005473
 30
0.0
 40
2.252848170144607
 41
10.83869456467139
 46
7.886094601212101
 71
     5
 72
     5
  1
版本\P{\Fromans|c134;REV.}
 73
     1
 44
1.0
1001
AcDbBlockRepETag
1070
     1
1071
       92
1005
7EB71
1001
ACAD
1000
MTEXTBEGIN
1070
    73
1070
     1
1070
    44
1040
1.0
1070
    74
1070
     0
1000
MTEXTEND
1000
ACAD_MTEXT_DEFINED_HEIGHT_BEGIN
1070
    46
1040
7.886094601212101
1000
ACAD_MTEXT_DEFINED_HEIGHT_END
  0
MTEXT
  5
7EB72
330
10FE8
100
AcDbEntity
  8
图框
100
AcDbMText
 10
1042.068641683568
 20
503.7278365005473
 30
0.0
 40
2.252848170144607
 41
10.8293484343908
 46
7.886094601212136
 71
     5
 72
     5
  1
比例\P{\Fromans|c134;Scale}
 73
     1
 44
1.0
1001
AcDbBlockRepETag
1070
     1
1071
       93
1005
7EB72
1001
ACAD
1000
MTEXTBEGIN
1070
    73
1070
     1
1070
    44
1040
1.0
1070
    74
1070
     0
1000
MTEXTEND
1000
ACAD_MTEXT_DEFINED_HEIGHT_BEGIN
1070
    46
1040
7.886094601212136
1000
ACAD_MTEXT_DEFINED_HEIGHT_END
  0
LINE
  5
7EB73
330
10FE8
100
AcDbEntity
  8
图框
370
    -3
100
AcDbLine
 10
1036.653967466372
 20
507.6708838011533
 30
0.0
 11
1079.971361203936
 21
507.6708838011533
 31
0.0
1001
AcDbBlockRepETag
1070
     1
1071
       94
1005
7EB73
  0
LINE
  5
7EB74
330
10FE8
100
AcDbEntity
  8
图框
370
    -3
100
AcDbLine
 10
1036.653967466372
 20
491.8986945987308
 30
0.0
 11
1079.971361203936
 21
491.8986945987308
 31
0.0
1001
AcDbBlockRepETag
1070
     1
1071
       95
1005
7EB74
  0
LINE
  5
7EB75
330
10FE8
100
AcDbEntity
  8
图框
370
    -3
100
AcDbLine
 10
1079.971361203936
 20
531.3291676047914
 30
0.0
 11
1079.971361203936
 21
484.0125999975168
 31
0.0
1001
AcDbBlockRepETag
1070
     1
1071
       96
1005
7EB75
  0
MTEXT
  5
7EB76
330
10FE8
100
AcDbEntity
  8
图框
100
AcDbMText
 10
1042.063968618426
 20
525.4145966538832
 30
0.0
 40
2.252848170144607
 41
10.82000230410933
 46
11.82914190181708
 71
     5
 72
     5
  1
表面处理\P{\Fromans|c134;Finish}
 73
     1
 44
1.0
1001
AcDbBlockRepETag
1070
     1
1071
       97
1005
7EB76
1001
ACAD
1000
MTEXTBEGIN
1070
    73
1070
     1
1070
    44
1040
1.0
1070
    74
1070
     0
1000
MTEXTEND
1000
ACAD_MTEXT_DEFINED_HEIGHT_BEGIN
1070
    46
1040
11.82914190181708
1000
ACAD_MTEXT_DEFINED_HEIGHT_END
  0
MTEXT
  5
7EB77
330
10FE8
100
AcDbEntity
  8
图框
100
AcDbMText
 10
1042.063968618426
 20
513.5854547520639
 30
0.0
 40
2.252848170144607
 41
10.82000230410933
 46
11.8291419018212
 71
     5
 72
     5
  1
材料\P{\Fromans|c134;Material}
 73
     1
 44
1.0
1001
AcDbBlockRepETag
1070
     1
1071
       98
1005
7EB77
1001
ACAD
1000
MTEXTBEGIN
1070
    73
1070
     1
1070
    44
1040
1.0
1070
    74
1070
     0
1000
MTEXTEND
1000
ACAD_MTEXT_DEFINED_HEIGHT_BEGIN
1070
    46
1040
11.8291419018212
1000
ACAD_MTEXT_DEFINED_HEIGHT_END
  0
LINE
  5
7EB78
330
10FE8
100
AcDbEntity
  8
图框
370
    -3
100
AcDbLine
 10
1079.971361203936
 20
522.27220025775
 30
0.0
 11
1126.928502610363
 21
522.27220025775
 31
0.0
1001
AcDbBlockRepETag
1070
     1
1071
       99
1005
7EB78
  0
LINE
  5
7EB79
330
10FE8
100
AcDbEntity
  8
图框
370
    -3
100
AcDbLine
 10
1079.971361203936
 20
513.5854547520641
 30
0.0
 11
1126.928502610363
 21
513.5854547520639
 31
0.0
1001
AcDbBlockRepETag
1070
     1
1071
      100
1005
7EB79
  0
MTEXT
  5
7EB7A
330
10FE8
100
AcDbEntity
  8
图框
100
AcDbMText
 10
1086.643735910939
 20
517.9288275049072
 30
0.0
 40
1.958998408821398
 41
13.34474941400573
 46
8.686745505685811
 71
     5
 72
     5
  1
产品代号\P{\Fromans|c134;Part Code}
 73
     1
 44
1.0
1001
AcDbBlockRepETag
1070
     1
1071
      101
1005
7EB7A
1001
ACAD
1000
MTEXTBEGIN
1070
    73
1070
     1
1070
    44
1040
1.0
1070
    74
1070
     0
1000
MTEXTEND
1000
ACAD_MTEXT_DEFINED_HEIGHT_BEGIN
1070
    46
1040
8.686745505685811
1000
ACAD_MTEXT_DEFINED_HEIGHT_END
  0
LINE
  5
7EB7B
330
10FE8
100
AcDbEntity
  8
图框
370
    -3
100
AcDbLine
 10
946.9285026103634
 20
525.7982263931411
 30
0.0
 11
1036.653967466372
 21
525.7982263931411
 31
0.0
1001
AcDbBlockRepETag
1070
     1
1071
      102
1005
7EB7B
  0
LINE
  5
7EB7C
330
10FE8
100
AcDbEntity
  8
图框
370
    -3
100
AcDbLine
 10
946.9285026103634
 20
520.2672851814959
 30
0.0
 11
1036.653967466372
 21
520.2672851814959
 31
0.0
1001
AcDbBlockRepETag
1070
     1
1071
      103
1005
7EB7C
  0
LINE
  5
7EB7D
330
10FE8
100
AcDbEntity
  8
图框
370
    35
100
AcDbLine
 10
946.9285026103634
 20
531.3291676047914
 30
0.0
 11
1126.928502610363
 21
531.3291676047914
 31
0.0
1001
AcDbBlockRepETag
1070
     1
1071
      104
1005
7EB7D
  0
LINE
  5
7EB7E
330
10FE8
100
AcDbEntity
  8
图框
370
    -3
100
AcDbLine
 10
990.6727612856927
 20
509.2054027581959
 30
0.0
 11
990.6727612856927
 21
484.0347692601515
 31
0.0
1001
AcDbBlockRepETag
1070
     1
1071
      105
1005
7EB7E
  0
MTEXT
  5
7EB7F
102
{ACAD_XDICTIONARY
360
7EBCC
102
}
330
10FE8
100
AcDbEntity
  8
图框
100
AcDbMText
 10
997.1628169651232
 20
499.816589978722
 30
0.0
 40
2.252848170144607
 41
12.98011135886052
 46
6.19230880992475
 71
     5
 72
     5
  1
{\f仿宋_GB2312|b0|i0|c134|p49;标准化}\PStand.
  7
Romans字体
 73
     1
 44
1.0
1001
AcDbBlockRepETag
1070
     1
1071
      106
1005
7EB7F
1001
ACAD
1000
MTEXTBEGIN
1070
    73
1070
     1
1070
    44
1040
1.0
1070
    74
1070
     0
1000
MTEXTEND
1000
ACAD_MTEXT_DEFINED_HEIGHT_BEGIN
1070
    46
1040
6.19230880992475
1000
ACAD_MTEXT_DEFINED_HEIGHT_END
  0
LINE
  5
7EB80
330
10FE8
100
AcDbEntity
  8
图框
370
    -3
100
AcDbLine
 10
975.4103773808022
 20
509.2054027581959
 30
0.0
 11
975.4103773808022
 21
484.0347692601515
 31
0.0
1001
AcDbBlockRepETag
1070
     1
1071
      107
1005
7EB80
  0
MTEXT
  5
7EB81
330
10FE8
100
AcDbEntity
  8
图框
100
AcDbMText
 10
984.5089229802068
 20
511.9708733640202
 30
0.0
 40
2.448748011026752
 41
38.287899328693
 46
5.530941211648832
 71
     5
 72
     5
  1
  变更描述{\Fromans|c134;/Description}
 73
     1
 44
1.0
1001
AcDbBlockRepETag
1070
     1
1071
      108
1005
7EB81
1001
ACAD
1000
MTEXTBEGIN
1070
    73
1070
     1
1070
    44
1040
1.0
1070
    74
1070
     0
1000
MTEXTEND
1000
ACAD_MTEXT_DEFINED_HEIGHT_BEGIN
1070
    46
1040
5.530941211648832
1000
ACAD_MTEXT_DEFINED_HEIGHT_END
  0
MTEXT
  5
7EB82
102
{ACAD_XDICTIONARY
360
7EBCE
102
}
330
10FE8
100
AcDbEntity
  8
图框
100
AcDbMText
 10
1012.466086049227
 20
511.9708733640202
 30
0.0
 40
1.958998408821398
 41
17.6264268093469
 46
5.530941211648825
 71
     5
 72
     5
  1
签名\P{\Fromans|c134;Signature} 
 73
     1
 44
1.0
1001
AcDbBlockRepETag
1070
     1
1071
      109
1005
7EB82
1001
ACAD
1000
MTEXTBEGIN
1070
    73
1070
     1
1070
    44
1040
1.0
1070
    74
1070
     0
1000
MTEXTEND
1000
ACAD_MTEXT_DEFINED_HEIGHT_BEGIN
1070
    46
1040
5.530941211648825
1000
ACAD_MTEXT_DEFINED_HEIGHT_END
  0
MTEXT
  5
7EB83
102
{ACAD_XDICTIONARY
360
7EBD0
102
}
330
10FE8
100
AcDbEntity
  8
图框
100
AcDbMText
 10
960.7558556394856
 20
511.9708733640202
 30
0.0
 40
1.958998408821398
 41
9.218235352749283
 46
5.530941211648841
 71
     5
 72
     5
  1
处数\P{\Fromans|c134;Number }
 73
     1
 44
1.0
1001
AcDbBlockRepETag
1070
     1
1071
      110
1005
7EB83
1001
ACAD
1000
MTEXTBEGIN
1070
    73
1070
     1
1070
    44
1040
1.0
1070
    74
1070
     0
1000
MTEXTEND
1000
ACAD_MTEXT_DEFINED_HEIGHT_BEGIN
1070
    46
1040
5.530941211648841
1000
ACAD_MTEXT_DEFINED_HEIGHT_END
  0
LINE
  5
7EB84
330
10FE8
100
AcDbEntity
  8
图框
370
    -3
100
AcDbLine
 10
946.9285026103634
 20
514.7363439698449
 30
0.0
 11
1036.653967466372
 21
514.7363439698449
 31
0.0
1001
AcDbBlockRepETag
1070
     1
1071
      111
1005
7EB84
  0
LINE
  5
7EB85
330
10FE8
100
AcDbEntity
  8
图框
370
    -3
100
AcDbLine
 10
946.9285026103634
 20
509.2054027581959
 30
0.0
 11
1036.653967466372
 21
509.2054027581959
 31
0.0
1001
AcDbBlockRepETag
1070
     1
1071
      112
1005
7EB85
  0
LINE
  5
7EB86
330
10FE8
100
AcDbEntity
  8
图框
370
    -3
100
AcDbLine
 10
946.9285026103634
 20
502.9127443836848
 30
0.0
 11
1036.653967466372
 21
502.9127443836848
 31
0.0
1001
AcDbBlockRepETag
1070
     1
1071
      113
1005
7EB86
  0
LINE
  5
7EB87
330
10FE8
100
AcDbEntity
  8
图框
370
    -3
100
AcDbLine
 10
946.9285026103634
 20
496.620086009173
 30
0.0
 11
1036.653967466372
 21
496.620086009173
 31
0.0
1001
AcDbBlockRepETag
1070
     1
1071
      114
1005
7EB87
  0
LINE
  5
7EB88
330
10FE8
100
AcDbEntity
  8
图框
370
    35
380
     1
100
AcDbLine
 10
946.9285026103634
 20
531.3291676047914
 30
0.0
 11
946.9285026103634
 21
484.0347692601515
 31
0.0
1001
AcDbBlockRepETag
1070
     1
1071
      115
1005
7EB88
  0
LINE
  5
7EB89
330
10FE8
100
AcDbEntity
  8
图框
370
    -3
100
AcDbLine
 10
1021.301636813399
 20
531.3291676047914
 30
0.0
 11
1021.301636813399
 21
484.0347692601515
 31
0.0
1001
AcDbBlockRepETag
1070
     1
1071
      116
1005
7EB89
  0
LINE
  5
7EB8A
330
10FE8
100
AcDbEntity
  8
图框
370
    -3
100
AcDbLine
 10
1003.652872644553
 20
531.3291676047914
 30
0.0
 11
1003.652872644553
 21
484.0347692601515
 31
0.0
1001
AcDbBlockRepETag
1070
     1
1071
      117
1005
7EB8A
  0
LINE
  5
7EB8B
330
10FE8
100
AcDbEntity
  8
图框
370
    -3
100
AcDbLine
 10
965.3649733158603
 20
531.3291676047914
 30
0.0
 11
965.3649733158603
 21
509.2054027581959
 31
0.0
1001
AcDbBlockRepETag
1070
     1
1071
      118
1005
7EB8B
  0
LINE
  5
7EB8C
330
10FE8
100
AcDbEntity
  8
图框
370
    -3
100
AcDbLine
 10
956.1467379631109
 20
531.3291676047914
 30
0.0
 11
956.1467379631109
 21
509.2054027581959
 31
0.0
1001
AcDbBlockRepETag
1070
     1
1071
      119
1005
7EB8C
  0
MTEXT
  5
7EB8D
102
{ACAD_XDICTIONARY
360
7EBD2
102
}
330
10FE8
100
AcDbEntity
  8
图框
100
AcDbMText
 10
951.537620286737
 20
511.9708733640202
 30
0.0
 40
1.958998408821398
 41
9.218235352747692
 46
5.530941211648832
 71
     5
 72
     5
  1
标记\P{\Fromans|c134;Mark}
 73
     1
 44
1.0
1001
AcDbBlockRepETag
1070
     1
1071
      120
1005
7EB8D
1001
ACAD
1000
MTEXTBEGIN
1070
    73
1070
     1
1070
    44
1040
1.0
1070
    74
1070
     0
1000
MTEXTEND
1000
ACAD_MTEXT_DEFINED_HEIGHT_BEGIN
1070
    46
1040
5.530941211648832
1000
ACAD_MTEXT_DEFINED_HEIGHT_END
  0
MTEXT
  5
7EB8E
102
{ACAD_XDICTIONARY
360
7EBD4
102
}
330
10FE8
100
AcDbEntity
  8
图框
100
AcDbMText
 10
953.4185582897936
 20
493.4737568219182
 30
0.0
 40
2.252848170144607
 41
12.98011135886041
 46
6.292658374510382
 71
     5
 72
     5
  1
审核\P{\Fromans|c134;Checked}
 73
     1
 44
1.0
1001
AcDbBlockRepETag
1070
     1
1071
      121
1005
7EB8E
1001
ACAD
1000
MTEXTBEGIN
1070
    73
1070
     1
1070
    44
1040
1.0
1070
    74
1070
     0
1000
MTEXTEND
1000
ACAD_MTEXT_DEFINED_HEIGHT_BEGIN
1070
    46
1040
6.292658374510382
1000
ACAD_MTEXT_DEFINED_HEIGHT_END
  0
MTEXT
  5
7EB8F
102
{ACAD_XDICTIONARY
360
7EBD6
102
}
330
10FE8
100
AcDbEntity
  8
图框
100
AcDbMText
 10
953.4185582897936
 20
499.8775635376777
 30
0.0
 40
2.252848170144607
 41
12.98011135886041
 46
6.070361692014189
 71
     5
 72
     5
  1
绘图\P{\Fromans|c134;Drawn\Ftxt|c134; }
 73
     1
 44
1.0
1001
AcDbBlockRepETag
1070
     1
1071
      122
1005
7EB8F
1001
ACAD
1000
MTEXTBEGIN
1070
    73
1070
     1
1070
    44
1040
1.0
1070
    74
1070
     0
1000
MTEXTEND
1000
ACAD_MTEXT_DEFINED_HEIGHT_BEGIN
1070
    46
1040
6.070361692014189
1000
ACAD_MTEXT_DEFINED_HEIGHT_END
  0
ARC
  5
7EB90
330
10FE8
100
AcDbEntity
  8
图框
 62
     4
370
    35
100
AcDbCircle
 10
1086.900627017421
 20
490.0179944151195
 30
0.0
 40
4.063310408393665
100
AcDbArc
 50
18.95237904564806
 51
161.0476209543519
1001
AcDbBlockRepETag
1070
     1
1071
      123
1005
7EB90
  0
ARC
  5
7EB91
330
10FE8
100
AcDbEntity
  8
图框
 62
     4
370
    35
100
AcDbCircle
 10
1086.900627017421
 20
490.0179944151195
 30
0.0
 40
4.063310408393665
100
AcDbArc
 50
198.952379045648
 51
341.0476209543519
1001
AcDbBlockRepETag
1070
     1
1071
      124
1005
7EB91
  0
LINE
  5
7EB92
330
10FE8
100
AcDbEntity
  8
图框
 62
     4
370
    35
100
AcDbLine
 10
1083.057593369548
 20
488.6983035966752
 30
0.0
 11
1090.74366066529
 21
488.6983035966752
 31
0.0
1001
AcDbBlockRepETag
1070
     1
1071
      125
1005
7EB92
  0
LINE
  5
7EB93
330
10FE8
100
AcDbEntity
  8
图框
 62
     4
370
    35
100
AcDbLine
 10
1083.057593369548
 20
491.3376852335652
 30
0.0
 11
1090.74366066529
 21
491.3376852335652
 31
0.0
1001
AcDbBlockRepETag
1070
     1
1071
      126
1005
7EB93
  0
MTEXT
  5
7EB94
330
10FE8
100
AcDbEntity
  8
图框
 62
     1
370
    20
100
AcDbMText
 10
1083.034582879669
 20
491.0506288081688
 30
0.0
 40
2.005930044038334
 41
5.047240019334847
 46
0.0
 71
     1
 72
     5
  1
{\fArial|b0|i0|c0|p34;W}
  7
Chinese
 73
     1
 44
1.0
1001
AcDbBlockRepETag
1070
     1
1071
      127
1005
7EB94
1001
ACAD
1000
MTEXTBEGIN
1070
    73
1070
     1
1070
    44
1040
1.0
1070
    74
1070
     0
1000
MTEXTEND
  0
LINE
  5
7EB95
330
10FE8
100
AcDbEntity
  8
图框
370
    -3
100
AcDbLine
 10
946.9285026103634
 20
490.327427634663
 30
0.0
 11
1036.653967466372
 21
490.327427634663
 31
0.0
1001
AcDbBlockRepETag
1070
     1
1071
      128
1005
7EB95
  0
LINE
  5
7EB96
330
10FE8
100
AcDbEntity
  8
图框
370
    -3
100
AcDbLine
 10
959.9086139692238
 20
509.2054027581959
 30
0.0
 11
959.9086139692238
 21
484.0347692601515
 31
0.0
1001
AcDbBlockRepETag
1070
     1
1071
      129
1005
7EB96
  0
MTEXT
  5
7EB97
330
10FE8
100
AcDbEntity
  8
图框
100
AcDbMText
 10
967.6594956750129
 20
506.0590735709403
 30
0.0
 40
2.252848170144607
 41
15.50176341157869
 46
6.292658374511246
 71
     5
 72
     5
  1
姓名{\Fromans|c134;/Name\Ftxt|c134; }
 73
     1
 44
1.0
1001
AcDbBlockRepETag
1070
     1
1071
      130
1005
7EB97
1001
ACAD
1000
MTEXTBEGIN
1070
    73
1070
     1
1070
    44
1040
1.0
1070
    74
1070
     0
1000
MTEXTEND
1000
ACAD_MTEXT_DEFINED_HEIGHT_BEGIN
1070
    46
1040
6.292658374511246
1000
ACAD_MTEXT_DEFINED_HEIGHT_END
  0
MTEXT
  5
7EB98
330
10FE8
100
AcDbEntity
  8
图框
100
AcDbMText
 10
983.0415693332477
 20
506.0590735709403
 30
0.0
 40
2.252848170144607
 41
15.26238390489042
 46
6.2926583745112
 71
     5
 72
     5
  1
日期{\Fromans|c134;/Date}
 73
     1
 44
1.0
1001
AcDbBlockRepETag
1070
     1
1071
      131
1005
7EB98
1001
ACAD
1000
MTEXTBEGIN
1070
    73
1070
     1
1070
    44
1040
1.0
1070
    74
1070
     0
1000
MTEXTEND
1000
ACAD_MTEXT_DEFINED_HEIGHT_BEGIN
1070
    46
1040
6.2926583745112
1000
ACAD_MTEXT_DEFINED_HEIGHT_END
  0
LINE
  5
7EB99
330
10FE8
100
AcDbEntity
  8
图框
370
    -3
100
AcDbLine
 10
946.9285026103634
 20
509.2054027581959
 30
0.0
 11
959.9086139692238
 21
502.9127443836848
 31
0.0
1001
AcDbBlockRepETag
1070
     1
1071
      132
1005
7EB99
  0
MTEXT
  5
7EB9A
330
10FE8
100
AcDbEntity
  8
图框
100
AcDbMText
 10
1012.931405110086
 20
506.0185715840725
 30
0.0
 40
2.252848170144607
 41
16.93492221063566
 46
0.0
 71
     5
 72
     5
  1
姓名{\Fromans|c134;/Name}
 73
     1
 44
1.0
1001
AcDbBlockRepETag
1070
     1
1071
      133
1005
7EB9A
1001
ACAD
1000
MTEXTBEGIN
1070
    73
1070
     1
1070
    44
1040
1.0
1070
    74
1070
     0
1000
MTEXTEND
  0
MTEXT
  5
7EB9B
330
10FE8
100
AcDbEntity
  8
图框
100
AcDbMText
 10
1028.977802139886
 20
506.0590735709403
 30
0.0
 40
2.252848170144607
 41
15.35233065297283
 46
6.292658374511256
 71
     5
 72
     5
  1
日期{\Fromans|c134;/Date}
 73
     1
 44
1.0
1001
AcDbBlockRepETag
1070
     1
1071
      134
1005
7EB9B
1001
ACAD
1000
MTEXTBEGIN
1070
    73
1070
     1
1070
    44
1040
1.0
1070
    74
1070
     0
1000
MTEXTEND
1000
ACAD_MTEXT_DEFINED_HEIGHT_BEGIN
1070
    46
1040
6.292658374511256
1000
ACAD_MTEXT_DEFINED_HEIGHT_END
  0
LINE
  5
7EB9C
330
10FE8
100
AcDbEntity
  8
图框
370
    -3
100
AcDbLine
 10
1003.652872644553
 20
502.9127443836848
 30
0.0
 11
990.6727612856927
 21
509.2054027581959
 31
0.0
1001
AcDbBlockRepETag
1070
     1
1071
      135
1005
7EB9C
  0
MTEXT
  5
7EB9D
102
{ACAD_XDICTIONARY
360
7EBD8
102
}
330
10FE8
100
AcDbEntity
  8
图框
100
AcDbMText
 10
997.1628169651232
 20
487.1810984474071
 30
0.0
 40
2.252848170144607
 41
12.98011135886052
 46
6.292658374511517
 71
     5
 72
     5
  1
批准\P{\Fromans|c134;Approved}
 73
     1
 44
1.0
1001
AcDbBlockRepETag
1070
     1
1071
      136
1005
7EB9D
1001
ACAD
1000
MTEXTBEGIN
1070
    73
1070
     1
1070
    44
1040
1.0
1070
    74
1070
     0
1000
MTEXTEND
1000
ACAD_MTEXT_DEFINED_HEIGHT_BEGIN
1070
    46
1040
6.292658374511517
1000
ACAD_MTEXT_DEFINED_HEIGHT_END
  0
MTEXT
  5
7EB9E
102
{ACAD_XDICTIONARY
360
7EBDA
102
}
330
10FE8
100
AcDbEntity
  8
图框
100
AcDbMText
 10
953.4185582897936
 20
487.1810984474071
 30
0.0
 40
2.252848170144607
 41
12.98011135886041
 46
6.292658374511495
 71
     5
 72
     5
  1
工艺\P{\Fromans|c134;Process}
 73
     1
 44
1.0
1001
AcDbBlockRepETag
1070
     1
1071
      137
1005
7EB9E
1001
ACAD
1000
MTEXTBEGIN
1070
    73
1070
     1
1070
    44
1040
1.0
1070
    74
1070
     0
1000
MTEXTEND
1000
ACAD_MTEXT_DEFINED_HEIGHT_BEGIN
1070
    46
1040
6.292658374511495
1000
ACAD_MTEXT_DEFINED_HEIGHT_END
  0
MTEXT
  5
7EB9F
102
{ACAD_XDICTIONARY
360
7EBDC
102
}
330
10FE8
100
AcDbEntity
  8
图框
100
AcDbMText
 10
1028.977802139886
 20
511.8287965307664
 30
0.0
 40
1.958998408821398
 41
15.3523306529728
 46
5.246787545140668
 71
     5
 72
     5
  1
日期\P{\Fromans|c134;Date}
 73
     1
 44
1.0
1001
AcDbBlockRepETag
1070
     1
1071
      138
1005
7EB9F
1001
ACAD
1000
MTEXTBEGIN
1070
    73
1070
     1
1070
    44
1040
1.0
1070
    74
1070
     0
1000
MTEXTEND
1000
ACAD_MTEXT_DEFINED_HEIGHT_BEGIN
1070
    46
1040
5.246787545140668
1000
ACAD_MTEXT_DEFINED_HEIGHT_END
  0
MTEXT
  5
7EBA0
330
10FE8
100
AcDbEntity
  8
图框
100
AcDbMText
 10
1086.643735910939
 20
509.1493769780809
 30
0.0
 40
2.154898249703542
 41
13.34474941400573
 46
8.87215554796615
 71
     5
 72
     5
  1
产品料号\P{\Fromans|c134;Part No.}
 73
     1
 44
1.0
1001
AcDbBlockRepETag
1070
     1
1071
      139
1005
7EBA0
1001
ACAD
1000
MTEXTBEGIN
1070
    73
1070
     1
1070
    44
1040
1.0
1070
    74
1070
     0
1000
MTEXTEND
1000
ACAD_MTEXT_DEFINED_HEIGHT_BEGIN
1070
    46
1040
8.87215554796615
1000
ACAD_MTEXT_DEFINED_HEIGHT_END
  0
MTEXT
  5
7EBA1
330
10FE8
100
AcDbEntity
  8
图框
100
AcDbMText
 10
1086.643735910939
 20
500.2775205517163
 30
0.0
 40
1.958998408821398
 41
13.34474941400573
 46
8.871557304763321
 71
     5
 72
     5
  1
产品名称\P{\Fromans|c134;Part Name}
 73
     1
 44
1.0
1001
AcDbBlockRepETag
1070
     1
1071
      140
1005
7EBA1
1001
ACAD
1000
MTEXTBEGIN
1070
    73
1070
     1
1070
    44
1040
1.0
1070
    74
1070
     0
1000
MTEXTEND
1000
ACAD_MTEXT_DEFINED_HEIGHT_BEGIN
1070
    46
1040
8.871557304763321
1000
ACAD_MTEXT_DEFINED_HEIGHT_END
  0
LINE
  5
7EBA2
330
10FE8
100
AcDbEntity
  8
图框
 62
     1
370
    18
100
AcDbLine
 10
833.4128518455365
 20
690.5347692601515
 30
0.0
 11
833.4128518455365
 21
480.5347692601515
 31
0.0
1001
AcDbBlockRepETag
1070
     1
1071
      141
1005
7EBA2
  0
LINE
  5
7EBA3
330
10FE8
100
AcDbEntity
  8
图框
 62
     1
370
    18
100
AcDbLine
 10
833.4128518455365
 20
480.5347692601515
 30
0.0
 11
1130.411601781236
 21
480.5347692601515
 31
0.0
1001
AcDbBlockRepETag
1070
     1
1071
      142
1005
7EBA3
  0
LINE
  5
7EBA4
330
10FE8
100
AcDbEntity
  8
图框
 62
     1
370
    18
100
AcDbLine
 10
833.4128518455365
 20
690.5347692601515
 30
0.0
 11
1130.411601781236
 21
690.5347692601515
 31
0.0
1001
AcDbBlockRepETag
1070
     1
1071
      143
1005
7EBA4
  0
LINE
  5
7EBA5
330
10FE8
100
AcDbEntity
  8
图框
 62
     1
370
    18
100
AcDbLine
 10
1130.411601781236
 20
480.5347692601515
 30
0.0
 11
1130.411601781236
 21
690.5347692601515
 31
0.0
1001
AcDbBlockRepETag
1070
     1
1071
      144
1005
7EBA5
  0
LINE
  5
7EBA6
330
10FE8
100
AcDbEntity
  8
图框
370
    18
100
AcDbLine
 10
836.9128518455394
 20
686.7901958362482
 30
0.0
 11
861.5351874539182
 21
686.7901958362482
 31
0.0
1001
AcDbBlockRepETag
1070
     1
1071
      145
1005
7EBA6
  0
LINE
  5
7EBA7
330
10FE8
100
AcDbEntity
  8
图框
370
    50
100
AcDbLine
 10
1126.928502610363
 20
484.3410054693078
 30
0.0
 11
1126.928502610363
 21
675.5347692601515
 31
0.0
1001
AcDbBlockRepETag
1070
     1
1071
      146
1005
7EBA7
  0
MTEXT
  5
7EBA8
330
10FE8
100
AcDbEntity
  8
图框
 62
     3
100
AcDbMText
 10
1052.897990117958
 20
495.8417418993364
 30
0.0
 40
2.985513575034151
 41
10.82934843439114
 46
7.886094601211307
 71
     5
 72
     5
  1
V1.1
  7
Romans字体
 73
     1
 44
1.0
1001
AcDbBlockRepETag
1070
     1
1071
      147
1005
7EBA8
1001
ACAD
1000
MTEXTBEGIN
1070
    73
1070
     1
1070
    44
1040
1.0
1070
    74
1070
     0
1000
MTEXTEND
1000
ACAD_MTEXT_DEFINED_HEIGHT_BEGIN
1070
    46
1040
7.886094601211307
1000
ACAD_MTEXT_DEFINED_HEIGHT_END
  0
MTEXT
  5
7EBA9
330
10FE8
100
AcDbEntity
  8
图框
 62
     3
100
AcDbMText
 10
1063.722665487209
 20
513.5854547520628
 30
0.0
 40
2.487927979195124
 41
32.49739143345536
 46
11.82914190181905
 71
     5
 72
     5
  1
-
  7
Romans字体
 73
     1
 44
1.0
1001
AcDbBlockRepETag
1070
     1
1071
      148
1005
7EBA9
1001
ACAD
1000
MTEXTBEGIN
1070
    73
1070
     1
1070
    44
1040
1.0
1070
    74
1070
     0
1000
MTEXTEND
1000
ACAD_MTEXT_DEFINED_HEIGHT_BEGIN
1070
    46
1040
11.82914190181905
1000
ACAD_MTEXT_DEFINED_HEIGHT_END
  0
MTEXT
  5
7EBAA
330
10FE8
100
AcDbEntity
  8
图框
 62
     3
100
AcDbMText
 10
1063.722665487209
 20
525.4145966538833
 30
0.0
 40
2.487927979195124
 41
32.49739143345536
 46
11.82914190181905
 71
     5
 72
     5
  1
-
  7
Romans字体
 73
     1
 44
1.0
1001
AcDbBlockRepETag
1070
     1
1071
      149
1005
7EBAA
1001
ACAD
1000
MTEXTBEGIN
1070
    73
1070
     1
1070
    44
1040
1.0
1070
    74
1070
     0
1000
MTEXTEND
1000
ACAD_MTEXT_DEFINED_HEIGHT_BEGIN
1070
    46
1040
11.82914190181905
1000
ACAD_MTEXT_DEFINED_HEIGHT_END
  0
ENDBLK
  5
1107F
330
10FE8
100
AcDbEntity
  8
0
100
AcDbBlockEnd
  0
BLOCK
  5
7E51D
330
7E51C
100
AcDbEntity
  8
0
100
AcDbBlockBegin
  2
*D2
 70
     1
 10
0.0
 20
0.0
 30
0.0
  3
*D2
  1

  0
LINE
  5
7E80A
330
7E51C
100
AcDbEntity
  8
DIM
 62
     6
370
    -2
100
AcDbLine
 10
4802.260846372155
 20
27.71378539892305
 30
0.0
 11
4799.789248506693
 21
27.71378539892305
 31
0.0
  0
LINE
  5
7E80B
330
7E51C
100
AcDbEntity
  8
DIM
 62
     6
370
    -2
100
AcDbLine
 10
4802.260846372155
 20
25.96378539892305
 30
0.0
 11
4799.789248506693
 21
25.96378539892305
 31
0.0
  0
LINE
  5
7E80C
330
7E51C
100
AcDbEntity
  8
DIM
 62
     1
370
    -2
100
AcDbLine
 10
4800.089098506695
 20
28.91378539892305
 30
0.0
 11
4800.089098506695
 21
30.11378539892305
 31
0.0
  0
LINE
  5
7E80D
330
7E51C
100
AcDbEntity
  8
DIM
 62
     1
370
    -2
100
AcDbLine
 10
4800.089098506695
 20
24.76378539892305
 30
0.0
 11
4800.089098506695
 21
23.56378539892305
 31
0.0
  0
SOLID
  5
7E80E
330
7E51C
100
AcDbEntity
  8
DIM
 62
     1
100
AcDbTrace
 10
4799.889098506695
 20
28.91378539892305
 30
0.0
 11
4800.289098506695
 21
28.91378539892305
 31
0.0
 12
4800.089098506695
 22
27.71378539892305
 32
0.0
 13
4800.089098506695
 23
27.71378539892305
 33
0.0
  0
SOLID
  5
7E80F
330
7E51C
100
AcDbEntity
  8
DIM
 62
     1
100
AcDbTrace
 10
4799.889098506695
 20
24.76378539892305
 30
0.0
 11
4800.289098506695
 21
24.76378539892305
 31
0.0
 12
4800.089098506695
 22
25.96378539892305
 32
0.0
 13
4800.089098506695
 23
25.96378539892305
 33
0.0
  0
MTEXT
  5
7E810
330
7E51C
100
AcDbEntity
  8
DIM
 62
     4
100
AcDbMText
 10
4799.039248506693
 20
26.83878539892382
 30
0.0
 40
1.5
 41
0.0
 46
0.0
 71
     5
 72
     1
  1
\A1;a
  7
Romans字体
 11
0.0000000000000001
 21
1.0
 31
0.0
 73
     1
 44
1.0
1001
ACAD
1000
MTEXTBEGIN
1070
    73
1070
     1
1070
    44
1040
1.0
1070
    74
1070
     0
1000
MTEXTEND
  0
POINT
  5
7E811
330
7E51C
100
AcDbEntity
  8
Defpoints
 62
     0
100
AcDbPoint
 10
4802.560696372156
 20
27.71378539892305
 30
0.0
  0
POINT
  5
7E812
330
7E51C
100
AcDbEntity
  8
Defpoints
 62
     0
100
AcDbPoint
 10
4802.560696372156
 20
25.96378539892305
 30
0.0
  0
POINT
  5
7E813
330
7E51C
100
AcDbEntity
  8
Defpoints
 62
     0
100
AcDbPoint
 10
4800.089098506695
 20
25.96378539892305
 30
0.0
  0
ENDBLK
  5
7E51E
330
7E51C
100
AcDbEntity
  8
0
100
AcDbBlockEnd
  0
BLOCK
  5
7E535
330
7E534
100
AcDbEntity
  8
0
100
AcDbBlockBegin
  2
*D3
 70
     1
 10
0.0
 20
0.0
 30
0.0
  3
*D3
  1

  0
LINE
  5
7E83B
330
7E534
100
AcDbEntity
  8
DIM
 62
     6
370
    -2
100
AcDbLine
 10
4803.560546373306
 20
18.22936096610779
 30
0.0
 11
4805.041735044986
 21
18.22936096610779
 31
0.0
  0
LINE
  5
7E83C
330
7E534
100
AcDbEntity
  8
DIM
 62
     6
370
    -2
100
AcDbLine
 10
4803.560546373306
 20
15.12936096725794
 30
0.0
 11
4805.041735044986
 21
15.12936096725793
 31
0.0
  0
LINE
  5
7E83D
330
7E534
100
AcDbEntity
  8
DIM
 62
     1
370
    -2
100
AcDbLine
 10
4804.741885044986
 20
17.02936096610779
 30
0.0
 11
4804.741885044986
 21
16.32936096725793
 31
0.0
  0
LINE
  5
7E83E
330
7E534
100
AcDbEntity
  8
DIM
 62
     1
370
    -2
100
AcDbLine
 10
4804.741885044986
 20
15.12936096725793
 30
0.0
 11
4804.741885044986
 21
12.68680382440079
 31
0.0
  0
SOLID
  5
7E83F
330
7E534
100
AcDbEntity
  8
DIM
 62
     1
100
AcDbTrace
 10
4804.541885044987
 20
17.02936096610779
 30
0.0
 11
4804.941885044986
 21
17.02936096610779
 31
0.0
 12
4804.741885044986
 22
18.22936096610779
 32
0.0
 13
4804.741885044986
 23
18.22936096610779
 33
0.0
  0
SOLID
  5
7E840
330
7E534
100
AcDbEntity
  8
DIM
 62
     1
100
AcDbTrace
 10
4804.541885044987
 20
16.32936096725793
 30
0.0
 11
4804.941885044986
 21
16.32936096725793
 31
0.0
 12
4804.741885044986
 22
15.12936096725793
 32
0.0
 13
4804.741885044986
 23
15.12936096725793
 33
0.0
  0
MTEXT
  5
7E841
330
7E534
100
AcDbEntity
  8
DIM
 62
     4
100
AcDbMText
 10
4803.692035044985
 20
13.30808239583013
 30
0.0
 40
1.5
 41
0.0
 46
0.0
 71
     5
 72
     1
  1
\A1;b
  7
Romans字体
 11
0.0000000000000001
 21
1.0
 31
0.0
 73
     1
 44
1.0
1001
ACAD
1000
MTEXTBEGIN
1070
    73
1070
     1
1070
    44
1040
1.0
1070
    74
1070
     0
1000
MTEXTEND
  0
POINT
  5
7E842
330
7E534
100
AcDbEntity
  8
Defpoints
 62
     0
100
AcDbPoint
 10
4803.260696373306
 20
18.22936096610779
 30
0.0
  0
POINT
  5
7E843
330
7E534
100
AcDbEntity
  8
Defpoints
 62
     0
100
AcDbPoint
 10
4803.260696373306
 20
15.12936096725794
 30
0.0
  0
POINT
  5
7E844
330
7E534
100
AcDbEntity
  8
Defpoints
 62
     0
100
AcDbPoint
 10
4804.741885044986
 20
15.12936096725793
 30
0.0
  0
ENDBLK
  5
7E536
330
7E534
100
AcDbEntity
  8
0
100
AcDbBlockEnd
  0
BLOCK
  5
7E590
330
7E58F
100
AcDbEntity
  8
0
100
AcDbBlockBegin
  2
*D4
 70
     1
 10
0.0
 20
0.0
 30
0.0
  3
*D4
  1

  0
LINE
  5
7E845
330
7E58F
100
AcDbEntity
  8
DIM
 62
     6
370
    -2
100
AcDbLine
 10
4801.960846372156
 20
18.37936096725794
 30
0.0
 11
4799.85494319155
 21
18.37936096725794
 31
0.0
  0
LINE
  5
7E846
330
7E58F
100
AcDbEntity
  8
DIM
 62
     6
370
    -2
100
AcDbLine
 10
4801.960846372156
 20
14.9793609672583
 30
0.0
 11
4799.85494319155
 21
14.9793609672583
 31
0.0
  0
LINE
  5
7E847
330
7E58F
100
AcDbEntity
  8
DIM
 62
     1
370
    -2
100
AcDbLine
 10
4800.154793191551
 20
17.17936096725794
 30
0.0
 11
4800.154793191551
 21
16.1793609672583
 31
0.0
  0
LINE
  5
7E848
330
7E58F
100
AcDbEntity
  8
DIM
 62
     1
370
    -2
100
AcDbLine
 10
4800.154793191551
 20
14.9793609672583
 30
0.0
 11
4800.154793191551
 21
9.751089538686866
 31
0.0
  0
SOLID
  5
7E849
330
7E58F
100
AcDbEntity
  8
DIM
 62
     1
100
AcDbTrace
 10
4799.954793191552
 20
17.17936096725794
 30
0.0
 11
4800.354793191552
 21
17.17936096725794
 31
0.0
 12
4800.154793191551
 22
18.37936096725794
 32
0.0
 13
4800.154793191551
 23
18.37936096725794
 33
0.0
  0
SOLID
  5
7E84A
330
7E58F
100
AcDbEntity
  8
DIM
 62
     1
100
AcDbTrace
 10
4799.954793191552
 20
16.1793609672583
 30
0.0
 11
4800.354793191552
 21
16.1793609672583
 31
0.0
 12
4800.154793191551
 22
14.9793609672583
 32
0.0
 13
4800.154793191551
 23
14.9793609672583
 33
0.0
  0
MTEXT
  5
7E84B
330
7E58F
100
AcDbEntity
  8
DIM
 62
     4
100
AcDbMText
 10
4799.10494319155
 20
11.76522525297335
 30
0.0
 40
1.5
 41
0.0
 46
0.0
 71
     5
 72
     1
  1
\A1;%%c3.4
  7
Romans字体
 11
0.0000000000000001
 21
1.0
 31
0.0
 73
     1
 44
1.0
1001
ACAD
1000
MTEXTBEGIN
1070
    73
1070
     1
1070
    44
1040
1.0
1070
    74
1070
     0
1000
MTEXTEND
  0
POINT
  5
7E84C
330
7E58F
100
AcDbEntity
  8
Defpoints
 62
     0
100
AcDbPoint
 10
4802.260696372155
 20
18.37936096725794
 30
0.0
  0
POINT
  5
7E84D
330
7E58F
100
AcDbEntity
  8
Defpoints
 62
     0
100
AcDbPoint
 10
4802.260696372155
 20
14.9793609672583
 30
0.0
  0
POINT
  5
7E84E
330
7E58F
100
AcDbEntity
  8
Defpoints
 62
     0
100
AcDbPoint
 10
4800.154793191551
 20
14.9793609672583
 30
0.0
  0
ENDBLK
  5
7E591
330
7E58F
100
AcDbEntity
  8
0
100
AcDbBlockEnd
  0
BLOCK
  5
7E59E
330
7E59D
100
AcDbEntity
  8
0
100
AcDbBlockBegin
  2
*D5
 70
     1
 10
0.0
 20
0.0
 30
0.0
  3
*D5
  1

  0
LINE
  5
7E84F
330
7E59D
100
AcDbEntity
  8
DIM
 62
     6
370
    -2
100
AcDbLine
 10
4812.355060923481
 20
18.57936096725775
 30
0.0
 11
4812.093358477405
 21
18.57936096725775
 31
0.0
  0
LINE
  5
7E850
330
7E59D
100
AcDbEntity
  8
DIM
 62
     6
370
    -2
100
AcDbLine
 10
4812.355060923481
 20
14.77936096725803
 30
0.0
 11
4812.093358477405
 21
14.77936096725803
 31
0.0
  0
LINE
  5
7E851
330
7E59D
100
AcDbEntity
  8
DIM
 62
     1
370
    -2
100
AcDbLine
 10
4812.393208477407
 20
17.37936096725776
 30
0.0
 11
4812.393208477407
 21
15.97936096725803
 31
0.0
  0
LINE
  5
7E852
330
7E59D
100
AcDbEntity
  8
DIM
 62
     1
370
    -2
100
AcDbLine
 10
4812.393208477407
 20
14.77936096725803
 30
0.0
 11
4812.393208477407
 21
9.604660967258027
 31
0.0
  0
SOLID
  5
7E853
330
7E59D
100
AcDbEntity
  8
DIM
 62
     1
100
AcDbTrace
 10
4812.193208477407
 20
17.37936096725776
 30
0.0
 11
4812.593208477408
 21
17.37936096725776
 31
0.0
 12
4812.393208477407
 22
18.57936096725775
 32
0.0
 13
4812.393208477407
 23
18.57936096725775
 33
0.0
  0
SOLID
  5
7E854
330
7E59D
100
AcDbEntity
  8
DIM
 62
     1
100
AcDbTrace
 10
4812.193208477407
 20
15.97936096725803
 30
0.0
 11
4812.593208477408
 21
15.97936096725803
 31
0.0
 12
4812.393208477407
 22
14.77936096725803
 32
0.0
 13
4812.393208477407
 23
14.77936096725803
 33
0.0
  0
MTEXT
  5
7E855
330
7E59D
100
AcDbEntity
  8
DIM
 62
     4
100
AcDbMText
 10
4811.343358477405
 20
11.5920109672588
 30
0.0
 40
1.5
 41
0.0
 46
0.0
 71
     5
 72
     1
  1
\A1;%%c3.8
  7
Romans字体
 11
0.0000000000000001
 21
1.0
 31
0.0
 73
     1
 44
1.0
1001
ACAD
1000
MTEXTBEGIN
1070
    73
1070
     1
1070
    44
1040
1.0
1070
    74
1070
     0
1000
MTEXTEND
  0
POINT
  5
7E856
330
7E59D
100
AcDbEntity
  8
Defpoints
 62
     0
100
AcDbPoint
 10
4812.654910923481
 20
18.57936096725775
 30
0.0
  0
POINT
  5
7E857
330
7E59D
100
AcDbEntity
  8
Defpoints
 62
     0
100
AcDbPoint
 10
4812.654910923481
 20
14.77936096725803
 30
0.0
  0
POINT
  5
7E858
330
7E59D
100
AcDbEntity
  8
Defpoints
 62
     0
100
AcDbPoint
 10
4812.393208477407
 20
14.77936096725803
 30
0.0
  0
ENDBLK
  5
7E59F
330
7E59D
100
AcDbEntity
  8
0
100
AcDbBlockEnd
  0
BLOCK
  5
7E5AC
330
7E5AB
100
AcDbEntity
  8
0
100
AcDbBlockBegin
  2
*D6
 70
     1
 10
0.0
 20
0.0
 30
0.0
  3
*D6
  1

  0
LINE
  5
7EA6D
330
7E5AB
100
AcDbEntity
  8
DIM
 62
     6
370
    -2
100
AcDbLine
 10
4802.260696372155
 20
25.36393539892332
 30
0.0
 11
4802.260696372155
 21
22.2396072993018
 31
0.0
  0
LINE
  5
7EA6E
330
7E5AB
100
AcDbEntity
  8
DIM
 62
     6
370
    -2
100
AcDbLine
 10
4821.760696372155
 20
25.28181904809843
 30
0.0
 11
4821.760696372155
 21
22.2396072993018
 31
0.0
  0
LINE
  5
7EA6F
330
7E5AB
100
AcDbEntity
  8
DIM
 62
     1
370
    -2
100
AcDbLine
 10
4803.460696372155
 20
22.5394572993018
 30
0.0
 11
4820.560696372155
 21
22.5394572993018
 31
0.0
  0
SOLID
  5
7EA70
330
7E5AB
100
AcDbEntity
  8
DIM
 62
     1
100
AcDbTrace
 10
4803.460696372155
 20
22.7394572993018
 30
0.0
 11
4803.460696372155
 21
22.3394572993018
 31
0.0
 12
4802.260696372155
 22
22.5394572993018
 32
0.0
 13
4802.260696372155
 23
22.5394572993018
 33
0.0
  0
SOLID
  5
7EA71
330
7E5AB
100
AcDbEntity
  8
DIM
 62
     1
100
AcDbTrace
 10
4820.560696372155
 20
22.7394572993018
 30
0.0
 11
4820.560696372155
 21
22.3394572993018
 31
0.0
 12
4821.760696372155
 22
22.5394572993018
 32
0.0
 13
4821.760696372155
 23
22.5394572993018
 33
0.0
  0
MTEXT
  5
7EA72
330
7E5AB
100
AcDbEntity
  8
DIM
 62
     4
100
AcDbMText
 10
4811.767579547598
 20
23.5893072993018
 30
0.0
 40
1.5
 41
0.0
 46
0.0
 71
     5
 72
     1
  1
\A1;19.7
  7
Romans字体
 73
     1
 44
1.0
  0
POINT
  5
7EA73
330
7E5AB
100
AcDbEntity
  8
Defpoints
 62
     0
100
AcDbPoint
 10
4802.260696372155
 20
25.66378539892332
 30
0.0
  0
POINT
  5
7EA74
330
7E5AB
100
AcDbEntity
  8
Defpoints
 62
     0
100
AcDbPoint
 10
4821.760696372155
 20
25.58166904809843
 30
0.0
  0
POINT
  5
7EA75
330
7E5AB
100
AcDbEntity
  8
Defpoints
 62
     0
100
AcDbPoint
 10
4821.760696372155
 20
22.5394572993018
 30
0.0
  0
ENDBLK
  5
7E5AD
330
7E5AB
100
AcDbEntity
  8
0
100
AcDbBlockEnd
  0
ENDSEC
  0
SECTION
  2
ENTITIES
  0
HATCH
  5
28AE
330
1F
100
AcDbEntity
  8
图层 1
 62
     7
100
AcDbHatch
 10
0.0
 20
0.0
 30
0.0
210
0.0
220
0.0
230
1.0
  2
SOLID
 70
     1
 71
     0
 91
        1
 92
        1
 93
        2
 72
     4
 94
        3
 73
     0
 74
     0
 95
       17
 96
       13
 40
0.0
 40
0.0
 40
0.0
 40
0.0
 40
0.3527780104152769
 40
0.3527780104152769
 40
0.3527780104152769
 40
0.7055560208305538
 40
0.7055560208305538
 40
0.7055560208305538
 40
1.058334031245828
 40
1.058334031245828
 40
1.058334031245828
 40
1.411112041661104
 40
1.411112041661104
 40
1.411112041661104
 40
1.411112041661104
 10
11.07013262565829
 20
29.50312817963231
 10
11.07013262565829
 20
29.50312817963231
 10
10.9431807732774
 20
29.50312817963231
 10
10.9431807732774
 20
29.50312817963231
 10
10.9431807732774
 20
29.50312817963231
 10
10.85843136843155
 20
29.22786486877117
 10
10.85843136843155
 20
29.22786486877117
 10
10.85843136843155
 20
29.22786486877117
 10
10.90080607085448
 20
29.2068497724476
 10
10.90080607085448
 20
29.2068497724476
 10
10.94455881238059
 20
29.31571486159919
 10
11.00346998404173
 20
29.40907701083995
 10
11.07013262565829
 20
29.50312817963231
 72
     1
 10
11.07013262565829
 20
29.50312817963231
 11
11.07013262565829
 21
29.50312817963231
 97
        0
 75
     0
 76
     1
 98
        0
450
        0
451
        0
460
0.0
461
0.0
452
        0
462
0.0
453
        0
470

  0
HATCH
  5
2C65
330
1F
100
AcDbEntity
  8
图层 1
 62
     7
100
AcDbHatch
 10
0.0
 20
0.0
 30
0.0
210
0.0
220
0.0
230
1.0
  2
SOLID
 70
     1
 71
     0
 91
        1
 92
        1
 93
        2
 72
     4
 94
        3
 73
     0
 74
     0
 95
       47
 96
       43
 40
0.0
 40
0.0
 40
0.0
 40
0.0
 40
0.3527780104152769
 40
0.3527780104152769
 40
0.3527780104152769
 40
0.7055560208305538
 40
0.7055560208305538
 40
0.7055560208305538
 40
1.058334031245828
 40
1.058334031245828
 40
1.058334031245828
 40
1.411112041661104
 40
1.411112041661104
 40
1.411112041661104
 40
1.763890052076384
 40
1.763890052076384
 40
1.763890052076384
 40
2.116668062491659
 40
2.116668062491659
 40
2.116668062491659
 40
2.469446072906936
 40
2.469446072906936
 40
2.469446072906936
 40
2.822224083322215
 40
2.822224083322215
 40
2.822224083322215
 40
3.175002093737492
 40
3.175002093737492
 40
3.175002093737492
 40
3.527780104152768
 40
3.527780104152768
 40
3.527780104152768
 40
3.880558114568044
 40
3.880558114568044
 40
3.880558114568044
 40
4.233336124983321
 40
4.233336124983321
 40
4.233336124983321
 40
4.586114135398599
 40
4.586114135398599
 40
4.586114135398599
 40
4.938892145813873
 40
4.938892145813873
 40
4.938892145813873
 40
4.938892145813873
 10
162.8986914070121
 20
257.4895347631509
 10
162.8986914070121
 20
257.4895347631509
 10
162.9200510131114
 20
257.4471600607279
 10
162.9200510131114
 20
257.4471600607279
 10
162.9200510131114
 20
257.4471600607279
 10
162.9200510131114
 20
257.404785358305
 10
162.9200510131114
 20
257.404785358305
 10
162.9200510131114
 20
257.404785358305
 10
162.8986914070121
 20
257.36258291077
 10
162.8986914070121
 20
257.36258291077
 10
162.8986914070121
 20
257.36258291077
 10
162.8986914070121
 20
257.320208208347
 10
162.8986914070121
 20
257.320208208347
 10
162.8986914070121
 20
257.320208208347
 10
162.8563167045891
 20
257.2990208571356
 10
162.8563167045891
 20
257.2990208571356
 10
162.8563167045891
 20
257.2990208571356
 10
162.8139420021662
 20
257.2563016449369
 10
162.8139420021662
 20
257.2563016449369
 10
162.8139420021662
 20
257.2563016449369
 10
162.7295371070961
 20
257.2563016449369
 10
162.7295371070961
 20
257.2563016449369
 10
162.7295371070961
 20
257.2563016449369
 10
162.6658027985738
 20
257.2778335059241
 10
162.6658027985738
 20
257.2778335059241
 10
162.6658027985738
 20
257.2778335059241
 10
162.6237726059267
 20
257.2990208571356
 10
162.6237726059267
 20
257.2990208571356
 10
162.6237726059267
 20
257.2990208571356
 10
162.5813979035038
 20
257.3413955595585
 10
162.5813979035038
 20
257.3413955595585
 10
162.5813979035038
 20
257.3413955595585
 10
162.5813979035038
 20
257.4895347631509
 10
162.5813979035038
 20
257.4895347631509
 10
162.5813979035038
 20
257.4895347631509
 10
162.6447877022503
 20
257.5525800521216
 10
162.6447877022503
 20
257.5525800521216
 10
162.6447877022503
 20
257.5525800521216
 10
162.7081775009967
 20
257.5525800521216
 10
162.7081775009967
 20
257.5525800521216
 10
162.8749202324821
 20
257.5424170137356
 10
162.7918933765152
 20
257.5939212252171
 10
162.8986914070121
 20
257.4895347631509
 72
     1
 10
162.8986914070121
 20
257.4895347631509
 11
162.8986914070121
 21
257.4895347631509
 97
        0
 75
     0
 76
     1
 98
        0
450
        0
451
        0
460
0.0
461
0.0
452
        0
462
0.0
453
        0
470

  0
HATCH
  5
2EE7
330
1F
100
AcDbEntity
  8
图层 1
 62
     7
100
AcDbHatch
 10
0.0
 20
0.0
 30
0.0
210
0.0
220
0.0
230
1.0
  2
SOLID
 70
     1
 71
     0
 91
        1
 92
        1
 93
        2
 72
     4
 94
        3
 73
     0
 74
     0
 95
       56
 96
       52
 40
0.0
 40
0.0
 40
0.0
 40
0.0
 40
0.3527780104152769
 40
0.3527780104152769
 40
0.3527780104152769
 40
0.7055560208305538
 40
0.7055560208305538
 40
0.7055560208305538
 40
1.058334031245828
 40
1.058334031245828
 40
1.058334031245828
 40
1.411112041661104
 40
1.411112041661104
 40
1.411112041661104
 40
1.763890052076384
 40
1.763890052076384
 40
1.763890052076384
 40
2.116668062491659
 40
2.116668062491659
 40
2.116668062491659
 40
2.469446072906936
 40
2.469446072906936
 40
2.469446072906936
 40
2.822224083322215
 40
2.822224083322215
 40
2.822224083322215
 40
3.175002093737492
 40
3.175002093737492
 40
3.175002093737492
 40
3.527780104152768
 40
3.527780104152768
 40
3.527780104152768
 40
3.880558114568044
 40
3.880558114568044
 40
3.880558114568044
 40
4.233336124983321
 40
4.233336124983321
 40
4.233336124983321
 40
4.586114135398599
 40
4.586114135398599
 40
4.586114135398599
 40
4.938892145813873
 40
4.938892145813873
 40
4.938892145813873
 40
5.291670156229153
 40
5.291670156229153
 40
5.291670156229153
 40
5.64444816664443
 40
5.64444816664443
 40
5.64444816664443
 40
5.997226177059705
 40
5.997226177059705
 40
5.997226177059705
 40
5.997226177059705
 10
185.4837187788815
 20
241.4451977396596
 10
185.4837187788815
 20
241.4451977396596
 10
185.4837187788815
 20
241.4028230372367
 10
185.4837187788815
 20
241.4028230372367
 10
185.4837187788815
 20
241.4028230372367
 10
185.5047338752051
 20
241.3604483348137
 10
185.5047338752051
 20
241.3604483348137
 10
185.4520238795082
 20
241.2782827532863
 10
185.4671823096433
 20
241.1897437409066
 10
185.335579575289
 20
241.2119646214456
 10
185.335579575289
 20
241.2119646214456
 10
185.2932048728662
 20
241.2119646214456
 10
185.2932048728662
 20
241.2119646214456
 10
185.2932048728662
 20
241.2119646214456
 10
185.2294705643439
 20
241.2334964824328
 10
185.2294705643439
 20
241.2334964824328
 10
185.2294705643439
 20
241.2334964824328
 10
185.1660807655974
 20
241.2543393238685
 10
185.1660807655974
 20
241.2543393238685
 10
185.1660807655974
 20
241.2543393238685
 10
185.1450656692739
 20
241.2758711848558
 10
185.1450656692739
 20
241.2758711848558
 10
185.1450656692739
 20
241.2758711848558
 10
185.1450656692739
 20
241.2967140262914
 10
185.1450656692739
 20
241.2967140262914
 10
185.1450656692739
 20
241.2967140262914
 10
185.1237060631745
 20
241.3604483348137
 10
185.1237060631745
 20
241.3604483348137
 10
185.1237060631745
 20
241.3604483348137
 10
185.1237060631745
 20
241.4028230372367
 10
185.1237060631745
 20
241.4028230372367
 10
185.1237060631745
 20
241.4028230372367
 10
185.1660807655974
 20
241.4875724420825
 10
185.1660807655974
 20
241.4875724420825
 10
185.1660807655974
 20
241.4875724420825
 10
185.2084554680203
 20
241.5085875384061
 10
185.2084554680203
 20
241.5085875384061
 10
185.2084554680203
 20
241.5085875384061
 10
185.2718452667668
 20
241.5297748896175
 10
185.2718452667668
 20
241.5297748896175
 10
185.2718452667668
 20
241.5297748896175
 10
185.3565946716127
 20
241.5297748896175
 10
185.3565946716127
 20
241.5297748896175
 10
185.3565946716127
 20
241.5297748896175
 10
185.4199844703592
 20
241.5085875384061
 10
185.4199844703592
 20
241.5085875384061
 10
185.4199844703592
 20
241.5085875384061
 10
185.4623591727821
 20
241.4875724420825
 10
185.4623591727821
 20
241.4875724420825
 10
185.4623591727821
 20
241.4875724420825
 10
185.4837187788815
 20
241.4451977396596
 10
185.4837187788815
 20
241.4451977396596
 72
     1
 10
185.4837187788815
 20
241.4451977396596
 11
185.4837187788815
 21
241.4451977396596
 97
        0
 75
     0
 76
     1
 98
        0
450
        0
451
        0
460
0.0
461
0.0
452
        0
462
0.0
453
        0
470

  0
HATCH
  5
2F93
330
1F
100
AcDbEntity
  8
图层 1
 62
     7
100
AcDbHatch
 10
0.0
 20
0.0
 30
0.0
210
0.0
220
0.0
230
1.0
  2
SOLID
 70
     1
 71
     0
 91
        1
 92
        1
 93
        2
 72
     4
 94
        3
 73
     0
 74
     0
 95
       38
 96
       34
 40
0.0
 40
0.0
 40
0.0
 40
0.0
 40
0.3527780104152769
 40
0.3527780104152769
 40
0.3527780104152769
 40
0.7055560208305538
 40
0.7055560208305538
 40
0.7055560208305538
 40
1.058334031245828
 40
1.058334031245828
 40
1.058334031245828
 40
1.411112041661104
 40
1.411112041661104
 40
1.411112041661104
 40
1.763890052076384
 40
1.763890052076384
 40
1.763890052076384
 40
2.116668062491659
 40
2.116668062491659
 40
2.116668062491659
 40
2.469446072906936
 40
2.469446072906936
 40
2.469446072906936
 40
2.822224083322215
 40
2.822224083322215
 40
2.822224083322215
 40
3.175002093737492
 40
3.175002093737492
 40
3.175002093737492
 40
3.527780104152768
 40
3.527780104152768
 40
3.527780104152768
 40
3.880558114568044
 40
3.880558114568044
 40
3.880558114568044
 40
3.880558114568044
 10
185.907121293335
 20
220.1937677098971
 10
185.9005756075949
 20
220.0449394867532
 10
185.9329595265197
 20
220.1136691870245
 10
185.864746590912
 20
219.9817219428946
 10
185.864746590912
 20
219.9817219428946
 10
185.822371888489
 20
219.9605345916831
 10
185.822371888489
 20
219.9605345916831
 10
185.822371888489
 20
219.9605345916831
 10
185.6528730787974
 20
219.9605345916831
 10
185.6528730787974
 20
219.9605345916831
 10
185.6528730787974
 20
219.9605345916831
 10
185.5894832800509
 20
220.002909294106
 10
185.5894832800509
 20
220.002909294106
 10
185.5894832800509
 20
220.002909294106
 10
185.5681236739515
 20
220.0240966453175
 10
185.5681236739515
 20
220.0240966453175
 10
185.5681236739515
 20
220.0240966453175
 10
185.5681236739515
 20
220.045283996529
 10
185.5681236739515
 20
220.045283996529
 10
185.5681236739515
 20
220.045283996529
 10
185.547108577628
 20
220.0876586989519
 10
185.547108577628
 20
220.0876586989519
 10
185.547108577628
 20
220.0876586989519
 10
185.547108577628
 20
220.1513930074742
 10
185.547108577628
 20
220.1513930074742
 10
185.547108577628
 20
220.1513930074742
 10
185.5894832800509
 20
220.23614241232
 10
185.5894832800509
 20
220.23614241232
 10
185.5894832800509
 20
220.23614241232
 10
185.6318579824738
 20
220.2573297635315
 10
185.6318579824738
 20
220.2573297635315
 10
185.7055830744942
 20
220.2566407439799
 10
185.8416644359337
 20
220.3310548555519
 10
185.907121293335
 20
220.1937677098971
 72
     1
 10
185.907121293335
 20
220.1937677098971
 11
185.907121293335
 21
220.1937677098971
 97
        0
 75
     0
 76
     1
 98
        0
450
        0
451
        0
460
0.0
461
0.0
452
        0
462
0.0
453
        0
470

  0
HATCH
  5
2FDE
330
1F
100
AcDbEntity
  8
图层 1
 62
     7
100
AcDbHatch
 10
0.0
 20
0.0
 30
0.0
210
0.0
220
0.0
230
1.0
  2
SOLID
 70
     1
 71
     0
 91
        1
 92
        1
 93
        2
 72
     4
 94
        3
 73
     0
 74
     0
 95
       50
 96
       46
 40
0.0
 40
0.0
 40
0.0
 40
0.0
 40
0.3527780104152769
 40
0.3527780104152769
 40
0.3527780104152769
 40
0.7055560208305538
 40
0.7055560208305538
 40
0.7055560208305538
 40
1.058334031245828
 40
1.058334031245828
 40
1.058334031245828
 40
1.411112041661104
 40
1.411112041661104
 40
1.411112041661104
 40
1.763890052076384
 40
1.763890052076384
 40
1.763890052076384
 40
2.116668062491659
 40
2.116668062491659
 40
2.116668062491659
 40
2.469446072906936
 40
2.469446072906936
 40
2.469446072906936
 40
2.822224083322215
 40
2.822224083322215
 40
2.822224083322215
 40
3.175002093737492
 40
3.175002093737492
 40
3.175002093737492
 40
3.527780104152768
 40
3.527780104152768
 40
3.527780104152768
 40
3.880558114568044
 40
3.880558114568044
 40
3.880558114568044
 40
4.233336124983321
 40
4.233336124983321
 40
4.233336124983321
 40
4.586114135398599
 40
4.586114135398599
 40
4.586114135398599
 40
4.938892145813873
 40
4.938892145813873
 40
4.938892145813873
 40
5.291670156229153
 40
5.291670156229153
 40
5.291670156229153
 40
5.291670156229153
 10
180.9117295442905
 20
208.9327766684477
 10
180.9117295442905
 20
208.9327766684477
 10
180.9117295442905
 20
208.7637946234197
 10
180.9117295442905
 20
208.7637946234197
 10
181.2273004989198
 20
208.6749111012643
 10
181.3833634273555
 20
208.6776671794706
 10
181.6948002646751
 20
208.5097186637701
 10
181.9542161258496
 20
208.4294478860095
 10
182.1388733656765
 20
208.2134402565853
 10
182.3297317814676
 20
208.02292635057
 10
182.3297317814676
 20
208.02292635057
 10
182.435496282637
 20
208.065301052993
 10
182.435496282637
 20
208.065301052993
 10
182.288390608372
 20
208.2733849575739
 10
182.3752070718726
 20
208.2134402565853
 10
182.1605774815516
 20
208.3824223016133
 10
182.1605774815516
 20
208.3824223016133
 10
182.1182027791287
 20
208.4247970040363
 10
182.1182027791287
 20
208.4247970040363
 10
182.1182027791287
 20
208.4247970040363
 10
182.0968431730294
 20
208.467516216235
 10
182.0968431730294
 20
208.467516216235
 10
182.0968431730294
 20
208.467516216235
 10
182.0544684706064
 20
208.4883590576707
 10
182.0544684706064
 20
208.4883590576707
 10
182.0544684706064
 20
208.4883590576707
 10
181.9910786718599
 20
208.5305615052057
 10
181.9910786718599
 20
208.5305615052057
 10
181.9910786718599
 20
208.5305615052057
 10
181.948703969437
 20
208.552093366193
 10
181.948703969437
 20
208.552093366193
 10
181.948703969437
 20
208.552093366193
 10
181.9063292670141
 20
208.5729362076286
 10
181.9063292670141
 20
208.5729362076286
 10
181.9063292670141
 20
208.5729362076286
 10
181.8639545645911
 20
208.6156554198274
 10
181.8639545645911
 20
208.6156554198274
 10
181.8639545645911
 20
208.6156554198274
 10
181.821924371944
 20
208.6368427710388
 10
181.821924371944
 20
208.6368427710388
 10
181.6637943848536
 20
208.6742220817127
 10
181.5452830219797
 20
208.8092699138248
 10
181.3771622513911
 20
208.8061693258427
 10
181.2803550043924
 20
208.8573290275484
 10
181.0126709085988
 20
208.8971199066528
 10
180.9117295442905
 20
208.9327766684477
 72
     1
 10
180.9117295442905
 20
208.9327766684477
 11
180.9117295442905
 21
208.9327766684477
 97
        0
 75
     0
 76
     1
 98
        0
450
        0
451
        0
460
0.0
461
0.0
452
        0
462
0.0
453
        0
470

  0
HATCH
  5
35C8
330
1F
100
AcDbEntity
  8
图层 1
 62
     7
100
AcDbHatch
 10
0.0
 20
0.0
 30
0.0
210
0.0
220
0.0
230
1.0
  2
SOLID
 70
     1
 71
     0
 91
        1
 92
        1
 93
        2
 72
     4
 94
        3
 73
     0
 74
     0
 95
       38
 96
       34
 40
0.0
 40
0.0
 40
0.0
 40
0.0
 40
0.3527780104152769
 40
0.3527780104152769
 40
0.3527780104152769
 40
0.7055560208305538
 40
0.7055560208305538
 40
0.7055560208305538
 40
1.058334031245828
 40
1.058334031245828
 40
1.058334031245828
 40
1.411112041661104
 40
1.411112041661104
 40
1.411112041661104
 40
1.763890052076384
 40
1.763890052076384
 40
1.763890052076384
 40
2.116668062491659
 40
2.116668062491659
 40
2.116668062491659
 40
2.469446072906936
 40
2.469446072906936
 40
2.469446072906936
 40
2.822224083322215
 40
2.822224083322215
 40
2.822224083322215
 40
3.175002093737492
 40
3.175002093737492
 40
3.175002093737492
 40
3.527780104152768
 40
3.527780104152768
 40
3.527780104152768
 40
3.880558114568044
 40
3.880558114568044
 40
3.880558114568044
 40
3.880558114568044
 10
189.145513185819
 20
166.8326485368285
 10
189.207869455238
 20
166.740492171803
 10
189.1317327947871
 20
166.6833035490209
 10
189.103138483396
 20
166.6209472796017
 10
189.103138483396
 20
166.6209472796017
 10
189.0607637809731
 20
166.5997599283903
 10
189.0607637809731
 20
166.5997599283903
 10
189.0607637809731
 20
166.5997599283903
 10
188.9973739822266
 20
166.5785725771788
 10
188.9973739822266
 20
166.5785725771788
 10
188.9973739822266
 20
166.5785725771788
 10
188.9549992798037
 20
166.5997599283903
 10
188.9549992798037
 20
166.5997599283903
 10
188.9549992798037
 20
166.5997599283903
 10
188.8916094810572
 20
166.5997599283903
 10
188.8916094810572
 20
166.5997599283903
 10
188.8916094810572
 20
166.5997599283903
 10
188.8492347786343
 20
166.6209472796017
 10
188.8492347786343
 20
166.6209472796017
 10
188.8492347786343
 20
166.6209472796017
 10
188.8278751725349
 20
166.6633219820247
 10
188.8278751725349
 20
166.6633219820247
 10
188.8278751725349
 20
166.6633219820247
 10
188.8068600762114
 20
166.6845093332361
 10
188.8068600762114
 20
166.6845093332361
 10
188.8068600762114
 20
166.6845093332361
 10
188.8068600762114
 20
166.8326485368285
 10
188.8068600762114
 20
166.8326485368285
 10
188.8068600762114
 20
166.8326485368285
 10
188.8702498749578
 20
166.896038335575
 10
188.8702498749578
 20
166.896038335575
 10
189.0228677056355
 20
166.8819134347673
 10
189.0686875058164
 20
166.9411691162043
 10
189.145513185819
 20
166.8326485368285
 72
     1
 10
189.145513185819
 20
166.8326485368285
 11
189.145513185819
 21
166.8326485368285
 97
        0
 75
     0
 76
     1
 98
        0
450
        0
451
        0
460
0.0
461
0.0
452
        0
462
0.0
453
        0
470

  0
HATCH
  5
35D8
330
1F
100
AcDbEntity
  8
图层 1
 62
     7
100
AcDbHatch
 10
0.0
 20
0.0
 30
0.0
210
0.0
220
0.0
230
1.0
  2
SOLID
 70
     1
 71
     0
 91
        1
 92
        1
 93
        2
 72
     4
 94
        3
 73
     0
 74
     0
 95
       68
 96
       64
 40
0.0
 40
0.0
 40
0.0
 40
0.0
 40
0.3527780104152769
 40
0.3527780104152769
 40
0.3527780104152769
 40
0.7055560208305538
 40
0.7055560208305538
 40
0.7055560208305538
 40
1.058334031245828
 40
1.058334031245828
 40
1.058334031245828
 40
1.411112041661104
 40
1.411112041661104
 40
1.411112041661104
 40
1.763890052076384
 40
1.763890052076384
 40
1.763890052076384
 40
2.116668062491659
 40
2.116668062491659
 40
2.116668062491659
 40
2.469446072906936
 40
2.469446072906936
 40
2.469446072906936
 40
2.822224083322215
 40
2.822224083322215
 40
2.822224083322215
 40
3.175002093737492
 40
3.175002093737492
 40
3.175002093737492
 40
3.527780104152768
 40
3.527780104152768
 40
3.527780104152768
 40
3.880558114568044
 40
3.880558114568044
 40
3.880558114568044
 40
4.233336124983321
 40
4.233336124983321
 40
4.233336124983321
 40
4.586114135398599
 40
4.586114135398599
 40
4.586114135398599
 40
4.938892145813873
 40
4.938892145813873
 40
4.938892145813873
 40
5.291670156229153
 40
5.291670156229153
 40
5.291670156229153
 40
5.64444816664443
 40
5.64444816664443
 40
5.64444816664443
 40
5.997226177059705
 40
5.997226177059705
 40
5.997226177059705
 40
6.350004187474984
 40
6.350004187474984
 40
6.350004187474984
 40
6.702782197890257
 40
6.702782197890257
 40
6.702782197890257
 40
7.055560208305537
 40
7.055560208305537
 40
7.055560208305537
 40
7.408338218720808
 40
7.408338218720808
 40
7.408338218720808
 40
7.408338218720808
 10
174.7732543591544
 20
135.4846705078077
 10
174.7732543591544
 20
135.4846705078077
 10
174.7732543591544
 20
135.3789060066383
 10
174.7732543591544
 20
135.3789060066383
 10
174.7732543591544
 20
135.3789060066383
 10
174.8156290615773
 20
135.3789060066383
 10
174.8156290615773
 20
135.3789060066383
 10
174.8156290615773
 20
135.3789060066383
 10
174.8580037640002
 20
135.3578909103147
 10
174.8580037640002
 20
135.3578909103147
 10
174.8580037640002
 20
135.3578909103147
 10
174.9213935627468
 20
135.3578909103147
 10
174.9213935627468
 20
135.3578909103147
 10
174.9213935627468
 20
135.3578909103147
 10
174.9637682651697
 20
135.3365313042154
 10
174.9637682651697
 20
135.3365313042154
 10
174.9637682651697
 20
135.3365313042154
 10
174.9847833614933
 20
135.3365313042154
 10
174.9847833614933
 20
135.3365313042154
 10
174.9847833614933
 20
135.3365313042154
 10
175.0271580639162
 20
135.3155162078918
 10
175.0271580639162
 20
135.3155162078918
 10
175.0271580639162
 20
135.3155162078918
 10
175.0485176700155
 20
135.2941566017924
 10
175.0485176700155
 20
135.2941566017924
 10
175.0485176700155
 20
135.2941566017924
 10
175.0695327663391
 20
135.2941566017924
 10
175.0695327663391
 20
135.2941566017924
 10
175.0695327663391
 20
135.2941566017924
 10
175.0908923724385
 20
135.2731415054689
 10
175.0908923724385
 20
135.2731415054689
 10
175.0908923724385
 20
135.2731415054689
 10
175.1332670748614
 20
135.2731415054689
 10
175.1332670748614
 20
135.2731415054689
 10
175.1332670748614
 20
135.2731415054689
 10
175.154282171185
 20
135.2517818993695
 10
175.154282171185
 20
135.2517818993695
 10
175.154282171185
 20
135.2517818993695
 10
175.154282171185
 20
135.3578909103147
 10
175.154282171185
 20
135.3578909103147
 10
175.154282171185
 20
135.3578909103147
 10
175.1332670748614
 20
135.3789060066383
 10
175.1332670748614
 20
135.3789060066383
 10
175.1332670748614
 20
135.3789060066383
 10
175.0908923724385
 20
135.3789060066383
 10
175.0908923724385
 20
135.3789060066383
 10
175.0908923724385
 20
135.3789060066383
 10
175.0908923724385
 20
135.3999211029619
 10
175.0908923724385
 20
135.3999211029619
 10
175.0908923724385
 20
135.3999211029619
 10
175.0695327663391
 20
135.3999211029619
 10
175.0695327663391
 20
135.3999211029619
 10
175.0695327663391
 20
135.3999211029619
 10
175.0271580639162
 20
135.4212807090612
 10
175.0271580639162
 20
135.4212807090612
 10
175.0271580639162
 20
135.4212807090612
 10
175.0061429675926
 20
135.4212807090612
 10
175.0061429675926
 20
135.4212807090612
 10
175.0061429675926
 20
135.4212807090612
 10
174.9637682651697
 20
135.4422958053848
 10
174.9637682651697
 20
135.4422958053848
 10
174.8996894468716
 20
135.4498750204523
 10
174.8394002361073
 20
135.4860485469109
 10
174.7732543591544
 20
135.4846705078077
 72
     1
 10
174.7732543591544
 20
135.4846705078077
 11
174.7732543591544
 21
135.4846705078077
 97
        0
 75
     0
 76
     1
 98
        0
450
        0
451
        0
460
0.0
461
0.0
452
        0
462
0.0
453
        0
470

  0
HATCH
  5
3807
330
1F
100
AcDbEntity
  8
图层 1
 62
     7
100
AcDbHatch
 10
0.0
 20
0.0
 30
0.0
210
0.0
220
0.0
230
1.0
  2
SOLID
 70
     1
 71
     0
 91
        1
 92
        1
 93
        2
 72
     4
 94
        3
 73
     0
 74
     0
 95
       29
 96
       25
 40
0.0
 40
0.0
 40
0.0
 40
0.0
 40
0.3527780104152769
 40
0.3527780104152769
 40
0.3527780104152769
 40
0.7055560208305538
 40
0.7055560208305538
 40
0.7055560208305538
 40
1.058334031245828
 40
1.058334031245828
 40
1.058334031245828
 40
1.411112041661104
 40
1.411112041661104
 40
1.411112041661104
 40
1.763890052076384
 40
1.763890052076384
 40
1.763890052076384
 40
2.116668062491659
 40
2.116668062491659
 40
2.116668062491659
 40
2.469446072906936
 40
2.469446072906936
 40
2.469446072906936
 40
2.822224083322215
 40
2.822224083322215
 40
2.822224083322215
 40
2.822224083322215
 10
175.4929352807925
 20
164.0174869039101
 10
175.4929352807925
 20
164.0174869039101
 10
175.5139503771161
 20
163.9751122014871
 10
175.5139503771161
 20
163.9751122014871
 10
175.5139503771161
 20
163.9751122014871
 10
175.5139503771161
 20
163.9327374990642
 10
175.5139503771161
 20
163.9327374990642
 10
175.5139503771161
 20
163.9327374990642
 10
175.4929352807925
 20
163.8903627966413
 10
175.4929352807925
 20
163.8903627966413
 10
175.4929352807925
 20
163.8903627966413
 10
175.471920184469
 20
163.8691754454298
 10
175.471920184469
 20
163.8691754454298
 10
175.471920184469
 20
163.8691754454298
 10
175.4505605783696
 20
163.8269729978948
 10
175.4505605783696
 20
163.8269729978948
 10
175.3571984291289
 20
163.7715069239916
 10
175.272449024283
 20
163.8195660377152
 10
175.1966568736079
 20
163.8691754454298
 10
175.208370205985
 20
163.9930267098286
 10
175.1563492298397
 20
164.0216210212197
 10
175.2600466723544
 20
164.0596893514451
 10
175.3330827448232
 20
164.1094710140476
 10
175.4357466580104
 20
164.0753645462439
 10
175.4929352807925
 20
164.0174869039101
 72
     1
 10
175.4929352807925
 20
164.0174869039101
 11
175.4929352807925
 21
164.0174869039101
 97
        0
 75
     0
 76
     1
 98
        0
450
        0
451
        0
460
0.0
461
0.0
452
        0
462
0.0
453
        0
470

  0
HATCH
  5
3895
330
1F
100
AcDbEntity
  8
图层 1
 62
     7
100
AcDbHatch
 10
0.0
 20
0.0
 30
0.0
210
0.0
220
0.0
230
1.0
  2
SOLID
 70
     1
 71
     0
 91
        1
 92
        1
 93
        2
 72
     4
 94
        3
 73
     0
 74
     0
 95
       11
 96
        7
 40
0.0
 40
0.0
 40
0.0
 40
0.0
 40
0.3527780104152769
 40
0.3527780104152769
 40
0.3527780104152769
 40
0.7055560208305538
 40
0.7055560208305538
 40
0.7055560208305538
 40
0.7055560208305538
 10
174.9213935627468
 20
174.5369206529582
 10
174.9213935627468
 20
174.5369206529582
 10
174.9213935627468
 20
174.3043765542958
 10
174.9213935627468
 20
174.3043765542958
 10
174.9213935627468
 20
174.3043765542958
 10
174.9213935627468
 20
174.5369206529582
 10
174.9213935627468
 20
174.5369206529582
 72
     1
 10
174.9213935627468
 20
174.5369206529582
 11
174.9213935627468
 21
174.5369206529582
 97
        0
 75
     0
 76
     1
 98
        0
450
        0
451
        0
460
0.0
461
0.0
452
        0
462
0.0
453
        0
470

  0
HATCH
  5
3943
330
1F
100
AcDbEntity
  8
图层 1
 62
     7
100
AcDbHatch
 10
0.0
 20
0.0
 30
0.0
210
0.0
220
0.0
230
1.0
  2
SOLID
 70
     1
 71
     0
 91
        1
 92
        1
 93
        2
 72
     4
 94
        3
 73
     0
 74
     0
 95
      131
 96
      127
 40
0.0
 40
0.0
 40
0.0
 40
0.0
 40
0.3527780104152769
 40
0.3527780104152769
 40
0.3527780104152769
 40
0.7055560208305538
 40
0.7055560208305538
 40
0.7055560208305538
 40
1.058334031245828
 40
1.058334031245828
 40
1.058334031245828
 40
1.411112041661104
 40
1.411112041661104
 40
1.411112041661104
 40
1.763890052076384
 40
1.763890052076384
 40
1.763890052076384
 40
2.116668062491659
 40
2.116668062491659
 40
2.116668062491659
 40
2.469446072906936
 40
2.469446072906936
 40
2.469446072906936
 40
2.822224083322215
 40
2.822224083322215
 40
2.822224083322215
 40
3.175002093737492
 40
3.175002093737492
 40
3.175002093737492
 40
3.527780104152768
 40
3.527780104152768
 40
3.527780104152768
 40
3.880558114568044
 40
3.880558114568044
 40
3.880558114568044
 40
4.233336124983321
 40
4.233336124983321
 40
4.233336124983321
 40
4.586114135398599
 40
4.586114135398599
 40
4.586114135398599
 40
4.938892145813873
 40
4.938892145813873
 40
4.938892145813873
 40
5.291670156229153
 40
5.291670156229153
 40
5.291670156229153
 40
5.64444816664443
 40
5.64444816664443
 40
5.64444816664443
 40
5.997226177059705
 40
5.997226177059705
 40
5.997226177059705
 40
6.350004187474984
 40
6.350004187474984
 40
6.350004187474984
 40
6.702782197890257
 40
6.702782197890257
 40
6.702782197890257
 40
7.055560208305537
 40
7.055560208305537
 40
7.055560208305537
 40
7.408338218720808
 40
7.408338218720808
 40
7.408338218720808
 40
7.76111622913609
 40
7.76111622913609
 40
7.76111622913609
 40
8.113894239551369
 40
8.113894239551369
 40
8.113894239551369
 40
8.466672249966642
 40
8.466672249966642
 40
8.466672249966642
 40
8.819450260381922
 40
8.819450260381922
 40
8.819450260381922
 40
9.172228270797198
 40
9.172228270797198
 40
9.172228270797198
 40
9.525006281212476
 40
9.525006281212476
 40
9.525006281212476
 40
9.877784291627751
 40
9.877784291627751
 40
9.877784291627751
 40
10.23056230204303
 40
10.23056230204303
 40
10.23056230204303
 40
10.58334031245831
 40
10.58334031245831
 40
10.58334031245831
 40
10.93611832287358
 40
10.93611832287358
 40
10.93611832287358
 40
11.28889633328886
 40
11.28889633328886
 40
11.28889633328886
 40
11.64167434370414
 40
11.64167434370414
 40
11.64167434370414
 40
11.99445235411941
 40
11.99445235411941
 40
11.99445235411941
 40
12.34723036453469
 40
12.34723036453469
 40
12.34723036453469
 40
12.70000837494997
 40
12.70000837494997
 40
12.70000837494997
 40
13.05278638536524
 40
13.05278638536524
 40
13.05278638536524
 40
13.40556439578052
 40
13.40556439578052
 40
13.40556439578052
 40
13.7583424061958
 40
13.7583424061958
 40
13.7583424061958
 40
14.11112041661107
 40
14.11112041661107
 40
14.11112041661107
 40
14.46389842702635
 40
14.46389842702635
 40
14.46389842702635
 40
14.81667643744163
 40
14.81667643744163
 40
14.81667643744163
 40
14.81667643744163
 10
173.3972823146245
 20
126.8274843518258
 10
173.3972823146245
 20
126.8274843518258
 10
173.3972823146245
 20
126.7217198506564
 10
173.3972823146245
 20
126.7217198506564
 10
173.3972823146245
 20
126.7217198506564
 10
173.4186419207238
 20
126.7217198506564
 10
173.4186419207238
 20
126.7217198506564
 10
173.4186419207238
 20
126.7217198506564
 10
173.4820317194703
 20
126.7007047543328
 10
173.4820317194703
 20
126.7007047543328
 10
173.4820317194703
 20
126.7007047543328
 10
173.5244064218933
 20
126.6793451482334
 10
173.5244064218933
 20
126.6793451482334
 10
173.5244064218933
 20
126.6793451482334
 10
173.5877962206398
 20
126.6793451482334
 10
173.5877962206398
 20
126.6793451482334
 10
173.5877962206398
 20
126.6793451482334
 10
173.6301709230627
 20
126.6583300519099
 10
173.6301709230627
 20
126.6583300519099
 10
173.7955356154449
 20
126.5911506456296
 10
173.759706598762
 20
126.6380039751379
 10
173.9478089363468
 20
126.5525655507404
 10
173.9478089363468
 20
126.5525655507404
 10
173.9688240326703
 20
126.4464565397952
 10
173.9688240326703
 20
126.4464565397952
 10
173.9688240326703
 20
126.4464565397952
 10
174.0325583411926
 20
126.5101908483175
 10
174.0325583411926
 20
126.5101908483175
 10
174.0325583411926
 20
126.5101908483175
 10
174.0749330436156
 20
126.5101908483175
 10
174.0749330436156
 20
126.5101908483175
 10
174.0749330436156
 20
126.5101908483175
 10
174.1593379386856
 20
126.4678161458946
 10
174.1593379386856
 20
126.4678161458946
 10
174.1593379386856
 20
126.4678161458946
 10
174.180697544785
 20
126.4464565397952
 10
174.180697544785
 20
126.4464565397952
 10
174.2464989119621
 20
126.3982251711837
 10
174.3298702777047
 20
126.3716979184474
 10
174.3922265471239
 20
126.3196769423022
 10
174.608234176548
 20
126.2059887162895
 10
174.7749769080334
 20
126.0278771622029
 10
174.9637682651697
 20
125.8749148217494
 10
174.9637682651697
 20
125.8749148217494
 10
175.0061429675926
 20
125.9172895241723
 10
175.0061429675926
 20
125.9172895241723
 10
174.961356696739
 20
125.9631093243532
 10
174.782211613325
 20
126.1246844092016
 10
174.7308796567315
 20
126.1501781326105
 10
174.7308796567315
 20
126.1501781326105
 10
174.6885049543085
 20
126.1925528350335
 10
174.6885049543085
 20
126.1925528350335
 10
174.6885049543085
 20
126.1925528350335
 10
174.667489857985
 20
126.2349275374564
 10
174.667489857985
 20
126.2349275374564
 10
174.667489857985
 20
126.2349275374564
 10
174.625115155562
 20
126.2559426337799
 10
174.625115155562
 20
126.2559426337799
 10
174.625115155562
 20
126.2559426337799
 10
174.5827404531391
 20
126.2983173362029
 10
174.5827404531391
 20
126.2983173362029
 10
174.5827404531391
 20
126.2983173362029
 10
174.5403657507162
 20
126.3196769423022
 10
174.5403657507162
 20
126.3196769423022
 10
174.5403657507162
 20
126.3196769423022
 10
174.4979910482932
 20
126.3620516447252
 10
174.4979910482932
 20
126.3620516447252
 10
174.4735308542117
 20
126.3875453681341
 10
174.3247026310678
 20
126.4695386947736
 10
174.2864620459544
 20
126.4888312422181
 10
174.2864620459544
 20
126.4888312422181
 10
174.2654469496308
 20
126.5101908483175
 10
174.2654469496308
 20
126.5101908483175
 10
174.2654469496308
 20
126.5101908483175
 10
174.2230722472079
 20
126.5312059446411
 10
174.2230722472079
 20
126.5312059446411
 10
174.2230722472079
 20
126.5312059446411
 10
174.2017126411085
 20
126.5525655507404
 10
174.2017126411085
 20
126.5525655507404
 10
174.2017126411085
 20
126.5525655507404
 10
174.1383228423621
 20
126.573580647064
 10
174.1383228423621
 20
126.573580647064
 10
174.1383228423621
 20
126.573580647064
 10
174.1169632362627
 20
126.5945957433876
 10
174.1169632362627
 20
126.5945957433876
 10
174.1169632362627
 20
126.5945957433876
 10
174.0959481399391
 20
126.7007047543328
 10
174.0959481399391
 20
126.7007047543328
 10
174.0959481399391
 20
126.7007047543328
 10
174.0325583411926
 20
126.6369704458105
 10
174.0325583411926
 20
126.6369704458105
 10
174.0325583411926
 20
126.6369704458105
 10
173.9901836387697
 20
126.6369704458105
 10
173.9901836387697
 20
126.6369704458105
 10
173.9901836387697
 20
126.6369704458105
 10
173.9054342339239
 20
126.6793451482334
 10
173.9054342339239
 20
126.6793451482334
 10
173.9054342339239
 20
126.6793451482334
 10
173.8420444351773
 20
126.7007047543328
 10
173.8420444351773
 20
126.7007047543328
 10
173.8420444351773
 20
126.7007047543328
 10
173.7996697327544
 20
126.7217198506564
 10
173.7996697327544
 20
126.7217198506564
 10
173.7996697327544
 20
126.7217198506564
 10
173.7572950303315
 20
126.7217198506564
 10
173.7572950303315
 20
126.7217198506564
 10
173.7572950303315
 20
126.7217198506564
 10
173.6725456254856
 20
126.7640945530793
 10
173.6725456254856
 20
126.7640945530793
 10
173.6725456254856
 20
126.7640945530793
 10
173.6515305291621
 20
126.7640945530793
 10
173.6515305291621
 20
126.7640945530793
 10
173.6515305291621
 20
126.7640945530793
 10
173.5667811243162
 20
126.7851096494029
 10
173.5667811243162
 20
126.7851096494029
 10
173.5667811243162
 20
126.7851096494029
 10
173.5033913255697
 20
126.8064692555022
 10
173.5033913255697
 20
126.8064692555022
 10
173.5033913255697
 20
126.8064692555022
 10
173.4396570170474
 20
126.8064692555022
 10
173.4396570170474
 20
126.8064692555022
 10
173.4396570170474
 20
126.8064692555022
 10
173.4186419207238
 20
126.8274843518258
 10
173.4186419207238
 20
126.8274843518258
 10
173.4186419207238
 20
126.8274843518258
 10
173.3972823146245
 20
126.8274843518258
 10
173.3972823146245
 20
126.8274843518258
 72
     1
 10
173.3972823146245
 20
126.8274843518258
 11
173.3972823146245
 21
126.8274843518258
 97
        0
 75
     0
 76
     1
 98
        0
450
        0
451
        0
460
0.0
461
0.0
452
        0
462
0.0
453
        0
470

  0
HATCH
  5
4842
330
1F
100
AcDbEntity
  8
图层 1
 62
     7
100
AcDbHatch
 10
0.0
 20
0.0
 30
0.0
210
0.0
220
0.0
230
1.0
  2
SOLID
 70
     1
 71
     0
 91
        1
 92
        1
 93
        2
 72
     4
 94
        3
 73
     0
 74
     0
 95
       47
 96
       43
 40
0.0
 40
0.0
 40
0.0
 40
0.0
 40
0.3527780104152769
 40
0.3527780104152769
 40
0.3527780104152769
 40
0.7055560208305538
 40
0.7055560208305538
 40
0.7055560208305538
 40
1.058334031245828
 40
1.058334031245828
 40
1.058334031245828
 40
1.411112041661104
 40
1.411112041661104
 40
1.411112041661104
 40
1.763890052076384
 40
1.763890052076384
 40
1.763890052076384
 40
2.116668062491659
 40
2.116668062491659
 40
2.116668062491659
 40
2.469446072906936
 40
2.469446072906936
 40
2.469446072906936
 40
2.822224083322215
 40
2.822224083322215
 40
2.822224083322215
 40
3.175002093737492
 40
3.175002093737492
 40
3.175002093737492
 40
3.527780104152768
 40
3.527780104152768
 40
3.527780104152768
 40
3.880558114568044
 40
3.880558114568044
 40
3.880558114568044
 40
4.233336124983321
 40
4.233336124983321
 40
4.233336124983321
 40
4.586114135398599
 40
4.586114135398599
 40
4.586114135398599
 40
4.938892145813873
 40
4.938892145813873
 40
4.938892145813873
 40
4.938892145813873
 10
180.1920486226523
 20
255.6479577566324
 10
180.1920486226523
 20
255.6479577566324
 10
180.2130637189759
 20
255.6055830542095
 10
180.2130637189759
 20
255.6055830542095
 10
180.2130637189759
 20
255.6055830542095
 10
180.2130637189759
 20
255.5210059042515
 10
180.2130637189759
 20
255.5210059042515
 10
180.2130637189759
 20
255.5210059042515
 10
180.1920486226523
 20
255.4786312018286
 10
180.1920486226523
 20
255.4786312018286
 10
180.1920486226523
 20
255.4786312018286
 10
180.1496739202294
 20
255.4359119896299
 10
180.1496739202294
 20
255.4359119896299
 10
180.1496739202294
 20
255.4359119896299
 10
180.1283143141301
 20
255.4147246384184
 10
180.1283143141301
 20
255.4147246384184
 10
180.1283143141301
 20
255.4147246384184
 10
180.0225498129606
 20
255.4147246384184
 10
180.0225498129606
 20
255.4147246384184
 10
180.0225498129606
 20
255.4147246384184
 10
179.9591600142141
 20
255.4359119896299
 10
179.9591600142141
 20
255.4359119896299
 10
179.9591600142141
 20
255.4359119896299
 10
179.9167853117912
 20
255.4570993408414
 10
179.9167853117912
 20
255.4570993408414
 10
179.9167853117912
 20
255.4570993408414
 10
179.8957702154676
 20
255.4786312018286
 10
179.8957702154676
 20
255.4786312018286
 10
179.8957702154676
 20
255.4786312018286
 10
179.8744106093683
 20
255.4994740432643
 10
179.8744106093683
 20
255.4994740432643
 10
179.8744106093683
 20
255.4994740432643
 10
179.8744106093683
 20
255.6479577566324
 10
179.8744106093683
 20
255.6479577566324
 10
179.9608825630931
 20
255.7323626517025
 10
180.045631967939
 20
255.7085914771726
 10
180.1496739202294
 20
255.7115198102668
 10
180.1496739202294
 20
255.7115198102668
 10
180.170689016553
 20
255.6688005980681
 10
180.170689016553
 20
255.6688005980681
 10
180.170689016553
 20
255.6688005980681
 10
180.1920486226523
 20
255.6479577566324
 10
180.1920486226523
 20
255.6479577566324
 72
     1
 10
180.1920486226523
 20
255.6479577566324
 11
180.1920486226523
 21
255.6479577566324
 97
        0
 75
     0
 76
     1
 98
        0
450
        0
451
        0
460
0.0
461
0.0
452
        0
462
0.0
453
        0
470

  0
LINE
  5
7E424
330
1F
100
AcDbEntity
  8
M40-AGF-1-5-DXF_CONTINUOUS_LINE
  6
Continuous
 62
     7
370
    25
100
AcDbLine
 10
4802.260696372155
 20
18.37936096725794
 30
0.0
 11
4802.260696372155
 21
14.9793609672583
 31
0.0
  0
LINE
  5
7E425
330
1F
100
AcDbEntity
  8
M40-AGF-1-5-DXF_CONTINUOUS_LINE
  6
Continuous
 62
     7
370
    25
100
AcDbLine
 10
4803.110696372156
 20
18.37936096725794
 30
0.0
 11
4803.110696372156
 21
14.9793609672583
 31
0.0
  0
LINE
  5
7E426
330
1F
100
AcDbEntity
  8
M40-AGF-1-5-DXF_CONTINUOUS_LINE
  6
Continuous
 62
     7
370
    25
100
AcDbLine
 10
4803.260696372156
 20
18.2293609672583
 30
0.0
 11
4803.260696372156
 21
15.12936096725794
 31
0.0
  0
LINE
  5
7E427
330
1F
100
AcDbEntity
  8
M40-AGF-1-5-DXF_CONTINUOUS_LINE
  6
Continuous
 62
     7
370
    25
100
AcDbLine
 10
4803.260696372857
 20
15.12936096795825
 30
0.0
 11
4803.110696372956
 21
14.97936096800772
 31
0.0
  0
LINE
  5
7E428
330
1F
100
AcDbEntity
  8
M40-AGF-1-5-DXF_CONTINUOUS_LINE
  6
Continuous
 62
     7
370
    25
100
AcDbLine
 10
4803.260696373306
 20
18.22936096610779
 30
0.0
 11
4803.110696373408
 21
18.37936096595827
 31
0.0
  0
LINE
  5
7E429
330
1F
100
AcDbEntity
  8
M40-AGF-1-5-DXF_CONTINUOUS_LINE
  6
Continuous
 62
     7
370
    25
100
AcDbLine
 10
4809.160696372156
 20
18.2293609672583
 30
0.0
 11
4809.160696372156
 21
15.12936096725794
 31
0.0
  0
LINE
  5
7E42A
330
1F
100
AcDbEntity
  8
M40-AGF-1-5-DXF_CONTINUOUS_LINE
  6
Continuous
 62
     7
370
    25
100
AcDbLine
 10
4809.310696372156
 20
18.37936096725794
 30
0.0
 11
4809.310696372156
 21
14.9793609672583
 31
0.0
  0
LINE
  5
7E42B
330
1F
100
AcDbEntity
  8
M40-AGF-1-5-DXF_CONTINUOUS_LINE
  6
Continuous
 62
     7
370
    25
100
AcDbLine
 10
4809.160696371407
 20
18.22936096650797
 30
0.0
 11
4809.310696371356
 21
18.37936096640801
 31
0.0
  0
LINE
  5
7E42C
330
1F
100
AcDbEntity
  8
M40-AGF-1-5-DXF_CONTINUOUS_LINE
  6
Continuous
 62
     7
370
    25
100
AcDbLine
 10
4809.160696371506
 20
15.12936096790823
 30
0.0
 11
4809.310696371456
 21
14.9793609679577
 31
0.0
  0
LINE
  5
7E42D
330
1F
100
AcDbEntity
  8
M40-AGF-1-5-DXF_CONTINUOUS_LINE
  6
Continuous
 62
     7
370
    25
100
AcDbLine
 10
4811.760696372155
 20
14.77936096725803
 30
0.0
 11
4813.549125474806
 21
14.77936096725803
 31
0.0
  0
LINE
  5
7E42E
330
1F
100
AcDbEntity
  8
M40-AGF-1-5-DXF_CONTINUOUS_LINE
  6
Continuous
 62
     7
370
    25
100
AcDbLine
 10
4811.760696372155
 20
14.77936096725803
 30
0.0
 11
4813.549125474806
 21
14.77936096725803
 31
0.0
  0
LINE
  5
7E42F
330
1F
100
AcDbEntity
  8
M40-AGF-1-5-DXF_CONTINUOUS_LINE
  6
Continuous
 62
     7
370
    25
100
AcDbLine
 10
4810.160696372157
 20
18.37936096725794
 30
0.0
 11
4810.160696372157
 21
14.9793609672583
 31
0.0
  0
LINE
  5
7E430
330
1F
100
AcDbEntity
  8
M40-AGF-1-5-DXF_CONTINUOUS_LINE
  6
Continuous
 62
     7
370
    25
100
AcDbLine
 10
4813.549125474806
 20
14.7958801470581
 30
0.0
 11
4814.760696372156
 21
14.7958801470581
 31
0.0
  0
LINE
  5
7E431
330
1F
100
AcDbEntity
  8
M40-AGF-1-5-DXF_CONTINUOUS_LINE
  6
Continuous
 62
     7
370
    25
100
AcDbLine
 10
4810.160696372157
 20
14.9793609672583
 30
0.0
 11
4809.310696372156
 21
14.9793609672583
 31
0.0
  0
LINE
  5
7E432
330
1F
100
AcDbEntity
  8
M40-AGF-1-5-DXF_CONTINUOUS_LINE
  6
Continuous
 62
     7
370
    25
100
AcDbLine
 10
4803.110696372156
 20
14.9793609672583
 30
0.0
 11
4802.260696372155
 21
14.9793609672583
 31
0.0
  0
LINE
  5
7E433
330
1F
100
AcDbEntity
  8
M40-AGF-1-5-DXF_CONTINUOUS_LINE
  6
Continuous
 62
     7
370
    25
100
AcDbLine
 10
4802.260696372155
 20
14.9793609672583
 30
0.0
 11
4803.110696372156
 21
14.9793609672583
 31
0.0
  0
LINE
  5
7E434
330
1F
100
AcDbEntity
  8
M40-AGF-1-5-DXF_CONTINUOUS_LINE
  6
Continuous
 62
     7
370
    25
100
AcDbLine
 10
4809.310696372156
 20
14.9793609672583
 30
0.0
 11
4810.160696372157
 21
14.9793609672583
 31
0.0
  0
LINE
  5
7E435
330
1F
100
AcDbEntity
  8
M40-AGF-1-5-DXF_CONTINUOUS_LINE
  6
Continuous
 62
     7
370
    25
100
AcDbLine
 10
4811.760696372155
 20
15.12936096725794
 30
0.0
 11
4810.160696372157
 21
15.12936096725794
 31
0.0
  0
LINE
  5
7E436
330
1F
100
AcDbEntity
  8
M40-AGF-1-5-DXF_CONTINUOUS_LINE
  6
Continuous
 62
     7
370
    25
100
AcDbLine
 10
4803.260696372156
 20
15.12936096725794
 30
0.0
 11
4809.160696372156
 21
15.12936096725794
 31
0.0
  0
LINE
  5
7E437
330
1F
100
AcDbEntity
  8
M40-AGF-1-5-DXF_CONTINUOUS_LINE
  6
Continuous
 62
     7
370
    25
100
AcDbLine
 10
4811.760696372155
 20
18.57936096725775
 30
0.0
 11
4811.760696372155
 21
14.77936096725803
 31
0.0
  0
LINE
  5
7E438
330
1F
100
AcDbEntity
  8
M40-AGF-1-5-DXF_CONTINUOUS_LINE
  6
Continuous
 62
     7
370
    25
100
AcDbLine
 10
4817.760696372157
 20
16.42936096725812
 30
0.0
 11
4821.760696372155
 21
16.62936096725793
 31
0.0
  0
LINE
  5
7E439
330
1F
100
AcDbEntity
  8
M40-AGF-1-5-DXF_CONTINUOUS_LINE
  6
Continuous
 62
     7
370
    25
100
AcDbLine
 10
4813.549125474806
 20
16.42936096725812
 30
0.0
 11
4817.760696372157
 21
16.42936096725812
 31
0.0
  0
LINE
  5
7E43A
330
1F
100
AcDbEntity
  8
M40-AGF-1-5-DXF_CONTINUOUS_LINE
  6
Continuous
 62
     7
370
    25
100
AcDbLine
 10
4813.549125474806
 20
16.92936096725812
 30
0.0
 11
4817.760696372157
 21
16.92936096725812
 31
0.0
  0
LINE
  5
7E43B
330
1F
100
AcDbEntity
  8
M40-AGF-1-5-DXF_CONTINUOUS_LINE
  6
Continuous
 62
     7
370
    25
100
AcDbLine
 10
4821.760696372155
 20
16.7293609672583
 30
0.0
 11
4817.760696372157
 21
16.92936096725812
 31
0.0
  0
LINE
  5
7E43C
330
1F
100
AcDbEntity
  8
M40-AGF-1-5-DXF_CONTINUOUS_LINE
  6
Continuous
 62
     7
370
    25
100
AcDbLine
 10
4813.549125474806
 20
18.57936096725775
 30
0.0
 11
4813.549125474806
 21
18.56284178740812
 31
0.0
  0
LINE
  5
7E43D
330
1F
100
AcDbEntity
  8
M40-AGF-1-5-DXF_CONTINUOUS_LINE
  6
Continuous
 62
     7
370
    25
100
AcDbLine
 10
4813.549125474806
 20
16.92936096725812
 30
0.0
 11
4813.549125474806
 21
16.42936096725812
 31
0.0
  0
LINE
  5
7E43E
330
1F
100
AcDbEntity
  8
M40-AGF-1-5-DXF_CONTINUOUS_LINE
  6
Continuous
 62
     7
370
    25
100
AcDbLine
 10
4813.549125474806
 20
14.7958801470581
 30
0.0
 11
4813.549125474806
 21
14.77936096725803
 31
0.0
  0
LINE
  5
7E43F
330
1F
100
AcDbEntity
  8
M40-AGF-1-5-DXF_CONTINUOUS_LINE
  6
Continuous
 62
     7
370
    25
100
AcDbLine
 10
4811.760696372155
 20
18.2293609672583
 30
0.0
 11
4810.160696372157
 21
18.2293609672583
 31
0.0
  0
LINE
  5
7E440
330
1F
100
AcDbEntity
  8
M40-AGF-1-5-DXF_CONTINUOUS_LINE
  6
Continuous
 62
     7
370
    25
100
AcDbLine
 10
4809.160696372156
 20
18.2293609672583
 30
0.0
 11
4803.260696372156
 21
18.2293609672583
 31
0.0
  0
LINE
  5
7E441
330
1F
100
AcDbEntity
  8
M40-AGF-1-5-DXF_CONTINUOUS_LINE
  6
Continuous
 62
     7
370
    25
100
AcDbLine
 10
4803.260696372156
 20
18.2293609672583
 30
0.0
 11
4809.160696372156
 21
18.2293609672583
 31
0.0
  0
LINE
  5
7E442
330
1F
100
AcDbEntity
  8
M40-AGF-1-5-DXF_CONTINUOUS_LINE
  6
Continuous
 62
     7
370
    25
100
AcDbLine
 10
4810.160696372157
 20
18.37936096725794
 30
0.0
 11
4809.310696372156
 21
18.37936096725794
 31
0.0
  0
LINE
  5
7E443
330
1F
100
AcDbEntity
  8
M40-AGF-1-5-DXF_CONTINUOUS_LINE
  6
Continuous
 62
     7
370
    25
100
AcDbLine
 10
4803.110696372156
 20
18.37936096725794
 30
0.0
 11
4802.260696372155
 21
18.37936096725794
 31
0.0
  0
LINE
  5
7E444
330
1F
100
AcDbEntity
  8
M40-AGF-1-5-DXF_CONTINUOUS_LINE
  6
Continuous
 62
     7
370
    25
100
AcDbLine
 10
4802.260696372155
 20
18.37936096725794
 30
0.0
 11
4803.110696372156
 21
18.37936096725794
 31
0.0
  0
LINE
  5
7E445
330
1F
100
AcDbEntity
  8
M40-AGF-1-5-DXF_CONTINUOUS_LINE
  6
Continuous
 62
     7
370
    25
100
AcDbLine
 10
4809.310696372156
 20
18.37936096725794
 30
0.0
 11
4810.160696372157
 21
18.37936096725794
 31
0.0
  0
LINE
  5
7E446
330
1F
100
AcDbEntity
  8
M40-AGF-1-5-DXF_CONTINUOUS_LINE
  6
Continuous
 62
     7
370
    25
100
AcDbLine
 10
4813.549125474806
 20
18.56284178740812
 30
0.0
 11
4814.760696372156
 21
18.56284178740812
 31
0.0
  0
LINE
  5
7E447
330
1F
100
AcDbEntity
  8
M40-AGF-1-5-DXF_CONTINUOUS_LINE
  6
Continuous
 62
     7
370
    25
100
AcDbLine
 10
4813.549125474806
 20
18.57936096725775
 30
0.0
 11
4811.760696372155
 21
18.57936096725775
 31
0.0
  0
LINE
  5
7E448
330
1F
100
AcDbEntity
  8
M40-AGF-1-5-DXF_CONTINUOUS_LINE
  6
Continuous
 62
     7
370
    25
100
AcDbLine
 10
4811.760696372155
 20
18.57936096725775
 30
0.0
 11
4813.549125474806
 21
18.57936096725775
 31
0.0
  0
LINE
  5
7E449
330
1F
100
AcDbEntity
  8
M40-AGF-1-5-DXF_CONTINUOUS_LINE
  6
Continuous
 62
     7
370
    25
100
AcDbLine
 10
4814.760696372156
 20
18.56284178740812
 30
0.0
 11
4814.760696372156
 21
16.92936096725812
 31
0.0
  0
LINE
  5
7E44A
330
1F
100
AcDbEntity
  8
M40-AGF-1-5-DXF_CONTINUOUS_LINE
  6
Continuous
 62
     7
370
    25
100
AcDbLine
 10
4814.760696372156
 20
16.42936096725812
 30
0.0
 11
4814.760696372156
 21
14.7958801470581
 31
0.0
  0
LINE
  5
7E44B
330
1F
100
AcDbEntity
  8
M40-AGF-1-5-DXF_CONTINUOUS_LINE
  6
Continuous
 62
     7
370
    25
100
AcDbLine
 10
4821.569259939856
 20
15.07226027035808
 30
0.0
 11
4821.569259939856
 21
16.61978914560808
 31
0.0
  0
LINE
  5
7E44C
330
1F
100
AcDbEntity
  8
M40-AGF-1-5-DXF_CONTINUOUS_LINE
  6
Continuous
 62
     7
370
    25
100
AcDbLine
 10
4821.569259939856
 20
16.73893278885812
 30
0.0
 11
4821.569259939856
 21
18.28646166410813
 31
0.0
  0
LINE
  5
7E44D
330
1F
100
AcDbEntity
  8
M40-AGF-1-5-DXF_CONTINUOUS_LINE
  6
Continuous
 62
     7
370
    25
100
AcDbLine
 10
4821.760696372155
 20
15.2718609473081
 30
0.0
 11
4821.760696372155
 21
16.62936096725793
 31
0.0
  0
LINE
  5
7E44E
330
1F
100
AcDbEntity
  8
M40-AGF-1-5-DXF_CONTINUOUS_LINE
  6
Continuous
 62
     7
370
    25
100
AcDbLine
 10
4821.760696372155
 20
16.7293609672583
 30
0.0
 11
4821.760696372155
 21
18.08686098715812
 31
0.0
  0
LINE
  5
7E44F
330
1F
100
AcDbEntity
  8
M40-AGF-1-5-DXF_CONTINUOUS_LINE
  6
Continuous
 62
     7
370
    25
100
AcDbLine
 10
4802.260696372155
 20
25.13878539892323
 30
0.0
 11
4802.260696372155
 21
28.53878539892333
 31
0.0
  0
LINE
  5
7E450
330
1F
100
AcDbEntity
  8
M40-AGF-1-5-DXF_CONTINUOUS_LINE
  6
Continuous
 62
     7
370
    25
100
AcDbLine
 10
4802.560696372156
 20
25.96378539892305
 30
0.0
 11
4802.560696372156
 21
27.71378539892305
 31
0.0
  0
LINE
  5
7E451
330
1F
100
AcDbEntity
  8
M40-AGF-1-5-DXF_CONTINUOUS_LINE
  6
Continuous
 62
     7
370
    25
100
AcDbLine
 10
4802.560696372156
 20
25.96378539892305
 30
0.0
 11
4802.260696372155
 21
25.66378539892332
 31
0.0
  0
LINE
  5
7E452
330
1F
100
AcDbEntity
  8
M40-AGF-1-5-DXF_CONTINUOUS_LINE
  6
Continuous
 62
     7
370
    25
100
AcDbLine
 10
4802.560696372156
 20
27.71378539892305
 30
0.0
 11
4802.260696372155
 21
28.01378539892323
 31
0.0
  0
LINE
  5
7E453
330
1F
100
AcDbEntity
  8
M40-AGF-1-5-DXF_CONTINUOUS_LINE
  6
Continuous
 62
     7
370
    25
100
AcDbLine
 10
4803.260696372156
 20
25.28878539892332
 30
0.0
 11
4803.110696372156
 21
25.13878539892323
 31
0.0
  0
LINE
  5
7E454
330
1F
100
AcDbEntity
  8
M40-AGF-1-5-DXF_CONTINUOUS_LINE
  6
Continuous
 62
     7
370
    25
100
AcDbLine
 10
4803.260696372156
 20
28.38878539892323
 30
0.0
 11
4803.110696372156
 21
28.53878539892333
 31
0.0
  0
LINE
  5
7E455
330
1F
100
AcDbEntity
  8
M40-AGF-1-5-DXF_CONTINUOUS_LINE
  6
Continuous
 62
     7
370
    25
100
AcDbLine
 10
4808.010696372155
 20
27.71378539892305
 30
0.0
 11
4808.010696372155
 21
28.38878539892323
 31
0.0
  0
LINE
  5
7E456
330
1F
100
AcDbEntity
  8
M40-AGF-1-5-DXF_CONTINUOUS_LINE
  6
Continuous
 62
     7
370
    25
100
AcDbLine
 10
4808.910696372156
 20
27.71378539892305
 30
0.0
 11
4808.910696372156
 21
28.38878539892323
 31
0.0
  0
LINE
  5
7E457
330
1F
100
AcDbEntity
  8
M40-AGF-1-5-DXF_CONTINUOUS_LINE
  6
Continuous
 62
     7
370
    25
100
AcDbLine
 10
4809.260696372156
 20
25.96378539892305
 30
0.0
 11
4809.260696372156
 21
27.71378539892305
 31
0.0
  0
LINE
  5
7E458
330
1F
100
AcDbEntity
  8
M40-AGF-1-5-DXF_CONTINUOUS_LINE
  6
Continuous
 62
     7
370
    25
100
AcDbLine
 10
4809.310696372156
 20
28.53878539892333
 30
0.0
 11
4809.160696372156
 21
28.38878539892323
 31
0.0
  0
LINE
  5
7E459
330
1F
100
AcDbEntity
  8
M40-AGF-1-5-DXF_CONTINUOUS_LINE
  6
Continuous
 62
     7
370
    25
100
AcDbLine
 10
4809.310696372156
 20
25.13878539892323
 30
0.0
 11
4809.160696372156
 21
25.28878539892332
 31
0.0
  0
LINE
  5
7E45A
330
1F
100
AcDbEntity
  8
M40-AGF-1-5-DXF_CONTINUOUS_LINE
  6
Continuous
 62
     7
370
    25
100
AcDbLine
 10
4809.260696372156
 20
25.96378539892305
 30
0.0
 11
4809.786449413806
 21
26.83878539892305
 31
0.0
  0
LINE
  5
7E45B
330
1F
100
AcDbEntity
  8
M40-AGF-1-5-DXF_CONTINUOUS_LINE
  6
Continuous
 62
     7
370
    25
100
AcDbLine
 10
4811.760696372155
 20
24.93878539892341
 30
0.0
 11
4813.549125474806
 21
24.93878539892341
 31
0.0
  0
LINE
  5
7E45C
330
1F
100
AcDbEntity
  8
M40-AGF-1-5-DXF_CONTINUOUS_LINE
  6
Continuous
 62
     7
370
    25
100
AcDbLine
 10
4809.260696372156
 20
27.71378539892305
 30
0.0
 11
4809.786449413806
 21
26.83878539892305
 31
0.0
  0
LINE
  5
7E45D
330
1F
100
AcDbEntity
  8
M40-AGF-1-5-DXF_CONTINUOUS_LINE
  6
Continuous
 62
     7
370
    25
100
AcDbLine
 10
4810.160696372157
 20
28.53878539892333
 30
0.0
 11
4810.160696372157
 21
28.38878539892323
 31
0.0
  0
LINE
  5
7E45E
330
1F
100
AcDbEntity
  8
M40-AGF-1-5-DXF_CONTINUOUS_LINE
  6
Continuous
 62
     7
370
    25
100
AcDbLine
 10
4810.160696372157
 20
25.28878539892332
 30
0.0
 11
4810.160696372157
 21
25.13878539892323
 31
0.0
  0
LINE
  5
7E45F
330
1F
100
AcDbEntity
  8
M40-AGF-1-5-DXF_CONTINUOUS_LINE
  6
Continuous
 62
     7
370
    25
100
AcDbLine
 10
4813.549125474806
 20
24.95530457872348
 30
0.0
 11
4814.760696372156
 21
24.95530457872348
 31
0.0
  0
LINE
  5
7E460
330
1F
100
AcDbEntity
  8
M40-AGF-1-5-DXF_CONTINUOUS_LINE
  6
Continuous
 62
     7
370
    25
100
AcDbLine
 10
4802.260696372155
 20
25.13878539892323
 30
0.0
 11
4803.110696372156
 21
25.13878539892323
 31
0.0
  0
LINE
  5
7E461
330
1F
100
AcDbEntity
  8
M40-AGF-1-5-DXF_CONTINUOUS_LINE
  6
Continuous
 62
     7
370
    25
100
AcDbLine
 10
4809.310696372156
 20
25.13878539892323
 30
0.0
 11
4810.160696372157
 21
25.13878539892323
 31
0.0
  0
LINE
  5
7E462
330
1F
100
AcDbEntity
  8
M40-AGF-1-5-DXF_CONTINUOUS_LINE
  6
Continuous
 62
     7
370
    25
100
AcDbLine
 10
4803.260696372156
 20
25.28878539892332
 30
0.0
 11
4809.160696372156
 21
25.28878539892332
 31
0.0
  0
LINE
  5
7E463
330
1F
100
AcDbEntity
  8
M40-AGF-1-5-DXF_CONTINUOUS_LINE
  6
Continuous
 62
     7
370
    25
100
AcDbLine
 10
4810.160696372157
 20
25.28878539892332
 30
0.0
 11
4811.760696372155
 21
25.28878539892332
 31
0.0
  0
LINE
  5
7E464
330
1F
100
AcDbEntity
  8
M40-AGF-1-5-DXF_CONTINUOUS_LINE
  6
Continuous
 62
     7
370
    25
100
AcDbLine
 10
4810.858135762906
 20
26.83878539892305
 30
0.0
 11
4811.549125474805
 21
27.9887853989236
 31
0.0
  0
LINE
  5
7E465
330
1F
100
AcDbEntity
  8
M40-AGF-1-5-DXF_CONTINUOUS_LINE
  6
Continuous
 62
     7
370
    25
100
AcDbLine
 10
4811.549125474805
 20
25.68878539892342
 30
0.0
 11
4813.549125474806
 21
25.68878539892342
 31
0.0
  0
LINE
  5
7E466
330
1F
100
AcDbEntity
  8
M40-AGF-1-5-DXF_CONTINUOUS_LINE
  6
Continuous
 62
     7
370
    25
100
AcDbLine
 10
4813.549125474806
 20
25.7162881828732
 30
0.0
 11
4814.760696372156
 21
25.7162881828732
 31
0.0
  0
LINE
  5
7E467
330
1F
100
AcDbEntity
  8
M40-AGF-1-5-DXF_CONTINUOUS_LINE
  6
Continuous
 62
     7
370
    25
100
AcDbLine
 10
4802.560696372156
 20
25.96378539892305
 30
0.0
 11
4809.260696372156
 21
25.96378539892305
 31
0.0
  0
LINE
  5
7E468
330
1F
100
AcDbEntity
  8
M40-AGF-1-5-DXF_CONTINUOUS_LINE
  6
Continuous
 62
     7
370
    25
100
AcDbLine
 10
4810.858135762906
 20
26.83878539892305
 30
0.0
 11
4811.549125474805
 21
25.68878539892342
 31
0.0
  0
LINE
  5
7E469
330
1F
100
AcDbEntity
  8
M40-AGF-1-5-DXF_CONTINUOUS_LINE
  6
Continuous
 62
     7
370
    25
100
AcDbLine
 10
4811.549125474805
 20
25.68878539892342
 30
0.0
 11
4811.549125474805
 21
27.9887853989236
 31
0.0
  0
LINE
  5
7E46A
330
1F
100
AcDbEntity
  8
M40-AGF-1-5-DXF_CONTINUOUS_LINE
  6
Continuous
 62
     7
370
    25
100
AcDbLine
 10
4811.760696372155
 20
28.73878539892359
 30
0.0
 11
4811.760696372155
 21
28.38878539892323
 31
0.0
  0
LINE
  5
7E46B
330
1F
100
AcDbEntity
  8
M40-AGF-1-5-DXF_CONTINUOUS_LINE
  6
Continuous
 62
     7
370
    25
100
AcDbLine
 10
4811.760696372155
 20
25.28878539892332
 30
0.0
 11
4811.760696372155
 21
24.93878539892341
 31
0.0
  0
LINE
  5
7E46C
330
1F
100
AcDbEntity
  8
M40-AGF-1-5-DXF_CONTINUOUS_LINE
  6
Continuous
 62
     7
370
    25
100
AcDbLine
 10
4817.760696372157
 20
26.58878539892305
 30
0.0
 11
4821.760696372155
 21
26.78878539892333
 31
0.0
  0
LINE
  5
7E46D
330
1F
100
AcDbEntity
  8
M40-AGF-1-5-DXF_CONTINUOUS_LINE
  6
Continuous
 62
     7
370
    25
100
AcDbLine
 10
4813.549125474806
 20
26.58878539892305
 30
0.0
 11
4817.760696372157
 21
26.58878539892305
 31
0.0
  0
LINE
  5
7E46E
330
1F
100
AcDbEntity
  8
M40-AGF-1-5-DXF_CONTINUOUS_LINE
  6
Continuous
 62
     7
370
    25
100
AcDbLine
 10
4813.549125474806
 20
27.08878539892305
 30
0.0
 11
4817.760696372157
 21
27.08878539892305
 31
0.0
  0
LINE
  5
7E46F
330
1F
100
AcDbEntity
  8
M40-AGF-1-5-DXF_CONTINUOUS_LINE
  6
Continuous
 62
     7
370
    25
100
AcDbLine
 10
4817.760696372157
 20
27.08878539892305
 30
0.0
 11
4821.760696372155
 21
26.88878539892324
 31
0.0
  0
LINE
  5
7E470
330
1F
100
AcDbEntity
  8
M40-AGF-1-5-DXF_CONTINUOUS_LINE
  6
Continuous
 62
     7
370
    25
100
AcDbLine
 10
4802.560696372156
 20
27.71378539892305
 30
0.0
 11
4808.010696372155
 21
27.71378539892305
 31
0.0
  0
LINE
  5
7E471
330
1F
100
AcDbEntity
  8
M40-AGF-1-5-DXF_CONTINUOUS_LINE
  6
Continuous
 62
     7
370
    25
100
AcDbLine
 10
4808.910696372156
 20
27.71378539892305
 30
0.0
 11
4809.260696372156
 21
27.71378539892305
 31
0.0
  0
LINE
  5
7E472
330
1F
100
AcDbEntity
  8
M40-AGF-1-5-DXF_CONTINUOUS_LINE
  6
Continuous
 62
     7
370
    25
100
AcDbLine
 10
4813.549125474806
 20
27.96128261497336
 30
0.0
 11
4814.760696372156
 21
27.96128261497336
 31
0.0
  0
LINE
  5
7E473
330
1F
100
AcDbEntity
  8
M40-AGF-1-5-DXF_CONTINUOUS_LINE
  6
Continuous
 62
     7
370
    25
100
AcDbLine
 10
4811.549125474805
 20
27.9887853989236
 30
0.0
 11
4813.549125474806
 21
27.9887853989236
 31
0.0
  0
LINE
  5
7E474
330
1F
100
AcDbEntity
  8
M40-AGF-1-5-DXF_CONTINUOUS_LINE
  6
Continuous
 62
     7
370
    25
100
AcDbLine
 10
4813.549125474806
 20
28.73878539892359
 30
0.0
 11
4813.549125474806
 21
27.96128261497336
 31
0.0
  0
LINE
  5
7E475
330
1F
100
AcDbEntity
  8
M40-AGF-1-5-DXF_CONTINUOUS_LINE
  6
Continuous
 62
     7
370
    25
100
AcDbLine
 10
4813.549125474806
 20
25.7162881828732
 30
0.0
 11
4813.549125474806
 21
24.93878539892341
 31
0.0
  0
LINE
  5
7E476
330
1F
100
AcDbEntity
  8
M40-AGF-1-5-DXF_CONTINUOUS_LINE
  6
Continuous
 62
     7
370
    25
100
AcDbLine
 10
4813.549125474806
 20
26.58878539892305
 30
0.0
 11
4813.549125474806
 21
27.08878539892305
 31
0.0
  0
LINE
  5
7E477
330
1F
100
AcDbEntity
  8
M40-AGF-1-5-DXF_CONTINUOUS_LINE
  6
Continuous
 62
     7
370
    25
100
AcDbLine
 10
4803.260696372156
 20
28.38878539892323
 30
0.0
 11
4808.010696372155
 21
28.38878539892323
 31
0.0
  0
LINE
  5
7E478
330
1F
100
AcDbEntity
  8
M40-AGF-1-5-DXF_CONTINUOUS_LINE
  6
Continuous
 62
     7
370
    25
100
AcDbLine
 10
4808.910696372156
 20
28.38878539892323
 30
0.0
 11
4809.160696372156
 21
28.38878539892323
 31
0.0
  0
LINE
  5
7E479
330
1F
100
AcDbEntity
  8
M40-AGF-1-5-DXF_CONTINUOUS_LINE
  6
Continuous
 62
     7
370
    25
100
AcDbLine
 10
4810.160696372157
 20
28.38878539892323
 30
0.0
 11
4811.760696372155
 21
28.38878539892323
 31
0.0
  0
LINE
  5
7E47A
330
1F
100
AcDbEntity
  8
M40-AGF-1-5-DXF_CONTINUOUS_LINE
  6
Continuous
 62
     7
370
    25
100
AcDbLine
 10
4802.260696372155
 20
28.53878539892333
 30
0.0
 11
4803.110696372156
 21
28.53878539892333
 31
0.0
  0
LINE
  5
7E47B
330
1F
100
AcDbEntity
  8
M40-AGF-1-5-DXF_CONTINUOUS_LINE
  6
Continuous
 62
     7
370
    25
100
AcDbLine
 10
4809.310696372156
 20
28.53878539892333
 30
0.0
 11
4810.160696372157
 21
28.53878539892333
 31
0.0
  0
LINE
  5
7E47C
330
1F
100
AcDbEntity
  8
M40-AGF-1-5-DXF_CONTINUOUS_LINE
  6
Continuous
 62
     7
370
    25
100
AcDbLine
 10
4813.549125474806
 20
28.72226621912307
 30
0.0
 11
4814.760696372156
 21
28.72226621912307
 31
0.0
  0
LINE
  5
7E47D
330
1F
100
AcDbEntity
  8
M40-AGF-1-5-DXF_CONTINUOUS_LINE
  6
Continuous
 62
     7
370
    25
100
AcDbLine
 10
4811.760696372155
 20
28.73878539892359
 30
0.0
 11
4813.549125474806
 21
28.73878539892359
 31
0.0
  0
LINE
  5
7E47E
330
1F
100
AcDbEntity
  8
M40-AGF-1-5-DXF_CONTINUOUS_LINE
  6
Continuous
 62
     7
370
    25
100
AcDbLine
 10
4814.760696372156
 20
25.7162881828732
 30
0.0
 11
4814.760696372156
 21
26.58878539892305
 31
0.0
  0
LINE
  5
7E47F
330
1F
100
AcDbEntity
  8
M40-AGF-1-5-DXF_CONTINUOUS_LINE
  6
Continuous
 62
     7
370
    25
100
AcDbLine
 10
4814.760696372156
 20
27.08878539892305
 30
0.0
 11
4814.760696372156
 21
27.96128261497336
 31
0.0
  0
LINE
  5
7E480
330
1F
100
AcDbEntity
  8
M40-AGF-1-5-DXF_CONTINUOUS_LINE
  6
Continuous
 62
     7
370
    25
100
AcDbLine
 10
4817.760696372157
 20
25.08508668372327
 30
0.0
 11
4817.760696372157
 21
25.84842368392367
 31
0.0
  0
LINE
  5
7E481
330
1F
100
AcDbEntity
  8
M40-AGF-1-5-DXF_CONTINUOUS_LINE
  6
Continuous
 62
     7
370
    25
100
AcDbLine
 10
4817.760696372157
 20
27.82914711392334
 30
0.0
 11
4817.760696372157
 21
28.59248411412329
 31
0.0
  0
LINE
  5
7E482
330
1F
100
AcDbEntity
  8
M40-AGF-1-5-DXF_CONTINUOUS_LINE
  6
Continuous
 62
     7
370
    25
100
AcDbLine
 10
4820.834731533956
 20
25.95432814307344
 30
0.0
 11
4820.834731533956
 21
26.74248715702345
 31
0.0
  0
LINE
  5
7E483
330
1F
100
AcDbEntity
  8
M40-AGF-1-5-DXF_CONTINUOUS_LINE
  6
Continuous
 62
     7
370
    25
100
AcDbLine
 10
4820.834731533956
 20
26.93508364082357
 30
0.0
 11
4820.834731533956
 21
27.72324265477312
 31
0.0
  0
LINE
  5
7E484
330
1F
100
AcDbEntity
  8
M40-AGF-1-5-DXF_CONTINUOUS_LINE
  6
Continuous
 62
     7
370
    25
100
AcDbLine
 10
4821.569352148306
 20
28.00394434427346
 30
0.0
 11
4821.569352148306
 21
26.89835261012343
 31
0.0
  0
LINE
  5
7E485
330
1F
100
AcDbEntity
  8
M40-AGF-1-5-DXF_CONTINUOUS_LINE
  6
Continuous
 62
     7
370
    25
100
AcDbLine
 10
4821.569352148306
 20
26.77921818772359
 30
0.0
 11
4821.569352148306
 21
25.67362645357355
 31
0.0
  0
LINE
  5
7E486
330
1F
100
AcDbEntity
  8
M40-AGF-1-5-DXF_CONTINUOUS_LINE
  6
Continuous
 62
     7
370
    25
100
AcDbLine
 10
4821.760696372155
 20
28.24628541882305
 30
0.0
 11
4821.760696372155
 21
26.88878539892324
 31
0.0
  0
LINE
  5
7E487
330
1F
100
AcDbEntity
  8
M40-AGF-1-5-DXF_CONTINUOUS_LINE
  6
Continuous
 62
     7
370
    25
100
AcDbLine
 10
4821.760696372155
 20
26.78878539892333
 30
0.0
 11
4821.760696372155
 21
25.43128537902305
 31
0.0
  0
CIRCLE
  5
7E488
330
1F
100
AcDbEntity
  8
M40-AGF-1-5-DXF_CONTINUOUS_LINE
  6
Continuous
 62
     7
370
    25
100
AcDbCircle
 10
4808.460696372155
 20
16.67936096725812
 30
0.0
 40
0.45
  0
ARC
  5
7E489
330
1F
100
AcDbEntity
  8
M40-AGF-1-5-DXF_CONTINUOUS_LINE
  6
Continuous
 62
     7
370
    25
100
AcDbCircle
 10
4821.561038849706
 20
18.08698309155802
 30
0.0
 40
0.1996529984
100
AcDbArc
 50
359.9649596701897
 51
87.640010414525
  0
ARC
  5
7E48A
330
1F
100
AcDbEntity
  8
M40-AGF-1-5-DXF_CONTINUOUS_LINE
  6
Continuous
 62
     7
370
    25
100
AcDbCircle
 10
4821.561038850656
 20
15.27173884405825
 30
0.0
 40
0.1996529984
100
AcDbArc
 50
272.3599892984169
 51
0.0350400117034191
  0
ARC
  5
7E48B
330
1F
100
AcDbEntity
  8
M40-AGF-1-5-DXF_CONTINUOUS_LINE
  6
Continuous
 62
     7
370
    25
100
AcDbCircle
 10
4820.871301923006
 20
24.9485879008231
 30
0.0
 40
1.006437519349999
100
AcDbArc
 50
46.08646202648134
 51
92.08245243601515
  0
ARC
  5
7E48C
330
1F
100
AcDbEntity
  8
M40-AGF-1-5-DXF_CONTINUOUS_LINE
  6
Continuous
 62
     7
370
    25
100
AcDbCircle
 10
4820.871301923907
 20
28.7289828954232
 30
0.0
 40
1.006437519099999
100
AcDbArc
 50
267.9175475092851
 51
313.913537999704
  0
ARC
  5
7E48D
330
1F
100
AcDbEntity
  8
M40-AGF-1-5-DXF_CONTINUOUS_LINE
  6
Continuous
 62
     7
370
    25
100
AcDbCircle
 10
4821.561038849806
 20
28.24640752332346
 30
0.0
 40
0.1996529984
100
AcDbArc
 50
359.9649596440043
 51
87.64001044138451
  0
ARC
  5
7E48E
330
1F
100
AcDbEntity
  8
M40-AGF-1-5-DXF_CONTINUOUS_LINE
  6
Continuous
 62
     7
370
    25
100
AcDbCircle
 10
4821.561038850706
 20
25.43116327567316
 30
0.0
 40
0.1996529984
100
AcDbArc
 50
272.3599892918977
 51
0.0350400217085808
  0
LINE
  5
7E48F
330
1F
100
AcDbEntity
  8
M40-AGF-1-5-DXF_CONTINUOUS_LINE
  6
Continuous
 62
     7
370
    25
100
AcDbLine
 10
4814.760696372156
 20
14.7958801470581
 30
0.0
 11
4817.760696372157
 21
14.92566225205833
 31
0.0
  0
LINE
  5
7E490
330
1F
100
AcDbEntity
  8
M40-AGF-1-5-DXF_CONTINUOUS_LINE
  6
Continuous
 62
     7
370
    25
100
AcDbLine
 10
4817.760696372157
 20
18.43305968240789
 30
0.0
 11
4814.760696372156
 21
18.56284178740812
 31
0.0
  0
SPLINE
  5
7E491
330
1F
100
AcDbEntity
  8
M40-AGF-1-5-DXF_CONTINUOUS_LINE
  6
Continuous
 62
     7
370
    25
100
AcDbSpline
210
0.0
220
0.0
230
1.0
 70
     8
 71
     3
 72
    11
 73
     7
 74
     0
 42
0.0000000001
 43
0.0000000001
 40
0.0
 40
0.0
 40
0.0
 40
0.0
 40
0.0785167239
 40
0.2978673855
 40
0.6207244226
 40
1.0
 40
1.0
 40
1.0
 40
1.0
 10
4808.910696372156
 20
28.38878539892323
 30
0.0
 10
4808.899228213506
 20
28.38545515027329
 30
0.0
 10
4808.855599500406
 20
28.37322987312348
 30
0.0
 10
4808.763761666757
 20
28.3511119916235
 30
0.0
 10
4808.625284552256
 20
28.32831798297332
 30
0.0
 10
4808.518384494456
 20
28.32202509632328
 30
0.0
 10
4808.460696372155
 20
28.32202509632328
 30
0.0
  0
SPLINE
  5
7E492
330
1F
100
AcDbEntity
  8
M40-AGF-1-5-DXF_CONTINUOUS_LINE
  6
Continuous
 62
     7
370
    25
100
AcDbSpline
210
0.0
220
0.0
230
1.0
 70
     8
 71
     3
 72
    11
 73
     7
 74
     0
 42
0.0000000001
 43
0.0000000001
 40
0.0
 40
0.0
 40
0.0
 40
0.0
 40
0.3792746489
 40
0.7021334265000001
 40
0.9214843641999999
 40
1.0
 40
1.0
 40
1.0
 40
1.0
 10
4808.460696372155
 20
28.32202509632328
 30
0.0
 10
4808.403008391756
 20
28.32202509632328
 30
0.0
 10
4808.296108219206
 20
28.32831804102318
 30
0.0
 10
4808.157630924457
 20
28.35111198817333
 30
0.0
 10
4808.065792976655
 20
28.37322999322316
 30
0.0
 10
4808.022164375856
 20
28.38545521152321
 30
0.0
 10
4808.010696372155
 20
28.38878539892323
 30
0.0
  0
LINE
  5
7E493
330
1F
100
AcDbEntity
  8
M40-AGF-1-5-DXF_CONTINUOUS_LINE
  6
Continuous
 62
     7
370
    25
100
AcDbLine
 10
4814.760696372156
 20
28.72226621912307
 30
0.0
 11
4817.760696372157
 21
28.59248411412329
 31
0.0
  0
LINE
  5
7E494
330
1F
100
AcDbEntity
  8
M40-AGF-1-5-DXF_CONTINUOUS_LINE
  6
Continuous
 62
     7
370
    25
100
AcDbLine
 10
4817.760696372157
 20
25.08508668372327
 30
0.0
 11
4814.760696372156
 21
24.95530457872348
 31
0.0
  0
LINE
  5
7E495
330
1F
100
AcDbEntity
  8
M40-AGF-1-5-DXF_CONTINUOUS_LINE
  6
Continuous
 62
     7
370
    25
100
AcDbLine
 10
4821.569352148306
 20
28.00394434427346
 30
0.0
 11
4821.760696372155
 21
28.18785915527326
 31
0.0
  0
SPLINE
  5
7E496
330
1F
100
AcDbEntity
  8
M40-AGF-1-5-DXF_CONTINUOUS_LINE
  6
Continuous
 62
     7
370
    25
100
AcDbSpline
210
0.0
220
0.0
230
1.0
 70
     8
 71
     3
 72
     8
 73
     4
 74
     0
 42
0.0000000001
 43
0.0000000001
 40
0.0
 40
0.0
 40
0.0
 40
0.0
 40
1.0
 40
1.0
 40
1.0
 40
1.0
 10
4817.760696372157
 20
25.84842368392367
 30
0.0
 10
4816.760703258307
 20
25.80422245107332
 30
0.0
 10
4815.760702427556
 20
25.7601956527734
 30
0.0
 10
4814.760696372156
 20
25.7162881828732
 30
0.0
  0
SPLINE
  5
7E497
330
1F
100
AcDbEntity
  8
M40-AGF-1-5-DXF_CONTINUOUS_LINE
  6
Continuous
 62
     7
370
    25
100
AcDbSpline
210
0.0
220
0.0
230
1.0
 70
     8
 71
     3
 72
    12
 73
     8
 74
     0
 42
0.0000000001
 43
0.0000000001
 40
0.0
 40
0.0
 40
0.0
 40
0.0
 40
0.0833074001
 40
0.307976721
 40
0.6277382168
 40
0.8102782787999998
 40
1.0
 40
1.0
 40
1.0
 40
1.0
 10
4808.010696372155
 20
27.71378539892305
 30
0.0
 10
4808.022333189406
 20
27.70780276067365
 30
0.0
 10
4808.065608142956
 20
27.68617239677326
 30
0.0
 10
4808.155846131755
 20
27.64626481827338
 30
0.0
 10
4808.265114441407
 20
27.61144343942362
 30
0.0
 10
4808.372366245406
 20
27.59272278862329
 30
0.0
 10
4808.430896800156
 20
27.58920194992345
 30
0.0
 10
4808.460696372155
 20
27.58920194992345
 30
0.0
  0
SPLINE
  5
7E498
330
1F
100
AcDbEntity
  8
M40-AGF-1-5-DXF_CONTINUOUS_LINE
  6
Continuous
 62
     7
370
    25
100
AcDbSpline
210
0.0
220
0.0
230
1.0
 70
     8
 71
     3
 72
     8
 73
     4
 74
     0
 42
0.0000000001
 43
0.0000000001
 40
0.0
 40
0.0
 40
0.0
 40
0.0
 40
1.0
 40
1.0
 40
1.0
 40
1.0
 10
4814.760696372156
 20
27.96128261497336
 30
0.0
 10
4815.760702427556
 20
27.91737514507315
 30
0.0
 10
4816.760703258307
 20
27.8733483467737
 30
0.0
 10
4817.760696372157
 20
27.82914711392334
 30
0.0
  0
LINE
  5
7E499
330
1F
100
AcDbEntity
  8
M40-AGF-1-5-DXF_CONTINUOUS_LINE
  6
Continuous
 62
     7
370
    25
100
AcDbLine
 10
4821.760696372155
 20
25.48971164262332
 30
0.0
 11
4821.569352148306
 21
25.67362645357355
 31
0.0
  0
SPLINE
  5
7E49A
330
1F
100
AcDbEntity
  8
M40-AGF-1-5-DXF_CONTINUOUS_LINE
  6
Continuous
 62
     7
370
    25
100
AcDbSpline
210
0.0
220
0.0
230
1.0
 70
     8
 71
     3
 72
    12
 73
     8
 74
     0
 42
0.0000000001
 43
0.0000000001
 40
0.0
 40
0.0
 40
0.0
 40
0.0
 40
0.18972867
 40
0.3722687197
 40
0.6920235844000003
 40
0.9166909078999999
 40
1.0
 40
1.0
 40
1.0
 40
1.0
 10
4808.460696372155
 20
27.58920194992345
 30
0.0
 10
4808.490497034006
 20
27.58920194992345
 30
0.0
 10
4808.549028604556
 20
27.59272382707343
 30
0.0
 10
4808.656280603256
 20
27.61144343637318
 30
0.0
 10
4808.765547345956
 20
27.64626542367353
 30
0.0
 10
4808.855784445206
 20
27.68617222872365
 30
0.0
 10
4808.899059335006
 20
27.70780260127333
 30
0.0
 10
4808.910696372156
 20
27.71378539892305
 30
0.0
  0
ELLIPSE
  5
7E49B
330
1F
100
AcDbEntity
  8
M40-AGF-1-5-DXF_CONTINUOUS_LINE
  6
Continuous
 62
     7
370
    25
100
AcDbEllipse
 10
4722.145311756756
 20
16.67936096725812
 30
0.0
 11
117.3846153846
 21
0.0
 31
0.0
210
0.0
220
0.0
230
0.9999999999999998
 40
0.0257539377
 41
-0.6188470200000003
 42
-0.5604932404000002
  0
ELLIPSE
  5
7E49C
330
1F
100
AcDbEntity
  8
M40-AGF-1-5-DXF_CONTINUOUS_LINE
  6
Continuous
 62
     7
370
    25
100
AcDbEllipse
 10
4722.145311756756
 20
16.67936096725812
 30
0.0
 11
117.3846153846
 21
0.0
 31
0.0
210
0.0
220
0.0
230
0.9999999999999998
 40
0.0257539377
 41
0.5604932404000002
 42
0.6188470200000003
  0
ELLIPSE
  5
7E49D
330
1F
100
AcDbEntity
  8
M40-AGF-1-5-DXF_CONTINUOUS_LINE
  6
Continuous
 62
     7
370
    25
100
AcDbEllipse
 10
4722.145311756756
 20
26.83878539892305
 30
0.0
 11
117.3846153846
 21
0.0
 31
0.0
210
0.0
220
0.0
230
0.9999999999999998
 40
0.0257539377
 41
-0.6188470200000003
 42
-0.5604932404000002
  0
ELLIPSE
  5
7E49E
330
1F
100
AcDbEntity
  8
M40-AGF-1-5-DXF_CONTINUOUS_LINE
  6
Continuous
 62
     7
370
    25
100
AcDbEllipse
 10
4722.145311756756
 20
26.83878539892305
 30
0.0
 11
117.3846153846
 21
0.0
 31
0.0
210
0.0
220
0.0
230
0.9999999999999998
 40
0.0257539377
 41
0.5604932404000002
 42
0.6188470200000003
  0
ELLIPSE
  5
7E49F
330
1F
100
AcDbEntity
  8
M40-AGF-1-5-DXF_CONTINUOUS_LINE
  6
Continuous
 62
     7
370
    25
100
AcDbEllipse
 10
4770.606850218306
 20
26.83878539892305
 30
0.0
 11
60.84615384614998
 21
0.0
 31
0.0
210
0.0
220
0.0
230
1.0
 40
0.0257539377
 41
-0.6841312421
 42
-0.5997268220000001
  0
ELLIPSE
  5
7E4A0
330
1F
100
AcDbEntity
  8
M40-AGF-1-5-DXF_CONTINUOUS_LINE
  6
Continuous
 62
     7
370
    25
100
AcDbEllipse
 10
4770.606850218306
 20
26.83878539892305
 30
0.0
 11
60.84615384614998
 21
0.0
 31
0.0
210
0.0
220
0.0
230
1.0
 40
0.0257539377
 41
0.5997268220000001
 42
0.6841312421
  0
LINE
  5
7E4A1
330
1F
100
AcDbEntity
  8
0
  6
Continuous
 62
     7
370
    25
100
AcDbLine
 10
4802.560696372156
 20
27.71378539892305
 30
0.0
 11
4808.010696372155
 21
27.71378539892305
 31
0.0
  0
LINE
  5
7E4A2
330
1F
100
AcDbEntity
  8
0
  6
Continuous
 62
     7
370
    25
100
AcDbLine
 10
4802.560696372156
 20
27.71378539892305
 30
0.0
 11
4802.260696372155
 21
28.01378539892323
 31
0.0
  0
LINE
  5
7E4A3
330
1F
100
AcDbEntity
  8
0
  6
Continuous
 62
     7
370
    25
100
AcDbLine
 10
4802.260696372155
 20
28.53878539892333
 30
0.0
 11
4802.260696372155
 21
28.01378539892323
 31
0.0
  0
LINE
  5
7E4A4
330
1F
100
AcDbEntity
  8
0
  6
Continuous
 62
     7
370
    25
100
AcDbLine
 10
4802.260696372155
 20
28.53878539892333
 30
0.0
 11
4803.110696372156
 21
28.53878539892333
 31
0.0
  0
LINE
  5
7E4A5
330
1F
100
AcDbEntity
  8
0
  6
Continuous
 62
     7
370
    25
100
AcDbLine
 10
4803.260696372156
 20
28.38878539892323
 30
0.0
 11
4803.110696372156
 21
28.53878539892333
 31
0.0
  0
LINE
  5
7E4A6
330
1F
100
AcDbEntity
  8
0
  6
Continuous
 62
     7
370
    25
100
AcDbLine
 10
4803.260696372156
 20
28.38878539892323
 30
0.0
 11
4808.010696372155
 21
28.38878539892323
 31
0.0
  0
LINE
  5
7E4A7
330
1F
100
AcDbEntity
  8
0
  6
Continuous
 62
     7
370
    25
100
AcDbLine
 10
4808.010696372155
 20
27.71378539892305
 30
0.0
 11
4808.010696372155
 21
28.38878539892323
 31
0.0
  0
LINE
  5
7E4A8
330
1F
100
AcDbEntity
  8
0
  6
Continuous
 62
     7
370
    25
100
AcDbLine
 10
4809.260696372156
 20
27.71378539892305
 30
0.0
 11
4809.786449413806
 21
26.83878539892305
 31
0.0
  0
LINE
  5
7E4A9
330
1F
100
AcDbEntity
  8
0
  6
Continuous
 62
     7
370
    25
100
AcDbLine
 10
4808.910696372156
 20
27.71378539892305
 30
0.0
 11
4809.260696372156
 21
27.71378539892305
 31
0.0
  0
LINE
  5
7E4AA
330
1F
100
AcDbEntity
  8
0
  6
Continuous
 62
     7
370
    25
100
AcDbLine
 10
4808.910696372156
 20
27.71378539892305
 30
0.0
 11
4808.910696372156
 21
28.38878539892323
 31
0.0
  0
LINE
  5
7E4AB
330
1F
100
AcDbEntity
  8
0
  6
Continuous
 62
     7
370
    25
100
AcDbLine
 10
4808.910696372156
 20
28.38878539892323
 30
0.0
 11
4809.160696372156
 21
28.38878539892323
 31
0.0
  0
LINE
  5
7E4AC
330
1F
100
AcDbEntity
  8
0
  6
Continuous
 62
     7
370
    25
100
AcDbLine
 10
4809.310696372156
 20
28.53878539892333
 30
0.0
 11
4809.160696372156
 21
28.38878539892323
 31
0.0
  0
LINE
  5
7E4AD
330
1F
100
AcDbEntity
  8
0
  6
Continuous
 62
     7
370
    25
100
AcDbLine
 10
4809.310696372156
 20
28.53878539892333
 30
0.0
 11
4810.160696372157
 21
28.53878539892333
 31
0.0
  0
LINE
  5
7E4AE
330
1F
100
AcDbEntity
  8
0
  6
Continuous
 62
     7
370
    25
100
AcDbLine
 10
4810.160696372157
 20
28.53878539892333
 30
0.0
 11
4810.160696372157
 21
28.38878539892323
 31
0.0
  0
LINE
  5
7E4AF
330
1F
100
AcDbEntity
  8
0
  6
Continuous
 62
     7
370
    25
100
AcDbLine
 10
4810.160696372157
 20
28.38878539892323
 30
0.0
 11
4811.760696372155
 21
28.38878539892323
 31
0.0
  0
LINE
  5
7E4B0
330
1F
100
AcDbEntity
  8
0
  6
Continuous
 62
     7
370
    25
100
AcDbLine
 10
4811.760696372155
 20
28.73878539892359
 30
0.0
 11
4811.760696372155
 21
28.38878539892323
 31
0.0
  0
LINE
  5
7E4B1
330
1F
100
AcDbEntity
  8
0
  6
Continuous
 62
     7
370
    25
100
AcDbLine
 10
4811.760696372155
 20
28.73878539892359
 30
0.0
 11
4813.549125474806
 21
28.73878539892359
 31
0.0
  0
LINE
  5
7E4B2
330
1F
100
AcDbEntity
  8
0
  6
Continuous
 62
     7
370
    25
100
AcDbLine
 10
4813.549125474806
 20
28.73878539892359
 30
0.0
 11
4813.549125474806
 21
27.9887853989236
 31
0.0
  0
LINE
  5
7E4B3
330
1F
100
AcDbEntity
  8
0
  6
Continuous
 62
     7
370
    25
100
AcDbLine
 10
4811.549125474805
 20
27.9887853989236
 30
0.0
 11
4813.549125474806
 21
27.9887853989236
 31
0.0
  0
LINE
  5
7E4B4
330
1F
100
AcDbEntity
  8
0
  6
Continuous
 62
     7
370
    25
100
AcDbLine
 10
4810.858135762906
 20
26.83878539892305
 30
0.0
 11
4811.549125474805
 21
27.9887853989236
 31
0.0
  0
LINE
  5
7E4B5
330
1F
100
AcDbEntity
  8
0
  6
Continuous
 62
     7
370
    25
100
AcDbLine
 10
4810.858135762906
 20
26.83878539892305
 30
0.0
 11
4811.549125474805
 21
25.68878539892342
 31
0.0
  0
LINE
  5
7E4B6
330
1F
100
AcDbEntity
  8
0
  6
Continuous
 62
     7
370
    25
100
AcDbLine
 10
4811.549125474805
 20
25.68878539892342
 30
0.0
 11
4813.549125474806
 21
25.68878539892342
 31
0.0
  0
LINE
  5
7E4B7
330
1F
100
AcDbEntity
  8
0
  6
Continuous
 62
     7
370
    25
100
AcDbLine
 10
4813.549125474806
 20
25.68878539892342
 30
0.0
 11
4813.549125474806
 21
24.93878539892341
 31
0.0
  0
LINE
  5
7E4B8
330
1F
100
AcDbEntity
  8
0
  6
Continuous
 62
     7
370
    25
100
AcDbLine
 10
4811.760696372155
 20
24.93878539892341
 30
0.0
 11
4813.549125474806
 21
24.93878539892341
 31
0.0
  0
LINE
  5
7E4B9
330
1F
100
AcDbEntity
  8
0
  6
Continuous
 62
     7
370
    25
100
AcDbLine
 10
4811.760696372155
 20
25.28878539892332
 30
0.0
 11
4811.760696372155
 21
24.93878539892341
 31
0.0
  0
LINE
  5
7E4BA
330
1F
100
AcDbEntity
  8
0
  6
Continuous
 62
     7
370
    25
100
AcDbLine
 10
4810.160696372157
 20
25.28878539892332
 30
0.0
 11
4811.760696372155
 21
25.28878539892332
 31
0.0
  0
LINE
  5
7E4BB
330
1F
100
AcDbEntity
  8
0
  6
Continuous
 62
     7
370
    25
100
AcDbLine
 10
4810.160696372157
 20
25.28878539892332
 30
0.0
 11
4810.160696372157
 21
25.13878539892323
 31
0.0
  0
LINE
  5
7E4BC
330
1F
100
AcDbEntity
  8
0
  6
Continuous
 62
     7
370
    25
100
AcDbLine
 10
4809.310696372156
 20
25.13878539892323
 30
0.0
 11
4810.160696372157
 21
25.13878539892323
 31
0.0
  0
LINE
  5
7E4BD
330
1F
100
AcDbEntity
  8
0
  6
Continuous
 62
     7
370
    25
100
AcDbLine
 10
4809.310696372156
 20
25.13878539892323
 30
0.0
 11
4809.160696372156
 21
25.28878539892332
 31
0.0
  0
LINE
  5
7E4BE
330
1F
100
AcDbEntity
  8
0
  6
Continuous
 62
     7
370
    25
100
AcDbLine
 10
4803.260696372156
 20
25.28878539892332
 30
0.0
 11
4809.160696372156
 21
25.28878539892332
 31
0.0
  0
LINE
  5
7E4BF
330
1F
100
AcDbEntity
  8
0
  6
Continuous
 62
     7
370
    25
100
AcDbLine
 10
4803.260696372156
 20
25.28878539892332
 30
0.0
 11
4803.110696372156
 21
25.13878539892323
 31
0.0
  0
LINE
  5
7E4C0
330
1F
100
AcDbEntity
  8
0
  6
Continuous
 62
     7
370
    25
100
AcDbLine
 10
4802.260696372155
 20
25.13878539892323
 30
0.0
 11
4803.110696372156
 21
25.13878539892323
 31
0.0
  0
LINE
  5
7E4C1
330
1F
100
AcDbEntity
  8
0
  6
Continuous
 62
     7
370
    25
100
AcDbLine
 10
4802.260696372155
 20
25.66378539892332
 30
0.0
 11
4802.260696372155
 21
25.13878539892323
 31
0.0
  0
LINE
  5
7E4C2
330
1F
100
AcDbEntity
  8
0
  6
Continuous
 62
     7
370
    25
100
AcDbLine
 10
4802.560696372156
 20
25.96378539892305
 30
0.0
 11
4802.260696372155
 21
25.66378539892332
 31
0.0
  0
LINE
  5
7E4C3
330
1F
100
AcDbEntity
  8
0
  6
Continuous
 62
     7
370
    25
100
AcDbLine
 10
4802.560696372156
 20
25.96378539892305
 30
0.0
 11
4809.260696372156
 21
25.96378539892305
 31
0.0
  0
LINE
  5
7E4C4
330
1F
100
AcDbEntity
  8
0
  6
Continuous
 62
     7
370
    25
100
AcDbLine
 10
4809.260696372156
 20
25.96378539892305
 30
0.0
 11
4809.786449413806
 21
26.83878539892305
 31
0.0
  0
HATCH
  5
7E4C5
330
1F
100
AcDbEntity
  8
hatch
  6
Continuous
370
     9
100
AcDbHatch
 10
0.0
 20
0.0
 30
0.0
210
0.0
220
0.0
230
1.0
  2
ANSI31
 70
     0
 71
     0
 91
        2
 92
        1
 93
        7
 72
     1
 10
4802.560696372156
 20
27.71378539892305
 11
4808.010696372155
 21
27.71378539892305
 72
     1
 10
4802.560696372156
 20
27.71378539892305
 11
4802.260696372155
 21
28.01378539892323
 72
     1
 10
4802.260696372155
 20
28.53878539892333
 11
4802.260696372155
 21
28.01378539892323
 72
     1
 10
4802.260696372155
 20
28.53878539892333
 11
4803.110696372157
 21
28.53878539892333
 72
     1
 10
4803.260696372156
 20
28.38878539892323
 11
4803.110696372157
 21
28.53878539892333
 72
     1
 10
4803.260696372156
 20
28.38878539892323
 11
4808.010696372155
 21
28.38878539892323
 72
     1
 10
4808.010696372155
 20
27.71378539892305
 11
4808.010696372155
 21
28.38878539892323
 97
        0
 92
        1
 93
       29
 72
     1
 10
4809.260696372156
 20
27.71378539892305
 11
4809.786449413806
 21
26.83878539892305
 72
     1
 10
4808.910696372156
 20
27.71378539892305
 11
4809.260696372156
 21
27.71378539892305
 72
     1
 10
4808.910696372156
 20
27.71378539892305
 11
4808.910696372156
 21
28.38878539892323
 72
     1
 10
4808.910696372156
 20
28.38878539892323
 11
4809.160696372156
 21
28.38878539892323
 72
     1
 10
4809.310696372156
 20
28.53878539892333
 11
4809.160696372156
 21
28.38878539892323
 72
     1
 10
4809.310696372156
 20
28.53878539892333
 11
4810.160696372157
 21
28.53878539892333
 72
     1
 10
4810.160696372157
 20
28.53878539892333
 11
4810.160696372157
 21
28.38878539892323
 72
     1
 10
4810.160696372157
 20
28.38878539892323
 11
4811.760696372155
 21
28.38878539892323
 72
     1
 10
4811.760696372155
 20
28.73878539892359
 11
4811.760696372155
 21
28.3887853989237
 72
     1
 10
4811.760696372155
 20
28.73878539892359
 11
4813.549125474807
 21
28.73878539892359
 72
     1
 10
4813.549125474806
 20
28.73878539892359
 11
4813.549125474806
 21
27.9887853989236
 72
     1
 10
4811.549125474805
 20
27.9887853989236
 11
4813.549125474806
 21
27.9887853989236
 72
     1
 10
4810.858135762906
 20
26.83878539892305
 11
4811.549125474805
 21
27.98878539892314
 72
     1
 10
4810.858135762906
 20
26.83878539892305
 11
4811.549125474805
 21
25.68878539892296
 72
     1
 10
4811.549125474805
 20
25.68878539892342
 11
4813.549125474806
 21
25.68878539892342
 72
     1
 10
4813.549125474806
 20
25.68878539892342
 11
4813.549125474806
 21
24.93878539892341
 72
     1
 10
4811.760696372155
 20
24.93878539892341
 11
4813.549125474807
 21
24.93878539892341
 72
     1
 10
4811.760696372155
 20
25.28878539892332
 11
4811.760696372155
 21
24.93878539892341
 72
     1
 10
4810.160696372157
 20
25.28878539892332
 11
4811.760696372155
 21
25.28878539892332
 72
     1
 10
4810.160696372157
 20
25.28878539892332
 11
4810.160696372157
 21
25.13878539892323
 72
     1
 10
4809.310696372156
 20
25.13878539892323
 11
4810.160696372157
 21
25.13878539892323
 72
     1
 10
4809.310696372156
 20
25.13878539892323
 11
4809.160696372156
 21
25.28878539892332
 72
     1
 10
4803.260696372156
 20
25.28878539892332
 11
4809.160696372156
 21
25.28878539892332
 72
     1
 10
4803.260696372156
 20
25.28878539892332
 11
4803.110696372157
 21
25.13878539892323
 72
     1
 10
4802.260696372155
 20
25.13878539892323
 11
4803.110696372157
 21
25.13878539892323
 72
     1
 10
4802.260696372155
 20
25.66378539892332
 11
4802.260696372155
 21
25.13878539892323
 72
     1
 10
4802.560696372156
 20
25.96378539892305
 11
4802.260696372155
 21
25.66378539892288
 72
     1
 10
4802.560696372156
 20
25.96378539892305
 11
4809.260696372156
 21
25.96378539892305
 72
     1
 10
4809.260696372156
 20
25.96378539892305
 11
4809.786449413806
 21
26.83878539892305
 97
        0
 75
     0
 76
     1
 52
0.0
 41
2.0
 77
     0
 78
     1
 53
45.0
 43
-112.5692158445554
 44
-70.52512905023863
 45
-0.1767766952966369
 46
0.1767766952966369
 79
     0
 98
        1
 10
4751.672992059755
 20
-57.16678928747693
1001
ACAD
1010
0.0
1020
0.0
1030
0.0
  0
LINE
  5
7E4CC
330
1F
100
AcDbEntity
  8
CEN
  6
CENTER
 48
4.0
370
     9
100
AcDbLine
 10
4801.324320021056
 20
26.83672291663891
 30
0.0
 11
4822.800575016653
 21
26.83887792619874
 31
0.0
  0
LINE
  5
7E4CF
330
1F
100
AcDbEntity
  8
CEN
  6
CENTER
 48
0.3
370
     9
100
AcDbLine
 10
4808.460696372155
 20
16.07756248331448
 30
0.0
 11
4808.460696372155
 21
17.30798081046119
 31
0.0
  0
LINE
  5
7E4D0
330
1F
100
AcDbEntity
  8
CEN
  6
CENTER
 48
0.3
370
     9
100
AcDbLine
 10
4809.075905535729
 20
16.67936096725812
 30
0.0
 11
4807.845487208584
 21
16.67936096725812
 31
0.0
  0
LINE
  5
7E4D1
330
1F
100
AcDbEntity
  8
CEN
  6
CENTER
 48
0.2
370
     9
100
AcDbLine
 10
4808.460696372157
 20
27.39942754229071
 30
0.0
 11
4808.460696372157
 21
28.50875006676927
 31
0.0
  0
LINE
  5
7E51A
330
1F
100
AcDbEntity
  8
CEN
  6
CENTER
 48
4.0
100
AcDbLine
 10
4801.678868404316
 20
16.67936096725812
 30
0.0
 11
4823.662931298112
 21
16.67936096725812
 31
0.0
  0
DIMENSION
  5
7E51B
330
1F
100
AcDbEntity
  8
DIM
100
AcDbDimension
  2
*D2
 10
4800.089098506695
 20
25.96378539892305
 30
0.0
 11
4799.039248506693
 21
26.83878539892382
 31
0.0
 70
    32
  1
a
 71
     5
 42
1.75
 73
     0
 74
     0
 75
     0
  3
01
100
AcDbAlignedDimension
 13
4802.560696372156
 23
27.71378539892305
 33
0.0
 14
4802.560696372156
 24
25.96378539892305
 34
0.0
 50
90.0
100
AcDbRotatedDimension
1001
ACAD
1000
DSTYLE
1002
{
1070
    41
1040
1.199999999999999
1070
    42
1040
0.29985
1070
    44
1040
0.29985
1070
   140
1040
1.5
1070
   147
1040
0.29985
1002
}
  0
DIMENSION
  5
7E533
330
1F
100
AcDbEntity
  8
DIM
100
AcDbDimension
  2
*D3
 10
4804.741885044986
 20
15.12936096725793
 30
0.0
 11
4804.741885044986
 21
13.30808239583013
 31
0.0
 70
   160
  1
b
 71
     5
 42
3.099999998849853
 73
     0
 74
     0
 75
     0
  3
01
100
AcDbAlignedDimension
 13
4803.260696373306
 23
18.22936096610779
 33
0.0
 14
4803.260696373306
 24
15.12936096725794
 34
0.0
 50
90.0
100
AcDbRotatedDimension
1001
ACAD
1000
DSTYLE
1002
{
1070
    44
1040
0.29985
1070
    42
1040
0.29985
1070
   147
1040
0.29985
1070
    41
1040
1.199999999999999
1070
   140
1040
1.5
1002
}
  0
DIMENSION
  5
7E58E
330
1F
100
AcDbEntity
  8
DIM
100
AcDbDimension
  2
*D4
 10
4800.154793191551
 20
14.9793609672583
 30
0.0
 11
4800.154793191551
 21
11.76522525297335
 31
0.0
 70
   160
  1
%%c<>
 71
     5
 42
3.399999999999636
 73
     0
 74
     0
 75
     0
  3
01
100
AcDbAlignedDimension
 13
4802.260696372155
 23
18.37936096725794
 33
0.0
 14
4802.260696372155
 24
14.9793609672583
 34
0.0
 50
90.0
100
AcDbRotatedDimension
1001
ACAD
1000
DSTYLE
1002
{
1070
    41
1040
1.199999999999999
1070
    42
1040
0.29985
1070
    44
1040
0.29985
1070
   140
1040
1.5
1070
   147
1040
0.29985
1002
}
  0
DIMENSION
  5
7E59C
330
1F
100
AcDbEntity
  8
DIM
100
AcDbDimension
  2
*D5
 10
4812.393208477407
 20
14.77936096725803
 30
0.0
 11
4811.343358477405
 21
11.5920109672588
 31
0.0
 70
    32
  1
%%c<>
 71
     5
 42
3.799999999999727
 73
     0
 74
     0
 75
     0
  3
01
100
AcDbAlignedDimension
 13
4812.654910923481
 23
18.57936096725775
 33
0.0
 14
4812.654910923481
 24
14.77936096725803
 34
0.0
 50
90.0
100
AcDbRotatedDimension
1001
ACAD
1000
DSTYLE
1002
{
1070
    41
1040
1.199999999999999
1070
    42
1040
0.29985
1070
    44
1040
0.29985
1070
   140
1040
1.5
1070
   147
1040
0.29985
1002
}
  0
DIMENSION
  5
7E5AA
330
1F
100
AcDbEntity
  8
DIM
100
AcDbDimension
  2
*D6
 10
4821.760696372155
 20
22.5394572993018
 30
0.0
 11
4811.767579547598
 21
22.5394572993018
 31
0.0
 70
   160
  1
19.7
 71
     5
 42
19.5
 73
     0
 74
     0
 75
     0
  3
01
100
AcDbAlignedDimension
 13
4802.260696372155
 23
25.66378539892332
 33
0.0
 14
4821.760696372155
 24
25.58166904809843
 34
0.0
100
AcDbRotatedDimension
1001
ACAD
1000
DSTYLE
1002
{
1070
    44
1040
0.29985
1070
    42
1040
0.29985
1070
   147
1040
0.29985
1070
    41
1040
1.199999999999999
1070
   140
1040
1.5
1002
}
  0
LINE
  5
7E658
330
1F
100
AcDbEntity
  8
M40-AGF-1-5-DXF_CONTINUOUS_LINE
  6
Continuous
 62
     7
370
    25
100
AcDbLine
 10
4790.36020242952
 20
-7.430675786598047
 30
0.0
 11
4790.072085993021
 21
-7.430675786598047
 31
0.0
  0
LINE
  5
7E659
330
1F
100
AcDbEntity
  8
M40-AGF-1-5-DXF_CONTINUOUS_LINE
  6
Continuous
 62
     7
370
    25
100
AcDbLine
 10
4788.426724696771
 20
-10.74824055554802
 30
0.0
 11
4788.426816714721
 21
-10.74840194454794
 31
0.0
  0
LINE
  5
7E65A
330
1F
100
AcDbEntity
  8
M40-AGF-1-5-DXF_CONTINUOUS_LINE
  6
Continuous
 62
     7
370
    25
100
AcDbLine
 10
4788.426724696771
 20
-10.74824055554802
 30
0.0
 11
4786.092276676821
 21
-6.652829699898235
 31
0.0
  0
LINE
  5
7E65B
330
1F
100
AcDbEntity
  8
M40-AGF-1-5-DXF_CONTINUOUS_LINE
  6
Continuous
 62
     7
370
    25
100
AcDbLine
 10
4785.148481025522
 20
-4.733878851348096
 30
0.0
 11
4786.063606625421
 21
-6.598708756148088
 31
0.0
  0
LINE
  5
7E65C
330
1F
100
AcDbEntity
  8
M40-AGF-1-5-DXF_CONTINUOUS_LINE
  6
Continuous
 62
     7
370
    25
100
AcDbLine
 10
4782.430129623171
 20
1.259524389002189
 30
0.0
 11
4782.689415209821
 21
0.7311559160019634
 31
0.0
  0
LINE
  5
7E65D
330
1F
100
AcDbEntity
  8
M40-AGF-1-5-DXF_CONTINUOUS_LINE
  6
Continuous
 62
     7
370
    25
100
AcDbLine
 10
4784.580674782922
 20
-3.122825887298066
 30
0.0
 11
4784.839960369571
 21
-3.651194360297838
 31
0.0
  0
LINE
  5
7E65E
330
1F
100
AcDbEntity
  8
M40-AGF-1-5-DXF_CONTINUOUS_LINE
  6
Continuous
 62
     7
370
    25
100
AcDbLine
 10
4783.042447543171
 20
0.3522407802519147
 30
0.0
 11
4784.66957825097
 21
-2.963502985697803
 31
0.0
  0
LINE
  5
7E65F
330
1F
100
AcDbEntity
  8
M40-AGF-1-5-DXF_CONTINUOUS_LINE
  6
Continuous
 62
     7
370
    25
100
AcDbLine
 10
4785.192658171022
 20
-4.029427791647893
 30
0.0
 11
4785.462687104221
 21
-4.579688903197737
 31
0.0
  0
LINE
  5
7E660
330
1F
100
AcDbEntity
  8
M40-AGF-1-5-DXF_CONTINUOUS_LINE
  6
Continuous
 62
     7
370
    25
100
AcDbLine
 10
4786.713524393021
 20
-6.483934272347712
 30
0.0
 11
4787.083104241121
 21
-7.237058819447725
 31
0.0
  0
LINE
  5
7E661
330
1F
100
AcDbEntity
  8
M40-AGF-1-5-DXF_CONTINUOUS_LINE
  6
Continuous
 62
     7
370
    25
100
AcDbLine
 10
4787.174054890022
 20
-6.483934272347712
 30
0.0
 11
4787.543634738121
 21
-7.237058819447725
 31
0.0
  0
LINE
  5
7E662
330
1F
100
AcDbEntity
  8
M40-AGF-1-5-DXF_CONTINUOUS_LINE
  6
Continuous
 62
     7
370
    25
100
AcDbLine
 10
4789.07400105447
 20
-5.204384789548045
 30
0.0
 11
4789.443580902569
 21
-5.957509336648062
 31
0.0
  0
LINE
  5
7E663
330
1F
100
AcDbEntity
  8
M40-AGF-1-5-DXF_CONTINUOUS_LINE
  6
Continuous
 62
     7
370
    25
100
AcDbLine
 10
4785.826780341671
 20
1.715142267101665
 30
0.0
 11
4787.452546376671
 21
-1.597820588097991
 31
0.0
  0
LINE
  5
7E664
330
1F
100
AcDbEntity
  8
M40-AGF-1-5-DXF_CONTINUOUS_LINE
  6
Continuous
 62
     7
370
    25
100
AcDbLine
 10
4787.975998989521
 20
-2.664504862098173
 30
0.0
 11
4788.24565522992
 21
-3.214006505597923
 31
0.0
  0
LINE
  5
7E665
330
1F
100
AcDbEntity
  8
M40-AGF-1-5-DXF_CONTINUOUS_LINE
  6
Continuous
 62
     7
370
    25
100
AcDbLine
 10
4789.195034216169
 20
-4.812721334748065
 30
0.0
 11
4789.56461406427
 21
-5.565845881798058
 31
0.0
  0
LINE
  5
7E666
330
1F
100
AcDbEntity
  8
M40-AGF-1-5-DXF_CONTINUOUS_LINE
  6
Continuous
 62
     7
370
    25
100
AcDbLine
 10
4785.482417244971
 20
2.757369599301791
 30
0.0
 11
4785.741702831571
 21
2.229001126302017
 31
0.0
  0
LINE
  5
7E667
330
1F
100
AcDbEntity
  8
M40-AGF-1-5-DXF_CONTINUOUS_LINE
  6
Continuous
 62
     7
370
    25
100
AcDbLine
 10
4787.632962404721
 20
-1.624980676998009
 30
0.0
 11
4787.892247991371
 21
-2.153349150048259
 31
0.0
  0
LINE
  5
7E668
330
1F
100
AcDbEntity
  8
M40-AGF-1-5-DXF_CONTINUOUS_LINE
  6
Continuous
 62
     7
370
    25
100
AcDbLine
 10
4788.559861308671
 20
-3.059816557498042
 30
0.0
 11
4789.474986908571
 21
-4.924646462298031
 31
0.0
  0
LINE
  5
7E669
330
1F
100
AcDbEntity
  8
M40-AGF-1-5-DXF_CONTINUOUS_LINE
  6
Continuous
 62
     7
370
    25
100
AcDbLine
 10
4789.474986908571
 20
-4.924646462298031
 30
0.0
 11
4789.500253793021
 21
-4.980437437847855
 31
0.0
  0
LINE
  5
7E66A
330
1F
100
AcDbEntity
  8
M40-AGF-1-5-DXF_CONTINUOUS_LINE
  6
Continuous
 62
     7
370
    25
100
AcDbLine
 10
4791.31131620022
 20
-9.332688647447984
 30
0.0
 11
4789.500253793021
 21
-4.980437437847855
 31
0.0
  0
LINE
  5
7E66B
330
1F
100
AcDbEntity
  8
M40-AGF-1-5-DXF_CONTINUOUS_LINE
  6
Continuous
 62
     7
370
    25
100
AcDbLine
 10
4788.197888947521
 20
-8.455791618847912
 30
0.0
 11
4788.029645718022
 21
-9.000226908997891
 31
0.0
  0
ARC
  5
7E66C
330
1F
100
AcDbEntity
  8
M40-AGF-1-5-DXF_CONTINUOUS_LINE
  6
Continuous
 62
     7
370
    25
100
AcDbCircle
 10
4789.455781718271
 20
-9.451614253748292
 30
0.0
 40
1.80209785525
100
AcDbArc
 50
271.7889000993209
 51
272.5055797989167
  0
ARC
  5
7E66D
330
1F
100
AcDbEntity
  8
M40-AGF-1-5-DXF_CONTINUOUS_LINE
  6
Continuous
 62
     7
370
    25
100
AcDbCircle
 10
4789.500985615972
 20
-9.638713550948184
 30
0.0
 40
1.6531159547
100
AcDbArc
 50
266.412798927693
 51
268.3137678817969
  0
ARC
  5
7E66E
330
1F
100
AcDbEntity
  8
M40-AGF-1-5-DXF_CONTINUOUS_LINE
  6
Continuous
 62
     7
370
    25
100
AcDbCircle
 10
4790.08926031132
 20
-9.609233576748126
 30
0.0
 40
1.296613908149998
100
AcDbArc
 50
338.5925535636774
 51
340.5674610886852
  0
ARC
  5
7E66F
330
1F
100
AcDbEntity
  8
M40-AGF-1-5-DXF_CONTINUOUS_LINE
  6
Continuous
 62
     7
370
    25
100
AcDbCircle
 10
4790.166182840021
 20
-9.685923828898127
 30
0.0
 40
1.22050988545
100
AcDbArc
 50
344.9996258995015
 51
347.5286120476872
  0
ARC
  5
7E670
330
1F
100
AcDbEntity
  8
M40-AGF-1-5-DXF_CONTINUOUS_LINE
  6
Continuous
 62
     7
370
    25
100
AcDbCircle
 10
4786.951188097171
 20
-6.163194387347747
 30
0.0
 40
0.98867123165
100
AcDbArc
 50
206.1360513259006
 51
209.6859518271858
  0
ARC
  5
7E671
330
1F
100
AcDbEntity
  8
M40-AGF-1-5-DXF_CONTINUOUS_LINE
  6
Continuous
 62
     7
370
    25
100
AcDbCircle
 10
4789.22725007512
 20
-10.26919500554789
 30
0.0
 40
0.93512785175
100
AcDbArc
 50
227.708058542324
 51
230.3453802530925
  0
ARC
  5
7E672
330
1F
100
AcDbEntity
  8
M40-AGF-1-5-DXF_CONTINUOUS_LINE
  6
Continuous
 62
     7
370
    25
100
AcDbCircle
 10
4789.205610645421
 20
-10.29245529754792
 30
0.0
 40
0.903360329
100
AcDbArc
 50
222.7876938931682
 51
227.7305868809814
  0
ARC
  5
7E673
330
1F
100
AcDbEntity
  8
M40-AGF-1-5-DXF_CONTINUOUS_LINE
  6
Continuous
 62
     7
370
    25
100
AcDbCircle
 10
4790.517128505771
 20
-9.661984944547956
 30
0.0
 40
0.8597462401999999
100
AcDbArc
 50
10.47209280750625
 51
22.52045157658341
  0
ARC
  5
7E674
330
1F
100
AcDbEntity
  8
M40-AGF-1-5-DXF_CONTINUOUS_LINE
  6
Continuous
 62
     7
370
    25
100
AcDbCircle
 10
4789.360506001421
 20
-11.17452160339792
 30
0.0
 40
0.1620155553
100
AcDbArc
 50
332.151821239614
 51
335.0486820558012
  0
ARC
  5
7E675
330
1F
100
AcDbEntity
  8
M40-AGF-1-5-DXF_CONTINUOUS_LINE
  6
Continuous
 62
     7
370
    25
100
AcDbCircle
 10
4791.25307645392
 20
-9.964129335498117
 30
0.0
 40
0.10190814425
100
AcDbArc
 50
306.7887365989175
 51
308.1910157963996
  0
ARC
  5
7E676
330
1F
100
AcDbEntity
  8
M40-AGF-1-5-DXF_CONTINUOUS_LINE
  6
Continuous
 62
     7
370
    25
100
AcDbCircle
 10
4791.272860691218
 20
-9.982381354397722
 30
0.0
 40
0.0748124196
100
AcDbArc
 50
327.9710084438201
 51
344.9377812380959
  0
SPLINE
  5
7E677
330
1F
100
AcDbEntity
  8
M40-AGF-1-5-DXF_CONTINUOUS_LINE
  6
Continuous
 62
     7
370
    25
100
AcDbSpline
210
0.0
220
0.0
230
1.0
 70
     8
 71
     3
 72
    11
 73
     7
 74
     0
 42
0.0000000001
 43
0.0000000001
 40
0.0
 40
0.0
 40
0.0
 40
0.0
 40
0.2055745703
 40
0.4309674168
 40
0.6931082088
 40
1.0
 40
1.0
 40
1.0
 40
1.0
 10
4789.45234093137
 20
-11.29111344719797
 30
0.0
 10
4789.457064458721
 20
-11.29125047784794
 30
0.0
 10
4789.467111463571
 20
-11.28947795349779
 30
0.0
 10
4789.480964449771
 20
-11.28108362204796
 30
0.0
 10
4789.49353672202
 20
-11.26762060764816
 30
0.0
 10
4789.50046095337
 20
-11.25644042394799
 30
0.0
 10
4789.503758290371
 20
-11.25020397839819
 30
0.0
  0
SPLINE
  5
7E678
330
1F
100
AcDbEntity
  8
M40-AGF-1-5-DXF_CONTINUOUS_LINE
  6
Continuous
 62
     7
370
    25
100
AcDbSpline
210
0.0
220
0.0
230
1.0
 70
     8
 71
     3
 72
    13
 73
     9
 74
     0
 42
0.0000000001
 43
0.0000000001
 40
0.0
 40
0.0
 40
0.0
 40
0.0
 40
0.1182759306
 40
0.2374105438
 40
0.3580899621
 40
0.4808533652000003
 40
0.7340319331999999
 40
1.0
 40
1.0
 40
1.0
 40
1.0
 10
4788.426724696771
 20
-10.74824055554802
 30
0.0
 10
4788.449307664771
 20
-10.78785871424827
 30
0.0
 10
4788.500560959771
 20
-10.86416219129808
 30
0.0
 10
4788.593484483771
 20
-10.96686665239815
 30
0.0
 10
4788.701085225721
 20
-11.05680979204828
 30
0.0
 10
4788.863333458371
 20
-11.1593948891483
 30
0.0
 10
4789.095930244672
 20
-11.25089972604803
 30
0.0
 10
4789.29520854702
 20
-11.2821710819477
 30
0.0
 10
4789.39755415892
 20
-11.28859060499792
 30
0.0
  0
SPLINE
  5
7E679
330
1F
100
AcDbEntity
  8
M40-AGF-1-5-DXF_CONTINUOUS_LINE
  6
Continuous
 62
     7
370
    25
100
AcDbSpline
210
0.0
220
0.0
230
1.0
 70
     8
 71
     3
 72
    11
 73
     7
 74
     0
 42
0.0000000001
 43
0.0000000001
 40
0.0
 40
0.0
 40
0.0
 40
0.0
 40
0.1926765164
 40
0.4123040232000001
 40
0.6792270049
 40
1.0
 40
1.0
 40
1.0
 40
1.0
 10
4789.553196548672
 20
-11.29111747554782
 30
0.0
 10
4789.54939859692
 20
-11.29123099929768
 30
0.0
 10
4789.54113695442
 20
-11.28945070889824
 30
0.0
 10
4789.530087849321
 20
-11.28144295879804
 30
0.0
 10
4789.520127059271
 20
-11.26886818529795
 30
0.0
 10
4789.514663588521
 20
-11.2585889539979
 30
0.0
 10
4789.512038030971
 20
-11.25283381479824
 30
0.0
  0
SPLINE
  5
7E67A
330
1F
100
AcDbEntity
  8
M40-AGF-1-5-DXF_CONTINUOUS_LINE
  6
Continuous
 62
     7
370
    25
100
AcDbSpline
210
0.0
220
0.0
230
1.0
 70
     8
 71
     3
 72
    14
 73
    10
 74
     0
 42
0.0000000001
 43
0.0000000001
 40
0.0
 40
0.0
 40
0.0
 40
0.0
 40
0.2521382893
 40
0.3819561689
 40
0.5117562179
 40
0.6397623634000002
 40
0.7644314758000002
 40
0.8846669706999998
 40
1.0
 40
1.0
 40
1.0
 40
1.0
 10
4789.55319651152
 20
-11.29111895489825
 30
0.0
 10
4789.742275021221
 20
-11.285642731748
 30
0.0
 10
4790.029038907871
 20
-11.23132560559827
 30
0.0
 10
4790.38472241142
 20
-11.08508718229825
 30
0.0
 10
4790.637216521271
 20
-10.93880914409795
 30
0.0
 10
4790.86412158337
 20
-10.76168741414824
 30
0.0
 10
4791.058336288071
 20
-10.558837010498
 30
0.0
 10
4791.213326842321
 20
-10.33607428129801
 30
0.0
 10
4791.28833467127
 20
-10.17475059264791
 30
0.0
 10
4791.31691606107
 20
-10.0930830054482
 30
0.0
  0
SPLINE
  5
7E67B
330
1F
100
AcDbEntity
  8
M40-AGF-1-5-DXF_CONTINUOUS_LINE
  6
Continuous
 62
     7
370
    25
100
AcDbSpline
210
0.0
220
0.0
230
1.0
 70
     8
 71
     3
 72
    11
 73
     7
 74
     0
 42
0.0000000001
 43
0.0000000001
 40
0.0
 40
0.0
 40
0.0
 40
0.0
 40
0.2565050485
 40
0.5077073863
 40
0.7549553288
 40
1.0
 40
1.0
 40
1.0
 40
1.0
 10
4791.357893537372
 20
-9.949495440347735
 30
0.0
 10
4791.36947700692
 20
-9.897081692998316
 30
0.0
 10
4791.385472281571
 20
-9.791630141847807
 30
0.0
 10
4791.386163809572
 20
-9.63305970964814
 30
0.0
 10
4791.362787340571
 20
-9.478604307097727
 30
0.0
 10
4791.33101732017
 20
-9.380033356747961
 30
0.0
 10
4791.31131620022
 20
-9.332688647447984
 30
0.0
  0
SPLINE
  5
7E67C
330
1F
100
AcDbEntity
  8
M40-AGF-1-5-DXF_CONTINUOUS_LINE
  6
Continuous
 62
     7
370
    25
100
AcDbSpline
210
0.0
220
0.0
230
1.0
 70
     8
 71
     3
 72
     9
 73
     5
 74
     0
 42
0.0000000001
 43
0.0000000001
 40
0.0
 40
0.0
 40
0.0
 40
0.0
 40
0.2564617711
 40
1.0
 40
1.0
 40
1.0
 40
1.0
 10
4787.174054890022
 20
-6.483934272347712
 30
0.0
 10
4787.134872032772
 20
-6.488208306048026
 30
0.0
 10
4786.98169961937
 20
-6.500877670847902
 30
0.0
 10
4786.827024065421
 20
-6.497209699398016
 30
0.0
 10
4786.713524393021
 20
-6.483934272347712
 30
0.0
  0
SPLINE
  5
7E67D
330
1F
100
AcDbEntity
  8
M40-AGF-1-5-DXF_CONTINUOUS_LINE
  6
Continuous
 62
     7
370
    25
100
AcDbSpline
210
0.0
220
0.0
230
1.0
 70
     8
 71
     3
 72
     9
 73
     5
 74
     0
 42
0.0000000001
 43
0.0000000001
 40
0.0
 40
0.0
 40
0.0
 40
0.0
 40
0.2459703163
 40
1.0
 40
1.0
 40
1.0
 40
1.0
 10
4789.149732807471
 20
-5.008553062147829
 30
0.0
 10
4789.144647890521
 20
-5.025007859397762
 30
0.0
 10
4789.122785625321
 20
-5.091534067297858
 30
0.0
 10
4789.096266046921
 20
-5.15651287274807
 30
0.0
 10
4789.07400105447
 20
-5.204384789548045
 30
0.0
  0
SPLINE
  5
7E67E
330
1F
100
AcDbEntity
  8
M40-AGF-1-5-DXF_CONTINUOUS_LINE
  6
Continuous
 62
     7
370
    25
100
AcDbSpline
210
0.0
220
0.0
230
1.0
 70
     8
 71
     3
 72
    21
 73
    17
 74
     0
 42
0.0000000001
 43
0.0000000001
 40
0.0
 40
0.0
 40
0.0
 40
0.0
 40
0.1207258943
 40
0.185633163
 40
0.252912236
 40
0.3915901124
 40
0.4616194299
 40
0.5309116464
 40
0.5986737554000002
 40
0.6642176133
 40
0.7270198755
 40
0.7867804604000001
 40
0.8434799888
 40
0.8974288101
 40
0.9492828283999999
 40
1.0
 40
1.0
 40
1.0
 40
1.0
 10
4787.931907870271
 20
-2.902271755148039
 30
0.0
 10
4787.886133208622
 20
-3.050398614598297
 30
0.0
 10
4787.774507267521
 20
-3.266578348198096
 30
0.0
 10
4787.570117015969
 20
-3.519557321848086
 30
0.0
 10
4787.318283139721
 20
-3.760757624948045
 30
0.0
 10
4787.019093659472
 20
-3.957789199098103
 30
0.0
 10
4786.691609330071
 20
-4.101337382747831
 30
0.0
 10
4786.43676372497
 20
-4.179596333197993
 30
0.0
 10
4786.180105721671
 20
-4.225985097198305
 30
0.0
 10
4785.927895327271
 20
-4.239341789798007
 30
0.0
 10
4785.686347052471
 20
-4.219246204998061
 30
0.0
 10
4785.461394764771
 20
-4.166029031848328
 30
0.0
 10
4785.258647673471
 20
-4.080740775898108
 30
0.0
 10
4785.083312138921
 20
-3.965133048947908
 30
0.0
 10
4784.940234074421
 20
-3.821940920598198
 30
0.0
 10
4784.868733829671
 20
-3.709812029598314
 30
0.0
 10
4784.84003700787
 20
-3.651342756948114
 30
0.0
  0
SPLINE
  5
7E67F
330
1F
100
AcDbEntity
  8
M40-AGF-1-5-DXF_CONTINUOUS_LINE
  6
Continuous
 62
     7
370
    25
100
AcDbSpline
210
0.0
220
0.0
230
1.0
 70
     8
 71
     3
 72
     9
 73
     5
 74
     0
 42
0.0000000001
 43
0.0000000001
 40
0.0
 40
0.0
 40
0.0
 40
0.0
 40
0.5039557022
 40
1.0
 40
1.0
 40
1.0
 40
1.0
 10
4785.90296807422
 20
-3.007396377548165
 30
0.0
 10
4785.913923221271
 20
-3.029720620098149
 30
0.0
 10
4785.927972098721
 20
-3.07845936414799
 30
0.0
 10
4785.92195615367
 20
-3.128841409347959
 30
0.0
 10
4785.914730686172
 20
-3.152227653947765
 30
0.0
  0
SPLINE
  5
7E680
330
1F
100
AcDbEntity
  8
M40-AGF-1-5-DXF_CONTINUOUS_LINE
  6
Continuous
 62
     7
370
    25
100
AcDbSpline
210
0.0
220
0.0
230
1.0
 70
     8
 71
     3
 72
    21
 73
    17
 74
     0
 42
0.0000000001
 43
0.0000000001
 40
0.0
 40
0.0
 40
0.0
 40
0.0
 40
0.1207255839
 40
0.1856360271
 40
0.2529160683
 40
0.391595709
 40
0.4616258674
 40
0.5309178751000001
 40
0.5986795573000001
 40
0.6642235092000001
 40
0.7270252294000003
 40
0.7867838890000001
 40
0.8434814975
 40
0.8974293418000002
 40
0.9492831477999999
 40
1.0
 40
1.0
 40
1.0
 40
1.0
 10
4785.781362710522
 20
1.480078521152218
 30
0.0
 10
4785.735586171421
 20
1.331945576651714
 30
0.0
 10
4785.623951901221
 20
1.11575374955225
 30
0.0
 10
4785.419545567771
 20
0.8627627266517912
 30
0.0
 10
4785.167685988971
 20
0.6215567680022751
 30
0.0
 10
4784.86848072032
 20
0.4245117118019799
 30
0.0
 10
4784.540969644521
 20
0.2809759986019991
 30
0.0
 10
4784.286107026821
 20
0.202732709252242
 30
0.0
 10
4784.029436986822
 20
0.1563524800020524
 30
0.0
 10
4783.777216134671
 20
0.1430025316020611
 30
0.0
 10
4783.535661045321
 20
0.1631180273019446
 30
0.0
 10
4783.31071203697
 20
0.2163694257518465
 30
0.0
 10
4783.107972972771
 20
0.3016845945020314
 30
0.0
 10
4782.932645279671
 20
0.4173122758019156
 30
0.0
 10
4782.78957780252
 20
0.560528887701704
 30
0.0
 10
4782.718110291222
 20
0.6726830798519324
 30
0.0
 10
4782.68941516167
 20
0.7311558927020734
 30
0.0
  0
SPLINE
  5
7E681
330
1F
100
AcDbEntity
  8
M40-AGF-1-5-DXF_CONTINUOUS_LINE
  6
Continuous
 62
     7
370
    25
100
AcDbSpline
210
0.0
220
0.0
230
1.0
 70
     8
 71
     3
 72
    11
 73
     7
 74
     0
 42
0.0000000001
 43
0.0000000001
 40
0.0
 40
0.0
 40
0.0
 40
0.0
 40
0.2643280934
 40
0.5171172533
 40
0.7609193533
 40
1.0
 40
1.0
 40
1.0
 40
1.0
 10
4784.85371436382
 20
1.821964003701733
 30
0.0
 10
4784.86398792632
 20
1.855209261802311
 30
0.0
 10
4784.879025314821
 20
1.921983675102064
 30
0.0
 10
4784.883580137871
 20
2.022606453201998
 30
0.0
 10
4784.869268290071
 20
2.119012180002183
 30
0.0
 10
4784.847157000571
 20
2.179179337901922
 30
0.0
 10
4784.833295582171
 20
2.207435337052056
 30
0.0
  0
SPLINE
  5
7E682
330
1F
100
AcDbEntity
  8
M40-AGF-1-5-DXF_CONTINUOUS_LINE
  6
Continuous
 62
     7
370
    25
100
AcDbSpline
210
0.0
220
0.0
230
1.0
 70
     8
 71
     3
 72
     9
 73
     5
 74
     0
 42
0.0000000001
 43
0.0000000001
 40
0.0
 40
0.0
 40
0.0
 40
0.0
 40
0.2460838027
 40
1.0
 40
1.0
 40
1.0
 40
1.0
 10
4789.195034216169
 20
-4.812721334748065
 30
0.0
 10
4789.192540065771
 20
-4.829028121747914
 30
0.0
 10
4789.18112155087
 20
-4.895092943148146
 30
0.0
 10
4789.164654427021
 20
-4.960266683647777
 30
0.0
 10
4789.149732807471
 20
-5.008553062147829
 30
0.0
  0
SPLINE
  5
7E683
330
1F
100
AcDbEntity
  8
M40-AGF-1-5-DXF_CONTINUOUS_LINE
  6
Continuous
 62
     7
370
    25
100
AcDbSpline
210
0.0
220
0.0
230
1.0
 70
     8
 71
     3
 72
    11
 73
     7
 74
     0
 42
0.0000000001
 43
0.0000000001
 40
0.0
 40
0.0
 40
0.0
 40
0.0
 40
0.2578453454
 40
0.5091303058
 40
0.7557662698000001
 40
1.0
 40
1.0
 40
1.0
 40
1.0
 10
4787.283083722721
 20
-1.243033322898215
 30
0.0
 10
4787.321172478771
 20
-1.267105528797972
 30
0.0
 10
4787.39352382747
 20
-1.31938019649772
 30
0.0
 10
4787.48965890502
 20
-1.41051731864775
 30
0.0
 10
4787.570703078571
 20
-1.512302249297706
 30
0.0
 10
4787.614159907522
 20
-1.586666217448172
 30
0.0
 10
4787.63296245287
 20
-1.624980653747686
 30
0.0
  0
SPLINE
  5
7E684
330
1F
100
AcDbEntity
  8
M40-AGF-1-5-DXF_CONTINUOUS_LINE
  6
Continuous
 62
     7
370
    25
100
AcDbSpline
210
0.0
220
0.0
230
1.0
 70
     8
 71
     3
 72
    11
 73
     7
 74
     0
 42
0.0000000001
 43
0.0000000001
 40
0.0
 40
0.0
 40
0.0
 40
0.0
 40
0.2643589131
 40
0.5171111858
 40
0.7609106333
 40
1.0
 40
1.0
 40
1.0
 40
1.0
 10
4787.931907870271
 20
-2.902271755148039
 30
0.0
 10
4787.951874647271
 20
-2.837659241147893
 30
0.0
 10
4787.98110484572
 20
-2.707900251047821
 30
0.0
 10
4787.989928313121
 20
-2.512360612997897
 30
0.0
 10
4787.962089019471
 20
-2.325031062697806
 30
0.0
 10
4787.919119464471
 20
-2.208107059348209
 30
0.0
 10
4787.892171353021
 20
-2.153200753397984
 30
0.0
  0
SPLINE
  5
7E685
330
1F
100
AcDbEntity
  8
M40-AGF-1-5-DXF_CONTINUOUS_LINE
  6
Continuous
 62
     7
370
    25
100
AcDbSpline
210
0.0
220
0.0
230
1.0
 70
     8
 71
     3
 72
    23
 73
    19
 74
     0
 42
0.0000000001
 43
0.0000000001
 40
0.0
 40
0.0
 40
0.0
 40
0.0
 40
0.0361447273
 40
0.0747349225
 40
0.1189978819
 40
0.1705955137
 40
0.2298712842
 40
0.296188519
 40
0.3682410086
 40
0.4442534905
 40
0.5222599128000001
 40
0.6003340453
 40
0.6767708918000001
 40
0.7501773598999999
 40
0.8195136750999999
 40
0.8841883562999999
 40
0.9441819537
 40
1.0
 40
1.0
 40
1.0
 40
1.0
 10
4785.054836222271
 20
-2.886557932498023
 30
0.0
 10
4785.05823448377
 20
-2.875558022198336
 30
0.0
 10
4785.06952435017
 20
-2.853906658298118
 30
0.0
 10
4785.098004015771
 20
-2.828021289397955
 30
0.0
 10
4785.136367896369
 20
-2.808250070498278
 30
0.0
 10
4785.18381573892
 20
-2.793819876798014
 30
0.0
 10
4785.239565781121
 20
-2.78435322269809
 30
0.0
 10
4785.302420370671
 20
-2.77970202889776
 30
0.0
 10
4785.370761080371
 20
-2.779821979348186
 30
0.0
 10
4785.442652549369
 20
-2.784720021247838
 30
0.0
 10
4785.51598840337
 20
-2.794448610448061
 30
0.0
 10
4785.588649294871
 20
-2.809099504598295
 30
0.0
 10
4785.658604751421
 20
-2.828802664398271
 30
0.0
 10
4785.723943951821
 20
-2.853713751647891
 30
0.0
 10
4785.782871537071
 20
-2.883941936248108
 30
0.0
 10
4785.833686868821
 20
-2.919538092648171
 30
0.0
 10
4785.874697677221
 20
-2.960276788647778
 30
0.0
 10
4785.895135557121
 20
-2.991435385848152
 30
0.0
 10
4785.90296807422
 20
-3.007396377548165
 30
0.0
  0
SPLINE
  5
7E686
330
1F
100
AcDbEntity
  8
M40-AGF-1-5-DXF_CONTINUOUS_LINE
  6
Continuous
 62
     7
370
    25
100
AcDbSpline
210
0.0
220
0.0
230
1.0
 70
     8
 71
     3
 72
    11
 73
     7
 74
     0
 42
0.0000000001
 43
0.0000000001
 40
0.0
 40
0.0
 40
0.0
 40
0.0
 40
0.2390909965
 40
0.4828959092
 40
0.735620851
 40
1.0
 40
1.0
 40
1.0
 40
1.0
 10
4785.741702879721
 20
2.229001149551885
 30
0.0
 10
4785.768642764771
 20
2.174105044201832
 30
0.0
 10
4785.811563723171
 20
2.057188878251845
 30
0.0
 10
4785.839383725071
 20
1.86990673415209
 30
0.0
 10
4785.830559699821
 20
1.674408888652004
 30
0.0
 10
4785.801326708019
 20
1.544682036901914
 30
0.0
 10
4785.781362710522
 20
1.480078521152218
 30
0.0
  0
SPLINE
  5
7E687
330
1F
100
AcDbEntity
  8
M40-AGF-1-5-DXF_CONTINUOUS_LINE
  6
Continuous
 62
     7
370
    25
100
AcDbSpline
210
0.0
220
0.0
230
1.0
 70
     8
 71
     3
 72
    21
 73
    17
 74
     0
 42
0.0000000001
 43
0.0000000001
 40
0.0
 40
0.0
 40
0.0
 40
0.0
 40
0.0507171716
 40
0.1025711899
 40
0.1565200112
 40
0.2132195396
 40
0.2729801245
 40
0.3357823867
 40
0.4013262446
 40
0.4690883536000002
 40
0.5383805701
 40
0.6084098876000003
 40
0.7470877640000002
 40
0.814366837
 40
0.8792741057
 40
1.0
 40
1.0
 40
1.0
 40
1.0
 10
4785.482340606621
 20
2.757517995952066
 30
0.0
 10
4785.453643784871
 20
2.815987268602266
 30
0.0
 10
4785.38214354007
 20
2.928116159602151
 30
0.0
 10
4785.239065475621
 20
3.071308287952316
 30
0.0
 10
4785.063729941071
 20
3.186916014902063
 30
0.0
 10
4784.86098284972
 20
3.272204270852281
 30
0.0
 10
4784.636030562071
 20
3.325421444002013
 30
0.0
 10
4784.394482287271
 20
3.345517028801959
 30
0.0
 10
4784.142271892821
 20
3.332160336202258
 30
0.0
 10
4783.885613889521
 20
3.285771572151926
 30
0.0
 10
4783.630768284471
 20
3.207512621751785
 30
0.0
 10
4783.30328395507
 20
3.063964438102058
 30
0.0
 10
4783.004094474771
 20
2.866932863951997
 30
0.0
 10
4782.75226059857
 20
2.625732560802017
 30
0.0
 10
4782.547870347022
 20
2.372753587152029
 30
0.0
 10
4782.43624440592
 20
2.156573853552225
 30
0.0
 10
4782.390469744271
 20
2.008446994151992
 30
0.0
  0
SPLINE
  5
7E688
330
1F
100
AcDbEntity
  8
M40-AGF-1-5-DXF_CONTINUOUS_LINE
  6
Continuous
 62
     7
370
    25
100
AcDbSpline
210
0.0
220
0.0
230
1.0
 70
     8
 71
     3
 72
    11
 73
     7
 74
     0
 42
0.0000000001
 43
0.0000000001
 40
0.0
 40
0.0
 40
0.0
 40
0.0
 40
0.2402354967
 40
0.4846753185
 40
0.7370047915000001
 40
1.0
 40
1.0
 40
1.0
 40
1.0
 10
4788.55988938417
 20
-3.059873636697945
 30
0.0
 10
4788.53167808507
 20
-3.002377362747781
 30
0.0
 10
4788.463223474771
 20
-2.891664564498231
 30
0.0
 10
4788.329141227921
 20
-2.746539111998233
 30
0.0
 10
4788.166253119269
 20
-2.624451126198099
 30
0.0
 10
4788.043433121122
 20
-2.561368123897981
 30
0.0
 10
4787.978841524321
 20
-2.534098681547792
 30
0.0
  0
SPLINE
  5
7E689
330
1F
100
AcDbEntity
  8
M40-AGF-1-5-DXF_CONTINUOUS_LINE
  6
Continuous
 62
     7
370
    25
100
AcDbSpline
210
0.0
220
0.0
230
1.0
 70
     8
 71
     3
 72
    11
 73
     7
 74
     0
 42
0.0000000001
 43
0.0000000001
 40
0.0
 40
0.0
 40
0.0
 40
0.0
 40
0.2390893667
 40
0.4828888142000002
 40
0.7356410869
 40
1.0
 40
1.0
 40
1.0
 40
1.0
 10
4782.430206261472
 20
1.259375992401938
 30
0.0
 10
4782.403258150071
 20
1.314282298302142
 30
0.0
 10
4782.360288595021
 20
1.431206301701759
 30
0.0
 10
4782.33244930142
 20
1.61853585200185
 30
0.0
 10
4782.34127276882
 20
1.814075490051774
 30
0.0
 10
4782.37050296727
 20
1.943834480102276
 30
0.0
 10
4782.390469744271
 20
2.008446994151992
 30
0.0
  0
SPLINE
  5
7E68A
330
1F
100
AcDbEntity
  8
M40-AGF-1-5-DXF_CONTINUOUS_LINE
  6
Continuous
 62
     7
370
    25
100
AcDbSpline
210
0.0
220
0.0
230
1.0
 70
     8
 71
     3
 72
    11
 73
     7
 74
     0
 42
0.0000000001
 43
0.0000000001
 40
0.0
 40
0.0
 40
0.0
 40
0.0
 40
0.2441750654
 40
0.4907643277000001
 40
0.7420250450000001
 40
1.0
 40
1.0
 40
1.0
 40
1.0
 10
4784.580674734772
 20
-3.122825910547932
 30
0.0
 10
4784.561767742671
 20
-3.084298640348268
 30
0.0
 10
4784.529395699172
 20
-3.003960248298087
 30
0.0
 10
4784.49843946977
 20
-2.876831116897962
 30
0.0
 10
4784.48533771997
 20
-2.744225421548096
 30
0.0
 10
4784.488507408769
 20
-2.654482244948328
 30
0.0
 10
4784.492927565271
 20
-2.609356236648298
 30
0.0
  0
LINE
  5
7E68B
330
1F
100
AcDbEntity
  8
M40-AGF-1-5-DXF_CONTINUOUS_LINE
  6
Continuous
 62
     7
370
    25
100
AcDbLine
 10
4787.543634738121
 20
-7.237058819447725
 30
0.0
 11
4788.176637657971
 21
-8.416207438298105
 31
0.0
  0
LINE
  5
7E68C
330
1F
100
AcDbEntity
  8
M40-AGF-1-5-DXF_CONTINUOUS_LINE
  6
Continuous
 62
     7
370
    25
100
AcDbLine
 10
4788.176637657971
 20
-8.416207438298105
 30
0.0
 11
4788.17928944387
 21
-8.421146949097991
 31
0.0
  0
LINE
  5
7E68D
330
1F
100
AcDbEntity
  8
M40-AGF-1-5-DXF_CONTINUOUS_LINE
  6
Continuous
 62
     7
370
    25
100
AcDbLine
 10
4788.17928944387
 20
-8.421146949097991
 30
0.0
 11
4788.490176215021
 21
-9.000226908997891
 31
0.0
  0
LINE
  5
7E68E
330
1F
100
AcDbEntity
  8
M40-AGF-1-5-DXF_CONTINUOUS_LINE
  6
Continuous
 62
     7
370
    25
100
AcDbLine
 10
4790.239169267821
 20
-7.822339241448053
 30
0.0
 11
4789.443580902569
 21
-5.957509336648062
 31
0.0
  0
SPLINE
  5
7E68F
330
1F
100
AcDbEntity
  8
M40-AGF-1-5-DXF_CONTINUOUS_LINE
  6
Continuous
 62
     7
370
    25
100
AcDbSpline
210
0.0
220
0.0
230
1.0
 70
     8
 71
     3
 72
    11
 73
     7
 74
     0
 42
0.0000000001
 43
0.0000000001
 40
0.0
 40
0.0
 40
0.0
 40
0.0
 40
0.2402423612
 40
0.4846490406
 40
0.7369892223000001
 40
1.0
 40
1.0
 40
1.0
 40
1.0
 10
4785.148452949971
 20
-4.733821772147738
 30
0.0
 10
4785.12028178237
 20
-4.676407288547697
 30
0.0
 10
4785.07467713312
 20
-4.554704039198103
 30
0.0
 10
4785.04188590352
 20
-4.360159199348005
 30
0.0
 10
4785.044884576771
 20
-4.156914592398267
 30
0.0
 10
4785.070013075921
 20
-4.021346953497983
 30
0.0
 10
4785.087882227321
 20
-3.953651200347966
 30
0.0
  0
SPLINE
  5
7E690
330
1F
100
AcDbEntity
  8
M40-AGF-1-5-DXF_CONTINUOUS_LINE
  6
Continuous
 62
     7
370
    25
100
AcDbSpline
210
0.0
220
0.0
230
1.0
 70
     8
 71
     3
 72
    19
 73
    15
 74
     0
 42
0.0000000001
 43
0.0000000001
 40
0.0
 40
0.0
 40
0.0
 40
0.0
 40
0.0507469468
 40
0.102630115
 40
0.1566098076
 40
0.2133407182
 40
0.3356262227
 40
0.4012083217000001
 40
0.4690087173000001
 40
0.6081778636000001
 40
0.7469379325
 40
0.8142566532
 40
0.879200862
 40
1.0
 40
1.0
 40
1.0
 40
1.0
 10
4783.26227640597
 20
1.436492670252274
 30
0.0
 10
4783.277041845421
 20
1.406393856901894
 30
0.0
 10
4783.313831341671
 20
1.348669385451894
 30
0.0
 10
4783.387457691371
 20
1.274948555751844
 30
0.0
 10
4783.47771697832
 20
1.215433174501749
 30
0.0
 10
4783.62024207347
 20
1.155455261301876
 30
0.0
 10
4783.783035081471
 20
1.131657893551956
 30
0.0
 10
4783.951956025071
 20
1.1406420678021
 30
0.0
 10
4784.129593511071
 20
1.172728659401735
 30
0.0
 10
4784.345549605521
 20
1.2534080366521
 30
0.0
 10
4784.53782191972
 20
1.380066017202235
 30
0.0
 10
4784.66749104417
 20
1.504227474901989
 30
0.0
 10
4784.772689286671
 20
1.634441505102014
 30
0.0
 10
4784.830152223721
 20
1.745716885351949
 30
0.0
 10
4784.85371436382
 20
1.821964003701733
 30
0.0
  0
SPLINE
  5
7E691
330
1F
100
AcDbEntity
  8
M40-AGF-1-5-DXF_CONTINUOUS_LINE
  6
Continuous
 62
     7
370
    25
100
AcDbSpline
210
0.0
220
0.0
230
1.0
 70
     8
 71
     3
 72
     9
 73
     5
 74
     0
 42
0.0000000001
 43
0.0000000001
 40
0.0
 40
0.0
 40
0.0
 40
0.0
 40
0.2592268314
 40
1.0
 40
1.0
 40
1.0
 40
1.0
 10
4791.316084747471
 20
-10.04422443404803
 30
0.0
 10
4791.318127007321
 20
-10.042617685148
 30
0.0
 10
4791.325762056771
 20
-10.0361218490981
 30
0.0
 10
4791.332351746121
 20
-10.02835633644793
 30
0.0
 10
4791.336285153071
 20
-10.02205799444812
 30
0.0
  0
SPLINE
  5
7E692
330
1F
100
AcDbEntity
  8
M40-AGF-1-5-DXF_CONTINUOUS_LINE
  6
Continuous
 62
     7
370
    25
100
AcDbSpline
210
0.0
220
0.0
230
1.0
 70
     8
 71
     3
 72
    10
 73
     6
 74
     0
 42
0.0000000001
 43
0.0000000001
 40
0.0
 40
0.0
 40
0.0
 40
0.0
 40
0.5235987802000001
 40
0.764746166
 40
1.0
 40
1.0
 40
1.0
 40
1.0
 10
4791.312011140221
 20
-10.04061280339795
 30
0.0
 10
4791.316080300471
 20
-10.04909695209801
 30
0.0
 10
4791.32032971407
 20
-10.06258068144791
 30
0.0
 10
4791.320248629721
 20
-10.08066475034832
 30
0.0
 10
4791.318312294072
 20
-10.0890925573982
 30
0.0
 10
4791.316915794121
 20
-10.09308295899803
 30
0.0
  0
SPLINE
  5
7E693
330
1F
100
AcDbEntity
  8
M40-AGF-1-5-DXF_CONTINUOUS_LINE
  6
Continuous
 62
     7
370
    25
100
AcDbSpline
210
0.0
220
0.0
230
1.0
 70
     8
 71
     3
 72
    22
 73
    18
 74
     0
 42
0.0000000001
 43
0.0000000001
 40
0.0
 40
0.0
 40
0.0
 40
0.0
 40
0.0572948605
 40
0.1114539439
 40
0.1637886642
 40
0.2160485098
 40
0.2699929523
 40
0.3269905816
 40
0.3877821978
 40
0.4524556625000001
 40
0.5205415918
 40
0.5911514924
 40
0.7347833912000003
 40
0.8055557754
 40
0.8738912104
 40
0.9388793358999999
 40
1.0
 40
1.0
 40
1.0
 40
1.0
 10
4782.874026766122
 20
2.008446994151992
 30
0.0
 10
4782.856028770122
 20
1.950205465651715
 30
0.0
 10
4782.832456766621
 20
1.832803269301956
 30
0.0
 10
4782.839753570221
 20
1.656883468452059
 30
0.0
 10
4782.891363309622
 20
1.49383174925185
 30
0.0
 10
4782.985364539821
 20
1.351237951851882
 30
0.0
 10
4783.117198033371
 20
1.235341631352067
 30
0.0
 10
4783.28072350587
 20
1.150364801701807
 30
0.0
 10
4783.469222439021
 20
1.098855378152048
 30
0.0
 10
4783.675518640971
 20
1.082172975802105
 30
0.0
 10
4783.892056777871
 20
1.100633888802232
 30
0.0
 10
4784.184873304272
 20
1.17122514005211
 30
0.0
 10
4784.462287010572
 20
1.305393627901929
 30
0.0
 10
4784.699906850319
 20
1.491174552951971
 30
0.0
 10
4784.849626917321
 20
1.649777612001679
 30
0.0
 10
4784.965667675421
 20
1.82219524175195
 30
0.0
 10
4785.019320313371
 20
1.946316447851923
 30
0.0
 10
4785.038520102022
 20
2.008446994151992
 30
0.0
  0
SPLINE
  5
7E694
330
1F
100
AcDbEntity
  8
M40-AGF-1-5-DXF_CONTINUOUS_LINE
  6
Continuous
 62
     7
370
    25
100
AcDbSpline
210
0.0
220
0.0
230
1.0
 70
     8
 71
     3
 72
    19
 73
    15
 74
     0
 42
0.0000000001
 43
0.0000000001
 40
0.0
 40
0.0
 40
0.0
 40
0.0
 40
0.0490423938
 40
0.1002625002
 40
0.1541748576
 40
0.2111027264
 40
0.3340712418
 40
0.4688760776
 40
0.6112296202000001
 40
0.7537831293
 40
0.8222713738999999
 40
0.8870295447
 40
0.9466964785
 40
1.0
 40
1.0
 40
1.0
 40
1.0
 10
4785.914730686172
 20
-3.152227653947765
 30
0.0
 10
4785.909718438118
 20
-3.168450501647955
 30
0.0
 10
4785.895281524871
 20
-3.200441419897859
 30
0.0
 10
4785.862669395971
 20
-3.243201896848066
 30
0.0
 10
4785.819792531921
 20
-3.280004233247952
 30
0.0
 10
4785.748897408971
 20
-3.319993932048081
 30
0.0
 10
4785.640492167121
 20
-3.345558326448216
 30
0.0
 10
4785.50059607922
 20
-3.333383079948024
 30
0.0
 10
4785.362766945321
 20
-3.283190464098086
 30
0.0
 10
4785.258701192971
 20
-3.217155411648151
 30
0.0
 10
4785.186257562421
 20
-3.154773606198093
 30
0.0
 10
4785.140021750321
 20
-3.106406481097681
 30
0.0
 10
4785.102281556671
 20
-3.05766891314818
 30
0.0
 10
4785.082143303323
 20
-3.02396382779773
 30
0.0
 10
4785.074013179621
 20
-3.007396377548165
 30
0.0
  0
SPLINE
  5
7E695
330
1F
100
AcDbEntity
  8
M40-AGF-1-5-DXF_CONTINUOUS_LINE
  6
Continuous
 62
     7
370
    25
100
AcDbSpline
210
0.0
220
0.0
230
1.0
 70
     8
 71
     3
 72
    22
 73
    18
 74
     0
 42
0.0000000001
 43
0.0000000001
 40
0.0
 40
0.0
 40
0.0
 40
0.0
 40
0.0572948605
 40
0.1114539439
 40
0.1637886642
 40
0.2160485098
 40
0.2699929523
 40
0.3269905816
 40
0.3877821978
 40
0.4524556625000001
 40
0.5205415918
 40
0.5911514924
 40
0.7347833912000003
 40
0.8055557754
 40
0.8738912104
 40
0.9388793358999999
 40
1.0
 40
1.0
 40
1.0
 40
1.0
 10
4785.038520102022
 20
2.008446994151992
 30
0.0
 10
4785.056518097971
 20
2.066688522702289
 30
0.0
 10
4785.080090101472
 20
2.184090719052045
 30
0.0
 10
4785.07279329787
 20
2.360010519851921
 30
0.0
 10
4785.021183558521
 20
2.523062239052134
 30
0.0
 10
4784.927182328321
 20
2.665656036502124
 30
0.0
 10
4784.795348834771
 20
2.781552356951916
 30
0.0
 10
4784.631823362271
 20
2.866529186602173
 30
0.0
 10
4784.443324429122
 20
2.918038610201957
 30
0.0
 10
4784.237028227121
 20
2.9347210125519
 30
0.0
 10
4784.020490090272
 20
2.916260099551772
 30
0.0
 10
4783.727673563872
 20
2.845668848301892
 30
0.0
 10
4783.450259857571
 20
2.711500360452074
 30
0.0
 10
4783.212640017821
 20
2.52571943535201
 30
0.0
 10
4783.062919950771
 20
2.3671163763023
 30
0.0
 10
4782.946879192721
 20
2.194698746602053
 30
0.0
 10
4782.893226554721
 20
2.07057754050208
 30
0.0
 10
4782.874026766122
 20
2.008446994151992
 30
0.0
  0
SPLINE
  5
7E696
330
1F
100
AcDbEntity
  8
M40-AGF-1-5-DXF_CONTINUOUS_LINE
  6
Continuous
 62
     7
370
    25
100
AcDbSpline
210
0.0
220
0.0
230
1.0
 70
     8
 71
     3
 72
     9
 73
     5
 74
     0
 42
0.0000000001
 43
0.0000000001
 40
0.0
 40
0.0
 40
0.0
 40
0.0
 40
0.4804872298
 40
1.0
 40
1.0
 40
1.0
 40
1.0
 10
4791.345102870271
 20
-10.00182269424806
 30
0.0
 10
4791.34739984017
 20
-9.993252333597984
 30
0.0
 10
4791.348870898672
 20
-9.974422278998307
 30
0.0
 10
4791.344307458921
 20
-9.95623387919807
 30
0.0
 10
4791.34085180387
 20
-9.947284381548003
 30
0.0
  0
SPLINE
  5
7E697
330
1F
100
AcDbEntity
  8
M40-AGF-1-5-DXF_CONTINUOUS_LINE
  6
Continuous
 62
     7
370
    25
100
AcDbSpline
210
0.0
220
0.0
230
1.0
 70
     8
 71
     3
 72
    11
 73
     7
 74
     0
 42
0.0000000001
 43
0.0000000001
 40
0.0
 40
0.0
 40
0.0
 40
0.0
 40
0.2390910641
 40
0.4828960365
 40
0.7356208958
 40
1.0
 40
1.0
 40
1.0
 40
1.0
 10
4787.452546452771
 20
-1.597820633848303
 30
0.0
 10
4787.477109296721
 20
-1.647872972498252
 30
0.0
 10
4787.516243092071
 20
-1.754473035097934
 30
0.0
 10
4787.541608362321
 20
-1.925230276497703
 30
0.0
 10
4787.533562942771
 20
-2.10347827924818
 30
0.0
 10
4787.506909315822
 20
-2.221758596847964
 30
0.0
 10
4787.488706854521
 20
-2.280661786897898
 30
0.0
  0
SPLINE
  5
7E698
330
1F
100
AcDbEntity
  8
M40-AGF-1-5-DXF_CONTINUOUS_LINE
  6
Continuous
 62
     7
370
    25
100
AcDbSpline
210
0.0
220
0.0
230
1.0
 70
     8
 71
     3
 72
    11
 73
     7
 74
     0
 42
0.0000000001
 43
0.0000000001
 40
0.0
 40
0.0
 40
0.0
 40
0.0
 40
0.2390909963
 40
0.48289591
 40
0.7356208498000001
 40
1.0
 40
1.0
 40
1.0
 40
1.0
 10
4787.63296245287
 20
-1.624980653747686
 30
0.0
 10
4787.659902337921
 20
-1.679876759047719
 30
0.0
 10
4787.70282329622
 20
-1.796792925197793
 30
0.0
 10
4787.730643298572
 20
-1.984075068897826
 30
0.0
 10
4787.721819272671
 20
-2.179572914648023
 30
0.0
 10
4787.69258627897
 20
-2.309299765398125
 30
0.0
 10
4787.67262228362
 20
-2.373903282148265
 30
0.0
  0
SPLINE
  5
7E699
330
1F
100
AcDbEntity
  8
M40-AGF-1-5-DXF_CONTINUOUS_LINE
  6
Continuous
 62
     7
370
    25
100
AcDbSpline
210
0.0
220
0.0
230
1.0
 70
     8
 71
     3
 72
    22
 73
    18
 74
     0
 42
0.0000000001
 43
0.0000000001
 40
0.0
 40
0.0
 40
0.0
 40
0.0
 40
0.0589742958
 40
0.1210404316
 40
0.1859280195
 40
0.2531843777
 40
0.3918150859
 40
0.4618204184000003
 40
0.5310877426000003
 40
0.5988251456000003
 40
0.6643454622000001
 40
0.7271243915000002
 40
0.7868612485
 40
0.8435381128999999
 40
0.8974662515
 40
0.9493012644
 40
1.0
 40
1.0
 40
1.0
 40
1.0
 10
4788.60418705567
 20
-3.89684770439783
 30
0.0
 10
4788.57918517007
 20
-3.977753835948193
 30
0.0
 10
4788.51322999797
 20
-4.139537844398208
 30
0.0
 10
4788.375471567271
 20
-4.369240645848211
 30
0.0
 10
4788.199740974222
 20
-4.586900005897977
 30
0.0
 10
4787.918326561722
 20
-4.856325911097998
 30
0.0
 10
4787.583874998822
 20
-5.076624370698143
 30
0.0
 10
4787.217830548871
 20
-5.237032781447966
 30
0.0
 10
4786.932976937271
 20
-5.324480369598066
 30
0.0
 10
4786.646105758872
 20
-5.376311801048021
 30
0.0
 10
4786.364208125121
 20
-5.391226320347985
 30
0.0
 10
4786.09423280542
 20
-5.368736732698041
 30
0.0
 10
4785.84281914422
 20
-5.309211750598141
 30
0.0
 10
4785.61623057052
 20
-5.213849800997766
 30
0.0
 10
4785.420280658921
 20
-5.084608475097983
 30
0.0
 10
4785.260388891621
 20
-4.924532177447987
 30
0.0
 10
4785.180520241921
 20
-4.799176784447925
 30
0.0
 10
4785.148452949971
 20
-4.733821772147738
 30
0.0
  0
SPLINE
  5
7E69A
330
1F
100
AcDbEntity
  8
M40-AGF-1-5-DXF_CONTINUOUS_LINE
  6
Continuous
 62
     7
370
    25
100
AcDbSpline
210
0.0
220
0.0
230
1.0
 70
     8
 71
     3
 72
    11
 73
     7
 74
     0
 42
0.0000000001
 43
0.0000000001
 40
0.0
 40
0.0
 40
0.0
 40
0.0
 40
0.2643786435
 40
0.5171038872000003
 40
0.7609092356
 40
1.0
 40
1.0
 40
1.0
 40
1.0
 10
4788.60418705567
 20
-3.89684770439783
 30
0.0
 10
4788.626498067972
 20
-3.824649242098193
 30
0.0
 10
4788.65916862967
 20
-3.679671486198119
 30
0.0
 10
4788.669034623721
 20
-3.461190377598203
 30
0.0
 10
4788.637952006121
 20
-3.251889393248009
 30
0.0
 10
4788.58999245937
 20
-3.121225460598115
 30
0.0
 10
4788.55988938417
 20
-3.059873636697945
 30
0.0
  0
SPLINE
  5
7E69B
330
1F
100
AcDbEntity
  8
M40-AGF-1-5-DXF_CONTINUOUS_LINE
  6
Continuous
 62
     7
370
    25
100
AcDbSpline
210
0.0
220
0.0
230
1.0
 70
     8
 71
     3
 72
    19
 73
    15
 74
     0
 42
0.0000000001
 43
0.0000000001
 40
0.0
 40
0.0
 40
0.0
 40
0.0
 40
0.0507469469
 40
0.102630115
 40
0.1566098076
 40
0.2133407182
 40
0.3356262227
 40
0.4012083217000001
 40
0.4690087173000001
 40
0.6081778636000001
 40
0.7469379325
 40
0.8142566532
 40
0.8792008619
 40
1.0
 40
1.0
 40
1.0
 40
1.0
 10
4784.833295582171
 20
2.207435337052056
 30
0.0
 10
4784.818530142721
 20
2.237534150452002
 30
0.0
 10
4784.781740646421
 20
2.295258621952025
 30
0.0
 10
4784.708114296722
 20
2.368979451602054
 30
0.0
 10
4784.617855009771
 20
2.428494832851693
 30
0.0
 10
4784.47532991467
 20
2.488472746052021
 30
0.0
 10
4784.312536906621
 20
2.512270113851963
 30
0.0
 10
4784.143615963071
 20
2.503285939601818
 30
0.0
 10
4783.965978477021
 20
2.471199348001729
 30
0.0
 10
4783.750022382621
 20
2.390519970651775
 30
0.0
 10
4783.557750068221
 20
2.263861990252163
 30
0.0
 10
4783.428080944271
 20
2.13970053230184
 30
0.0
 10
4783.322882700221
 20
2.009486502951741
 30
0.0
 10
4783.26541976727
 20
1.898211121202048
 30
0.0
 10
4783.241857624322
 20
1.821964003701733
 30
0.0
  0
SPLINE
  5
7E69C
330
1F
100
AcDbEntity
  8
M40-AGF-1-5-DXF_CONTINUOUS_LINE
  6
Continuous
 62
     7
370
    25
100
AcDbSpline
210
0.0
220
0.0
230
1.0
 70
     8
 71
     3
 72
    21
 73
    17
 74
     0
 42
0.0000000001
 43
0.0000000001
 40
0.0
 40
0.0
 40
0.0
 40
0.0
 40
0.1207258943
 40
0.185633163
 40
0.252912236
 40
0.3915901124
 40
0.4616194299
 40
0.5309116464
 40
0.5986737554000002
 40
0.6642176133
 40
0.7270198755
 40
0.7867804604000001
 40
0.8434799888
 40
0.8974288101
 40
0.9492828283999999
 40
1.0
 40
1.0
 40
1.0
 40
1.0
 10
4788.281815707771
 20
-3.89684770439783
 30
0.0
 10
4788.240079986871
 20
-4.031904546798275
 30
0.0
 10
4788.13830339352
 20
-4.229009598048038
 30
0.0
 10
4787.951947575921
 20
-4.459666897547893
 30
0.0
 10
4787.72233433582
 20
-4.679584820998233
 30
0.0
 10
4787.449543927372
 20
-4.859231256198316
 30
0.0
 10
4787.15095527407
 20
-4.990113423648042
 30
0.0
 10
4786.918596045921
 20
-5.061467172598103
 30
0.0
 10
4786.684584337021
 20
-5.103762810398283
 30
0.0
 10
4786.454627800921
 20
-5.115940971297847
 30
0.0
 10
4786.234392609171
 20
-5.097618526298106
 30
0.0
 10
4786.029289052771
 20
-5.04909698609811
 30
0.0
 10
4785.844431410671
 20
-4.971334164497992
 30
0.0
 10
4785.68456665857
 20
-4.865927119297911
 30
0.0
 10
4785.554113129221
 20
-4.735369590498183
 30
0.0
 10
4785.488921729571
 20
-4.633134425198139
 30
0.0
 10
4785.46275698032
 20
-4.579824205997855
 30
0.0
  0
SPLINE
  5
7E69D
330
1F
100
AcDbEntity
  8
M40-AGF-1-5-DXF_CONTINUOUS_LINE
  6
Continuous
 62
     7
370
    25
100
AcDbSpline
210
0.0
220
0.0
230
1.0
 70
     8
 71
     3
 72
     9
 73
     5
 74
     0
 42
0.0000000001
 43
0.0000000001
 40
0.0
 40
0.0
 40
0.0
 40
0.0
 40
0.5125632135
 40
1.0
 40
1.0
 40
1.0
 40
1.0
 10
4791.34085180387
 20
-9.947284381548003
 30
0.0
 10
4791.360350137421
 20
-9.873827110947905
 30
0.0
 10
4791.384696260821
 20
-9.726345956648064
 30
0.0
 10
4791.375725101572
 20
-9.57678559829822
 30
0.0
 10
4791.36255442812
 20
-9.505720401748137
 30
0.0
  0
LINE
  5
7E69E
330
1F
100
AcDbEntity
  8
M40-AGF-1-5-DXF_CONTINUOUS_LINE
  6
Continuous
 62
     7
370
    25
100
AcDbLine
 10
4789.56461406427
 20
-5.565845881798058
 30
0.0
 11
4790.36020242952
 21
-7.430675786598047
 31
0.0
  0
SPLINE
  5
7E69F
330
1F
100
AcDbEntity
  8
M40-AGF-1-5-DXF_CONTINUOUS_LINE
  6
Continuous
 62
     7
370
    25
100
AcDbSpline
210
0.0
220
0.0
230
1.0
 70
     8
 71
     3
 72
    21
 73
    17
 74
     0
 42
0.0000000001
 43
0.0000000001
 40
0.0
 40
0.0
 40
0.0
 40
0.0
 40
0.120725584
 40
0.1856360271
 40
0.2529160683
 40
0.391595709
 40
0.4616258674
 40
0.5309178751000001
 40
0.5986795573000001
 40
0.6642235092000001
 40
0.7270252295000002
 40
0.7867838890000001
 40
0.8434814975
 40
0.8974293418000002
 40
0.9492831477999999
 40
1.0
 40
1.0
 40
1.0
 40
1.0
 10
4787.67262228362
 20
-2.373903282148265
 30
0.0
 10
4787.62684573912
 20
-2.522036225048056
 30
0.0
 10
4787.51521147642
 20
-2.738228054747766
 30
0.0
 10
4787.31080514022
 20
-2.991219076298083
 30
0.0
 10
4787.05894556252
 20
-3.232425035598343
 30
0.0
 10
4786.759740293372
 20
-3.429470091398003
 30
0.0
 10
4786.432229217621
 20
-3.573005804698031
 30
0.0
 10
4786.177366599921
 20
-3.651249094048242
 30
0.0
 10
4785.920696559919
 20
-3.697629323297976
 30
0.0
 10
4785.668475707771
 20
-3.710979271647946
 30
0.0
 10
4785.426920618371
 20
-3.690863775998085
 30
0.0
 10
4785.20197161007
 20
-3.637612377497705
 30
0.0
 10
4784.99923254587
 20
-3.552297208747975
 30
0.0
 10
4784.823904852771
 20
-3.436669527448091
 30
0.0
 10
4784.68083737562
 20
-3.293452915547848
 30
0.0
 10
4784.609369864321
 20
-3.181298723398075
 30
0.0
 10
4784.580674734772
 20
-3.122825910547932
 30
0.0
  0
SPLINE
  5
7E6A0
330
1F
100
AcDbEntity
  8
M40-AGF-1-5-DXF_CONTINUOUS_LINE
  6
Continuous
 62
     7
370
    25
100
AcDbSpline
210
0.0
220
0.0
230
1.0
 70
     8
 71
     3
 72
    11
 73
     7
 74
     0
 42
0.0000000001
 43
0.0000000001
 40
0.0
 40
0.0
 40
0.0
 40
0.0
 40
0.2923495686
 40
0.553478711
 40
0.7865446843
 40
1.0
 40
1.0
 40
1.0
 40
1.0
 10
4785.074013179621
 20
-3.007396377548165
 30
0.0
 10
4785.068643874722
 20
-2.996454884547917
 30
0.0
 10
4785.059607103669
 20
-2.975144968497831
 30
0.0
 10
4785.05124640627
 20
-2.943287772748252
 30
0.0
 10
4785.049151229921
 20
-2.913658482097733
 30
0.0
 10
4785.05220953902
 20
-2.895060303597918
 30
0.0
 10
4785.054836222271
 20
-2.886557932498023
 30
0.0
  0
SPLINE
  5
7E6A1
330
1F
100
AcDbEntity
  8
M40-AGF-1-5-DXF_CONTINUOUS_LINE
  6
Continuous
 62
     7
370
    25
100
AcDbSpline
210
0.0
220
0.0
230
1.0
 70
     8
 71
     3
 72
    13
 73
     9
 74
     0
 42
0.0000000001
 43
0.0000000001
 40
0.0
 40
0.0
 40
0.0
 40
0.0
 40
0.2725762988
 40
0.5278033171000001
 40
0.6497916756000001
 40
0.7686147268000001
 40
0.8850448543
 40
1.0
 40
1.0
 40
1.0
 40
1.0
 10
4787.083104241121
 20
-7.237058819447725
 30
0.0
 10
4786.975514913069
 20
-7.224474692547691
 30
0.0
 10
4786.768683281121
 20
-7.181680966548017
 30
0.0
 10
4786.529892827472
 20
-7.077503869648013
 30
0.0
 10
4786.36582342517
 20
-6.9674298671481
 30
0.0
 10
4786.258427721221
 20
-6.873963043097893
 30
0.0
 10
4786.166047111971
 20
-6.769345602647835
 30
0.0
 10
4786.114901484171
 20
-6.692517363697906
 30
0.0
 10
4786.092277030021
 20
-6.652829540298286
 30
0.0
  0
SPLINE
  5
7E6A2
330
1F
100
AcDbEntity
  8
M40-AGF-1-5-DXF_CONTINUOUS_LINE
  6
Continuous
 62
     7
370
    25
100
AcDbSpline
210
0.0
220
0.0
230
1.0
 70
     8
 71
     3
 72
    21
 73
    17
 74
     0
 42
0.0000000001
 43
0.0000000001
 40
0.0
 40
0.0
 40
0.0
 40
0.0
 40
0.1207255238
 40
0.1856359658
 40
0.2529160083
 40
0.3915956565
 40
0.4616258187
 40
0.5309178322000001
 40
0.5986795224
 40
0.6642234832
 40
0.7270252114
 40
0.7867838768000001
 40
0.8434814886999999
 40
0.8974293353
 40
0.9492831441999999
 40
1.0
 40
1.0
 40
1.0
 40
1.0
 10
4787.488706854521
 20
-2.280661786897898
 30
0.0
 10
4787.44696943677
 20
-2.415724111597798
 30
0.0
 10
4787.345185302422
 20
-2.612840133647868
 30
0.0
 10
4787.158814890271
 20
-2.843508393748042
 30
0.0
 10
4786.929178222971
 20
-3.063431503897962
 30
0.0
 10
4786.656373419922
 20
-3.243090273298211
 30
0.0
 10
4786.357760363121
 20
-3.373961099947907
 30
0.0
 10
4786.12538560252
 20
-3.445300589297975
 30
0.0
 10
4785.891362889872
 20
-3.487588462198008
 30
0.0
 10
4785.661396785221
 20
-3.499760485697723
 30
0.0
 10
4785.44115534832
 20
-3.481419887197834
 30
0.0
 10
4785.236054758271
 20
-3.432867133548031
 30
0.0
 10
4785.051204419371
 20
-3.355079764298015
 30
0.0
 10
4784.891346808521
 20
-3.249654513297743
 30
0.0
 10
4784.760902923419
 20
-3.119074646347716
 30
0.0
 10
4784.69574138712
 20
-3.016816390197733
 30
0.0
 10
4784.669578174871
 20
-2.963502939947946
 30
0.0
  0
SPLINE
  5
7E6A3
330
1F
100
AcDbEntity
  8
M40-AGF-1-5-DXF_CONTINUOUS_LINE
  6
Continuous
 62
     7
370
    25
100
AcDbSpline
210
0.0
220
0.0
230
1.0
 70
     8
 71
     3
 72
    14
 73
    10
 74
     0
 42
0.0000000001
 43
0.0000000001
 40
0.0
 40
0.0
 40
0.0
 40
0.0
 40
0.2525612673
 40
0.3831435471
 40
0.5137648190000002
 40
0.6424113113000001
 40
0.7672392417000001
 40
0.886745082
 40
1.0
 40
1.0
 40
1.0
 40
1.0
 10
4789.534563454121
 20
-11.25198924744802
 30
0.0
 10
4789.721390574121
 20
-11.24381613274784
 30
0.0
 10
4790.004396127171
 20
-11.18765416414829
 30
0.0
 10
4790.356798340371
 20
-11.04284944429821
 30
0.0
 10
4790.608190616222
 20
-10.8991242830981
 30
0.0
 10
4790.835047511021
 20
-10.72623754309791
 30
0.0
 10
4791.03027103252
 20
-10.52953940094778
 30
0.0
 10
4791.18752263417
 20
-10.3152841449479
 30
0.0
 10
4791.265814877418
 20
-10.16056909204792
 30
0.0
 10
4791.29641873432
 20
-10.08249478219807
 30
0.0
  0
SPLINE
  5
7E6A4
330
1F
100
AcDbEntity
  8
M40-AGF-1-5-DXF_CONTINUOUS_LINE
  6
Continuous
 62
     7
370
    25
100
AcDbSpline
210
0.0
220
0.0
230
1.0
 70
     8
 71
     3
 72
    11
 73
     7
 74
     0
 42
0.0000000001
 43
0.0000000001
 40
0.0
 40
0.0
 40
0.0
 40
0.0
 40
0.24284096
 40
0.4890849233
 40
0.7409576514000003
 40
1.0
 40
1.0
 40
1.0
 40
1.0
 10
4789.50024946242
 20
-4.980439392298311
 30
0.0
 10
4789.518780746472
 20
-5.024976363147858
 30
0.0
 10
4789.54958433027
 20
-5.117539260998118
 30
0.0
 10
4789.575689670972
 20
-5.262867949848103
 30
0.0
 10
4789.58166540747
 20
-5.413596194248047
 30
0.0
 10
4789.57239398442
 20
-5.514980665098053
 30
0.0
 10
4789.56461406427
 20
-5.565845881798058
 30
0.0
  0
LINE
  5
7E6A5
330
1F
100
AcDbEntity
  8
M40-AGF-1-5-DXF_CONTINUOUS_LINE
  6
Continuous
 62
     7
370
    25
100
AcDbLine
 10
4788.029645718022
 20
-9.000226908997891
 30
0.0
 11
4787.174207984421
 21
-7.406771094597959
 31
0.0
  0
LINE
  5
7E6A6
330
1F
100
AcDbEntity
  8
M40-AGF-1-5-DXF_CONTINUOUS_LINE
  6
Continuous
 62
     7
370
    25
100
AcDbLine
 10
4787.174207984421
 20
-7.406771094597959
 30
0.0
 11
4787.083104241121
 21
-7.237058819447725
 31
0.0
  0
SPLINE
  5
7E6A7
330
1F
100
AcDbEntity
  8
M40-AGF-1-5-DXF_CONTINUOUS_LINE
  6
Continuous
 62
     7
370
    25
100
AcDbSpline
210
0.0
220
0.0
230
1.0
 70
     8
 71
     3
 72
    11
 73
     7
 74
     0
 42
0.0000000001
 43
0.0000000001
 40
0.0
 40
0.0
 40
0.0
 40
0.0
 40
0.2643589131
 40
0.5171111858
 40
0.7609106333
 40
1.0
 40
1.0
 40
1.0
 40
1.0
 10
4788.281815707771
 20
-3.89684770439783
 30
0.0
 10
4788.300020710321
 20
-3.837936294548061
 30
0.0
 10
4788.32667177362
 20
-3.719626627148162
 30
0.0
 10
4788.334716699771
 20
-3.541340486548167
 30
0.0
 10
4788.30933381442
 20
-3.370540014247698
 30
0.0
 10
4788.27015569072
 20
-3.263932834648247
 30
0.0
 10
4788.24558535382
 20
-3.213871202797808
 30
0.0
  0
SPLINE
  5
7E6A8
330
1F
100
AcDbEntity
  8
M40-AGF-1-5-DXF_CONTINUOUS_LINE
  6
Continuous
 62
     7
370
    25
100
AcDbSpline
210
0.0
220
0.0
230
1.0
 70
     8
 71
     3
 72
    11
 73
     7
 74
     0
 42
0.0000000001
 43
0.0000000001
 40
0.0
 40
0.0
 40
0.0
 40
0.0
 40
0.2643280955
 40
0.5171172521000002
 40
0.7609193531000003
 40
1.0
 40
1.0
 40
1.0
 40
1.0
 10
4783.241857624322
 20
1.821964003701733
 30
0.0
 10
4783.231584063019
 20
1.788718744901751
 30
0.0
 10
4783.21654667387
 20
1.72194433210222
 30
0.0
 10
4783.211991849871
 20
1.621321553952267
 30
0.0
 10
4783.22630369812
 20
1.524915827452215
 30
0.0
 10
4783.248414987522
 20
1.464748669451974
 30
0.0
 10
4783.26227640597
 20
1.436492670252274
 30
0.0
  0
SPLINE
  5
7E6A9
330
1F
100
AcDbEntity
  8
M40-AGF-1-5-DXF_CONTINUOUS_LINE
  6
Continuous
 62
     7
370
    25
100
AcDbSpline
210
0.0
220
0.0
230
1.0
 70
     8
 71
     3
 72
    13
 73
     9
 74
     0
 42
0.0000000001
 43
0.0000000001
 40
0.0
 40
0.0
 40
0.0
 40
0.0
 40
0.2337114259
 40
0.3582635614
 40
0.4861985904
 40
0.6160169766
 40
0.7460869515000002
 40
1.0
 40
1.0
 40
1.0
 40
1.0
 10
4789.443580902569
 20
-5.957509336648062
 30
0.0
 10
4789.365332150071
 20
-6.125751826548026
 30
0.0
 10
4789.201489880671
 20
-6.364654870047732
 30
0.0
 10
4788.925626411571
 20
-6.635318007998311
 30
0.0
 10
4788.683691845671
 20
-6.820005893547777
 30
0.0
 10
4788.417771857571
 20
-6.976720958347986
 30
0.0
 10
4788.044056280521
 20
-7.141595537647962
 30
0.0
 10
4787.744033523821
 20
-7.215199485448128
 30
0.0
 10
4787.543634738121
 20
-7.237058819447725
 30
0.0
  0
SPLINE
  5
7E6AA
330
1F
100
AcDbEntity
  8
M40-AGF-1-5-DXF_CONTINUOUS_LINE
  6
Continuous
 62
     7
370
    25
100
AcDbSpline
210
0.0
220
0.0
230
1.0
 70
     8
 71
     3
 72
    21
 73
    17
 74
     0
 42
0.0000000001
 43
0.0000000001
 40
0.0
 40
0.0
 40
0.0
 40
0.0
 40
0.1207258943
 40
0.185633163
 40
0.252912236
 40
0.3915901124
 40
0.4616194299
 40
0.5309116464
 40
0.5986737554000002
 40
0.6642176133
 40
0.7270198755
 40
0.7867804604000001
 40
0.8434799888
 40
0.8974288101
 40
0.9492828283999999
 40
1.0
 40
1.0
 40
1.0
 40
1.0
 10
4785.522077123871
 20
2.008446994151992
 30
0.0
 10
4785.47630246222
 20
1.860320134751755
 30
0.0
 10
4785.364676521122
 20
1.644140401151954
 30
0.0
 10
4785.160286269571
 20
1.391161427501965
 30
0.0
 10
4784.90845239332
 20
1.149961124402008
 30
0.0
 10
4784.609262913071
 20
0.9529295502519479
 30
0.0
 10
4784.281778583671
 20
0.8093813666022207
 30
0.0
 10
4784.026932978571
 20
0.7311224161520578
 30
0.0
 10
4783.77027497527
 20
0.6847336521517457
 30
0.0
 10
4783.51806458087
 20
0.6713769595520454
 30
0.0
 10
4783.276516306071
 20
0.6914725443519921
 30
0.0
 10
4783.051564018371
 20
0.7446897174517027
 30
0.0
 10
4782.848816927071
 20
0.8299779734519423
 30
0.0
 10
4782.67348139252
 20
0.9455857004016896
 30
0.0
 10
4782.530403328021
 20
1.088777828751855
 30
0.0
 10
4782.458903083271
 20
1.200906719751738
 30
0.0
 10
4782.430206261472
 20
1.259375992401938
 30
0.0
  0
SPLINE
  5
7E6AB
330
1F
100
AcDbEntity
  8
M40-AGF-1-5-DXF_CONTINUOUS_LINE
  6
Continuous
 62
     7
370
    25
100
AcDbSpline
210
0.0
220
0.0
230
1.0
 70
     8
 71
     3
 72
    11
 73
     7
 74
     0
 42
0.0000000001
 43
0.0000000001
 40
0.0
 40
0.0
 40
0.0
 40
0.0
 40
0.2643589131
 40
0.5171111858
 40
0.7609106333
 40
1.0
 40
1.0
 40
1.0
 40
1.0
 10
4785.522077123871
 20
2.008446994151992
 30
0.0
 10
4785.54204390087
 20
2.073059508201705
 30
0.0
 10
4785.571274099321
 20
2.202818498252208
 30
0.0
 10
4785.580097566721
 20
2.398358136352154
 30
0.0
 10
4785.552258273071
 20
2.585687686602224
 30
0.0
 10
4785.509288718071
 20
2.70261169000184
 30
0.0
 10
4785.482340606621
 20
2.757517995952066
 30
0.0
  0
SPLINE
  5
7E6AC
330
1F
100
AcDbEntity
  8
M40-AGF-1-5-DXF_CONTINUOUS_LINE
  6
Continuous
 62
     7
370
    25
100
AcDbSpline
210
0.0
220
0.0
230
1.0
 70
     8
 71
     3
 72
     9
 73
     5
 74
     0
 42
0.0000000001
 43
0.0000000001
 40
0.0
 40
0.0
 40
0.0
 40
0.0
 40
0.2486011931
 40
1.0
 40
1.0
 40
1.0
 40
1.0
 10
4788.426816711772
 20
-10.74840194609772
 30
0.0
 10
4788.434859284971
 20
-10.762504048898
 30
0.0
 10
4788.468846059418
 20
-10.81828487544829
 30
0.0
 10
4788.50933027577
 20
-10.87007844909806
 30
0.0
 10
4788.542656379921
 20
-10.90609324114814
 30
0.0
  0
SPLINE
  5
7E6AD
330
1F
100
AcDbEntity
  8
M40-AGF-1-5-DXF_CONTINUOUS_LINE
  6
Continuous
 62
     7
370
    25
100
AcDbSpline
210
0.0
220
0.0
230
1.0
 70
     8
 71
     3
 72
    11
 73
     7
 74
     0
 42
0.0000000001
 43
0.0000000001
 40
0.0
 40
0.0
 40
0.0
 40
0.0
 40
0.2317507905
 40
0.4749768813000001
 40
0.7310499335
 40
1.0
 40
1.0
 40
1.0
 40
1.0
 10
4788.630490544221
 20
-10.98915483869826
 30
0.0
 10
4788.679821762371
 20
-11.03005698704794
 30
0.0
 10
4788.789680767371
 20
-11.10375025244832
 30
0.0
 10
4788.976039073971
 20
-11.18448457954821
 30
0.0
 10
4789.18292677027
 20
-11.23627444644774
 30
0.0
 10
4789.327968586621
 20
-11.25046749559772
 30
0.0
 10
4789.402299468471
 20
-11.25283381479824
 30
0.0
  0
SPLINE
  5
7E6AE
330
1F
100
AcDbEntity
  8
M40-AGF-1-5-DXF_CONTINUOUS_LINE
  6
Continuous
 62
     7
370
    25
100
AcDbSpline
210
0.0
220
0.0
230
1.0
 70
     8
 71
     3
 72
    11
 73
     7
 74
     0
 42
0.0000000001
 43
0.0000000001
 40
0.0
 40
0.0
 40
0.0
 40
0.0
 40
0.3035648675
 40
0.5671694186
 40
0.7950889347
 40
1.0
 40
1.0
 40
1.0
 40
1.0
 10
4789.402299468471
 20
-11.25283381479824
 30
0.0
 10
4789.40575620602
 20
-11.25847779969775
 30
0.0
 10
4789.412903278371
 20
-11.26863521929829
 30
0.0
 10
4789.425278189071
 20
-11.28094337324785
 30
0.0
 10
4789.43844363422
 20
-11.28887683954792
 30
0.0
 10
4789.44787526647
 20
-11.29098389719786
 30
0.0
 10
4789.45234093137
 20
-11.29111344719797
 30
0.0
  0
ELLIPSE
  5
7E6AF
330
1F
100
AcDbEntity
  8
M40-AGF-1-5-DXF_CONTINUOUS_LINE
  6
Continuous
 62
     7
370
    25
100
AcDbEllipse
 10
4764.15137227327
 20
51.808968682952
 30
0.0
 11
-30.3748424956
 21
73.00332226245001
 31
0.0
210
0.0
220
0.0
230
0.9999999999999998
 40
0.0200556333
 41
-3.7363414743
 42
-3.6779876947
  0
ELLIPSE
  5
7E6B0
330
1F
100
AcDbEntity
  8
M40-AGF-1-5-DXF_CONTINUOUS_LINE
  6
Continuous
 62
     7
370
    25
100
AcDbEllipse
 10
4758.29994715337
 20
47.86823176835183
 30
0.0
 11
-37.27017731650001
 21
68.35990165310001
 31
0.0
210
0.0
220
0.0
230
0.9999999999999998
 40
0.0314037972
 41
-2.5982192556
 42
-2.539865476
  0
ELLIPSE
  5
7E6B1
330
1F
100
AcDbEntity
  8
M40-AGF-1-5-DXF_CONTINUOUS_LINE
  6
Continuous
 62
     7
370
    25
100
AcDbEllipse
 10
4760.735506776571
 20
55.74970559750216
 30
0.0
 11
-34.42049783215001
 21
77.5581010671
 31
0.0
210
0.0
220
0.0
230
0.9999999999999998
 40
0.0299967755
 41
-2.594411277999999
 42
-2.536057498399999
  0
ELLIPSE
  5
7E6B2
330
1F
100
AcDbEntity
  8
M40-AGF-1-5-DXF_CONTINUOUS_LINE
  6
Continuous
 62
     7
370
    25
100
AcDbEllipse
 10
4754.884081656672
 20
51.808968682952
 30
0.0
 11
-41.18976951735
 21
73.0004967358
 31
0.0
210
0.0
220
0.0
230
1.0
 40
0.0214916932
 41
-3.740122893999997
 42
-3.6817691143
  0
MTEXT
  5
7E7A4
102
{ACAD_XDICTIONARY
360
7EBC4
102
}
330
1F
100
AcDbEntity
  8
打标文字
 62
     3
100
AcDbMText
 10
4842.290573834151
 20
27.17553752647933
 30
0.0
 40
0.9
 41
25.87644541304439
 46
32.34708332875168
 71
     1
 72
     5
  3
\A1;技术参数:\P- 材料: 铜合金\P- 表面处理: 镀金\P- 额定电流: {\Fromans|c134;20A\P}- 接触电阻: ≤{\Fromans|c0;3\Fromans|c134;mΩ\P}- 线径范围: {\Fromans|c0;1.0/1.5/2.5\Fromans|c134;mm\H0.7x;\S2^ ;\H1.4286x;(\Fromans|c0;18/16/14\Fromans|c134;AWG)\H0.99998x;\P}- 可插拔次数: ≥{\Fromans|c1
  3
34;500\P\PTechnical specification:\P- Material: copper alloy\P- Surface: hard-gold plated\P- Rated current: 20A}\P{\Fromans|c134;- Contact resistance: }≤{\Fromans|c0;3\Fromans|c134;mΩ\P- Wire gauge: \Fromans|c0;1.0/1.5/2.5\Fromans|c134;mm\H0.7x;\S2^ ;
  1
\H1.4286x;(\Fromans|c0;18/16/14\Fromans|c134;AWG)\H0.99998x;\P- Mating cycles: }≥{\Fromans|c134;500}
 73
     1
 44
1.0
1001
ACAD
1000
MTEXTBEGIN
1070
    73
1070
     1
1070
    44
1040
1.0
1070
    74
1070
     0
1000
MTEXTEND
1000
ACAD_MTEXT_DEFINED_HEIGHT_BEGIN
1070
    46
1040
32.34708332875168
1000
ACAD_MTEXT_DEFINED_HEIGHT_END
  0
MTEXT
  5
7E7A5
330
1F
100
AcDbEntity
  8
文本
100
AcDbMText
 10
4797.409623884305
 20
42.758603018821
 30
0.0
 40
0.9272768212576387
 41
10.65216540273522
 46
0.0
 71
     5
 72
     5
  1
\A1;1mm{\H0.5244x;\S2^ ;\H1.907x;\C0; }
  7
Romans字体
 73
     1
 44
1.0
1001
ACAD
1000
MTEXTBEGIN
1070
    73
1070
     1
1070
    44
1040
1.0
1070
    74
1070
     0
1000
MTEXTEND
  0
MTEXT
  5
7E7A6
330
1F
100
AcDbEntity
  8
文本
100
AcDbMText
 10
4797.409623884305
 20
40.53403347452174
 30
0.0
 40
0.9272768212576387
 41
10.65216540273522
 46
0.0
 71
     5
 72
     5
  1
\A1;1.5mm{\H0.5244x;\S2^ ;\H1.907x; }
  7
Romans字体
 73
     1
 44
1.0
1001
ACAD
1000
MTEXTBEGIN
1070
    73
1070
     1
1070
    44
1040
1.0
1070
    74
1070
     0
1000
MTEXTEND
  0
MTEXT
  5
7E7A7
330
1F
100
AcDbEntity
  8
文本
100
AcDbMText
 10
4803.502710328849
 20
42.73863723832806
 30
0.0
 40
0.9273401279999999
 41
10.65216540273522
 46
0.0
 71
     5
 72
     5
  1
AWG 18
  7
Romans字体
 73
     1
 44
1.0
1001
ACAD
1000
MTEXTBEGIN
1070
    73
1070
     1
1070
    44
1040
1.0
1070
    74
1070
     0
1000
MTEXTEND
  0
MTEXT
  5
7E7A8
330
1F
100
AcDbEntity
  8
文本
100
AcDbMText
 10
4803.502710328849
 20
40.51406769402821
 30
0.0
 40
0.9273401279999999
 41
10.65216540273522
 46
0.0
 71
     5
 72
     5
  1
AWG 16{\C0; }
  7
Romans字体
 73
     1
 44
1.0
1001
ACAD
1000
MTEXTBEGIN
1070
    73
1070
     1
1070
    44
1040
1.0
1070
    74
1070
     0
1000
MTEXTEND
  0
MTEXT
  5
7E7A9
330
1F
100
AcDbEntity
  8
文本
100
AcDbMText
 10
4797.409623884305
 20
38.30946393022188
 30
0.0
 40
0.9272768212576387
 41
10.65216540273522
 46
0.0
 71
     5
 72
     5
  1
\A1;2.5mm{\H0.5244x;\S2^ ;\H1.907x; }
  7
Romans字体
 73
     1
 44
1.0
1001
ACAD
1000
MTEXTBEGIN
1070
    73
1070
     1
1070
    44
1040
1.0
1070
    74
1070
     0
1000
MTEXTEND
  0
MTEXT
  5
7E7AA
330
1F
100
AcDbEntity
  8
文本
100
AcDbMText
 10
4803.502710328849
 20
38.28949814972894
 30
0.0
 40
0.9273401279999999
 41
10.65216540273522
 46
0.0
 71
     5
 72
     5
  1
AWG 14{\C0; }
  7
Romans字体
 73
     1
 44
1.0
1001
ACAD
1000
MTEXTBEGIN
1070
    73
1070
     1
1070
    44
1040
1.0
1070
    74
1070
     0
1000
MTEXTEND
  0
MTEXT
  5
7E7AB
330
1F
100
AcDbEntity
  8
文本
100
AcDbMText
 10
4787.8377700449
 20
44.95625571139342
 30
0.0
 40
0.780003060924162
 41
7.57731356973992
 46
0.0
 71
     5
 72
     5
  1
{\C256;Part Code}
  7
Romans字体
 73
     1
 44
1.0
1001
ACAD
1000
MTEXTBEGIN
1070
    73
1070
     1
1070
    44
1040
1.0
1070
    74
1070
     0
1000
MTEXTEND
  0
MTEXT
  5
7E7AC
330
1F
100
AcDbEntity
  8
文本
100
AcDbMText
 10
4787.894824483511
 20
42.77809137446801
 30
0.0
 40
0.9272768212576387
 41
10.65216540273522
 46
0.0
 71
     5
 72
     5
  1
\A1;M40-AFC30G-1.0
  7
Romans字体
 73
     1
 44
1.0
1001
ACAD
1000
MTEXTBEGIN
1070
    73
1070
     1
1070
    44
1040
1.0
1070
    74
1070
     0
1000
MTEXTEND
  0
MTEXT
  5
7E7AD
330
1F
100
AcDbEntity
  8
文本
100
AcDbMText
 10
4787.891224043248
 20
40.55352183016931
 30
0.0
 40
0.9272768212576387
 41
10.65216540273522
 46
0.0
 71
     5
 72
     5
  1
\A1;M40-AFC30G-1.5
  7
Romans字体
 73
     1
 44
1.0
1001
ACAD
1000
MTEXTBEGIN
1070
    73
1070
     1
1070
    44
1040
1.0
1070
    74
1070
     0
1000
MTEXTEND
  0
MTEXT
  5
7E7AE
330
1F
100
AcDbEntity
  8
文本
100
AcDbMText
 10
4787.891224043248
 20
38.32895228586887
 30
0.0
 40
0.9272768212576387
 41
10.65216540273522
 46
0.0
 71
     5
 72
     5
  1
\A1;M40-AFC30G-2.5
  7
Romans字体
 73
     1
 44
1.0
1001
ACAD
1000
MTEXTBEGIN
1070
    73
1070
     1
1070
    44
1040
1.0
1070
    74
1070
     0
1000
MTEXTEND
  0
MTEXT
  5
7E7AF
330
1F
100
AcDbEntity
  8
文本
100
AcDbMText
 10
4777.323750126241
 20
44.98083721153
 30
0.0
 40
0.780003060924162
 41
7.57731356973992
 46
0.0
 71
     5
 72
     5
  1
{\C256;Order No.}
  7
Romans字体
 73
     1
 44
1.0
1001
ACAD
1000
MTEXTBEGIN
1070
    73
1070
     1
1070
    44
1040
1.0
1070
    74
1070
     0
1000
MTEXTEND
  0
MTEXT
  5
7E7B0
330
1F
100
AcDbEntity
  8
文本
100
AcDbMText
 10
4777.344956621518
 20
38.27253662168656
 30
0.0
 40
0.9273401279999999
 41
10.65216540273522
 46
0.0
 71
     5
 72
     5
  1
1010322201011
  7
Romans字体
 73
     1
 44
1.0
1001
ACAD
1000
MTEXTBEGIN
1070
    73
1070
     1
1070
    44
1040
1.0
1070
    74
1070
     0
1000
MTEXTEND
  0
MTEXT
  5
7E7B1
330
1F
100
AcDbEntity
  8
文本
100
AcDbMText
 10
4777.344956621518
 20
40.50534600253548
 30
0.0
 40
0.9273401279999999
 41
10.65216540273522
 46
0.0
 71
     5
 72
     5
  1
1010322200911
  7
Romans字体
 73
     1
 44
1.0
1001
ACAD
1000
MTEXTBEGIN
1070
    73
1070
     1
1070
    44
1040
1.0
1070
    74
1070
     0
1000
MTEXTEND
  0
MTEXT
  5
7E7B2
330
1F
100
AcDbEntity
  8
文本
100
AcDbMText
 10
4777.344956621518
 20
42.73049092473672
 30
0.0
 40
0.9273401279999999
 41
10.65216540273522
 46
0.0
 71
     5
 72
     5
  1
1010322200811
  7
Romans字体
 73
     1
 44
1.0
1001
ACAD
1000
MTEXTBEGIN
1070
    73
1070
     1
1070
    44
1040
1.0
1070
    74
1070
     0
1000
MTEXTEND
  0
MTEXT
  5
7E7B3
330
1F
100
AcDbEntity
  8
文本
100
AcDbMText
 10
4810.151153027131
 20
42.8214937313576
 30
0.0
 40
0.9272768212576387
 41
10.65216540273522
 46
0.0
 71
     5
 72
     5
  1
7mm
  7
Romans字体
 73
     1
 44
1.0
1001
ACAD
1000
MTEXTBEGIN
1070
    73
1070
     1
1070
    44
1040
1.0
1070
    74
1070
     0
1000
MTEXTEND
  0
MTEXT
  5
7E7B4
330
1F
100
AcDbEntity
  8
文本
100
AcDbMText
 10
4810.151153027131
 20
40.5947513697377
 30
0.0
 40
0.9272768212576387
 41
10.65216540273522
 46
0.0
 71
     5
 72
     5
  1
7mm
  7
Romans字体
 73
     1
 44
1.0
1001
ACAD
1000
MTEXTBEGIN
1070
    73
1070
     1
1070
    44
1040
1.0
1070
    74
1070
     0
1000
MTEXTEND
  0
MTEXT
  5
7E7B5
330
1F
100
AcDbEntity
  8
文本
100
AcDbMText
 10
4810.151153027131
 20
38.37018182543843
 30
0.0
 40
0.9272768212576387
 41
10.65216540273522
 46
0.0
 71
     5
 72
     5
  1
7mm
  7
Romans字体
 73
     1
 44
1.0
1001
ACAD
1000
MTEXTBEGIN
1070
    73
1070
     1
1070
    44
1040
1.0
1070
    74
1070
     0
1000
MTEXTEND
  0
MTEXT
  5
7E7B6
330
1F
100
AcDbEntity
  8
文本
100
AcDbMText
 10
4817.088929042149
 20
42.68678699232416
 30
0.0
 40
0.8063276706588165
 41
9.262752524117583
 46
0.0
 71
     5
 72
     5
  1
%%C1.45
  7
Romans字体
 73
     1
 44
1.0
1001
ACAD
1000
MTEXTBEGIN
1070
    73
1070
     1
1070
    44
1040
1.0
1070
    74
1070
     0
1000
MTEXTEND
  0
MTEXT
  5
7E7B7
330
1F
100
AcDbEntity
  8
文本
100
AcDbMText
 10
4821.317279645975
 20
42.82238729565276
 30
0.0
 40
0.8063276706588165
 41
9.262752524117583
 46
0.0
 71
     5
 72
     5
  1
\A1;%%C2.6
  7
Romans字体
 73
     1
 44
1.0
1001
ACAD
1000
MTEXTBEGIN
1070
    73
1070
     1
1070
    44
1040
1.0
1070
    74
1070
     0
1000
MTEXTEND
  0
MTEXT
  5
7E7B8
330
1F
100
AcDbEntity
  8
文本
100
AcDbMText
 10
4817.019811884525
 20
40.56339485347109
 30
0.0
 40
0.8063276706588165
 41
9.262752524117583
 46
0.0
 71
     5
 72
     5
  1
%%C1.75
  7
Romans字体
 73
     1
 44
1.0
1001
ACAD
1000
MTEXTBEGIN
1070
    73
1070
     1
1070
    44
1040
1.0
1070
    74
1070
     0
1000
MTEXTEND
  0
MTEXT
  5
7E7B9
330
1F
100
AcDbEntity
  8
文本
100
AcDbMText
 10
4821.204703272766
 20
40.43988532705919
 30
0.0
 40
0.8063276706588165
 41
9.262752524117583
 46
0.0
 71
     5
 72
     5
  1
\A1;%%C3
  7
Romans字体
 73
     1
 44
1.0
1001
ACAD
1000
MTEXTBEGIN
1070
    73
1070
     1
1070
    44
1040
1.0
1070
    74
1070
     0
1000
MTEXTEND
  0
MTEXT
  5
7E7BA
330
1F
100
AcDbEntity
  8
文本
100
AcDbMText
 10
4817.012994706836
 20
38.3960568568567
 30
0.0
 40
0.8063276706588165
 41
9.262752524117583
 46
0.0
 71
     5
 72
     5
  1
\A1;%%C2.25
  7
Romans字体
 73
     1
 44
1.0
1001
ACAD
1000
MTEXTBEGIN
1070
    73
1070
     1
1070
    44
1040
1.0
1070
    74
1070
     0
1000
MTEXTEND
  0
MTEXT
  5
7E7BB
330
1F
100
AcDbEntity
  8
文本
100
AcDbMText
 10
4821.515632724498
 20
38.24596999173262
 30
0.0
 40
0.8063276706588165
 41
9.262752524117583
 46
0.0
 71
     5
 72
     5
  1
\A1;%%C3.4
  7
Romans字体
 73
     1
 44
1.0
1001
ACAD
1000
MTEXTBEGIN
1070
    73
1070
     1
1070
    44
1040
1.0
1070
    74
1070
     0
1000
MTEXTEND
  0
MTEXT
  5
7E7BC
330
1F
100
AcDbEntity
  8
文本
100
AcDbMText
 10
4825.986356103593
 20
38.00651760625738
 30
0.0
 40
0.9273401279999999
 41
10.65216540273522
 46
0.0
 71
     5
 72
     5
  1
0.9g
  7
Romans字体
 73
     1
 44
1.0
1001
ACAD
1000
MTEXTBEGIN
1070
    73
1070
     1
1070
    44
1040
1.0
1070
    74
1070
     0
1000
MTEXTEND
  0
MTEXT
  5
7E7BD
330
1F
100
AcDbEntity
  8
文本
100
AcDbMText
 10
4826.281797982577
 20
40.36618911880379
 30
0.0
 40
0.9273401279999999
 41
10.65216540273522
 46
0.0
 71
     5
 72
     5
  1
0.9g
  7
Romans字体
 73
     1
 44
1.0
1001
ACAD
1000
MTEXTBEGIN
1070
    73
1070
     1
1070
    44
1040
1.0
1070
    74
1070
     0
1000
MTEXTEND
  0
MTEXT
  5
7E7BE
330
1F
100
AcDbEntity
  8
文本
100
AcDbMText
 10
4826.069611334423
 20
42.54341537092455
 30
0.0
 40
0.9273401279999999
 41
10.65216540273522
 46
0.0
 71
     5
 72
     5
  1
0.8g
  7
Romans字体
 73
     1
 44
1.0
1001
ACAD
1000
MTEXTBEGIN
1070
    73
1070
     1
1070
    44
1040
1.0
1070
    74
1070
     0
1000
MTEXTEND
  0
LINE
  5
7E7BF
330
1F
100
AcDbEntity
  8
文本
100
AcDbLine
 10
4772.080203187822
 20
43.79507323553929
 30
0.0
 11
4830.096486221176
 21
43.79507323553929
 31
0.0
  0
LINE
  5
7E7C0
330
1F
100
AcDbEntity
  8
0
100
AcDbLine
 10
4772.080203187822
 20
47.6854168845996
 30
0.0
 11
4772.080203187822
 21
37.05156798960718
 31
0.0
  0
LINE
  5
7E7C1
330
1F
100
AcDbEntity
  8
文本
100
AcDbLine
 10
4782.384958479216
 20
47.6854168845996
 30
0.0
 11
4782.384958479216
 21
37.05156798960718
 31
0.0
  0
LINE
  5
7E7C2
330
1F
100
AcDbEntity
  8
文本
100
AcDbLine
 10
4794.394248701252
 20
47.68541688459959
 30
0.0
 11
4794.394248701252
 21
37.05156798960718
 31
0.0
  0
LINE
  5
7E7C3
330
1F
100
AcDbEntity
  8
文本
100
AcDbLine
 10
4806.672388264913
 20
47.68541688459956
 30
0.0
 11
4806.672388264913
 21
37.05156798960715
 31
0.0
  0
LINE
  5
7E7C4
330
1F
100
AcDbEntity
  8
文本
100
AcDbLine
 10
4815.190477997907
 20
47.6854168845996
 30
0.0
 11
4815.190477997907
 21
37.05156798960715
 31
0.0
  0
LINE
  5
7E7C5
330
1F
100
AcDbEntity
  8
文本
100
AcDbLine
 10
4819.577243170719
 20
47.6854168845996
 30
0.0
 11
4819.577243170719
 21
37.05156798960718
 31
0.0
  0
LINE
  5
7E7C6
330
1F
100
AcDbEntity
  8
文本
100
AcDbLine
 10
4823.751700584278
 20
47.68541688459959
 30
0.0
 11
4823.751700584278
 21
37.05156798960711
 31
0.0
  0
LINE
  5
7E7C7
330
1F
100
AcDbEntity
  8
0
100
AcDbLine
 10
4772.080203187822
 20
47.68541688459959
 30
0.0
 11
4830.096486221176
 21
47.68541688459959
 31
0.0
  0
MTEXT
  5
7E7C8
330
1F
100
AcDbEntity
  8
文本
 62
     0
100
AcDbMText
 10
4776.936863201467
 20
46.19419235703609
 30
0.0
 40
0.9272768212576387
 41
10.65216540273522
 46
0.0
 71
     5
 72
     5
  1
{\C256;料号}
 73
     1
 44
1.0
1001
ACAD
1000
MTEXTBEGIN
1070
    73
1070
     1
1070
    44
1040
1.0
1070
    74
1070
     0
1000
MTEXTEND
  0
MTEXT
  5
7E7C9
330
1F
100
AcDbEntity
  8
文本
 62
     0
100
AcDbMText
 10
4787.436003756343
 20
46.17689052780785
 30
0.0
 40
0.9272768212576387
 41
10.65216540273522
 46
0.0
 71
     5
 72
     5
  1
{\C256;产品代号}
 73
     1
 44
1.0
1001
ACAD
1000
MTEXTBEGIN
1070
    73
1070
     1
1070
    44
1040
1.0
1070
    74
1070
     0
1000
MTEXTEND
  0
MTEXT
  5
7E7CA
330
1F
100
AcDbEntity
  8
文本
100
AcDbMText
 10
4810.561075385944
 20
46.19364041085701
 30
0.0
 40
0.780003060924162
 41
7.57731356973992
 46
3.515673592875937
 71
     5
 72
     5
  1
{\fFangSong_GB2312|b0|i0|c134|p49;剥线长度}\PStripping Length
  7
Romans字体
 73
     1
 44
1.0
1001
ACAD
1000
MTEXTBEGIN
1070
    73
1070
     1
1070
    44
1040
1.0
1070
    74
1070
     0
1000
MTEXTEND
1000
ACAD_MTEXT_DEFINED_HEIGHT_BEGIN
1070
    46
1040
3.515673592875937
1000
ACAD_MTEXT_DEFINED_HEIGHT_END
  0
MTEXT
  5
7E7CB
330
1F
100
AcDbEntity
  8
文本
 62
     0
100
AcDbMText
 10
4799.427158897056
 20
45.68279930728288
 30
0.0
 40
0.9272768212576387
 41
10.65216540273522
 46
3.515777685901158
 71
     5
 72
     5
  1
{\C256;线径\Fromans|c134;/Wire Gauge}
 73
     1
 44
1.0
1001
ACAD
1000
MTEXTBEGIN
1070
    73
1070
     1
1070
    44
1040
1.0
1070
    74
1070
     0
1000
MTEXTEND
1000
ACAD_MTEXT_DEFINED_HEIGHT_BEGIN
1070
    46
1040
3.515777685901158
1000
ACAD_MTEXT_DEFINED_HEIGHT_END
  0
LINE
  5
7E7CC
330
1F
100
AcDbEntity
  8
文本
100
AcDbLine
 10
4800.701991642971
 20
43.79507323553929
 30
0.0
 11
4800.701991642971
 21
37.05156798960718
 31
0.0
  0
LINE
  5
7E7CD
330
1F
100
AcDbEntity
  8
文本
100
AcDbLine
 10
4772.080203187822
 20
41.54723815356192
 30
0.0
 11
4830.096486221176
 21
41.54723815356195
 31
0.0
  0
LINE
  5
7E7CE
330
1F
100
AcDbEntity
  8
文本
100
AcDbLine
 10
4772.080203187822
 20
39.29940307158455
 30
0.0
 11
4830.096486221176
 21
39.29940307158455
 31
0.0
  0
LINE
  5
7E7CF
330
1F
100
AcDbEntity
  8
文本
100
AcDbLine
 10
4772.080203187822
 20
37.05156798960718
 30
0.0
 11
4830.096486221176
 21
37.05156798960715
 31
0.0
  0
MTEXT
  5
7E7D0
330
1F
100
AcDbEntity
  8
文本
100
AcDbMText
 10
4827.133330130504
 20
45.61981225308795
 30
0.0
 40
0.780003060924162
 41
7.57731356973992
 46
3.515569500034091
 71
     5
 72
     5
  1
{\f仿宋_GB2312|b0|i0|c134|p49;重量}/Weight
  7
Romans字体
 73
     1
 44
1.0
1001
ACAD
1000
MTEXTBEGIN
1070
    73
1070
     1
1070
    44
1040
1.0
1070
    74
1070
     0
1000
MTEXTEND
1000
ACAD_MTEXT_DEFINED_HEIGHT_BEGIN
1070
    46
1040
3.515569500034091
1000
ACAD_MTEXT_DEFINED_HEIGHT_END
  0
LINE
  5
7E7D1
330
1F
100
AcDbEntity
  8
文本
100
AcDbLine
 10
4830.096486221176
 20
47.68541688459959
 30
0.0
 11
4830.096486221176
 21
37.05156798960718
 31
0.0
  0
MTEXT
  5
7E7D2
330
1F
100
AcDbEntity
  8
文本
100
AcDbMText
 10
4816.8255874026
 20
45.74401757522827
 30
0.0
 40
0.780003060924162
 41
7.57731356973992
 46
7.031347185752331
 71
     5
 72
     5
  1
a
  7
Romans字体
 73
     1
 44
1.0
1001
ACAD
1000
MTEXTBEGIN
1070
    73
1070
     1
1070
    44
1040
1.0
1070
    74
1070
     0
1000
MTEXTEND
1000
ACAD_MTEXT_DEFINED_HEIGHT_BEGIN
1070
    46
1040
7.031347185752331
1000
ACAD_MTEXT_DEFINED_HEIGHT_END
  0
MTEXT
  5
7E7D3
330
1F
100
AcDbEntity
  8
文本
100
AcDbMText
 10
4822.104243585162
 20
45.74401757522827
 30
0.0
 40
0.780003060924162
 41
7.57731356973992
 46
7.031347185752331
 71
     5
 72
     5
  1
b
  7
Romans字体
 73
     1
 44
1.0
1001
ACAD
1000
MTEXTBEGIN
1070
    73
1070
     1
1070
    44
1040
1.0
1070
    74
1070
     0
1000
MTEXTEND
1000
ACAD_MTEXT_DEFINED_HEIGHT_BEGIN
1070
    46
1040
7.031347185752331
1000
ACAD_MTEXT_DEFINED_HEIGHT_END
  0
INSERT
  5
7E7D4
330
1F
100
AcDbEntity
  8
DIM
100
AcDbBlockReference
  2
A4图框-NEW
 10
4493.109252572896
 20
-177.4928395354477
 30
0.0
 41
0.3333333333330302
 42
0.3333333333333286
 43
0.3333333333333333
  0
MTEXT
  5
7E7D5
330
1F
100
AcDbEntity
  8
图框
 62
     3
100
AcDbMText
 10
4839.965941596063
 20
-11.903894289785
 30
0.0
 40
1.791308145020489
 41
3.609782811460796
 46
2.628698200403451
 71
     5
 72
     5
  1
{\H0.61408x;3:1} 
  7
Romans字体
 73
     1
 44
1.0
1001
ACAD
1000
MTEXTBEGIN
1070
    73
1070
     1
1070
    44
1040
1.0
1070
    74
1070
     0
1000
MTEXTEND
1000
ACAD_MTEXT_DEFINED_HEIGHT_BEGIN
1070
    46
1040
2.628698200403451
1000
ACAD_MTEXT_DEFINED_HEIGHT_END
  0
MTEXT
  5
7E7D6
330
1F
100
AcDbEntity
  8
图框
 62
     3
100
AcDbMText
 10
4847.240241864574
 20
-11.69120878092096
 30
0.0
 40
1.791308145020489
 41
3.609782811460796
 46
2.628698200403451
 71
     5
 72
     5
  1
{\H0.61408x;-} 
  7
Romans字体
 73
     1
 44
1.0
1001
ACAD
1000
MTEXTBEGIN
1070
    73
1070
     1
1070
    44
1040
1.0
1070
    74
1070
     0
1000
MTEXTEND
1000
ACAD_MTEXT_DEFINED_HEIGHT_BEGIN
1070
    46
1040
2.628698200403451
1000
ACAD_MTEXT_DEFINED_HEIGHT_END
  0
MTEXT
  5
7E7D7
330
1F
100
AcDbEntity
  8
图框
 62
     3
100
AcDbMText
 10
4862.885634346984
 20
-7.515388768410332
 30
0.0
 40
1.791308145020489
 41
3.609782811460796
 46
2.628698200403451
 71
     5
 72
     5
  1
{\H0.61408x;-} 
  7
Romans字体
 73
     1
 44
1.0
1001
ACAD
1000
MTEXTBEGIN
1070
    73
1070
     1
1070
    44
1040
1.0
1070
    74
1070
     0
1000
MTEXTEND
1000
ACAD_MTEXT_DEFINED_HEIGHT_BEGIN
1070
    46
1040
2.628698200403451
1000
ACAD_MTEXT_DEFINED_HEIGHT_END
  0
MTEXT
  5
7E7D8
330
1F
100
AcDbEntity
  8
图框
 62
     3
100
AcDbMText
 10
4862.841562133819
 20
-4.631182301122349
 30
0.0
 40
1.791308145020489
 41
3.609782811460796
 46
2.628698200403451
 71
     5
 72
     5
  1
{\H0.61408x;\T0.9;M40-AFC30G-XX} 
  7
Romans字体
 73
     1
 44
1.0
1001
ACAD
1000
MTEXTBEGIN
1070
    73
1070
     1
1070
    44
1040
1.0
1070
    74
1070
     0
1000
MTEXTEND
1000
ACAD_MTEXT_DEFINED_HEIGHT_BEGIN
1070
    46
1040
2.628698200403451
1000
ACAD_MTEXT_DEFINED_HEIGHT_END
  0
ENDSEC
  0
SECTION
  2
OBJECTS
  0
DICTIONARY
  5
C
330
0
100
AcDbDictionary
281
     1
  3
ACAD_COLOR
350
4FFE
  3
ACAD_GROUP
350
D
  3
ACAD_LAYOUT
350
1A
  3
ACAD_MATERIAL
350
4FE5
  3
ACAD_MLEADERSTYLE
350
5022
  3
ACAD_MLINESTYLE
350
17
  3
ACAD_PLOTSETTINGS
350
19
  3
ACAD_PLOTSTYLENAME
350
E
  3
ACAD_RENDER_PLOT_SETTINGS
350
6537
  3
ACAD_SCALELIST
350
5000
  3
ACAD_TABLESTYLE
350
4FE3
  3
ACAD_VISUALSTYLE
350
2A
  3
ACDB_RECOMPOSE_DATA
350
7EA1F
  3
AcDbVariableDictionary
350
5108
  3
ASE_INDEX_DICTIONARY
350
7EBBF
  3
lxx_dict
350
11B4E
  0
DICTIONARY
  5
50EE
330
8
100
AcDbDictionary
280
     1
281
     1
  0
DICTIONARY
  5
50B8
330
2
100
AcDbDictionary
280
     1
281
     1
  3
ACAD_LAYERFILTERS
360
11B10
  3
ACAD_LAYERSTATES
360
50B9
  3
ACLYDICTIONARY
360
11B0F
  0
DICTIONARY
  5
50D0
330
10
100
AcDbDictionary
280
     1
281
     1
  3
ADSK_XREC_LAYER_RECONCILED
360
50D1
  0
DICTIONARY
  5
50D2
330
3B
100
AcDbDictionary
280
     1
281
     1
  3
ADSK_XREC_LAYER_RECONCILED
360
50D3
  0
DICTIONARY
  5
50AF
330
50AE
100
AcDbDictionary
280
     1
281
     1
  3
ADSK_XREC_LAYER_RECONCILED
360
50D4
  0
DICTIONARY
  5
67C0
330
1F
100
AcDbDictionary
280
     1
281
     1
  3
ACAD_SORTENTS
360
67C1
  0
DICTIONARY
  5
7EBAB
330
10FE8
100
AcDbDictionary
280
     1
281
     1
  0
DICTIONARY
  5
7EBC6
330
7EB17
100
AcDbDictionary
280
     1
281
     1
  3
ACAD_MTEXT_2008_RT
360
7EBC7
  0
DICTIONARY
  5
7EBC8
330
7EB59
100
AcDbDictionary
280
     1
281
     1
  3
ACAD_MTEXT_2008_RT
360
7EBC9
  0
DICTIONARY
  5
7EBCA
330
7EB5A
100
AcDbDictionary
280
     1
281
     1
  3
ACAD_MTEXT_2008_RT
360
7EBCB
  0
DICTIONARY
  5
7EBCC
330
7EB7F
100
AcDbDictionary
280
     1
281
     1
  3
ACAD_MTEXT_2008_RT
360
7EBCD
  0
DICTIONARY
  5
7EBCE
330
7EB82
100
AcDbDictionary
280
     1
281
     1
  3
ACAD_MTEXT_2008_RT
360
7EBCF
  0
DICTIONARY
  5
7EBD0
330
7EB83
100
AcDbDictionary
280
     1
281
     1
  3
ACAD_MTEXT_2008_RT
360
7EBD1
  0
DICTIONARY
  5
7EBD2
330
7EB8D
100
AcDbDictionary
280
     1
281
     1
  3
ACAD_MTEXT_2008_RT
360
7EBD3
  0
DICTIONARY
  5
7EBD4
330
7EB8E
100
AcDbDictionary
280
     1
281
     1
  3
ACAD_MTEXT_2008_RT
360
7EBD5
  0
DICTIONARY
  5
7EBD6
330
7EB8F
100
AcDbDictionary
280
     1
281
     1
  3
ACAD_MTEXT_2008_RT
360
7EBD7
  0
DICTIONARY
  5
7EBD8
330
7EB9D
100
AcDbDictionary
280
     1
281
     1
  3
ACAD_MTEXT_2008_RT
360
7EBD9
  0
DICTIONARY
  5
7EBDA
330
7EB9E
100
AcDbDictionary
280
     1
281
     1
  3
ACAD_MTEXT_2008_RT
360
7EBDB
  0
DICTIONARY
  5
7EBDC
330
7EB9F
100
AcDbDictionary
280
     1
281
     1
  3
ACAD_MTEXT_2008_RT
360
7EBDD
  0
DICTIONARY
  5
7EBC4
330
7E7A4
100
AcDbDictionary
280
     1
281
     1
  3
ACAD_MTEXT_2008_RT
360
7EBC5
  0
DICTIONARY
  5
4FFE
102
{ACAD_REACTORS
330
C
102
}
330
C
100
AcDbDictionary
281
     1
  0
DICTIONARY
  5
D
102
{ACAD_REACTORS
330
C
102
}
330
C
100
AcDbDictionary
281
     1
  0
DICTIONARY
  5
1A
102
{ACAD_REACTORS
330
C
102
}
330
C
100
AcDbDictionary
281
     1
  3
Layout1
350
1E
  3
Layout2
350
26
  3
Model
350
22
  0
DICTIONARY
  5
4FE5
102
{ACAD_REACTORS
330
C
102
}
330
C
100
AcDbDictionary
281
     1
  3
ByBlock
350
4FEE
  3
ByLayer
350
4FE6
  3
Global
350
4FF6
  0
DICTIONARY
  5
5022
102
{ACAD_REACTORS
330
C
102
}
330
C
100
AcDbDictionary
281
     1
  3
Standard
350
5023
  0
DICTIONARY
  5
17
102
{ACAD_REACTORS
330
C
102
}
330
C
100
AcDbDictionary
281
     1
  3
Standard
350
18
  0
DICTIONARY
  5
19
102
{ACAD_REACTORS
330
C
102
}
330
C
100
AcDbDictionary
281
     1
  0
ACDBDICTIONARYWDFLT
  5
E
102
{ACAD_REACTORS
330
C
102
}
330
C
100
AcDbDictionary
281
     1
  3
Normal
350
F
100
AcDbDictionaryWithDefault
340
F
  0
DICTIONARY
  5
6537
102
{ACAD_REACTORS
330
C
102
}
330
C
100
AcDbDictionary
281
     1
  3
{1DC63513-1B1A-422F-9880-65CFD2B8D533}
350
6538
  0
DICTIONARY
  5
5000
102
{ACAD_REACTORS
330
C
102
}
330
C
100
AcDbDictionary
281
     1
  3
A0
350
5001
  3
A1
350
5002
  3
A2
350
5003
  3
A3
350
5004
  3
A4
350
5005
  3
A5
350
5006
  3
A6
350
5007
  3
A7
350
5008
  3
A8
350
5009
  3
A9
350
500A
  3
B0
350
500B
  3
B1
350
500C
  3
B2
350
500D
  3
B3
350
500E
  3
B4
350
500F
  3
B5
350
5010
  3
B6
350
5011
  3
B7
350
5012
  3
B8
350
5013
  3
B9
350
5014
  3
C0
350
5015
  3
C1
350
5016
  3
C2
350
5017
  3
C3
350
5018
  3
C4
350
5019
  3
C5
350
501A
  3
C6
350
501B
  3
C7
350
501C
  3
C8
350
501D
  3
C9
350
501E
  3
D0
350
501F
  3
D1
350
5020
  3
D2
350
5021
  0
DICTIONARY
  5
4FE3
102
{ACAD_REACTORS
330
C
102
}
330
C
100
AcDbDictionary
281
     1
  3
Standard
350
4FFF
  0
DICTIONARY
  5
2A
102
{ACAD_REACTORS
330
C
102
}
330
C
100
AcDbDictionary
281
     1
  3
2dWireframe
350
2F
  3
3D Hidden
350
31
  3
3dWireframe
350
30
  3
Basic
350
32
  3
Brighten
350
36
  3
ColorChange
350
3A
  3
Conceptual
350
34
  3
Dim
350
35
  3
EdgeColorOff
350
7E9F5
  3
Facepattern
350
39
  3
Flat
350
2B
  3
FlatWithEdges
350
2C
  3
Gouraud
350
2D
  3
GouraudWithEdges
350
2E
  3
JitterOff
350
7E9F3
  3
Linepattern
350
38
  3
OverhangOff
350
7E9F4
  3
Realistic
350
33
  3
Thicken
350
37
  0
XRECORD
  5
7EA1F
102
{ACAD_REACTORS
330
C
102
}
330
C
100
AcDbXrecord
280
     1
 90
        1
330
4FFF
330
7E7A4
330
7EB17
330
7EB59
330
7EB5A
330
7EB7F
330
7EB82
330
7EB83
330
7EB8D
330
7EB8E
330
7EB8F
330
7EB9D
330
7EB9E
330
7EB9F
  0
DICTIONARY
  5
5108
102
{ACAD_REACTORS
330
C
102
}
330
C
100
AcDbDictionary
281
     1
  3
CANNOSCALE
350
510B
  3
CMLEADERSTYLE
350
510A
  3
CTABLESTYLE
350
5109
  3
DIMASSOC
350
510E
  3
INDEXCTL
350
510D
  3
LIGHTINGUNITS
350
7EBC2
  3
MSLTSCALE
350
7EBC1
  3
SORTENTS
350
510C
  3
XCLIPFRAME
350
7EA03
  0
DICTIONARY
  5
7EBBF
102
{ACAD_REACTORS
330
C
102
}
330
C
100
AcDbDictionary
281
     1
  3
ASEBlockHierarchyIndexRecord
350
7EBC0
1001
DCO15
1040
2052799557.839
  0
DICTIONARY
  5
11B4E
102
{ACAD_REACTORS
330
C
102
}
330
C
100
AcDbDictionary
281
     1
  3
lxx_dimth
350
7DCFC
  0
DICTIONARY
  5
11B10
102
{ACAD_REACTORS
330
50B8
102
}
330
50B8
100
AcDbDictionary
281
     1
  0
DICTIONARY
  5
50B9
102
{ACAD_REACTORS
330
50B8
102
}
330
50B8
100
AcDbDictionary
281
     1
  0
DICTIONARY
  5
11B0F
102
{ACAD_REACTORS
330
50B8
102
}
330
50B8
100
AcDbDictionary
281
     1
1001
ACAD
1000
<All
  0
XRECORD
  5
50D1
102
{ACAD_REACTORS
330
50D0
102
}
330
50D0
100
AcDbXrecord
280
     1
290
     1
  0
XRECORD
  5
50D3
102
{ACAD_REACTORS
330
50D2
102
}
330
50D2
100
AcDbXrecord
280
     1
290
     1
  0
XRECORD
  5
50D4
102
{ACAD_REACTORS
330
50AF
102
}
330
50AF
100
AcDbXrecord
280
     1
290
     1
  0
SORTENTSTABLE
  5
67C1
102
{ACAD_REACTORS
330
67C0
102
}
330
67C0
100
AcDbSortentsTable
330
1F
331
3943
  5
4842
331
2C65
  5
2EE7
331
3895
  5
3943
331
4842
  5
4E94
331
35D8
  5
3807
331
3807
  5
3895
331
2F93
  5
2FDE
331
35C8
  5
35D8
331
2FDE
  5
35C8
331
28AE
  5
2A38
331
2EE7
  5
2F93
  0
XRECORD
  5
7EBC7
102
{ACAD_REACTORS
330
7EBC6
102
}
330
7EBC6
100
AcDbXrecord
280
     1
 40
1477.0
  1
\pxqc;ZM LIN
  0
XRECORD
  5
7EBC9
102
{ACAD_REACTORS
330
7EBC8
102
}
330
7EBC8
100
AcDbXrecord
280
     1
 40
1262561.0
  1
\pxqc;档案员{\H0.7x;\P\Fromans|c134;Filing Clerk\fFangSong_GB2312|b0|i0|c134|p49; }
  0
XRECORD
  5
7EBCB
102
{ACAD_REACTORS
330
7EBCA
102
}
330
7EBCA
100
AcDbXrecord
280
     1
 40
650528.0
  1
\pxqc;日期{\Fromans|c134;/Date}
  0
XRECORD
  5
7EBCD
102
{ACAD_REACTORS
330
7EBCC
102
}
330
7EBCC
100
AcDbXrecord
280
     1
 40
2318748.0
  1
\pxsm0.7;{\f仿宋_GB2312|b0|i0|c134|p49;标准化}\PStand.
  0
XRECORD
  5
7EBCF
102
{ACAD_REACTORS
330
7EBCE
102
}
330
7EBCE
100
AcDbXrecord
280
     1
 40
118135.0
  1
\pxsm0.7;签名\P{\Fromans|c134;Signature} 
  0
XRECORD
  5
7EBD1
102
{ACAD_REACTORS
330
7EBD0
102
}
330
7EBD0
100
AcDbXrecord
280
     1
 40
108939.0
  1
\pxsm0.7,qc;处数\P{\Fromans|c134;Number }
  0
XRECORD
  5
7EBD3
102
{ACAD_REACTORS
330
7EBD2
102
}
330
7EBD2
100
AcDbXrecord
280
     1
 40
125762.0
  1
\pxsm0.7;标记\P{\Fromans|c134;Mark}
  0
XRECORD
  5
7EBD5
102
{ACAD_REACTORS
330
7EBD4
102
}
330
7EBD4
100
AcDbXrecord
280
     1
 40
111973.0
  1
\pxsm0.7;审核\P{\Fromans|c134;Checked}
  0
XRECORD
  5
7EBD7
102
{ACAD_REACTORS
330
7EBD6
102
}
330
7EBD6
100
AcDbXrecord
280
     1
 40
137968.0
  1
\pxsm0.7;绘图\P{\Fromans|c134;Drawn\Ftxt|c134; }
  0
XRECORD
  5
7EBD9
102
{ACAD_REACTORS
330
7EBD8
102
}
330
7EBD8
100
AcDbXrecord
280
     1
 40
106320.0
  1
\pxsm0.7;批准\P{\Fromans|c134;Approved}
  0
XRECORD
  5
7EBDB
102
{ACAD_REACTORS
330
7EBDA
102
}
330
7EBDA
100
AcDbXrecord
280
     1
 40
127283.0
  1
\pxsm0.7;工艺\P{\Fromans|c134;Process}
  0
XRECORD
  5
7EBDD
102
{ACAD_REACTORS
330
7EBDC
102
}
330
7EBDC
100
AcDbXrecord
280
     1
 40
106220.0
  1
\pxsm0.7;日期\P{\Fromans|c134;Date}
  0
XRECORD
  5
7EBC5
102
{ACAD_REACTORS
330
7EBC4
102
}
330
7EBC4
100
AcDbXrecord
280
     1
 40
90507220.0
  1
\A1;\pxql;技术参数:\P\pq*;- 材料: 铜合金\P- 表面处理: 镀金\P\pql;- 额定电流: {\Fromans|c134;20A\P}- 接触电阻: ≤{\Fromans|c0;3\Fromans|c134;mΩ\P}- 线径范围: {\Fromans|c0;1.0/1.5/2.5\Fromans|c134;mm\H0.7x;\S2^ ;\H1.4286x;(\Fromans|c0;18/16/14\Fromans|c134;AWG)\H0.99998x;\P\pq*;}-
  1
 可插拔次数: ≥{\Fromans|c134;500\P\P\pql;Technical specification:\P- Material: copper alloy\P- Surface: hard-gold plated\P- Rated current: 20A}\P{\Fromans|c134;- Contact resistance: }≤{\Fromans|c0;3\Fromans|c134;mΩ\P- Wire gauge: \Fromans|c0;1.0/1.5/2.5\F
  1
romans|c134;mm\H0.7x;\S2^ ;\H1.4286x;(\Fromans|c0;18/16/14\Fromans|c134;AWG)\H0.99998x;\P- Mating cycles: }≥{\Fromans|c134;500}
  0
LAYOUT
  5
1E
102
{ACAD_REACTORS
330
1A
102
}
330
1A
100
AcDbPlotSettings
  1

  2
none_device
  4

  6

 40
0.0
 41
0.0
 42
0.0
 43
0.0
 44
0.0
 45
0.0
 46
0.0
 47
0.0
 48
0.0
 49
0.0
140
0.0
141
0.0
142
1.0
143
1.0
 70
   688
 72
     0
 73
     0
 74
     5
  7

 75
    16
147
1.0
 76
     0
 77
     2
 78
   300
148
0.0
149
0.0
100
AcDbLayout
  1
Layout1
 70
     1
 71
     1
 10
0.0
 20
0.0
 11
12.0
 21
9.0
 12
0.0
 22
0.0
 32
0.0
 14
1.000000000000000E+20
 24
1.000000000000000E+20
 34
1.000000000000000E+20
 15
-1.000000000000000E+20
 25
-1.000000000000000E+20
 35
-1.000000000000000E+20
146
0.0
 13
0.0
 23
0.0
 33
0.0
 16
1.0
 26
0.0
 36
0.0
 17
0.0
 27
1.0
 37
0.0
 76
     0
330
1B
  0
LAYOUT
  5
26
102
{ACAD_REACTORS
330
1A
102
}
330
1A
100
AcDbPlotSettings
  1

  2
none_device
  4

  6

 40
0.0
 41
0.0
 42
0.0
 43
0.0
 44
0.0
 45
0.0
 46
0.0
 47
0.0
 48
0.0
 49
0.0
140
0.0
141
0.0
142
1.0
143
1.0
 70
   688
 72
     0
 73
     0
 74
     5
  7

 75
    16
147
1.0
 76
     0
 77
     2
 78
   300
148
0.0
149
0.0
100
AcDbLayout
  1
Layout2
 70
     1
 71
     2
 10
0.0
 20
0.0
 11
0.0
 21
0.0
 12
0.0
 22
0.0
 32
0.0
 14
0.0
 24
0.0
 34
0.0
 15
0.0
 25
0.0
 35
0.0
146
0.0
 13
0.0
 23
0.0
 33
0.0
 16
1.0
 26
0.0
 36
0.0
 17
0.0
 27
1.0
 37
0.0
 76
     0
330
23
  0
LAYOUT
  5
22
102
{ACAD_REACTORS
330
1A
102
}
330
1A
100
AcDbPlotSettings
  1

  2
Adobe PDF Converter.pc3
  4
A4
  6

 40
3.174999952316281
 41
3.174999952316281
 42
3.17498779296875
 43
3.175003051757812
 44
297.0318298339844
 45
209.9733276367186
 46
0.0000000000000076
 47
1.630241740247063
 48
246.9897427644609
 49
39.36804549891383
140
544.952097801264
141
244.7492402188181
142
1.0
143
1.025046328645055
 70
  3764
 72
     1
 73
     0
 74
     4
  7
monochrome.ctb
 75
     0
147
0.9755656618192436
 76
     1
 77
     2
 78
   300
148
-246.9897427644609
149
-39.36804549891383
100
AcDbLayout
  1
Model
 70
     1
 71
     0
 10
0.0
 20
0.0
 11
12.0
 21
9.0
 12
0.0
 22
0.0
 32
0.0
 14
1.000000000000000E+20
 24
1.000000000000000E+20
 34
1.000000000000000E+20
 15
-1.000000000000000E+20
 25
-1.000000000000000E+20
 35
-1.000000000000000E+20
146
0.0
 13
0.0
 23
0.0
 33
0.0
 16
1.0
 26
0.0
 36
0.0
 17
0.0
 27
1.0
 37
0.0
 76
     0
330
1F
331
29
1001
ACAD_PSEXT
1000
Adobe PDF Converter.pc3
1000
Adobe PDF Converter
1000
桌面\*.pdf
1000

1070
     0
  0
MATERIAL
  5
4FEE
102
{ACAD_XDICTIONARY
360
4FEF
102
}
102
{ACAD_REACTORS
330
4FE5
102
}
330
4FE5
100
AcDbMaterial
  1
ByBlock
 72
     0
 43
0.0208333333333333
 43
0.0
 43
0.0
 43
0.0
 43
0.0
 43
0.0208333333333333
 43
0.0
 43
0.0
 43
0.0
 43
0.0
 43
1.0
 43
0.0
 43
0.0
 43
0.0
 43
0.0
 43
1.0
 77
     0
 47
0.0208333333333333
 47
0.0
 47
0.0
 47
0.0
 47
0.0
 47
0.0208333333333333
 47
0.0
 47
0.0
 47
0.0
 47
0.0
 47
1.0
 47
0.0
 47
0.0
 47
0.0
 47
0.0
 47
1.0
171
     0
 49
0.0208333333333333
 49
0.0
 49
0.0
 49
0.0
 49
0.0
 49
0.0208333333333333
 49
0.0
 49
0.0
 49
0.0
 49
0.0
 49
1.0
 49
0.0
 49
0.0
 49
0.0
 49
0.0
 49
1.0
175
     0
142
0.0208333333333333
142
0.0
142
0.0
142
0.0
142
0.0
142
0.0208333333333333
142
0.0
142
0.0
142
0.0
142
0.0
142
1.0
142
0.0
142
0.0
142
0.0
142
0.0
142
1.0
179
     0
144
0.0208333333333333
144
0.0
144
0.0
144
0.0
144
0.0
144
0.0208333333333333
144
0.0
144
0.0
144
0.0
144
0.0
144
1.0
144
0.0
144
0.0
144
0.0
144
0.0
144
1.0
147
0.0208333333333333
147
0.0
147
0.0
147
0.0
147
0.0
147
0.0208333333333333
147
0.0
147
0.0
147
0.0
147
0.0
147
1.0
147
0.0
147
0.0
147
0.0
147
0.0
147
1.0
  0
MATERIAL
  5
4FE6
102
{ACAD_XDICTIONARY
360
4FE7
102
}
102
{ACAD_REACTORS
330
4FE5
102
}
330
4FE5
100
AcDbMaterial
  1
ByLayer
 72
     0
 43
0.0208333333333333
 43
0.0
 43
0.0
 43
0.0
 43
0.0
 43
0.0208333333333333
 43
0.0
 43
0.0
 43
0.0
 43
0.0
 43
1.0
 43
0.0
 43
0.0
 43
0.0
 43
0.0
 43
1.0
 77
     0
 47
0.0208333333333333
 47
0.0
 47
0.0
 47
0.0
 47
0.0
 47
0.0208333333333333
 47
0.0
 47
0.0
 47
0.0
 47
0.0
 47
1.0
 47
0.0
 47
0.0
 47
0.0
 47
0.0
 47
1.0
171
     0
 49
0.0208333333333333
 49
0.0
 49
0.0
 49
0.0
 49
0.0
 49
0.0208333333333333
 49
0.0
 49
0.0
 49
0.0
 49
0.0
 49
1.0
 49
0.0
 49
0.0
 49
0.0
 49
0.0
 49
1.0
175
     0
142
0.0208333333333333
142
0.0
142
0.0
142
0.0
142
0.0
142
0.0208333333333333
142
0.0
142
0.0
142
0.0
142
0.0
142
1.0
142
0.0
142
0.0
142
0.0
142
0.0
142
1.0
179
     0
144
0.0208333333333333
144
0.0
144
0.0
144
0.0
144
0.0
144
0.0208333333333333
144
0.0
144
0.0
144
0.0
144
0.0
144
1.0
144
0.0
144
0.0
144
0.0
144
0.0
144
1.0
147
0.0208333333333333
147
0.0
147
0.0
147
0.0
147
0.0
147
0.0208333333333333
147
0.0
147
0.0
147
0.0
147
0.0
147
1.0
147
0.0
147
0.0
147
0.0
147
0.0
147
1.0
  0
MATERIAL
  5
4FF6
102
{ACAD_XDICTIONARY
360
4FF7
102
}
102
{ACAD_REACTORS
330
4FE5
102
}
330
4FE5
100
AcDbMaterial
  1
Global
 72
     0
 43
0.0208333333333333
 43
0.0
 43
0.0
 43
0.0
 43
0.0
 43
0.0208333333333333
 43
0.0
 43
0.0
 43
0.0
 43
0.0
 43
1.0
 43
0.0
 43
0.0
 43
0.0
 43
0.0
 43
1.0
 77
     0
 47
0.0208333333333333
 47
0.0
 47
0.0
 47
0.0
 47
0.0
 47
0.0208333333333333
 47
0.0
 47
0.0
 47
0.0
 47
0.0
 47
1.0
 47
0.0
 47
0.0
 47
0.0
 47
0.0
 47
1.0
171
     0
 49
0.0208333333333333
 49
0.0
 49
0.0
 49
0.0
 49
0.0
 49
0.0208333333333333
 49
0.0
 49
0.0
 49
0.0
 49
0.0
 49
1.0
 49
0.0
 49
0.0
 49
0.0
 49
0.0
 49
1.0
175
     0
142
0.0208333333333333
142
0.0
142
0.0
142
0.0
142
0.0
142
0.0208333333333333
142
0.0
142
0.0
142
0.0
142
0.0
142
1.0
142
0.0
142
0.0
142
0.0
142
0.0
142
1.0
179
     0
144
0.0208333333333333
144
0.0
144
0.0
144
0.0
144
0.0
144
0.0208333333333333
144
0.0
144
0.0
144
0.0
144
0.0
144
1.0
144
0.0
144
0.0
144
0.0
144
0.0
144
1.0
147
0.0208333333333333
147
0.0
147
0.0
147
0.0
147
0.0
147
0.0208333333333333
147
0.0
147
0.0
147
0.0
147
0.0
147
1.0
147
0.0
147
0.0
147
0.0
147
0.0
147
1.0
  0
MLEADERSTYLE
  5
5023
102
{ACAD_REACTORS
330
5022
102
}
330
5022
100
AcDbMLeaderStyle
170
     2
171
     1
172
     0
 90
        2
 40
0.0
 41
0.0
173
     1
 91
-1056964608
340
14
 92
       -2
290
     1
 42
0.09
291
     1
 43
0.36
  3
Standard
 44
0.18
300

342
11
174
     1
178
     6
175
     1
176
     0
 93
-1056964608
 45
0.18
292
     0
297
     0
 46
0.18
 94
-1056964608
 47
1.0
 49
1.0
140
1.0
293
     1
141
0.0
294
     1
177
     0
142
1.0
295
     0
296
     0
143
0.125
1001
ACAD_MLEADERVER
1070
     2
  0
MLINESTYLE
  5
18
102
{ACAD_REACTORS
330
17
102
}
330
17
100
AcDbMlineStyle
  2
STANDARD
 70
     0
  3

 62
   256
 51
90.0
 52
90.0
 71
     2
 49
0.5
 62
   256
  6
BYLAYER
 49
-0.5
 62
   256
  6
BYLAYER
  0
ACDBPLACEHOLDER
  5
F
102
{ACAD_REACTORS
330
E
102
}
330
E
  0
MENTALRAYRENDERSETTINGS
  5
6538
102
{ACAD_REACTORS
330
6537
102
}
330
6537
100
AcDbRenderSettings
 90
        2
  1
中
290
     1
290
     1
290
     1
290
     1
  1

  1
渲染质量好于“低级”。包括纹理过滤并且强制双面处于激活状态。处理中等级反锯齿和 5 反射/折射的光线跟踪深度。
 90
        0
100
AcDbMentalRayRenderSettings
 90
        2
 90
        0
 90
        1
 70
     2
 40
3.0
 40
3.0
 40
0.0500000007450581
 40
0.0500000007450581
 40
0.0500000007450581
 40
0.0500000007450581
 70
     0
290
     0
290
     1
 90
        5
 90
        5
 90
        5
290
     0
 90
      500
290
     0
 40
1.0
 90
    10000
 90
        5
 90
        5
 90
        5
290
     0
 90
      200
290
     0
290
     0
290
     0
 40
0.1
 40
1.0
 40
1500.0
 70
     0
 70
     0
 40
10.0
 70
     0
 70
     0
290
     0
  1

 90
       32
 70
     0
 90
     1048
290
     0
 40
1.0
  0
SCALE
  5
5001
102
{ACAD_REACTORS
330
5000
102
}
330
5000
100
AcDbScale
 70
     0
300
1:1
140
1.0
141
1.0
290
     1
  0
SCALE
  5
5002
102
{ACAD_REACTORS
330
5000
102
}
330
5000
100
AcDbScale
 70
     0
300
1:2
140
1.0
141
2.0
290
     0
  0
SCALE
  5
5003
102
{ACAD_REACTORS
330
5000
102
}
330
5000
100
AcDbScale
 70
     0
300
1:4
140
1.0
141
4.0
290
     0
  0
SCALE
  5
5004
102
{ACAD_REACTORS
330
5000
102
}
330
5000
100
AcDbScale
 70
     0
300
1:5
140
1.0
141
5.0
290
     0
  0
SCALE
  5
5005
102
{ACAD_REACTORS
330
5000
102
}
330
5000
100
AcDbScale
 70
     0
300
1:8
140
1.0
141
8.0
290
     0
  0
SCALE
  5
5006
102
{ACAD_REACTORS
330
5000
102
}
330
5000
100
AcDbScale
 70
     0
300
1:10
140
1.0
141
10.0
290
     0
  0
SCALE
  5
5007
102
{ACAD_REACTORS
330
5000
102
}
330
5000
100
AcDbScale
 70
     0
300
1:16
140
1.0
141
16.0
290
     0
  0
SCALE
  5
5008
102
{ACAD_REACTORS
330
5000
102
}
330
5000
100
AcDbScale
 70
     0
300
1:20
140
1.0
141
20.0
290
     0
  0
SCALE
  5
5009
102
{ACAD_REACTORS
330
5000
102
}
330
5000
100
AcDbScale
 70
     0
300
1:30
140
1.0
141
30.0
290
     0
  0
SCALE
  5
500A
102
{ACAD_REACTORS
330
5000
102
}
330
5000
100
AcDbScale
 70
     0
300
1:40
140
1.0
141
40.0
290
     0
  0
SCALE
  5
500B
102
{ACAD_REACTORS
330
5000
102
}
330
5000
100
AcDbScale
 70
     0
300
1:50
140
1.0
141
50.0
290
     0
  0
SCALE
  5
500C
102
{ACAD_REACTORS
330
5000
102
}
330
5000
100
AcDbScale
 70
     0
300
1:100
140
1.0
141
100.0
290
     0
  0
SCALE
  5
500D
102
{ACAD_REACTORS
330
5000
102
}
330
5000
100
AcDbScale
 70
     0
300
2:1
140
2.0
141
1.0
290
     0
  0
SCALE
  5
500E
102
{ACAD_REACTORS
330
5000
102
}
330
5000
100
AcDbScale
 70
     0
300
4:1
140
4.0
141
1.0
290
     0
  0
SCALE
  5
500F
102
{ACAD_REACTORS
330
5000
102
}
330
5000
100
AcDbScale
 70
     0
300
8:1
140
8.0
141
1.0
290
     0
  0
SCALE
  5
5010
102
{ACAD_REACTORS
330
5000
102
}
330
5000
100
AcDbScale
 70
     0
300
10:1
140
10.0
141
1.0
290
     0
  0
SCALE
  5
5011
102
{ACAD_REACTORS
330
5000
102
}
330
5000
100
AcDbScale
 70
     0
300
100:1
140
100.0
141
1.0
290
     0
  0
SCALE
  5
5012
102
{ACAD_REACTORS
330
5000
102
}
330
5000
100
AcDbScale
 70
     0
300
1/128" = 1'-0"
140
0.0078125
141
12.0
290
     0
  0
SCALE
  5
5013
102
{ACAD_REACTORS
330
5000
102
}
330
5000
100
AcDbScale
 70
     0
300
1/64" = 1'-0"
140
0.015625
141
12.0
290
     0
  0
SCALE
  5
5014
102
{ACAD_REACTORS
330
5000
102
}
330
5000
100
AcDbScale
 70
     0
300
1/32" = 1'-0"
140
0.03125
141
12.0
290
     0
  0
SCALE
  5
5015
102
{ACAD_REACTORS
330
5000
102
}
330
5000
100
AcDbScale
 70
     0
300
1/16" = 1'-0"
140
0.0625
141
12.0
290
     0
  0
SCALE
  5
5016
102
{ACAD_REACTORS
330
5000
102
}
330
5000
100
AcDbScale
 70
     0
300
3/32" = 1'-0"
140
0.09375
141
12.0
290
     0
  0
SCALE
  5
5017
102
{ACAD_REACTORS
330
5000
102
}
330
5000
100
AcDbScale
 70
     0
300
1/8" = 1'-0"
140
0.125
141
12.0
290
     0
  0
SCALE
  5
5018
102
{ACAD_REACTORS
330
5000
102
}
330
5000
100
AcDbScale
 70
     0
300
3/16" = 1'-0"
140
0.1875
141
12.0
290
     0
  0
SCALE
  5
5019
102
{ACAD_REACTORS
330
5000
102
}
330
5000
100
AcDbScale
 70
     0
300
1/4" = 1'-0"
140
0.25
141
12.0
290
     0
  0
SCALE
  5
501A
102
{ACAD_REACTORS
330
5000
102
}
330
5000
100
AcDbScale
 70
     0
300
3/8" = 1'-0"
140
0.375
141
12.0
290
     0
  0
SCALE
  5
501B
102
{ACAD_REACTORS
330
5000
102
}
330
5000
100
AcDbScale
 70
     0
300
1/2" = 1'-0"
140
0.5
141
12.0
290
     0
  0
SCALE
  5
501C
102
{ACAD_REACTORS
330
5000
102
}
330
5000
100
AcDbScale
 70
     0
300
3/4" = 1'-0"
140
0.75
141
12.0
290
     0
  0
SCALE
  5
501D
102
{ACAD_REACTORS
330
5000
102
}
330
5000
100
AcDbScale
 70
     0
300
1" = 1'-0"
140
1.0
141
12.0
290
     0
  0
SCALE
  5
501E
102
{ACAD_REACTORS
330
5000
102
}
330
5000
100
AcDbScale
 70
     0
300
1-1/2" = 1'-0"
140
1.5
141
12.0
290
     0
  0
SCALE
  5
501F
102
{ACAD_REACTORS
330
5000
102
}
330
5000
100
AcDbScale
 70
     0
300
3" = 1'-0"
140
3.0
141
12.0
290
     0
  0
SCALE
  5
5020
102
{ACAD_REACTORS
330
5000
102
}
330
5000
100
AcDbScale
 70
     0
300
6" = 1'-0"
140
6.0
141
12.0
290
     0
  0
SCALE
  5
5021
102
{ACAD_REACTORS
330
5000
102
}
330
5000
100
AcDbScale
 70
     0
300
1'-0" = 1'-0"
140
12.0
141
12.0
290
     0
  0
TABLESTYLE
  5
4FFF
102
{ACAD_XDICTIONARY
360
50D6
102
}
102
{ACAD_REACTORS
330
4FE3
102
}
330
4FE3
100
AcDbTableStyle
  3
Standard
 70
     0
 71
     0
 40
0.06
 41
0.06
280
     0
281
     0
  7
Standard
140
0.18
170
     2
 62
     0
 63
     7
283
     0
 90
      512
 91
        0
  1

274
    -2
284
     1
 64
     0
275
    -2
285
     1
 65
     0
276
    -2
286
     1
 66
     0
277
    -2
287
     1
 67
     0
278
    -2
288
     1
 68
     0
279
    -2
289
     1
 69
     0
  7
Standard
140
0.25
170
     5
 62
     0
 63
     7
283
     0
 90
      512
 91
        0
  1

274
    -2
284
     1
 64
     0
275
    -2
285
     1
 65
     0
276
    -2
286
     1
 66
     0
277
    -2
287
     1
 67
     0
278
    -2
288
     1
 68
     0
279
    -2
289
     1
 69
     0
  7
Standard
140
0.18
170
     5
 62
     0
 63
     7
283
     0
 90
      512
 91
        0
  1

274
    -2
284
     1
 64
     0
275
    -2
285
     1
 65
     0
276
    -2
286
     1
 66
     0
277
    -2
287
     1
 67
     0
278
    -2
288
     1
 68
     0
279
    -2
289
     1
 69
     0
  0
VISUALSTYLE
  5
2F
102
{ACAD_XDICTIONARY
360
7EA2F
102
}
102
{ACAD_REACTORS
330
2A
102
}
330
2A
100
AcDbVisualStyle
  2

 70
     4
 71
     0
 72
     2
 73
     0
 90
        0
 40
-0.6
 41
-30.0
 62
     5
 63
     7
 74
     1
 91
        4
 64
     7
 65
   257
 75
     1
175
     1
 42
1.0
 92
        0
 66
   257
 43
1.0
 76
     1
 77
     6
 78
     2
 67
     7
 79
     5
170
     0
171
     0
290
     0
174
     0
 93
        1
 44
0.0
173
     0
291
     0
 45
0.0
1001
ACAD
1000
AcDbSavedByObjectVersion
1070
     0
  0
VISUALSTYLE
  5
31
102
{ACAD_XDICTIONARY
360
7EA33
102
}
102
{ACAD_REACTORS
330
2A
102
}
330
2A
100
AcDbVisualStyle
  2

 70
     6
 71
     1
 72
     2
 73
     2
 90
        0
 40
-0.6
 41
-30.0
 62
     5
 63
     7
 74
     2
 91
        2
 64
     7
 65
   257
 75
     2
175
     1
 42
40.0
 92
        0
 66
   257
 43
1.0
 76
     1
 77
     6
 78
     2
 67
     7
 79
     3
170
     0
171
     0
290
     0
174
     0
 93
        1
 44
0.0
173
     0
291
     0
 45
0.0
1001
ACAD
1000
AcDbSavedByObjectVersion
1070
     0
  0
VISUALSTYLE
  5
30
102
{ACAD_XDICTIONARY
360
7EA31
102
}
102
{ACAD_REACTORS
330
2A
102
}
330
2A
100
AcDbVisualStyle
  2

 70
     5
 71
     0
 72
     2
 73
     0
 90
        0
 40
-0.6
 41
-30.0
 62
     5
 63
     7
 74
     1
 91
        4
 64
     7
 65
   257
 75
     1
175
     1
 42
1.0
 92
        0
 66
   257
 43
1.0
 76
     1
 77
     6
 78
     2
 67
     7
 79
     5
170
     0
171
     0
290
     0
174
     0
 93
        1
 44
0.0
173
     0
291
     0
 45
0.0
1001
ACAD
1000
AcDbSavedByObjectVersion
1070
     0
  0
VISUALSTYLE
  5
32
102
{ACAD_XDICTIONARY
360
7EA35
102
}
102
{ACAD_REACTORS
330
2A
102
}
330
2A
100
AcDbVisualStyle
  2

 70
     7
 71
     1
 72
     0
 73
     1
 90
        0
 40
-0.6
 41
-30.0
 62
     5
 63
     7
 74
     0
 91
        4
 64
     7
 65
   257
 75
     1
175
     1
 42
1.0
 92
        8
 66
     7
 43
1.0
 76
     1
 77
     6
 78
     2
 67
     7
 79
     5
170
     0
171
     0
290
     0
174
     0
 93
        1
 44
0.0
173
     0
291
     1
 45
0.0
1001
ACAD
1000
AcDbSavedByObjectVersion
1070
     0
  0
VISUALSTYLE
  5
36
102
{ACAD_XDICTIONARY
360
7EA3D
102
}
102
{ACAD_REACTORS
330
2A
102
}
330
2A
100
AcDbVisualStyle
  2

 70
    12
 71
     2
 72
     2
 73
     0
 90
        0
 40
-0.6
 41
-30.0
 62
     5
 63
     7
 74
     1
 91
        4
 64
     7
 65
   257
 75
     1
175
     1
 42
1.0
 92
        8
 66
     7
 43
1.0
 76
     1
 77
     6
 78
     2
 67
     7
 79
     5
170
     0
171
     0
290
     0
174
     0
 93
        1
 44
50.0
173
     0
291
     1
 45
0.0
1001
ACAD
1000
AcDbSavedByObjectVersion
1070
     0
  0
VISUALSTYLE
  5
3A
102
{ACAD_XDICTIONARY
360
7EA45
102
}
102
{ACAD_REACTORS
330
2A
102
}
330
2A
100
AcDbVisualStyle
  2

 70
    16
 71
     2
 72
     2
 73
     3
 90
        0
 40
-0.6
 41
-30.0
 62
     5
 63
     8
 74
     1
 91
        4
 64
     7
 65
   257
 75
     1
175
     1
 42
1.0
 92
        8
 66
     8
 43
1.0
 76
     1
 77
     6
 78
     2
 67
     7
 79
     5
170
     0
171
     0
290
     0
174
     0
 93
        1
 44
0.0
173
     0
291
     1
 45
0.0
1001
ACAD
1000
AcDbSavedByObjectVersion
1070
     0
  0
VISUALSTYLE
  5
34
102
{ACAD_XDICTIONARY
360
7EA39
102
}
102
{ACAD_REACTORS
330
2A
102
}
330
2A
100
AcDbVisualStyle
  2

 70
     9
 71
     3
 72
     2
 73
     0
 90
        0
 40
-0.6
 41
-30.0
 62
     5
 63
     7
 74
     2
 91
        2
 64
     7
 65
   257
 75
     1
175
     1
 42
40.0
 92
        8
 66
     7
 43
1.0
 76
     1
 77
     6
 78
     2
 67
     7
 79
     3
170
     0
171
     0
290
     0
174
     0
 93
        1
 44
0.0
173
     0
291
     0
 45
0.0
1001
ACAD
1000
AcDbSavedByObjectVersion
1070
     0
  0
VISUALSTYLE
  5
35
102
{ACAD_XDICTIONARY
360
7EA3B
102
}
102
{ACAD_REACTORS
330
2A
102
}
330
2A
100
AcDbVisualStyle
  2

 70
    11
 71
     2
 72
     2
 73
     0
 90
        0
 40
-0.6
 41
-30.0
 62
     5
 63
     7
 74
     1
 91
        4
 64
     7
 65
   257
 75
     1
175
     1
 42
1.0
 92
        8
 66
     7
 43
1.0
 76
     1
 77
     6
 78
     2
 67
     7
 79
     5
170
     0
171
     0
290
     0
174
     0
 93
        1
 44
-50.0
173
     0
291
     1
 45
0.0
1001
ACAD
1000
AcDbSavedByObjectVersion
1070
     0
  0
VISUALSTYLE
  5
7E9F5
102
{ACAD_XDICTIONARY
360
7EA4E
102
}
102
{ACAD_REACTORS
330
2A
102
}
330
2A
100
AcDbVisualStyle
  2
EdgeColorOff
 70
    22
 71
     2
 72
     2
 73
     0
 90
        0
 40
-0.6
 41
-30.0
 62
     5
 63
     7
 74
     1
 91
        4
 64
     7
 65
   257
 75
     1
175
     1
 42
1.0
 92
        8
 66
     7
 43
1.0
 76
     1
 77
     6
 78
     2
 67
     7
 79
     5
170
     0
171
     0
290
     0
174
     0
 93
        1
 44
0.0
173
     0
291
     1
 45
0.0
1001
ACAD
1000
AcDbSavedByObjectVersion
1070
     0
  0
VISUALSTYLE
  5
39
102
{ACAD_XDICTIONARY
360
7EA43
102
}
102
{ACAD_REACTORS
330
2A
102
}
330
2A
100
AcDbVisualStyle
  2

 70
    15
 71
     2
 72
     2
 73
     0
 90
        0
 40
-0.6
 41
-30.0
 62
     5
 63
     7
 74
     1
 91
        4
 64
     7
 65
   257
 75
     1
175
     1
 42
1.0
 92
        8
 66
     7
 43
1.0
 76
     1
 77
     6
 78
     2
 67
     7
 79
     5
170
     0
171
     0
290
     0
174
     0
 93
        1
 44
0.0
173
     0
291
     1
 45
0.0
1001
ACAD
1000
AcDbSavedByObjectVersion
1070
     0
  0
VISUALSTYLE
  5
2B
102
{ACAD_XDICTIONARY
360
7EA27
102
}
102
{ACAD_REACTORS
330
2A
102
}
330
2A
100
AcDbVisualStyle
  2

 70
     0
 71
     2
 72
     1
 73
     1
 90
        2
 40
-0.6
 41
30.0
 62
     5
 63
     7
 74
     0
 91
        4
 64
     7
 65
   257
 75
     1
175
     1
 42
1.0
 92
        8
 66
     7
 43
1.0
 76
     1
 77
     6
 78
     2
 67
     7
 79
     5
170
     0
171
     0
290
     0
174
     0
 93
       13
 44
0.0
173
     0
291
     1
 45
0.0
1001
ACAD
1000
AcDbSavedByObjectVersion
1070
     0
  0
VISUALSTYLE
  5
2C
102
{ACAD_XDICTIONARY
360
7EA29
102
}
102
{ACAD_REACTORS
330
2A
102
}
330
2A
100
AcDbVisualStyle
  2

 70
     1
 71
     2
 72
     1
 73
     1
 90
        2
 40
-0.6
 41
30.0
 62
     5
 63
     7
 74
     1
 91
        4
 64
     7
 65
   257
 75
     1
175
     1
 42
1.0
 92
        0
 66
   257
 43
1.0
 76
     1
 77
     6
 78
     2
 67
     7
 79
     5
170
     0
171
     0
290
     0
174
     0
 93
       13
 44
0.0
173
     0
291
     1
 45
0.0
1001
ACAD
1000
AcDbSavedByObjectVersion
1070
     0
  0
VISUALSTYLE
  5
2D
102
{ACAD_XDICTIONARY
360
7EA2B
102
}
102
{ACAD_REACTORS
330
2A
102
}
330
2A
100
AcDbVisualStyle
  2

 70
     2
 71
     2
 72
     2
 73
     1
 90
        2
 40
-0.6
 41
30.0
 62
     5
 63
     7
 74
     0
 91
        4
 64
     7
 65
   257
 75
     1
175
     1
 42
1.0
 92
        0
 66
     7
 43
1.0
 76
     1
 77
     6
 78
     2
 67
     7
 79
     5
170
     0
171
     0
290
     0
174
     0
 93
       13
 44
0.0
173
     0
291
     1
 45
0.0
1001
ACAD
1000
AcDbSavedByObjectVersion
1070
     0
  0
VISUALSTYLE
  5
2E
102
{ACAD_XDICTIONARY
360
7EA2D
102
}
102
{ACAD_REACTORS
330
2A
102
}
330
2A
100
AcDbVisualStyle
  2

 70
     3
 71
     2
 72
     2
 73
     1
 90
        2
 40
-0.6
 41
30.0
 62
     5
 63
     7
 74
     1
 91
        4
 64
     7
 65
   257
 75
     1
175
     1
 42
1.0
 92
        0
 66
   257
 43
1.0
 76
     1
 77
     6
 78
     2
 67
     7
 79
     5
170
     0
171
     0
290
     0
174
     0
 93
       13
 44
0.0
173
     0
291
     1
 45
0.0
1001
ACAD
1000
AcDbSavedByObjectVersion
1070
     0
  0
VISUALSTYLE
  5
7E9F3
102
{ACAD_XDICTIONARY
360
7EA4A
102
}
102
{ACAD_REACTORS
330
2A
102
}
330
2A
100
AcDbVisualStyle
  2
JitterOff
 70
    20
 71
     2
 72
     2
 73
     0
 90
        0
 40
-0.6
 41
-30.0
 62
     5
 63
     7
 74
     1
 91
        4
 64
     7
 65
   257
 75
     1
175
     1
 42
1.0
 92
       10
 66
     7
 43
1.0
 76
     1
 77
     6
 78
     2
 67
     7
 79
     5
170
     0
171
     0
290
     0
174
     0
 93
        1
 44
0.0
173
     0
291
     1
 45
0.0
1001
ACAD
1000
AcDbSavedByObjectVersion
1070
     0
  0
VISUALSTYLE
  5
38
102
{ACAD_XDICTIONARY
360
7EA41
102
}
102
{ACAD_REACTORS
330
2A
102
}
330
2A
100
AcDbVisualStyle
  2

 70
    14
 71
     2
 72
     2
 73
     0
 90
        0
 40
-0.6
 41
-30.0
 62
     5
 63
     7
 74
     1
 91
        4
 64
     7
 65
   257
 75
     7
175
     7
 42
1.0
 92
        8
 66
     7
 43
1.0
 76
     1
 77
     6
 78
     2
 67
     7
 79
     5
170
     0
171
     0
290
     0
174
     0
 93
        1
 44
0.0
173
     0
291
     1
 45
0.0
1001
ACAD
1000
AcDbSavedByObjectVersion
1070
     0
  0
VISUALSTYLE
  5
7E9F4
102
{ACAD_XDICTIONARY
360
7EA4C
102
}
102
{ACAD_REACTORS
330
2A
102
}
330
2A
100
AcDbVisualStyle
  2
OverhangOff
 70
    21
 71
     2
 72
     2
 73
     0
 90
        0
 40
-0.6
 41
-30.0
 62
     5
 63
     7
 74
     1
 91
        4
 64
     7
 65
   257
 75
     1
175
     1
 42
1.0
 92
        9
 66
     7
 43
1.0
 76
     1
 77
     6
 78
     2
 67
     7
 79
     5
170
     0
171
     0
290
     0
174
     0
 93
        1
 44
0.0
173
     0
291
     1
 45
0.0
1001
ACAD
1000
AcDbSavedByObjectVersion
1070
     0
  0
VISUALSTYLE
  5
33
102
{ACAD_XDICTIONARY
360
7EA37
102
}
102
{ACAD_REACTORS
330
2A
102
}
330
2A
100
AcDbVisualStyle
  2

 70
     8
 71
     2
 72
     2
 73
     0
 90
        0
 40
-0.6
 41
-30.0
 62
     5
 63
     7
 74
     1
 91
        0
 64
     7
 65
   257
 75
     1
175
     1
 42
1.0
 92
        8
 66
     8
 43
1.0
 76
     1
 77
     6
 78
     2
 67
     7
 79
     5
170
     0
171
     0
290
     0
174
     0
 93
       13
 44
0.0
173
     0
291
     0
 45
0.0
1001
ACAD
1000
AcDbSavedByObjectVersion
1070
     0
  0
VISUALSTYLE
  5
37
102
{ACAD_XDICTIONARY
360
7EA3F
102
}
102
{ACAD_REACTORS
330
2A
102
}
330
2A
100
AcDbVisualStyle
  2

 70
    13
 71
     2
 72
     2
 73
     0
 90
        0
 40
-0.6
 41
-30.0
 62
     5
 63
     7
 74
     1
 91
        4
 64
     7
 65
   257
 75
     1
175
     1
 42
1.0
 92
       12
 66
     7
 43
1.0
 76
     1
 77
     6
 78
     2
 67
     7
 79
     5
170
     0
171
     0
290
     0
174
     0
 93
        1
 44
0.0
173
     0
291
     1
 45
0.0
1001
ACAD
1000
AcDbSavedByObjectVersion
1070
     0
  0
DICTIONARYVAR
  5
510B
102
{ACAD_REACTORS
330
5108
102
}
330
5108
100
DictionaryVariables
280
     0
  1
1:1
  0
DICTIONARYVAR
  5
510A
102
{ACAD_REACTORS
330
5108
102
}
330
5108
100
DictionaryVariables
280
     0
  1
STANDARD
  0
DICTIONARYVAR
  5
5109
102
{ACAD_REACTORS
330
5108
102
}
330
5108
100
DictionaryVariables
280
     0
  1
STANDARD
  0
DICTIONARYVAR
  5
510E
102
{ACAD_REACTORS
330
5108
102
}
330
5108
100
DictionaryVariables
280
     0
  1
1
  0
DICTIONARYVAR
  5
510D
102
{ACAD_REACTORS
330
5108
102
}
330
5108
100
DictionaryVariables
280
     0
  1
0
  0
DICTIONARYVAR
  5
7EBC2
102
{ACAD_REACTORS
330
5108
102
}
330
5108
100
DictionaryVariables
280
     0
  1
0
  0
DICTIONARYVAR
  5
7EBC1
102
{ACAD_REACTORS
330
5108
102
}
330
5108
100
DictionaryVariables
280
     0
  1
0
  0
DICTIONARYVAR
  5
510C
102
{ACAD_REACTORS
330
5108
102
}
330
5108
100
DictionaryVariables
280
     0
  1
127
  0
DICTIONARYVAR
  5
7EA03
102
{ACAD_REACTORS
330
5108
102
}
330
5108
100
DictionaryVariables
280
     0
  1
0
  0
XRECORD
  5
7EBC0
102
{ACAD_REACTORS
330
7EBBF
102
}
330
7EBBF
100
AcDbXrecord
280
     1
330
7E7D4
  0
VLO-VL
  5
7DCFC
102
{ACAD_REACTORS
330
11B4E
102
}
330
11B4E
100
vlo_VL
 90
   -64512
 91
       12
 92
        1
 40
1.5
300
(&VLO-R . 0)
  0
DICTIONARY
  5
4FEF
330
4FEE
100
AcDbDictionary
280
     1
281
     1
  3
ACAD_XREC_ROUNDTRIP
360
7E9E1
  3
BUMPTILE
360
4FF1
  3
DIFFUSETILE
360
4FF0
  3
OPACITYTILE
360
4FF4
  3
REFLECTIONTILE
360
4FF3
  3
REFRACTIONTILE
360
4FF5
  3
SPECULARTILE
360
4FF2
  0
DICTIONARY
  5
4FE7
330
4FE6
100
AcDbDictionary
280
     1
281
     1
  3
ACAD_XREC_ROUNDTRIP
360
7E9E0
  3
BUMPTILE
360
4FE9
  3
DIFFUSETILE
360
4FE8
  3
OPACITYTILE
360
4FEC
  3
REFLECTIONTILE
360
4FEB
  3
REFRACTIONTILE
360
4FED
  3
SPECULARTILE
360
4FEA
  0
DICTIONARY
  5
4FF7
330
4FF6
100
AcDbDictionary
280
     1
281
     1
  3
ACAD_XREC_ROUNDTRIP
360
7E9E2
  3
BUMPTILE
360
4FF9
  3
DIFFUSETILE
360
4FF8
  3
OPACITYTILE
360
4FFC
  3
REFLECTIONTILE
360
4FFB
  3
REFRACTIONTILE
360
4FFD
  3
SPECULARTILE
360
4FFA
  0
DICTIONARY
  5
50D6
330
4FFF
100
AcDbDictionary
280
     1
281
     1
  3
ACAD_ROUNDTRIP_2008_TABLESTYLE_CELLSTYLEMAP
360
7EBC3
  0
DICTIONARY
  5
7EA2F
330
2F
100
AcDbDictionary
280
     1
281
     1
  3
ACAD_XREC_ROUNDTRIP
360
7EA30
  0
DICTIONARY
  5
7EA33
330
31
100
AcDbDictionary
280
     1
281
     1
  3
ACAD_XREC_ROUNDTRIP
360
7EA34
  0
DICTIONARY
  5
7EA31
330
30
100
AcDbDictionary
280
     1
281
     1
  3
ACAD_XREC_ROUNDTRIP
360
7EA32
  0
DICTIONARY
  5
7EA35
330
32
100
AcDbDictionary
280
     1
281
     1
  3
ACAD_XREC_ROUNDTRIP
360
7EA36
  0
DICTIONARY
  5
7EA3D
330
36
100
AcDbDictionary
280
     1
281
     1
  3
ACAD_XREC_ROUNDTRIP
360
7EA3E
  0
DICTIONARY
  5
7EA45
330
3A
100
AcDbDictionary
280
     1
281
     1
  3
ACAD_XREC_ROUNDTRIP
360
7EA46
  0
DICTIONARY
  5
7EA39
330
34
100
AcDbDictionary
280
     1
281
     1
  3
ACAD_XREC_ROUNDTRIP
360
7EA3A
  0
DICTIONARY
  5
7EA3B
330
35
100
AcDbDictionary
280
     1
281
     1
  3
ACAD_XREC_ROUNDTRIP
360
7EA3C
  0
DICTIONARY
  5
7EA4E
330
7E9F5
100
AcDbDictionary
280
     1
281
     1
  3
ACAD_XREC_ROUNDTRIP
360
7EA4F
  0
DICTIONARY
  5
7EA43
330
39
100
AcDbDictionary
280
     1
281
     1
  3
ACAD_XREC_ROUNDTRIP
360
7EA44
  0
DICTIONARY
  5
7EA27
330
2B
100
AcDbDictionary
280
     1
281
     1
  3
ACAD_XREC_ROUNDTRIP
360
7EA28
  0
DICTIONARY
  5
7EA29
330
2C
100
AcDbDictionary
280
     1
281
     1
  3
ACAD_XREC_ROUNDTRIP
360
7EA2A
  0
DICTIONARY
  5
7EA2B
330
2D
100
AcDbDictionary
280
     1
281
     1
  3
ACAD_XREC_ROUNDTRIP
360
7EA2C
  0
DICTIONARY
  5
7EA2D
330
2E
100
AcDbDictionary
280
     1
281
     1
  3
ACAD_XREC_ROUNDTRIP
360
7EA2E
  0
DICTIONARY
  5
7EA4A
330
7E9F3
100
AcDbDictionary
280
     1
281
     1
  3
ACAD_XREC_ROUNDTRIP
360
7EA4B
  0
DICTIONARY
  5
7EA41
330
38
100
AcDbDictionary
280
     1
281
     1
  3
ACAD_XREC_ROUNDTRIP
360
7EA42
  0
DICTIONARY
  5
7EA4C
330
7E9F4
100
AcDbDictionary
280
     1
281
     1
  3
ACAD_XREC_ROUNDTRIP
360
7EA4D
  0
DICTIONARY
  5
7EA37
330
33
100
AcDbDictionary
280
     1
281
     1
  3
ACAD_XREC_ROUNDTRIP
360
7EA38
  0
DICTIONARY
  5
7EA3F
330
37
100
AcDbDictionary
280
     1
281
     1
  3
ACAD_XREC_ROUNDTRIP
360
7EA40
  0
XRECORD
  5
7E9E1
102
{ACAD_REACTORS
330
4FEF
102
}
330
4FEF
100
AcDbXrecord
280
     1
102
MATERIAL
148
0.0
149
0.0
149
0.0
 93
        0
 94
      127
282
     0
 72
     0
 77
     0
171
     0
175
     0
179
     0
273
     0
  0
XRECORD
  5
4FF1
102
{ACAD_REACTORS
330
4FEF
102
}
330
4FEF
100
AcDbXrecord
280
     1
270
     1
271
     1
  0
XRECORD
  5
4FF0
102
{ACAD_REACTORS
330
4FEF
102
}
330
4FEF
100
AcDbXrecord
280
     1
270
     1
271
     1
  0
XRECORD
  5
4FF4
102
{ACAD_REACTORS
330
4FEF
102
}
330
4FEF
100
AcDbXrecord
280
     1
270
     1
271
     1
  0
XRECORD
  5
4FF3
102
{ACAD_REACTORS
330
4FEF
102
}
330
4FEF
100
AcDbXrecord
280
     1
270
     1
271
     1
  0
XRECORD
  5
4FF5
102
{ACAD_REACTORS
330
4FEF
102
}
330
4FEF
100
AcDbXrecord
280
     1
270
     1
271
     1
  0
XRECORD
  5
4FF2
102
{ACAD_REACTORS
330
4FEF
102
}
330
4FEF
100
AcDbXrecord
280
     1
270
     1
271
     1
  0
XRECORD
  5
7E9E0
102
{ACAD_REACTORS
330
4FE7
102
}
330
4FE7
100
AcDbXrecord
280
     1
102
MATERIAL
148
0.0
149
0.0
149
0.0
 93
        0
 94
      127
282
     0
 72
     0
 77
     0
171
     0
175
     0
179
     0
273
     0
  0
XRECORD
  5
4FE9
102
{ACAD_REACTORS
330
4FE7
102
}
330
4FE7
100
AcDbXrecord
280
     1
270
     1
271
     1
  0
XRECORD
  5
4FE8
102
{ACAD_REACTORS
330
4FE7
102
}
330
4FE7
100
AcDbXrecord
280
     1
270
     1
271
     1
  0
XRECORD
  5
4FEC
102
{ACAD_REACTORS
330
4FE7
102
}
330
4FE7
100
AcDbXrecord
280
     1
270
     1
271
     1
  0
XRECORD
  5
4FEB
102
{ACAD_REACTORS
330
4FE7
102
}
330
4FE7
100
AcDbXrecord
280
     1
270
     1
271
     1
  0
XRECORD
  5
4FED
102
{ACAD_REACTORS
330
4FE7
102
}
330
4FE7
100
AcDbXrecord
280
     1
270
     1
271
     1
  0
XRECORD
  5
4FEA
102
{ACAD_REACTORS
330
4FE7
102
}
330
4FE7
100
AcDbXrecord
280
     1
270
     1
271
     1
  0
XRECORD
  5
7E9E2
102
{ACAD_REACTORS
330
4FF7
102
}
330
4FF7
100
AcDbXrecord
280
     1
102
MATERIAL
148
0.0
149
0.0
149
0.0
 93
        0
 94
      127
282
     0
 72
     0
 77
     0
171
     0
175
     0
179
     0
273
     0
  0
XRECORD
  5
4FF9
102
{ACAD_REACTORS
330
4FF7
102
}
330
4FF7
100
AcDbXrecord
280
     1
270
     1
271
     1
  0
XRECORD
  5
4FF8
102
{ACAD_REACTORS
330
4FF7
102
}
330
4FF7
100
AcDbXrecord
280
     1
270
     1
271
     1
  0
XRECORD
  5
4FFC
102
{ACAD_REACTORS
330
4FF7
102
}
330
4FF7
100
AcDbXrecord
280
     1
270
     1
271
     1
  0
XRECORD
  5
4FFB
102
{ACAD_REACTORS
330
4FF7
102
}
330
4FF7
100
AcDbXrecord
280
     1
270
     1
271
     1
  0
XRECORD
  5
4FFD
102
{ACAD_REACTORS
330
4FF7
102
}
330
4FF7
100
AcDbXrecord
280
     1
270
     1
271
     1
  0
XRECORD
  5
4FFA
102
{ACAD_REACTORS
330
4FF7
102
}
330
4FF7
100
AcDbXrecord
280
     1
270
     1
271
     1
  0
CELLSTYLEMAP
  5
7EBC3
102
{ACAD_REACTORS
330
50D6
102
}
330
50D6
100
AcDbCellStyleMap
 90
        3
300
CELLSTYLE
  1
TABLEFORMAT_BEGIN
 90
        5
170
     1
 91
        0
 92
    32768
 62
   257
 93
        1
300
CONTENTFORMAT
  1
CONTENTFORMAT_BEGIN
 90
        0
 91
        0
 92
      512
 93
        0
300

 40
0.0
140
1.0
 94
        5
 62
     0
340
11
144
0.25
309
CONTENTFORMAT_END
171
     1
301
MARGIN
  1
CELLMARGIN_BEGIN
 40
0.06
 40
0.06
 40
0.06
 40
0.06
 40
0.18
 40
0.18
309
CELLMARGIN_END
 94
        6
 95
        1
302
GRIDFORMAT
  1
GRIDFORMAT_BEGIN
 90
        0
 91
        1
 62
     0
 92
       -2
340
0
 93
        0
 40
0.045
309
GRIDFORMAT_END
 95
        2
302
GRIDFORMAT
  1
GRIDFORMAT_BEGIN
 90
        0
 91
        1
 62
     0
 92
       -2
340
0
 93
        0
 40
0.045
309
GRIDFORMAT_END
 95
        4
302
GRIDFORMAT
  1
GRIDFORMAT_BEGIN
 90
        0
 91
        1
 62
     0
 92
       -2
340
0
 93
        0
 40
0.045
309
GRIDFORMAT_END
 95
        8
302
GRIDFORMAT
  1
GRIDFORMAT_BEGIN
 90
        0
 91
        1
 62
     0
 92
       -2
340
0
 93
        0
 40
0.045
309
GRIDFORMAT_END
 95
       16
302
GRIDFORMAT
  1
GRIDFORMAT_BEGIN
 90
        0
 91
        1
 62
     0
 92
       -2
340
0
 93
        0
 40
0.045
309
GRIDFORMAT_END
 95
       32
302
GRIDFORMAT
  1
GRIDFORMAT_BEGIN
 90
        0
 91
        1
 62
     0
 92
       -2
340
0
 93
        0
 40
0.045
309
GRIDFORMAT_END
309
TABLEFORMAT_END
  1
CELLSTYLE_BEGIN
 90
        1
 91
        1
300
_TITLE
309
CELLSTYLE_END
300
CELLSTYLE
  1
TABLEFORMAT_BEGIN
 90
        5
170
     1
 91
        0
 92
        0
 62
   257
 93
        1
300
CONTENTFORMAT
  1
CONTENTFORMAT_BEGIN
 90
        0
 91
        0
 92
      512
 93
        0
300

 40
0.0
140
1.0
 94
        5
 62
     0
340
11
144
0.18
309
CONTENTFORMAT_END
171
     1
301
MARGIN
  1
CELLMARGIN_BEGIN
 40
0.06
 40
0.06
 40
0.06
 40
0.06
 40
0.18
 40
0.18
309
CELLMARGIN_END
 94
        6
 95
        1
302
GRIDFORMAT
  1
GRIDFORMAT_BEGIN
 90
        0
 91
        1
 62
     0
 92
       -2
340
0
 93
        0
 40
0.045
309
GRIDFORMAT_END
 95
        2
302
GRIDFORMAT
  1
GRIDFORMAT_BEGIN
 90
        0
 91
        1
 62
     0
 92
       -2
340
0
 93
        0
 40
0.045
309
GRIDFORMAT_END
 95
        4
302
GRIDFORMAT
  1
GRIDFORMAT_BEGIN
 90
        0
 91
        1
 62
     0
 92
       -2
340
0
 93
        0
 40
0.045
309
GRIDFORMAT_END
 95
        8
302
GRIDFORMAT
  1
GRIDFORMAT_BEGIN
 90
        0
 91
        1
 62
     0
 92
       -2
340
0
 93
        0
 40
0.045
309
GRIDFORMAT_END
 95
       16
302
GRIDFORMAT
  1
GRIDFORMAT_BEGIN
 90
        0
 91
        1
 62
     0
 92
       -2
340
0
 93
        0
 40
0.045
309
GRIDFORMAT_END
 95
       32
302
GRIDFORMAT
  1
GRIDFORMAT_BEGIN
 90
        0
 91
        1
 62
     0
 92
       -2
340
0
 93
        0
 40
0.045
309
GRIDFORMAT_END
309
TABLEFORMAT_END
  1
CELLSTYLE_BEGIN
 90
        2
 91
        1
300
_HEADER
309
CELLSTYLE_END
300
CELLSTYLE
  1
TABLEFORMAT_BEGIN
 90
        5
170
     1
 91
        0
 92
        0
 62
   257
 93
        1
300
CONTENTFORMAT
  1
CONTENTFORMAT_BEGIN
 90
        0
 91
        0
 92
      512
 93
        0
300

 40
0.0
140
1.0
 94
        2
 62
     0
340
11
144
0.18
309
CONTENTFORMAT_END
171
     1
301
MARGIN
  1
CELLMARGIN_BEGIN
 40
0.06
 40
0.06
 40
0.06
 40
0.06
 40
0.18
 40
0.18
309
CELLMARGIN_END
 94
        6
 95
        1
302
GRIDFORMAT
  1
GRIDFORMAT_BEGIN
 90
        0
 91
        1
 62
     0
 92
       -2
340
0
 93
        0
 40
0.045
309
GRIDFORMAT_END
 95
        2
302
GRIDFORMAT
  1
GRIDFORMAT_BEGIN
 90
        0
 91
        1
 62
     0
 92
       -2
340
0
 93
        0
 40
0.045
309
GRIDFORMAT_END
 95
        4
302
GRIDFORMAT
  1
GRIDFORMAT_BEGIN
 90
        0
 91
        1
 62
     0
 92
       -2
340
0
 93
        0
 40
0.045
309
GRIDFORMAT_END
 95
        8
302
GRIDFORMAT
  1
GRIDFORMAT_BEGIN
 90
        0
 91
        1
 62
     0
 92
       -2
340
0
 93
        0
 40
0.045
309
GRIDFORMAT_END
 95
       16
302
GRIDFORMAT
  1
GRIDFORMAT_BEGIN
 90
        0
 91
        1
 62
     0
 92
       -2
340
0
 93
        0
 40
0.045
309
GRIDFORMAT_END
 95
       32
302
GRIDFORMAT
  1
GRIDFORMAT_BEGIN
 90
        0
 91
        1
 62
     0
 92
       -2
340
0
 93
        0
 40
0.045
309
GRIDFORMAT_END
309
TABLEFORMAT_END
  1
CELLSTYLE_BEGIN
 90
        3
 91
        2
300
_DATA
309
CELLSTYLE_END
  0
XRECORD
  5
7EA30
102
{ACAD_REACTORS
330
7EA2F
102
}
330
7EA2F
100
AcDbXrecord
280
     1
102
RTVSPropertyOp0
 70
     1
102
RTVSPropertyOp1
 70
     1
102
RTVSPropertyOp2
 70
     1
102
RTVSPropertyOp3
 70
     1
102
RTVSPropertyOp4
 70
     1
102
RTVSPropertyOp5
 70
     1
102
RTVSPropertyOp6
 70
     1
102
RTVSPropertyOp7
 70
     1
102
RTVSPropertyOp8
 70
     1
102
RTVSPropertyOp9
 70
     1
102
RTVSPropertyOp10
 70
     1
102
RTVSPropertyOp11
 70
     1
102
RTVSPropertyOp12
 70
     1
102
RTVSPropertyOp13
 70
     1
102
RTVSPropertyOp14
 70
     1
102
RTVSPropertyOp15
 70
     1
102
RTVSPropertyOp16
 70
     1
102
RTVSPropertyOp17
 70
     1
102
RTVSPropertyOp18
 70
     1
102
RTVSPropertyOp19
 70
     1
102
RTVSPropertyOp20
 70
     1
102
RTVSPropertyOp21
 70
     1
102
RTVSPropertyOp22
 70
     1
102
RTVSPropertyOp23
 70
     1
102
RTVSPropertyOp24
 70
     1
102
RTVSPropertyOp25
 70
     1
102
RTVSPropertyOp26
 70
     1
102
RTVSPropertyOp27
 70
     1
  0
XRECORD
  5
7EA34
102
{ACAD_REACTORS
330
7EA33
102
}
330
7EA33
100
AcDbXrecord
280
     1
102
RTVSPropertyOp0
 70
     1
102
RTVSPropertyOp1
 70
     1
102
RTVSPropertyOp2
 70
     1
102
RTVSPropertyOp3
 70
     1
102
RTVSPropertyOp4
 70
     1
102
RTVSPropertyOp5
 70
     1
102
RTVSPropertyOp6
 70
     1
102
RTVSPropertyOp7
 70
     1
102
RTVSPropertyOp8
 70
     1
102
RTVSPropertyOp9
 70
     1
102
RTVSPropertyOp10
 70
     1
102
RTVSPropertyOp11
 70
     1
102
RTVSPropertyOp12
 70
     1
102
RTVSPropertyOp13
 70
     1
102
RTVSPropertyOp14
 70
     1
102
RTVSPropertyOp15
 70
     1
102
RTVSPropertyOp16
 70
     1
102
RTVSPropertyOp17
 70
     1
102
RTVSPropertyOp18
 70
     1
102
RTVSPropertyOp19
 70
     1
102
RTVSPropertyOp20
 70
     1
102
RTVSPropertyOp21
 70
     1
102
RTVSPropertyOp22
 70
     1
102
RTVSPropertyOp23
 70
     1
102
RTVSPropertyOp24
 70
     1
102
RTVSPropertyOp25
 70
     1
102
RTVSPropertyOp26
 70
     1
102
RTVSPropertyOp27
 70
     1
  0
XRECORD
  5
7EA32
102
{ACAD_REACTORS
330
7EA31
102
}
330
7EA31
100
AcDbXrecord
280
     1
102
RTVSPropertyOp0
 70
     1
102
RTVSPropertyOp1
 70
     1
102
RTVSPropertyOp2
 70
     1
102
RTVSPropertyOp3
 70
     1
102
RTVSPropertyOp4
 70
     1
102
RTVSPropertyOp5
 70
     1
102
RTVSPropertyOp6
 70
     1
102
RTVSPropertyOp7
 70
     1
102
RTVSPropertyOp8
 70
     1
102
RTVSPropertyOp9
 70
     1
102
RTVSPropertyOp10
 70
     1
102
RTVSPropertyOp11
 70
     1
102
RTVSPropertyOp12
 70
     1
102
RTVSPropertyOp13
 70
     1
102
RTVSPropertyOp14
 70
     1
102
RTVSPropertyOp15
 70
     1
102
RTVSPropertyOp16
 70
     1
102
RTVSPropertyOp17
 70
     1
102
RTVSPropertyOp18
 70
     1
102
RTVSPropertyOp19
 70
     1
102
RTVSPropertyOp20
 70
     1
102
RTVSPropertyOp21
 70
     1
102
RTVSPropertyOp22
 70
     1
102
RTVSPropertyOp23
 70
     1
102
RTVSPropertyOp24
 70
     1
102
RTVSPropertyOp25
 70
     1
102
RTVSPropertyOp26
 70
     1
102
RTVSPropertyOp27
 70
     1
  0
XRECORD
  5
7EA36
102
{ACAD_REACTORS
330
7EA35
102
}
330
7EA35
100
AcDbXrecord
280
     1
102
RTVSPropertyOp0
 70
     1
102
RTVSPropertyOp1
 70
     1
102
RTVSPropertyOp2
 70
     1
102
RTVSPropertyOp3
 70
     1
102
RTVSPropertyOp4
 70
     1
102
RTVSPropertyOp5
 70
     1
102
RTVSPropertyOp6
 70
     1
102
RTVSPropertyOp7
 70
     1
102
RTVSPropertyOp8
 70
     1
102
RTVSPropertyOp9
 70
     1
102
RTVSPropertyOp10
 70
     1
102
RTVSPropertyOp11
 70
     1
102
RTVSPropertyOp12
 70
     1
102
RTVSPropertyOp13
 70
     1
102
RTVSPropertyOp14
 70
     1
102
RTVSPropertyOp15
 70
     1
102
RTVSPropertyOp16
 70
     1
102
RTVSPropertyOp17
 70
     1
102
RTVSPropertyOp18
 70
     1
102
RTVSPropertyOp19
 70
     1
102
RTVSPropertyOp20
 70
     1
102
RTVSPropertyOp21
 70
     1
102
RTVSPropertyOp22
 70
     1
102
RTVSPropertyOp23
 70
     1
102
RTVSPropertyOp24
 70
     1
102
RTVSPropertyOp25
 70
     1
102
RTVSPropertyOp26
 70
     1
102
RTVSPropertyOp27
 70
     1
  0
XRECORD
  5
7EA3E
102
{ACAD_REACTORS
330
7EA3D
102
}
330
7EA3D
100
AcDbXrecord
280
     1
102
RTVSPropertyOp0
 70
     1
102
RTVSPropertyOp1
 70
     1
102
RTVSPropertyOp2
 70
     1
102
RTVSPropertyOp3
 70
     1
102
RTVSPropertyOp4
 70
     1
102
RTVSPropertyOp5
 70
     1
102
RTVSPropertyOp6
 70
     1
102
RTVSPropertyOp7
 70
     1
102
RTVSPropertyOp8
 70
     1
102
RTVSPropertyOp9
 70
     1
102
RTVSPropertyOp10
 70
     1
102
RTVSPropertyOp11
 70
     1
102
RTVSPropertyOp12
 70
     1
102
RTVSPropertyOp13
 70
     1
102
RTVSPropertyOp14
 70
     1
102
RTVSPropertyOp15
 70
     1
102
RTVSPropertyOp16
 70
     1
102
RTVSPropertyOp17
 70
     1
102
RTVSPropertyOp18
 70
     1
102
RTVSPropertyOp19
 70
     1
102
RTVSPropertyOp20
 70
     1
102
RTVSPropertyOp21
 70
     1
102
RTVSPropertyOp22
 70
     1
102
RTVSPropertyOp23
 70
     1
102
RTVSPropertyOp24
 70
     1
102
RTVSPropertyOp25
 70
     1
102
RTVSPropertyOp26
 70
     1
102
RTVSPropertyOp27
 70
     1
  0
XRECORD
  5
7EA46
102
{ACAD_REACTORS
330
7EA45
102
}
330
7EA45
100
AcDbXrecord
280
     1
102
RTVSPropertyOp0
 70
     1
102
RTVSPropertyOp1
 70
     1
102
RTVSPropertyOp2
 70
     1
102
RTVSPropertyOp3
 70
     1
102
RTVSPropertyOp4
 70
     1
102
RTVSPropertyOp5
 70
     1
102
RTVSPropertyOp6
 70
     1
102
RTVSPropertyOp7
 70
     1
102
RTVSPropertyOp8
 70
     1
102
RTVSPropertyOp9
 70
     1
102
RTVSPropertyOp10
 70
     1
102
RTVSPropertyOp11
 70
     1
102
RTVSPropertyOp12
 70
     1
102
RTVSPropertyOp13
 70
     1
102
RTVSPropertyOp14
 70
     1
102
RTVSPropertyOp15
 70
     1
102
RTVSPropertyOp16
 70
     1
102
RTVSPropertyOp17
 70
     1
102
RTVSPropertyOp18
 70
     1
102
RTVSPropertyOp19
 70
     1
102
RTVSPropertyOp20
 70
     1
102
RTVSPropertyOp21
 70
     1
102
RTVSPropertyOp22
 70
     1
102
RTVSPropertyOp23
 70
     1
102
RTVSPropertyOp24
 70
     1
102
RTVSPropertyOp25
 70
     1
102
RTVSPropertyOp26
 70
     1
102
RTVSPropertyOp27
 70
     1
  0
XRECORD
  5
7EA3A
102
{ACAD_REACTORS
330
7EA39
102
}
330
7EA39
100
AcDbXrecord
280
     1
102
RTVSPropertyOp0
 70
     1
102
RTVSPropertyOp1
 70
     1
102
RTVSPropertyOp2
 70
     1
102
RTVSPropertyOp3
 70
     1
102
RTVSPropertyOp4
 70
     1
102
RTVSPropertyOp5
 70
     1
102
RTVSPropertyOp6
 70
     1
102
RTVSPropertyOp7
 70
     1
102
RTVSPropertyOp8
 70
     1
102
RTVSPropertyOp9
 70
     1
102
RTVSPropertyOp10
 70
     1
102
RTVSPropertyOp11
 70
     1
102
RTVSPropertyOp12
 70
     1
102
RTVSPropertyOp13
 70
     1
102
RTVSPropertyOp14
 70
     1
102
RTVSPropertyOp15
 70
     1
102
RTVSPropertyOp16
 70
     1
102
RTVSPropertyOp17
 70
     1
102
RTVSPropertyOp18
 70
     1
102
RTVSPropertyOp19
 70
     1
102
RTVSPropertyOp20
 70
     1
102
RTVSPropertyOp21
 70
     1
102
RTVSPropertyOp22
 70
     1
102
RTVSPropertyOp23
 70
     1
102
RTVSPropertyOp24
 70
     1
102
RTVSPropertyOp25
 70
     1
102
RTVSPropertyOp26
 70
     1
102
RTVSPropertyOp27
 70
     1
  0
XRECORD
  5
7EA3C
102
{ACAD_REACTORS
330
7EA3B
102
}
330
7EA3B
100
AcDbXrecord
280
     1
102
RTVSPropertyOp0
 70
     1
102
RTVSPropertyOp1
 70
     1
102
RTVSPropertyOp2
 70
     1
102
RTVSPropertyOp3
 70
     1
102
RTVSPropertyOp4
 70
     1
102
RTVSPropertyOp5
 70
     1
102
RTVSPropertyOp6
 70
     1
102
RTVSPropertyOp7
 70
     1
102
RTVSPropertyOp8
 70
     1
102
RTVSPropertyOp9
 70
     1
102
RTVSPropertyOp10
 70
     1
102
RTVSPropertyOp11
 70
     1
102
RTVSPropertyOp12
 70
     1
102
RTVSPropertyOp13
 70
     1
102
RTVSPropertyOp14
 70
     1
102
RTVSPropertyOp15
 70
     1
102
RTVSPropertyOp16
 70
     1
102
RTVSPropertyOp17
 70
     1
102
RTVSPropertyOp18
 70
     1
102
RTVSPropertyOp19
 70
     1
102
RTVSPropertyOp20
 70
     1
102
RTVSPropertyOp21
 70
     1
102
RTVSPropertyOp22
 70
     1
102
RTVSPropertyOp23
 70
     1
102
RTVSPropertyOp24
 70
     1
102
RTVSPropertyOp25
 70
     1
102
RTVSPropertyOp26
 70
     1
102
RTVSPropertyOp27
 70
     1
  0
XRECORD
  5
7EA4F
102
{ACAD_REACTORS
330
7EA4E
102
}
330
7EA4E
100
AcDbXrecord
280
     1
102
RTVSPropertyOp0
 70
     0
102
RTVSPropertyOp1
 70
     0
102
RTVSPropertyOp2
 70
     0
102
RTVSPropertyOp3
 70
     0
102
RTVSPropertyOp4
 70
     0
102
RTVSPropertyOp5
 70
     0
102
RTVSPropertyOp6
 70
     0
102
RTVSPropertyOp7
 70
     0
102
RTVSPropertyOp8
 70
     0
102
RTVSPropertyOp9
 70
     0
102
RTVSPropertyOp10
 70
     0
102
RTVSPropertyOp11
 70
     0
102
RTVSPropertyOp12
 70
     0
102
RTVSPropertyOp13
 70
     0
102
RTVSPropertyOp14
 70
     2
102
RTVSPropertyOp15
 70
     0
102
RTVSPropertyOp16
 70
     0
102
RTVSPropertyOp17
 70
     0
102
RTVSPropertyOp18
 70
     0
102
RTVSPropertyOp19
 70
     0
102
RTVSPropertyOp20
 70
     0
102
RTVSPropertyOp21
 70
     0
102
RTVSPropertyOp22
 70
     0
102
RTVSPropertyOp23
 70
     0
102
RTVSPropertyOp24
 70
     0
102
RTVSPropertyOp25
 70
     0
102
RTVSPropertyOp26
 70
     0
102
RTVSPropertyOp27
 70
     0
  0
XRECORD
  5
7EA44
102
{ACAD_REACTORS
330
7EA43
102
}
330
7EA43
100
AcDbXrecord
280
     1
102
RTVSPropertyOp0
 70
     1
102
RTVSPropertyOp1
 70
     1
102
RTVSPropertyOp2
 70
     1
102
RTVSPropertyOp3
 70
     1
102
RTVSPropertyOp4
 70
     1
102
RTVSPropertyOp5
 70
     1
102
RTVSPropertyOp6
 70
     1
102
RTVSPropertyOp7
 70
     1
102
RTVSPropertyOp8
 70
     1
102
RTVSPropertyOp9
 70
     1
102
RTVSPropertyOp10
 70
     1
102
RTVSPropertyOp11
 70
     1
102
RTVSPropertyOp12
 70
     1
102
RTVSPropertyOp13
 70
     1
102
RTVSPropertyOp14
 70
     1
102
RTVSPropertyOp15
 70
     1
102
RTVSPropertyOp16
 70
     1
102
RTVSPropertyOp17
 70
     1
102
RTVSPropertyOp18
 70
     1
102
RTVSPropertyOp19
 70
     1
102
RTVSPropertyOp20
 70
     1
102
RTVSPropertyOp21
 70
     1
102
RTVSPropertyOp22
 70
     1
102
RTVSPropertyOp23
 70
     1
102
RTVSPropertyOp24
 70
     1
102
RTVSPropertyOp25
 70
     1
102
RTVSPropertyOp26
 70
     1
102
RTVSPropertyOp27
 70
     1
  0
XRECORD
  5
7EA28
102
{ACAD_REACTORS
330
7EA27
102
}
330
7EA27
100
AcDbXrecord
280
     1
102
RTVSPropertyOp0
 70
     1
102
RTVSPropertyOp1
 70
     1
102
RTVSPropertyOp2
 70
     1
102
RTVSPropertyOp3
 70
     1
102
RTVSPropertyOp4
 70
     1
102
RTVSPropertyOp5
 70
     1
102
RTVSPropertyOp6
 70
     1
102
RTVSPropertyOp7
 70
     1
102
RTVSPropertyOp8
 70
     1
102
RTVSPropertyOp9
 70
     1
102
RTVSPropertyOp10
 70
     1
102
RTVSPropertyOp11
 70
     1
102
RTVSPropertyOp12
 70
     1
102
RTVSPropertyOp13
 70
     1
102
RTVSPropertyOp14
 70
     1
102
RTVSPropertyOp15
 70
     1
102
RTVSPropertyOp16
 70
     1
102
RTVSPropertyOp17
 70
     1
102
RTVSPropertyOp18
 70
     1
102
RTVSPropertyOp19
 70
     1
102
RTVSPropertyOp20
 70
     1
102
RTVSPropertyOp21
 70
     1
102
RTVSPropertyOp22
 70
     1
102
RTVSPropertyOp23
 70
     1
102
RTVSPropertyOp24
 70
     1
102
RTVSPropertyOp25
 70
     1
102
RTVSPropertyOp26
 70
     1
102
RTVSPropertyOp27
 70
     1
  0
XRECORD
  5
7EA2A
102
{ACAD_REACTORS
330
7EA29
102
}
330
7EA29
100
AcDbXrecord
280
     1
102
RTVSPropertyOp0
 70
     1
102
RTVSPropertyOp1
 70
     1
102
RTVSPropertyOp2
 70
     1
102
RTVSPropertyOp3
 70
     1
102
RTVSPropertyOp4
 70
     1
102
RTVSPropertyOp5
 70
     1
102
RTVSPropertyOp6
 70
     1
102
RTVSPropertyOp7
 70
     1
102
RTVSPropertyOp8
 70
     1
102
RTVSPropertyOp9
 70
     1
102
RTVSPropertyOp10
 70
     1
102
RTVSPropertyOp11
 70
     1
102
RTVSPropertyOp12
 70
     1
102
RTVSPropertyOp13
 70
     1
102
RTVSPropertyOp14
 70
     1
102
RTVSPropertyOp15
 70
     1
102
RTVSPropertyOp16
 70
     1
102
RTVSPropertyOp17
 70
     1
102
RTVSPropertyOp18
 70
     1
102
RTVSPropertyOp19
 70
     1
102
RTVSPropertyOp20
 70
     1
102
RTVSPropertyOp21
 70
     1
102
RTVSPropertyOp22
 70
     1
102
RTVSPropertyOp23
 70
     1
102
RTVSPropertyOp24
 70
     1
102
RTVSPropertyOp25
 70
     1
102
RTVSPropertyOp26
 70
     1
102
RTVSPropertyOp27
 70
     1
  0
XRECORD
  5
7EA2C
102
{ACAD_REACTORS
330
7EA2B
102
}
330
7EA2B
100
AcDbXrecord
280
     1
102
RTVSPropertyOp0
 70
     1
102
RTVSPropertyOp1
 70
     1
102
RTVSPropertyOp2
 70
     1
102
RTVSPropertyOp3
 70
     1
102
RTVSPropertyOp4
 70
     1
102
RTVSPropertyOp5
 70
     1
102
RTVSPropertyOp6
 70
     1
102
RTVSPropertyOp7
 70
     1
102
RTVSPropertyOp8
 70
     1
102
RTVSPropertyOp9
 70
     1
102
RTVSPropertyOp10
 70
     1
102
RTVSPropertyOp11
 70
     1
102
RTVSPropertyOp12
 70
     1
102
RTVSPropertyOp13
 70
     1
102
RTVSPropertyOp14
 70
     1
102
RTVSPropertyOp15
 70
     1
102
RTVSPropertyOp16
 70
     1
102
RTVSPropertyOp17
 70
     1
102
RTVSPropertyOp18
 70
     1
102
RTVSPropertyOp19
 70
     1
102
RTVSPropertyOp20
 70
     1
102
RTVSPropertyOp21
 70
     1
102
RTVSPropertyOp22
 70
     1
102
RTVSPropertyOp23
 70
     1
102
RTVSPropertyOp24
 70
     1
102
RTVSPropertyOp25
 70
     1
102
RTVSPropertyOp26
 70
     1
102
RTVSPropertyOp27
 70
     1
  0
XRECORD
  5
7EA2E
102
{ACAD_REACTORS
330
7EA2D
102
}
330
7EA2D
100
AcDbXrecord
280
     1
102
RTVSPropertyOp0
 70
     1
102
RTVSPropertyOp1
 70
     1
102
RTVSPropertyOp2
 70
     1
102
RTVSPropertyOp3
 70
     1
102
RTVSPropertyOp4
 70
     1
102
RTVSPropertyOp5
 70
     1
102
RTVSPropertyOp6
 70
     1
102
RTVSPropertyOp7
 70
     1
102
RTVSPropertyOp8
 70
     1
102
RTVSPropertyOp9
 70
     1
102
RTVSPropertyOp10
 70
     1
102
RTVSPropertyOp11
 70
     1
102
RTVSPropertyOp12
 70
     1
102
RTVSPropertyOp13
 70
     1
102
RTVSPropertyOp14
 70
     1
102
RTVSPropertyOp15
 70
     1
102
RTVSPropertyOp16
 70
     1
102
RTVSPropertyOp17
 70
     1
102
RTVSPropertyOp18
 70
     1
102
RTVSPropertyOp19
 70
     1
102
RTVSPropertyOp20
 70
     1
102
RTVSPropertyOp21
 70
     1
102
RTVSPropertyOp22
 70
     1
102
RTVSPropertyOp23
 70
     1
102
RTVSPropertyOp24
 70
     1
102
RTVSPropertyOp25
 70
     1
102
RTVSPropertyOp26
 70
     1
102
RTVSPropertyOp27
 70
     1
  0
XRECORD
  5
7EA4B
102
{ACAD_REACTORS
330
7EA4A
102
}
330
7EA4A
100
AcDbXrecord
280
     1
102
RTVSPropertyOp0
 70
     0
102
RTVSPropertyOp1
 70
     0
102
RTVSPropertyOp2
 70
     0
102
RTVSPropertyOp3
 70
     0
102
RTVSPropertyOp4
 70
     0
102
RTVSPropertyOp5
 70
     0
102
RTVSPropertyOp6
 70
     0
102
RTVSPropertyOp7
 70
     0
102
RTVSPropertyOp8
 70
     0
102
RTVSPropertyOp9
 70
     0
102
RTVSPropertyOp10
 70
     0
102
RTVSPropertyOp11
 70
     0
102
RTVSPropertyOp12
 70
     0
102
RTVSPropertyOp13
 70
     0
102
RTVSPropertyOp14
 70
     2
102
RTVSPropertyOp15
 70
     0
102
RTVSPropertyOp16
 70
     0
102
RTVSPropertyOp17
 70
     0
102
RTVSPropertyOp18
 70
     0
102
RTVSPropertyOp19
 70
     0
102
RTVSPropertyOp20
 70
     0
102
RTVSPropertyOp21
 70
     0
102
RTVSPropertyOp22
 70
     0
102
RTVSPropertyOp23
 70
     0
102
RTVSPropertyOp24
 70
     0
102
RTVSPropertyOp25
 70
     0
102
RTVSPropertyOp26
 70
     0
102
RTVSPropertyOp27
 70
     0
  0
XRECORD
  5
7EA42
102
{ACAD_REACTORS
330
7EA41
102
}
330
7EA41
100
AcDbXrecord
280
     1
102
RTVSPropertyOp0
 70
     1
102
RTVSPropertyOp1
 70
     1
102
RTVSPropertyOp2
 70
     1
102
RTVSPropertyOp3
 70
     1
102
RTVSPropertyOp4
 70
     1
102
RTVSPropertyOp5
 70
     1
102
RTVSPropertyOp6
 70
     1
102
RTVSPropertyOp7
 70
     1
102
RTVSPropertyOp8
 70
     1
102
RTVSPropertyOp9
 70
     1
102
RTVSPropertyOp10
 70
     1
102
RTVSPropertyOp11
 70
     1
102
RTVSPropertyOp12
 70
     1
102
RTVSPropertyOp13
 70
     1
102
RTVSPropertyOp14
 70
     1
102
RTVSPropertyOp15
 70
     1
102
RTVSPropertyOp16
 70
     1
102
RTVSPropertyOp17
 70
     1
102
RTVSPropertyOp18
 70
     1
102
RTVSPropertyOp19
 70
     1
102
RTVSPropertyOp20
 70
     1
102
RTVSPropertyOp21
 70
     1
102
RTVSPropertyOp22
 70
     1
102
RTVSPropertyOp23
 70
     1
102
RTVSPropertyOp24
 70
     1
102
RTVSPropertyOp25
 70
     1
102
RTVSPropertyOp26
 70
     1
102
RTVSPropertyOp27
 70
     1
  0
XRECORD
  5
7EA4D
102
{ACAD_REACTORS
330
7EA4C
102
}
330
7EA4C
100
AcDbXrecord
280
     1
102
RTVSPropertyOp0
 70
     0
102
RTVSPropertyOp1
 70
     0
102
RTVSPropertyOp2
 70
     0
102
RTVSPropertyOp3
 70
     0
102
RTVSPropertyOp4
 70
     0
102
RTVSPropertyOp5
 70
     0
102
RTVSPropertyOp6
 70
     0
102
RTVSPropertyOp7
 70
     0
102
RTVSPropertyOp8
 70
     0
102
RTVSPropertyOp9
 70
     0
102
RTVSPropertyOp10
 70
     0
102
RTVSPropertyOp11
 70
     0
102
RTVSPropertyOp12
 70
     0
102
RTVSPropertyOp13
 70
     0
102
RTVSPropertyOp14
 70
     2
102
RTVSPropertyOp15
 70
     0
102
RTVSPropertyOp16
 70
     0
102
RTVSPropertyOp17
 70
     0
102
RTVSPropertyOp18
 70
     0
102
RTVSPropertyOp19
 70
     0
102
RTVSPropertyOp20
 70
     0
102
RTVSPropertyOp21
 70
     0
102
RTVSPropertyOp22
 70
     0
102
RTVSPropertyOp23
 70
     0
102
RTVSPropertyOp24
 70
     0
102
RTVSPropertyOp25
 70
     0
102
RTVSPropertyOp26
 70
     0
102
RTVSPropertyOp27
 70
     0
  0
XRECORD
  5
7EA38
102
{ACAD_REACTORS
330
7EA37
102
}
330
7EA37
100
AcDbXrecord
280
     1
102
RTVSPropertyOp0
 70
     1
102
RTVSPropertyOp1
 70
     1
102
RTVSPropertyOp2
 70
     1
102
RTVSPropertyOp3
 70
     1
102
RTVSPropertyOp4
 70
     1
102
RTVSPropertyOp5
 70
     1
102
RTVSPropertyOp6
 70
     1
102
RTVSPropertyOp7
 70
     1
102
RTVSPropertyOp8
 70
     1
102
RTVSPropertyOp9
 70
     1
102
RTVSPropertyOp10
 70
     1
102
RTVSPropertyOp11
 70
     1
102
RTVSPropertyOp12
 70
     1
102
RTVSPropertyOp13
 70
     1
102
RTVSPropertyOp14
 70
     1
102
RTVSPropertyOp15
 70
     1
102
RTVSPropertyOp16
 70
     1
102
RTVSPropertyOp17
 70
     1
102
RTVSPropertyOp18
 70
     1
102
RTVSPropertyOp19
 70
     1
102
RTVSPropertyOp20
 70
     1
102
RTVSPropertyOp21
 70
     1
102
RTVSPropertyOp22
 70
     1
102
RTVSPropertyOp23
 70
     1
102
RTVSPropertyOp24
 70
     1
102
RTVSPropertyOp25
 70
     1
102
RTVSPropertyOp26
 70
     1
102
RTVSPropertyOp27
 70
     1
  0
XRECORD
  5
7EA40
102
{ACAD_REACTORS
330
7EA3F
102
}
330
7EA3F
100
AcDbXrecord
280
     1
102
RTVSPropertyOp0
 70
     1
102
RTVSPropertyOp1
 70
     1
102
RTVSPropertyOp2
 70
     1
102
RTVSPropertyOp3
 70
     1
102
RTVSPropertyOp4
 70
     1
102
RTVSPropertyOp5
 70
     1
102
RTVSPropertyOp6
 70
     1
102
RTVSPropertyOp7
 70
     1
102
RTVSPropertyOp8
 70
     1
102
RTVSPropertyOp9
 70
     1
102
RTVSPropertyOp10
 70
     1
102
RTVSPropertyOp11
 70
     1
102
RTVSPropertyOp12
 70
     1
102
RTVSPropertyOp13
 70
     1
102
RTVSPropertyOp14
 70
     1
102
RTVSPropertyOp15
 70
     1
102
RTVSPropertyOp16
 70
     1
102
RTVSPropertyOp17
 70
     1
102
RTVSPropertyOp18
 70
     1
102
RTVSPropertyOp19
 70
     1
102
RTVSPropertyOp20
 70
     1
102
RTVSPropertyOp21
 70
     1
102
RTVSPropertyOp22
 70
     1
102
RTVSPropertyOp23
 70
     1
102
RTVSPropertyOp24
 70
     1
102
RTVSPropertyOp25
 70
     1
102
RTVSPropertyOp26
 70
     1
102
RTVSPropertyOp27
 70
     1
  0
ENDSEC
  0
EOF
