  0
SECTION
  2
HEADER
  9
$ACADVER
  1
AC1018
  9
$ACADMAINTVER
 70
   104
  9
$DWGCODEPAGE
  3
ANSI_936
  9
$LASTSAVEDBY
  1
hq.zhang
  9
$INSBASE
 10
0.0
 20
0.0
 30
0.0
  9
$EXTMIN
 10
362.2152430620301
 20
184.5734201987893
 30
0.0
  9
$EXTMAX
 10
436.4649306331561
 20
237.0734202942363
 30
0.0
  9
$LIMMIN
 10
0.0
 20
0.0
  9
$LIMMAX
 10
12.0
 20
9.0
  9
$ORTHOMODE
 70
     0
  9
$REGENMODE
 70
     1
  9
$FILLMODE
 70
     1
  9
$QTEXTMODE
 70
     0
  9
$MIRRTEXT
 70
     1
  9
$LTSCALE
 40
1.0
  9
$ATTMODE
 70
     1
  9
$TEXTSIZE
 40
0.2
  9
$TRACEWID
 40
0.05
  9
$TEXTSTYLE
  7
Standard
  9
$CLAYER
  8
DIM
  9
$CELTYPE
  6
ByLayer
  9
$CECOLOR
 62
   256
  9
$CELTSCALE
 40
1.0
  9
$DISPSILH
 70
     0
  9
$DIMSCALE
 40
1.0
  9
$DIMASZ
 40
1.199999999999999
  9
$DIMEXO
 40
0.2
  9
$DIMDLI
 40
0.2
  9
$DIMRND
 40
0.0
  9
$DIMDLE
 40
0.0
  9
$DIMEXE
 40
0.5
  9
$DIMTP
 40
0.0
  9
$DIMTM
 40
0.0
  9
$DIMTXT
 40
1.5
  9
$DIMCEN
 40
0.0
  9
$DIMTSZ
 40
0.0
  9
$DIMTOL
 70
     0
  9
$DIMLIM
 70
     0
  9
$DIMTIH
 70
     0
  9
$DIMTOH
 70
     0
  9
$DIMSE1
 70
     0
  9
$DIMSE2
 70
     0
  9
$DIMTAD
 70
     1
  9
$DIMZIN
 70
     8
  9
$DIMBLK
  1

  9
$DIMASO
 70
     1
  9
$DIMSHO
 70
     1
  9
$DIMPOST
  1

  9
$DIMAPOST
  1

  9
$DIMALT
 70
     0
  9
$DIMALTD
 70
     2
  9
$DIMALTF
 40
25.4
  9
$DIMLFAC
 40
1.0
  9
$DIMTOFL
 70
     0
  9
$DIMTVP
 40
0.0
  9
$DIMTIX
 70
     0
  9
$DIMSOXD
 70
     0
  9
$DIMSAH
 70
     0
  9
$DIMBLK1
  1

  9
$DIMBLK2
  1

  9
$DIMSTYLE
  2
01
  9
$DIMCLRD
 70
     1
  9
$DIMCLRE
 70
     6
  9
$DIMCLRT
 70
     4
  9
$DIMTFAC
 40
1.0
  9
$DIMGAP
 40
0.5
  9
$DIMJUST
 70
     0
  9
$DIMSD1
 70
     0
  9
$DIMSD2
 70
     0
  9
$DIMTOLJ
 70
     1
  9
$DIMTZIN
 70
     0
  9
$DIMALTZ
 70
     0
  9
$DIMALTTZ
 70
     0
  9
$DIMUPT
 70
     0
  9
$DIMDEC
 70
     1
  9
$DIMTDEC
 70
     1
  9
$DIMALTU
 70
     2
  9
$DIMALTTD
 70
     2
  9
$DIMTXSTY
  7
Romans字体
  9
$DIMAUNIT
 70
     0
  9
$DIMADEC
 70
     2
  9
$DIMALTRND
 40
0.0
  9
$DIMAZIN
 70
     2
  9
$DIMDSEP
 70
    46
  9
$DIMATFIT
 70
     3
  9
$DIMFRAC
 70
     0
  9
$DIMLDRBLK
  1

  9
$DIMLUNIT
 70
     2
  9
$DIMLWD
 70
    -2
  9
$DIMLWE
 70
    -2
  9
$DIMTMOVE
 70
     0
  9
$LUNITS
 70
     2
  9
$LUPREC
 70
     4
  9
$SKETCHINC
 40
0.1
  9
$FILLETRAD
 40
0.5
  9
$AUNITS
 70
     0
  9
$AUPREC
 70
     0
  9
$MENU
  1
.
  9
$ELEVATION
 40
0.0
  9
$PELEVATION
 40
0.0
  9
$THICKNESS
 40
0.0
  9
$LIMCHECK
 70
     0
  9
$CHAMFERA
 40
0.5
  9
$CHAMFERB
 40
0.5
  9
$CHAMFERC
 40
1.0
  9
$CHAMFERD
 40
0.0
  9
$SKPOLY
 70
     0
  9
$TDCREATE
 40
2456524.383632987
  9
$TDUCREATE
 40
2456524.050299653
  9
$TDUPDATE
 40
2457826.395176458
  9
$TDUUPDATE
 40
2457826.061843125
  9
$TDINDWG
 40
1.2240019097
  9
$TDUSRTIMER
 40
1.2239826157
  9
$USRTIMER
 70
     1
  9
$ANGBASE
 50
0.0
  9
$ANGDIR
 70
     0
  9
$PDMODE
 70
     0
  9
$PDSIZE
 40
0.0
  9
$PLINEWID
 40
0.0
  9
$SPLFRAME
 70
     0
  9
$SPLINETYPE
 70
     6
  9
$SPLINESEGS
 70
     8
  9
$HANDSEED
  5
18B56
  9
$SURFTAB1
 70
     6
  9
$SURFTAB2
 70
     6
  9
$SURFTYPE
 70
     6
  9
$SURFU
 70
     6
  9
$SURFV
 70
     6
  9
$UCSBASE
  2

  9
$UCSNAME
  2

  9
$UCSORG
 10
0.0
 20
0.0
 30
0.0
  9
$UCSXDIR
 10
1.0
 20
0.0
 30
0.0
  9
$UCSYDIR
 10
0.0
 20
1.0
 30
0.0
  9
$UCSORTHOREF
  2

  9
$UCSORTHOVIEW
 70
     0
  9
$UCSORGTOP
 10
0.0
 20
0.0
 30
0.0
  9
$UCSORGBOTTOM
 10
0.0
 20
0.0
 30
0.0
  9
$UCSORGLEFT
 10
0.0
 20
0.0
 30
0.0
  9
$UCSORGRIGHT
 10
0.0
 20
0.0
 30
0.0
  9
$UCSORGFRONT
 10
0.0
 20
0.0
 30
0.0
  9
$UCSORGBACK
 10
0.0
 20
0.0
 30
0.0
  9
$PUCSBASE
  2

  9
$PUCSNAME
  2

  9
$PUCSORG
 10
0.0
 20
0.0
 30
0.0
  9
$PUCSXDIR
 10
1.0
 20
0.0
 30
0.0
  9
$PUCSYDIR
 10
0.0
 20
1.0
 30
0.0
  9
$PUCSORTHOREF
  2

  9
$PUCSORTHOVIEW
 70
     0
  9
$PUCSORGTOP
 10
0.0
 20
0.0
 30
0.0
  9
$PUCSORGBOTTOM
 10
0.0
 20
0.0
 30
0.0
  9
$PUCSORGLEFT
 10
0.0
 20
0.0
 30
0.0
  9
$PUCSORGRIGHT
 10
0.0
 20
0.0
 30
0.0
  9
$PUCSORGFRONT
 10
0.0
 20
0.0
 30
0.0
  9
$PUCSORGBACK
 10
0.0
 20
0.0
 30
0.0
  9
$USERI1
 70
     0
  9
$USERI2
 70
     0
  9
$USERI3
 70
     0
  9
$USERI4
 70
     0
  9
$USERI5
 70
     0
  9
$USERR1
 40
0.0
  9
$USERR2
 40
0.0
  9
$USERR3
 40
0.0
  9
$USERR4
 40
0.0
  9
$USERR5
 40
2.5
  9
$WORLDVIEW
 70
     1
  9
$SHADEDGE
 70
     3
  9
$SHADEDIF
 70
    70
  9
$TILEMODE
 70
     1
  9
$MAXACTVP
 70
    64
  9
$PINSBASE
 10
0.0
 20
0.0
 30
0.0
  9
$PLIMCHECK
 70
     0
  9
$PEXTMIN
 10
1.000000000000000E+20
 20
1.000000000000000E+20
 30
1.000000000000000E+20
  9
$PEXTMAX
 10
-1.000000000000000E+20
 20
-1.000000000000000E+20
 30
-1.000000000000000E+20
  9
$PLIMMIN
 10
0.0
 20
0.0
  9
$PLIMMAX
 10
12.0
 20
9.0
  9
$UNITMODE
 70
     0
  9
$VISRETAIN
 70
     1
  9
$PLINEGEN
 70
     0
  9
$PSLTSCALE
 70
     1
  9
$TREEDEPTH
 70
  3020
  9
$CMLSTYLE
  2
Standard
  9
$CMLJUST
 70
     0
  9
$CMLSCALE
 40
1.0
  9
$PROXYGRAPHICS
 70
     1
  9
$MEASUREMENT
 70
     0
  9
$CELWEIGHT
370
    -1
  9
$ENDCAPS
280
     0
  9
$JOINSTYLE
280
     0
  9
$LWDISPLAY
290
     0
  9
$INSUNITS
 70
     4
  9
$HYPERLINKBASE
  1

  9
$STYLESHEET
  1
MONOCHROME.CTB
  9
$XEDIT
290
     1
  9
$CEPSNTYPE
380
     0
  9
$PSTYLEMODE
290
     1
  9
$FINGERPRINTGUID
  2
{4A02065B-8BB3-4A96-9036-502DC906C165}
  9
$VERSIONGUID
  2
{ABBA583F-2ABC-41D2-A439-963C0B20F756}
  9
$EXTNAMES
290
     1
  9
$PSVPSCALE
 40
0.0
  9
$OLESTARTUP
290
     0
  9
$SORTENTS
280
   127
  9
$INDEXCTL
280
     0
  9
$HIDETEXT
280
     0
  9
$XCLIPFRAME
290
     0
  9
$HALOGAP
280
     0
  9
$OBSCOLOR
 70
   257
  9
$OBSLTYPE
280
     0
  9
$INTERSECTIONDISPLAY
280
     0
  9
$INTERSECTIONCOLOR
 70
   257
  9
$DIMASSOC
280
     1
  9
$PROJECTNAME
  1

  0
ENDSEC
  0
SECTION
  2
CLASSES
  0
CLASS
  1
ACDBDICTIONARYWDFLT
  2
AcDbDictionaryWithDefault
  3
ObjectDBX Classes
 90
        0
 91
        1
280
     0
281
     0
  0
CLASS
  1
VISUALSTYLE
  2
AcDbVisualStyle
  3
ObjectDBX Classes
 90
     4095
 91
       16
280
     0
281
     0
  0
CLASS
  1
MATERIAL
  2
AcDbMaterial
  3
ObjectDBX Classes
 90
     1153
 91
        3
280
     0
281
     0
  0
CLASS
  1
TABLESTYLE
  2
AcDbTableStyle
  3
ObjectDBX Classes
 90
     4095
 91
        1
280
     0
281
     0
  0
CLASS
  1
SCALE
  2
AcDbScale
  3
ObjectDBX Classes
 90
     1153
 91
       33
280
     0
281
     0
  0
CLASS
  1
MLEADERSTYLE
  2
AcDbMLeaderStyle
  3
ACDB_MLEADERSTYLE_CLASS
 90
     4095
 91
        1
280
     0
281
     0
  0
CLASS
  1
CELLSTYLEMAP
  2
AcDbCellStyleMap
  3
ObjectDBX Classes
 90
     1152
 91
        2
280
     0
281
     0
  0
CLASS
  1
DICTIONARYVAR
  2
AcDbDictionaryVar
  3
ObjectDBX Classes
 90
        0
 91
        8
280
     0
281
     0
  0
CLASS
  1
SORTENTSTABLE
  2
AcDbSortentsTable
  3
ObjectDBX Classes
 90
        0
 91
        1
280
     0
281
     0
  0
CLASS
  1
ACAD_EVALUATION_GRAPH
  2
AcDbEvalGraph
  3
ObjectDBX Classes
 90
     1153
 91
        0
280
     0
281
     0
  0
CLASS
  1
ACAECUSTOBJ
  2
AcAeEditorObj
  3
AcAeEditorObj
 90
     1024
 91
        0
280
     0
281
     0
  0
CLASS
  1
ACDB_DYNAMICBLOCKPURGEPREVENTER_VERSION
  2
AcDbDynamicBlockPurgePreventer
  3
ObjectDBX Classes
 90
     1153
 91
        0
280
     0
281
     0
  0
CLASS
  1
MENTALRAYRENDERSETTINGS
  2
AcDbMentalRayRenderSettings
  3
SCENEOE
 90
     1024
 91
        1
280
     0
281
     0
  0
CLASS
  1
ACDB_BLOCKREPRESENTATION_DATA
  2
AcDbBlockRepresentationData
  3
ObjectDBX Classes
 90
     1153
 91
        0
280
     0
281
     0
  0
CLASS
  1
DIMASSOC
  2
AcDbDimAssoc
  3
"AcDbDimAssoc|Product Desc:     AcDim ARX App For Dimension|Company:          Autodesk, Inc.|WEB Address:      www.autodesk.com"
 90
        0
 91
        1
280
     0
281
     0
  0
CLASS
  1
VLO-VL
  2
vlo_VL
  3
VL|AutoLISP based application
 90
      129
 91
        1
280
     0
281
     0
  0
CLASS
  1
BREAKDATA
  2
AcDbBreakData
  3
ObjectDBX Classes
 90
     1024
 91
        0
280
     0
281
     0
  0
ENDSEC
  0
SECTION
  2
TABLES
  0
TABLE
  2
VPORT
  5
8
102
{ACAD_XDICTIONARY
360
50EE
102
}
330
0
100
AcDbSymbolTable
 70
     1
  0
VPORT
  5
29
330
8
100
AcDbSymbolTableRecord
100
AcDbViewportTableRecord
  2
*Active
 70
     0
 10
0.0
 20
0.0
 11
1.0
 21
1.0
 12
294.3939387951313
 22
62.31655216699113
 13
0.0
 23
0.0
 14
0.5
 24
0.5
 15
0.5
 25
0.5
 16
0.0
 26
0.0
 36
1.0
 17
104.9654968719086
 27
148.5022307685978
 37
0.0
 40
53.10893185925007
 41
2.103875968992248
 42
50.0
 43
0.0
 44
0.0
 50
0.0
 51
0.0
 71
     0
 72
 10000
 73
     1
 74
     3
 75
     0
 76
     0
 77
     0
 78
     0
281
     0
 65
     1
110
0.0
120
0.0
130
0.0
111
1.0
121
0.0
131
0.0
112
0.0
122
1.0
132
0.0
 79
     0
146
0.0
  0
ENDTAB
  0
TABLE
  2
LTYPE
  5
5
330
0
100
AcDbSymbolTable
 70
     2
  0
LTYPE
  5
14
330
5
100
AcDbSymbolTableRecord
100
AcDbLinetypeTableRecord
  2
ByBlock
 70
     0
  3

 72
    65
 73
     0
 40
0.0
  0
LTYPE
  5
15
330
5
100
AcDbSymbolTableRecord
100
AcDbLinetypeTableRecord
  2
ByLayer
 70
     0
  3

 72
    65
 73
     0
 40
0.0
  0
LTYPE
  5
16
330
5
100
AcDbSymbolTableRecord
100
AcDbLinetypeTableRecord
  2
Continuous
 70
     0
  3
Solid line
 72
    65
 73
     0
 40
0.0
  0
LTYPE
  5
67BA
330
5
100
AcDbSymbolTableRecord
100
AcDbLinetypeTableRecord
  2
CENTER
 70
     0
  3
Center ____ _ ____ _ ____ _ ____ _ ____ _ ____
 72
    65
 73
     4
 40
2.0
 49
1.25
 74
     0
 49
-0.25
 74
     0
 49
0.25
 74
     0
 49
-0.25
 74
     0
  0
ENDTAB
  0
TABLE
  2
LAYER
  5
2
102
{ACAD_XDICTIONARY
360
50B8
102
}
330
0
100
AcDbSymbolTable
 70
     9
  0
LAYER
  5
10
102
{ACAD_XDICTIONARY
360
50D0
102
}
330
2
100
AcDbSymbolTableRecord
100
AcDbLayerTableRecord
  2
0
 70
     0
 62
     7
  6
Continuous
370
    25
390
F
  0
LAYER
  5
3B
102
{ACAD_XDICTIONARY
360
50D2
102
}
330
2
100
AcDbSymbolTableRecord
100
AcDbLayerTableRecord
  2
图层 1
 70
     0
 62
     7
  6
Continuous
370
    -3
390
F
  0
LAYER
  5
50AE
102
{ACAD_XDICTIONARY
360
50AF
102
}
330
2
100
AcDbSymbolTableRecord
100
AcDbLayerTableRecord
  2
图框
 70
     0
 62
     7
  6
Continuous
370
    20
390
F
  0
LAYER
  5
5141
330
2
100
AcDbSymbolTableRecord
100
AcDbLayerTableRecord
  2
Defpoints
 70
     0
 62
     7
  6
Continuous
290
     0
370
    -3
390
F
  0
LAYER
  5
5144
330
2
100
AcDbSymbolTableRecord
100
AcDbLayerTableRecord
  2
DIM
 70
     0
 62
     3
  6
Continuous
370
    15
390
F
1001
AcAecLayerStandard
1000

1000

  0
LAYER
  5
52F3
330
2
100
AcDbSymbolTableRecord
100
AcDbLayerTableRecord
  2
打标文字
 70
     0
 62
     3
  6
Continuous
370
    20
390
F
  0
LAYER
  5
67B7
330
2
100
AcDbSymbolTableRecord
100
AcDbLayerTableRecord
  2
CEN
 70
     0
 62
     1
  6
CENTER
370
    15
390
F
1001
AcAecLayerStandard
1000

1000

  0
LAYER
  5
11B6B
330
2
100
AcDbSymbolTableRecord
100
AcDbLayerTableRecord
  2
hat
 70
     0
 62
     6
  6
Continuous
370
    15
390
F
1001
AcAecLayerStandard
1000

1000

  0
LAYER
  5
11B6D
330
2
100
AcDbSymbolTableRecord
100
AcDbLayerTableRecord
  2
文本
 70
     0
 62
     4
  6
Continuous
370
    25
390
11B6F
  0
ENDTAB
  0
TABLE
  2
STYLE
  5
3
330
0
100
AcDbSymbolTable
 70
     4
  0
STYLE
  5
11
330
3
100
AcDbSymbolTableRecord
100
AcDbTextStyleTableRecord
  2
Standard
 70
     0
 40
0.0
 41
0.75
 50
0.0
 71
     0
 42
0.2
  3
仿宋_GB2312.ttf
  4

1001
ACAD
1000
FangSong_GB2312
1071
    34353
  0
STYLE
  5
FD48
330
3
100
AcDbSymbolTableRecord
100
AcDbTextStyleTableRecord
  2
Romans字体
 70
     0
 40
0.0
 41
0.75
 50
0.0
 71
     0
 42
0.2
  3
romans.shx
  4

  0
STYLE
  5
11080
330
3
100
AcDbSymbolTableRecord
100
AcDbTextStyleTableRecord
  2
工程字
 70
     0
 40
0.0
 41
1.0
 50
0.0
 71
     0
 42
3.5
  3
gbenor.shx
  4
gbcbig.shx
  0
STYLE
  5
11081
330
3
100
AcDbSymbolTableRecord
100
AcDbTextStyleTableRecord
  2
Chinese
 70
     0
 40
0.0
 41
1.0
 50
0.0
 71
     0
 42
2.5
  3
PMingLiU.ttf
  4

1001
ACAD
1000
PMingLiU
1071
    34834
  0
ENDTAB
  0
TABLE
  2
VIEW
  5
6
330
0
100
AcDbSymbolTable
 70
     0
  0
ENDTAB
  0
TABLE
  2
UCS
  5
7
330
0
100
AcDbSymbolTable
 70
     0
  0
ENDTAB
  0
TABLE
  2
APPID
  5
9
330
0
100
AcDbSymbolTable
 70
    19
  0
APPID
  5
12
330
9
100
AcDbSymbolTableRecord
100
AcDbRegAppTableRecord
  2
ACAD
 70
     0
  0
APPID
  5
5024
330
9
100
AcDbSymbolTableRecord
100
AcDbRegAppTableRecord
  2
ACAD_MLEADERVER
 70
     0
  0
APPID
  5
50B5
330
9
100
AcDbSymbolTableRecord
100
AcDbRegAppTableRecord
  2
AcDbDynamicBlockGUID
 70
     0
  0
APPID
  5
50B6
330
9
100
AcDbSymbolTableRecord
100
AcDbRegAppTableRecord
  2
AcDbBlockRepETag
 70
     0
  0
APPID
  5
50B7
330
9
100
AcDbSymbolTableRecord
100
AcDbRegAppTableRecord
  2
ACAD_PSEXT
 70
     0
  0
APPID
  5
50CF
330
9
100
AcDbSymbolTableRecord
100
AcDbRegAppTableRecord
  2
AcadAnnoPO
 70
     0
  0
APPID
  5
5146
330
9
100
AcDbSymbolTableRecord
100
AcDbRegAppTableRecord
  2
AcAecLayerStandard
 70
     0
  0
APPID
  5
5147
330
9
100
AcDbSymbolTableRecord
100
AcDbRegAppTableRecord
  2
ACAD_DSTYLE_DIMJAG
 70
     0
  0
APPID
  5
5148
330
9
100
AcDbSymbolTableRecord
100
AcDbRegAppTableRecord
  2
ACAD_DSTYLE_DIMTALN
 70
     0
  0
APPID
  5
52AD
330
9
100
AcDbSymbolTableRecord
100
AcDbRegAppTableRecord
  2
ACAUTHENVIRON
 70
     0
  0
APPID
  5
52B0
330
9
100
AcDbSymbolTableRecord
100
AcDbRegAppTableRecord
  2
AcDbDynamicBlockTrueName
 70
     0
  0
APPID
  5
67C6
330
9
100
AcDbSymbolTableRecord
100
AcDbRegAppTableRecord
  2
ACAD_EXEMPT_FROM_CAD_STANDARDS
 70
     0
  0
APPID
  5
6838
330
9
100
AcDbSymbolTableRecord
100
AcDbRegAppTableRecord
  2
ACAD_NAV_VCDISPLAY
 70
     0
  0
APPID
  5
70A9
330
9
100
AcDbSymbolTableRecord
100
AcDbRegAppTableRecord
  2
DCO15
 70
     0
  0
APPID
  5
8725
330
9
100
AcDbSymbolTableRecord
100
AcDbRegAppTableRecord
  2
AcDbBlockRepBTag
 70
     0
  0
APPID
  5
FE64
330
9
100
AcDbSymbolTableRecord
100
AcDbRegAppTableRecord
  2
ACAD_DSTYLE_DIMRADIAL_EXTENSION
 70
     0
  0
APPID
  5
FF93
330
9
100
AcDbSymbolTableRecord
100
AcDbRegAppTableRecord
  2
ACAD_DSTYLE_DIMBREAK
 70
     0
  0
APPID
  5
141C8
330
9
100
AcDbSymbolTableRecord
100
AcDbRegAppTableRecord
  2
ACAD_DSTYLE_DIMINSPECT
 70
     0
  0
APPID
  5
18583
330
9
100
AcDbSymbolTableRecord
100
AcDbRegAppTableRecord
  2
ACAD_DSTYLE_DIM_LINETYPE
 70
     0
  0
ENDTAB
  0
TABLE
  2
DIMSTYLE
  5
A
330
0
100
AcDbSymbolTable
 70
     2
100
AcDbDimStyleTable
 71
     2
340
5145
340
27
  0
DIMSTYLE
105
27
330
A
100
AcDbSymbolTableRecord
100
AcDbDimStyleTableRecord
  2
Standard
 70
     0
340
11
  0
DIMSTYLE
105
5145
102
{ACAD_REACTORS
330
17425
330
17426
330
17427
330
17429
330
17442
102
}
330
A
100
AcDbSymbolTableRecord
100
AcDbDimStyleTableRecord
  2
01
 70
     0
 41
1.199999999999999
 42
0.2
 43
0.2
 44
0.5
 73
     0
 74
     0
 77
     1
 78
     8
 79
     2
140
1.5
141
0.0
147
0.5
176
     1
177
     6
178
     4
179
     2
271
     1
272
     1
340
FD48
1001
ACAD_DSTYLE_DIMJAG
1070
   388
1040
1.5
1001
ACAD_DSTYLE_DIMTALN
1070
   392
1070
     0
  0
ENDTAB
  0
TABLE
  2
BLOCK_RECORD
  5
1
330
0
100
AcDbSymbolTable
 70
     9
  0
BLOCK_RECORD
  5
1F
102
{ACAD_XDICTIONARY
360
67C0
102
}
330
1
100
AcDbSymbolTableRecord
100
AcDbBlockTableRecord
  2
*Model_Space
340
22
  0
BLOCK_RECORD
  5
1B
330
1
100
AcDbSymbolTableRecord
100
AcDbBlockTableRecord
  2
*Paper_Space
340
1E
  0
BLOCK_RECORD
  5
23
330
1
100
AcDbSymbolTableRecord
100
AcDbBlockTableRecord
  2
*Paper_Space0
340
26
  0
BLOCK_RECORD
  5
13E17
102
{ACAD_XDICTIONARY
360
188B2
102
}
330
1
100
AcDbSymbolTableRecord
100
AcDbBlockTableRecord
  2
A4图框-NEW
340
0
310
2800000020000000200000000100080000000000000400000000000000000000000000000000000000000000000080000080000000808000800000008000800080800000C0C0C000C0DCC000F0CAA6000020400000206000002080000020A0000020C0000020E00000400000004020000040400000406000004080000040A0
310
000040C0000040E00000600000006020000060400000606000006080000060A0000060C0000060E00000800000008020000080400000806000008080000080A0000080C0000080E00000A0000000A0200000A0400000A0600000A0800000A0A00000A0C00000A0E00000C0000000C0200000C0400000C0600000C0800000C0
310
A00000C0C00000C0E00000E0000000E0200000E0400000E0600000E0800000E0A00000E0C00000E0E00040000000400020004000400040006000400080004000A0004000C0004000E00040200000402020004020400040206000402080004020A0004020C0004020E000404000004040200040404000404060004040800040
310
40A0004040C0004040E00040600000406020004060400040606000406080004060A0004060C0004060E00040800000408020004080400040806000408080004080A0004080C0004080E00040A0000040A0200040A0400040A0600040A0800040A0A00040A0C00040A0E00040C0000040C0200040C0400040C0600040C08000
310
40C0A00040C0C00040C0E00040E0000040E0200040E0400040E0600040E0800040E0A00040E0C00040E0E00080000000800020008000400080006000800080008000A0008000C0008000E00080200000802020008020400080206000802080008020A0008020C0008020E00080400000804020008040400080406000804080
310
008040A0008040C0008040E00080600000806020008060400080606000806080008060A0008060C0008060E00080800000808020008080400080806000808080008080A0008080C0008080E00080A0000080A0200080A0400080A0600080A0800080A0A00080A0C00080A0E00080C0000080C0200080C0400080C0600080C0
310
800080C0A00080C0C00080C0E00080E0000080E0200080E0400080E0600080E0800080E0A00080E0C00080E0E000C0000000C0002000C0004000C0006000C0008000C000A000C000C000C000E000C0200000C0202000C0204000C0206000C0208000C020A000C020C000C020E000C0400000C0402000C0404000C0406000C0
310
408000C040A000C040C000C040E000C0600000C0602000C0604000C0606000C0608000C060A000C060C000C060E000C0800000C0802000C0804000C0806000C0808000C080A000C080C000C080E000C0A00000C0A02000C0A04000C0A06000C0A08000C0A0A000C0A0C000C0A0E000C0C00000C0C02000C0C04000C0C06000
310
C0C08000C0C0A000F0FBFF00A4A0A000808080000000FF0000FF000000FFFF00FF000000FF00FF00FFFF0000FFFFFF0000000000000000000000000000000000000000000000000000000000000000000000000000000000000000000000000000000000000000000000000000000000000000000000000000000000000000
310
000000000000000000000000000000000000000000000000000000000000000000000000000000000000000000000000000000000000000000000000000000000000000000000000000000000000000000000000000000000000000000000000000000000000000000000000000000000000F9F9F9F9F9F9F9F9F9F9F9F9F9
310
F9F9F9F9F9F9F9F9F9F9F9F9F9F9FF00000000F9FF000000000000000000FFFFFFFFFFFFFFFFFFFFFFFFF9FAFAFAFF00000000F9FF000000000000000000FFFFFFFFFFFFFFFFFFFFFFFFFFFFFFFFFF00000000F9FD000000000000000000FFFFFFFFFFFFFFFFFFFFFFFFFFFFFFFFFF00000000F9FF000000000000000000FF
310
FFFFFFFFFFFFFFFFFFFFFFFFFFFFFFFF00000000F9FD000000000000000000FFFFFFFFFFFFFFFFFFFFFFFFFFFFFFFFFF00000000F9FF00000000000000000000000000000000000000000000000000FF00000000F9FD00000000000000000000000000000000000000000000000000FF00000000F9FF000000000000000000
310
00000000000000000000000000000000FF00000000F9FD00000000000000000000000000000000000000000000000000FF00000000F9FF00000000000000000000000000000000000000000000000000FF00000000F9FD00000000000000000000000000000000000000000000000000FF00000000F9FD0000000000000000
310
0000000000000000000000000000000000FF00000000F9FF00000000000000000000000000000000000000000000000000FF00000000F9FD00000000000000000000000000000000000000000000000000FF00000000F9FF00000000000000000000000000000000000000000000000000FF00000000F9FD00000000000000
310
000000000000000000000000000000000000FF00000000F9FF00000000000000000000000000000000000000000000000000FF00000000F9FFFFFFFFFFFFFFFFFFFFFFFFFFFFFFFFFFFFFFFFFFFFFFFFFFFFFF00000000F9FFFFFFF9F9F9F9F9F9F9F9F9F9F9F9F9F9F9F9F9F9F9F9F9F9F9F9000000000000000000000000
310
00000000000000000000000000000000000000000000000000000000000000000000000000000000000000000000000000000000000000000000000000000000000000000000000000000000000000000000000000000000000000000000000000000000000000000000000000000000000000000000000000000000000000
310
0000000000000000000000000000000000000000000000000000000000000000000000000000000000000000000000000000000000000000
102
{BLKREFS
331
13EBE
102
}
1001
AcDbDynamicBlockGUID
1000
{B594FB91-3E1F-4F7D-AEB0-79AE0353AEC3}
1001
AcDbBlockRepETag
1070
     1
1071
      153
1001
ACAD
1000
DesignCenter Data
1002
{
1070
     1
1070
     4
1002
}
  0
BLOCK_RECORD
  5
17444
330
1
100
AcDbSymbolTableRecord
100
AcDbBlockTableRecord
  2
*D3
340
0
  0
BLOCK_RECORD
  5
17451
330
1
100
AcDbSymbolTableRecord
100
AcDbBlockTableRecord
  2
*D4
340
0
  0
BLOCK_RECORD
  5
1745E
330
1
100
AcDbSymbolTableRecord
100
AcDbBlockTableRecord
  2
*D5
340
0
  0
BLOCK_RECORD
  5
1746B
330
1
100
AcDbSymbolTableRecord
100
AcDbBlockTableRecord
  2
*D6
340
0
  0
BLOCK_RECORD
  5
17496
330
1
100
AcDbSymbolTableRecord
100
AcDbBlockTableRecord
  2
*D7
340
0
  0
ENDTAB
  0
ENDSEC
  0
SECTION
  2
BLOCKS
  0
BLOCK
  5
20
330
1F
100
AcDbEntity
  8
0
100
AcDbBlockBegin
  2
*Model_Space
 70
     0
 10
0.0
 20
0.0
 30
0.0
  3
*Model_Space
  1

  0
ENDBLK
  5
21
330
1F
100
AcDbEntity
  8
0
100
AcDbBlockEnd
  0
BLOCK
  5
1C
330
1B
100
AcDbEntity
 67
     1
  8
0
100
AcDbBlockBegin
  2
*Paper_Space
 70
     0
 10
0.0
 20
0.0
 30
0.0
  3
*Paper_Space
  1

  0
ENDBLK
  5
1D
330
1B
100
AcDbEntity
 67
     1
  8
0
100
AcDbBlockEnd
  0
BLOCK
  5
24
330
23
100
AcDbEntity
 67
     1
  8
0
100
AcDbBlockBegin
  2
*Paper_Space0
 70
     0
 10
0.0
 20
0.0
 30
0.0
  3
*Paper_Space0
  1

  0
ENDBLK
  5
25
330
23
100
AcDbEntity
 67
     1
  8
0
100
AcDbBlockEnd
  0
BLOCK
  5
13E19
330
13E17
100
AcDbEntity
  8
0
100
AcDbBlockBegin
  2
A4图框-NEW
 70
     0
 10
0.0
 20
0.0
 30
0.0
  3
A4图框-NEW
  1

  0
MTEXT
  5
1881E
102
{ACAD_XDICTIONARY
360
18B11
102
}
330
13E17
100
AcDbEntity
  8
图框
 62
     3
100
AcDbMText
 10
967.6594956750133
 20
499.7664151964293
 30
0.0
 40
2.2528
 41
15.50176341157864
 71
     5
 72
     5
  1
HQ ZHANG
  7
Romans字体
 73
     1
 44
1.0
1001
AcDbBlockRepETag
1070
     1
1071
        0
1005
1881E
1001
ACAD
1000
ACAD_MTEXT_DEFINED_HEIGHT_BEGIN
1070
    46
1040
6.292658374511018
1000
ACAD_MTEXT_DEFINED_HEIGHT_END
  0
MTEXT
  5
1881F
330
13E17
100
AcDbEntity
  8
图框
 62
     3
100
AcDbMText
 10
983.041569333247
 20
499.7664151964293
 30
0.0
 40
2.2528
 41
15.50176341157864
 71
     5
 72
     5
  1
{\W0.7;19.11.2016}
  7
Romans字体
 73
     1
 44
1.0
1001
AcDbBlockRepETag
1070
     1
1071
        1
1005
1881F
1001
ACAD
1000
ACAD_MTEXT_DEFINED_HEIGHT_BEGIN
1070
    46
1040
6.292658374511042
1000
ACAD_MTEXT_DEFINED_HEIGHT_END
  0
MTEXT
  5
18820
330
13E17
100
AcDbEntity
  8
图框
 62
     3
100
AcDbMText
 10
1012.477254728976
 20
487.1810984474071
 30
0.0
 40
2.2528
 41
15.50176341157864
 71
     5
 72
     5
  1
YY LUO
  7
Romans字体
 73
     1
 44
1.0
1001
AcDbBlockRepETag
1070
     1
1071
        2
1005
18820
1001
ACAD
1000
ACAD_MTEXT_DEFINED_HEIGHT_BEGIN
1070
    46
1040
6.292658374511455
1000
ACAD_MTEXT_DEFINED_HEIGHT_END
  0
MTEXT
  5
18821
330
13E17
100
AcDbEntity
  8
图框
 62
     3
100
AcDbMText
 10
1063.722665487208
 20
525.4145966538831
 30
0.0
 40
2.2528
 41
15.50176341157864
 71
     5
 72
     5
  1
-
  7
Romans字体
 73
     1
 44
1.0
1001
AcDbBlockRepETag
1070
     1
1071
        4
1005
18821
1001
ACAD
1000
ACAD_MTEXT_DEFINED_HEIGHT_BEGIN
1070
    46
1040
11.82914190181707
1000
ACAD_MTEXT_DEFINED_HEIGHT_END
  0
MTEXT
  5
18822
330
13E17
100
AcDbEntity
  8
图框
 62
     3
100
AcDbMText
 10
1063.727338552349
 20
513.5854547520641
 30
0.0
 40
2.2528
 41
15.50176341157864
 71
     5
 72
     5
  1
-
  7
Romans字体
 73
     1
 44
1.0
1001
AcDbBlockRepETag
1070
     1
1071
        5
1005
18822
1001
ACAD
1000
ACAD_MTEXT_DEFINED_HEIGHT_BEGIN
1070
    46
1040
11.82914190182139
1000
ACAD_MTEXT_DEFINED_HEIGHT_END
  0
MTEXT
  5
18823
330
13E17
100
AcDbEntity
  8
图框
 62
     3
100
AcDbMText
 10
1110.122306614152
 20
526.8006839312707
 30
0.0
 40
2.2528
 41
15.50176341157864
 71
     5
 72
     5
  1
-
  7
Romans字体
 73
     1
 44
1.0
1001
AcDbBlockRepETag
1070
     1
1071
        6
1005
18823
1001
ACAD
1000
ACAD_MTEXT_DEFINED_HEIGHT_BEGIN
1070
    46
1040
9.05696734704178
1000
ACAD_MTEXT_DEFINED_HEIGHT_END
  0
MTEXT
  5
18824
330
13E17
100
AcDbEntity
  8
图框
 62
     3
100
AcDbMText
 10
1110.122306614152
 20
500.2775205517162
 30
0.0
 40
2.2528
 41
15.50176341157864
 71
     5
 72
     5
  1
-
  7
Romans字体
 73
     1
 44
1.0
1001
AcDbBlockRepETag
1070
     1
1071
        7
1005
18824
1001
ACAD
1000
ACAD_MTEXT_DEFINED_HEIGHT_BEGIN
1070
    46
1040
8.871557304763419
1000
ACAD_MTEXT_DEFINED_HEIGHT_END
  0
MTEXT
  5
18825
330
13E17
100
AcDbEntity
  8
图框
 62
     3
100
AcDbMText
 10
1012.477254728976
 20
499.7664151964291
 30
0.0
 40
2.2528
 41
15.50176341157864
 71
     5
 72
     5
  1
-
  7
Romans字体
 73
     1
 44
1.0
1001
AcDbBlockRepETag
1070
     1
1071
       10
1005
18825
1001
ACAD
1000
ACAD_MTEXT_DEFINED_HEIGHT_BEGIN
1070
    46
1040
6.292658374511397
1000
ACAD_MTEXT_DEFINED_HEIGHT_END
  0
MTEXT
  5
18826
330
13E17
100
AcDbEntity
  8
图框
 62
     3
100
AcDbMText
 10
1028.977802139886
 20
499.7664151964289
 30
0.0
 40
2.2528
 41
15.50176341157864
 71
     5
 72
     5
  1
-
  7
Romans字体
 73
     1
 44
1.0
1001
AcDbBlockRepETag
1070
     1
1071
       11
1005
18826
1001
ACAD
1000
ACAD_MTEXT_DEFINED_HEIGHT_BEGIN
1070
    46
1040
6.292658374511382
1000
ACAD_MTEXT_DEFINED_HEIGHT_END
  0
MTEXT
  5
18827
330
13E17
100
AcDbEntity
  8
图框
 62
     3
100
AcDbMText
 10
967.6594956750133
 20
487.1810984474071
 30
0.0
 40
2.985513575034151
 41
15.50176341157863
 71
     5
 72
     5
  1
-
  7
Romans字体
 73
     1
 44
1.0
1001
AcDbBlockRepETag
1070
     1
1071
       12
1005
18827
1001
ACAD
1000
ACAD_MTEXT_DEFINED_HEIGHT_BEGIN
1070
    46
1040
6.292658374511478
1000
ACAD_MTEXT_DEFINED_HEIGHT_END
  0
MTEXT
  5
18828
330
13E17
100
AcDbEntity
  8
图框
 62
     3
100
AcDbMText
 10
983.041569333247
 20
487.1810984474071
 30
0.0
 40
2.487927979195124
 41
15.26238390489062
 71
     5
 72
     5
  1
-
  7
Romans字体
 73
     1
 44
1.0
1001
AcDbBlockRepETag
1070
     1
1071
       13
1005
18828
1001
ACAD
1000
ACAD_MTEXT_DEFINED_HEIGHT_BEGIN
1070
    46
1040
6.292658374511495
1000
ACAD_MTEXT_DEFINED_HEIGHT_END
  0
MTEXT
  5
18829
330
13E17
100
AcDbEntity
  8
图框
 62
     3
100
AcDbMText
 10
1074.556686986741
 20
495.8417418993361
 30
0.0
 40
2.2528
 41
15.50176341157864
 71
     5
 72
     5
  1
-
  7
Romans字体
 73
     1
 44
1.0
1001
AcDbBlockRepETag
1070
     1
1071
       14
1005
18829
1001
ACAD
1000
ACAD_MTEXT_DEFINED_HEIGHT_BEGIN
1070
    46
1040
7.886094601210427
1000
ACAD_MTEXT_DEFINED_HEIGHT_END
  0
LINE
  5
1882A
330
13E17
100
AcDbEntity
  8
图框
370
    -3
100
AcDbLine
 10
1036.653967466372
 20
499.7847891999413
 30
0.0
 11
1079.971361203936
 21
499.7847891999413
 31
0.0
1001
AcDbBlockRepETag
1070
     1
1071
       15
1005
1882A
  0
MTEXT
  5
1882B
330
13E17
100
AcDbEntity
  8
图框
 62
     1
370
    20
100
AcDbMText
 10
1108.26336443907
 20
491.5162596080882
 30
0.0
 40
2.699054613030988
 41
82.30831305643079
 71
     5
 72
     5
  1
{\fSimHei|b0|i0|c134|p2;厦门唯恩电气有限公司}
 73
     1
 44
1.0
1001
AcDbBlockRepETag
1070
     1
1071
       16
1005
1882B
  0
MTEXT
  5
1882C
330
13E17
100
AcDbEntity
  8
图框
 62
     3
370
    20
100
AcDbMText
 10
1108.435451459908
 20
487.298967726064
 30
0.0
 40
1.652482416141417
 41
68.08558693693567
 71
     5
 72
     5
  1
{\fArial Narrow|b0|i0|c0|p34;XIAMEN WAIN ELECTRICAL CO.LTD}
  7
工程字
 73
     1
 44
1.0
1001
AcDbBlockRepETag
1070
     1
1071
       17
1005
1882C
  0
MTEXT
  5
1882D
330
13E17
100
AcDbEntity
  8
图框
 62
     1
370
    20
100
AcDbMText
 10
1085.711816899387
 20
491.0944802995856
 30
0.0
 40
2.005930044038334
 41
5.047240019334847
 71
     1
 72
     5
  1
{\fArial|b0|i0|c0|p34;A}
  7
Chinese
 73
     1
 44
1.0
1001
AcDbBlockRepETag
1070
     1
1071
       18
1005
1882D
  0
MTEXT
  5
1882E
330
13E17
100
AcDbEntity
  8
图框
 62
     1
370
    20
100
AcDbMText
 10
1088.213485935716
 20
491.0944802995856
 30
0.0
 40
2.005930044038334
 41
5.047240019334847
 71
     1
 72
     5
  1
{\fArial|b0|i0|c0|p34;I}
  7
Chinese
 73
     1
 44
1.0
1001
AcDbBlockRepETag
1070
     1
1071
       19
1005
1882E
  0
MTEXT
  5
1882F
330
13E17
100
AcDbEntity
  8
图框
 62
     1
370
    20
100
AcDbMText
 10
1089.142375222864
 20
491.0822866326808
 30
0.0
 40
2.005930044038334
 41
5.047240019334847
 71
     1
 72
     5
  1
{\fArial|b0|i0|c0|p34;N}
  7
Chinese
 73
     1
 44
1.0
1001
AcDbBlockRepETag
1070
     1
1071
       20
1005
1882F
  0
MTEXT
  5
18830
330
13E17
100
AcDbEntity
  8
图框
100
AcDbMText
 10
1069.142012769545
 20
487.9667319294409
 30
0.0
 40
2.252848170144607
 41
21.65869686878327
 71
     5
 72
     5
  1
{\W0.5;\C1;All Dimensions in mm\POriginal Size DIN A 4}
  7
Romans字体
 73
     1
 44
1.0
1001
AcDbBlockRepETag
1070
     1
1071
       21
1005
18830
1001
ACAD
1000
ACAD_MTEXT_DEFINED_HEIGHT_BEGIN
1070
    46
1040
7.863925338579296
1000
ACAD_MTEXT_DEFINED_HEIGHT_END
  0
MTEXT
  5
18831
330
13E17
100
AcDbEntity
  8
图框
  6
ByBlock
 62
     6
370
    18
100
AcDbMText
 10
1127.40434942308
 20
508.7896535755975
 30
0.0
 40
2.651776162684904
 41
2.557913877927211
 71
     1
 72
     5
  1
A
  7
Romans字体
 11
0.0000000000000001
 21
1.0
 31
0.0
 73
     1
 44
1.0
1001
AcDbBlockRepETag
1070
     1
1071
       22
1005
18831
  0
MTEXT
  5
18832
330
13E17
100
AcDbEntity
  8
图框
 62
     6
100
AcDbMText
 10
1127.40434942308
 20
556.3746573232886
 30
0.0
 40
2.651776162684904
 41
2.557913877927211
 71
     1
 72
     5
  1
B
  7
Romans字体
 11
0.0000000000000001
 21
1.0
 31
0.0
 73
     1
 44
1.0
1001
AcDbBlockRepETag
1070
     1
1071
       23
1005
18832
  0
MTEXT
  5
18833
330
13E17
100
AcDbEntity
  8
图框
 62
     6
100
AcDbMText
 10
1127.40434942308
 20
607.5539372630998
 30
0.0
 40
2.651776162684904
 41
2.557913877927211
 71
     1
 72
     5
  1
C
  7
Romans字体
 11
0.0000000000000001
 21
1.0
 31
0.0
 73
     1
 44
1.0
1001
AcDbBlockRepETag
1070
     1
1071
       24
1005
18833
  0
MTEXT
  5
18834
330
13E17
100
AcDbEntity
  8
图框
 62
     6
100
AcDbMText
 10
1127.40434942308
 20
658.7332172029115
 30
0.0
 40
2.651776162684904
 41
2.557913877927211
 71
     1
 72
     5
  1
D
  7
Romans字体
 11
0.0000000000000001
 21
1.0
 31
0.0
 73
     1
 44
1.0
1001
AcDbBlockRepETag
1070
     1
1071
       25
1005
18834
  0
LINE
  5
18835
330
13E17
100
AcDbEntity
  8
图框
 62
     6
100
AcDbLine
 10
1130.411601781241
 20
634.0726090796082
 30
0.0
 11
1126.928502610363
 21
634.0726090796082
 31
0.0
1001
AcDbBlockRepETag
1070
     1
1071
       26
1005
18835
  0
LINE
  5
18836
330
13E17
100
AcDbEntity
  8
图框
 62
     6
100
AcDbLine
 10
1130.411601781241
 20
582.89332913979
 30
0.0
 11
1126.928502610363
 21
582.89332913979
 31
0.0
1001
AcDbBlockRepETag
1070
     1
1071
       27
1005
18836
  0
MTEXT
  5
18837
330
13E17
100
AcDbEntity
  8
图框
 62
     6
100
AcDbMText
 10
1105.329704038389
 20
483.6164543011163
 30
0.0
 40
2.651776162684904
 41
2.557913877927211
 71
     1
 72
     5
  1
6
  7
Romans字体
 73
     1
 44
1.0
1001
AcDbBlockRepETag
1070
     1
1071
       28
1005
18837
  0
LINE
  5
18838
330
13E17
100
AcDbEntity
  8
图框
 62
     6
100
AcDbLine
 10
1081.088565155284
 20
484.0347692601515
 30
0.0
 11
1081.088565155284
 21
480.5347692601475
 31
0.0
1001
AcDbBlockRepETag
1070
     1
1071
       29
1005
18838
  0
MTEXT
  5
18839
330
13E17
100
AcDbEntity
  8
图框
 62
     6
100
AcDbMText
 10
1055.900596365941
 20
483.520053108993
 30
0.0
 40
2.651776162684904
 41
2.557913877927211
 71
     1
 72
     5
  1
5
  7
Romans字体
 73
     1
 44
1.0
1001
AcDbBlockRepETag
1070
     1
1071
       30
1005
18839
  0
LINE
  5
1883A
330
13E17
100
AcDbEntity
  8
图框
 62
     6
100
AcDbLine
 10
1031.553386436349
 20
484.0347692601515
 30
0.0
 11
1031.553386436349
 21
480.5347692601475
 31
0.0
1001
AcDbBlockRepETag
1070
     1
1071
       31
1005
1883A
  0
MTEXT
  5
1883B
330
13E17
100
AcDbEntity
  8
图框
 62
     6
100
AcDbMText
 10
1006.383180575197
 20
483.5687958215896
 30
0.0
 40
2.651776162684904
 41
2.557913877927211
 71
     1
 72
     5
  1
4
  7
Romans字体
 73
     1
 44
1.0
1001
AcDbBlockRepETag
1070
     1
1071
       32
1005
1883B
  0
LINE
  5
1883C
330
13E17
100
AcDbEntity
  8
图框
 62
     6
100
AcDbLine
 10
982.0182077173887
 20
484.0347692601515
 30
0.0
 11
982.0182077173887
 21
480.5347692601475
 31
0.0
1001
AcDbBlockRepETag
1070
     1
1071
       33
1005
1883C
  0
MTEXT
  5
1883D
330
13E17
100
AcDbEntity
  8
图框
 62
     6
100
AcDbMText
 10
956.8302389280352
 20
483.5989680297948
 30
0.0
 40
2.651776162684904
 41
2.557913877927211
 71
     1
 72
     5
  1
3
  7
Romans字体
 73
     1
 44
1.0
1001
AcDbBlockRepETag
1070
     1
1071
       34
1005
1883D
  0
LINE
  5
1883E
330
13E17
100
AcDbEntity
  8
图框
 62
     6
100
AcDbLine
 10
932.4830289984245
 20
484.0347692601515
 30
0.0
 11
932.4830289984245
 21
480.5347692601475
 31
0.0
1001
AcDbBlockRepETag
1070
     1
1071
       35
1005
1883E
  0
MTEXT
  5
1883F
330
13E17
100
AcDbEntity
  8
图框
 62
     6
100
AcDbMText
 10
906.0252349826365
 20
483.6475250013156
 30
0.0
 40
2.651776162684904
 41
2.557913877927211
 71
     1
 72
     5
  1
2
  7
Romans字体
 73
     1
 44
1.0
1001
AcDbBlockRepETag
1070
     1
1071
       36
1005
1883F
  0
LINE
  5
18840
330
13E17
100
AcDbEntity
  8
图框
 62
     6
100
AcDbLine
 10
882.9478502794648
 20
484.0347692601515
 30
0.0
 11
882.9478502794648
 21
480.5347692601475
 31
0.0
1001
AcDbBlockRepETag
1070
     1
1071
       37
1005
18840
  0
MTEXT
  5
18841
330
13E17
100
AcDbEntity
  8
图框
 62
     6
100
AcDbMText
 10
857.7598814901191
 20
483.651829494754
 30
0.0
 40
2.651776162684904
 41
2.557913877927211
 71
     1
 72
     5
  1
1
  7
Romans字体
 73
     1
 44
1.0
1001
AcDbBlockRepETag
1070
     1
1071
       38
1005
18841
  0
LINE
  5
18842
330
13E17
100
AcDbEntity
  8
图框
370
    50
100
AcDbLine
 10
836.8548209370597
 20
484.0347692601515
 30
0.0
 11
1126.928502610363
 21
484.0347692601515
 31
0.0
1001
AcDbBlockRepETag
1070
     1
1071
       39
1005
18842
  0
LINE
  5
18843
330
13E17
100
AcDbEntity
  8
图框
370
    50
100
AcDbLine
 10
836.9128518455362
 20
484.0178684310246
 30
0.0
 11
836.9128518455394
 21
675.0207195125422
 31
0.0
1001
AcDbBlockRepETag
1070
     1
1071
       40
1005
18843
  0
MTEXT
  5
18844
330
13E17
100
AcDbEntity
  8
图框
 62
     6
100
AcDbMText
 10
833.8475685789031
 20
658.7332172029115
 30
0.0
 40
2.651776162684904
 41
2.557913877927211
 71
     1
 72
     5
  1
D
  7
Romans字体
 11
0.0000000000000001
 21
1.0
 31
0.0
 73
     1
 44
1.0
1001
AcDbBlockRepETag
1070
     1
1071
       41
1005
18844
  0
LINE
  5
18845
330
13E17
100
AcDbEntity
  8
图框
 62
     6
100
AcDbLine
 10
836.9128518455386
 20
634.0726090796082
 30
0.0
 11
833.4128518455365
 21
634.0726090796082
 31
0.0
1001
AcDbBlockRepETag
1070
     1
1071
       42
1005
18845
  0
MTEXT
  5
18846
330
13E17
100
AcDbEntity
  8
图框
 62
     6
100
AcDbMText
 10
833.9039177480142
 20
607.5539372630998
 30
0.0
 40
2.651776162684904
 41
2.557913877927211
 71
     1
 72
     5
  1
C
  7
Romans字体
 11
0.0000000000000001
 21
1.0
 31
0.0
 73
     1
 44
1.0
1001
AcDbBlockRepETag
1070
     1
1071
       43
1005
18846
  0
LINE
  5
18847
330
13E17
100
AcDbEntity
  8
图框
 62
     6
100
AcDbLine
 10
836.9128518455378
 20
582.89332913979
 30
0.0
 11
833.4128518455365
 21
582.89332913979
 31
0.0
1001
AcDbBlockRepETag
1070
     1
1071
       44
1005
18847
  0
MTEXT
  5
18848
330
13E17
100
AcDbEntity
  8
图框
 62
     6
100
AcDbMText
 10
833.9039177480142
 20
556.3746573232886
 30
0.0
 40
2.651776162684904
 41
2.557913877927211
 71
     1
 72
     5
  1
B
  7
Romans字体
 11
0.0000000000000001
 21
1.0
 31
0.0
 73
     1
 44
1.0
1001
AcDbBlockRepETag
1070
     1
1071
       45
1005
18848
  0
LINE
  5
18849
330
13E17
100
AcDbEntity
  8
图框
 62
     6
100
AcDbLine
 10
836.9128518455367
 20
531.714049199969
 30
0.0
 11
833.4128518455365
 21
531.714049199969
 31
0.0
1001
AcDbBlockRepETag
1070
     1
1071
       46
1005
18849
  0
MTEXT
  5
1884A
330
13E17
100
AcDbEntity
  8
图框
 62
     6
100
AcDbMText
 10
833.9039177480142
 20
508.7896535755975
 30
0.0
 40
2.651776162684904
 41
2.557913877927211
 71
     1
 72
     5
  1
A
  7
Romans字体
 11
0.0000000000000001
 21
1.0
 31
0.0
 73
     1
 44
1.0
1001
AcDbBlockRepETag
1070
     1
1071
       47
1005
1884A
  0
LINE
  5
1884B
330
13E17
100
AcDbEntity
  8
图框
370
    -3
100
AcDbLine
 10
836.9128518455394
 20
675.0207195125422
 30
0.0
 11
836.9128518455394
 21
684.5021384922564
 31
0.0
1001
AcDbBlockRepETag
1070
     1
1071
       48
1005
1884B
  0
LINE
  5
1884C
330
13E17
100
AcDbEntity
  8
图框
370
    -3
100
AcDbLine
 10
842.6237321475781
 20
675.5347692601515
 30
0.0
 11
842.6237321475781
 21
685.0161882398658
 31
0.0
1001
AcDbBlockRepETag
1070
     1
1071
       49
1005
1884C
  0
LINE
  5
1884D
330
13E17
100
AcDbEntity
  8
图框
370
    -3
100
AcDbLine
 10
848.3346124496179
 20
675.5347692601515
 30
0.0
 11
848.3346124496179
 21
685.0161882398658
 31
0.0
1001
AcDbBlockRepETag
1070
     1
1071
       50
1005
1884D
  0
LINE
  5
1884E
330
13E17
100
AcDbEntity
  8
图框
370
    -3
100
AcDbLine
 10
854.0454927516588
 20
675.5347692601515
 30
0.0
 11
854.0454927516588
 21
685.0161882398658
 31
0.0
1001
AcDbBlockRepETag
1070
     1
1071
       51
1005
1884E
  0
LINE
  5
1884F
330
13E17
100
AcDbEntity
  8
图框
370
    -3
100
AcDbLine
 10
861.5351874539182
 20
675.5347692601515
 30
0.0
 11
861.5351874539182
 21
686.7901958362482
 31
0.0
1001
AcDbBlockRepETag
1070
     1
1071
       52
1005
1884F
  0
MTEXT
  5
18850
330
13E17
100
AcDbEntity
  8
图框
 62
     6
100
AcDbMText
 10
1105.329704038389
 20
678.859919059449
 30
0.0
 40
2.651776162684904
 41
2.557913877927211
 71
     1
 72
     5
  1
6
  7
Romans字体
 73
     1
 44
1.0
1001
AcDbBlockRepETag
1070
     1
1071
       53
1005
18850
  0
LINE
  5
18851
330
13E17
100
AcDbEntity
  8
图框
 62
     6
100
AcDbLine
 10
1081.088565155284
 20
679.0347692601516
 30
0.0
 11
1081.088565155284
 21
675.5347692601515
 31
0.0
1001
AcDbBlockRepETag
1070
     1
1071
       54
1005
18851
  0
MTEXT
  5
18852
330
13E17
100
AcDbEntity
  8
图框
 62
     6
100
AcDbMText
 10
1055.900596365941
 20
678.859919059449
 30
0.0
 40
2.651776162684904
 41
2.557913877927211
 71
     1
 72
     5
  1
5
  7
Romans字体
 73
     1
 44
1.0
1001
AcDbBlockRepETag
1070
     1
1071
       55
1005
18852
  0
LINE
  5
18853
330
13E17
100
AcDbEntity
  8
图框
 62
     6
100
AcDbLine
 10
1031.553386436349
 20
679.0347692601516
 30
0.0
 11
1031.553386436349
 21
675.5347692601515
 31
0.0
1001
AcDbBlockRepETag
1070
     1
1071
       56
1005
18853
  0
MTEXT
  5
18854
330
13E17
100
AcDbEntity
  8
图框
 62
     6
100
AcDbMText
 10
1006.36541764698
 20
678.7312083656147
 30
0.0
 40
2.651776162684904
 41
2.557913877927211
 71
     1
 72
     5
  1
4
  7
Romans字体
 73
     1
 44
1.0
1001
AcDbBlockRepETag
1070
     1
1071
       57
1005
18854
  0
LINE
  5
18855
330
13E17
100
AcDbEntity
  8
图框
 62
     6
100
AcDbLine
 10
982.0182077173887
 20
679.0347692601516
 30
0.0
 11
982.0182077173887
 21
675.5347692601515
 31
0.0
1001
AcDbBlockRepETag
1070
     1
1071
       58
1005
18855
  0
MTEXT
  5
18856
330
13E17
100
AcDbEntity
  8
图框
 62
     6
100
AcDbMText
 10
956.8302389280352
 20
678.859919059449
 30
0.0
 40
2.651776162684904
 41
2.557913877927211
 71
     1
 72
     5
  1
3
  7
Romans字体
 73
     1
 44
1.0
1001
AcDbBlockRepETag
1070
     1
1071
       59
1005
18856
  0
LINE
  5
18857
330
13E17
100
AcDbEntity
  8
图框
 62
     6
100
AcDbLine
 10
932.4830289984245
 20
679.0347692601516
 30
0.0
 11
932.4830289984245
 21
675.5347692601515
 31
0.0
1001
AcDbBlockRepETag
1070
     1
1071
       60
1005
18857
  0
MTEXT
  5
18858
330
13E17
100
AcDbEntity
  8
图框
 62
     6
100
AcDbMText
 10
907.295060209082
 20
678.859919059449
 30
0.0
 40
2.651776162684904
 41
2.557913877927211
 71
     1
 72
     5
  1
2
  7
Romans字体
 73
     1
 44
1.0
1001
AcDbBlockRepETag
1070
     1
1071
       61
1005
18858
  0
LINE
  5
18859
330
13E17
100
AcDbEntity
  8
图框
 62
     6
100
AcDbLine
 10
882.9478502794648
 20
678.7962435131815
 30
0.0
 11
882.9478502794648
 21
675.5347692601515
 31
0.0
1001
AcDbBlockRepETag
1070
     1
1071
       62
1005
18859
  0
MTEXT
  5
1885A
330
13E17
100
AcDbEntity
  8
图框
 62
     6
100
AcDbMText
 10
862.6286629643733
 20
678.859919059449
 30
0.0
 40
2.651776162684904
 41
2.557913877927211
 71
     1
 72
     5
  1
1
  7
Romans字体
 73
     1
 44
1.0
1001
AcDbBlockRepETag
1070
     1
1071
       63
1005
1885A
  0
LINE
  5
1885B
330
13E17
100
AcDbEntity
  8
图框
370
    -3
100
AcDbLine
 10
836.9128518455394
 20
675.0207195125422
 30
0.0
 11
836.9128518455394
 21
686.7901958362482
 31
0.0
1001
AcDbBlockRepETag
1070
     1
1071
       64
1005
1885B
  0
LINE
  5
1885C
330
13E17
100
AcDbEntity
  8
图框
370
    50
100
AcDbLine
 10
836.9128518455394
 20
675.5347692601515
 30
0.0
 11
1126.928502610363
 21
675.5347692601515
 31
0.0
1001
AcDbBlockRepETag
1070
     1
1071
       65
1005
1885C
  0
LINE
  5
1885D
330
13E17
100
AcDbEntity
  8
图框
370
    -3
100
AcDbLine
 10
842.6237321475781
 20
675.5347692601515
 30
0.0
 11
842.6237321475781
 21
686.7901958362482
 31
0.0
1001
AcDbBlockRepETag
1070
     1
1071
       66
1005
1885D
  0
LINE
  5
1885E
330
13E17
100
AcDbEntity
  8
图框
370
    -3
100
AcDbLine
 10
848.3346124496179
 20
675.5347692601515
 30
0.0
 11
848.3346124496179
 21
686.7901958362482
 31
0.0
1001
AcDbBlockRepETag
1070
     1
1071
       67
1005
1885E
  0
MTEXT
  5
1885F
102
{ACAD_XDICTIONARY
360
18B13
102
}
330
13E17
100
AcDbEntity
  8
图框
100
AcDbMText
 10
857.7903401027889
 20
686.7901958362482
 30
0.0
 40
1.958998408821398
 41
11.25542657609672
 71
     4
 72
     5
  1
\pi2.8203;档案员{\H0.7x;\P\pi1.4159;\Fromans|c134;Filing Clerk\fFangSong_GB2312|b0|i0|c134|p49; }
 11
-0.0000000000000002
 21
-1.0
 31
0.0
 73
     1
 44
1.0
1001
AcDbBlockRepETag
1070
     1
1071
       68
1005
1885F
1001
ACAD
1000
ACAD_MTEXT_DEFINED_HEIGHT_BEGIN
1070
    46
1040
7.489694702258906
1000
ACAD_MTEXT_DEFINED_HEIGHT_END
  0
MTEXT
  5
18860
102
{ACAD_XDICTIONARY
360
18B15
102
}
330
13E17
100
AcDbEntity
  8
图框
100
AcDbMText
 10
845.479172298598
 20
686.7901958362482
 30
0.0
 40
1.958998408821398
 41
11.25542657609672
 71
     4
 72
     5
  1
\pi0.7115;日期{\Fromans|c134;/Date}
 11
-0.0000000000000002
 21
-1.0
 31
0.0
 73
     1
 44
1.0
1001
AcDbBlockRepETag
1070
     1
1071
       69
1005
18860
1001
ACAD
1000
ACAD_MTEXT_DEFINED_HEIGHT_BEGIN
1070
    46
1040
5.710880302039671
1000
ACAD_MTEXT_DEFINED_HEIGHT_END
  0
LINE
  5
18861
330
13E17
100
AcDbEntity
  8
图框
370
    -3
100
AcDbLine
 10
854.0454927516588
 20
675.5347692601515
 30
0.0
 11
854.0454927516588
 21
686.7901958362482
 31
0.0
1001
AcDbBlockRepETag
1070
     1
1071
       70
1005
18861
  0
LINE
  5
18862
330
13E17
100
AcDbEntity
  8
图框
370
    -3
100
AcDbLine
 10
1036.653967466372
 20
531.3291676047914
 30
0.0
 11
1036.653967466372
 21
484.0126019753161
 31
0.0
1001
AcDbBlockRepETag
1070
     1
1071
       71
1005
18862
  0
LINE
  5
18863
330
13E17
100
AcDbEntity
  8
图框
370
    -3
100
AcDbLine
 10
1047.483315900763
 20
507.6708838011533
 30
0.0
 11
1047.483315900763
 21
491.8986945987308
 31
0.0
1001
AcDbBlockRepETag
1070
     1
1071
       72
1005
18863
  0
LINE
  5
18864
330
13E17
100
AcDbEntity
  8
图框
370
    -3
100
AcDbLine
 10
1058.312664335153
 20
507.6708838011533
 30
0.0
 11
1058.312664335153
 21
484.0347692601515
 31
0.0
1001
AcDbBlockRepETag
1070
     1
1071
       73
1005
18864
  0
LINE
  5
18865
330
13E17
100
AcDbEntity
  8
图框
370
    25
100
AcDbLine
 10
1048.474135214456
 20
488.1095628329926
 30
0.0
 11
1054.946420288459
 21
488.1095628329926
 31
0.0
1001
AcDbBlockRepETag
1070
     1
1071
       74
1005
18865
  0
LINE
  5
18866
330
13E17
100
AcDbEntity
  8
图框
370
    25
100
AcDbLine
 10
1054.232527365989
 20
487.0761716842634
 30
0.0
 11
1049.156490914508
 21
486.4576273751
 31
0.0
1001
AcDbBlockRepETag
1070
     1
1071
       75
1005
18866
  0
LINE
  5
18867
330
13E17
100
AcDbEntity
  8
图框
370
    25
100
AcDbLine
 10
1054.232527365989
 20
489.1429539817209
 30
0.0
 11
1049.156490914508
 21
489.7614982908846
 31
0.0
1001
AcDbBlockRepETag
1070
     1
1071
       76
1005
18867
  0
LINE
  5
18868
330
13E17
100
AcDbEntity
  8
图框
370
    25
100
AcDbLine
 10
1049.156490914508
 20
489.7614982908846
 30
0.0
 11
1049.156490914508
 21
486.4576273751
 31
0.0
1001
AcDbBlockRepETag
1070
     1
1071
       77
1005
18868
  0
LINE
  5
18869
330
13E17
100
AcDbEntity
  8
图框
370
    25
100
AcDbLine
 10
1054.232527365989
 20
489.1429539817209
 30
0.0
 11
1054.232527365989
 21
487.0761716842634
 31
0.0
1001
AcDbBlockRepETag
1070
     1
1071
       78
1005
18869
  0
CIRCLE
  5
1886A
330
13E17
100
AcDbEntity
  8
图框
370
    25
100
AcDbCircle
 10
1042.502700458579
 20
488.1095628329926
 30
0.0
 40
1.651935457891863
1001
AcDbBlockRepETag
1070
     1
1071
       79
1005
1886A
  0
CIRCLE
  5
1886B
330
13E17
100
AcDbEntity
  8
图框
370
    25
100
AcDbCircle
 10
1042.502700458579
 20
488.1095628329926
 30
0.0
 40
1.033391148728775
1001
AcDbBlockRepETag
1070
     1
1071
       80
1005
1886B
  0
LINE
  5
1886C
330
13E17
100
AcDbEntity
  8
图框
370
    25
100
AcDbLine
 10
1040.136872078216
 20
488.1095628329926
 30
0.0
 11
1044.868528838943
 21
488.1095628329926
 31
0.0
1001
AcDbBlockRepETag
1070
     1
1071
       81
1005
1886C
  0
LINE
  5
1886D
330
13E17
100
AcDbEntity
  8
图框
370
    25
100
AcDbLine
 10
1042.502700458579
 20
490.475391213355
 30
0.0
 11
1042.502700458579
 21
485.743734452629
 31
0.0
1001
AcDbBlockRepETag
1070
     1
1071
       82
1005
1886D
  0
LINE
  5
1886E
330
13E17
100
AcDbEntity
  8
图框
370
    -3
100
AcDbLine
 10
1069.142012769546
 20
507.6708838011533
 30
0.0
 11
1069.142012769546
 21
491.8986945987308
 31
0.0
1001
AcDbBlockRepETag
1070
     1
1071
       83
1005
1886E
  0
MTEXT
  5
1886F
330
13E17
100
AcDbEntity
  8
图框
100
AcDbMText
 10
1086.643735910939
 20
526.8006839312707
 30
0.0
 40
2.154898249703542
 41
13.34474941400573
 71
     5
 72
     5
  1
图号{\Ftxt|c134;\P\Fromans|c134;\W0.65;Drawing No.}
 73
     1
 44
1.0
1001
AcDbBlockRepETag
1070
     1
1071
       84
1005
1886F
1001
ACAD
1000
ACAD_MTEXT_DEFINED_HEIGHT_BEGIN
1070
    46
1040
9.056967347041776
1000
ACAD_MTEXT_DEFINED_HEIGHT_END
  0
LINE
  5
18870
330
13E17
100
AcDbEntity
  8
图框
370
    -3
100
AcDbLine
 10
1093.316110617942
 20
531.3291676047914
 30
0.0
 11
1093.316110617942
 21
495.8417418993347
 31
0.0
1001
AcDbBlockRepETag
1070
     1
1071
       85
1005
18870
  0
LINE
  5
18871
330
13E17
100
AcDbEntity
  8
图框
370
    -3
100
AcDbLine
 10
1047.473969770481
 20
531.3291676047914
 30
0.0
 11
1047.473969770481
 21
507.6708838011533
 31
0.0
1001
AcDbBlockRepETag
1070
     1
1071
       86
1005
18871
  0
MTEXT
  5
18872
330
13E17
100
AcDbEntity
  8
图框
100
AcDbMText
 10
1063.72733855235
 20
503.7278365005473
 30
0.0
 40
2.252848170144607
 41
10.82934843439208
 71
     5
 72
     5
  1
重量\P{\Fromans|c134;Weight}
 73
     1
 44
1.0
1001
AcDbBlockRepETag
1070
     1
1071
       87
1005
18872
1001
ACAD
1000
ACAD_MTEXT_DEFINED_HEIGHT_BEGIN
1070
    46
1040
7.886094601212128
1000
ACAD_MTEXT_DEFINED_HEIGHT_END
  0
LINE
  5
18873
330
13E17
100
AcDbEntity
  8
图框
370
    -3
100
AcDbLine
 10
1036.653967466372
 20
519.5000257029746
 30
0.0
 11
1079.971361203936
 21
519.5000257029746
 31
0.0
1001
AcDbBlockRepETag
1070
     1
1071
       88
1005
18873
  0
MTEXT
  5
18874
330
13E17
100
AcDbEntity
  8
图框
100
AcDbMText
 10
1074.556686986741
 20
503.7278365005473
 30
0.0
 40
2.252848170144607
 41
10.82934843438984
 71
     5
 72
     5
  1
数量\P{\Fromans|c134;Qty.}
 73
     1
 44
1.0
1001
AcDbBlockRepETag
1070
     1
1071
       89
1005
18874
1001
ACAD
1000
ACAD_MTEXT_DEFINED_HEIGHT_BEGIN
1070
    46
1040
7.886094601212141
1000
ACAD_MTEXT_DEFINED_HEIGHT_END
  0
LINE
  5
18875
330
13E17
100
AcDbEntity
  8
图框
370
    -3
100
AcDbLine
 10
1079.971361203936
 20
495.8417418993347
 30
0.0
 11
1126.928502610363
 21
495.8417418993342
 31
0.0
1001
AcDbBlockRepETag
1070
     1
1071
       90
1005
18875
  0
LINE
  5
18876
330
13E17
100
AcDbEntity
  8
图框
370
    -3
100
AcDbLine
 10
1079.971361203936
 20
504.7132992040975
 30
0.0
 11
1126.928502610363
 21
504.7132992040975
 31
0.0
1001
AcDbBlockRepETag
1070
     1
1071
       91
1005
18876
  0
MTEXT
  5
18877
330
13E17
100
AcDbEntity
  8
图框
100
AcDbMText
 10
1052.893317052817
 20
503.7278365005473
 30
0.0
 40
2.252848170144607
 41
10.83869456467139
 71
     5
 72
     5
  1
版本\P{\Fromans|c134;REV.}
 73
     1
 44
1.0
1001
AcDbBlockRepETag
1070
     1
1071
       92
1005
18877
1001
ACAD
1000
ACAD_MTEXT_DEFINED_HEIGHT_BEGIN
1070
    46
1040
7.886094601212101
1000
ACAD_MTEXT_DEFINED_HEIGHT_END
  0
MTEXT
  5
18878
330
13E17
100
AcDbEntity
  8
图框
100
AcDbMText
 10
1042.068641683568
 20
503.7278365005473
 30
0.0
 40
2.252848170144607
 41
10.8293484343908
 71
     5
 72
     5
  1
比例\P{\Fromans|c134;Scale}
 73
     1
 44
1.0
1001
AcDbBlockRepETag
1070
     1
1071
       93
1005
18878
1001
ACAD
1000
ACAD_MTEXT_DEFINED_HEIGHT_BEGIN
1070
    46
1040
7.886094601212136
1000
ACAD_MTEXT_DEFINED_HEIGHT_END
  0
LINE
  5
18879
330
13E17
100
AcDbEntity
  8
图框
370
    -3
100
AcDbLine
 10
1036.653967466372
 20
507.6708838011533
 30
0.0
 11
1079.971361203936
 21
507.6708838011533
 31
0.0
1001
AcDbBlockRepETag
1070
     1
1071
       94
1005
18879
  0
LINE
  5
1887A
330
13E17
100
AcDbEntity
  8
图框
370
    -3
100
AcDbLine
 10
1036.653967466372
 20
491.8986945987308
 30
0.0
 11
1079.971361203936
 21
491.8986945987308
 31
0.0
1001
AcDbBlockRepETag
1070
     1
1071
       95
1005
1887A
  0
LINE
  5
1887B
330
13E17
100
AcDbEntity
  8
图框
370
    -3
100
AcDbLine
 10
1079.971361203936
 20
531.3291676047914
 30
0.0
 11
1079.971361203936
 21
484.0125999975168
 31
0.0
1001
AcDbBlockRepETag
1070
     1
1071
       96
1005
1887B
  0
MTEXT
  5
1887C
330
13E17
100
AcDbEntity
  8
图框
100
AcDbMText
 10
1042.063968618426
 20
525.4145966538832
 30
0.0
 40
2.252848170144607
 41
10.82000230410933
 71
     5
 72
     5
  1
表面处理\P{\Fromans|c134;Finish}
 73
     1
 44
1.0
1001
AcDbBlockRepETag
1070
     1
1071
       97
1005
1887C
1001
ACAD
1000
ACAD_MTEXT_DEFINED_HEIGHT_BEGIN
1070
    46
1040
11.82914190181708
1000
ACAD_MTEXT_DEFINED_HEIGHT_END
  0
MTEXT
  5
1887D
330
13E17
100
AcDbEntity
  8
图框
100
AcDbMText
 10
1042.063968618426
 20
513.5854547520639
 30
0.0
 40
2.252848170144607
 41
10.82000230410933
 71
     5
 72
     5
  1
材料\P{\Fromans|c134;Material}
 73
     1
 44
1.0
1001
AcDbBlockRepETag
1070
     1
1071
       98
1005
1887D
1001
ACAD
1000
ACAD_MTEXT_DEFINED_HEIGHT_BEGIN
1070
    46
1040
11.8291419018212
1000
ACAD_MTEXT_DEFINED_HEIGHT_END
  0
LINE
  5
1887E
330
13E17
100
AcDbEntity
  8
图框
370
    -3
100
AcDbLine
 10
1079.971361203936
 20
522.27220025775
 30
0.0
 11
1126.928502610363
 21
522.27220025775
 31
0.0
1001
AcDbBlockRepETag
1070
     1
1071
       99
1005
1887E
  0
LINE
  5
1887F
330
13E17
100
AcDbEntity
  8
图框
370
    -3
100
AcDbLine
 10
1079.971361203936
 20
513.5854547520641
 30
0.0
 11
1126.928502610363
 21
513.5854547520639
 31
0.0
1001
AcDbBlockRepETag
1070
     1
1071
      100
1005
1887F
  0
MTEXT
  5
18880
330
13E17
100
AcDbEntity
  8
图框
100
AcDbMText
 10
1086.643735910939
 20
517.9288275049072
 30
0.0
 40
1.958998408821398
 41
13.34474941400573
 71
     5
 72
     5
  1
产品代号\P{\Fromans|c134;Part Code}
 73
     1
 44
1.0
1001
AcDbBlockRepETag
1070
     1
1071
      101
1005
18880
1001
ACAD
1000
ACAD_MTEXT_DEFINED_HEIGHT_BEGIN
1070
    46
1040
8.686745505685811
1000
ACAD_MTEXT_DEFINED_HEIGHT_END
  0
LINE
  5
18881
330
13E17
100
AcDbEntity
  8
图框
370
    -3
100
AcDbLine
 10
946.9285026103634
 20
525.7982263931411
 30
0.0
 11
1036.653967466372
 21
525.7982263931411
 31
0.0
1001
AcDbBlockRepETag
1070
     1
1071
      102
1005
18881
  0
LINE
  5
18882
330
13E17
100
AcDbEntity
  8
图框
370
    -3
100
AcDbLine
 10
946.9285026103634
 20
520.2672851814959
 30
0.0
 11
1036.653967466372
 21
520.2672851814959
 31
0.0
1001
AcDbBlockRepETag
1070
     1
1071
      103
1005
18882
  0
LINE
  5
18883
330
13E17
100
AcDbEntity
  8
图框
370
    35
100
AcDbLine
 10
946.9285026103634
 20
531.3291676047914
 30
0.0
 11
1126.928502610363
 21
531.3291676047914
 31
0.0
1001
AcDbBlockRepETag
1070
     1
1071
      104
1005
18883
  0
LINE
  5
18884
330
13E17
100
AcDbEntity
  8
图框
370
    -3
100
AcDbLine
 10
990.6727612856927
 20
509.2054027581959
 30
0.0
 11
990.6727612856927
 21
484.0347692601515
 31
0.0
1001
AcDbBlockRepETag
1070
     1
1071
      105
1005
18884
  0
MTEXT
  5
18885
102
{ACAD_XDICTIONARY
360
18B17
102
}
330
13E17
100
AcDbEntity
  8
图框
100
AcDbMText
 10
997.1628169651232
 20
499.816589978722
 30
0.0
 40
2.252848170144607
 41
12.98011135886052
 71
     5
 72
     5
  1
{\fFangSong_GB2312|b0|i0|c134|p49;标准化}\PStand.
  7
Romans字体
 73
     1
 44
1.0
1001
AcDbBlockRepETag
1070
     1
1071
      106
1005
18885
1001
ACAD
1000
ACAD_MTEXT_DEFINED_HEIGHT_BEGIN
1070
    46
1040
6.19230880992475
1000
ACAD_MTEXT_DEFINED_HEIGHT_END
  0
LINE
  5
18886
330
13E17
100
AcDbEntity
  8
图框
370
    -3
100
AcDbLine
 10
975.4103773808022
 20
509.2054027581959
 30
0.0
 11
975.4103773808022
 21
484.0347692601515
 31
0.0
1001
AcDbBlockRepETag
1070
     1
1071
      107
1005
18886
  0
MTEXT
  5
18887
330
13E17
100
AcDbEntity
  8
图框
100
AcDbMText
 10
984.5089229802068
 20
511.9708733640202
 30
0.0
 40
2.448748011026752
 41
38.287899328693
 71
     5
 72
     5
  1
  变更描述{\Fromans|c134;/Description}
 73
     1
 44
1.0
1001
AcDbBlockRepETag
1070
     1
1071
      108
1005
18887
1001
ACAD
1000
ACAD_MTEXT_DEFINED_HEIGHT_BEGIN
1070
    46
1040
5.530941211648832
1000
ACAD_MTEXT_DEFINED_HEIGHT_END
  0
MTEXT
  5
18888
102
{ACAD_XDICTIONARY
360
18B19
102
}
330
13E17
100
AcDbEntity
  8
图框
100
AcDbMText
 10
1012.466086049227
 20
511.9708733640202
 30
0.0
 40
1.958998408821398
 41
17.6264268093469
 71
     5
 72
     5
  1
签名\P{\Fromans|c134;Signature} 
 73
     1
 44
1.0
1001
AcDbBlockRepETag
1070
     1
1071
      109
1005
18888
1001
ACAD
1000
ACAD_MTEXT_DEFINED_HEIGHT_BEGIN
1070
    46
1040
5.530941211648825
1000
ACAD_MTEXT_DEFINED_HEIGHT_END
  0
MTEXT
  5
18889
102
{ACAD_XDICTIONARY
360
18B1B
102
}
330
13E17
100
AcDbEntity
  8
图框
100
AcDbMText
 10
960.7558556394856
 20
511.9708733640202
 30
0.0
 40
1.958998408821398
 41
9.218235352749283
 71
     5
 72
     5
  1
处数\P{\Fromans|c134;Number }
 73
     1
 44
1.0
1001
AcDbBlockRepETag
1070
     1
1071
      110
1005
18889
1001
ACAD
1000
ACAD_MTEXT_DEFINED_HEIGHT_BEGIN
1070
    46
1040
5.530941211648841
1000
ACAD_MTEXT_DEFINED_HEIGHT_END
  0
LINE
  5
1888A
330
13E17
100
AcDbEntity
  8
图框
370
    -3
100
AcDbLine
 10
946.9285026103634
 20
514.7363439698449
 30
0.0
 11
1036.653967466372
 21
514.7363439698449
 31
0.0
1001
AcDbBlockRepETag
1070
     1
1071
      111
1005
1888A
  0
LINE
  5
1888B
330
13E17
100
AcDbEntity
  8
图框
370
    -3
100
AcDbLine
 10
946.9285026103634
 20
509.2054027581959
 30
0.0
 11
1036.653967466372
 21
509.2054027581959
 31
0.0
1001
AcDbBlockRepETag
1070
     1
1071
      112
1005
1888B
  0
LINE
  5
1888C
330
13E17
100
AcDbEntity
  8
图框
370
    -3
100
AcDbLine
 10
946.9285026103634
 20
502.9127443836848
 30
0.0
 11
1036.653967466372
 21
502.9127443836848
 31
0.0
1001
AcDbBlockRepETag
1070
     1
1071
      113
1005
1888C
  0
LINE
  5
1888D
330
13E17
100
AcDbEntity
  8
图框
370
    -3
100
AcDbLine
 10
946.9285026103634
 20
496.620086009173
 30
0.0
 11
1036.653967466372
 21
496.620086009173
 31
0.0
1001
AcDbBlockRepETag
1070
     1
1071
      114
1005
1888D
  0
LINE
  5
1888E
330
13E17
100
AcDbEntity
  8
图框
370
    35
380
     1
100
AcDbLine
 10
946.9285026103634
 20
531.3291676047914
 30
0.0
 11
946.9285026103634
 21
484.0347692601515
 31
0.0
1001
AcDbBlockRepETag
1070
     1
1071
      115
1005
1888E
  0
LINE
  5
1888F
330
13E17
100
AcDbEntity
  8
图框
370
    -3
100
AcDbLine
 10
1021.301636813399
 20
531.3291676047914
 30
0.0
 11
1021.301636813399
 21
484.0347692601515
 31
0.0
1001
AcDbBlockRepETag
1070
     1
1071
      116
1005
1888F
  0
LINE
  5
18890
330
13E17
100
AcDbEntity
  8
图框
370
    -3
100
AcDbLine
 10
1003.652872644553
 20
531.3291676047914
 30
0.0
 11
1003.652872644553
 21
484.0347692601515
 31
0.0
1001
AcDbBlockRepETag
1070
     1
1071
      117
1005
18890
  0
LINE
  5
18891
330
13E17
100
AcDbEntity
  8
图框
370
    -3
100
AcDbLine
 10
965.3649733158603
 20
531.3291676047914
 30
0.0
 11
965.3649733158603
 21
509.2054027581959
 31
0.0
1001
AcDbBlockRepETag
1070
     1
1071
      118
1005
18891
  0
LINE
  5
18892
330
13E17
100
AcDbEntity
  8
图框
370
    -3
100
AcDbLine
 10
956.1467379631109
 20
531.3291676047914
 30
0.0
 11
956.1467379631109
 21
509.2054027581959
 31
0.0
1001
AcDbBlockRepETag
1070
     1
1071
      119
1005
18892
  0
MTEXT
  5
18893
102
{ACAD_XDICTIONARY
360
18B1D
102
}
330
13E17
100
AcDbEntity
  8
图框
100
AcDbMText
 10
951.537620286737
 20
511.9708733640202
 30
0.0
 40
1.958998408821398
 41
9.218235352747692
 71
     5
 72
     5
  1
标记\P{\Fromans|c134;Mark}
 73
     1
 44
1.0
1001
AcDbBlockRepETag
1070
     1
1071
      120
1005
18893
1001
ACAD
1000
ACAD_MTEXT_DEFINED_HEIGHT_BEGIN
1070
    46
1040
5.530941211648832
1000
ACAD_MTEXT_DEFINED_HEIGHT_END
  0
MTEXT
  5
18894
102
{ACAD_XDICTIONARY
360
18B1F
102
}
330
13E17
100
AcDbEntity
  8
图框
100
AcDbMText
 10
953.4185582897936
 20
493.4737568219182
 30
0.0
 40
2.252848170144607
 41
12.98011135886041
 71
     5
 72
     5
  1
审核\P{\Fromans|c134;Checked}
 73
     1
 44
1.0
1001
AcDbBlockRepETag
1070
     1
1071
      121
1005
18894
1001
ACAD
1000
ACAD_MTEXT_DEFINED_HEIGHT_BEGIN
1070
    46
1040
6.292658374510382
1000
ACAD_MTEXT_DEFINED_HEIGHT_END
  0
MTEXT
  5
18895
102
{ACAD_XDICTIONARY
360
18B21
102
}
330
13E17
100
AcDbEntity
  8
图框
100
AcDbMText
 10
953.4185582897936
 20
499.8775635376777
 30
0.0
 40
2.252848170144607
 41
12.98011135886041
 71
     5
 72
     5
  1
绘图\P{\Fromans|c134;Drawn\Ftxt|c134; }
 73
     1
 44
1.0
1001
AcDbBlockRepETag
1070
     1
1071
      122
1005
18895
1001
ACAD
1000
ACAD_MTEXT_DEFINED_HEIGHT_BEGIN
1070
    46
1040
6.070361692014189
1000
ACAD_MTEXT_DEFINED_HEIGHT_END
  0
ARC
  5
18896
330
13E17
100
AcDbEntity
  8
图框
 62
     4
370
    35
100
AcDbCircle
 10
1086.900627017421
 20
490.0179944151195
 30
0.0
 40
4.063310408393665
100
AcDbArc
 50
18.95237904564806
 51
161.0476209543519
1001
AcDbBlockRepETag
1070
     1
1071
      123
1005
18896
  0
ARC
  5
18897
330
13E17
100
AcDbEntity
  8
图框
 62
     4
370
    35
100
AcDbCircle
 10
1086.900627017421
 20
490.0179944151195
 30
0.0
 40
4.063310408393665
100
AcDbArc
 50
198.952379045648
 51
341.0476209543519
1001
AcDbBlockRepETag
1070
     1
1071
      124
1005
18897
  0
LINE
  5
18898
330
13E17
100
AcDbEntity
  8
图框
 62
     4
370
    35
100
AcDbLine
 10
1083.057593369548
 20
488.6983035966752
 30
0.0
 11
1090.74366066529
 21
488.6983035966752
 31
0.0
1001
AcDbBlockRepETag
1070
     1
1071
      125
1005
18898
  0
LINE
  5
18899
330
13E17
100
AcDbEntity
  8
图框
 62
     4
370
    35
100
AcDbLine
 10
1083.057593369548
 20
491.3376852335652
 30
0.0
 11
1090.74366066529
 21
491.3376852335652
 31
0.0
1001
AcDbBlockRepETag
1070
     1
1071
      126
1005
18899
  0
MTEXT
  5
1889A
330
13E17
100
AcDbEntity
  8
图框
 62
     1
370
    20
100
AcDbMText
 10
1083.034582879669
 20
491.0506288081688
 30
0.0
 40
2.005930044038334
 41
5.047240019334847
 71
     1
 72
     5
  1
{\fArial|b0|i0|c0|p34;W}
  7
Chinese
 73
     1
 44
1.0
1001
AcDbBlockRepETag
1070
     1
1071
      127
1005
1889A
  0
LINE
  5
1889B
330
13E17
100
AcDbEntity
  8
图框
370
    -3
100
AcDbLine
 10
946.9285026103634
 20
490.327427634663
 30
0.0
 11
1036.653967466372
 21
490.327427634663
 31
0.0
1001
AcDbBlockRepETag
1070
     1
1071
      128
1005
1889B
  0
LINE
  5
1889C
330
13E17
100
AcDbEntity
  8
图框
370
    -3
100
AcDbLine
 10
959.9086139692238
 20
509.2054027581959
 30
0.0
 11
959.9086139692238
 21
484.0347692601515
 31
0.0
1001
AcDbBlockRepETag
1070
     1
1071
      129
1005
1889C
  0
MTEXT
  5
1889D
330
13E17
100
AcDbEntity
  8
图框
100
AcDbMText
 10
967.6594956750127
 20
506.0590735709403
 30
0.0
 40
2.252848170144607
 41
15.50176341157869
 71
     5
 72
     5
  1
姓名{\Fromans|c134;/Name\Ftxt|c134; }
 73
     1
 44
1.0
1001
AcDbBlockRepETag
1070
     1
1071
      130
1005
1889D
1001
ACAD
1000
ACAD_MTEXT_DEFINED_HEIGHT_BEGIN
1070
    46
1040
6.292658374511246
1000
ACAD_MTEXT_DEFINED_HEIGHT_END
  0
MTEXT
  5
1889E
330
13E17
100
AcDbEntity
  8
图框
100
AcDbMText
 10
983.0415693332476
 20
506.0590735709403
 30
0.0
 40
2.252848170144607
 41
15.26238390489042
 71
     5
 72
     5
  1
日期{\Fromans|c134;/Date}
 73
     1
 44
1.0
1001
AcDbBlockRepETag
1070
     1
1071
      131
1005
1889E
1001
ACAD
1000
ACAD_MTEXT_DEFINED_HEIGHT_BEGIN
1070
    46
1040
6.2926583745112
1000
ACAD_MTEXT_DEFINED_HEIGHT_END
  0
LINE
  5
1889F
330
13E17
100
AcDbEntity
  8
图框
370
    -3
100
AcDbLine
 10
946.9285026103634
 20
509.2054027581959
 30
0.0
 11
959.9086139692238
 21
502.9127443836848
 31
0.0
1001
AcDbBlockRepETag
1070
     1
1071
      132
1005
1889F
  0
MTEXT
  5
188A0
330
13E17
100
AcDbEntity
  8
图框
100
AcDbMText
 10
1012.931405110086
 20
506.0185715840725
 30
0.0
 40
2.252848170144607
 41
16.93492221063566
 71
     5
 72
     5
  1
姓名{\Fromans|c134;/Name}
 73
     1
 44
1.0
1001
AcDbBlockRepETag
1070
     1
1071
      133
1005
188A0
  0
MTEXT
  5
188A1
330
13E17
100
AcDbEntity
  8
图框
100
AcDbMText
 10
1028.977802139886
 20
506.0590735709403
 30
0.0
 40
2.252848170144607
 41
15.35233065297283
 71
     5
 72
     5
  1
日期{\Fromans|c134;/Date}
 73
     1
 44
1.0
1001
AcDbBlockRepETag
1070
     1
1071
      134
1005
188A1
1001
ACAD
1000
ACAD_MTEXT_DEFINED_HEIGHT_BEGIN
1070
    46
1040
6.292658374511256
1000
ACAD_MTEXT_DEFINED_HEIGHT_END
  0
LINE
  5
188A2
330
13E17
100
AcDbEntity
  8
图框
370
    -3
100
AcDbLine
 10
1003.652872644553
 20
502.9127443836848
 30
0.0
 11
990.6727612856927
 21
509.2054027581959
 31
0.0
1001
AcDbBlockRepETag
1070
     1
1071
      135
1005
188A2
  0
MTEXT
  5
188A3
102
{ACAD_XDICTIONARY
360
18B23
102
}
330
13E17
100
AcDbEntity
  8
图框
100
AcDbMText
 10
997.1628169651232
 20
487.1810984474071
 30
0.0
 40
2.252848170144607
 41
12.98011135886052
 71
     5
 72
     5
  1
批准\P{\Fromans|c134;Approved}
 73
     1
 44
1.0
1001
AcDbBlockRepETag
1070
     1
1071
      136
1005
188A3
1001
ACAD
1000
ACAD_MTEXT_DEFINED_HEIGHT_BEGIN
1070
    46
1040
6.292658374511517
1000
ACAD_MTEXT_DEFINED_HEIGHT_END
  0
MTEXT
  5
188A4
102
{ACAD_XDICTIONARY
360
18B25
102
}
330
13E17
100
AcDbEntity
  8
图框
100
AcDbMText
 10
953.4185582897936
 20
487.1810984474071
 30
0.0
 40
2.252848170144607
 41
12.98011135886041
 71
     5
 72
     5
  1
工艺\P{\Fromans|c134;Process}
 73
     1
 44
1.0
1001
AcDbBlockRepETag
1070
     1
1071
      137
1005
188A4
1001
ACAD
1000
ACAD_MTEXT_DEFINED_HEIGHT_BEGIN
1070
    46
1040
6.292658374511495
1000
ACAD_MTEXT_DEFINED_HEIGHT_END
  0
MTEXT
  5
188A5
102
{ACAD_XDICTIONARY
360
18B27
102
}
330
13E17
100
AcDbEntity
  8
图框
100
AcDbMText
 10
1028.977802139886
 20
511.8287965307664
 30
0.0
 40
1.958998408821398
 41
15.3523306529728
 71
     5
 72
     5
  1
日期\P{\Fromans|c134;Date}
 73
     1
 44
1.0
1001
AcDbBlockRepETag
1070
     1
1071
      138
1005
188A5
1001
ACAD
1000
ACAD_MTEXT_DEFINED_HEIGHT_BEGIN
1070
    46
1040
5.246787545140668
1000
ACAD_MTEXT_DEFINED_HEIGHT_END
  0
MTEXT
  5
188A6
330
13E17
100
AcDbEntity
  8
图框
100
AcDbMText
 10
1086.643735910939
 20
509.1493769780809
 30
0.0
 40
2.154898249703542
 41
13.34474941400573
 71
     5
 72
     5
  1
产品料号\P{\Fromans|c134;Part No.}
 73
     1
 44
1.0
1001
AcDbBlockRepETag
1070
     1
1071
      139
1005
188A6
1001
ACAD
1000
ACAD_MTEXT_DEFINED_HEIGHT_BEGIN
1070
    46
1040
8.87215554796615
1000
ACAD_MTEXT_DEFINED_HEIGHT_END
  0
MTEXT
  5
188A7
330
13E17
100
AcDbEntity
  8
图框
100
AcDbMText
 10
1086.643735910939
 20
500.2775205517163
 30
0.0
 40
1.958998408821398
 41
13.34474941400573
 71
     5
 72
     5
  1
产品名称\P{\Fromans|c134;Part Name}
 73
     1
 44
1.0
1001
AcDbBlockRepETag
1070
     1
1071
      140
1005
188A7
1001
ACAD
1000
ACAD_MTEXT_DEFINED_HEIGHT_BEGIN
1070
    46
1040
8.871557304763321
1000
ACAD_MTEXT_DEFINED_HEIGHT_END
  0
LINE
  5
188A8
330
13E17
100
AcDbEntity
  8
图框
 62
     1
370
    18
100
AcDbLine
 10
833.4128518455365
 20
690.5347692601515
 30
0.0
 11
833.4128518455365
 21
480.5347692601515
 31
0.0
1001
AcDbBlockRepETag
1070
     1
1071
      141
1005
188A8
  0
LINE
  5
188A9
330
13E17
100
AcDbEntity
  8
图框
 62
     1
370
    18
100
AcDbLine
 10
833.4128518455365
 20
480.5347692601515
 30
0.0
 11
1130.411601781236
 21
480.5347692601515
 31
0.0
1001
AcDbBlockRepETag
1070
     1
1071
      142
1005
188A9
  0
LINE
  5
188AA
330
13E17
100
AcDbEntity
  8
图框
 62
     1
370
    18
100
AcDbLine
 10
833.4128518455365
 20
690.5347692601515
 30
0.0
 11
1130.411601781236
 21
690.5347692601515
 31
0.0
1001
AcDbBlockRepETag
1070
     1
1071
      143
1005
188AA
  0
LINE
  5
188AB
330
13E17
100
AcDbEntity
  8
图框
 62
     1
370
    18
100
AcDbLine
 10
1130.411601781236
 20
480.5347692601515
 30
0.0
 11
1130.411601781236
 21
690.5347692601515
 31
0.0
1001
AcDbBlockRepETag
1070
     1
1071
      144
1005
188AB
  0
LINE
  5
188AC
330
13E17
100
AcDbEntity
  8
图框
370
    18
100
AcDbLine
 10
836.9128518455394
 20
686.7901958362482
 30
0.0
 11
861.5351874539182
 21
686.7901958362482
 31
0.0
1001
AcDbBlockRepETag
1070
     1
1071
      145
1005
188AC
  0
LINE
  5
188AD
330
13E17
100
AcDbEntity
  8
图框
370
    50
100
AcDbLine
 10
1126.928502610363
 20
484.3410054693078
 30
0.0
 11
1126.928502610363
 21
675.5347692601515
 31
0.0
1001
AcDbBlockRepETag
1070
     1
1071
      146
1005
188AD
  0
MTEXT
  5
188AE
330
13E17
100
AcDbEntity
  8
图框
 62
     3
100
AcDbMText
 10
1052.897990117958
 20
495.8417418993364
 30
0.0
 40
2.2528
 41
15.50176341157864
 71
     5
 72
     5
  1
V1.0
  7
Romans字体
 73
     1
 44
1.0
1001
AcDbBlockRepETag
1070
     1
1071
      147
1005
188AE
1001
ACAD
1000
ACAD_MTEXT_DEFINED_HEIGHT_BEGIN
1070
    46
1040
7.886094601211307
1000
ACAD_MTEXT_DEFINED_HEIGHT_END
  0
MTEXT
  5
188AF
102
{ACAD_XDICTIONARY
360
18B29
102
}
330
13E17
100
AcDbEntity
  8
图框
 62
     3
100
AcDbMText
 10
967.6594956750133
 20
493.4737568219173
 30
0.0
 40
2.2528
 41
15.50176341157864
 71
     5
 72
     5
  1
ZM LIN
  7
Romans字体
 73
     1
 44
1.0
1001
AcDbBlockRepETag
1070
     1
1071
      150
1005
188AF
1001
ACAD
1000
ACAD_MTEXT_DEFINED_HEIGHT_BEGIN
1070
    46
1040
6.292658374511018
1000
ACAD_MTEXT_DEFINED_HEIGHT_END
  0
MTEXT
  5
188B0
330
13E17
100
AcDbEntity
  8
图框
 62
     3
100
AcDbMText
 10
983.041569333247
 20
493.4737568219181
 30
0.0
 40
2.2528
 41
15.50176341157864
 71
     5
 72
     5
  1
{\W0.7;19.11.2016}
  7
Romans字体
 73
     1
 44
1.0
1001
AcDbBlockRepETag
1070
     1
1071
      151
1005
188B0
1001
ACAD
1000
ACAD_MTEXT_DEFINED_HEIGHT_BEGIN
1070
    46
1040
6.292658374511042
1000
ACAD_MTEXT_DEFINED_HEIGHT_END
  0
MTEXT
  5
188B1
330
13E17
100
AcDbEntity
  8
图框
 62
     3
100
AcDbMText
 10
1029.022775513926
 20
487.1810984474073
 30
0.0
 40
2.2528
 41
15.50176341157864
 71
     5
 72
     5
  1
{\W0.7;19.11.2016}
  7
Romans字体
 73
     1
 44
1.0
1001
AcDbBlockRepETag
1070
     1
1071
      152
1005
188B1
1001
ACAD
1000
ACAD_MTEXT_DEFINED_HEIGHT_BEGIN
1070
    46
1040
6.292658374511042
1000
ACAD_MTEXT_DEFINED_HEIGHT_END
  0
ENDBLK
  5
13EAE
330
13E17
100
AcDbEntity
  8
0
100
AcDbBlockEnd
  0
BLOCK
  5
17445
330
17444
100
AcDbEntity
  8
0
100
AcDbBlockBegin
  2
*D3
 70
     1
 10
0.0
 20
0.0
 30
0.0
  3
*D3
  1

  0
LINE
  5
188B4
330
17444
100
AcDbEntity
  8
DIM
 62
     6
370
    -2
100
AcDbLine
 10
374.5131652846624
 20
213.4885756546267
 30
0.0
 11
371.4112279413245
 21
213.4885756546267
 31
0.0
  0
LINE
  5
188B5
330
17444
100
AcDbEntity
  8
DIM
 62
     6
370
    -2
100
AcDbLine
 10
374.5131652846624
 20
209.1885756546265
 30
0.0
 11
371.4112279413245
 21
209.1885756546265
 31
0.0
  0
LINE
  5
188B6
330
17444
100
AcDbEntity
  8
DIM
 62
     1
370
    -2
100
AcDbLine
 10
371.9112279413244
 20
212.2885756546267
 30
0.0
 11
371.9112279413244
 21
210.3885756546265
 31
0.0
  0
LINE
  5
188B7
330
17444
100
AcDbEntity
  8
DIM
 62
     1
370
    -2
100
AcDbLine
 10
371.9112279413244
 20
209.1885756546265
 30
0.0
 11
371.9112279413244
 21
202.7510756546265
 31
0.0
  0
SOLID
  5
188B8
330
17444
100
AcDbEntity
  8
DIM
 62
     1
100
AcDbTrace
 10
371.7112279413245
 20
212.2885756546267
 30
0.0
 11
372.1112279413244
 21
212.2885756546267
 31
0.0
 12
371.9112279413244
 22
213.4885756546267
 32
0.0
 13
371.9112279413244
 23
213.4885756546267
 33
0.0
  0
SOLID
  5
188B9
330
17444
100
AcDbEntity
  8
DIM
 62
     1
100
AcDbTrace
 10
371.7112279413245
 20
210.3885756546265
 30
0.0
 11
372.1112279413244
 21
210.3885756546265
 31
0.0
 12
371.9112279413244
 22
209.1885756546265
 32
0.0
 13
371.9112279413244
 23
209.1885756546265
 33
0.0
  0
MTEXT
  5
188BA
330
17444
100
AcDbEntity
  8
DIM
 62
     4
100
AcDbMText
 10
370.6612279413244
 20
204.9385756546265
 30
0.0
 40
1.5
 41
0.0
 71
     5
 72
     1
  1
\A1;%%C4.3
  7
Romans字体
 11
0.0000000000000001
 21
1.0
 31
0.0
 73
     1
 44
1.0
  0
POINT
  5
188BB
330
17444
100
AcDbEntity
  8
Defpoints
 62
     0
100
AcDbPoint
 10
374.7131652846624
 20
213.4885756546267
 30
0.0
  0
POINT
  5
188BC
330
17444
100
AcDbEntity
  8
Defpoints
 62
     0
100
AcDbPoint
 10
374.7131652846624
 20
209.1885756546265
 30
0.0
  0
POINT
  5
188BD
330
17444
100
AcDbEntity
  8
Defpoints
 62
     0
100
AcDbPoint
 10
371.9112279413244
 20
209.1885756546265
 30
0.0
  0
ENDBLK
  5
17446
330
17444
100
AcDbEntity
  8
0
100
AcDbBlockEnd
  0
BLOCK
  5
17452
330
17451
100
AcDbEntity
  8
0
100
AcDbBlockBegin
  2
*D4
 70
     1
 10
0.0
 20
0.0
 30
0.0
  3
*D4
  1

  0
LINE
  5
188BE
330
17451
100
AcDbEntity
  8
DIM
 62
     6
370
    -2
100
AcDbLine
 10
384.8845402317169
 20
210.2135756546266
 30
0.0
 11
383.8516567381562
 21
210.2135756546266
 31
0.0
  0
LINE
  5
188BF
330
17451
100
AcDbEntity
  8
DIM
 62
     6
370
    -2
100
AcDbLine
 10
384.8845402317169
 20
212.4635756546271
 30
0.0
 11
383.8516567381562
 21
212.4635756546271
 31
0.0
  0
LINE
  5
188C0
330
17451
100
AcDbEntity
  8
DIM
 62
     1
370
    -2
100
AcDbLine
 10
384.3516567381562
 20
213.6635756546271
 30
0.0
 11
384.3516567381562
 21
214.8635756546271
 31
0.0
  0
LINE
  5
188C1
330
17451
100
AcDbEntity
  8
DIM
 62
     1
370
    -2
100
AcDbLine
 10
384.3516567381562
 20
209.0135756546266
 30
0.0
 11
384.3516567381562
 21
204.2475042260552
 31
0.0
  0
SOLID
  5
188C2
330
17451
100
AcDbEntity
  8
DIM
 62
     1
100
AcDbTrace
 10
384.1516567381562
 20
213.6635756546271
 30
0.0
 11
384.5516567381563
 21
213.6635756546271
 31
0.0
 12
384.3516567381562
 22
212.4635756546271
 32
0.0
 13
384.3516567381562
 23
212.4635756546271
 33
0.0
  0
SOLID
  5
188C3
330
17451
100
AcDbEntity
  8
DIM
 62
     1
100
AcDbTrace
 10
384.1516567381562
 20
209.0135756546266
 30
0.0
 11
384.5516567381563
 21
209.0135756546266
 31
0.0
 12
384.3516567381562
 22
210.2135756546266
 32
0.0
 13
384.3516567381562
 23
210.2135756546266
 33
0.0
  0
MTEXT
  5
188C4
330
17451
100
AcDbEntity
  8
DIM
 62
     4
100
AcDbMText
 10
383.1016567381562
 20
205.5778613689124
 30
0.0
 40
1.5
 41
0.0
 71
     5
 72
     1
  1
\A1;%%Ca
  7
Romans字体
 11
0.0000000000000001
 21
1.0
 31
0.0
 73
     1
 44
1.0
  0
POINT
  5
188C5
330
17451
100
AcDbEntity
  8
Defpoints
 62
     0
100
AcDbPoint
 10
385.0845402317169
 20
210.2135756546266
 30
0.0
  0
POINT
  5
188C6
330
17451
100
AcDbEntity
  8
Defpoints
 62
     0
100
AcDbPoint
 10
385.0845402317169
 20
212.4635756546271
 30
0.0
  0
POINT
  5
188C7
330
17451
100
AcDbEntity
  8
Defpoints
 62
     0
100
AcDbPoint
 10
384.3516567381562
 20
212.4635756546271
 30
0.0
  0
ENDBLK
  5
17453
330
17451
100
AcDbEntity
  8
0
100
AcDbBlockEnd
  0
BLOCK
  5
1745F
330
1745E
100
AcDbEntity
  8
0
100
AcDbBlockBegin
  2
*D5
 70
     1
 10
0.0
 20
0.0
 30
0.0
  3
*D5
  1

  0
LINE
  5
188C8
330
1745E
100
AcDbEntity
  8
DIM
 62
     6
370
    -2
100
AcDbLine
 10
405.5066945211516
 20
210.3385756546266
 30
0.0
 11
408.5130667867225
 21
210.3385756546266
 31
0.0
  0
LINE
  5
188C9
330
1745E
100
AcDbEntity
  8
DIM
 62
     6
370
    -2
100
AcDbLine
 10
405.5066945211516
 20
212.3385756546265
 30
0.0
 11
408.5130667867225
 21
212.3385756546265
 31
0.0
  0
LINE
  5
188CA
330
1745E
100
AcDbEntity
  8
DIM
 62
     1
370
    -2
100
AcDbLine
 10
408.0130667867226
 20
213.5385756546265
 30
0.0
 11
408.0130667867226
 21
214.7385756546265
 31
0.0
  0
LINE
  5
188CB
330
1745E
100
AcDbEntity
  8
DIM
 62
     1
370
    -2
100
AcDbLine
 10
408.0130667867226
 20
209.1385756546266
 30
0.0
 11
408.0130667867226
 21
204.2475042260555
 31
0.0
  0
SOLID
  5
188CC
330
1745E
100
AcDbEntity
  8
DIM
 62
     1
100
AcDbTrace
 10
407.8130667867227
 20
213.5385756546265
 30
0.0
 11
408.2130667867225
 21
213.5385756546265
 31
0.0
 12
408.0130667867226
 22
212.3385756546265
 32
0.0
 13
408.0130667867226
 23
212.3385756546265
 33
0.0
  0
SOLID
  5
188CD
330
1745E
100
AcDbEntity
  8
DIM
 62
     1
100
AcDbTrace
 10
407.8130667867227
 20
209.1385756546266
 30
0.0
 11
408.2130667867225
 21
209.1385756546266
 31
0.0
 12
408.0130667867226
 22
210.3385756546266
 32
0.0
 13
408.0130667867226
 23
210.3385756546266
 33
0.0
  0
MTEXT
  5
188CE
330
1745E
100
AcDbEntity
  8
DIM
 62
     4
100
AcDbMText
 10
406.7630667867224
 20
205.6314327974841
 30
0.0
 40
1.5
 41
0.0
 71
     5
 72
     1
  1
\A1;%%C2
  7
Romans字体
 11
0.0000000000000001
 21
1.0
 31
0.0
 73
     1
 44
1.0
  0
POINT
  5
188CF
330
1745E
100
AcDbEntity
  8
Defpoints
 62
     0
100
AcDbPoint
 10
405.3066945211516
 20
210.3385756546266
 30
0.0
  0
POINT
  5
188D0
330
1745E
100
AcDbEntity
  8
Defpoints
 62
     0
100
AcDbPoint
 10
405.3066945211516
 20
212.3385756546265
 30
0.0
  0
POINT
  5
188D1
330
1745E
100
AcDbEntity
  8
Defpoints
 62
     0
100
AcDbPoint
 10
408.0130667867226
 20
212.3385756546265
 30
0.0
  0
ENDBLK
  5
17460
330
1745E
100
AcDbEntity
  8
0
100
AcDbBlockEnd
  0
BLOCK
  5
1746C
330
1746B
100
AcDbEntity
  8
0
100
AcDbBlockBegin
  2
*D6
 70
     1
 10
0.0
 20
0.0
 30
0.0
  3
*D6
  1

  0
LINE
  5
188DB
330
1746B
100
AcDbEntity
  8
DIM
 62
     6
370
    -2
100
AcDbLine
 10
374.1667551230624
 20
213.9885756546267
 30
0.0
 11
367.2228078779051
 21
213.9885756546267
 31
0.0
  0
LINE
  5
188DC
330
1746B
100
AcDbEntity
  8
DIM
 62
     6
370
    -2
100
AcDbLine
 10
374.1667551230624
 20
208.688575654627
 30
0.0
 11
367.2228078779051
 21
208.688575654627
 31
0.0
  0
LINE
  5
188DD
330
1746B
100
AcDbEntity
  8
DIM
 62
     1
370
    -2
100
AcDbLine
 10
367.7228078779051
 20
212.7885756546267
 30
0.0
 11
367.7228078779051
 21
209.888575654627
 31
0.0
  0
SOLID
  5
188DE
330
1746B
100
AcDbEntity
  8
DIM
 62
     1
100
AcDbTrace
 10
367.5228078779051
 20
212.7885756546267
 30
0.0
 11
367.9228078779051
 21
212.7885756546267
 31
0.0
 12
367.7228078779051
 22
213.9885756546267
 32
0.0
 13
367.7228078779051
 23
213.9885756546267
 33
0.0
  0
SOLID
  5
188DF
330
1746B
100
AcDbEntity
  8
DIM
 62
     1
100
AcDbTrace
 10
367.5228078779051
 20
209.888575654627
 30
0.0
 11
367.9228078779051
 21
209.888575654627
 31
0.0
 12
367.7228078779051
 22
208.688575654627
 32
0.0
 13
367.7228078779051
 23
208.688575654627
 33
0.0
  0
MTEXT
  5
188E0
330
1746B
100
AcDbEntity
  8
DIM
 62
     4
100
AcDbMText
 10
366.4728078779051
 20
211.3385756546269
 30
0.0
 40
1.5
 41
0.0
 71
     5
 72
     1
  1
\A1;%%C5.3
  7
Romans字体
 11
0.0000000000000001
 21
1.0
 31
0.0
 73
     1
 44
1.0
  0
POINT
  5
188E1
330
1746B
100
AcDbEntity
  8
Defpoints
 62
     0
100
AcDbPoint
 10
374.3667551230624
 20
213.9885756546267
 30
0.0
  0
POINT
  5
188E2
330
1746B
100
AcDbEntity
  8
Defpoints
 62
     0
100
AcDbPoint
 10
374.3667551230624
 20
208.688575654627
 30
0.0
  0
POINT
  5
188E3
330
1746B
100
AcDbEntity
  8
Defpoints
 62
     0
100
AcDbPoint
 10
367.7228078779051
 20
208.688575654627
 30
0.0
  0
ENDBLK
  5
1746D
330
1746B
100
AcDbEntity
  8
0
100
AcDbBlockEnd
  0
BLOCK
  5
17497
330
17496
100
AcDbEntity
  8
0
100
AcDbBlockBegin
  2
*D7
 70
     1
 10
0.0
 20
0.0
 30
0.0
  3
*D7
  1

  0
LINE
  5
188D2
330
17496
100
AcDbEntity
  8
DIM
 62
     6
370
    -2
100
AcDbLine
 10
374.3667551230624
 20
208.488575654627
 30
0.0
 11
374.3667551230624
 21
200.8798181252403
 31
0.0
  0
LINE
  5
188D3
330
17496
100
AcDbEntity
  8
DIM
 62
     6
370
    -2
100
AcDbLine
 10
412.3667551230624
 20
210.738575654627
 30
0.0
 11
412.3667551230624
 21
200.8798181252403
 31
0.0
  0
LINE
  5
188D4
330
17496
100
AcDbEntity
  8
DIM
 62
     1
370
    -2
100
AcDbLine
 10
375.5667551230624
 20
201.3798181252403
 30
0.0
 11
411.1667551230622
 21
201.3798181252403
 31
0.0
  0
SOLID
  5
188D5
330
17496
100
AcDbEntity
  8
DIM
 62
     1
100
AcDbTrace
 10
375.5667551230624
 20
201.5798181252403
 30
0.0
 11
375.5667551230624
 21
201.1798181252403
 31
0.0
 12
374.3667551230624
 22
201.3798181252403
 32
0.0
 13
374.3667551230624
 23
201.3798181252403
 33
0.0
  0
SOLID
  5
188D6
330
17496
100
AcDbEntity
  8
DIM
 62
     1
100
AcDbTrace
 10
411.1667551230622
 20
201.5798181252403
 30
0.0
 11
411.1667551230622
 21
201.1798181252403
 31
0.0
 12
412.3667551230624
 22
201.3798181252403
 32
0.0
 13
412.3667551230624
 23
201.3798181252403
 33
0.0
  0
MTEXT
  5
188D7
330
17496
100
AcDbEntity
  8
DIM
 62
     4
100
AcDbMText
 10
393.3667551230624
 20
202.6298181252403
 30
0.0
 40
1.5
 41
0.0
 71
     5
 72
     1
  1
\A1;38
  7
Romans字体
 73
     1
 44
1.0
  0
POINT
  5
188D8
330
17496
100
AcDbEntity
  8
Defpoints
 62
     0
100
AcDbPoint
 10
374.3667551230624
 20
208.688575654627
 30
0.0
  0
POINT
  5
188D9
330
17496
100
AcDbEntity
  8
Defpoints
 62
     0
100
AcDbPoint
 10
412.3667551230624
 20
210.938575654627
 30
0.0
  0
POINT
  5
188DA
330
17496
100
AcDbEntity
  8
Defpoints
 62
     0
100
AcDbPoint
 10
412.3667551230624
 20
201.3798181252403
 30
0.0
  0
ENDBLK
  5
17498
330
17496
100
AcDbEntity
  8
0
100
AcDbBlockEnd
  0
ENDSEC
  0
SECTION
  2
ENTITIES
  0
HATCH
  5
28AE
330
1F
100
AcDbEntity
  8
图层 1
 62
     7
100
AcDbHatch
 10
0.0
 20
0.0
 30
0.0
210
0.0
220
0.0
230
1.0
  2
SOLID
 70
     1
 71
     0
 91
        1
 92
        1
 93
        2
 72
     4
 94
        3
 73
     0
 74
     0
 95
       17
 96
       13
 40
0.0
 40
0.0
 40
0.0
 40
0.0
 40
0.3527780104152769
 40
0.3527780104152769
 40
0.3527780104152769
 40
0.7055560208305538
 40
0.7055560208305538
 40
0.7055560208305538
 40
1.058334031245828
 40
1.058334031245828
 40
1.058334031245828
 40
1.411112041661104
 40
1.411112041661104
 40
1.411112041661104
 40
1.411112041661104
 10
11.07013262565829
 20
29.50312817963231
 10
11.07013262565829
 20
29.50312817963231
 10
10.9431807732774
 20
29.50312817963231
 10
10.9431807732774
 20
29.50312817963231
 10
10.9431807732774
 20
29.50312817963231
 10
10.85843136843155
 20
29.22786486877117
 10
10.85843136843155
 20
29.22786486877117
 10
10.85843136843155
 20
29.22786486877117
 10
10.90080607085448
 20
29.2068497724476
 10
10.90080607085448
 20
29.2068497724476
 10
10.94455881238059
 20
29.31571486159919
 10
11.00346998404173
 20
29.40907701083995
 10
11.07013262565829
 20
29.50312817963231
 72
     1
 10
11.07013262565829
 20
29.50312817963231
 11
11.07013262565829
 21
29.50312817963231
 97
        0
 75
     0
 76
     1
 98
        0
450
        0
451
        0
460
0.0
461
0.0
452
        0
462
0.0
453
        0
470

  0
HATCH
  5
2C65
330
1F
100
AcDbEntity
  8
图层 1
 62
     7
100
AcDbHatch
 10
0.0
 20
0.0
 30
0.0
210
0.0
220
0.0
230
1.0
  2
SOLID
 70
     1
 71
     0
 91
        1
 92
        1
 93
        2
 72
     4
 94
        3
 73
     0
 74
     0
 95
       47
 96
       43
 40
0.0
 40
0.0
 40
0.0
 40
0.0
 40
0.3527780104152769
 40
0.3527780104152769
 40
0.3527780104152769
 40
0.7055560208305538
 40
0.7055560208305538
 40
0.7055560208305538
 40
1.058334031245828
 40
1.058334031245828
 40
1.058334031245828
 40
1.411112041661104
 40
1.411112041661104
 40
1.411112041661104
 40
1.763890052076384
 40
1.763890052076384
 40
1.763890052076384
 40
2.116668062491659
 40
2.116668062491659
 40
2.116668062491659
 40
2.469446072906936
 40
2.469446072906936
 40
2.469446072906936
 40
2.822224083322215
 40
2.822224083322215
 40
2.822224083322215
 40
3.175002093737492
 40
3.175002093737492
 40
3.175002093737492
 40
3.527780104152768
 40
3.527780104152768
 40
3.527780104152768
 40
3.880558114568044
 40
3.880558114568044
 40
3.880558114568044
 40
4.233336124983321
 40
4.233336124983321
 40
4.233336124983321
 40
4.586114135398599
 40
4.586114135398599
 40
4.586114135398599
 40
4.938892145813873
 40
4.938892145813873
 40
4.938892145813873
 40
4.938892145813873
 10
162.8986914070121
 20
257.4895347631509
 10
162.8986914070121
 20
257.4895347631509
 10
162.9200510131114
 20
257.4471600607279
 10
162.9200510131114
 20
257.4471600607279
 10
162.9200510131114
 20
257.4471600607279
 10
162.9200510131114
 20
257.404785358305
 10
162.9200510131114
 20
257.404785358305
 10
162.9200510131114
 20
257.404785358305
 10
162.8986914070121
 20
257.36258291077
 10
162.8986914070121
 20
257.36258291077
 10
162.8986914070121
 20
257.36258291077
 10
162.8986914070121
 20
257.320208208347
 10
162.8986914070121
 20
257.320208208347
 10
162.8986914070121
 20
257.320208208347
 10
162.8563167045891
 20
257.2990208571356
 10
162.8563167045891
 20
257.2990208571356
 10
162.8563167045891
 20
257.2990208571356
 10
162.8139420021662
 20
257.2563016449369
 10
162.8139420021662
 20
257.2563016449369
 10
162.8139420021662
 20
257.2563016449369
 10
162.7295371070961
 20
257.2563016449369
 10
162.7295371070961
 20
257.2563016449369
 10
162.7295371070961
 20
257.2563016449369
 10
162.6658027985738
 20
257.2778335059241
 10
162.6658027985738
 20
257.2778335059241
 10
162.6658027985738
 20
257.2778335059241
 10
162.6237726059267
 20
257.2990208571356
 10
162.6237726059267
 20
257.2990208571356
 10
162.6237726059267
 20
257.2990208571356
 10
162.5813979035038
 20
257.3413955595585
 10
162.5813979035038
 20
257.3413955595585
 10
162.5813979035038
 20
257.3413955595585
 10
162.5813979035038
 20
257.4895347631509
 10
162.5813979035038
 20
257.4895347631509
 10
162.5813979035038
 20
257.4895347631509
 10
162.6447877022503
 20
257.5525800521216
 10
162.6447877022503
 20
257.5525800521216
 10
162.6447877022503
 20
257.5525800521216
 10
162.7081775009967
 20
257.5525800521216
 10
162.7081775009967
 20
257.5525800521216
 10
162.8749202324821
 20
257.5424170137356
 10
162.7918933765152
 20
257.5939212252171
 10
162.8986914070121
 20
257.4895347631509
 72
     1
 10
162.8986914070121
 20
257.4895347631509
 11
162.8986914070121
 21
257.4895347631509
 97
        0
 75
     0
 76
     1
 98
        0
450
        0
451
        0
460
0.0
461
0.0
452
        0
462
0.0
453
        0
470

  0
HATCH
  5
2EE7
330
1F
100
AcDbEntity
  8
图层 1
 62
     7
100
AcDbHatch
 10
0.0
 20
0.0
 30
0.0
210
0.0
220
0.0
230
1.0
  2
SOLID
 70
     1
 71
     0
 91
        1
 92
        1
 93
        2
 72
     4
 94
        3
 73
     0
 74
     0
 95
       56
 96
       52
 40
0.0
 40
0.0
 40
0.0
 40
0.0
 40
0.3527780104152769
 40
0.3527780104152769
 40
0.3527780104152769
 40
0.7055560208305538
 40
0.7055560208305538
 40
0.7055560208305538
 40
1.058334031245828
 40
1.058334031245828
 40
1.058334031245828
 40
1.411112041661104
 40
1.411112041661104
 40
1.411112041661104
 40
1.763890052076384
 40
1.763890052076384
 40
1.763890052076384
 40
2.116668062491659
 40
2.116668062491659
 40
2.116668062491659
 40
2.469446072906936
 40
2.469446072906936
 40
2.469446072906936
 40
2.822224083322215
 40
2.822224083322215
 40
2.822224083322215
 40
3.175002093737492
 40
3.175002093737492
 40
3.175002093737492
 40
3.527780104152768
 40
3.527780104152768
 40
3.527780104152768
 40
3.880558114568044
 40
3.880558114568044
 40
3.880558114568044
 40
4.233336124983321
 40
4.233336124983321
 40
4.233336124983321
 40
4.586114135398599
 40
4.586114135398599
 40
4.586114135398599
 40
4.938892145813873
 40
4.938892145813873
 40
4.938892145813873
 40
5.291670156229153
 40
5.291670156229153
 40
5.291670156229153
 40
5.64444816664443
 40
5.64444816664443
 40
5.64444816664443
 40
5.997226177059705
 40
5.997226177059705
 40
5.997226177059705
 40
5.997226177059705
 10
185.4837187788815
 20
241.4451977396596
 10
185.4837187788815
 20
241.4451977396596
 10
185.4837187788815
 20
241.4028230372367
 10
185.4837187788815
 20
241.4028230372367
 10
185.4837187788815
 20
241.4028230372367
 10
185.5047338752051
 20
241.3604483348137
 10
185.5047338752051
 20
241.3604483348137
 10
185.4520238795082
 20
241.2782827532863
 10
185.4671823096433
 20
241.1897437409066
 10
185.335579575289
 20
241.2119646214456
 10
185.335579575289
 20
241.2119646214456
 10
185.2932048728662
 20
241.2119646214456
 10
185.2932048728662
 20
241.2119646214456
 10
185.2932048728662
 20
241.2119646214456
 10
185.2294705643439
 20
241.2334964824328
 10
185.2294705643439
 20
241.2334964824328
 10
185.2294705643439
 20
241.2334964824328
 10
185.1660807655974
 20
241.2543393238685
 10
185.1660807655974
 20
241.2543393238685
 10
185.1660807655974
 20
241.2543393238685
 10
185.1450656692739
 20
241.2758711848558
 10
185.1450656692739
 20
241.2758711848558
 10
185.1450656692739
 20
241.2758711848558
 10
185.1450656692739
 20
241.2967140262914
 10
185.1450656692739
 20
241.2967140262914
 10
185.1450656692739
 20
241.2967140262914
 10
185.1237060631745
 20
241.3604483348137
 10
185.1237060631745
 20
241.3604483348137
 10
185.1237060631745
 20
241.3604483348137
 10
185.1237060631745
 20
241.4028230372367
 10
185.1237060631745
 20
241.4028230372367
 10
185.1237060631745
 20
241.4028230372367
 10
185.1660807655974
 20
241.4875724420825
 10
185.1660807655974
 20
241.4875724420825
 10
185.1660807655974
 20
241.4875724420825
 10
185.2084554680203
 20
241.5085875384061
 10
185.2084554680203
 20
241.5085875384061
 10
185.2084554680203
 20
241.5085875384061
 10
185.2718452667668
 20
241.5297748896175
 10
185.2718452667668
 20
241.5297748896175
 10
185.2718452667668
 20
241.5297748896175
 10
185.3565946716127
 20
241.5297748896175
 10
185.3565946716127
 20
241.5297748896175
 10
185.3565946716127
 20
241.5297748896175
 10
185.4199844703592
 20
241.5085875384061
 10
185.4199844703592
 20
241.5085875384061
 10
185.4199844703592
 20
241.5085875384061
 10
185.4623591727821
 20
241.4875724420825
 10
185.4623591727821
 20
241.4875724420825
 10
185.4623591727821
 20
241.4875724420825
 10
185.4837187788815
 20
241.4451977396596
 10
185.4837187788815
 20
241.4451977396596
 72
     1
 10
185.4837187788815
 20
241.4451977396596
 11
185.4837187788815
 21
241.4451977396596
 97
        0
 75
     0
 76
     1
 98
        0
450
        0
451
        0
460
0.0
461
0.0
452
        0
462
0.0
453
        0
470

  0
HATCH
  5
2F93
330
1F
100
AcDbEntity
  8
图层 1
 62
     7
100
AcDbHatch
 10
0.0
 20
0.0
 30
0.0
210
0.0
220
0.0
230
1.0
  2
SOLID
 70
     1
 71
     0
 91
        1
 92
        1
 93
        2
 72
     4
 94
        3
 73
     0
 74
     0
 95
       38
 96
       34
 40
0.0
 40
0.0
 40
0.0
 40
0.0
 40
0.3527780104152769
 40
0.3527780104152769
 40
0.3527780104152769
 40
0.7055560208305538
 40
0.7055560208305538
 40
0.7055560208305538
 40
1.058334031245828
 40
1.058334031245828
 40
1.058334031245828
 40
1.411112041661104
 40
1.411112041661104
 40
1.411112041661104
 40
1.763890052076384
 40
1.763890052076384
 40
1.763890052076384
 40
2.116668062491659
 40
2.116668062491659
 40
2.116668062491659
 40
2.469446072906936
 40
2.469446072906936
 40
2.469446072906936
 40
2.822224083322215
 40
2.822224083322215
 40
2.822224083322215
 40
3.175002093737492
 40
3.175002093737492
 40
3.175002093737492
 40
3.527780104152768
 40
3.527780104152768
 40
3.527780104152768
 40
3.880558114568044
 40
3.880558114568044
 40
3.880558114568044
 40
3.880558114568044
 10
185.907121293335
 20
220.1937677098971
 10
185.9005756075949
 20
220.0449394867532
 10
185.9329595265197
 20
220.1136691870245
 10
185.864746590912
 20
219.9817219428946
 10
185.864746590912
 20
219.9817219428946
 10
185.822371888489
 20
219.9605345916831
 10
185.822371888489
 20
219.9605345916831
 10
185.822371888489
 20
219.9605345916831
 10
185.6528730787974
 20
219.9605345916831
 10
185.6528730787974
 20
219.9605345916831
 10
185.6528730787974
 20
219.9605345916831
 10
185.5894832800509
 20
220.002909294106
 10
185.5894832800509
 20
220.002909294106
 10
185.5894832800509
 20
220.002909294106
 10
185.5681236739515
 20
220.0240966453175
 10
185.5681236739515
 20
220.0240966453175
 10
185.5681236739515
 20
220.0240966453175
 10
185.5681236739515
 20
220.045283996529
 10
185.5681236739515
 20
220.045283996529
 10
185.5681236739515
 20
220.045283996529
 10
185.547108577628
 20
220.0876586989519
 10
185.547108577628
 20
220.0876586989519
 10
185.547108577628
 20
220.0876586989519
 10
185.547108577628
 20
220.1513930074742
 10
185.547108577628
 20
220.1513930074742
 10
185.547108577628
 20
220.1513930074742
 10
185.5894832800509
 20
220.23614241232
 10
185.5894832800509
 20
220.23614241232
 10
185.5894832800509
 20
220.23614241232
 10
185.6318579824738
 20
220.2573297635315
 10
185.6318579824738
 20
220.2573297635315
 10
185.7055830744942
 20
220.2566407439799
 10
185.8416644359337
 20
220.3310548555519
 10
185.907121293335
 20
220.1937677098971
 72
     1
 10
185.907121293335
 20
220.1937677098971
 11
185.907121293335
 21
220.1937677098971
 97
        0
 75
     0
 76
     1
 98
        0
450
        0
451
        0
460
0.0
461
0.0
452
        0
462
0.0
453
        0
470

  0
HATCH
  5
2FDE
330
1F
100
AcDbEntity
  8
图层 1
 62
     7
100
AcDbHatch
 10
0.0
 20
0.0
 30
0.0
210
0.0
220
0.0
230
1.0
  2
SOLID
 70
     1
 71
     0
 91
        1
 92
        1
 93
        2
 72
     4
 94
        3
 73
     0
 74
     0
 95
       50
 96
       46
 40
0.0
 40
0.0
 40
0.0
 40
0.0
 40
0.3527780104152769
 40
0.3527780104152769
 40
0.3527780104152769
 40
0.7055560208305538
 40
0.7055560208305538
 40
0.7055560208305538
 40
1.058334031245828
 40
1.058334031245828
 40
1.058334031245828
 40
1.411112041661104
 40
1.411112041661104
 40
1.411112041661104
 40
1.763890052076384
 40
1.763890052076384
 40
1.763890052076384
 40
2.116668062491659
 40
2.116668062491659
 40
2.116668062491659
 40
2.469446072906936
 40
2.469446072906936
 40
2.469446072906936
 40
2.822224083322215
 40
2.822224083322215
 40
2.822224083322215
 40
3.175002093737492
 40
3.175002093737492
 40
3.175002093737492
 40
3.527780104152768
 40
3.527780104152768
 40
3.527780104152768
 40
3.880558114568044
 40
3.880558114568044
 40
3.880558114568044
 40
4.233336124983321
 40
4.233336124983321
 40
4.233336124983321
 40
4.586114135398599
 40
4.586114135398599
 40
4.586114135398599
 40
4.938892145813873
 40
4.938892145813873
 40
4.938892145813873
 40
5.291670156229153
 40
5.291670156229153
 40
5.291670156229153
 40
5.291670156229153
 10
180.9117295442905
 20
208.9327766684477
 10
180.9117295442905
 20
208.9327766684477
 10
180.9117295442905
 20
208.7637946234197
 10
180.9117295442905
 20
208.7637946234197
 10
181.2273004989198
 20
208.6749111012643
 10
181.3833634273555
 20
208.6776671794706
 10
181.6948002646751
 20
208.5097186637701
 10
181.9542161258496
 20
208.4294478860095
 10
182.1388733656765
 20
208.2134402565853
 10
182.3297317814676
 20
208.02292635057
 10
182.3297317814676
 20
208.02292635057
 10
182.435496282637
 20
208.065301052993
 10
182.435496282637
 20
208.065301052993
 10
182.288390608372
 20
208.2733849575739
 10
182.3752070718726
 20
208.2134402565853
 10
182.1605774815516
 20
208.3824223016133
 10
182.1605774815516
 20
208.3824223016133
 10
182.1182027791287
 20
208.4247970040363
 10
182.1182027791287
 20
208.4247970040363
 10
182.1182027791287
 20
208.4247970040363
 10
182.0968431730294
 20
208.467516216235
 10
182.0968431730294
 20
208.467516216235
 10
182.0968431730294
 20
208.467516216235
 10
182.0544684706064
 20
208.4883590576707
 10
182.0544684706064
 20
208.4883590576707
 10
182.0544684706064
 20
208.4883590576707
 10
181.9910786718599
 20
208.5305615052057
 10
181.9910786718599
 20
208.5305615052057
 10
181.9910786718599
 20
208.5305615052057
 10
181.948703969437
 20
208.552093366193
 10
181.948703969437
 20
208.552093366193
 10
181.948703969437
 20
208.552093366193
 10
181.9063292670141
 20
208.5729362076286
 10
181.9063292670141
 20
208.5729362076286
 10
181.9063292670141
 20
208.5729362076286
 10
181.8639545645911
 20
208.6156554198274
 10
181.8639545645911
 20
208.6156554198274
 10
181.8639545645911
 20
208.6156554198274
 10
181.821924371944
 20
208.6368427710388
 10
181.821924371944
 20
208.6368427710388
 10
181.6637943848536
 20
208.6742220817127
 10
181.5452830219797
 20
208.8092699138248
 10
181.3771622513911
 20
208.8061693258427
 10
181.2803550043924
 20
208.8573290275484
 10
181.0126709085988
 20
208.8971199066528
 10
180.9117295442905
 20
208.9327766684477
 72
     1
 10
180.9117295442905
 20
208.9327766684477
 11
180.9117295442905
 21
208.9327766684477
 97
        0
 75
     0
 76
     1
 98
        0
450
        0
451
        0
460
0.0
461
0.0
452
        0
462
0.0
453
        0
470

  0
HATCH
  5
35C8
330
1F
100
AcDbEntity
  8
图层 1
 62
     7
100
AcDbHatch
 10
0.0
 20
0.0
 30
0.0
210
0.0
220
0.0
230
1.0
  2
SOLID
 70
     1
 71
     0
 91
        1
 92
        1
 93
        2
 72
     4
 94
        3
 73
     0
 74
     0
 95
       38
 96
       34
 40
0.0
 40
0.0
 40
0.0
 40
0.0
 40
0.3527780104152769
 40
0.3527780104152769
 40
0.3527780104152769
 40
0.7055560208305538
 40
0.7055560208305538
 40
0.7055560208305538
 40
1.058334031245828
 40
1.058334031245828
 40
1.058334031245828
 40
1.411112041661104
 40
1.411112041661104
 40
1.411112041661104
 40
1.763890052076384
 40
1.763890052076384
 40
1.763890052076384
 40
2.116668062491659
 40
2.116668062491659
 40
2.116668062491659
 40
2.469446072906936
 40
2.469446072906936
 40
2.469446072906936
 40
2.822224083322215
 40
2.822224083322215
 40
2.822224083322215
 40
3.175002093737492
 40
3.175002093737492
 40
3.175002093737492
 40
3.527780104152768
 40
3.527780104152768
 40
3.527780104152768
 40
3.880558114568044
 40
3.880558114568044
 40
3.880558114568044
 40
3.880558114568044
 10
189.145513185819
 20
166.8326485368285
 10
189.207869455238
 20
166.740492171803
 10
189.1317327947871
 20
166.6833035490209
 10
189.103138483396
 20
166.6209472796017
 10
189.103138483396
 20
166.6209472796017
 10
189.0607637809731
 20
166.5997599283903
 10
189.0607637809731
 20
166.5997599283903
 10
189.0607637809731
 20
166.5997599283903
 10
188.9973739822266
 20
166.5785725771788
 10
188.9973739822266
 20
166.5785725771788
 10
188.9973739822266
 20
166.5785725771788
 10
188.9549992798037
 20
166.5997599283903
 10
188.9549992798037
 20
166.5997599283903
 10
188.9549992798037
 20
166.5997599283903
 10
188.8916094810572
 20
166.5997599283903
 10
188.8916094810572
 20
166.5997599283903
 10
188.8916094810572
 20
166.5997599283903
 10
188.8492347786343
 20
166.6209472796017
 10
188.8492347786343
 20
166.6209472796017
 10
188.8492347786343
 20
166.6209472796017
 10
188.8278751725349
 20
166.6633219820247
 10
188.8278751725349
 20
166.6633219820247
 10
188.8278751725349
 20
166.6633219820247
 10
188.8068600762114
 20
166.6845093332361
 10
188.8068600762114
 20
166.6845093332361
 10
188.8068600762114
 20
166.6845093332361
 10
188.8068600762114
 20
166.8326485368285
 10
188.8068600762114
 20
166.8326485368285
 10
188.8068600762114
 20
166.8326485368285
 10
188.8702498749578
 20
166.896038335575
 10
188.8702498749578
 20
166.896038335575
 10
189.0228677056355
 20
166.8819134347673
 10
189.0686875058164
 20
166.9411691162043
 10
189.145513185819
 20
166.8326485368285
 72
     1
 10
189.145513185819
 20
166.8326485368285
 11
189.145513185819
 21
166.8326485368285
 97
        0
 75
     0
 76
     1
 98
        0
450
        0
451
        0
460
0.0
461
0.0
452
        0
462
0.0
453
        0
470

  0
HATCH
  5
35D8
330
1F
100
AcDbEntity
  8
图层 1
 62
     7
100
AcDbHatch
 10
0.0
 20
0.0
 30
0.0
210
0.0
220
0.0
230
1.0
  2
SOLID
 70
     1
 71
     0
 91
        1
 92
        1
 93
        2
 72
     4
 94
        3
 73
     0
 74
     0
 95
       68
 96
       64
 40
0.0
 40
0.0
 40
0.0
 40
0.0
 40
0.3527780104152769
 40
0.3527780104152769
 40
0.3527780104152769
 40
0.7055560208305538
 40
0.7055560208305538
 40
0.7055560208305538
 40
1.058334031245828
 40
1.058334031245828
 40
1.058334031245828
 40
1.411112041661104
 40
1.411112041661104
 40
1.411112041661104
 40
1.763890052076384
 40
1.763890052076384
 40
1.763890052076384
 40
2.116668062491659
 40
2.116668062491659
 40
2.116668062491659
 40
2.469446072906936
 40
2.469446072906936
 40
2.469446072906936
 40
2.822224083322215
 40
2.822224083322215
 40
2.822224083322215
 40
3.175002093737492
 40
3.175002093737492
 40
3.175002093737492
 40
3.527780104152768
 40
3.527780104152768
 40
3.527780104152768
 40
3.880558114568044
 40
3.880558114568044
 40
3.880558114568044
 40
4.233336124983321
 40
4.233336124983321
 40
4.233336124983321
 40
4.586114135398599
 40
4.586114135398599
 40
4.586114135398599
 40
4.938892145813873
 40
4.938892145813873
 40
4.938892145813873
 40
5.291670156229153
 40
5.291670156229153
 40
5.291670156229153
 40
5.64444816664443
 40
5.64444816664443
 40
5.64444816664443
 40
5.997226177059705
 40
5.997226177059705
 40
5.997226177059705
 40
6.350004187474984
 40
6.350004187474984
 40
6.350004187474984
 40
6.702782197890257
 40
6.702782197890257
 40
6.702782197890257
 40
7.055560208305537
 40
7.055560208305537
 40
7.055560208305537
 40
7.408338218720808
 40
7.408338218720808
 40
7.408338218720808
 40
7.408338218720808
 10
174.7732543591544
 20
135.4846705078077
 10
174.7732543591544
 20
135.4846705078077
 10
174.7732543591544
 20
135.3789060066383
 10
174.7732543591544
 20
135.3789060066383
 10
174.7732543591544
 20
135.3789060066383
 10
174.8156290615773
 20
135.3789060066383
 10
174.8156290615773
 20
135.3789060066383
 10
174.8156290615773
 20
135.3789060066383
 10
174.8580037640002
 20
135.3578909103147
 10
174.8580037640002
 20
135.3578909103147
 10
174.8580037640002
 20
135.3578909103147
 10
174.9213935627468
 20
135.3578909103147
 10
174.9213935627468
 20
135.3578909103147
 10
174.9213935627468
 20
135.3578909103147
 10
174.9637682651697
 20
135.3365313042154
 10
174.9637682651697
 20
135.3365313042154
 10
174.9637682651697
 20
135.3365313042154
 10
174.9847833614933
 20
135.3365313042154
 10
174.9847833614933
 20
135.3365313042154
 10
174.9847833614933
 20
135.3365313042154
 10
175.0271580639162
 20
135.3155162078918
 10
175.0271580639162
 20
135.3155162078918
 10
175.0271580639162
 20
135.3155162078918
 10
175.0485176700155
 20
135.2941566017924
 10
175.0485176700155
 20
135.2941566017924
 10
175.0485176700155
 20
135.2941566017924
 10
175.0695327663391
 20
135.2941566017924
 10
175.0695327663391
 20
135.2941566017924
 10
175.0695327663391
 20
135.2941566017924
 10
175.0908923724385
 20
135.2731415054689
 10
175.0908923724385
 20
135.2731415054689
 10
175.0908923724385
 20
135.2731415054689
 10
175.1332670748614
 20
135.2731415054689
 10
175.1332670748614
 20
135.2731415054689
 10
175.1332670748614
 20
135.2731415054689
 10
175.154282171185
 20
135.2517818993695
 10
175.154282171185
 20
135.2517818993695
 10
175.154282171185
 20
135.2517818993695
 10
175.154282171185
 20
135.3578909103147
 10
175.154282171185
 20
135.3578909103147
 10
175.154282171185
 20
135.3578909103147
 10
175.1332670748614
 20
135.3789060066383
 10
175.1332670748614
 20
135.3789060066383
 10
175.1332670748614
 20
135.3789060066383
 10
175.0908923724385
 20
135.3789060066383
 10
175.0908923724385
 20
135.3789060066383
 10
175.0908923724385
 20
135.3789060066383
 10
175.0908923724385
 20
135.3999211029619
 10
175.0908923724385
 20
135.3999211029619
 10
175.0908923724385
 20
135.3999211029619
 10
175.0695327663391
 20
135.3999211029619
 10
175.0695327663391
 20
135.3999211029619
 10
175.0695327663391
 20
135.3999211029619
 10
175.0271580639162
 20
135.4212807090612
 10
175.0271580639162
 20
135.4212807090612
 10
175.0271580639162
 20
135.4212807090612
 10
175.0061429675926
 20
135.4212807090612
 10
175.0061429675926
 20
135.4212807090612
 10
175.0061429675926
 20
135.4212807090612
 10
174.9637682651697
 20
135.4422958053848
 10
174.9637682651697
 20
135.4422958053848
 10
174.8996894468716
 20
135.4498750204523
 10
174.8394002361073
 20
135.4860485469109
 10
174.7732543591544
 20
135.4846705078077
 72
     1
 10
174.7732543591544
 20
135.4846705078077
 11
174.7732543591544
 21
135.4846705078077
 97
        0
 75
     0
 76
     1
 98
        0
450
        0
451
        0
460
0.0
461
0.0
452
        0
462
0.0
453
        0
470

  0
HATCH
  5
3807
330
1F
100
AcDbEntity
  8
图层 1
 62
     7
100
AcDbHatch
 10
0.0
 20
0.0
 30
0.0
210
0.0
220
0.0
230
1.0
  2
SOLID
 70
     1
 71
     0
 91
        1
 92
        1
 93
        2
 72
     4
 94
        3
 73
     0
 74
     0
 95
       29
 96
       25
 40
0.0
 40
0.0
 40
0.0
 40
0.0
 40
0.3527780104152769
 40
0.3527780104152769
 40
0.3527780104152769
 40
0.7055560208305538
 40
0.7055560208305538
 40
0.7055560208305538
 40
1.058334031245828
 40
1.058334031245828
 40
1.058334031245828
 40
1.411112041661104
 40
1.411112041661104
 40
1.411112041661104
 40
1.763890052076384
 40
1.763890052076384
 40
1.763890052076384
 40
2.116668062491659
 40
2.116668062491659
 40
2.116668062491659
 40
2.469446072906936
 40
2.469446072906936
 40
2.469446072906936
 40
2.822224083322215
 40
2.822224083322215
 40
2.822224083322215
 40
2.822224083322215
 10
175.4929352807925
 20
164.0174869039101
 10
175.4929352807925
 20
164.0174869039101
 10
175.5139503771161
 20
163.9751122014871
 10
175.5139503771161
 20
163.9751122014871
 10
175.5139503771161
 20
163.9751122014871
 10
175.5139503771161
 20
163.9327374990642
 10
175.5139503771161
 20
163.9327374990642
 10
175.5139503771161
 20
163.9327374990642
 10
175.4929352807925
 20
163.8903627966413
 10
175.4929352807925
 20
163.8903627966413
 10
175.4929352807925
 20
163.8903627966413
 10
175.471920184469
 20
163.8691754454298
 10
175.471920184469
 20
163.8691754454298
 10
175.471920184469
 20
163.8691754454298
 10
175.4505605783696
 20
163.8269729978948
 10
175.4505605783696
 20
163.8269729978948
 10
175.3571984291289
 20
163.7715069239916
 10
175.272449024283
 20
163.8195660377152
 10
175.1966568736079
 20
163.8691754454298
 10
175.208370205985
 20
163.9930267098286
 10
175.1563492298397
 20
164.0216210212197
 10
175.2600466723544
 20
164.0596893514451
 10
175.3330827448232
 20
164.1094710140476
 10
175.4357466580104
 20
164.0753645462439
 10
175.4929352807925
 20
164.0174869039101
 72
     1
 10
175.4929352807925
 20
164.0174869039101
 11
175.4929352807925
 21
164.0174869039101
 97
        0
 75
     0
 76
     1
 98
        0
450
        0
451
        0
460
0.0
461
0.0
452
        0
462
0.0
453
        0
470

  0
HATCH
  5
3895
330
1F
100
AcDbEntity
  8
图层 1
 62
     7
100
AcDbHatch
 10
0.0
 20
0.0
 30
0.0
210
0.0
220
0.0
230
1.0
  2
SOLID
 70
     1
 71
     0
 91
        1
 92
        1
 93
        2
 72
     4
 94
        3
 73
     0
 74
     0
 95
       11
 96
        7
 40
0.0
 40
0.0
 40
0.0
 40
0.0
 40
0.3527780104152769
 40
0.3527780104152769
 40
0.3527780104152769
 40
0.7055560208305538
 40
0.7055560208305538
 40
0.7055560208305538
 40
0.7055560208305538
 10
174.9213935627468
 20
174.5369206529582
 10
174.9213935627468
 20
174.5369206529582
 10
174.9213935627468
 20
174.3043765542958
 10
174.9213935627468
 20
174.3043765542958
 10
174.9213935627468
 20
174.3043765542958
 10
174.9213935627468
 20
174.5369206529582
 10
174.9213935627468
 20
174.5369206529582
 72
     1
 10
174.9213935627468
 20
174.5369206529582
 11
174.9213935627468
 21
174.5369206529582
 97
        0
 75
     0
 76
     1
 98
        0
450
        0
451
        0
460
0.0
461
0.0
452
        0
462
0.0
453
        0
470

  0
HATCH
  5
3943
330
1F
100
AcDbEntity
  8
图层 1
 62
     7
100
AcDbHatch
 10
0.0
 20
0.0
 30
0.0
210
0.0
220
0.0
230
1.0
  2
SOLID
 70
     1
 71
     0
 91
        1
 92
        1
 93
        2
 72
     4
 94
        3
 73
     0
 74
     0
 95
      131
 96
      127
 40
0.0
 40
0.0
 40
0.0
 40
0.0
 40
0.3527780104152769
 40
0.3527780104152769
 40
0.3527780104152769
 40
0.7055560208305538
 40
0.7055560208305538
 40
0.7055560208305538
 40
1.058334031245828
 40
1.058334031245828
 40
1.058334031245828
 40
1.411112041661104
 40
1.411112041661104
 40
1.411112041661104
 40
1.763890052076384
 40
1.763890052076384
 40
1.763890052076384
 40
2.116668062491659
 40
2.116668062491659
 40
2.116668062491659
 40
2.469446072906936
 40
2.469446072906936
 40
2.469446072906936
 40
2.822224083322215
 40
2.822224083322215
 40
2.822224083322215
 40
3.175002093737492
 40
3.175002093737492
 40
3.175002093737492
 40
3.527780104152768
 40
3.527780104152768
 40
3.527780104152768
 40
3.880558114568044
 40
3.880558114568044
 40
3.880558114568044
 40
4.233336124983321
 40
4.233336124983321
 40
4.233336124983321
 40
4.586114135398599
 40
4.586114135398599
 40
4.586114135398599
 40
4.938892145813873
 40
4.938892145813873
 40
4.938892145813873
 40
5.291670156229153
 40
5.291670156229153
 40
5.291670156229153
 40
5.64444816664443
 40
5.64444816664443
 40
5.64444816664443
 40
5.997226177059705
 40
5.997226177059705
 40
5.997226177059705
 40
6.350004187474984
 40
6.350004187474984
 40
6.350004187474984
 40
6.702782197890257
 40
6.702782197890257
 40
6.702782197890257
 40
7.055560208305537
 40
7.055560208305537
 40
7.055560208305537
 40
7.408338218720808
 40
7.408338218720808
 40
7.408338218720808
 40
7.76111622913609
 40
7.76111622913609
 40
7.76111622913609
 40
8.113894239551369
 40
8.113894239551369
 40
8.113894239551369
 40
8.466672249966642
 40
8.466672249966642
 40
8.466672249966642
 40
8.819450260381922
 40
8.819450260381922
 40
8.819450260381922
 40
9.172228270797198
 40
9.172228270797198
 40
9.172228270797198
 40
9.525006281212476
 40
9.525006281212476
 40
9.525006281212476
 40
9.877784291627751
 40
9.877784291627751
 40
9.877784291627751
 40
10.23056230204303
 40
10.23056230204303
 40
10.23056230204303
 40
10.58334031245831
 40
10.58334031245831
 40
10.58334031245831
 40
10.93611832287358
 40
10.93611832287358
 40
10.93611832287358
 40
11.28889633328886
 40
11.28889633328886
 40
11.28889633328886
 40
11.64167434370414
 40
11.64167434370414
 40
11.64167434370414
 40
11.99445235411941
 40
11.99445235411941
 40
11.99445235411941
 40
12.34723036453469
 40
12.34723036453469
 40
12.34723036453469
 40
12.70000837494997
 40
12.70000837494997
 40
12.70000837494997
 40
13.05278638536524
 40
13.05278638536524
 40
13.05278638536524
 40
13.40556439578052
 40
13.40556439578052
 40
13.40556439578052
 40
13.7583424061958
 40
13.7583424061958
 40
13.7583424061958
 40
14.11112041661107
 40
14.11112041661107
 40
14.11112041661107
 40
14.46389842702635
 40
14.46389842702635
 40
14.46389842702635
 40
14.81667643744163
 40
14.81667643744163
 40
14.81667643744163
 40
14.81667643744163
 10
173.3972823146245
 20
126.8274843518258
 10
173.3972823146245
 20
126.8274843518258
 10
173.3972823146245
 20
126.7217198506564
 10
173.3972823146245
 20
126.7217198506564
 10
173.3972823146245
 20
126.7217198506564
 10
173.4186419207238
 20
126.7217198506564
 10
173.4186419207238
 20
126.7217198506564
 10
173.4186419207238
 20
126.7217198506564
 10
173.4820317194703
 20
126.7007047543328
 10
173.4820317194703
 20
126.7007047543328
 10
173.4820317194703
 20
126.7007047543328
 10
173.5244064218933
 20
126.6793451482334
 10
173.5244064218933
 20
126.6793451482334
 10
173.5244064218933
 20
126.6793451482334
 10
173.5877962206398
 20
126.6793451482334
 10
173.5877962206398
 20
126.6793451482334
 10
173.5877962206398
 20
126.6793451482334
 10
173.6301709230627
 20
126.6583300519099
 10
173.6301709230627
 20
126.6583300519099
 10
173.7955356154449
 20
126.5911506456296
 10
173.759706598762
 20
126.6380039751379
 10
173.9478089363468
 20
126.5525655507404
 10
173.9478089363468
 20
126.5525655507404
 10
173.9688240326703
 20
126.4464565397952
 10
173.9688240326703
 20
126.4464565397952
 10
173.9688240326703
 20
126.4464565397952
 10
174.0325583411926
 20
126.5101908483175
 10
174.0325583411926
 20
126.5101908483175
 10
174.0325583411926
 20
126.5101908483175
 10
174.0749330436156
 20
126.5101908483175
 10
174.0749330436156
 20
126.5101908483175
 10
174.0749330436156
 20
126.5101908483175
 10
174.1593379386856
 20
126.4678161458946
 10
174.1593379386856
 20
126.4678161458946
 10
174.1593379386856
 20
126.4678161458946
 10
174.180697544785
 20
126.4464565397952
 10
174.180697544785
 20
126.4464565397952
 10
174.2464989119621
 20
126.3982251711837
 10
174.3298702777047
 20
126.3716979184474
 10
174.3922265471239
 20
126.3196769423022
 10
174.608234176548
 20
126.2059887162895
 10
174.7749769080334
 20
126.0278771622029
 10
174.9637682651697
 20
125.8749148217494
 10
174.9637682651697
 20
125.8749148217494
 10
175.0061429675926
 20
125.9172895241723
 10
175.0061429675926
 20
125.9172895241723
 10
174.961356696739
 20
125.9631093243532
 10
174.782211613325
 20
126.1246844092016
 10
174.7308796567315
 20
126.1501781326105
 10
174.7308796567315
 20
126.1501781326105
 10
174.6885049543085
 20
126.1925528350335
 10
174.6885049543085
 20
126.1925528350335
 10
174.6885049543085
 20
126.1925528350335
 10
174.667489857985
 20
126.2349275374564
 10
174.667489857985
 20
126.2349275374564
 10
174.667489857985
 20
126.2349275374564
 10
174.625115155562
 20
126.2559426337799
 10
174.625115155562
 20
126.2559426337799
 10
174.625115155562
 20
126.2559426337799
 10
174.5827404531391
 20
126.2983173362029
 10
174.5827404531391
 20
126.2983173362029
 10
174.5827404531391
 20
126.2983173362029
 10
174.5403657507162
 20
126.3196769423022
 10
174.5403657507162
 20
126.3196769423022
 10
174.5403657507162
 20
126.3196769423022
 10
174.4979910482932
 20
126.3620516447252
 10
174.4979910482932
 20
126.3620516447252
 10
174.4735308542117
 20
126.3875453681341
 10
174.3247026310678
 20
126.4695386947736
 10
174.2864620459544
 20
126.4888312422181
 10
174.2864620459544
 20
126.4888312422181
 10
174.2654469496308
 20
126.5101908483175
 10
174.2654469496308
 20
126.5101908483175
 10
174.2654469496308
 20
126.5101908483175
 10
174.2230722472079
 20
126.5312059446411
 10
174.2230722472079
 20
126.5312059446411
 10
174.2230722472079
 20
126.5312059446411
 10
174.2017126411085
 20
126.5525655507404
 10
174.2017126411085
 20
126.5525655507404
 10
174.2017126411085
 20
126.5525655507404
 10
174.1383228423621
 20
126.573580647064
 10
174.1383228423621
 20
126.573580647064
 10
174.1383228423621
 20
126.573580647064
 10
174.1169632362627
 20
126.5945957433876
 10
174.1169632362627
 20
126.5945957433876
 10
174.1169632362627
 20
126.5945957433876
 10
174.0959481399391
 20
126.7007047543328
 10
174.0959481399391
 20
126.7007047543328
 10
174.0959481399391
 20
126.7007047543328
 10
174.0325583411926
 20
126.6369704458105
 10
174.0325583411926
 20
126.6369704458105
 10
174.0325583411926
 20
126.6369704458105
 10
173.9901836387697
 20
126.6369704458105
 10
173.9901836387697
 20
126.6369704458105
 10
173.9901836387697
 20
126.6369704458105
 10
173.9054342339239
 20
126.6793451482334
 10
173.9054342339239
 20
126.6793451482334
 10
173.9054342339239
 20
126.6793451482334
 10
173.8420444351773
 20
126.7007047543328
 10
173.8420444351773
 20
126.7007047543328
 10
173.8420444351773
 20
126.7007047543328
 10
173.7996697327544
 20
126.7217198506564
 10
173.7996697327544
 20
126.7217198506564
 10
173.7996697327544
 20
126.7217198506564
 10
173.7572950303315
 20
126.7217198506564
 10
173.7572950303315
 20
126.7217198506564
 10
173.7572950303315
 20
126.7217198506564
 10
173.6725456254856
 20
126.7640945530793
 10
173.6725456254856
 20
126.7640945530793
 10
173.6725456254856
 20
126.7640945530793
 10
173.6515305291621
 20
126.7640945530793
 10
173.6515305291621
 20
126.7640945530793
 10
173.6515305291621
 20
126.7640945530793
 10
173.5667811243162
 20
126.7851096494029
 10
173.5667811243162
 20
126.7851096494029
 10
173.5667811243162
 20
126.7851096494029
 10
173.5033913255697
 20
126.8064692555022
 10
173.5033913255697
 20
126.8064692555022
 10
173.5033913255697
 20
126.8064692555022
 10
173.4396570170474
 20
126.8064692555022
 10
173.4396570170474
 20
126.8064692555022
 10
173.4396570170474
 20
126.8064692555022
 10
173.4186419207238
 20
126.8274843518258
 10
173.4186419207238
 20
126.8274843518258
 10
173.4186419207238
 20
126.8274843518258
 10
173.3972823146245
 20
126.8274843518258
 10
173.3972823146245
 20
126.8274843518258
 72
     1
 10
173.3972823146245
 20
126.8274843518258
 11
173.3972823146245
 21
126.8274843518258
 97
        0
 75
     0
 76
     1
 98
        0
450
        0
451
        0
460
0.0
461
0.0
452
        0
462
0.0
453
        0
470

  0
HATCH
  5
4842
330
1F
100
AcDbEntity
  8
图层 1
 62
     7
100
AcDbHatch
 10
0.0
 20
0.0
 30
0.0
210
0.0
220
0.0
230
1.0
  2
SOLID
 70
     1
 71
     0
 91
        1
 92
        1
 93
        2
 72
     4
 94
        3
 73
     0
 74
     0
 95
       47
 96
       43
 40
0.0
 40
0.0
 40
0.0
 40
0.0
 40
0.3527780104152769
 40
0.3527780104152769
 40
0.3527780104152769
 40
0.7055560208305538
 40
0.7055560208305538
 40
0.7055560208305538
 40
1.058334031245828
 40
1.058334031245828
 40
1.058334031245828
 40
1.411112041661104
 40
1.411112041661104
 40
1.411112041661104
 40
1.763890052076384
 40
1.763890052076384
 40
1.763890052076384
 40
2.116668062491659
 40
2.116668062491659
 40
2.116668062491659
 40
2.469446072906936
 40
2.469446072906936
 40
2.469446072906936
 40
2.822224083322215
 40
2.822224083322215
 40
2.822224083322215
 40
3.175002093737492
 40
3.175002093737492
 40
3.175002093737492
 40
3.527780104152768
 40
3.527780104152768
 40
3.527780104152768
 40
3.880558114568044
 40
3.880558114568044
 40
3.880558114568044
 40
4.233336124983321
 40
4.233336124983321
 40
4.233336124983321
 40
4.586114135398599
 40
4.586114135398599
 40
4.586114135398599
 40
4.938892145813873
 40
4.938892145813873
 40
4.938892145813873
 40
4.938892145813873
 10
180.1920486226523
 20
255.6479577566324
 10
180.1920486226523
 20
255.6479577566324
 10
180.2130637189759
 20
255.6055830542095
 10
180.2130637189759
 20
255.6055830542095
 10
180.2130637189759
 20
255.6055830542095
 10
180.2130637189759
 20
255.5210059042515
 10
180.2130637189759
 20
255.5210059042515
 10
180.2130637189759
 20
255.5210059042515
 10
180.1920486226523
 20
255.4786312018286
 10
180.1920486226523
 20
255.4786312018286
 10
180.1920486226523
 20
255.4786312018286
 10
180.1496739202294
 20
255.4359119896299
 10
180.1496739202294
 20
255.4359119896299
 10
180.1496739202294
 20
255.4359119896299
 10
180.1283143141301
 20
255.4147246384184
 10
180.1283143141301
 20
255.4147246384184
 10
180.1283143141301
 20
255.4147246384184
 10
180.0225498129606
 20
255.4147246384184
 10
180.0225498129606
 20
255.4147246384184
 10
180.0225498129606
 20
255.4147246384184
 10
179.9591600142141
 20
255.4359119896299
 10
179.9591600142141
 20
255.4359119896299
 10
179.9591600142141
 20
255.4359119896299
 10
179.9167853117912
 20
255.4570993408414
 10
179.9167853117912
 20
255.4570993408414
 10
179.9167853117912
 20
255.4570993408414
 10
179.8957702154676
 20
255.4786312018286
 10
179.8957702154676
 20
255.4786312018286
 10
179.8957702154676
 20
255.4786312018286
 10
179.8744106093683
 20
255.4994740432643
 10
179.8744106093683
 20
255.4994740432643
 10
179.8744106093683
 20
255.4994740432643
 10
179.8744106093683
 20
255.6479577566324
 10
179.8744106093683
 20
255.6479577566324
 10
179.9608825630931
 20
255.7323626517025
 10
180.045631967939
 20
255.7085914771726
 10
180.1496739202294
 20
255.7115198102668
 10
180.1496739202294
 20
255.7115198102668
 10
180.170689016553
 20
255.6688005980681
 10
180.170689016553
 20
255.6688005980681
 10
180.170689016553
 20
255.6688005980681
 10
180.1920486226523
 20
255.6479577566324
 10
180.1920486226523
 20
255.6479577566324
 72
     1
 10
180.1920486226523
 20
255.6479577566324
 11
180.1920486226523
 21
255.6479577566324
 97
        0
 75
     0
 76
     1
 98
        0
450
        0
451
        0
460
0.0
461
0.0
452
        0
462
0.0
453
        0
470

  0
MTEXT
  5
12C4B
102
{ACAD_XDICTIONARY
360
18B0F
102
}
330
1F
100
AcDbEntity
  8
打标文字
 62
     3
100
AcDbMText
 10
415.5352852978547
 20
218.5334853850231
 30
0.0
 40
0.75
 41
0.0000000000000142
 71
     1
 72
     5
  3
\A1;技术参数:\P- 材料: 铜合金\P- 表面处理: 镀金\P- 额定电流: {\Fromans|c134;30A\P}- 接触电阻: ≤{\Fromans|c134;1mΩ\P}- 线径范围: {\Fromans|c134;0.35-4.0mm\H0.7x;\S2^ ;\H1.4286x;(22-12 AWG)\H0.99998x;\P}- 可插拔次数: ≥{\Fromans|c134;500\P\PTechnical specification:\P- Material: copper 
  1
alloy\P- Surface: hard-gold plated\P- Rated current: 30A}\P{\Fromans|c134;- Contact resistance: }≤{\Fromans|c134;1mΩ\P- Wire gauge: 0.35-4.0mm\H0.7x;\S2^ ;\H1.4286x;(22-12 AWG)\P\H0.99998x;- Mating cycles: }≥{\Fromans|c134;500}
 73
     1
 44
1.0
  0
LINE
  5
12C63
330
1F
100
AcDbEntity
  8
图框
 62
     1
100
AcDbLine
 10
435.5941558404381
 20
233.3235003656423
 30
0.0
 11
435.5941558404381
 21
223.5586222508842
 31
0.0
  0
LINE
  5
13093
330
1F
100
AcDbEntity
  8
图框
 62
     1
370
    18
100
AcDbLine
 10
362.2152431492315
 20
237.0734202942363
 30
0.0
 11
436.4649306331561
 21
237.0734202942363
 31
0.0
1001
AcDbBlockRepETag
1070
     1
1071
      143
1005
13093
  0
MTEXT
  5
13EBA
330
1F
100
AcDbEntity
  8
图框
 62
     3
100
AcDbMText
 10
431.3926068354284
 20
193.9219347709595
 30
0.0
 40
0.746378394635083
 41
8.403098007973925
 71
     5
 72
     5
  1
M23-MCL30G-XX
  7
Romans字体
 73
     1
 44
1.0
1001
ACAD
1000
ACAD_MTEXT_DEFINED_HEIGHT_BEGIN
1070
    46
1040
2.17168637897189
1000
ACAD_MTEXT_DEFINED_HEIGHT_END
  0
MTEXT
  5
13EBB
330
1F
100
AcDbEntity
  8
图框
 62
     3
100
AcDbMText
 10
431.3926068354284
 20
191.7270721366755
 30
0.0
 40
0.746378394635083
 41
8.403098007973925
 71
     5
 72
     5
  1
-
  7
Romans字体
 73
     1
 44
1.0
1001
ACAD
1000
ACAD_MTEXT_DEFINED_HEIGHT_BEGIN
1070
    46
1040
2.218038889596384
1000
ACAD_MTEXT_DEFINED_HEIGHT_END
  0
MTEXT
  5
13EBC
330
1F
100
AcDbEntity
  8
图框
 62
     3
100
AcDbMText
 10
414.3791905828015
 20
188.4001633630821
 30
0.0
 40
0.746378394635083
 41
2.707337111777107
 71
     5
 72
     5
  1
4:1 
  7
Romans字体
 73
     1
 44
1.0
1001
ACAD
1000
ACAD_MTEXT_DEFINED_HEIGHT_BEGIN
1070
    46
1040
1.971523652617974
1000
ACAD_MTEXT_DEFINED_HEIGHT_END
  0
MTEXT
  5
13EBD
330
1F
100
AcDbEntity
  8
图框
 62
     3
100
AcDbMText
 10
419.7938648063562
 20
188.4001633630821
 30
0.0
 40
0.746378394635083
 41
2.707337111777531
 71
     5
 72
     5
  1
- 
  7
Romans字体
 73
     1
 44
1.0
1001
ACAD
1000
ACAD_MTEXT_DEFINED_HEIGHT_BEGIN
1070
    46
1040
1.971523652617952
1000
ACAD_MTEXT_DEFINED_HEIGHT_END
  0
INSERT
  5
13EBE
102
{ACAD_XDICTIONARY
360
14D51
102
}
330
1F
100
AcDbEntity
  8
DIM
100
AcDbBlockReference
  2
A4图框-NEW
 10
153.862029855959
 20
64.43972774266922
 30
0.0
 41
0.2500000002935963
 42
0.2500000002935963
 43
0.2500000002935995
  0
MTEXT
  5
15C35
330
1F
100
AcDbEntity
  8
图框
100
AcDbMText
 10
376.0968932096695
 20
189.505204630148
 30
0.0
 40
0.75
 41
0.0000000000000222
 71
     5
 72
     5
  1
{\fFangSong_GB2312|b0|i0|c134|p49;\C4;比例\Fromans|c134;/Scale 2:1}
  7
Romans字体
 73
     1
 44
1.0
1001
ACAD
1000
ACAD_MTEXT_DEFINED_HEIGHT_BEGIN
1070
    46
1040
2.704364302212259
1000
ACAD_MTEXT_DEFINED_HEIGHT_END
  0
LINE
  5
173F7
330
1F
100
AcDbEntity
  8
0
100
AcDbLine
 10
374.3667551230624
 20
208.688575654627
 30
0.0
 11
374.3667551230624
 21
213.9885756546267
 31
0.0
  0
LINE
  5
173F8
330
1F
100
AcDbEntity
  8
0
100
AcDbLine
 10
374.7131652845624
 20
213.4885756546267
 30
0.0
 11
374.7131652845624
 21
209.188575654627
 31
0.0
  0
LINE
  5
173F9
330
1F
100
AcDbEntity
  8
0
100
AcDbLine
 10
380.5667551230622
 20
209.188575654627
 30
0.0
 11
380.5667551230622
 21
213.4885756546267
 31
0.0
  0
HATCH
  5
173FA
330
1F
100
AcDbEntity
  8
hat
100
AcDbHatch
 10
0.0
 20
0.0
 30
0.0
210
0.0
220
0.0
230
1.0
  2
ANSI31
 70
     0
 71
     0
 91
        3
 92
       33
 93
       31
 72
     4
 94
        3
 73
     0
 74
     0
 95
       10
 96
        6
 40
0.8614438754582625
 40
0.8614438754582625
 40
0.8614438754582625
 40
0.8614438754582625
 40
1.82507694149142
 40
2.687900108865948
 40
3.510720140934115
 40
3.510720140934115
 40
3.510720140934115
 40
3.510720140934115
 10
390.6809935559963
 20
212.7885756546273
 10
390.8303746661591
 20
212.4893062390504
 10
390.980422983042
 20
211.924685348293
 10
390.4228861377847
 20
211.1209049012053
 10
390.4532492330176
 20
210.5645439168437
 10
390.8768268367062
 20
209.8885756546268
 72
     1
 10
390.6809935559963
 20
212.7885756546269
 11
389.7667551230629
 21
212.7885756546269
 72
     1
 10
390.8768268367062
 20
209.8885756546268
 11
389.7667551230629
 21
209.8885756546268
 72
     1
 10
389.7667551230629
 20
209.8885756546268
 11
389.1605373403622
 21
209.5385756546269
 72
     1
 10
389.1605373403622
 20
209.5385756546269
 11
381.8667551230624
 21
209.5385756546269
 72
     1
 10
389.7667551230629
 20
212.7885756546269
 11
389.1605373403622
 21
213.1385756546268
 72
     1
 10
389.1605373403622
 20
213.1385756546268
 11
388.2667551230629
 21
213.1385756546268
 72
     1
 10
388.2667551230629
 20
212.4635756546266
 11
388.7667551230629
 21
212.4635756546266
 72
     1
 10
388.7667551230629
 20
212.4635756546266
 11
389.4162741758623
 21
211.3385756546266
 72
     1
 10
388.7667551230629
 20
210.2135756546266
 11
389.4162741758623
 21
211.3385756546266
 72
     1
 10
382.0059686853624
 20
210.2135756546266
 11
388.7667551230629
 21
210.2135756546266
 72
     2
 10
382.0059686853624
 20
209.2135756546265
 40
1.0
 50
90.0
 51
135.0
 73
     1
 72
     1
 10
380.5667551230622
 20
209.188575654627
 11
381.298861904163
 21
209.9206824358269
 72
     1
 10
381.3760073941626
 20
208.688575654627
 11
376.5667551230622
 21
208.688575654627
 72
     1
 10
381.8667551230624
 20
209.5385756546269
 11
381.3760073941626
 21
208.688575654627
 72
     1
 10
374.7131652845624
 20
209.188575654627
 11
380.5667551230622
 21
209.188575654627
 72
     1
 10
376.1667551230626
 20
208.688575654627
 11
376.3667551230624
 21
208.8885756546268
 72
     1
 10
376.3667551230624
 20
208.8885756546268
 11
376.5667551230622
 21
208.688575654627
 72
     1
 10
376.1667551230626
 20
208.688575654627
 11
374.3667551230624
 21
208.688575654627
 72
     1
 10
374.7131652845624
 20
209.188575654627
 11
374.3667551230624
 21
208.9885756546267
 72
     1
 10
387.4667551230627
 20
213.1385756546268
 11
381.8667551230624
 21
213.1385756546268
 72
     1
 10
382.0059686853624
 20
212.4635756546266
 11
387.4667551230627
 21
212.4635756546266
 72
     2
 10
382.0059686853624
 20
213.4635756546266
 40
1.0
 50
225.0
 51
270.0
 73
     1
 72
     1
 10
380.5667551230622
 20
213.4885756546267
 11
381.298861904163
 21
212.7564688734267
 72
     1
 10
381.3760073941626
 20
213.9885756546267
 11
376.5667551230622
 21
213.9885756546267
 72
     1
 10
381.8667551230624
 20
213.1385756546268
 11
381.3760073941626
 21
213.9885756546267
 72
     1
 10
374.7131652845624
 20
213.4885756546267
 11
380.5667551230622
 21
213.4885756546267
 72
     1
 10
376.1667551230626
 20
213.9885756546267
 11
374.3667551230624
 21
213.9885756546267
 72
     1
 10
376.1667551230626
 20
213.9885756546267
 11
376.3667551230624
 21
213.7885756546269
 72
     1
 10
376.3667551230624
 20
213.7885756546269
 11
376.5667551230622
 21
213.9885756546267
 72
     1
 10
374.7131652845624
 20
213.4885756546267
 11
374.3667551230624
 21
213.6885756546269
 97
        0
 92
       48
 93
        2
 72
     1
 10
374.3667551230624
 20
208.688575654627
 11
374.3667551230624
 21
208.9885756546267
 72
     1
 10
374.3667551230624
 20
213.6885756546269
 11
374.3667551230624
 21
213.9885756546267
 97
        0
 92
       49
 93
        2
 72
     1
 10
388.2667551230629
 20
212.4635756546266
 11
388.2667551230629
 21
213.1385756546268
 72
     1
 10
387.4667551230627
 20
212.4635756546266
 11
387.4667551230627
 21
213.1385756546268
 97
        0
 75
     0
 76
     1
 52
0.0
 41
2.0
 77
     0
 78
     1
 53
45.0
 43
60.86572144864838
 44
3.729749617229856
 45
-0.1767766952966369
 46
0.1767766952966369
 79
     0
 98
        4
 10
-4615.644471453243
 20
2858.650020344137
 10
-4615.644471453243
 20
2858.650020344137
 10
-4615.644471453243
 20
2858.650020344137
 10
-4615.644471453243
 20
2858.650020344137
1001
ACAD
1010
0.0
1020
0.0
1030
0.0
  0
LINE
  5
173FB
330
1F
100
AcDbEntity
  8
0
100
AcDbLine
 10
376.3667551230624
 20
213.7885756546269
 30
0.0
 11
376.5667551230622
 21
213.9885756546267
 31
0.0
  0
LINE
  5
173FC
330
1F
100
AcDbEntity
  8
0
100
AcDbLine
 10
376.3667551230624
 20
208.8885756546268
 30
0.0
 11
376.5667551230622
 21
208.688575654627
 31
0.0
  0
LINE
  5
173FD
330
1F
100
AcDbEntity
  8
0
100
AcDbLine
 10
381.298861904163
 20
212.7564688734267
 30
0.0
 11
381.298861904163
 21
209.9206824358269
 31
0.0
  0
LINE
  5
173FE
330
1F
100
AcDbEntity
  8
0
100
AcDbLine
 10
382.0059686853624
 20
212.4635756546266
 30
0.0
 11
382.0059686853624
 21
210.2135756546266
 31
0.0
  0
LINE
  5
173FF
330
1F
100
AcDbEntity
  8
0
100
AcDbLine
 10
376.1667551230626
 20
208.688575654627
 30
0.0
 11
376.3667551230624
 21
208.8885756546268
 31
0.0
  0
LINE
  5
17400
330
1F
100
AcDbEntity
  8
0
100
AcDbLine
 10
376.1667551230626
 20
213.9885756546267
 30
0.0
 11
376.3667551230624
 21
213.7885756546269
 31
0.0
  0
LINE
  5
17401
330
1F
100
AcDbEntity
  8
0
100
AcDbLine
 10
381.8667551230624
 20
209.5385756546269
 30
0.0
 11
381.3760073941626
 21
208.688575654627
 31
0.0
  0
LINE
  5
17402
330
1F
100
AcDbEntity
  8
0
100
AcDbLine
 10
381.8667551230624
 20
213.1385756546268
 30
0.0
 11
381.3760073941626
 21
213.9885756546267
 31
0.0
  0
LINE
  5
17403
330
1F
100
AcDbEntity
  8
0
100
AcDbLine
 10
380.5667551230622
 20
209.188575654627
 30
0.0
 11
381.298861904163
 21
209.9206824358269
 31
0.0
  0
LINE
  5
17404
330
1F
100
AcDbEntity
  8
0
100
AcDbLine
 10
380.5667551230622
 20
213.4885756546267
 30
0.0
 11
381.298861904163
 21
212.7564688734267
 31
0.0
  0
LINE
  5
17405
330
1F
100
AcDbEntity
  8
0
100
AcDbLine
 10
374.7131652845624
 20
209.188575654627
 30
0.0
 11
374.3667551230624
 21
208.9885756546267
 31
0.0
  0
LINE
  5
17406
330
1F
100
AcDbEntity
  8
0
100
AcDbLine
 10
374.7131652845624
 20
213.4885756546267
 30
0.0
 11
374.3667551230624
 21
213.6885756546269
 31
0.0
  0
LINE
  5
17407
330
1F
100
AcDbEntity
  8
0
100
AcDbLine
 10
387.4667551230627
 20
212.4635756546266
 30
0.0
 11
387.4667551230627
 21
213.1385756546268
 31
0.0
  0
LINE
  5
17408
330
1F
100
AcDbEntity
  8
0
100
AcDbLine
 10
388.2667551230629
 20
212.4635756546266
 30
0.0
 11
388.2667551230629
 21
213.1385756546268
 31
0.0
  0
LINE
  5
17409
330
1F
100
AcDbEntity
  8
0
100
AcDbLine
 10
388.7667551230629
 20
210.2135756546266
 30
0.0
 11
388.7667551230629
 21
212.4635756546266
 31
0.0
  0
LINE
  5
1740A
330
1F
100
AcDbEntity
  8
0
100
AcDbLine
 10
388.7667551230629
 20
210.2135756546266
 30
0.0
 11
389.4162741758623
 21
211.3385756546266
 31
0.0
  0
LINE
  5
1740B
330
1F
100
AcDbEntity
  8
0
100
AcDbLine
 10
381.3760073941626
 20
208.688575654627
 30
0.0
 11
376.5667551230622
 21
208.688575654627
 31
0.0
  0
LINE
  5
1740C
102
{ACAD_REACTORS
330
1742B
102
}
330
1F
100
AcDbEntity
  8
0
100
AcDbLine
 10
376.1667551230626
 20
208.688575654627
 30
0.0
 11
374.3667551230624
 21
208.688575654627
 31
0.0
  0
LINE
  5
1740D
330
1F
100
AcDbEntity
  8
0
100
AcDbLine
 10
388.7667551230629
 20
212.4635756546266
 30
0.0
 11
389.4162741758623
 21
211.3385756546266
 31
0.0
  0
LINE
  5
1740E
330
1F
100
AcDbEntity
  8
0
100
AcDbLine
 10
374.7131652845624
 20
209.188575654627
 30
0.0
 11
380.5667551230622
 21
209.188575654627
 31
0.0
  0
LINE
  5
1740F
330
1F
100
AcDbEntity
  8
0
100
AcDbLine
 10
389.1605373403622
 20
209.5385756546269
 30
0.0
 11
381.8667551230624
 21
209.5385756546269
 31
0.0
  0
LINE
  5
17410
330
1F
100
AcDbEntity
  8
0
100
AcDbLine
 10
392.2667551230629
 20
209.8885756546268
 30
0.0
 11
389.7667551230629
 21
209.8885756546268
 31
0.0
  0
LINE
  5
17411
330
1F
100
AcDbEntity
  8
0
100
AcDbLine
 10
382.0059686853624
 20
210.2135756546266
 30
0.0
 11
388.7667551230629
 21
210.2135756546266
 31
0.0
  0
LINE
  5
17412
330
1F
100
AcDbEntity
  8
0
100
AcDbLine
 10
389.7667551230629
 20
209.8885756546268
 30
0.0
 11
389.1605373403622
 21
209.5385756546269
 31
0.0
  0
LINE
  5
17413
330
1F
100
AcDbEntity
  8
0
100
AcDbLine
 10
389.7667551230629
 20
212.7885756546269
 30
0.0
 11
389.1605373403622
 21
213.1385756546268
 31
0.0
  0
LINE
  5
17414
330
1F
100
AcDbEntity
  8
0
100
AcDbLine
 10
382.0059686853624
 20
212.4635756546266
 30
0.0
 11
387.4667551230627
 21
212.4635756546266
 31
0.0
  0
LINE
  5
17415
330
1F
100
AcDbEntity
  8
0
100
AcDbLine
 10
388.2667551230629
 20
212.4635756546266
 30
0.0
 11
388.7667551230629
 21
212.4635756546266
 31
0.0
  0
LINE
  5
17416
330
1F
100
AcDbEntity
  8
0
100
AcDbLine
 10
392.2667551230629
 20
212.7885756546269
 30
0.0
 11
389.7667551230629
 21
212.7885756546269
 31
0.0
  0
LINE
  5
17417
330
1F
100
AcDbEntity
  8
0
100
AcDbLine
 10
389.1605373403622
 20
213.1385756546268
 30
0.0
 11
388.2667551230629
 21
213.1385756546268
 31
0.0
  0
LINE
  5
17418
330
1F
100
AcDbEntity
  8
0
100
AcDbLine
 10
387.4667551230627
 20
213.1385756546268
 30
0.0
 11
381.8667551230624
 21
213.1385756546268
 31
0.0
  0
LINE
  5
17419
330
1F
100
AcDbEntity
  8
0
100
AcDbLine
 10
374.7131652845624
 20
213.4885756546267
 30
0.0
 11
380.5667551230622
 21
213.4885756546267
 31
0.0
  0
LINE
  5
1741A
330
1F
100
AcDbEntity
  8
0
100
AcDbLine
 10
381.3760073941626
 20
213.9885756546267
 30
0.0
 11
376.5667551230622
 21
213.9885756546267
 31
0.0
  0
LINE
  5
1741B
330
1F
100
AcDbEntity
  8
0
100
AcDbLine
 10
376.1667551230626
 20
213.9885756546267
 30
0.0
 11
374.3667551230624
 21
213.9885756546267
 31
0.0
  0
LINE
  5
1741C
102
{ACAD_REACTORS
330
1742B
102
}
330
1F
100
AcDbEntity
  8
0
100
AcDbLine
 10
412.3667551230624
 20
210.938575654627
 30
0.0
 11
412.3667551230624
 21
211.7385756546267
 31
0.0
  0
ARC
  5
1741D
330
1F
100
AcDbEntity
  8
0
100
AcDbCircle
 10
382.0059686853624
 20
209.2135756546265
 30
0.0
 40
1.0
100
AcDbArc
 50
90.0
 51
135.0
  0
ARC
  5
1741E
330
1F
100
AcDbEntity
  8
0
100
AcDbCircle
 10
382.0059686853624
 20
213.4635756546266
 30
0.0
 40
1.0
100
AcDbArc
 50
225.0
 51
270.0
  0
SPLINE
  5
1741F
330
1F
100
AcDbEntity
  8
0
100
AcDbSpline
210
0.0
220
0.0
230
1.0
 70
     8
 71
     3
 72
     9
 73
     5
 74
     0
 42
0.0000000001
 43
0.0000000001
 40
0.0
 40
0.0
 40
0.0
 40
0.0
 40
0.2959968527
 40
1.0
 40
1.0
 40
1.0
 40
1.0
 10
388.2667551230629
 20
213.1385756546268
 30
0.0
 10
388.2279848198627
 20
213.1299212015268
 30
0.0
 10
388.0959087589622
 20
213.1046698114267
 30
0.0
 10
387.9613309244628
 20
213.0935685266266
 30
0.0
 10
387.8667551593622
 20
213.0935685266266
 30
0.0
  0
SPLINE
  5
17420
330
1F
100
AcDbEntity
  8
0
100
AcDbSpline
210
0.0
220
0.0
230
1.0
 70
     8
 71
     3
 72
     9
 73
     5
 74
     0
 42
0.0000000001
 43
0.0000000001
 40
0.0
 40
0.0
 40
0.0
 40
0.0
 40
0.7040346812000001
 40
1.0
 40
1.0
 40
1.0
 40
1.0
 10
387.8667551593622
 20
213.0935685266266
 30
0.0
 10
387.7721751235626
 20
213.0935685266266
 30
0.0
 10
387.6375970226622
 20
213.1046687568267
 30
0.0
 10
387.5055212013626
 20
213.129921471227
 30
0.0
 10
387.4667551230627
 20
213.1385756546268
 30
0.0
  0
SPLINE
  5
17421
330
1F
100
AcDbEntity
  8
0
100
AcDbSpline
210
0.0
220
0.0
230
1.0
 70
     8
 71
     3
 72
    10
 73
     6
 74
     0
 42
0.0000000001
 43
0.0000000001
 40
0.0
 40
0.0
 40
0.0
 40
0.0
 40
0.3002700378
 40
0.6223880058
 40
1.0
 40
1.0
 40
1.0
 40
1.0
 10
387.4667551230627
 20
212.4635756546266
 30
0.0
 10
387.5052604028629
 20
212.4498630071269
 30
0.0
 10
387.5863229956626
 20
212.4246593253268
 30
0.0
 10
387.7199154309624
 20
212.3971605776267
 30
0.0
 10
387.8153391068622
 20
212.3900626968269
 30
0.0
 10
387.8667551230624
 20
212.3900626968269
 30
0.0
  0
SPLINE
  5
17422
330
1F
100
AcDbEntity
  8
0
100
AcDbSpline
210
0.0
220
0.0
230
1.0
 70
     8
 71
     3
 72
    10
 73
     6
 74
     0
 42
0.0000000001
 43
0.0000000001
 40
0.0
 40
0.0
 40
0.0
 40
0.0
 40
0.3776532909000001
 40
0.6997126761
 40
1.0
 40
1.0
 40
1.0
 40
1.0
 10
387.8667551230624
 20
212.3900626968269
 30
0.0
 10
387.918176855163
 20
212.3900626968269
 30
0.0
 10
388.0135992567625
 20
212.3971522895266
 30
0.0
 10
388.1471902448625
 20
212.4246601343269
 30
0.0
 10
388.2282472101629
 20
212.4498646831269
 30
0.0
 10
388.2667551230629
 20
212.4635756546266
 30
0.0
  0
LINE
  5
17423
330
1F
100
AcDbEntity
  8
CEN
 48
2.0
100
AcDbLine
 10
413.3945752771673
 20
211.3385756546271
 30
0.0
 11
373.9671756954608
 21
211.3385756546271
 31
0.0
  0
LINE
  5
17424
330
1F
100
AcDbEntity
  8
CEN
 48
0.03
100
AcDbLine
 10
387.8675692890333
 20
212.1319037860292
 30
0.0
 11
387.8675692890333
 21
213.3684189274944
 31
0.0
  0
DIMENSION
  5
17425
330
1F
100
AcDbEntity
  8
DIM
100
AcDbDimension
  2
*D3
 10
371.9112279413244
 20
209.1885756546265
 30
0.0
 11
371.9112279413244
 21
204.9385756546265
 31
0.0
 70
   160
  1
%%C<>
 71
     5
 42
4.300000000000181
  3
01
100
AcDbAlignedDimension
 13
374.7131652846624
 23
213.4885756546267
 33
0.0
 14
374.7131652846624
 24
209.1885756546265
 34
0.0
 50
90.0
100
AcDbRotatedDimension
1001
ACAD_DSTYLE_DIMINSPECT
1070
   394
1070
     4
1070
   393
1070
     1
  0
DIMENSION
  5
17426
330
1F
100
AcDbEntity
  8
DIM
100
AcDbDimension
  2
*D4
 10
384.3516567381562
 20
212.4635756546271
 30
0.0
 11
384.3516567381562
 21
205.5778613689124
 31
0.0
 70
   160
  1
%%Ca
 71
     5
 42
2.250000000000511
  3
01
100
AcDbAlignedDimension
 13
385.0845402317169
 23
210.2135756546266
 33
0.0
 14
385.0845402317169
 24
212.4635756546271
 34
0.0
 50
90.0
100
AcDbRotatedDimension
1001
ACAD_DSTYLE_DIMINSPECT
1070
   394
1070
     4
1070
   393
1070
     1
  0
DIMENSION
  5
17427
330
1F
100
AcDbEntity
  8
DIM
100
AcDbDimension
  2
*D5
 10
408.0130667867226
 20
212.3385756546265
 30
0.0
 11
408.0130667867226
 21
205.6314327974841
 31
0.0
 70
   160
  1
%%C<>
 71
     5
 42
1.999999999999942
  3
01
100
AcDbAlignedDimension
 13
405.3066945211516
 23
210.3385756546266
 33
0.0
 14
405.3066945211516
 24
212.3385756546265
 34
0.0
 50
90.0
100
AcDbRotatedDimension
  0
SPLINE
  5
17428
330
1F
100
AcDbEntity
  8
DIM
100
AcDbSpline
210
0.0
220
0.0
230
1.0
 70
     8
 71
     3
 72
    10
 73
     6
 74
     0
 42
0.0000000001
 43
0.0000000001
 40
0.8614438754582625
 40
0.8614438754582625
 40
0.8614438754582625
 40
0.8614438754582625
 40
1.82507694149142
 40
2.687900108865948
 40
3.510720140934115
 40
3.510720140934115
 40
3.510720140934115
 40
3.510720140934115
 10
390.6809935559963
 20
212.7885756546273
 30
0.0
 10
390.8303746661591
 20
212.4893062390504
 30
0.0
 10
390.980422983042
 20
211.924685348293
 30
0.0
 10
390.4228861377847
 20
211.1209049012053
 30
0.0
 10
390.4532492330176
 20
210.5645439168437
 30
0.0
 10
390.8768268367062
 20
209.8885756546268
 30
0.0
  0
DIMENSION
  5
17429
102
{ACAD_XDICTIONARY
360
1742A
102
}
102
{ACAD_REACTORS
330
1742B
102
}
330
1F
100
AcDbEntity
  8
DIM
100
AcDbDimension
  2
*D7
 10
412.3667551230624
 20
201.3798181252403
 30
0.0
 11
393.3667551230624
 21
201.3798181252403
 31
0.0
 70
   160
 71
     5
 42
38.0
  3
01
100
AcDbAlignedDimension
 13
374.3667551230624
 23
208.688575654627
 33
0.0
 14
412.3667551230624
 24
210.938575654627
 34
0.0
100
AcDbRotatedDimension
  0
LEADER
  5
1742C
330
1F
100
AcDbEntity
  8
DIM
100
AcDbLeader
  3
Standard
 71
     0
 40
3.351351351351348
 41
13.39459459459459
 76
     3
 10
376.3741702127868
 20
214.6030647153554
 30
0.0
 10
377.0087561032531
 20
216.3472529187881
 30
0.0
 10
392.561872570814
 20
216.3474706216836
 30
0.0
1001
ACAD
1000
DSTYLE
1002
{
1070
    41
1040
0.5
1002
}
  0
CIRCLE
  5
1742D
330
1F
100
AcDbEntity
  8
DIM
100
AcDbCircle
 10
376.3741702127868
 20
214.1181920255554
 30
0.0
 40
0.4848726898
  0
LINE
  5
1742E
330
1F
100
AcDbEntity
  8
0
100
AcDbLine
 10
398.3667551230624
 20
209.4885756546271
 30
0.0
 11
394.7167551230628
 21
209.4885756546271
 31
0.0
  0
LINE
  5
1742F
330
1F
100
AcDbEntity
  8
0
100
AcDbLine
 10
393.7667551230629
 20
209.4885756546271
 30
0.0
 11
392.2667551230629
 21
209.4885756546271
 31
0.0
  0
LINE
  5
17430
330
1F
100
AcDbEntity
  8
0
100
AcDbLine
 10
394.7167551230628
 20
209.4885756546271
 30
0.0
 11
398.3667551230624
 21
209.4885756546271
 31
0.0
  0
LINE
  5
17431
330
1F
100
AcDbEntity
  8
0
100
AcDbLine
 10
394.7167551230628
 20
209.8635756546272
 30
0.0
 11
393.7667551230629
 21
209.8635756546272
 31
0.0
  0
LINE
  5
17432
330
1F
100
AcDbEntity
  8
0
100
AcDbLine
 10
392.2667551230629
 20
213.188575654627
 30
0.0
 11
392.2667551230629
 21
209.4885756546271
 31
0.0
  0
LINE
  5
17433
330
1F
100
AcDbEntity
  8
0
100
AcDbLine
 10
411.4502399840626
 20
210.338575654627
 30
0.0
 11
398.7667551230629
 21
210.338575654627
 31
0.0
  0
LINE
  5
17434
330
1F
100
AcDbEntity
  8
0
100
AcDbLine
 10
393.7667551230629
 20
213.188575654627
 30
0.0
 11
393.7667551230629
 21
209.4885756546271
 31
0.0
  0
LINE
  5
17435
330
1F
100
AcDbEntity
  8
0
100
AcDbLine
 10
394.7167551230628
 20
213.188575654627
 30
0.0
 11
394.7167551230628
 21
209.4885756546271
 31
0.0
  0
LINE
  5
17436
330
1F
100
AcDbEntity
  8
0
100
AcDbLine
 10
411.4502399840626
 20
212.338575654627
 30
0.0
 11
398.7667551230629
 21
212.338575654627
 31
0.0
  0
LINE
  5
17437
330
1F
100
AcDbEntity
  8
0
100
AcDbLine
 10
394.7167551230628
 20
212.8135756546269
 30
0.0
 11
393.7667551230629
 21
212.8135756546269
 31
0.0
  0
LINE
  5
17438
330
1F
100
AcDbEntity
  8
0
100
AcDbLine
 10
398.3667551230624
 20
213.188575654627
 30
0.0
 11
394.7167551230628
 21
213.188575654627
 31
0.0
  0
LINE
  5
17439
330
1F
100
AcDbEntity
  8
0
100
AcDbLine
 10
393.7667551230629
 20
213.188575654627
 30
0.0
 11
392.2667551230629
 21
213.188575654627
 31
0.0
  0
LINE
  5
1743A
330
1F
100
AcDbEntity
  8
0
100
AcDbLine
 10
394.7167551230628
 20
213.188575654627
 30
0.0
 11
398.3667551230624
 21
213.188575654627
 31
0.0
  0
LINE
  5
1743B
330
1F
100
AcDbEntity
  8
0
100
AcDbLine
 10
398.3667551230624
 20
213.188575654627
 30
0.0
 11
398.3667551230624
 21
209.4885756546271
 31
0.0
  0
LINE
  5
1743C
330
1F
100
AcDbEntity
  8
0
100
AcDbLine
 10
398.7667551239624
 20
209.8885756555272
 30
0.0
 11
398.3667551241629
 21
209.4885756558272
 31
0.0
  0
LINE
  5
1743D
330
1F
100
AcDbEntity
  8
0
100
AcDbLine
 10
398.7667551243626
 20
212.7885756533272
 30
0.0
 11
398.3667551246622
 21
213.1885756529271
 31
0.0
  0
LINE
  5
1743E
330
1F
100
AcDbEntity
  8
0
100
AcDbLine
 10
398.7667551230629
 20
212.7885756545268
 30
0.0
 11
398.7667551230629
 21
209.8885756547268
 31
0.0
  0
LINE
  5
1743F
330
1F
100
AcDbEntity
  8
0
100
AcDbLine
 10
411.4502399840626
 20
212.338575654627
 30
0.0
 11
411.4502399840626
 21
210.338575654627
 31
0.0
  0
ARC
  5
17440
330
1F
100
AcDbEntity
  8
0
100
AcDbCircle
 10
411.4502399840626
 20
211.3385756546271
 30
0.0
 40
1.0
100
AcDbArc
 50
270.0
 51
336.4218215218031
  0
ARC
  5
17441
330
1F
100
AcDbEntity
  8
0
100
AcDbCircle
 10
411.4502399840626
 20
211.3385756546271
 30
0.0
 40
1.0
100
AcDbArc
 50
23.57817847819689
 51
90.0
  0
DIMENSION
  5
17442
330
1F
100
AcDbEntity
  8
DIM
100
AcDbDimension
  2
*D6
 10
367.7228078779051
 20
208.688575654627
 30
0.0
 11
366.4728078779051
 21
211.3385756546269
 31
0.0
 70
    32
  1
%%C<>
 71
     5
 42
5.299999999999697
  3
01
100
AcDbAlignedDimension
 13
374.3667551230624
 23
213.9885756546267
 33
0.0
 14
374.3667551230624
 24
208.688575654627
 34
0.0
 50
90.0
100
AcDbRotatedDimension
  0
MTEXT
  5
17443
330
1F
100
AcDbEntity
  8
图框
100
AcDbMText
 10
384.5516221083912
 20
217.7930459149966
 30
0.0
 40
1.5
 41
0.0000000000000222
 71
     5
 72
     5
  1
{\fFangSong_GB2312|b0|i0|c134|p49;\C4;标识\Fromans|c134;/Identification}
  7
Romans字体
 73
     1
 44
1.0
1001
ACAD
1000
ACAD_MTEXT_DEFINED_HEIGHT_BEGIN
1070
    46
1040
2.704364302212259
1000
ACAD_MTEXT_DEFINED_HEIGHT_END
  0
LINE
  5
175F6
330
1F
100
AcDbEntity
  8
0
100
AcDbLine
 10
376.8578813149491
 20
194.3912960278658
 30
0.0
 11
376.8484122626488
 21
194.1857768970658
 31
0.0
  0
LINE
  5
175F7
330
1F
100
AcDbEntity
  8
0
100
AcDbLine
 10
376.1939788188494
 20
195.3983932386659
 30
0.0
 11
376.0013642504493
 21
195.4706940280657
 31
0.0
  0
LINE
  5
175F8
330
1F
100
AcDbEntity
  8
0
100
AcDbLine
 10
370.7443180463489
 20
189.4964654057658
 30
0.0
 11
368.9888686303495
 21
188.3392312911656
 31
0.0
  0
LINE
  5
175F9
330
1F
100
AcDbEntity
  8
0
100
AcDbLine
 10
368.8428626138495
 20
188.2429806434657
 30
0.0
 11
368.185835539549
 21
187.8098527290658
 31
0.0
  0
LINE
  5
175FA
330
1F
100
AcDbEntity
  8
0
100
AcDbLine
 10
376.7260402345493
 20
193.9188544695658
 30
0.0
 11
375.393735334049
 21
193.0405673096657
 31
0.0
  0
LINE
  5
175FB
330
1F
100
AcDbEntity
  8
0
100
AcDbLine
 10
375.0469710448489
 20
192.8119720214659
 30
0.0
 11
374.4994484830487
 21
192.4510320927657
 31
0.0
  0
LINE
  5
175FC
330
1F
100
AcDbEntity
  8
0
100
AcDbLine
 10
373.3518725025489
 20
191.7244660894658
 30
0.0
 11
370.6895322857492
 21
189.969387933666
 31
0.0
  0
LINE
  5
175FD
330
1F
100
AcDbEntity
  8
0
100
AcDbLine
 10
375.0683070351489
 20
193.0506130713657
 30
0.0
 11
374.9437727817497
 21
192.9685171219658
 31
0.0
  0
LINE
  5
175FE
330
1F
100
AcDbEntity
  8
0
100
AcDbLine
 10
374.1609198011494
 20
192.4674134933657
 30
0.0
 11
373.4768327325493
 21
192.0164469853657
 31
0.0
  0
LINE
  5
175FF
330
1F
100
AcDbEntity
  8
0
100
AcDbLine
 10
381.2677929374487
 20
197.4219247593655
 30
0.0
 11
376.6381301879493
 21
194.3699406782657
 31
0.0
  0
LINE
  5
17600
330
1F
100
AcDbEntity
  8
0
100
AcDbLine
 10
372.727092638049
 20
193.2589203929656
 30
0.0
 11
372.504102765549
 21
193.2646979007659
 31
0.0
  0
LINE
  5
17601
330
1F
100
AcDbEntity
  8
0
100
AcDbLine
 10
373.5251592063489
 20
192.0483049492659
 30
0.0
 11
373.4425797822489
 21
191.8410888746656
 31
0.0
  0
LINE
  5
17602
330
1F
100
AcDbEntity
  8
0
100
AcDbLine
 10
380.7174022007495
 20
198.2568319619659
 30
0.0
 11
376.0877394512491
 21
195.2048478808656
 31
0.0
  0
LINE
  5
17603
330
1F
100
AcDbEntity
  8
0
100
AcDbLine
 10
373.3599957926492
 20
193.6761452443657
 30
0.0
 11
372.6787661643495
 21
193.2270624291659
 31
0.0
  0
LINE
  5
17604
330
1F
100
AcDbEntity
  8
0
100
AcDbLine
 10
374.2526599240493
 20
194.2795824495656
 30
0.0
 11
374.1319464450492
 21
194.2000052457656
 31
0.0
  0
LINE
  5
17605
330
1F
100
AcDbEntity
  8
0
100
AcDbLine
 10
372.3611691764492
 20
193.227299054066
 30
0.0
 11
369.6988289596494
 21
191.4722208983658
 31
0.0
  0
LINE
  5
17606
330
1F
100
AcDbEntity
  8
0
100
AcDbLine
 10
375.7078173716493
 20
195.4634327942658
 30
0.0
 11
374.375512471149
 21
194.5851456344658
 31
0.0
  0
LINE
  5
17607
330
1F
100
AcDbEntity
  8
0
100
AcDbLine
 10
374.0287481819489
 20
194.3565503462655
 30
0.0
 11
373.4812256200495
 21
193.9956104175658
 31
0.0
  0
LINE
  5
17608
330
1F
100
AcDbEntity
  8
0
100
AcDbLine
 10
369.2857825940493
 20
191.7089694926658
 30
0.0
 11
367.5303331780489
 21
190.5517353779655
 31
0.0
  0
LINE
  5
17609
330
1F
100
AcDbEntity
  8
0
100
AcDbLine
 10
367.3843271615489
 20
190.4554847303656
 30
0.0
 11
366.7273000872494
 21
190.0223568158658
 31
0.0
  0
LINE
  5
1760A
330
1F
100
AcDbEntity
  8
0
100
AcDbLine
 10
367.3503089899488
 20
190.0666274704659
 30
0.0
 11
367.3550435161489
 21
190.1693870358658
 31
0.0
  0
LINE
  5
1760B
330
1F
100
AcDbEntity
  8
0
100
AcDbLine
 10
368.4720752764489
 20
188.3649804591655
 30
0.0
 11
368.5683825606495
 21
188.3288300644658
 31
0.0
  0
ARC
  5
1760C
330
1F
100
AcDbEntity
  8
0
100
AcDbCircle
 10
380.9925964955493
 20
197.8393750695659
 30
0.0
 40
0.5000021569000001
100
AcDbArc
 50
303.39524016617
 51
123.3935129938048
  0
SPLINE
  5
1760D
330
1F
100
AcDbEntity
  8
0
100
AcDbSpline
210
0.0
220
0.0
230
1.0
 70
     8
 71
     3
 72
    14
 73
    10
 74
     0
 42
0.0000000001
 43
0.0000000001
 40
0.0
 40
0.0
 40
0.0
 40
0.0
 40
0.3204043229
 40
0.4635624368000001
 40
0.593681008
 40
0.7106153708000002
 40
0.8153383024
 40
0.9103905947999999
 40
1.0
 40
1.0
 40
1.0
 40
1.0
 10
366.6595870696494
 20
189.0689996714659
 30
0.0
 10
366.6214834213489
 20
189.1710539964656
 30
0.0
 10
366.5768297883488
 20
189.3234111588658
 30
0.0
 10
366.5508104499488
 20
189.5239290059658
 30
0.0
 10
366.5498361191496
 20
189.6569986143659
 30
0.0
 10
366.5667166004488
 20
189.7759452187656
 30
0.0
 10
366.6015931443491
 20
189.8786545786657
 30
0.0
 10
366.6543803038496
 20
189.9628944005658
 30
0.0
 10
366.7018350336495
 20
190.0055672935659
 30
0.0
 10
366.7272708699495
 20
190.0223374203656
 30
0.0
  0
SPLINE
  5
1760E
330
1F
100
AcDbEntity
  8
0
100
AcDbSpline
210
0.0
220
0.0
230
1.0
 70
     8
 71
     3
 72
    13
 73
     9
 74
     0
 42
0.0000000001
 43
0.0000000001
 40
0.0
 40
0.0
 40
0.0
 40
0.0
 40
0.3205858122
 40
0.5934829247
 40
0.7104749104000005
 40
0.8152438044
 40
0.9103445554
 40
1.0
 40
1.0
 40
1.0
 40
1.0
 10
373.4339542681494
 20
193.3300592035656
 30
0.0
 10
373.4073484733491
 20
193.4013184280657
 30
0.0
 10
373.3676307258495
 20
193.5370938887659
 30
0.0
 10
373.3526177305495
 20
193.7069373653658
 30
0.0
 10
373.3691255384494
 20
193.8236675876656
 30
0.0
 10
373.3935159279492
 20
193.8953645024658
 30
0.0
 10
373.430367863749
 20
193.9541856392656
 30
0.0
 10
373.4635343101492
 20
193.9839442598659
 30
0.0
 10
373.4812966552492
 20
193.9956491649659
 30
0.0
  0
SPLINE
  5
1760F
330
1F
100
AcDbEntity
  8
0
100
AcDbSpline
210
0.0
220
0.0
230
1.0
 70
     8
 71
     3
 72
    13
 73
     9
 74
     0
 42
0.0000000001
 43
0.0000000001
 40
0.0
 40
0.0
 40
0.0
 40
0.0
 40
0.3205858122
 40
0.5934829247
 40
0.7104749104000005
 40
0.8152438044
 40
0.9103445554
 40
1.0
 40
1.0
 40
1.0
 40
1.0
 10
374.3282411191497
 20
193.9195944204657
 30
0.0
 10
374.3016353243494
 20
193.9908536449657
 30
0.0
 10
374.2619175768488
 20
194.1266291056659
 30
0.0
 10
374.2469045815489
 20
194.2964725822658
 30
0.0
 10
374.2634123895488
 20
194.4132028045656
 30
0.0
 10
374.2878027790495
 20
194.4848997193658
 30
0.0
 10
374.3246547147493
 20
194.5437208561657
 30
0.0
 10
374.3578211612495
 20
194.5734794767659
 30
0.0
 10
374.3755835062495
 20
194.5851843818659
 30
0.0
  0
SPLINE
  5
17610
330
1F
100
AcDbEntity
  8
0
100
AcDbSpline
210
0.0
220
0.0
230
1.0
 70
     8
 71
     3
 72
     9
 73
     5
 74
     0
 42
0.0000000001
 43
0.0000000001
 40
0.0
 40
0.0
 40
0.0
 40
0.0
 40
0.2641636869
 40
1.0
 40
1.0
 40
1.0
 40
1.0
 10
376.3001444546491
 20
195.3452354750657
 30
0.0
 10
376.2912428665488
 20
195.3507501854656
 30
0.0
 10
376.2571203412492
 20
195.3709150484655
 30
0.0
 10
376.2212049740494
 20
195.3881756860656
 30
0.0
 10
376.1938960500494
 20
195.3984236039655
 30
0.0
  0
SPLINE
  5
17611
330
1F
100
AcDbEntity
  8
0
100
AcDbSpline
210
0.0
220
0.0
230
1.0
 70
     8
 71
     3
 72
    17
 73
    13
 74
     0
 42
0.0000000001
 43
0.0000000001
 40
0.0
 40
0.0
 40
0.0
 40
0.0
 40
0.1480785305
 40
0.3016805159
 40
0.4534855195000004
 40
0.5963265132
 40
0.7241204244000004
 40
0.8329096655
 40
0.8800640344999999
 40
0.9228815760999999
 40
0.9623592812999998
 40
1.0
 40
1.0
 40
1.0
 40
1.0
 10
366.6595870696494
 20
189.0689996714659
 30
0.0
 10
366.6968918743489
 20
188.9690849171657
 30
0.0
 10
366.7876863220492
 20
188.770860177066
 30
0.0
 10
366.9594582279489
 20
188.4921988132655
 30
0.0
 10
367.1610197928496
 20
188.2389671397659
 30
0.0
 10
367.3802133943492
 20
188.0264806626654
 30
0.0
 10
367.6037445754493
 20
187.8673788945657
 30
0.0
 10
367.7923326795491
 20
187.7827611802659
 30
0.0
 10
367.9333317283492
 20
187.7547253017656
 30
0.0
 10
368.027170889449
 20
187.753152862666
 30
0.0
 10
368.1125716239496
 20
187.7704471251659
 30
0.0
 10
368.1632310954494
 20
187.7949495025659
 30
0.0
 10
368.185864756949
 20
187.8098721245655
 30
0.0
  0
SPLINE
  5
17612
330
1F
100
AcDbEntity
  8
0
100
AcDbSpline
210
0.0
220
0.0
230
1.0
 70
     8
 71
     3
 72
     9
 73
     5
 74
     0
 42
0.0000000001
 43
0.0000000001
 40
0.0
 40
0.0
 40
0.0
 40
0.0
 40
0.236296853
 40
1.0
 40
1.0
 40
1.0
 40
1.0
 10
376.8578825440493
 20
194.3914114934655
 30
0.0
 10
376.8583000993487
 20
194.4004905589659
 30
0.0
 10
376.8589818528491
 20
194.4389617213656
 30
0.0
 10
376.855606807949
 20
194.4774483153656
 30
0.0
 10
376.8513616036492
 20
194.5065141736659
 30
0.0
  0
SPLINE
  5
17613
330
1F
100
AcDbEntity
  8
0
100
AcDbSpline
210
0.0
220
0.0
230
1.0
 70
     8
 71
     3
 72
    15
 73
    11
 74
     0
 42
0.0000000001
 43
0.0000000001
 40
0.0
 40
0.0
 40
0.0
 40
0.0
 40
0.305884498
 40
0.4663641635000002
 40
0.6197947998
 40
0.7566301362000001
 40
0.8680175351999999
 40
0.9121653741999999
 40
0.9483291416
 40
1.0
 40
1.0
 40
1.0
 40
1.0
 10
372.5486650128488
 20
191.4251391509655
 30
0.0
 10
372.5767375334492
 20
191.4436452258656
 30
0.0
 10
372.6252371282491
 20
191.4633246360659
 30
0.0
 10
372.6918265572487
 20
191.4776651462656
 30
0.0
 10
372.7411920829492
 20
191.4830665210656
 30
0.0
 10
372.7854047720495
 20
191.4834966039657
 30
0.0
 10
372.8174789432489
 20
191.4803228006658
 30
0.0
 10
372.8380207786488
 20
191.4750919195658
 30
0.0
 10
372.851356038049
 20
191.4698031595658
 30
0.0
 10
372.8596740310488
 20
191.4630670072656
 30
0.0
 10
372.861656730249
 20
191.4577445276659
 30
0.0
  0
SPLINE
  5
17614
330
1F
100
AcDbEntity
  8
0
100
AcDbSpline
210
0.0
220
0.0
230
1.0
 70
     8
 71
     3
 72
    17
 73
    13
 74
     0
 42
0.0000000001
 43
0.0000000001
 40
0.0
 40
0.0
 40
0.0
 40
0.0
 40
0.1480676377
 40
0.3016670211
 40
0.4534656709000001
 40
0.5963056035000001
 40
0.7241025276000001
 40
0.8328985471999999
 40
0.8800584675999999
 40
0.9228783495999998
 40
0.9623604362
 40
1.0
 40
1.0
 40
1.0
 40
1.0
 10
373.4339542681494
 20
193.3300592035656
 30
0.0
 10
373.4599935295493
 20
193.2603173449655
 30
0.0
 10
373.523370656949
 20
193.1219498275659
 30
0.0
 10
373.6432660020494
 20
192.9274301979658
 30
0.0
 10
373.7839606436493
 20
192.7506577314657
 30
0.0
 10
373.936961608849
 20
192.6023217310658
 30
0.0
 10
374.0929951801492
 20
192.4912416801658
 30
0.0
 10
374.2246403936489
 20
192.4321566899657
 30
0.0
 10
374.323069361849
 20
192.412556724466
 30
0.0
 10
374.3885798314488
 20
192.4114484577658
 30
0.0
 10
374.4482053396489
 20
192.4234834448657
 30
0.0
 10
374.4835757122493
 20
192.4405804288658
 30
0.0
 10
374.4993774478491
 20
192.450993345366
 30
0.0
  0
SPLINE
  5
17615
330
1F
100
AcDbEntity
  8
0
100
AcDbSpline
210
0.0
220
0.0
230
1.0
 70
     8
 71
     3
 72
    17
 73
    13
 74
     0
 42
0.0000000001
 43
0.0000000001
 40
0.0
 40
0.0
 40
0.0
 40
0.0
 40
0.1480676377
 40
0.3016670211
 40
0.4534656709000001
 40
0.5963056035000001
 40
0.7241025276000001
 40
0.8328985471999999
 40
0.8800584675999999
 40
0.9228783495999998
 40
0.9623604362
 40
1.0
 40
1.0
 40
1.0
 40
1.0
 10
374.3282411191497
 20
193.9195944204657
 30
0.0
 10
374.3542803805496
 20
193.8498525618657
 30
0.0
 10
374.4176575079493
 20
193.7114850444659
 30
0.0
 10
374.5375528531487
 20
193.5169654148658
 30
0.0
 10
374.6782474946497
 20
193.3401929483657
 30
0.0
 10
374.8312484598493
 20
193.1918569479658
 30
0.0
 10
374.9872820311495
 20
193.0807768970658
 30
0.0
 10
375.1189272447493
 20
193.0216919068657
 30
0.0
 10
375.2173562128493
 20
193.002091941366
 30
0.0
 10
375.2828666824492
 20
193.0009836746658
 30
0.0
 10
375.3424921906491
 20
193.0130186617656
 30
0.0
 10
375.3778625632487
 20
193.0301156457658
 30
0.0
 10
375.3936642988494
 20
193.0405285622655
 30
0.0
  0
SPLINE
  5
17616
330
1F
100
AcDbEntity
  8
0
100
AcDbSpline
210
0.0
220
0.0
230
1.0
 70
     8
 71
     3
 72
    11
 73
     7
 74
     0
 42
0.0000000001
 43
0.0000000001
 40
0.0
 40
0.0
 40
0.0
 40
0.0
 40
0.289867214
 40
0.5482013587
 40
0.7812769375000001
 40
1.0
 40
1.0
 40
1.0
 40
1.0
 10
376.0013655052491
 20
195.4706897096658
 30
0.0
 10
375.9738496603489
 20
195.4810160528659
 30
0.0
 10
375.9202863181492
 20
195.496937968866
 30
0.0
 10
375.8408884446491
 20
195.5049163383655
 30
0.0
 10
375.7687740167495
 20
195.4949449151659
 30
0.0
 10
375.7263332635495
 20
195.4756374302656
 30
0.0
 10
375.7078174012487
 20
195.4634327189656
 30
0.0
  0
SPLINE
  5
17617
330
1F
100
AcDbEntity
  8
0
100
AcDbSpline
210
0.0
220
0.0
230
1.0
 70
     8
 71
     3
 72
     9
 73
     5
 74
     0
 42
0.0000000001
 43
0.0000000001
 40
0.0
 40
0.0
 40
0.0
 40
0.0
 40
0.2768907149
 40
1.0
 40
1.0
 40
1.0
 40
1.0
 10
367.355046321549
 20
190.1693847910656
 30
0.0
 10
367.3562191062494
 20
190.1948849509659
 30
0.0
 10
367.3643755893492
 20
190.2865511326659
 30
0.0
 10
367.3904776120491
 20
190.3781066710658
 30
0.0
 10
367.4236542105493
 20
190.4359298762656
 30
0.0
  0
SPLINE
  5
17618
330
1F
100
AcDbEntity
  8
0
100
AcDbSpline
210
0.0
220
0.0
230
1.0
 70
     8
 71
     3
 72
     9
 73
     5
 74
     0
 42
0.0000000001
 43
0.0000000001
 40
0.0
 40
0.0
 40
0.0
 40
0.0
 40
0.5109232900000002
 40
1.0
 40
1.0
 40
1.0
 40
1.0
 10
367.4236542105493
 20
190.4359298762656
 30
0.0
 10
367.4370922867494
 20
190.4593509825659
 30
0.0
 10
367.4681587743492
 20
190.5027174786656
 30
0.0
 10
367.5087559562492
 20
190.5375039710656
 30
0.0
 10
367.5303347484489
 20
190.5517329958657
 30
0.0
  0
SPLINE
  5
17619
330
1F
100
AcDbEntity
  8
0
100
AcDbSpline
210
0.0
220
0.0
230
1.0
 70
     8
 71
     3
 72
    12
 73
     8
 74
     0
 42
0.0000000001
 43
0.0000000001
 40
0.0
 40
0.0
 40
0.0
 40
0.0
 40
0.0996770348
 40
0.2026303121
 40
0.4283898269
 40
0.6928154140000001
 40
1.0
 40
1.0
 40
1.0
 40
1.0
 10
369.2857826559495
 20
191.7089693987659
 30
0.0
 10
369.3041703136489
 20
191.7210896082656
 30
0.0
 10
369.3443197818489
 20
191.7417671747658
 30
0.0
 10
369.4361049272495
 20
191.7671336558656
 30
0.0
 10
369.5697913984488
 20
191.7644992871656
 30
0.0
 10
369.7396431172494
 20
191.7128375693655
 30
0.0
 10
369.851640403049
 20
191.6528987994657
 30
0.0
 10
369.9090721129488
 20
191.6167334766656
 30
0.0
  0
SPLINE
  5
1761A
330
1F
100
AcDbEntity
  8
0
100
AcDbSpline
210
0.0
220
0.0
230
1.0
 70
     8
 71
     3
 72
     9
 73
     5
 74
     0
 42
0.0000000001
 43
0.0000000001
 40
0.0
 40
0.0
 40
0.0
 40
0.0
 40
0.2543150563
 40
1.0
 40
1.0
 40
1.0
 40
1.0
 10
368.9155847734493
 20
188.3091342461657
 30
0.0
 10
368.9103147431489
 20
188.3026547970658
 30
0.0
 10
368.8886856677493
 20
188.2779307922655
 30
0.0
 10
368.8633056572492
 20
188.2564641748659
 30
0.0
 10
368.8428610433496
 20
188.2429830255656
 30
0.0
  0
SPLINE
  5
1761B
330
1F
100
AcDbEntity
  8
0
100
AcDbSpline
210
0.0
220
0.0
230
1.0
 70
     8
 71
     3
 72
     9
 73
     5
 74
     0
 42
0.0000000001
 43
0.0000000001
 40
0.0
 40
0.0
 40
0.0
 40
0.0
 40
0.2483846563
 40
1.0
 40
1.0
 40
1.0
 40
1.0
 10
367.3843287319489
 20
190.4554823482658
 30
0.0
 10
367.3897803203492
 20
190.459077117866
 30
0.0
 10
367.4121767414492
 20
190.4728618008658
 30
0.0
 10
367.4363185074491
 20
190.4837809191658
 30
0.0
 10
367.4549764937494
 20
190.4902881251656
 30
0.0
  0
SPLINE
  5
1761C
330
1F
100
AcDbEntity
  8
0
100
AcDbSpline
210
0.0
220
0.0
230
1.0
 70
     8
 71
     3
 72
    11
 73
     7
 74
     0
 42
0.0000000001
 43
0.0000000001
 40
0.0
 40
0.0
 40
0.0
 40
0.0
 40
0.1878989601
 40
0.4115578507000003
 40
0.6824929209999999
 40
1.0
 40
1.0
 40
1.0
 40
1.0
 10
372.4869067774491
 20
191.3178912984658
 30
0.0
 10
372.4840205387492
 20
191.3256328829657
 30
0.0
 10
372.4828348989488
 20
191.3445848782658
 30
0.0
 10
372.494022849449
 20
191.3730783578658
 30
0.0
 10
372.5165287350494
 20
191.4013019723656
 30
0.0
 10
372.5370087763487
 20
191.4174550818657
 30
0.0
 10
372.5486650128488
 20
191.4251391509655
 30
0.0
  0
SPLINE
  5
1761D
330
1F
100
AcDbEntity
  8
0
100
AcDbSpline
210
0.0
220
0.0
230
1.0
 70
     8
 71
     3
 72
     9
 73
     5
 74
     0
 42
0.0000000001
 43
0.0000000001
 40
0.0
 40
0.0
 40
0.0
 40
0.0
 40
0.480886206
 40
1.0
 40
1.0
 40
1.0
 40
1.0
 10
372.361172790049
 20
193.2272935730657
 30
0.0
 10
372.3811797086493
 20
193.2404882007659
 30
0.0
 10
372.427876673749
 20
193.2607285776658
 30
0.0
 10
372.4782402117491
 20
193.2653689526656
 30
0.0
 10
372.5041027914496
 20
193.2646978427655
 30
0.0
  0
SPLINE
  5
1761E
330
1F
100
AcDbEntity
  8
0
100
AcDbSpline
210
0.0
220
0.0
230
1.0
 70
     8
 71
     3
 72
    10
 73
     6
 74
     0
 42
0.0000000001
 43
0.0000000001
 40
0.0
 40
0.0
 40
0.0
 40
0.0
 40
0.227155669
 40
0.4646562327000003
 40
1.0
 40
1.0
 40
1.0
 40
1.0
 10
374.0288192170494
 20
194.3565890936657
 30
0.0
 10
374.0440250371495
 20
194.3666093178658
 30
0.0
 10
374.0778965853489
 20
194.3831940297659
 30
0.0
 10
374.1568361482488
 20
194.4002765452655
 30
0.0
 10
374.2202120797494
 20
194.3930546651659
 30
0.0
 10
374.2618679949493
 20
194.3827267714654
 30
0.0
  0
SPLINE
  5
1761F
330
1F
100
AcDbEntity
  8
0
100
AcDbSpline
210
0.0
220
0.0
230
1.0
 70
     8
 71
     3
 72
    11
 73
     7
 74
     0
 42
0.0000000001
 43
0.0000000001
 40
0.0
 40
0.0
 40
0.0
 40
0.0
 40
0.2187203475
 40
0.4517884993
 40
0.7101221362000001
 40
1.0
 40
1.0
 40
1.0
 40
1.0
 10
376.7260402049489
 20
193.9188545448656
 30
0.0
 10
376.7445559809496
 20
193.9310591992658
 30
0.0
 10
376.7790236164494
 20
193.9624588442656
 30
0.0
 10
376.8166167418496
 20
194.0248003849656
 30
0.0
 10
376.8405753596491
 20
194.1009184463655
 30
0.0
 10
376.8470525483492
 20
194.1564226418659
 30
0.0
 10
376.8484065022496
 20
194.1857824571657
 30
0.0
  0
SPLINE
  5
17620
330
1F
100
AcDbEntity
  8
0
100
AcDbSpline
210
0.0
220
0.0
230
1.0
 70
     8
 71
     3
 72
    12
 73
     8
 74
     0
 42
0.0000000001
 43
0.0000000001
 40
0.0
 40
0.0
 40
0.0
 40
0.0
 40
0.0996969292
 40
0.2026682704
 40
0.4284456079
 40
0.692879637
 40
1.0
 40
1.0
 40
1.0
 40
1.0
 10
370.7443179845488
 20
189.4964654996656
 30
0.0
 10
370.7626956062488
 20
189.5085790938656
 30
0.0
 10
370.7975042174497
 20
189.5373129117657
 30
0.0
 10
370.8569674024495
 20
189.6116143282657
 30
0.0
 10
370.907242775049
 20
189.7354173829658
 30
0.0
 10
370.9267391488495
 20
189.9117360991659
 30
0.0
 10
370.9158636916492
 20
190.0381893454655
 30
0.0
 10
370.9052934559488
 20
190.1051655790657
 30
0.0
  0
SPLINE
  5
17621
330
1F
100
AcDbEntity
  8
0
100
AcDbSpline
210
0.0
220
0.0
230
1.0
 70
     8
 71
     3
 72
    11
 73
     7
 74
     0
 42
0.0000000001
 43
0.0000000001
 40
0.0
 40
0.0
 40
0.0
 40
0.0
 40
0.2187214614
 40
0.4517970167
 40
0.7101366198000001
 40
1.0
 40
1.0
 40
1.0
 40
1.0
 10
368.9888670598495
 20
188.3392336732659
 30
0.0
 10
368.962347651349
 20
188.3217468130656
 30
0.0
 10
368.9015523864493
 20
188.2940932154656
 30
0.0
 10
368.7982544878488
 20
188.2798021983658
 30
0.0
 10
368.6845230353493
 20
188.2912406316659
 30
0.0
 10
368.6077957216495
 20
188.3140407231658
 30
0.0
 10
368.5683818728497
 20
188.3288325515659
 30
0.0
  0
SPLINE
  5
17622
330
1F
100
AcDbEntity
  8
0
100
AcDbSpline
210
0.0
220
0.0
230
1.0
 70
     8
 71
     3
 72
    10
 73
     6
 74
     0
 42
0.0000000001
 43
0.0000000001
 40
0.0
 40
0.0
 40
0.0
 40
0.0
 40
0.2271742728
 40
0.4646616781000001
 40
1.0
 40
1.0
 40
1.0
 40
1.0
 10
375.0469000097493
 20
192.8119332740657
 30
0.0
 10
375.062111042049
 20
192.8219569330659
 30
0.0
 10
375.0907340801489
 20
192.8465288372659
 30
0.0
 10
375.137592107749
 20
192.9123414867659
 30
0.0
 10
375.1559668638494
 20
192.9734430284657
 30
0.0
 10
375.1628926608493
 20
193.0158085521657
 30
0.0
  0
SPLINE
  5
17623
330
1F
100
AcDbEntity
  8
0
100
AcDbSpline
210
0.0
220
0.0
230
1.0
 70
     8
 71
     3
 72
     9
 73
     5
 74
     0
 42
0.0000000001
 43
0.0000000001
 40
0.0
 40
0.0
 40
0.0
 40
0.0
 40
0.4808752277
 40
1.0
 40
1.0
 40
1.0
 40
1.0
 10
373.3518688889491
 20
191.724471570466
 30
0.0
 10
373.3718758037495
 20
191.7376661955659
 30
0.0
 10
373.408904443949
 20
191.7725840057656
 30
0.0
 10
373.4329952119489
 20
191.8170594928656
 30
0.0
 10
373.4425765340495
 20
191.8410923932656
 30
0.0
  0
SPLINE
  5
17624
330
1F
100
AcDbEntity
  8
0
100
AcDbSpline
210
0.0
220
0.0
230
1.0
 70
     8
 71
     3
 72
    15
 73
    11
 74
     0
 42
0.0000000001
 43
0.0000000001
 40
0.0
 40
0.0
 40
0.0
 40
0.0
 40
0.1481912181
 40
0.3019783421
 40
0.4539051718
 40
0.5968856256000003
 40
0.7247977932000002
 40
0.8336922806
 40
0.9233884097
 40
1.0
 40
1.0
 40
1.0
 40
1.0
 10
380.6918501186494
 20
197.8970745489655
 30
0.0
 10
380.7059245285492
 20
197.8593785678659
 30
0.0
 10
380.7401933375487
 20
197.7845779293657
 30
0.0
 10
380.804995940449
 20
197.6794203970658
 30
0.0
 10
380.8810763764488
 20
197.5838607113656
 30
0.0
 10
380.9637561205493
 20
197.5036962132658
 30
0.0
 10
381.0481802216493
 20
197.4435971665657
 30
0.0
 10
381.1297764915492
 20
197.407067845566
 30
0.0
 10
381.2052479121497
 20
197.3963418554658
 30
0.0
 10
381.2504265253494
 20
197.4104734711659
 30
0.0
 10
381.2677928488494
 20
197.4219248937657
 30
0.0
  0
SPLINE
  5
17625
330
1F
100
AcDbEntity
  8
0
100
AcDbSpline
210
0.0
220
0.0
230
1.0
 70
     8
 71
     3
 72
    13
 73
     9
 74
     0
 42
0.0000000001
 43
0.0000000001
 40
0.0
 40
0.0
 40
0.0
 40
0.0
 40
0.165544896
 40
0.3210330445
 40
0.5309932919
 40
0.7112545695
 40
0.8642669562
 40
1.0
 40
1.0
 40
1.0
 40
1.0
 10
374.0942571239495
 20
193.6693630616655
 30
0.0
 10
374.0833116368496
 20
193.698678739866
 30
0.0
 10
374.0642754184493
 20
193.7563927996657
 30
0.0
 10
374.0412887038494
 20
193.8542093168658
 30
0.0
 10
374.0302060975493
 20
193.9572860597659
 30
0.0
 10
374.0395507780487
 20
194.0604348697657
 30
0.0
 10
374.0716616371494
 20
194.1447210651659
 30
0.0
 10
374.1104602732495
 20
194.1858250180658
 30
0.0
 10
374.1318782050495
 20
194.1999516318656
 30
0.0
  0
SPLINE
  5
17626
330
1F
100
AcDbEntity
  8
0
100
AcDbSpline
210
0.0
220
0.0
230
1.0
 70
     8
 71
     3
 72
    14
 73
    10
 74
     0
 42
0.0000000001
 43
0.0000000001
 40
0.0
 40
0.0
 40
0.0
 40
0.0
 40
0.3204077752
 40
0.4635663803
 40
0.5936845488
 40
0.7106177497
 40
0.8153391840000001
 40
0.9103903603999999
 40
1.0
 40
1.0
 40
1.0
 40
1.0
 10
369.2180695764493
 20
190.7556123482659
 30
0.0
 10
369.1799642183489
 20
190.857671252566
 30
0.0
 10
369.1353090934492
 20
191.0100351626656
 30
0.0
 10
369.1092912800488
 20
191.2105614258658
 30
0.0
 10
369.1083198301496
 20
191.3436352922659
 30
0.0
 10
369.1252049395491
 20
191.4625844230659
 30
0.0
 10
369.1600878593492
 20
191.5652943380655
 30
0.0
 10
369.2128832380487
 20
191.6495323096656
 30
0.0
 10
369.2603439941487
 20
191.6922015257656
 30
0.0
 10
369.2857826559495
 20
191.7089693987659
 30
0.0
  0
SPLINE
  5
17627
330
1F
100
AcDbEntity
  8
0
100
AcDbSpline
210
0.0
220
0.0
230
1.0
 70
     8
 71
     3
 72
    15
 73
    11
 74
     0
 42
0.0000000001
 43
0.0000000001
 40
0.0
 40
0.0
 40
0.0
 40
0.0
 40
0.1233933708
 40
0.2282905846
 40
0.3234887231
 40
0.4222589187
 40
0.5360911222000003
 40
0.6705587064000002
 40
0.8261798162999999
 40
1.0
 40
1.0
 40
1.0
 40
1.0
 10
376.1938960500494
 20
195.3984236039655
 30
0.0
 10
376.1632766030491
 20
195.4099138252659
 30
0.0
 10
376.1041281849495
 20
195.4257265255655
 30
0.0
 10
376.0165701008493
 20
195.4219908945656
 30
0.0
 10
375.943410316949
 20
195.3849539822659
 30
0.0
 10
375.8933714078495
 20
195.3174479550657
 30
0.0
 10
375.8679945692493
 20
195.2276096616656
 30
0.0
 10
375.8653523817494
 20
195.1198043303656
 30
0.0
 10
375.8848291037494
 20
194.9978903440656
 30
0.0
 10
375.9107367426488
 20
194.9142131701656
 30
0.0
 10
375.9268510163494
 20
194.8710537526658
 30
0.0
  0
SPLINE
  5
17628
330
1F
100
AcDbEntity
  8
0
100
AcDbSpline
210
0.0
220
0.0
230
1.0
 70
     8
 71
     3
 72
    13
 73
     9
 74
     0
 42
0.0000000001
 43
0.0000000001
 40
0.0
 40
0.0
 40
0.0
 40
0.0
 40
0.320574349
 40
0.5934713821999999
 40
0.7104671431
 40
0.8152409604999999
 40
0.9103453698
 40
1.0
 40
1.0
 40
1.0
 40
1.0
 10
369.6528352118495
 20
190.8246575549656
 30
0.0
 10
369.6269523180492
 20
190.893980608666
 30
0.0
 10
369.5883118415488
 20
191.0260685674657
 30
0.0
 10
369.5736985582491
 20
191.1912996932656
 30
0.0
 10
369.5897455945489
 20
191.3048658189659
 30
0.0
 10
369.6134624617491
 20
191.3746237647655
 30
0.0
 10
369.6493000278489
 20
191.4318592623658
 30
0.0
 10
369.6815565949493
 20
191.460821853666
 30
0.0
 10
369.6988325732493
 20
191.4722154173655
 30
0.0
  0
SPLINE
  5
17629
330
1F
100
AcDbEntity
  8
0
100
AcDbSpline
210
0.0
220
0.0
230
1.0
 70
     8
 71
     3
 72
    13
 73
     9
 74
     0
 42
0.0000000001
 43
0.0000000001
 40
0.0
 40
0.0
 40
0.0
 40
0.0
 40
0.320574349
 40
0.5934713821999999
 40
0.7104671431
 40
0.8152409604999999
 40
0.9103453698
 40
1.0
 40
1.0
 40
1.0
 40
1.0
 10
372.3151754286493
 20
192.5797357107658
 30
0.0
 10
372.2892925348489
 20
192.6490587643657
 30
0.0
 10
372.2506520584495
 20
192.7811467232659
 30
0.0
 10
372.2360387750488
 20
192.9463778490658
 30
0.0
 10
372.2520858113496
 20
193.0599439747657
 30
0.0
 10
372.2758026785488
 20
193.1297019204658
 30
0.0
 10
372.3116402446497
 20
193.1869374181656
 30
0.0
 10
372.3438968117491
 20
193.2159000093657
 30
0.0
 10
372.361172790049
 20
193.2272935730657
 30
0.0
  0
SPLINE
  5
1762A
330
1F
100
AcDbEntity
  8
0
100
AcDbSpline
210
0.0
220
0.0
230
1.0
 70
     8
 71
     3
 72
    13
 73
     9
 74
     0
 42
0.0000000001
 43
0.0000000001
 40
0.0
 40
0.0
 40
0.0
 40
0.0
 40
0.1655544548
 40
0.3210488282
 40
0.5310108726000001
 40
0.7112656457
 40
0.8642682087
 40
1.0
 40
1.0
 40
1.0
 40
1.0
 10
372.6417156452491
 20
192.7054141803655
 30
0.0
 10
372.6309534369495
 20
192.7342389766659
 30
0.0
 10
372.6122365650492
 20
192.7909863310656
 30
0.0
 10
372.5896380792494
 20
192.8871632710657
 30
0.0
 10
372.5787478957493
 20
192.9885094420655
 30
0.0
 10
372.5879485911493
 20
193.0899219317657
 30
0.0
 10
372.619540704549
 20
193.1727823443657
 30
0.0
 10
372.657705274649
 20
193.2131778485659
 30
0.0
 10
372.6787700621491
 20
193.2270565156659
 30
0.0
  0
SPLINE
  5
1762B
330
1F
100
AcDbEntity
  8
0
100
AcDbSpline
210
0.0
220
0.0
230
1.0
 70
     8
 71
     3
 72
    17
 73
    13
 74
     0
 42
0.0000000001
 43
0.0000000001
 40
0.0
 40
0.0
 40
0.0
 40
0.0
 40
0.15297669
 40
0.3114516851
 40
0.4666043083
 40
0.6099924636999999
 40
0.7348886559000001
 40
0.7892875626000003
 40
0.8382454452999999
 40
0.9222255751
 40
0.9608893740999999
 40
1.0
 40
1.0
 40
1.0
 40
1.0
 10
375.9268510163494
 20
194.8710537526658
 30
0.0
 10
375.9489550987493
 20
194.8118516191657
 30
0.0
 10
376.0034259922488
 20
194.6947249641658
 30
0.0
 10
376.1072044544492
 20
194.5317173464659
 30
0.0
 10
376.2287335536495
 20
194.3864497838658
 30
0.0
 10
376.3593943850494
 20
194.2692318932659
 30
0.0
 10
376.4734804673491
 20
194.1981705221656
 30
0.0
 10
376.5619918678487
 20
194.1645753522657
 30
0.0
 10
376.637734871949
 20
194.1483840839655
 30
0.0
 10
376.7116165723493
 20
194.1534819232656
 30
0.0
 10
376.7711488251492
 20
194.185699027466
 30
0.0
 10
376.794302991949
 20
194.2086511019656
 30
0.0
 10
376.8042356766494
 20
194.2213936306657
 30
0.0
  0
SPLINE
  5
1762C
330
1F
100
AcDbEntity
  8
0
100
AcDbSpline
210
0.0
220
0.0
230
1.0
 70
     8
 71
     3
 72
     9
 73
     5
 74
     0
 42
0.0000000001
 43
0.0000000001
 40
0.0
 40
0.0
 40
0.0
 40
0.0
 40
0.2230138017
 40
1.0
 40
1.0
 40
1.0
 40
1.0
 10
376.8042356766494
 20
194.2213936306657
 30
0.0
 10
376.8124612268495
 20
194.2319460958656
 30
0.0
 10
376.8443871400488
 20
194.2832049411659
 30
0.0
 10
376.8557409391489
 20
194.3448457560658
 30
0.0
 10
376.8578825440493
 20
194.3914114934655
 30
0.0
  0
SPLINE
  5
1762D
330
1F
100
AcDbEntity
  8
0
100
AcDbSpline
210
0.0
220
0.0
230
1.0
 70
     8
 71
     3
 72
    13
 73
     9
 74
     0
 42
0.0000000001
 43
0.0000000001
 40
0.0
 40
0.0
 40
0.0
 40
0.0
 40
0.0999622433
 40
0.2118359298
 40
0.3339605232
 40
0.4639119195000001
 40
0.7350858331
 40
1.0
 40
1.0
 40
1.0
 40
1.0
 10
368.5683818728497
 20
188.3288325515659
 30
0.0
 10
368.5145755408495
 20
188.3490258098659
 30
0.0
 10
368.4045998339489
 20
188.4028221792655
 30
0.0
 10
368.2452594394492
 20
188.5107373942656
 30
0.0
 10
368.0863085193489
 20
188.6474613020659
 30
0.0
 10
367.8786388196487
 20
188.8656633967658
 30
0.0
 10
367.6533153051488
 20
189.1776463764659
 30
0.0
 10
367.5158938480492
 20
189.4556934651659
 30
0.0
 10
367.4626201603489
 20
189.5983782336657
 30
0.0
  0
SPLINE
  5
1762E
330
1F
100
AcDbEntity
  8
0
100
AcDbSpline
210
0.0
220
0.0
230
1.0
 70
     8
 71
     3
 72
    13
 73
     9
 74
     0
 42
0.0000000001
 43
0.0000000001
 40
0.0
 40
0.0
 40
0.0
 40
0.0
 40
0.1655068488
 40
0.3210393911
 40
0.5310338085000002
 40
0.7112571190000001
 40
0.8642652015000001
 40
1.0
 40
1.0
 40
1.0
 40
1.0
 10
376.062187369049
 20
194.8450904678657
 30
0.0
 10
376.0547665762489
 20
194.8649658352656
 30
0.0
 10
376.0418620572492
 20
194.9041060536655
 30
0.0
 10
376.026269943349
 20
194.9704425449659
 30
0.0
 10
376.0187575585489
 20
195.0403502071658
 30
0.0
 10
376.0251218106489
 20
195.110293361166
 30
0.0
 10
376.0469046698491
 20
195.1674465323658
 30
0.0
 10
376.0732423926494
 20
195.1952949610659
 30
0.0
 10
376.0877709747494
 20
195.2048684674655
 30
0.0
  0
SPLINE
  5
1762F
330
1F
100
AcDbEntity
  8
0
100
AcDbSpline
210
0.0
220
0.0
230
1.0
 70
     8
 71
     3
 72
    13
 73
     9
 74
     0
 42
0.0000000001
 43
0.0000000001
 40
0.0
 40
0.0
 40
0.0
 40
0.0
 40
0.2649232948
 40
0.5360889181000001
 40
0.6660418138000001
 40
0.7881657717000003
 40
0.9000382475
 40
1.0
 40
1.0
 40
1.0
 40
1.0
 10
367.4497666422496
 20
189.5387136721656
 30
0.0
 10
367.4990212989489
 20
189.4067932138655
 30
0.0
 10
367.626072660649
 20
189.1497311501657
 30
0.0
 10
367.8343917195491
 20
188.8612946414655
 30
0.0
 10
368.0263821941491
 20
188.6595607311656
 30
0.0
 10
368.1733391135487
 20
188.5331586840657
 30
0.0
 10
368.3206541685487
 20
188.4333916265659
 30
0.0
 10
368.4223284113488
 20
188.3836549052658
 30
0.0
 10
368.4720737047493
 20
188.3649861421659
 30
0.0
  0
SPLINE
  5
17630
330
1F
100
AcDbEntity
  8
0
100
AcDbSpline
210
0.0
220
0.0
230
1.0
 70
     8
 71
     3
 72
     9
 73
     5
 74
     0
 42
0.0000000001
 43
0.0000000001
 40
0.0
 40
0.0
 40
0.0
 40
0.0
 40
0.5378691117000001
 40
1.0
 40
1.0
 40
1.0
 40
1.0
 10
367.4497666422496
 20
189.5387136721656
 30
0.0
 10
367.4159156591488
 20
189.6293779360658
 30
0.0
 10
367.3646926243493
 20
189.802639809966
 30
0.0
 10
367.3464860666492
 20
189.9835594410656
 30
0.0
 10
367.3503166736493
 20
190.0666213209655
 30
0.0
  0
SPLINE
  5
17631
330
1F
100
AcDbEntity
  8
0
100
AcDbSpline
210
0.0
220
0.0
230
1.0
 70
     8
 71
     3
 72
    13
 73
     9
 74
     0
 42
0.0000000001
 43
0.0000000001
 40
0.0
 40
0.0
 40
0.0
 40
0.0
 40
0.1655007062
 40
0.3210292331
 40
0.5310225191
 40
0.7112500152
 40
0.8642644122
 40
1.0
 40
1.0
 40
1.0
 40
1.0
 10
380.6918501186494
 20
197.8970745489655
 30
0.0
 10
380.6844303167492
 20
197.9169472619656
 30
0.0
 10
380.6715272587492
 20
197.9560823852658
 30
0.0
 10
380.6559357595491
 20
198.0224107597655
 30
0.0
 10
380.6484213412488
 20
198.0923111223656
 30
0.0
 10
380.6547792119492
 20
198.1622489759657
 30
0.0
 10
380.6765507447492
 20
198.2194009436657
 30
0.0
 10
380.7028781013489
 20
198.2472545201658
 30
0.0
 10
380.7174022893489
 20
198.2568318274657
 30
0.0
  0
SPLINE
  5
17632
330
1F
100
AcDbEntity
  8
0
100
AcDbSpline
210
0.0
220
0.0
230
1.0
 70
     8
 71
     3
 72
    19
 73
    15
 74
     0
 42
0.0000000001
 43
0.0000000001
 40
0.0
 40
0.0
 40
0.0
 40
0.0
 40
0.1590559942
 40
0.3204299909
 40
0.4658018511
 40
0.5280873601
 40
0.5821559998
 40
0.6285716401000001
 40
0.6696062466
 40
0.7094376798999999
 40
0.7527609109000001
 40
0.8028304654999999
 40
0.8610438931999999
 40
1.0
 40
1.0
 40
1.0
 40
1.0
 10
381.2068404001495
 20
198.0829947752659
 30
0.0
 10
381.2157324189495
 20
198.0591789724658
 30
0.0
 10
381.239070540749
 20
198.0131247849658
 30
0.0
 10
381.2843868962493
 20
197.9536465753658
 30
0.0
 10
381.3290389061487
 20
197.914130831166
 30
0.0
 10
381.3657442597488
 20
197.8937099458658
 30
0.0
 10
381.3905955103493
 20
197.8853970753658
 30
0.0
 10
381.413468139149
 20
197.8836507443657
 30
0.0
 10
381.4335807891495
 20
197.8892019907658
 30
0.0
 10
381.4493289007489
 20
197.9022134951656
 30
0.0
 10
381.459500589149
 20
197.9213990115659
 30
0.0
 10
381.464260272249
 20
197.9454059634659
 30
0.0
 10
381.4635701866493
 20
197.9851137770656
 30
0.0
 10
381.4552066959488
 20
198.0160316220658
 30
0.0
 10
381.4474383605495
 20
198.0368378245657
 30
0.0
  0
SPLINE
  5
17633
330
1F
100
AcDbEntity
  8
0
100
AcDbSpline
210
0.0
220
0.0
230
1.0
 70
     8
 71
     3
 72
    19
 73
    15
 74
     0
 42
0.0000000001
 43
0.0000000001
 40
0.0
 40
0.0
 40
0.0
 40
0.0
 40
0.1389561068
 40
0.1971695345
 40
0.2472390891
 40
0.2905623201
 40
0.3303937534
 40
0.3714283599
 40
0.4178440002000002
 40
0.4719126399000002
 40
0.5341981489000001
 40
0.6795700091
 40
0.8409440057999999
 40
1.0
 40
1.0
 40
1.0
 40
1.0
 10
381.2068404001495
 20
198.0829947752659
 30
0.0
 10
381.1990720647493
 20
198.1038009778658
 30
0.0
 10
381.1907085740489
 20
198.134718822766
 30
0.0
 10
381.1900184885491
 20
198.1744266363658
 30
0.0
 10
381.1947781715492
 20
198.1984335882657
 30
0.0
 10
381.2049498599492
 20
198.2176191046656
 30
0.0
 10
381.2206979716495
 20
198.2306306090659
 30
0.0
 10
381.2408106215491
 20
198.2361818555659
 30
0.0
 10
381.2636832503486
 20
198.2344355244659
 30
0.0
 10
381.2885345009492
 20
198.2261226540659
 30
0.0
 10
381.3252398545494
 20
198.2057017686657
 30
0.0
 10
381.3698918644488
 20
198.1661860245658
 30
0.0
 10
381.4152082199491
 20
198.1067078148658
 30
0.0
 10
381.4385463417495
 20
198.0606536273658
 30
0.0
 10
381.4474383605495
 20
198.0368378245657
 30
0.0
  0
SPLINE
  5
17634
330
1F
100
AcDbEntity
  8
0
100
AcDbSpline
210
0.0
220
0.0
230
1.0
 70
     8
 71
     3
 72
    10
 73
     6
 74
     0
 42
0.0000000001
 43
0.0000000001
 40
0.0
 40
0.0
 40
0.0
 40
0.0
 40
0.3317815498
 40
0.626487874
 40
1.0
 40
1.0
 40
1.0
 40
1.0
 10
372.861656730249
 20
191.4577445276659
 30
0.0
 10
372.8659051038496
 20
191.4463399327655
 30
0.0
 10
372.8476785921495
 20
191.4229412505656
 30
0.0
 10
372.8212202050492
 20
191.4010780569656
 30
0.0
 10
372.8007019581493
 20
191.3865230395659
 30
0.0
 10
372.7892629611489
 20
191.3789821799655
 30
0.0
  0
SPLINE
  5
17635
330
1F
100
AcDbEntity
  8
0
100
AcDbSpline
210
0.0
220
0.0
230
1.0
 70
     8
 71
     3
 72
    14
 73
    10
 74
     0
 42
0.0000000001
 43
0.0000000001
 40
0.0
 40
0.0
 40
0.0
 40
0.0
 40
0.3204010419999999
 40
0.4635563977000002
 40
0.5936920788000001
 40
0.7106156562999999
 40
0.8153365179999999
 40
0.9103916502
 40
1.0
 40
1.0
 40
1.0
 40
1.0
 10
367.3166141438489
 20
189.5021275859658
 30
0.0
 10
367.2785095084493
 20
189.6041845546656
 30
0.0
 10
367.2338512659491
 20
189.7565456625656
 30
0.0
 10
367.2078439940488
 20
189.9570748293659
 30
0.0
 10
367.2068489185487
 20
190.0901510632657
 30
0.0
 10
367.2237557001491
 20
190.2091013465656
 30
0.0
 10
367.2586358314493
 20
190.3118061334658
 30
0.0
 10
367.3114141847492
 20
190.3960609420655
 30
0.0
 10
367.3588932994491
 20
190.4387102602659
 30
0.0
 10
367.3843287319489
 20
190.4554823482658
 30
0.0
  0
SPLINE
  5
17636
330
1F
100
AcDbEntity
  8
0
100
AcDbSpline
210
0.0
220
0.0
230
1.0
 70
     8
 71
     3
 72
    17
 73
    13
 74
     0
 42
0.0000000001
 43
0.0000000001
 40
0.0
 40
0.0
 40
0.0
 40
0.0
 40
0.1480767948
 40
0.3016770327
 40
0.4534807558000001
 40
0.5963213576000001
 40
0.7241160109
 40
0.8329070347
 40
0.88006247
 40
0.9228809752
 40
0.9623592947
 40
1.0
 40
1.0
 40
1.0
 40
1.0
 10
369.2180695764493
 20
190.7556123482659
 30
0.0
 10
369.2553733440492
 20
190.6557003714656
 30
0.0
 10
369.3461648824488
 20
190.4574809648656
 30
0.0
 10
369.5179308351492
 20
190.1788261970655
 30
0.0
 10
369.7194855269491
 20
189.9255989195658
 30
0.0
 10
369.9386723526489
 20
189.7131136029657
 30
0.0
 10
370.1621979342491
 20
189.5540090880659
 30
0.0
 10
370.3507822159492
 20
189.4693855447658
 30
0.0
 10
370.491780064149
 20
189.4413419372659
 30
0.0
 10
370.5856193994488
 20
189.4397627867656
 30
0.0
 10
370.671021343249
 20
189.4570490787659
 30
0.0
 10
370.7216830118488
 20
189.4815456759657
 30
0.0
 10
370.7443179845488
 20
189.4964654996656
 30
0.0
  0
SPLINE
  5
17637
330
1F
100
AcDbEntity
  8
0
100
AcDbSpline
210
0.0
220
0.0
230
1.0
 70
     8
 71
     3
 72
    17
 73
    13
 74
     0
 42
0.0000000001
 43
0.0000000001
 40
0.0
 40
0.0
 40
0.0
 40
0.0
 40
0.1480733575
 40
0.3016784917
 40
0.4534813620000003
 40
0.5963225829
 40
0.7241170606000003
 40
0.8329072048
 40
0.8800636298
 40
0.9228803240999999
 40
0.9623603933
 40
1.0
 40
1.0
 40
1.0
 40
1.0
 10
369.6528352118495
 20
190.8246575549656
 30
0.0
 10
369.6781730298491
 20
190.7567943966656
 30
0.0
 10
369.7398437683489
 20
190.6221546103656
 30
0.0
 10
369.8565120194492
 20
190.4328775141657
 30
0.0
 10
369.9934194748495
 20
190.2608728443656
 30
0.0
 10
370.1423004403488
 20
190.1165433427659
 30
0.0
 10
370.2941294103495
 20
190.008471572166
 30
0.0
 10
370.4222252098491
 20
189.9509965952657
 30
0.0
 10
370.5179966117496
 20
189.9319435130656
 30
0.0
 10
370.5817361331493
 20
189.9308803431658
 30
0.0
 10
370.6397474804492
 20
189.9426077413659
 30
0.0
 10
370.6741569250492
 20
189.9592556976659
 30
0.0
 10
370.6895286721494
 20
189.9693934147658
 30
0.0
  0
SPLINE
  5
17638
330
1F
100
AcDbEntity
  8
0
100
AcDbSpline
210
0.0
220
0.0
230
1.0
 70
     8
 71
     3
 72
    14
 73
    10
 74
     0
 42
0.0000000001
 43
0.0000000001
 40
0.0
 40
0.0
 40
0.0
 40
0.0
 40
0.3040645872
 40
0.4604233876000003
 40
0.6066585213
 40
0.735162656
 40
0.8414888187999999
 40
0.9266607406
 40
1.0
 40
1.0
 40
1.0
 40
1.0
 10
372.7892629611489
 20
191.3789821799655
 30
0.0
 10
372.7608632690492
 20
191.3602604256657
 30
0.0
 10
372.7159943095496
 20
191.3346066182658
 30
0.0
 10
372.6540298933488
 20
191.3067941766658
 30
0.0
 10
372.6082285289497
 20
191.2913603466659
 30
0.0
 10
372.5661204188493
 20
191.2834708052655
 30
0.0
 10
372.5299651137495
 20
191.2844416812659
 30
0.0
 10
372.5013709388488
 20
191.2952957180655
 30
0.0
 10
372.4897728503494
 20
191.3102038033658
 30
0.0
 10
372.4869067774491
 20
191.3178912984658
 30
0.0
  0
SPLINE
  5
17639
330
1F
100
AcDbEntity
  8
0
100
AcDbSpline
210
0.0
220
0.0
230
1.0
 70
     8
 71
     3
 72
     9
 73
     5
 74
     0
 42
0.0000000001
 43
0.0000000001
 40
0.0
 40
0.0
 40
0.0
 40
0.0
 40
0.5378548019000001
 40
1.0
 40
1.0
 40
1.0
 40
1.0
 10
367.4626201603489
 20
189.5983782336657
 30
0.0
 10
367.4260065169494
 20
189.6964418266657
 30
0.0
 10
367.3706000295489
 20
189.8838499192656
 30
0.0
 10
367.3509141688493
 20
190.0795383373657
 30
0.0
 10
367.355046321549
 20
190.1693847910656
 30
0.0
  0
SPLINE
  5
1763A
330
1F
100
AcDbEntity
  8
0
100
AcDbSpline
210
0.0
220
0.0
230
1.0
 70
     8
 71
     3
 72
    17
 73
    13
 74
     0
 42
0.0000000001
 43
0.0000000001
 40
0.0
 40
0.0
 40
0.0
 40
0.0
 40
0.1480733575
 40
0.3016784917
 40
0.4534813620000003
 40
0.5963225829
 40
0.7241170606000003
 40
0.8329072048
 40
0.8800636298
 40
0.9228803240999999
 40
0.9623603933
 40
1.0
 40
1.0
 40
1.0
 40
1.0
 10
372.3151754286493
 20
192.5797357107658
 30
0.0
 10
372.3405132466489
 20
192.5118725524658
 30
0.0
 10
372.4021839851495
 20
192.3772327661659
 30
0.0
 10
372.5188522362488
 20
192.1879556699655
 30
0.0
 10
372.6557596916493
 20
192.0159510000658
 30
0.0
 10
372.8046406571495
 20
191.8716214984655
 30
0.0
 10
372.9564696271493
 20
191.7635497278656
 30
0.0
 10
373.0845654266488
 20
191.7060747509659
 30
0.0
 10
373.1803368285493
 20
191.6870216688658
 30
0.0
 10
373.2440763499491
 20
191.6859584989657
 30
0.0
 10
373.3020876972489
 20
191.6976858971657
 30
0.0
 10
373.3364971418489
 20
191.7143338533655
 30
0.0
 10
373.3518688889491
 20
191.724471570466
 30
0.0
  0
SPLINE
  5
1763B
330
1F
100
AcDbEntity
  8
0
100
AcDbSpline
210
0.0
220
0.0
230
1.0
 70
     8
 71
     3
 72
    13
 73
     9
 74
     0
 42
0.0000000001
 43
0.0000000001
 40
0.0
 40
0.0
 40
0.0
 40
0.0
 40
0.0896561333
 40
0.1847566269
 40
0.2895324007
 40
0.4065262603
 40
0.6794262568000004
 40
1.0
 40
1.0
 40
1.0
 40
1.0
 10
375.7078174012487
 20
195.4634327189656
 30
0.0
 10
375.6900583278495
 20
195.4517268443655
 30
0.0
 10
375.6569248203488
 20
195.4219389283658
 30
0.0
 10
375.6200702359494
 20
195.3631310210658
 30
0.0
 10
375.5957070814495
 20
195.2914288952657
 30
0.0
 10
375.5792071492489
 20
195.1747105262656
 30
0.0
 10
375.594232903649
 20
195.0048876147657
 30
0.0
 10
375.6339441816491
 20
194.8691302117659
 30
0.0
 10
375.660546019649
 20
194.7978815802658
 30
0.0
  0
SPLINE
  5
1763C
330
1F
100
AcDbEntity
  8
0
100
AcDbSpline
210
0.0
220
0.0
230
1.0
 70
     8
 71
     3
 72
    17
 73
    13
 74
     0
 42
0.0000000001
 43
0.0000000001
 40
0.0
 40
0.0
 40
0.0
 40
0.0
 40
0.1480656414
 40
0.3016832634
 40
0.4534805700000001
 40
0.5963239447000001
 40
0.7241176368000001
 40
0.8329077318000001
 40
0.8800626641
 40
0.9228805438
 40
0.9623595305
 40
1.0
 40
1.0
 40
1.0
 40
1.0
 10
372.6417156452491
 20
192.7054141803655
 30
0.0
 10
372.6621255755492
 20
192.6507495550659
 30
0.0
 10
372.711807815049
 20
192.5422894627659
 30
0.0
 10
372.8057848042492
 20
192.3898131247656
 30
0.0
 10
372.9160780896493
 20
192.2512548414657
 30
0.0
 10
373.0360061782496
 20
192.1349883139656
 30
0.0
 10
373.1583144319495
 20
192.0479319670658
 30
0.0
 10
373.2615012685494
 20
192.001632457866
 30
0.0
 10
373.3386506312492
 20
191.986284785266
 30
0.0
 10
373.3899950466494
 20
191.9854286892655
 30
0.0
 10
373.4367290089497
 20
191.9948726365656
 30
0.0
 10
373.464442088549
 20
192.0082918135659
 30
0.0
 10
373.4768288347489
 20
192.0164528988657
 30
0.0
  0
SPLINE
  5
1763D
330
1F
100
AcDbEntity
  8
0
100
AcDbSpline
210
0.0
220
0.0
230
1.0
 70
     8
 71
     3
 72
    13
 73
     9
 74
     0
 42
0.0000000001
 43
0.0000000001
 40
0.0
 40
0.0
 40
0.0
 40
0.0
 40
0.3205858122
 40
0.5934829247
 40
0.7104749104000005
 40
0.8152438044
 40
0.9103445554
 40
1.0
 40
1.0
 40
1.0
 40
1.0
 10
373.9814768299495
 20
193.6909991322659
 30
0.0
 10
373.9548710351493
 20
193.7622583567659
 30
0.0
 10
373.9151532876487
 20
193.8980338174656
 30
0.0
 10
373.9001402924488
 20
194.067877294066
 30
0.0
 10
373.9166481003487
 20
194.1846075164658
 30
0.0
 10
373.9410384898494
 20
194.256304431166
 30
0.0
 10
373.9778904255492
 20
194.3151255679659
 30
0.0
 10
374.0110568720494
 20
194.3448841885656
 30
0.0
 10
374.0288192170494
 20
194.3565890936657
 30
0.0
  0
SPLINE
  5
1763E
330
1F
100
AcDbEntity
  8
0
100
AcDbSpline
210
0.0
220
0.0
230
1.0
 70
     8
 71
     3
 72
    17
 73
    13
 74
     0
 42
0.0000000001
 43
0.0000000001
 40
0.0
 40
0.0
 40
0.0
 40
0.0
 40
0.1480733392
 40
0.3016986855999999
 40
0.4535016766
 40
0.5963467833000001
 40
0.7241371892
 40
0.8329193847
 40
0.8800695865000001
 40
0.922883204
 40
0.9623594612999999
 40
1.0
 40
1.0
 40
1.0
 40
1.0
 10
374.0942571239495
 20
193.6693630616655
 30
0.0
 10
374.115021508049
 20
193.6137490901656
 30
0.0
 10
374.1655675075492
 20
193.5034058444658
 30
0.0
 10
374.2611794765492
 20
193.3482843393658
 30
0.0
 10
374.3733913095495
 20
193.2073262756658
 30
0.0
 10
374.4954038405496
 20
193.0890522898658
 30
0.0
 10
374.6198346652493
 20
193.0005017539656
 30
0.0
 10
374.7248100072495
 20
192.9534183330657
 30
0.0
 10
374.8032924964493
 20
192.9378251499656
 30
0.0
 10
374.8555217235491
 20
192.9369708040658
 30
0.0
 10
374.9030584636495
 20
192.946597286566
 30
0.0
 10
374.9312439192492
 20
192.9602620716655
 30
0.0
 10
374.9438410217492
 20
192.9685707357658
 30
0.0
  0
SPLINE
  5
1763F
330
1F
100
AcDbEntity
  8
0
100
AcDbSpline
210
0.0
220
0.0
230
1.0
 70
     8
 71
     3
 72
    17
 73
    13
 74
     0
 42
0.0000000001
 43
0.0000000001
 40
0.0
 40
0.0
 40
0.0
 40
0.0
 40
0.1480766914
 40
0.3016768841
 40
0.4534806135000001
 40
0.5963212450000001
 40
0.7241159345999999
 40
0.8329069926
 40
0.8800624417999999
 40
0.9228809584
 40
0.9623592869999999
 40
1.0
 40
1.0
 40
1.0
 40
1.0
 10
375.660546019649
 20
194.7978815802658
 30
0.0
 10
375.6865882556497
 20
194.7281317580659
 30
0.0
 10
375.749970988749
 20
194.5897522360656
 30
0.0
 10
375.8698830165487
 20
194.3952197117656
 30
0.0
 10
376.0105909862488
 20
194.2184383901658
 30
0.0
 10
376.1636082134493
 20
194.0700995382658
 30
0.0
 10
376.3196544033491
 20
193.9590265252659
 30
0.0
 10
376.4513076150489
 20
193.8999496794659
 30
0.0
 10
376.5497401041494
 20
193.8803720504657
 30
0.0
 10
376.6152506010497
 20
193.8792696227656
 30
0.0
 10
376.6748708427487
 20
193.8913374094659
 30
0.0
 10
376.7102384264492
 20
193.9084388191659
 30
0.0
 10
376.7260402049489
 20
193.9188545448656
 30
0.0
  0
SPLINE
  5
17640
330
1F
100
AcDbEntity
  8
0
100
AcDbSpline
210
0.0
220
0.0
230
1.0
 70
     8
 71
     3
 72
    17
 73
    13
 74
     0
 42
0.0000000001
 43
0.0000000001
 40
0.0
 40
0.0
 40
0.0
 40
0.0
 40
0.0376401577
 40
0.0771188912
 40
0.1199372813
 40
0.167092926
 40
0.275883793
 40
0.4036775009000002
 40
0.5465193832000002
 40
0.6983220260000002
 40
0.8519224573
 40
1.0
 40
1.0
 40
1.0
 40
1.0
 10
368.8428610433496
 20
188.2429830255656
 30
0.0
 10
368.8202289632493
 20
188.2280594641656
 30
0.0
 10
368.7695675449488
 20
188.2035601882658
 30
0.0
 10
368.6841652118494
 20
188.186276549066
 30
0.0
 10
368.5903255209489
 20
188.1878553788656
 30
0.0
 10
368.4493274886492
 20
188.2158993314656
 30
0.0
 10
368.2607436146493
 20
188.3005220721656
 30
0.0
 10
368.0372145507492
 20
188.4596228288655
 30
0.0
 10
367.8180302241492
 20
188.6721109517656
 30
0.0
 10
367.6164762360488
 20
188.9253395147657
 30
0.0
 10
367.4447113155494
 20
189.2039952547657
 30
0.0
 10
367.3539181505495
 20
189.4022149689659
 30
0.0
 10
367.3166141438489
 20
189.5021275859658
 30
0.0
  0
SPLINE
  5
17641
330
1F
100
AcDbEntity
  8
0
100
AcDbSpline
210
0.0
220
0.0
230
1.0
 70
     8
 71
     3
 72
    17
 73
    13
 74
     0
 42
0.0000000001
 43
0.0000000001
 40
0.0
 40
0.0
 40
0.0
 40
0.0
 40
0.1480676377
 40
0.3016670211
 40
0.4534656709000001
 40
0.5963056035000001
 40
0.7241025276000001
 40
0.8328985471999999
 40
0.8800584675999999
 40
0.9228783495999998
 40
0.9623604362
 40
1.0
 40
1.0
 40
1.0
 40
1.0
 10
373.9814768299495
 20
193.6909991322659
 30
0.0
 10
374.0075160914495
 20
193.6212572737659
 30
0.0
 10
374.0708932187492
 20
193.4828897563657
 30
0.0
 10
374.1907885639495
 20
193.2883701266655
 30
0.0
 10
374.3314832054495
 20
193.1115976601659
 30
0.0
 10
374.4844841706492
 20
192.963261659766
 30
0.0
 10
374.6405177419494
 20
192.8521816088655
 30
0.0
 10
374.7721629555492
 20
192.7930966186659
 30
0.0
 10
374.8705919237492
 20
192.7734966531657
 30
0.0
 10
374.936102393349
 20
192.7723883864656
 30
0.0
 10
374.995727901549
 20
192.7844233735659
 30
0.0
 10
375.0310982741495
 20
192.8015203575656
 30
0.0
 10
375.0469000097493
 20
192.8119332740657
 30
0.0
  0
SPLINE
  5
17642
330
1F
100
AcDbEntity
  8
0
100
AcDbSpline
210
0.0
220
0.0
230
1.0
 70
     8
 71
     3
 72
    15
 73
    11
 74
     0
 42
0.0000000001
 43
0.0000000001
 40
0.0
 40
0.0
 40
0.0
 40
0.0
 40
0.1481862071
 40
0.3019683102
 40
0.4538914219
 40
0.5968707067
 40
0.7247849409999999
 40
0.8336844704
 40
0.9233865228999999
 40
1.0
 40
1.0
 40
1.0
 40
1.0
 10
376.062187369049
 20
194.8450904678657
 30
0.0
 10
376.0762606647487
 20
194.8073974710655
 30
0.0
 10
376.1105263530491
 20
194.7326025586658
 30
0.0
 10
376.1753225633494
 20
194.6274521076657
 30
0.0
 10
376.2513956171489
 20
194.5318971441657
 30
0.0
 10
376.334068109649
 20
194.4517338875657
 30
0.0
 10
376.4184861165488
 20
194.3916318934657
 30
0.0
 10
376.5000782548488
 20
194.3550952045655
 30
0.0
 10
376.5755469301495
 20
194.3443565910656
 30
0.0
 10
376.620729021449
 20
194.3584744883656
 30
0.0
 10
376.6380986644492
 20
194.3699200917658
 30
0.0
  0
LINE
  5
17F2B
330
1F
100
AcDbEntity
  8
图框
370
    -3
100
AcDbLine
 10
380.1122506893159
 20
231.9712781406446
 30
0.0
 11
386.9718166136732
 21
231.9712781406446
 31
0.0
  0
LINE
  5
17F2C
330
1F
100
AcDbEntity
  8
图框
370
    -3
100
AcDbLine
 10
363.0902430630583
 20
230.6190559538292
 30
0.0
 11
404.9717870790035
 21
230.6190559538304
 31
0.0
  0
LINE
  5
17F2D
330
1F
100
AcDbEntity
  8
图框
370
    -3
100
AcDbLine
 10
363.0902430630584
 20
229.2668337670134
 30
0.0
 11
404.9717870790035
 21
229.2668337670134
 31
0.0
  0
MTEXT
  5
17F2E
330
1F
100
AcDbEntity
  8
图框
100
AcDbMText
 10
383.542092723556
 20
232.6473892340872
 30
0.0
 40
0.6000023545570477
 41
6.859684067146693
 71
     5
 72
     5
  1
{\fFangSong_GB2312|b0|i0|c134|p49;\C4;线径\Fromans|c134;/Wire Gauge}
  7
Romans字体
 73
     1
 44
1.0
1001
ACAD
1000
ACAD_MTEXT_DEFINED_HEIGHT_BEGIN
1070
    46
1040
1.352222186885061
1000
ACAD_MTEXT_DEFINED_HEIGHT_END
  0
LINE
  5
17F2F
330
1F
100
AcDbEntity
  8
图框
370
    -3
100
AcDbLine
 10
363.0902430630584
 20
227.9146115801982
 30
0.0
 11
404.9717870790035
 21
227.9146115801982
 31
0.0
  0
MTEXT
  5
17F30
330
1F
100
AcDbEntity
  8
图框
100
AcDbMText
 10
385.4968642746744
 20
231.2951320132779
 30
0.0
 40
0.6000023545570477
 41
2.949904677997924
 71
     5
 72
     5
  1
{\C4;AWG}
  7
Romans字体
 73
     1
 44
1.0
1001
ACAD
1000
ACAD_MTEXT_DEFINED_HEIGHT_BEGIN
1070
    46
1040
1.352152118895874
1000
ACAD_MTEXT_DEFINED_HEIGHT_END
  0
MTEXT
  5
17F31
330
1F
100
AcDbEntity
  8
图框
100
AcDbMText
 10
382.0670813124955
 20
231.2951670472372
 30
0.0
 40
0.6000023545570477
 41
3.909661246359366
 71
     5
 72
     5
  1
\A1;{\C4;mm\H0.7x;\S2^  ;}
  7
Romans字体
 73
     1
 44
1.0
1001
ACAD
1000
ACAD_MTEXT_DEFINED_HEIGHT_BEGIN
1070
    46
1040
1.352222186814757
1000
ACAD_MTEXT_DEFINED_HEIGHT_END
  0
MTEXT
  5
17F32
330
1F
100
AcDbEntity
  8
图框
100
AcDbMText
 10
382.067081312829
 20
229.9429448604215
 30
0.0
 40
0.6000023545570477
 41
3.909661247026225
 71
     5
 72
     5
  1
{\C4;0.35-2.5}
  7
Romans字体
 73
     1
 44
1.0
1001
ACAD
1000
ACAD_MTEXT_DEFINED_HEIGHT_BEGIN
1070
    46
1040
1.3522221868165
1000
ACAD_MTEXT_DEFINED_HEIGHT_END
  0
MTEXT
  5
17F33
330
1F
100
AcDbEntity
  8
图框
100
AcDbMText
 10
382.067081312829
 20
228.5907226736056
 30
0.0
 40
0.6000023545570477
 41
3.909661247026225
 71
     5
 72
     5
  1
{\C4;2.5-4.0}
  7
Romans字体
 73
     1
 44
1.0
1001
ACAD
1000
ACAD_MTEXT_DEFINED_HEIGHT_BEGIN
1070
    46
1040
1.352222186815229
1000
ACAD_MTEXT_DEFINED_HEIGHT_END
  0
MTEXT
  5
17F34
330
1F
100
AcDbEntity
  8
图框
100
AcDbMText
 10
385.4968642750077
 20
229.9429448604216
 30
0.0
 40
0.6000023545570477
 41
2.94990467866485
 71
     5
 72
     5
  1
{\C4;22-14}
  7
Romans字体
 73
     1
 44
1.0
1001
ACAD
1000
ACAD_MTEXT_DEFINED_HEIGHT_BEGIN
1070
    46
1040
1.352222186816635
1000
ACAD_MTEXT_DEFINED_HEIGHT_END
  0
MTEXT
  5
17F35
330
1F
100
AcDbEntity
  8
图框
100
AcDbMText
 10
385.4968642753412
 20
228.5907226736056
 30
0.0
 40
0.6000023545570477
 41
2.949904677998123
 71
     5
 72
     5
  1
{\C4;14-12}
  7
Romans字体
 73
     1
 44
1.0
1001
ACAD
1000
ACAD_MTEXT_DEFINED_HEIGHT_BEGIN
1070
    46
1040
1.352222186815164
1000
ACAD_MTEXT_DEFINED_HEIGHT_END
  0
MTEXT
  5
17F36
330
1F
100
AcDbEntity
  8
图框
100
AcDbMText
 10
373.1788336895575
 20
231.9712381049359
 30
0.0
 40
0.6000023545570477
 41
6.066833998183262
 71
     5
 72
     5
  1
{\fFangSong_GB2312|b0|i0|c134|p49;\C4;产品料号\Fromans|c134;\PPart NO.}
  7
Romans字体
 73
     1
 44
1.0
1001
ACAD
1000
ACAD_MTEXT_DEFINED_HEIGHT_BEGIN
1070
    46
1040
2.704364302212839
1000
ACAD_MTEXT_DEFINED_HEIGHT_END
  0
MTEXT
  5
17F37
330
1F
100
AcDbEntity
  8
图框
100
AcDbMText
 10
388.188268476538
 20
231.9712381049362
 30
0.0
 40
0.6000023545570477
 41
2.432903725729715
 71
     5
 72
     5
  1
{\C4;a}
  7
Romans字体
 73
     1
 44
1.0
1001
ACAD
1000
ACAD_MTEXT_DEFINED_HEIGHT_BEGIN
1070
    46
1040
2.704364302212435
1000
ACAD_MTEXT_DEFINED_HEIGHT_END
  0
MTEXT
  5
17F38
330
1F
100
AcDbEntity
  8
图框
100
AcDbMText
 10
366.6178298770955
 20
229.9429448604212
 30
0.0
 40
0.6000023545570477
 41
7.055173628074227
 71
     5
 72
     5
  1
{\C4;M23-MCL30G-2.5}
  7
Romans字体
 73
     1
 44
1.0
1001
ACAD
1000
ACAD_MTEXT_DEFINED_HEIGHT_BEGIN
1070
    46
1040
1.3522221868162
1000
ACAD_MTEXT_DEFINED_HEIGHT_END
  0
MTEXT
  5
17F39
330
1F
100
AcDbEntity
  8
图框
100
AcDbMText
 10
388.188268476538
 20
229.9429448604215
 30
0.0
 40
0.6000023545570477
 41
2.43290372572948
 71
     5
 72
     5
  1
{\C4;2.25}
  7
Romans字体
 73
     1
 44
1.0
1001
ACAD
1000
ACAD_MTEXT_DEFINED_HEIGHT_BEGIN
1070
    46
1040
1.352222186816667
1000
ACAD_MTEXT_DEFINED_HEIGHT_END
  0
MTEXT
  5
17F3A
330
1F
100
AcDbEntity
  8
图框
100
AcDbMText
 10
388.188268476538
 20
228.5907226736056
 30
0.0
 40
0.6000023545570477
 41
2.432903725729469
 71
     5
 72
     5
  1
{\C4;2.85}
  7
Romans字体
 73
     1
 44
1.0
1001
ACAD
1000
ACAD_MTEXT_DEFINED_HEIGHT_BEGIN
1070
    46
1040
1.352222186815196
1000
ACAD_MTEXT_DEFINED_HEIGHT_END
  0
LINE
  5
17F3B
330
1F
100
AcDbEntity
  8
图框
370
    35
380
     1
100
AcDbLine
 10
389.4047203394027
 20
233.3235003275297
 30
0.0
 11
389.4047203394026
 21
227.9146115801981
 31
0.0
  0
LINE
  5
17F3C
330
1F
100
AcDbEntity
  8
图框
370
    -3
100
AcDbLine
 10
386.9718166143398
 20
233.3235003275297
 30
0.0
 11
386.9718166143402
 21
227.9146115801982
 31
0.0
  0
LINE
  5
17F3D
330
1F
100
AcDbEntity
  8
图框
370
    -3
100
AcDbLine
 10
384.0219119363422
 20
231.971288144213
 30
0.0
 11
384.021911936342
 21
227.9146115801981
 31
0.0
  0
LINE
  5
17F3E
330
1F
100
AcDbEntity
  8
图框
370
    -3
100
AcDbLine
 10
370.1454166911327
 20
227.9146115801983
 30
0.0
 11
370.1454166911327
 21
231.9712881442124
 31
0.0
  0
LINE
  5
17F3F
330
1F
100
AcDbEntity
  8
图框
370
    -3
100
AcDbLine
 10
376.2122506893159
 20
227.9146115801982
 30
0.0
 11
376.2122506893159
 21
233.3235003275295
 31
0.0
  0
LINE
  5
17F40
330
1F
100
AcDbEntity
  8
图框
370
    -3
100
AcDbLine
 10
386.9718166136731
 20
233.3234202560424
 30
0.0
 11
386.9718166136737
 21
227.9146115801982
 31
0.0
  0
LINE
  5
17F41
330
1F
100
AcDbEntity
  8
图框
370
    -3
100
AcDbLine
 10
384.0219119356753
 20
231.9712080727257
 30
0.0
 11
384.0219119356752
 21
227.9146115801981
 31
0.0
  0
LINE
  5
17F42
330
1F
100
AcDbEntity
  8
图框
370
    -3
100
AcDbLine
 10
370.1454166904658
 20
227.9146115801982
 30
0.0
 11
370.1454166904658
 21
233.3234202560424
 31
0.0
  0
LINE
  5
17F43
330
1F
100
AcDbEntity
  8
图框
370
    -3
100
AcDbLine
 10
376.212250688649
 20
227.9146115801982
 30
0.0
 11
376.212250688649
 21
233.3234202560424
 31
0.0
  0
LINE
  5
17F44
330
1F
100
AcDbEntity
  8
图框
370
    35
380
     1
100
AcDbLine
 10
395.2334230853566
 20
233.3234202560426
 30
0.0
 11
395.2334230853566
 21
227.9146115801981
 31
0.0
  0
MTEXT
  5
17F45
330
1F
100
AcDbEntity
  8
图框
100
AcDbMText
 10
366.6178298767622
 20
231.9712831424286
 30
0.0
 40
0.6000023545570477
 41
7.055173627407532
 71
     5
 72
     5
  1
{\fFangSong_GB2312|b0|i0|c134|p49;\C4;产品代号\P\Fromans|c134;Part code}
  7
Romans字体
 73
     1
 44
1.0
1001
ACAD
1000
ACAD_MTEXT_DEFINED_HEIGHT_BEGIN
1070
    46
1040
2.704274227228296
1000
ACAD_MTEXT_DEFINED_HEIGHT_END
  0
MTEXT
  5
17F46
330
1F
100
AcDbEntity
  8
图框
100
AcDbMText
 10
373.1788336902241
 20
229.9429448604212
 30
0.0
 40
0.6000023545570477
 41
6.066833998183262
 71
     5
 72
     5
  1
{\C4;1010312101002}
  7
Romans字体
 73
     1
 44
1.0
1001
ACAD
1000
ACAD_MTEXT_DEFINED_HEIGHT_BEGIN
1070
    46
1040
1.352222186816343
1000
ACAD_MTEXT_DEFINED_HEIGHT_END
  0
MTEXT
  5
17F47
330
1F
100
AcDbEntity
  8
图框
100
AcDbMText
 10
373.1788336902241
 20
228.5907226736048
 30
0.0
 40
0.6000023545570477
 41
6.066833998183262
 71
     5
 72
     5
  1
{\C4;1010312101202}
  7
Romans字体
 73
     1
 44
1.0
1001
ACAD
1000
ACAD_MTEXT_DEFINED_HEIGHT_BEGIN
1070
    46
1040
1.352222186816343
1000
ACAD_MTEXT_DEFINED_HEIGHT_END
  0
MTEXT
  5
17F48
330
1F
100
AcDbEntity
  8
图框
100
AcDbMText
 10
378.1670813124955
 20
229.9429448604213
 30
0.0
 40
0.6000023545570477
 41
3.90966124635945
 71
     5
 72
     5
  1
{\C4;2.0}
  7
Romans字体
 73
     1
 44
1.0
1001
ACAD
1000
ACAD_MTEXT_DEFINED_HEIGHT_BEGIN
1070
    46
1040
1.352222186816528
1000
ACAD_MTEXT_DEFINED_HEIGHT_END
  0
MTEXT
  5
17F49
330
1F
100
AcDbEntity
  8
图框
100
AcDbMText
 10
378.1670813124957
 20
232.6473491983435
 30
0.0
 40
0.6000023545570477
 41
3.909661246359441
 71
     5
 72
     5
  1
{\fFangSong_GB2312|b0|i0|c134|p49;\C4;重量\Fromans|c134;/Weight}
  7
Romans字体
 73
     1
 44
1.0
1001
ACAD
1000
ACAD_MTEXT_DEFINED_HEIGHT_BEGIN
1070
    46
1040
1.352142115397727
1000
ACAD_MTEXT_DEFINED_HEIGHT_END
  0
MTEXT
  5
17F4A
330
1F
100
AcDbEntity
  8
图框
100
AcDbMText
 10
378.1670813124957
 20
231.2951670472372
 30
0.0
 40
0.6000023545570477
 41
3.909661246359381
 71
     5
 72
     5
  1
{\C4;g}
  7
Romans字体
 73
     1
 44
1.0
1001
ACAD
1000
ACAD_MTEXT_DEFINED_HEIGHT_BEGIN
1070
    46
1040
1.352222186814967
1000
ACAD_MTEXT_DEFINED_HEIGHT_END
  0
MTEXT
  5
17F4B
330
1F
100
AcDbEntity
  8
图框
100
AcDbMText
 10
378.1670813124955
 20
228.5907226736048
 30
0.0
 40
0.6000023545570477
 41
3.90966124635945
 71
     5
 72
     5
  1
{\C4;1.9}
  7
Romans字体
 73
     1
 44
1.0
1001
ACAD
1000
ACAD_MTEXT_DEFINED_HEIGHT_BEGIN
1070
    46
1040
1.352222186816528
1000
ACAD_MTEXT_DEFINED_HEIGHT_END
  0
MTEXT
  5
17F4C
330
1F
100
AcDbEntity
  8
图框
100
AcDbMText
 10
392.3190717123795
 20
231.9712381049362
 30
0.0
 40
0.6000023545570477
 41
5.828702745953783
 71
     5
 72
     5
  1
{\fFangSong_GB2312|b0|i0|c134|p49;\C4;剥线长度\Fromans|c134;\PStripping length}
  7
Romans字体
 73
     1
 44
1.0
1001
ACAD
1000
ACAD_MTEXT_DEFINED_HEIGHT_BEGIN
1070
    46
1040
2.704364302212259
1000
ACAD_MTEXT_DEFINED_HEIGHT_END
  0
MTEXT
  5
17F4D
330
1F
100
AcDbEntity
  8
图框
100
AcDbMText
 10
392.3190717123795
 20
229.9429448604217
 30
0.0
 40
0.6000023545570477
 41
5.828702745953751
 71
     5
 72
     5
  1
{\C4;7.5}
  7
Romans字体
 73
     1
 44
1.0
1001
ACAD
1000
ACAD_MTEXT_DEFINED_HEIGHT_BEGIN
1070
    46
1040
1.35222218681682
1000
ACAD_MTEXT_DEFINED_HEIGHT_END
  0
MTEXT
  5
17F4E
330
1F
100
AcDbEntity
  8
图框
100
AcDbMText
 10
392.3190717123795
 20
228.5907226736048
 30
0.0
 40
0.6000023545570477
 41
5.828702745953751
 71
     5
 72
     5
  1
{\C4;7.5}
  7
Romans字体
 73
     1
 44
1.0
1001
ACAD
1000
ACAD_MTEXT_DEFINED_HEIGHT_BEGIN
1070
    46
1040
1.352222186816735
1000
ACAD_MTEXT_DEFINED_HEIGHT_END
  0
LINE
  5
17F4F
330
1F
100
AcDbEntity
  8
图框
370
    35
100
AcDbLine
 10
363.0902430630584
 20
233.3234202560416
 30
0.0
 11
407.0406076342321
 21
233.3234202560428
 31
0.0
  0
LINE
  5
17F50
330
1F
100
AcDbEntity
  8
图框
370
    35
380
     1
100
AcDbLine
 10
363.0902430630584
 20
233.3234202560428
 30
0.0
 11
363.0902430630584
 21
227.9146115801982
 31
0.0
  0
MTEXT
  5
17F51
330
1F
100
AcDbEntity
  8
图框
100
AcDbMText
 10
366.6178298770955
 20
228.5907627093141
 30
0.0
 40
0.6000023545570477
 41
7.055173628074227
 71
     5
 72
     5
  1
{\C4;M23-MCL30G-4.0}
  7
Romans字体
 73
     1
 44
1.0
1001
ACAD
1000
ACAD_MTEXT_DEFINED_HEIGHT_BEGIN
1070
    46
1040
1.3522221868162
1000
ACAD_MTEXT_DEFINED_HEIGHT_END
  0
LINE
  5
17F52
330
1F
100
AcDbEntity
  8
图框
370
    -3
100
AcDbLine
 10
380.1219119356754
 20
233.3234202560424
 30
0.0
 11
380.1219119356753
 21
227.9146115801983
 31
0.0
  0
LINE
  5
17F53
330
1F
100
AcDbEntity
  8
图框
370
    35
380
     1
100
AcDbLine
 10
401.0621258326445
 20
233.3234202560426
 30
0.0
 11
401.0621258326445
 21
227.9146115801981
 31
0.0
  0
MTEXT
  5
17F54
330
1F
100
AcDbEntity
  8
图框
100
AcDbMText
 10
398.1477744583335
 20
231.9712381049362
 30
0.0
 40
0.6000023545570477
 41
5.828702745953783
 71
     5
 72
     5
  1
{\fFangSong_GB2312|b0|i0|c134|p49;\C4;标识\Fromans|c134;\PIdentification}
  7
Romans字体
 73
     1
 44
1.0
1001
ACAD
1000
ACAD_MTEXT_DEFINED_HEIGHT_BEGIN
1070
    46
1040
2.704364302212259
1000
ACAD_MTEXT_DEFINED_HEIGHT_END
  0
MTEXT
  5
17F55
330
1F
100
AcDbEntity
  8
图框
100
AcDbMText
 10
398.1477744583335
 20
229.9429448604217
 30
0.0
 40
0.6000023545570477
 41
5.828702745953751
 71
     5
 72
     5
  1
{\C4;1 groove}
  7
Romans字体
 73
     1
 44
1.0
1001
ACAD
1000
ACAD_MTEXT_DEFINED_HEIGHT_BEGIN
1070
    46
1040
1.35222218681682
1000
ACAD_MTEXT_DEFINED_HEIGHT_END
  0
MTEXT
  5
17F56
330
1F
100
AcDbEntity
  8
图框
100
AcDbMText
 10
398.1477744583335
 20
228.5907226736049
 30
0.0
 40
0.6000023545570477
 41
5.828702745953751
 71
     5
 72
     5
  1
{\C4;no groove}
  7
Romans字体
 73
     1
 44
1.0
1001
ACAD
1000
ACAD_MTEXT_DEFINED_HEIGHT_BEGIN
1070
    46
1040
1.352222186816735
1000
ACAD_MTEXT_DEFINED_HEIGHT_END
  0
LINE
  5
17F57
330
1F
100
AcDbEntity
  8
图框
370
    -3
100
AcDbLine
 10
376.2122506893159
 20
231.9712781406447
 30
0.0
 11
380.1219119356753
 21
231.9712781406447
 31
0.0
  0
LINE
  5
17F58
330
1F
100
AcDbEntity
  8
图框
370
    -3
100
AcDbLine
 10
404.971787079004
 20
230.6190559538306
 30
0.0
 11
407.0406076342321
 21
230.6190559538307
 31
0.0
  0
LINE
  5
17F59
330
1F
100
AcDbEntity
  8
图框
370
    -3
100
AcDbLine
 10
404.971787079004
 20
229.2668337670136
 30
0.0
 11
407.0406076342321
 21
229.2668337670136
 31
0.0
  0
LINE
  5
17F5A
330
1F
100
AcDbEntity
  8
图框
370
    -3
100
AcDbLine
 10
404.971787079004
 20
227.9146115801984
 30
0.0
 11
407.0406076342321
 21
227.9146115801983
 31
0.0
  0
MTEXT
  5
17F5B
330
1F
100
AcDbEntity
  8
图框
100
AcDbMText
 10
404.0561973566179
 20
231.9712381049367
 30
0.0
 40
0.6000023545570477
 41
5.96882055522825
 71
     5
 72
     5
  1
{\fFangSong_GB2312|b0|i0|c134|p49;\C4;标识图\Fromans|c134;\PIdentification No.}
  7
Romans字体
 73
     1
 44
1.0
1001
ACAD
1000
ACAD_MTEXT_DEFINED_HEIGHT_BEGIN
1070
    46
1040
2.704364302212074
1000
ACAD_MTEXT_DEFINED_HEIGHT_END
  0
MTEXT
  5
17F5C
330
1F
100
AcDbEntity
  8
图框
100
AcDbMText
 10
404.0561973566179
 20
229.9429448604221
 30
0.0
 40
0.6000023545570477
 41
5.968820555228393
 71
     5
 72
     5
  1
{\C4;No.1}
  7
Romans字体
 73
     1
 44
1.0
1001
ACAD
1000
ACAD_MTEXT_DEFINED_HEIGHT_BEGIN
1070
    46
1040
1.352222186816975
1000
ACAD_MTEXT_DEFINED_HEIGHT_END
  0
MTEXT
  5
17F5D
330
1F
100
AcDbEntity
  8
图框
100
AcDbMText
 10
404.0561973566179
 20
228.590722673606
 30
0.0
 40
0.6000023545570477
 41
5.968820555228393
 71
     5
 72
     5
  1
{\C4;No.2}
  7
Romans字体
 73
     1
 44
1.0
1001
ACAD
1000
ACAD_MTEXT_DEFINED_HEIGHT_BEGIN
1070
    46
1040
1.352222186815287
1000
ACAD_MTEXT_DEFINED_HEIGHT_END
  0
MTEXT
  5
17F94
330
1F
100
AcDbEntity
  8
文本
100
AcDbMText
 10
408.4236891447619
 20
232.7550956546061
 30
0.0
 40
0.5886392622387912
 41
2.766163023469334
 71
     5
 72
     5
  1
No.
  7
Romans字体
 73
     1
 44
1.0
1001
ACAD
1000
ACAD_MTEXT_DEFINED_HEIGHT_BEGIN
1070
    46
1040
1.136649202873579
1000
ACAD_MTEXT_DEFINED_HEIGHT_END
  0
LINE
  5
17F95
330
1F
100
AcDbEntity
  8
图框
 62
     1
100
AcDbLine
 10
407.0406076342321
 20
232.1867710531694
 30
0.0
 11
418.8470079273123
 21
232.1867710531694
 31
0.0
  0
MTEXT
  5
17F96
330
1F
100
AcDbEntity
  8
图框
100
AcDbMText
 10
408.4236891453643
 20
226.6226966329299
 30
0.0
 40
0.6000023545570477
 41
2.76616302226454
 71
     5
 72
     5
  1
{\fFangSong_GB2312|b0|i0|c134|p49;\C4;标示图\Fromans|c134;\PMarked\PGraph\P\P\P\fFangSong_GB2312|b0|i0|c134|p49;比例\P\Fromans|c134;Scale 1:1}
  7
Romans字体
 73
     1
 44
1.0
1001
ACAD
1000
ACAD_MTEXT_DEFINED_HEIGHT_BEGIN
1070
    46
1040
11.12814884047883
1000
ACAD_MTEXT_DEFINED_HEIGHT_END
  0
LINE
  5
17F97
330
1F
100
AcDbEntity
  8
图框
 62
     1
100
AcDbLine
 10
414.3268892919047
 20
233.3235003274486
 30
0.0
 11
414.3268892919047
 21
221.0586222126905
 31
0.0
  0
LINE
  5
17F98
330
1F
100
AcDbEntity
  8
图框
 62
     1
100
AcDbLine
 10
418.8470079273123
 20
233.3235003274486
 30
0.0
 11
418.8470079273123
 21
221.0586222126905
 31
0.0
  0
MTEXT
  5
17F99
330
1F
100
AcDbEntity
  8
文本
100
AcDbMText
 10
412.0668299742005
 20
232.8913090750928
 30
0.0
 40
0.5886392622387912
 41
4.520118635407889
 71
     5
 72
     5
  1
No.1
  7
Romans字体
 73
     1
 44
1.0
1001
ACAD
1000
ACAD_MTEXT_DEFINED_HEIGHT_BEGIN
1070
    46
1040
0.8642223618998389
1000
ACAD_MTEXT_DEFINED_HEIGHT_END
  0
LINE
  5
17F9A
330
1F
100
AcDbEntity
  8
图框
 62
     1
100
AcDbLine
 10
407.0406076342321
 20
221.0586222126905
 30
0.0
 11
418.8470079273123
 21
221.0586222126905
 31
0.0
  0
MTEXT
  5
17F9B
330
1F
100
AcDbEntity
  8
文本
100
AcDbMText
 10
416.5869486096084
 20
232.755095654606
 30
0.0
 40
0.5886392622387912
 41
4.520118635407952
 71
     5
 72
     5
  1
No.2
  7
Romans字体
 73
     1
 44
1.0
1001
ACAD
1000
ACAD_MTEXT_DEFINED_HEIGHT_BEGIN
1070
    46
1040
1.136649202873404
1000
ACAD_MTEXT_DEFINED_HEIGHT_END
  0
LINE
  5
17F9C
330
1F
100
AcDbEntity
  8
图框
370
    35
380
     1
100
AcDbLine
 10
407.0406076342321
 20
233.3234202560429
 30
0.0
 11
407.0406076342321
 21
227.9146115801984
 31
0.0
  0
LINE
  5
17F9D
330
1F
100
AcDbEntity
  8
图框
 62
     1
100
AcDbLine
 10
409.8067706564965
 20
233.3235003274487
 30
0.0
 11
409.8067706564965
 21
221.0586222126905
 31
0.0
  0
LINE
  5
17FA4
330
1F
100
AcDbEntity
  8
图框
 62
     1
100
AcDbLine
 10
407.0406076342321
 20
233.3235003274486
 30
0.0
 11
418.8470079273123
 21
233.3235003274486
 31
0.0
  0
LINE
  5
17FA5
330
1F
100
AcDbEntity
  8
图框
 62
     1
100
AcDbLine
 10
407.0406076342321
 20
233.3235003274486
 30
0.0
 11
407.0406076342321
 21
221.0586222126905
 31
0.0
  0
LINE
  5
1829E
330
1F
100
AcDbEntity
  8
0
100
AcDbLine
 10
411.3984765105541
 20
221.9705973085468
 30
0.0
 11
412.7234765105542
 21
221.9705973085468
 31
0.0
  0
LINE
  5
1829F
330
1F
100
AcDbEntity
  8
0
100
AcDbLine
 10
412.7234765105542
 20
222.4205973085468
 30
0.0
 11
411.3984765105541
 21
222.4205973085468
 31
0.0
  0
LINE
  5
182A0
330
1F
100
AcDbEntity
  8
0
100
AcDbLine
 10
411.4484765105542
 20
222.4705973085468
 30
0.0
 11
412.6734765105543
 21
222.4705973085468
 31
0.0
  0
LINE
  5
182A1
330
1F
100
AcDbEntity
  8
0
100
AcDbLine
 10
412.7234765105542
 20
222.5205973085468
 30
0.0
 11
411.3984765105541
 21
222.5205973085468
 31
0.0
  0
LINE
  5
182A2
330
1F
100
AcDbEntity
  8
0
100
AcDbLine
 10
411.4484765105542
 20
222.4705973085468
 30
0.0
 11
411.3984765105541
 21
222.5205973085468
 31
0.0
  0
LINE
  5
182A3
330
1F
100
AcDbEntity
  8
0
100
AcDbLine
 10
412.6734765105543
 20
222.4705973085468
 30
0.0
 11
412.7234765105542
 21
222.5205973085468
 31
0.0
  0
LINE
  5
182A4
330
1F
100
AcDbEntity
  8
0
100
AcDbLine
 10
411.3984765105541
 20
223.7229103763219
 30
0.0
 11
412.7234765105542
 21
223.7229103763219
 31
0.0
  0
LINE
  5
182A5
330
1F
100
AcDbEntity
  8
0
100
AcDbLine
 10
411.6109765105543
 20
223.8455973085468
 30
0.0
 11
412.5109765105539
 21
223.8455973085468
 31
0.0
  0
LINE
  5
182A6
330
1F
100
AcDbEntity
  8
0
100
AcDbLine
 10
412.7234765105542
 20
222.4205973085468
 30
0.0
 11
412.6734765105543
 21
222.4705973085468
 31
0.0
  0
LINE
  5
182A7
330
1F
100
AcDbEntity
  8
0
100
AcDbLine
 10
411.3984765105541
 20
222.4205973085468
 30
0.0
 11
411.4484765105542
 21
222.4705973085468
 31
0.0
  0
LINE
  5
182A8
330
1F
100
AcDbEntity
  8
0
100
AcDbLine
 10
412.5109765105539
 20
223.8455973085468
 30
0.0
 11
412.7234765105542
 21
223.7229103763219
 31
0.0
  0
LINE
  5
182A9
330
1F
100
AcDbEntity
  8
0
100
AcDbLine
 10
411.3984765105541
 20
223.7229103763219
 30
0.0
 11
411.6109765105543
 21
223.8455973085468
 31
0.0
  0
LINE
  5
182AA
330
1F
100
AcDbEntity
  8
0
100
AcDbLine
 10
411.6109765105543
 20
225.6690428628718
 30
0.0
 11
412.5109765105539
 21
225.6690428628718
 31
0.0
  0
LINE
  5
182AB
330
1F
100
AcDbEntity
  8
0
100
AcDbLine
 10
411.6984765105542
 20
225.8205973085469
 30
0.0
 11
412.4234765105541
 21
225.8205973085469
 31
0.0
  0
LINE
  5
182AC
330
1F
100
AcDbEntity
  8
0
100
AcDbLine
 10
412.7234765105542
 20
223.7229103763219
 30
0.0
 11
412.7234765105542
 21
222.5205973085468
 31
0.0
  0
LINE
  5
182AD
330
1F
100
AcDbEntity
  8
0
100
AcDbLine
 10
412.7234765105542
 20
222.4205973085468
 30
0.0
 11
412.7234765105542
 21
221.9705973085468
 31
0.0
  0
LINE
  5
182AE
330
1F
100
AcDbEntity
  8
0
100
AcDbLine
 10
412.7234765105542
 20
221.9705973085468
 30
0.0
 11
412.7234765105542
 21
222.4205973085468
 31
0.0
  0
LINE
  5
182AF
330
1F
100
AcDbEntity
  8
0
100
AcDbLine
 10
412.7234765105542
 20
222.5205973085468
 30
0.0
 11
412.7234765105542
 21
223.7229103763219
 31
0.0
  0
LINE
  5
182B0
330
1F
100
AcDbEntity
  8
0
100
AcDbLine
 10
412.5234765105544
 20
227.9705973085468
 30
0.0
 11
412.5234765105544
 21
227.0580973085469
 31
0.0
  0
LINE
  5
182B1
330
1F
100
AcDbEntity
  8
0
100
AcDbLine
 10
412.5234765105544
 20
226.8205973085469
 30
0.0
 11
412.5234765105544
 21
226.4455973085469
 31
0.0
  0
LINE
  5
182B2
330
1F
100
AcDbEntity
  8
0
100
AcDbLine
 10
412.5234765105544
 20
227.0580973085469
 30
0.0
 11
412.5234765105544
 21
227.9705973085468
 31
0.0
  0
LINE
  5
182B3
330
1F
100
AcDbEntity
  8
0
100
AcDbLine
 10
412.5109765105539
 20
225.6690428628718
 30
0.0
 11
412.5109765105539
 21
223.8455973085468
 31
0.0
  0
LINE
  5
182B4
330
1F
100
AcDbEntity
  8
0
100
AcDbLine
 10
412.4297265105544
 20
227.0580973085469
 30
0.0
 11
412.4297265105544
 21
226.8205973085469
 31
0.0
  0
LINE
  5
182B5
330
1F
100
AcDbEntity
  8
0
100
AcDbLine
 10
412.4234765105541
 20
226.4455973085469
 30
0.0
 11
412.4234765105541
 21
225.8205973085469
 31
0.0
  0
LINE
  5
182B6
330
1F
100
AcDbEntity
  8
0
100
AcDbLine
 10
411.5984765105541
 20
226.4455973085469
 30
0.0
 11
412.5234765105544
 21
226.4455973085469
 31
0.0
  0
LINE
  5
182B7
330
1F
100
AcDbEntity
  8
0
100
AcDbLine
 10
412.4234765105541
 20
225.8205973085469
 30
0.0
 11
412.5109765105539
 21
225.6690428628718
 31
0.0
  0
LINE
  5
182B8
330
1F
100
AcDbEntity
  8
0
100
AcDbLine
 10
412.3109765105541
 20
231.2414685237969
 30
0.0
 11
412.3109765105541
 21
228.0705973085469
 31
0.0
  0
LINE
  5
182B9
330
1F
100
AcDbEntity
  8
0
100
AcDbLine
 10
411.6984765105542
 20
225.8205973085469
 30
0.0
 11
411.6109765105543
 21
225.6690428628718
 31
0.0
  0
LINE
  5
182BA
330
1F
100
AcDbEntity
  8
0
100
AcDbLine
 10
411.5984765105541
 20
226.8205973085469
 30
0.0
 11
412.5234765105544
 21
226.8205973085469
 31
0.0
  0
LINE
  5
182BB
330
1F
100
AcDbEntity
  8
0
100
AcDbLine
 10
411.5984765105541
 20
227.0580973085469
 30
0.0
 11
412.5234765105544
 21
227.0580973085469
 31
0.0
  0
LINE
  5
182BC
330
1F
100
AcDbEntity
  8
0
100
AcDbLine
 10
411.8109765105542
 20
231.2414685237969
 30
0.0
 11
411.8109765105542
 21
228.0705973085469
 31
0.0
  0
LINE
  5
182BD
330
1F
100
AcDbEntity
  8
0
100
AcDbLine
 10
411.6984765105542
 20
226.4455973085469
 30
0.0
 11
411.6984765105542
 21
225.8205973085469
 31
0.0
  0
LINE
  5
182BE
330
1F
100
AcDbEntity
  8
0
100
AcDbLine
 10
411.6922265105541
 20
227.0580973085469
 30
0.0
 11
411.6922265105541
 21
226.8205973085469
 31
0.0
  0
LINE
  5
182BF
330
1F
100
AcDbEntity
  8
0
100
AcDbLine
 10
411.6109765105543
 20
225.6690428628718
 30
0.0
 11
411.6109765105543
 21
223.8455973085468
 31
0.0
  0
LINE
  5
182C0
330
1F
100
AcDbEntity
  8
0
100
AcDbLine
 10
411.5984765105541
 20
227.9705973085468
 30
0.0
 11
411.5984765105541
 21
227.0580973085469
 31
0.0
  0
LINE
  5
182C1
330
1F
100
AcDbEntity
  8
0
100
AcDbLine
 10
411.5984765105541
 20
226.8205973085469
 30
0.0
 11
411.5984765105541
 21
226.4455973085469
 31
0.0
  0
LINE
  5
182C2
330
1F
100
AcDbEntity
  8
0
100
AcDbLine
 10
411.5984765105541
 20
227.0580973085469
 30
0.0
 11
411.5984765105541
 21
227.9705973085468
 31
0.0
  0
LINE
  5
182C3
330
1F
100
AcDbEntity
  8
0
100
AcDbLine
 10
411.3984765105541
 20
223.7229103763219
 30
0.0
 11
411.3984765105541
 21
222.5205973085468
 31
0.0
  0
LINE
  5
182C4
330
1F
100
AcDbEntity
  8
0
100
AcDbLine
 10
411.3984765105541
 20
222.4205973085468
 30
0.0
 11
411.3984765105541
 21
221.9705973085468
 31
0.0
  0
LINE
  5
182C5
330
1F
100
AcDbEntity
  8
0
100
AcDbLine
 10
411.3984765105541
 20
221.9705973085468
 30
0.0
 11
411.3984765105541
 21
222.4205973085468
 31
0.0
  0
LINE
  5
182C6
330
1F
100
AcDbEntity
  8
0
100
AcDbLine
 10
411.3984765105541
 20
222.5205973085468
 30
0.0
 11
411.3984765105541
 21
223.7229103763219
 31
0.0
  0
LINE
  5
182C7
330
1F
100
AcDbEntity
  8
0
100
AcDbLine
 10
411.5984765105541
 20
227.9705973085468
 30
0.0
 11
412.5234765105544
 21
227.9705973085468
 31
0.0
  0
LINE
  5
182C8
330
1F
100
AcDbEntity
  8
0
100
AcDbLine
 10
412.4234765103294
 20
228.0705973087718
 30
0.0
 11
412.5234765102542
 21
227.9705973088219
 31
0.0
  0
LINE
  5
182C9
330
1F
100
AcDbEntity
  8
0
100
AcDbLine
 10
411.698476510879
 20
228.0705973088718
 30
0.0
 11
411.5984765109793
 21
227.9705973089467
 31
0.0
  0
LINE
  5
182CA
330
1F
100
AcDbEntity
  8
0
100
AcDbLine
 10
411.6984765105794
 20
228.0705973085469
 30
0.0
 11
412.4234765105294
 21
228.0705973085469
 31
0.0
  0
LINE
  5
182CB
330
1F
100
AcDbEntity
  8
0
100
AcDbLine
 10
411.8109765105542
 20
231.2414685237969
 30
0.0
 11
412.3109765105541
 21
231.2414685237969
 31
0.0
  0
LINE
  5
182CC
330
1F
100
AcDbEntity
  8
0
100
AcDbLine
 10
411.9609765105542
 20
231.4705973085469
 30
0.0
 11
412.1609765105541
 21
231.4705973085469
 31
0.0
  0
ARC
  5
182CD
330
1F
100
AcDbEntity
  8
0
100
AcDbCircle
 10
412.0609765105542
 20
231.2414685237969
 30
0.0
 40
0.25
100
AcDbArc
 50
0.0
 51
66.42182152180314
  0
ARC
  5
182CE
330
1F
100
AcDbEntity
  8
0
100
AcDbCircle
 10
412.0609765105542
 20
231.2414685237969
 30
0.0
 40
0.25
100
AcDbArc
 50
113.5781784781968
 51
180.0
  0
CIRCLE
  5
182CF
330
1F
100
AcDbEntity
  8
0
100
AcDbCircle
 10
412.0609765105542
 20
225.3455973085468
 30
0.0
 40
0.1
  0
LINE
  5
182D0
330
1F
100
AcDbEntity
  8
0
100
AcDbLine
 10
415.9185951459622
 20
221.9705973085468
 30
0.0
 11
417.2435951459623
 21
221.9705973085468
 31
0.0
  0
LINE
  5
182D6
330
1F
100
AcDbEntity
  8
0
100
AcDbLine
 10
415.9185951459622
 20
223.7229103763219
 30
0.0
 11
417.2435951459623
 21
223.7229103763219
 31
0.0
  0
LINE
  5
182D7
330
1F
100
AcDbEntity
  8
0
100
AcDbLine
 10
416.1310951459624
 20
223.8455973085468
 30
0.0
 11
417.0310951459621
 21
223.8455973085468
 31
0.0
  0
LINE
  5
182DA
330
1F
100
AcDbEntity
  8
0
100
AcDbLine
 10
417.0310951459621
 20
223.8455973085468
 30
0.0
 11
417.2435951459623
 21
223.7229103763219
 31
0.0
  0
LINE
  5
182DB
330
1F
100
AcDbEntity
  8
0
100
AcDbLine
 10
415.9185951459622
 20
223.7229103763219
 30
0.0
 11
416.1310951459624
 21
223.8455973085468
 31
0.0
  0
LINE
  5
182DC
330
1F
100
AcDbEntity
  8
0
100
AcDbLine
 10
416.1310951459624
 20
225.6690428628718
 30
0.0
 11
417.0310951459621
 21
225.6690428628718
 31
0.0
  0
LINE
  5
182DD
330
1F
100
AcDbEntity
  8
0
100
AcDbLine
 10
416.2185951459624
 20
225.8205973085469
 30
0.0
 11
416.9435951459623
 21
225.8205973085469
 31
0.0
  0
LINE
  5
182DE
330
1F
100
AcDbEntity
  8
0
100
AcDbLine
 10
417.2435951459623
 20
223.7229103763219
 30
0.0
 11
417.2435951459623
 21
221.9705973085468
 31
0.0
  0
LINE
  5
182E1
330
1F
100
AcDbEntity
  8
0
100
AcDbLine
 10
417.2435951459623
 20
221.9705973085468
 30
0.0
 11
417.2435951459623
 21
223.7229103763219
 31
0.0
  0
LINE
  5
182E2
330
1F
100
AcDbEntity
  8
0
100
AcDbLine
 10
417.0435951459621
 20
227.9705973085468
 30
0.0
 11
417.0435951459621
 21
227.0580973085469
 31
0.0
  0
LINE
  5
182E3
330
1F
100
AcDbEntity
  8
0
100
AcDbLine
 10
417.0435951459621
 20
226.8205973085469
 30
0.0
 11
417.0435951459621
 21
226.4455973085469
 31
0.0
  0
LINE
  5
182E4
330
1F
100
AcDbEntity
  8
0
100
AcDbLine
 10
417.0435951459621
 20
227.0580973085469
 30
0.0
 11
417.0435951459621
 21
227.9705973085468
 31
0.0
  0
LINE
  5
182E5
330
1F
100
AcDbEntity
  8
0
100
AcDbLine
 10
417.0310951459621
 20
225.6690428628718
 30
0.0
 11
417.0310951459621
 21
223.8455973085468
 31
0.0
  0
LINE
  5
182E6
330
1F
100
AcDbEntity
  8
0
100
AcDbLine
 10
416.9498451459621
 20
227.0580973085469
 30
0.0
 11
416.9498451459621
 21
226.8205973085469
 31
0.0
  0
LINE
  5
182E7
330
1F
100
AcDbEntity
  8
0
100
AcDbLine
 10
416.9435951459623
 20
226.4455973085469
 30
0.0
 11
416.9435951459623
 21
225.8205973085469
 31
0.0
  0
LINE
  5
182E8
330
1F
100
AcDbEntity
  8
0
100
AcDbLine
 10
416.1185951459621
 20
226.4455973085469
 30
0.0
 11
417.0435951459621
 21
226.4455973085469
 31
0.0
  0
LINE
  5
182E9
330
1F
100
AcDbEntity
  8
0
100
AcDbLine
 10
416.9435951459623
 20
225.8205973085469
 30
0.0
 11
417.0310951459621
 21
225.6690428628718
 31
0.0
  0
LINE
  5
182EA
330
1F
100
AcDbEntity
  8
0
100
AcDbLine
 10
416.8310951459623
 20
231.2414685237969
 30
0.0
 11
416.8310951459623
 21
228.0705973085469
 31
0.0
  0
LINE
  5
182EB
330
1F
100
AcDbEntity
  8
0
100
AcDbLine
 10
416.2185951459624
 20
225.8205973085469
 30
0.0
 11
416.1310951459624
 21
225.6690428628718
 31
0.0
  0
LINE
  5
182EC
330
1F
100
AcDbEntity
  8
0
100
AcDbLine
 10
416.1185951459621
 20
226.8205973085469
 30
0.0
 11
417.0435951459621
 21
226.8205973085469
 31
0.0
  0
LINE
  5
182ED
330
1F
100
AcDbEntity
  8
0
100
AcDbLine
 10
416.1185951459621
 20
227.0580973085469
 30
0.0
 11
417.0435951459621
 21
227.0580973085469
 31
0.0
  0
LINE
  5
182EE
330
1F
100
AcDbEntity
  8
0
100
AcDbLine
 10
416.3310951459623
 20
231.2414685237969
 30
0.0
 11
416.3310951459623
 21
228.0705973085469
 31
0.0
  0
LINE
  5
182EF
330
1F
100
AcDbEntity
  8
0
100
AcDbLine
 10
416.2185951459624
 20
226.4455973085469
 30
0.0
 11
416.2185951459624
 21
225.8205973085469
 31
0.0
  0
LINE
  5
182F0
330
1F
100
AcDbEntity
  8
0
100
AcDbLine
 10
416.2123451459621
 20
227.0580973085469
 30
0.0
 11
416.2123451459621
 21
226.8205973085469
 31
0.0
  0
LINE
  5
182F1
330
1F
100
AcDbEntity
  8
0
100
AcDbLine
 10
416.1310951459624
 20
225.6690428628718
 30
0.0
 11
416.1310951459624
 21
223.8455973085468
 31
0.0
  0
LINE
  5
182F2
330
1F
100
AcDbEntity
  8
0
100
AcDbLine
 10
416.1185951459621
 20
227.9705973085468
 30
0.0
 11
416.1185951459621
 21
227.0580973085469
 31
0.0
  0
LINE
  5
182F3
330
1F
100
AcDbEntity
  8
0
100
AcDbLine
 10
416.1185951459621
 20
226.8205973085469
 30
0.0
 11
416.1185951459621
 21
226.4455973085469
 31
0.0
  0
LINE
  5
182F4
330
1F
100
AcDbEntity
  8
0
100
AcDbLine
 10
416.1185951459621
 20
227.0580973085469
 30
0.0
 11
416.1185951459621
 21
227.9705973085468
 31
0.0
  0
LINE
  5
182F5
330
1F
100
AcDbEntity
  8
0
100
AcDbLine
 10
415.9185951459622
 20
223.7229103763219
 30
0.0
 11
415.9185951459622
 21
221.9705973085468
 31
0.0
  0
LINE
  5
182F8
330
1F
100
AcDbEntity
  8
0
100
AcDbLine
 10
415.9185951459622
 20
221.9705973085468
 30
0.0
 11
415.9185951459622
 21
223.7229103763219
 31
0.0
  0
LINE
  5
182F9
330
1F
100
AcDbEntity
  8
0
100
AcDbLine
 10
416.1185951459621
 20
227.9705973085468
 30
0.0
 11
417.0435951459621
 21
227.9705973085468
 31
0.0
  0
LINE
  5
182FA
330
1F
100
AcDbEntity
  8
0
100
AcDbLine
 10
416.9435951457371
 20
228.0705973087718
 30
0.0
 11
417.0435951456623
 21
227.9705973088219
 31
0.0
  0
LINE
  5
182FB
330
1F
100
AcDbEntity
  8
0
100
AcDbLine
 10
416.2185951462872
 20
228.0705973088718
 30
0.0
 11
416.118595146387
 21
227.9705973089467
 31
0.0
  0
LINE
  5
182FC
330
1F
100
AcDbEntity
  8
0
100
AcDbLine
 10
416.2185951459873
 20
228.0705973085469
 30
0.0
 11
416.9435951459373
 21
228.0705973085469
 31
0.0
  0
LINE
  5
182FD
330
1F
100
AcDbEntity
  8
0
100
AcDbLine
 10
416.3310951459623
 20
231.2414685237969
 30
0.0
 11
416.8310951459623
 21
231.2414685237969
 31
0.0
  0
LINE
  5
182FE
330
1F
100
AcDbEntity
  8
0
100
AcDbLine
 10
416.4810951459623
 20
231.4705973085469
 30
0.0
 11
416.6810951459622
 21
231.4705973085469
 31
0.0
  0
ARC
  5
182FF
330
1F
100
AcDbEntity
  8
0
100
AcDbCircle
 10
416.5810951459623
 20
231.2414685237969
 30
0.0
 40
0.25
100
AcDbArc
 50
0.0
 51
66.42182152180314
  0
ARC
  5
18300
330
1F
100
AcDbEntity
  8
0
100
AcDbCircle
 10
416.5810951459623
 20
231.2414685237969
 30
0.0
 40
0.25
100
AcDbArc
 50
113.5781784781968
 51
180.0
  0
CIRCLE
  5
18301
330
1F
100
AcDbEntity
  8
0
100
AcDbCircle
 10
416.5810951459623
 20
225.3455973085468
 30
0.0
 40
0.1
  0
ENDSEC
  0
SECTION
  2
OBJECTS
  0
DICTIONARY
  5
C
330
0
100
AcDbDictionary
281
     1
  3
ACAD_2007HEADERVARS_RT
350
18B2B
  3
ACAD_COLOR
350
4FFE
  3
ACAD_GROUP
350
D
  3
ACAD_LAYOUT
350
1A
  3
ACAD_MATERIAL
350
4FE5
  3
ACAD_MLEADERSTYLE
350
5022
  3
ACAD_MLINESTYLE
350
17
  3
ACAD_PLOTSETTINGS
350
19
  3
ACAD_PLOTSTYLENAME
350
E
  3
ACAD_RENDER_PLOT_SETTINGS
350
6537
  3
ACAD_SCALELIST
350
5000
  3
ACAD_TABLESTYLE
350
4FE3
  3
ACAD_VISUALSTYLE
350
2A
  3
ACDB_RECOMPOSE_DATA
350
50EC
  3
AcDbVariableDictionary
350
5108
  3
ASE_INDEX_DICTIONARY
350
11ACE
  3
lxx_dict
350
13F82
  0
DICTIONARY
  5
50EE
330
8
100
AcDbDictionary
280
     1
281
     1
  0
DICTIONARY
  5
50B8
330
2
100
AcDbDictionary
280
     1
281
     1
  3
ACAD_LAYERFILTERS
360
67BE
  3
ACAD_LAYERSTATES
360
50B9
  3
ACLYDICTIONARY
360
67BD
  0
DICTIONARY
  5
50D0
330
10
100
AcDbDictionary
280
     1
281
     1
  3
ADSK_XREC_LAYER_RECONCILED
360
50D1
  0
DICTIONARY
  5
50D2
330
3B
100
AcDbDictionary
280
     1
281
     1
  3
ADSK_XREC_LAYER_RECONCILED
360
50D3
  0
DICTIONARY
  5
50AF
330
50AE
100
AcDbDictionary
280
     1
281
     1
  3
ADSK_XREC_LAYER_RECONCILED
360
50D4
  0
DICTIONARY
  5
67C0
330
1F
100
AcDbDictionary
280
     1
281
     1
  3
ACAD_SORTENTS
360
67C1
  0
DICTIONARY
  5
188B2
330
13E17
100
AcDbDictionary
280
     1
281
     1
  0
DICTIONARY
  5
18B11
330
1881E
100
AcDbDictionary
280
     1
281
     1
  3
ACAD_MTEXT_2008_RT
360
18B2F
  0
DICTIONARY
  5
18B13
330
1885F
100
AcDbDictionary
280
     1
281
     1
  3
ACAD_MTEXT_2008_RT
360
18B30
  0
DICTIONARY
  5
18B15
330
18860
100
AcDbDictionary
280
     1
281
     1
  3
ACAD_MTEXT_2008_RT
360
18B31
  0
DICTIONARY
  5
18B17
330
18885
100
AcDbDictionary
280
     1
281
     1
  3
ACAD_MTEXT_2008_RT
360
18B32
  0
DICTIONARY
  5
18B19
330
18888
100
AcDbDictionary
280
     1
281
     1
  3
ACAD_MTEXT_2008_RT
360
18B33
  0
DICTIONARY
  5
18B1B
330
18889
100
AcDbDictionary
280
     1
281
     1
  3
ACAD_MTEXT_2008_RT
360
18B34
  0
DICTIONARY
  5
18B1D
330
18893
100
AcDbDictionary
280
     1
281
     1
  3
ACAD_MTEXT_2008_RT
360
18B35
  0
DICTIONARY
  5
18B1F
330
18894
100
AcDbDictionary
280
     1
281
     1
  3
ACAD_MTEXT_2008_RT
360
18B36
  0
DICTIONARY
  5
18B21
330
18895
100
AcDbDictionary
280
     1
281
     1
  3
ACAD_MTEXT_2008_RT
360
18B37
  0
DICTIONARY
  5
18B23
330
188A3
100
AcDbDictionary
280
     1
281
     1
  3
ACAD_MTEXT_2008_RT
360
18B38
  0
DICTIONARY
  5
18B25
330
188A4
100
AcDbDictionary
280
     1
281
     1
  3
ACAD_MTEXT_2008_RT
360
18B39
  0
DICTIONARY
  5
18B27
330
188A5
100
AcDbDictionary
280
     1
281
     1
  3
ACAD_MTEXT_2008_RT
360
18B3A
  0
DICTIONARY
  5
18B29
330
188AF
100
AcDbDictionary
280
     1
281
     1
  3
ACAD_MTEXT_2008_RT
360
18B3B
  0
DICTIONARY
  5
18B0F
330
12C4B
100
AcDbDictionary
280
     1
281
     1
  3
ACAD_MTEXT_2008_RT
360
18B2E
  0
DICTIONARY
  5
14D51
330
13EBE
100
AcDbDictionary
280
     1
281
     1
  0
DICTIONARY
  5
1742A
330
17429
100
AcDbDictionary
280
     1
281
     1
  3
ACAD_DIMASSOC
360
1742B
  0
DICTIONARY
  5
18B2B
102
{ACAD_REACTORS
330
C
102
}
330
C
100
AcDbDictionary
281
     1
  3
DIMLTYPE
350
18B2C
  0
DICTIONARY
  5
4FFE
102
{ACAD_REACTORS
330
C
102
}
330
C
100
AcDbDictionary
281
     1
  0
DICTIONARY
  5
D
102
{ACAD_REACTORS
330
C
102
}
330
C
100
AcDbDictionary
281
     1
  0
DICTIONARY
  5
1A
102
{ACAD_REACTORS
330
C
102
}
330
C
100
AcDbDictionary
281
     1
  3
Layout1
350
1E
  3
Layout2
350
26
  3
Model
350
22
  0
DICTIONARY
  5
4FE5
102
{ACAD_REACTORS
330
C
102
}
330
C
100
AcDbDictionary
281
     1
  3
ByBlock
350
4FEE
  3
ByLayer
350
4FE6
  3
Global
350
4FF6
  0
DICTIONARY
  5
5022
102
{ACAD_REACTORS
330
C
102
}
330
C
100
AcDbDictionary
281
     1
  3
Standard
350
5023
  0
DICTIONARY
  5
17
102
{ACAD_REACTORS
330
C
102
}
330
C
100
AcDbDictionary
281
     1
  3
Standard
350
18
  0
DICTIONARY
  5
19
102
{ACAD_REACTORS
330
C
102
}
330
C
100
AcDbDictionary
281
     1
  0
ACDBDICTIONARYWDFLT
  5
E
102
{ACAD_REACTORS
330
C
102
}
330
C
100
AcDbDictionary
281
     1
  3
Normal
350
F
  3
Style 1
350
11B6F
100
AcDbDictionaryWithDefault
340
F
  0
DICTIONARY
  5
6537
102
{ACAD_REACTORS
330
C
102
}
330
C
100
AcDbDictionary
281
     1
  3
{1DC63513-1B1A-422F-9880-65CFD2B8D533}
350
6538
  0
DICTIONARY
  5
5000
102
{ACAD_REACTORS
330
C
102
}
330
C
100
AcDbDictionary
281
     1
  3
A0
350
5001
  3
A1
350
5002
  3
A2
350
5003
  3
A3
350
5004
  3
A4
350
5005
  3
A5
350
5006
  3
A6
350
5007
  3
A7
350
5008
  3
A8
350
5009
  3
A9
350
500A
  3
B0
350
500B
  3
B1
350
500C
  3
B2
350
500D
  3
B3
350
500E
  3
B4
350
500F
  3
B5
350
5010
  3
B6
350
5011
  3
B7
350
5012
  3
B8
350
5013
  3
B9
350
5014
  3
C0
350
5015
  3
C1
350
5016
  3
C2
350
5017
  3
C3
350
5018
  3
C4
350
5019
  3
C5
350
501A
  3
C6
350
501B
  3
C7
350
501C
  3
C8
350
501D
  3
C9
350
501E
  3
D0
350
501F
  3
D1
350
5020
  3
D2
350
5021
  0
DICTIONARY
  5
4FE3
102
{ACAD_REACTORS
330
C
102
}
330
C
100
AcDbDictionary
281
     1
  3
Standard
350
4FFF
  0
DICTIONARY
  5
2A
102
{ACAD_REACTORS
330
C
102
}
330
C
100
AcDbDictionary
281
     1
  3
2dWireframe
350
2F
  3
3D Hidden
350
31
  3
3dWireframe
350
30
  3
Basic
350
32
  3
Brighten
350
36
  3
ColorChange
350
3A
  3
Conceptual
350
34
  3
Dim
350
35
  3
Facepattern
350
39
  3
Flat
350
2B
  3
FlatWithEdges
350
2C
  3
Gouraud
350
2D
  3
GouraudWithEdges
350
2E
  3
Linepattern
350
38
  3
Realistic
350
33
  3
Thicken
350
37
  0
XRECORD
  5
50EC
102
{ACAD_REACTORS
330
C
102
}
330
C
100
AcDbXrecord
280
     1
 90
        1
330
4FFF
330
12C4B
330
1881E
330
1885F
330
18860
330
18885
330
18888
330
18889
330
18893
330
18894
330
18895
330
188A3
330
188A4
330
188A5
330
188AF
  0
DICTIONARY
  5
5108
102
{ACAD_REACTORS
330
C
102
}
330
C
100
AcDbDictionary
281
     1
  3
CANNOSCALE
350
510B
  3
CMLEADERSTYLE
350
510A
  3
CTABLESTYLE
350
5109
  3
DIMASSOC
350
510E
  3
INDEXCTL
350
510D
  3
LIGHTINGUNITS
350
13FA0
  3
MSLTSCALE
350
13F9F
  3
SORTENTS
350
510C
  0
DICTIONARY
  5
11ACE
102
{ACAD_REACTORS
330
C
102
}
330
C
100
AcDbDictionary
281
     1
  3
ASEBlockHierarchyIndexRecord
350
11ACF
1001
DCO15
1040
1901191674.187
  0
DICTIONARY
  5
13F82
102
{ACAD_REACTORS
330
C
102
}
330
C
100
AcDbDictionary
281
     1
  3
lxx_dimth
350
13F83
  0
DICTIONARY
  5
67BE
102
{ACAD_REACTORS
330
50B8
102
}
330
50B8
100
AcDbDictionary
281
     1
  0
DICTIONARY
  5
50B9
102
{ACAD_REACTORS
330
50B8
102
}
330
50B8
100
AcDbDictionary
281
     1
  0
DICTIONARY
  5
67BD
102
{ACAD_REACTORS
330
50B8
102
}
330
50B8
100
AcDbDictionary
281
     1
1001
ACAD
1000
<All
  0
XRECORD
  5
50D1
102
{ACAD_REACTORS
330
50D0
102
}
330
50D0
100
AcDbXrecord
280
     1
290
     1
  0
XRECORD
  5
50D3
102
{ACAD_REACTORS
330
50D2
102
}
330
50D2
100
AcDbXrecord
280
     1
290
     1
  0
XRECORD
  5
50D4
102
{ACAD_REACTORS
330
50AF
102
}
330
50AF
100
AcDbXrecord
280
     1
290
     1
  0
SORTENTSTABLE
  5
67C1
102
{ACAD_REACTORS
330
67C0
102
}
330
67C0
100
AcDbSortentsTable
330
1F
331
13093
  5
12B2B
331
35C8
  5
35D8
331
2C65
  5
2EE7
331
13EBD
  5
13EBD
331
2EE7
  5
2F93
331
3943
  5
4842
331
13EBB
  5
13EBB
331
2FDE
  5
35C8
331
3807
  5
3895
331
35D8
  5
3807
331
28AE
  5
2A38
331
12C4B
  5
1307F
331
13EBE
  5
13EBE
331
12C63
  5
13097
331
3895
  5
3943
331
13EBC
  5
13EBC
331
15C35
  5
15C35
331
2F93
  5
2FDE
331
4842
  5
4E94
331
13EBA
  5
13EBA
  0
XRECORD
  5
18B2F
102
{ACAD_REACTORS
330
18B11
102
}
330
18B11
100
AcDbXrecord
280
     1
 40
2554.0
  1
\pxqc;HQ ZHANG
  0
XRECORD
  5
18B30
102
{ACAD_REACTORS
330
18B13
102
}
330
18B13
100
AcDbXrecord
280
     1
 40
382080.0
  1
\pxqc;档案员{\H0.7x;\P\Fromans|c134;Filing Clerk\fFangSong_GB2312|b0|i0|c134|p49; }
  0
XRECORD
  5
18B31
102
{ACAD_REACTORS
330
18B15
102
}
330
18B15
100
AcDbXrecord
280
     1
 40
48245.0
  1
\pxqc;日期{\Fromans|c134;/Date}
  0
XRECORD
  5
18B32
102
{ACAD_REACTORS
330
18B17
102
}
330
18B17
100
AcDbXrecord
280
     1
 40
71634.0
  1
\pxsm0.7;{\fFangSong_GB2312|b0|i0|c134|p49;标准化}\PStand.
  0
XRECORD
  5
18B33
102
{ACAD_REACTORS
330
18B19
102
}
330
18B19
100
AcDbXrecord
280
     1
 40
48353.0
  1
\pxsm0.7;签名\P{\Fromans|c134;Signature} 
  0
XRECORD
  5
18B34
102
{ACAD_REACTORS
330
18B1B
102
}
330
18B1B
100
AcDbXrecord
280
     1
 40
38427.0
  1
\pxsm0.7,qc;处数\P{\Fromans|c134;Number }
  0
XRECORD
  5
18B35
102
{ACAD_REACTORS
330
18B1D
102
}
330
18B1D
100
AcDbXrecord
280
     1
 40
31190.0
  1
\pxsm0.7;标记\P{\Fromans|c134;Mark}
  0
XRECORD
  5
18B36
102
{ACAD_REACTORS
330
18B1F
102
}
330
18B1F
100
AcDbXrecord
280
     1
 40
39355.0
  1
\pxsm0.7;审核\P{\Fromans|c134;Checked}
  0
XRECORD
  5
18B37
102
{ACAD_REACTORS
330
18B21
102
}
330
18B21
100
AcDbXrecord
280
     1
 40
66730.0
  1
\pxsm0.7;绘图\P{\Fromans|c134;Drawn\Ftxt|c134; }
  0
XRECORD
  5
18B38
102
{ACAD_REACTORS
330
18B23
102
}
330
18B23
100
AcDbXrecord
280
     1
 40
43787.0
  1
\pxsm0.7;批准\P{\Fromans|c134;Approved}
  0
XRECORD
  5
18B39
102
{ACAD_REACTORS
330
18B25
102
}
330
18B25
100
AcDbXrecord
280
     1
 40
40691.0
  1
\pxsm0.7;工艺\P{\Fromans|c134;Process}
  0
XRECORD
  5
18B3A
102
{ACAD_REACTORS
330
18B27
102
}
330
18B27
100
AcDbXrecord
280
     1
 40
30977.0
  1
\pxsm0.7;日期\P{\Fromans|c134;Date}
  0
XRECORD
  5
18B3B
102
{ACAD_REACTORS
330
18B29
102
}
330
18B29
100
AcDbXrecord
280
     1
 40
1477.0
  1
\pxqc;ZM LIN
  0
XRECORD
  5
18B2E
102
{ACAD_REACTORS
330
18B0F
102
}
330
18B0F
100
AcDbXrecord
280
     1
 40
9541669.0
  1
\A1;\pxql;技术参数:\P\pq*;- 材料: 铜合金\P- 表面处理: 镀金\P\pql;- 额定电流: {\Fromans|c134;30A\P}- 接触电阻: ≤{\Fromans|c134;1mΩ\P}- 线径范围: {\Fromans|c134;0.35-4.0mm\H0.7x;\S2^ ;\H1.4286x;(22-12 AWG)\H0.99998x;\P\pq*;}- 可插拔次数: ≥{\Fromans|c134;500\P\P\pql;Technical specifica
  1
tion:\P- Material: copper alloy\P- Surface: hard-gold plated\P- Rated current: 30A}\P{\Fromans|c134;- Contact resistance: }≤{\Fromans|c134;1mΩ\P- Wire gauge: 0.35-4.0mm\H0.7x;\S2^ ;\H1.4286x;(22-12 AWG)\P\H0.99998x;- Mating cycles: }≥{\Fromans|c134;50
  1
0}
  0
DIMASSOC
  5
1742B
102
{ACAD_REACTORS
330
1742A
102
}
330
1742A
100
AcDbDimAssoc
330
17429
 90
        3
 70
     0
 71
     0
  1
AcDbOsnapPointRef
 72
     1
331
1740C
 73
     2
 91
        0
 40
1.0
 10
0.0
 20
0.0
 30
2.000000000000000E+50
 75
     0
  1
AcDbOsnapPointRef
 72
    13
331
1741C
 73
     2
 91
        0
 40
0.0
 10
0.0
 20
0.0
 30
2.000000000000000E+50
 75
     0
  0
XRECORD
  5
18B2C
102
{ACAD_REACTORS
330
18B2B
102
}
330
18B2B
100
AcDbXrecord
280
     1
340
15
  0
LAYOUT
  5
1E
102
{ACAD_REACTORS
330
1A
102
}
330
1A
100
AcDbPlotSettings
  1

  2
none_device
  4

  6

 40
0.0
 41
0.0
 42
0.0
 43
0.0
 44
0.0
 45
0.0
 46
0.0
 47
0.0
 48
0.0
 49
0.0
140
0.0
141
0.0
142
1.0
143
1.0
 70
   688
 72
     0
 73
     0
 74
     5
  7

 75
    16
147
1.0
 76
     0
 77
     2
 78
   300
148
0.0
149
0.0
100
AcDbLayout
  1
Layout1
 70
     1
 71
     1
 10
0.0
 20
0.0
 11
12.0
 21
9.0
 12
0.0
 22
0.0
 32
0.0
 14
1.000000000000000E+20
 24
1.000000000000000E+20
 34
1.000000000000000E+20
 15
-1.000000000000000E+20
 25
-1.000000000000000E+20
 35
-1.000000000000000E+20
146
0.0
 13
0.0
 23
0.0
 33
0.0
 16
1.0
 26
0.0
 36
0.0
 17
0.0
 27
1.0
 37
0.0
 76
     0
330
1B
  0
LAYOUT
  5
26
102
{ACAD_REACTORS
330
1A
102
}
330
1A
100
AcDbPlotSettings
  1

  2
none_device
  4

  6

 40
0.0
 41
0.0
 42
0.0
 43
0.0
 44
0.0
 45
0.0
 46
0.0
 47
0.0
 48
0.0
 49
0.0
140
0.0
141
0.0
142
1.0
143
1.0
 70
   688
 72
     0
 73
     0
 74
     5
  7

 75
    16
147
1.0
 76
     0
 77
     2
 78
   300
148
0.0
149
0.0
100
AcDbLayout
  1
Layout2
 70
     1
 71
     2
 10
0.0
 20
0.0
 11
0.0
 21
0.0
 12
0.0
 22
0.0
 32
0.0
 14
0.0
 24
0.0
 34
0.0
 15
0.0
 25
0.0
 35
0.0
146
0.0
 13
0.0
 23
0.0
 33
0.0
 16
1.0
 26
0.0
 36
0.0
 17
0.0
 27
1.0
 37
0.0
 76
     0
330
23
  0
LAYOUT
  5
22
102
{ACAD_REACTORS
330
1A
102
}
330
1A
100
AcDbPlotSettings
  1

  2
Adobe PDF Converter.pc3
  4
A4
  6

 40
3.174999952316281
 41
3.174999952316281
 42
3.17498779296875
 43
3.175003051757812
 44
297.0318298339844
 45
209.9733276367186
 46
0.0000000000000076
 47
1.630241740247063
 48
246.9897427644609
 49
39.36804549891383
140
544.952097801264
141
244.7492402188181
142
1.0
143
1.025046328645055
 70
  3764
 72
     1
 73
     0
 74
     4
  7
monochrome.ctb
 75
     0
147
0.9755656618192436
 76
     1
 77
     2
 78
   300
148
-246.9897427644609
149
-39.36804549891383
100
AcDbLayout
  1
Model
 70
     1
 71
     0
 10
0.0
 20
0.0
 11
12.0
 21
9.0
 12
0.0
 22
0.0
 32
0.0
 14
1.000000000000000E+20
 24
1.000000000000000E+20
 34
1.000000000000000E+20
 15
-1.000000000000000E+20
 25
-1.000000000000000E+20
 35
-1.000000000000000E+20
146
0.0
 13
0.0
 23
0.0
 33
0.0
 16
1.0
 26
0.0
 36
0.0
 17
0.0
 27
1.0
 37
0.0
 76
     0
330
1F
331
29
1001
ACAD_PSEXT
1000
Adobe PDF Converter.pc3
1000
Adobe PDF Converter
1000
桌面\*.pdf
1000

1070
     0
  0
MATERIAL
  5
4FEE
102
{ACAD_XDICTIONARY
360
4FEF
102
}
102
{ACAD_REACTORS
330
4FE5
102
}
330
4FE5
100
AcDbMaterial
  1
ByBlock
 72
     0
 43
0.0208333333333333
 43
0.0
 43
0.0
 43
0.0
 43
0.0
 43
0.0208333333333333
 43
0.0
 43
0.0
 43
0.0
 43
0.0
 43
1.0
 43
0.0
 43
0.0
 43
0.0
 43
0.0
 43
1.0
 77
     0
 47
0.0208333333333333
 47
0.0
 47
0.0
 47
0.0
 47
0.0
 47
0.0208333333333333
 47
0.0
 47
0.0
 47
0.0
 47
0.0
 47
1.0
 47
0.0
 47
0.0
 47
0.0
 47
0.0
 47
1.0
171
     0
 49
0.0208333333333333
 49
0.0
 49
0.0
 49
0.0
 49
0.0
 49
0.0208333333333333
 49
0.0
 49
0.0
 49
0.0
 49
0.0
 49
1.0
 49
0.0
 49
0.0
 49
0.0
 49
0.0
 49
1.0
175
     0
142
0.0208333333333333
142
0.0
142
0.0
142
0.0
142
0.0
142
0.0208333333333333
142
0.0
142
0.0
142
0.0
142
0.0
142
1.0
142
0.0
142
0.0
142
0.0
142
0.0
142
1.0
179
     0
144
0.0208333333333333
144
0.0
144
0.0
144
0.0
144
0.0
144
0.0208333333333333
144
0.0
144
0.0
144
0.0
144
0.0
144
1.0
144
0.0
144
0.0
144
0.0
144
0.0
144
1.0
147
0.0208333333333333
147
0.0
147
0.0
147
0.0
147
0.0
147
0.0208333333333333
147
0.0
147
0.0
147
0.0
147
0.0
147
1.0
147
0.0
147
0.0
147
0.0
147
0.0
147
1.0
  0
MATERIAL
  5
4FE6
102
{ACAD_XDICTIONARY
360
4FE7
102
}
102
{ACAD_REACTORS
330
4FE5
102
}
330
4FE5
100
AcDbMaterial
  1
ByLayer
 72
     0
 43
0.0208333333333333
 43
0.0
 43
0.0
 43
0.0
 43
0.0
 43
0.0208333333333333
 43
0.0
 43
0.0
 43
0.0
 43
0.0
 43
1.0
 43
0.0
 43
0.0
 43
0.0
 43
0.0
 43
1.0
 77
     0
 47
0.0208333333333333
 47
0.0
 47
0.0
 47
0.0
 47
0.0
 47
0.0208333333333333
 47
0.0
 47
0.0
 47
0.0
 47
0.0
 47
1.0
 47
0.0
 47
0.0
 47
0.0
 47
0.0
 47
1.0
171
     0
 49
0.0208333333333333
 49
0.0
 49
0.0
 49
0.0
 49
0.0
 49
0.0208333333333333
 49
0.0
 49
0.0
 49
0.0
 49
0.0
 49
1.0
 49
0.0
 49
0.0
 49
0.0
 49
0.0
 49
1.0
175
     0
142
0.0208333333333333
142
0.0
142
0.0
142
0.0
142
0.0
142
0.0208333333333333
142
0.0
142
0.0
142
0.0
142
0.0
142
1.0
142
0.0
142
0.0
142
0.0
142
0.0
142
1.0
179
     0
144
0.0208333333333333
144
0.0
144
0.0
144
0.0
144
0.0
144
0.0208333333333333
144
0.0
144
0.0
144
0.0
144
0.0
144
1.0
144
0.0
144
0.0
144
0.0
144
0.0
144
1.0
147
0.0208333333333333
147
0.0
147
0.0
147
0.0
147
0.0
147
0.0208333333333333
147
0.0
147
0.0
147
0.0
147
0.0
147
1.0
147
0.0
147
0.0
147
0.0
147
0.0
147
1.0
  0
MATERIAL
  5
4FF6
102
{ACAD_XDICTIONARY
360
4FF7
102
}
102
{ACAD_REACTORS
330
4FE5
102
}
330
4FE5
100
AcDbMaterial
  1
Global
 72
     0
 43
0.0208333333333333
 43
0.0
 43
0.0
 43
0.0
 43
0.0
 43
0.0208333333333333
 43
0.0
 43
0.0
 43
0.0
 43
0.0
 43
1.0
 43
0.0
 43
0.0
 43
0.0
 43
0.0
 43
1.0
 77
     0
 47
0.0208333333333333
 47
0.0
 47
0.0
 47
0.0
 47
0.0
 47
0.0208333333333333
 47
0.0
 47
0.0
 47
0.0
 47
0.0
 47
1.0
 47
0.0
 47
0.0
 47
0.0
 47
0.0
 47
1.0
171
     0
 49
0.0208333333333333
 49
0.0
 49
0.0
 49
0.0
 49
0.0
 49
0.0208333333333333
 49
0.0
 49
0.0
 49
0.0
 49
0.0
 49
1.0
 49
0.0
 49
0.0
 49
0.0
 49
0.0
 49
1.0
175
     0
142
0.0208333333333333
142
0.0
142
0.0
142
0.0
142
0.0
142
0.0208333333333333
142
0.0
142
0.0
142
0.0
142
0.0
142
1.0
142
0.0
142
0.0
142
0.0
142
0.0
142
1.0
179
     0
144
0.0208333333333333
144
0.0
144
0.0
144
0.0
144
0.0
144
0.0208333333333333
144
0.0
144
0.0
144
0.0
144
0.0
144
1.0
144
0.0
144
0.0
144
0.0
144
0.0
144
1.0
147
0.0208333333333333
147
0.0
147
0.0
147
0.0
147
0.0
147
0.0208333333333333
147
0.0
147
0.0
147
0.0
147
0.0
147
1.0
147
0.0
147
0.0
147
0.0
147
0.0
147
1.0
  0
MLEADERSTYLE
  5
5023
102
{ACAD_REACTORS
330
5022
102
}
330
5022
100
AcDbMLeaderStyle
170
     2
171
     1
172
     0
 90
        2
 40
0.0
 41
0.0
173
     1
 91
-1056964608
340
14
 92
       -2
290
     1
 42
0.09
291
     1
 43
0.36
  3
Standard
 44
0.18
300

342
11
174
     1
178
     6
175
     1
176
     0
 93
-1056964608
 45
0.18
292
     0
297
     0
 46
0.18
 94
-1056964608
 47
1.0
 49
1.0
140
1.0
293
     1
141
0.0
294
     1
177
     0
142
1.0
295
     0
296
     0
143
0.125
1001
ACAD_MLEADERVER
1070
     2
  0
MLINESTYLE
  5
18
102
{ACAD_REACTORS
330
17
102
}
330
17
100
AcDbMlineStyle
  2
STANDARD
 70
     0
  3

 62
   256
 51
90.0
 52
90.0
 71
     2
 49
0.5
 62
   256
  6
BYLAYER
 49
-0.5
 62
   256
  6
BYLAYER
  0
ACDBPLACEHOLDER
  5
F
102
{ACAD_REACTORS
330
E
102
}
330
E
  0
ACDBPLACEHOLDER
  5
11B6F
102
{ACAD_REACTORS
330
E
102
}
330
E
  0
MENTALRAYRENDERSETTINGS
  5
6538
102
{ACAD_REACTORS
330
6537
102
}
330
6537
100
AcDbRenderSettings
 90
        2
  1
中
290
     1
290
     1
290
     1
290
     1
  1

  1
渲染质量好于“低级”。包括纹理过滤并且强制双面处于激活状态。处理中等级反锯齿和 5 反射/折射的光线跟踪深度。
 90
        0
100
AcDbMentalRayRenderSettings
 90
        2
 90
        0
 90
        1
 70
     2
 40
3.0
 40
3.0
 40
0.0500000007450581
 40
0.0500000007450581
 40
0.0500000007450581
 40
0.0500000007450581
 70
     0
290
     0
290
     1
 90
        5
 90
        5
 90
        5
290
     0
 90
      500
290
     0
 40
1.0
 90
    10000
 90
        5
 90
        5
 90
        5
290
     0
 90
      200
290
     0
290
     0
290
     0
 40
0.1
 40
1.0
 40
1500.0
 70
     0
 70
     0
 40
10.0
 70
     0
 70
     0
290
     0
  1

 90
       32
 70
     0
 90
     1048
290
     0
 40
1.0
  0
SCALE
  5
5001
102
{ACAD_REACTORS
330
5000
102
}
330
5000
100
AcDbScale
 70
     0
300
1:1
140
1.0
141
1.0
290
     1
  0
SCALE
  5
5002
102
{ACAD_REACTORS
330
5000
102
}
330
5000
100
AcDbScale
 70
     0
300
1:2
140
1.0
141
2.0
290
     0
  0
SCALE
  5
5003
102
{ACAD_REACTORS
330
5000
102
}
330
5000
100
AcDbScale
 70
     0
300
1:4
140
1.0
141
4.0
290
     0
  0
SCALE
  5
5004
102
{ACAD_REACTORS
330
5000
102
}
330
5000
100
AcDbScale
 70
     0
300
1:5
140
1.0
141
5.0
290
     0
  0
SCALE
  5
5005
102
{ACAD_REACTORS
330
5000
102
}
330
5000
100
AcDbScale
 70
     0
300
1:8
140
1.0
141
8.0
290
     0
  0
SCALE
  5
5006
102
{ACAD_REACTORS
330
5000
102
}
330
5000
100
AcDbScale
 70
     0
300
1:10
140
1.0
141
10.0
290
     0
  0
SCALE
  5
5007
102
{ACAD_REACTORS
330
5000
102
}
330
5000
100
AcDbScale
 70
     0
300
1:16
140
1.0
141
16.0
290
     0
  0
SCALE
  5
5008
102
{ACAD_REACTORS
330
5000
102
}
330
5000
100
AcDbScale
 70
     0
300
1:20
140
1.0
141
20.0
290
     0
  0
SCALE
  5
5009
102
{ACAD_REACTORS
330
5000
102
}
330
5000
100
AcDbScale
 70
     0
300
1:30
140
1.0
141
30.0
290
     0
  0
SCALE
  5
500A
102
{ACAD_REACTORS
330
5000
102
}
330
5000
100
AcDbScale
 70
     0
300
1:40
140
1.0
141
40.0
290
     0
  0
SCALE
  5
500B
102
{ACAD_REACTORS
330
5000
102
}
330
5000
100
AcDbScale
 70
     0
300
1:50
140
1.0
141
50.0
290
     0
  0
SCALE
  5
500C
102
{ACAD_REACTORS
330
5000
102
}
330
5000
100
AcDbScale
 70
     0
300
1:100
140
1.0
141
100.0
290
     0
  0
SCALE
  5
500D
102
{ACAD_REACTORS
330
5000
102
}
330
5000
100
AcDbScale
 70
     0
300
2:1
140
2.0
141
1.0
290
     0
  0
SCALE
  5
500E
102
{ACAD_REACTORS
330
5000
102
}
330
5000
100
AcDbScale
 70
     0
300
4:1
140
4.0
141
1.0
290
     0
  0
SCALE
  5
500F
102
{ACAD_REACTORS
330
5000
102
}
330
5000
100
AcDbScale
 70
     0
300
8:1
140
8.0
141
1.0
290
     0
  0
SCALE
  5
5010
102
{ACAD_REACTORS
330
5000
102
}
330
5000
100
AcDbScale
 70
     0
300
10:1
140
10.0
141
1.0
290
     0
  0
SCALE
  5
5011
102
{ACAD_REACTORS
330
5000
102
}
330
5000
100
AcDbScale
 70
     0
300
100:1
140
100.0
141
1.0
290
     0
  0
SCALE
  5
5012
102
{ACAD_REACTORS
330
5000
102
}
330
5000
100
AcDbScale
 70
     0
300
1/128" = 1'-0"
140
0.0078125
141
12.0
290
     0
  0
SCALE
  5
5013
102
{ACAD_REACTORS
330
5000
102
}
330
5000
100
AcDbScale
 70
     0
300
1/64" = 1'-0"
140
0.015625
141
12.0
290
     0
  0
SCALE
  5
5014
102
{ACAD_REACTORS
330
5000
102
}
330
5000
100
AcDbScale
 70
     0
300
1/32" = 1'-0"
140
0.03125
141
12.0
290
     0
  0
SCALE
  5
5015
102
{ACAD_REACTORS
330
5000
102
}
330
5000
100
AcDbScale
 70
     0
300
1/16" = 1'-0"
140
0.0625
141
12.0
290
     0
  0
SCALE
  5
5016
102
{ACAD_REACTORS
330
5000
102
}
330
5000
100
AcDbScale
 70
     0
300
3/32" = 1'-0"
140
0.09375
141
12.0
290
     0
  0
SCALE
  5
5017
102
{ACAD_REACTORS
330
5000
102
}
330
5000
100
AcDbScale
 70
     0
300
1/8" = 1'-0"
140
0.125
141
12.0
290
     0
  0
SCALE
  5
5018
102
{ACAD_REACTORS
330
5000
102
}
330
5000
100
AcDbScale
 70
     0
300
3/16" = 1'-0"
140
0.1875
141
12.0
290
     0
  0
SCALE
  5
5019
102
{ACAD_REACTORS
330
5000
102
}
330
5000
100
AcDbScale
 70
     0
300
1/4" = 1'-0"
140
0.25
141
12.0
290
     0
  0
SCALE
  5
501A
102
{ACAD_REACTORS
330
5000
102
}
330
5000
100
AcDbScale
 70
     0
300
3/8" = 1'-0"
140
0.375
141
12.0
290
     0
  0
SCALE
  5
501B
102
{ACAD_REACTORS
330
5000
102
}
330
5000
100
AcDbScale
 70
     0
300
1/2" = 1'-0"
140
0.5
141
12.0
290
     0
  0
SCALE
  5
501C
102
{ACAD_REACTORS
330
5000
102
}
330
5000
100
AcDbScale
 70
     0
300
3/4" = 1'-0"
140
0.75
141
12.0
290
     0
  0
SCALE
  5
501D
102
{ACAD_REACTORS
330
5000
102
}
330
5000
100
AcDbScale
 70
     0
300
1" = 1'-0"
140
1.0
141
12.0
290
     0
  0
SCALE
  5
501E
102
{ACAD_REACTORS
330
5000
102
}
330
5000
100
AcDbScale
 70
     0
300
1-1/2" = 1'-0"
140
1.5
141
12.0
290
     0
  0
SCALE
  5
501F
102
{ACAD_REACTORS
330
5000
102
}
330
5000
100
AcDbScale
 70
     0
300
3" = 1'-0"
140
3.0
141
12.0
290
     0
  0
SCALE
  5
5020
102
{ACAD_REACTORS
330
5000
102
}
330
5000
100
AcDbScale
 70
     0
300
6" = 1'-0"
140
6.0
141
12.0
290
     0
  0
SCALE
  5
5021
102
{ACAD_REACTORS
330
5000
102
}
330
5000
100
AcDbScale
 70
     0
300
1'-0" = 1'-0"
140
12.0
141
12.0
290
     0
  0
TABLESTYLE
  5
4FFF
102
{ACAD_XDICTIONARY
360
50D6
102
}
102
{ACAD_REACTORS
330
4FE3
102
}
330
4FE3
100
AcDbTableStyle
  3
Standard
 70
     0
 71
     0
 40
0.06
 41
0.06
280
     0
281
     0
  7
Standard
140
0.18
170
     2
 62
     0
 63
     7
283
     0
274
    -2
284
     1
 64
     0
275
    -2
285
     1
 65
     0
276
    -2
286
     1
 66
     0
277
    -2
287
     1
 67
     0
278
    -2
288
     1
 68
     0
279
    -2
289
     1
 69
     0
  7
Standard
140
0.25
170
     5
 62
     0
 63
     7
283
     0
274
    -2
284
     1
 64
     0
275
    -2
285
     1
 65
     0
276
    -2
286
     1
 66
     0
277
    -2
287
     1
 67
     0
278
    -2
288
     1
 68
     0
279
    -2
289
     1
 69
     0
  7
Standard
140
0.18
170
     5
 62
     0
 63
     7
283
     0
274
    -2
284
     1
 64
     0
275
    -2
285
     1
 65
     0
276
    -2
286
     1
 66
     0
277
    -2
287
     1
 67
     0
278
    -2
288
     1
 68
     0
279
    -2
289
     1
 69
     0
  0
VISUALSTYLE
  5
2F
102
{ACAD_REACTORS
330
2A
102
}
330
2A
100
AcDbVisualStyle
  2
2dWireframe
 70
     4
 71
     0
 72
     2
 73
     0
 90
        0
 40
-0.6
 41
-30.0
 62
     5
 63
     7
 74
     1
 91
        4
 64
     7
 65
   257
 75
     1
175
     1
 42
1.0
 92
        0
 66
   257
 43
1.0
 76
     1
 77
     6
 78
     2
 67
     7
 79
     5
170
     0
171
     0
290
     0
174
     0
 93
        1
 44
0.0
173
     0
291
     0
 45
0.0
1001
ACAD
1000
AcDbSavedByObjectVersion
1070
     0
1000
AcDbSavedByObjectVersion
1070
     0
1000
AcDbSavedByObjectVersion
1070
     0
1000
AcDbSavedByObjectVersion
1070
     0
1000
AcDbSavedByObjectVersion
1070
     0
1000
AcDbSavedByObjectVersion
1070
     0
1000
AcDbSavedByObjectVersion
1070
     0
1000
AcDbSavedByObjectVersion
1070
     0
1000
AcDbSavedByObjectVersion
1070
     0
1000
AcDbSavedByObjectVersion
1070
     0
1000
AcDbSavedByObjectVersion
1070
     0
1000
AcDbSavedByObjectVersion
1070
     0
1000
AcDbSavedByObjectVersion
1070
     0
1000
AcDbSavedByObjectVersion
1070
     0
1000
AcDbSavedByObjectVersion
1070
     0
1000
AcDbSavedByObjectVersion
1070
     0
1000
AcDbSavedByObjectVersion
1070
     0
1000
AcDbSavedByObjectVersion
1070
     0
1000
AcDbSavedByObjectVersion
1070
     0
1000
AcDbSavedByObjectVersion
1070
     0
1000
AcDbSavedByObjectVersion
1070
     0
1000
AcDbSavedByObjectVersion
1070
     0
1000
AcDbSavedByObjectVersion
1070
     0
1000
AcDbSavedByObjectVersion
1070
     0
1000
AcDbSavedByObjectVersion
1070
     0
1000
AcDbSavedByObjectVersion
1070
     0
1000
AcDbSavedByObjectVersion
1070
     0
1000
AcDbSavedByObjectVersion
1070
     0
1000
AcDbSavedByObjectVersion
1070
     0
1000
AcDbSavedByObjectVersion
1070
     0
1000
AcDbSavedByObjectVersion
1070
     0
1000
AcDbSavedByObjectVersion
1070
     0
1000
AcDbSavedByObjectVersion
1070
     0
1000
AcDbSavedByObjectVersion
1070
     0
1000
AcDbSavedByObjectVersion
1070
     0
1000
AcDbSavedByObjectVersion
1070
     0
1000
AcDbSavedByObjectVersion
1070
     0
1000
AcDbSavedByObjectVersion
1070
     0
1000
AcDbSavedByObjectVersion
1070
     0
1000
AcDbSavedByObjectVersion
1070
     0
1000
AcDbSavedByObjectVersion
1070
     0
1000
AcDbSavedByObjectVersion
1070
     0
1000
AcDbSavedByObjectVersion
1070
     0
1000
AcDbSavedByObjectVersion
1070
     0
1000
AcDbSavedByObjectVersion
1070
     0
1000
AcDbSavedByObjectVersion
1070
     0
1000
AcDbSavedByObjectVersion
1070
     0
  0
VISUALSTYLE
  5
31
102
{ACAD_REACTORS
330
2A
102
}
330
2A
100
AcDbVisualStyle
  2
3D Hidden
 70
     6
 71
     1
 72
     2
 73
     2
 90
        0
 40
-0.6
 41
-30.0
 62
     5
 63
     7
 74
     2
 91
        2
 64
     7
 65
   257
 75
     2
175
     1
 42
40.0
 92
        0
 66
   257
 43
1.0
 76
     1
 77
     6
 78
     2
 67
     7
 79
     3
170
     0
171
     0
290
     0
174
     0
 93
        1
 44
0.0
173
     0
291
     0
 45
0.0
1001
ACAD
1000
AcDbSavedByObjectVersion
1070
     0
1000
AcDbSavedByObjectVersion
1070
     0
1000
AcDbSavedByObjectVersion
1070
     0
1000
AcDbSavedByObjectVersion
1070
     0
1000
AcDbSavedByObjectVersion
1070
     0
1000
AcDbSavedByObjectVersion
1070
     0
1000
AcDbSavedByObjectVersion
1070
     0
1000
AcDbSavedByObjectVersion
1070
     0
1000
AcDbSavedByObjectVersion
1070
     0
1000
AcDbSavedByObjectVersion
1070
     0
1000
AcDbSavedByObjectVersion
1070
     0
1000
AcDbSavedByObjectVersion
1070
     0
1000
AcDbSavedByObjectVersion
1070
     0
1000
AcDbSavedByObjectVersion
1070
     0
1000
AcDbSavedByObjectVersion
1070
     0
1000
AcDbSavedByObjectVersion
1070
     0
1000
AcDbSavedByObjectVersion
1070
     0
1000
AcDbSavedByObjectVersion
1070
     0
1000
AcDbSavedByObjectVersion
1070
     0
1000
AcDbSavedByObjectVersion
1070
     0
1000
AcDbSavedByObjectVersion
1070
     0
1000
AcDbSavedByObjectVersion
1070
     0
1000
AcDbSavedByObjectVersion
1070
     0
1000
AcDbSavedByObjectVersion
1070
     0
1000
AcDbSavedByObjectVersion
1070
     0
1000
AcDbSavedByObjectVersion
1070
     0
1000
AcDbSavedByObjectVersion
1070
     0
1000
AcDbSavedByObjectVersion
1070
     0
1000
AcDbSavedByObjectVersion
1070
     0
1000
AcDbSavedByObjectVersion
1070
     0
1000
AcDbSavedByObjectVersion
1070
     0
1000
AcDbSavedByObjectVersion
1070
     0
1000
AcDbSavedByObjectVersion
1070
     0
1000
AcDbSavedByObjectVersion
1070
     0
1000
AcDbSavedByObjectVersion
1070
     0
1000
AcDbSavedByObjectVersion
1070
     0
1000
AcDbSavedByObjectVersion
1070
     0
1000
AcDbSavedByObjectVersion
1070
     0
1000
AcDbSavedByObjectVersion
1070
     0
1000
AcDbSavedByObjectVersion
1070
     0
1000
AcDbSavedByObjectVersion
1070
     0
1000
AcDbSavedByObjectVersion
1070
     0
1000
AcDbSavedByObjectVersion
1070
     0
1000
AcDbSavedByObjectVersion
1070
     0
1000
AcDbSavedByObjectVersion
1070
     0
1000
AcDbSavedByObjectVersion
1070
     0
1000
AcDbSavedByObjectVersion
1070
     0
  0
VISUALSTYLE
  5
30
102
{ACAD_REACTORS
330
2A
102
}
330
2A
100
AcDbVisualStyle
  2
3dWireframe
 70
     5
 71
     0
 72
     2
 73
     0
 90
        0
 40
-0.6
 41
-30.0
 62
     5
 63
     7
 74
     1
 91
        4
 64
     7
 65
   257
 75
     1
175
     1
 42
1.0
 92
        0
 66
   257
 43
1.0
 76
     1
 77
     6
 78
     2
 67
     7
 79
     5
170
     0
171
     0
290
     0
174
     0
 93
        1
 44
0.0
173
     0
291
     0
 45
0.0
1001
ACAD
1000
AcDbSavedByObjectVersion
1070
     0
1000
AcDbSavedByObjectVersion
1070
     0
1000
AcDbSavedByObjectVersion
1070
     0
1000
AcDbSavedByObjectVersion
1070
     0
1000
AcDbSavedByObjectVersion
1070
     0
1000
AcDbSavedByObjectVersion
1070
     0
1000
AcDbSavedByObjectVersion
1070
     0
1000
AcDbSavedByObjectVersion
1070
     0
1000
AcDbSavedByObjectVersion
1070
     0
1000
AcDbSavedByObjectVersion
1070
     0
1000
AcDbSavedByObjectVersion
1070
     0
1000
AcDbSavedByObjectVersion
1070
     0
1000
AcDbSavedByObjectVersion
1070
     0
1000
AcDbSavedByObjectVersion
1070
     0
1000
AcDbSavedByObjectVersion
1070
     0
1000
AcDbSavedByObjectVersion
1070
     0
1000
AcDbSavedByObjectVersion
1070
     0
1000
AcDbSavedByObjectVersion
1070
     0
1000
AcDbSavedByObjectVersion
1070
     0
1000
AcDbSavedByObjectVersion
1070
     0
1000
AcDbSavedByObjectVersion
1070
     0
1000
AcDbSavedByObjectVersion
1070
     0
1000
AcDbSavedByObjectVersion
1070
     0
1000
AcDbSavedByObjectVersion
1070
     0
1000
AcDbSavedByObjectVersion
1070
     0
1000
AcDbSavedByObjectVersion
1070
     0
1000
AcDbSavedByObjectVersion
1070
     0
1000
AcDbSavedByObjectVersion
1070
     0
1000
AcDbSavedByObjectVersion
1070
     0
1000
AcDbSavedByObjectVersion
1070
     0
1000
AcDbSavedByObjectVersion
1070
     0
1000
AcDbSavedByObjectVersion
1070
     0
1000
AcDbSavedByObjectVersion
1070
     0
1000
AcDbSavedByObjectVersion
1070
     0
1000
AcDbSavedByObjectVersion
1070
     0
1000
AcDbSavedByObjectVersion
1070
     0
1000
AcDbSavedByObjectVersion
1070
     0
1000
AcDbSavedByObjectVersion
1070
     0
1000
AcDbSavedByObjectVersion
1070
     0
1000
AcDbSavedByObjectVersion
1070
     0
1000
AcDbSavedByObjectVersion
1070
     0
1000
AcDbSavedByObjectVersion
1070
     0
1000
AcDbSavedByObjectVersion
1070
     0
1000
AcDbSavedByObjectVersion
1070
     0
1000
AcDbSavedByObjectVersion
1070
     0
1000
AcDbSavedByObjectVersion
1070
     0
1000
AcDbSavedByObjectVersion
1070
     0
  0
VISUALSTYLE
  5
32
102
{ACAD_REACTORS
330
2A
102
}
330
2A
100
AcDbVisualStyle
  2
Basic
 70
     7
 71
     1
 72
     0
 73
     1
 90
        0
 40
-0.6
 41
-30.0
 62
     5
 63
     7
 74
     0
 91
        4
 64
     7
 65
   257
 75
     1
175
     1
 42
1.0
 92
        8
 66
     7
 43
1.0
 76
     1
 77
     6
 78
     2
 67
     7
 79
     5
170
     0
171
     0
290
     0
174
     0
 93
        1
 44
0.0
173
     0
291
     1
 45
0.0
1001
ACAD
1000
AcDbSavedByObjectVersion
1070
     0
1000
AcDbSavedByObjectVersion
1070
     0
1000
AcDbSavedByObjectVersion
1070
     0
1000
AcDbSavedByObjectVersion
1070
     0
1000
AcDbSavedByObjectVersion
1070
     0
1000
AcDbSavedByObjectVersion
1070
     0
1000
AcDbSavedByObjectVersion
1070
     0
1000
AcDbSavedByObjectVersion
1070
     0
1000
AcDbSavedByObjectVersion
1070
     0
1000
AcDbSavedByObjectVersion
1070
     0
1000
AcDbSavedByObjectVersion
1070
     0
1000
AcDbSavedByObjectVersion
1070
     0
1000
AcDbSavedByObjectVersion
1070
     0
1000
AcDbSavedByObjectVersion
1070
     0
1000
AcDbSavedByObjectVersion
1070
     0
1000
AcDbSavedByObjectVersion
1070
     0
1000
AcDbSavedByObjectVersion
1070
     0
1000
AcDbSavedByObjectVersion
1070
     0
1000
AcDbSavedByObjectVersion
1070
     0
1000
AcDbSavedByObjectVersion
1070
     0
1000
AcDbSavedByObjectVersion
1070
     0
1000
AcDbSavedByObjectVersion
1070
     0
1000
AcDbSavedByObjectVersion
1070
     0
1000
AcDbSavedByObjectVersion
1070
     0
1000
AcDbSavedByObjectVersion
1070
     0
1000
AcDbSavedByObjectVersion
1070
     0
1000
AcDbSavedByObjectVersion
1070
     0
1000
AcDbSavedByObjectVersion
1070
     0
1000
AcDbSavedByObjectVersion
1070
     0
1000
AcDbSavedByObjectVersion
1070
     0
1000
AcDbSavedByObjectVersion
1070
     0
1000
AcDbSavedByObjectVersion
1070
     0
1000
AcDbSavedByObjectVersion
1070
     0
1000
AcDbSavedByObjectVersion
1070
     0
1000
AcDbSavedByObjectVersion
1070
     0
1000
AcDbSavedByObjectVersion
1070
     0
1000
AcDbSavedByObjectVersion
1070
     0
1000
AcDbSavedByObjectVersion
1070
     0
1000
AcDbSavedByObjectVersion
1070
     0
1000
AcDbSavedByObjectVersion
1070
     0
1000
AcDbSavedByObjectVersion
1070
     0
1000
AcDbSavedByObjectVersion
1070
     0
1000
AcDbSavedByObjectVersion
1070
     0
1000
AcDbSavedByObjectVersion
1070
     0
1000
AcDbSavedByObjectVersion
1070
     0
1000
AcDbSavedByObjectVersion
1070
     0
1000
AcDbSavedByObjectVersion
1070
     0
  0
VISUALSTYLE
  5
36
102
{ACAD_REACTORS
330
2A
102
}
330
2A
100
AcDbVisualStyle
  2
Brighten
 70
    12
 71
     2
 72
     2
 73
     0
 90
        0
 40
-0.6
 41
-30.0
 62
     5
 63
     7
 74
     1
 91
        4
 64
     7
 65
   257
 75
     1
175
     1
 42
1.0
 92
        8
 66
     7
 43
1.0
 76
     1
 77
     6
 78
     2
 67
     7
 79
     5
170
     0
171
     0
290
     0
174
     0
 93
        1
 44
50.0
173
     0
291
     1
 45
0.0
1001
ACAD
1000
AcDbSavedByObjectVersion
1070
     0
1000
AcDbSavedByObjectVersion
1070
     0
1000
AcDbSavedByObjectVersion
1070
     0
1000
AcDbSavedByObjectVersion
1070
     0
1000
AcDbSavedByObjectVersion
1070
     0
1000
AcDbSavedByObjectVersion
1070
     0
1000
AcDbSavedByObjectVersion
1070
     0
1000
AcDbSavedByObjectVersion
1070
     0
1000
AcDbSavedByObjectVersion
1070
     0
1000
AcDbSavedByObjectVersion
1070
     0
1000
AcDbSavedByObjectVersion
1070
     0
1000
AcDbSavedByObjectVersion
1070
     0
1000
AcDbSavedByObjectVersion
1070
     0
1000
AcDbSavedByObjectVersion
1070
     0
1000
AcDbSavedByObjectVersion
1070
     0
1000
AcDbSavedByObjectVersion
1070
     0
1000
AcDbSavedByObjectVersion
1070
     0
1000
AcDbSavedByObjectVersion
1070
     0
1000
AcDbSavedByObjectVersion
1070
     0
1000
AcDbSavedByObjectVersion
1070
     0
1000
AcDbSavedByObjectVersion
1070
     0
1000
AcDbSavedByObjectVersion
1070
     0
1000
AcDbSavedByObjectVersion
1070
     0
1000
AcDbSavedByObjectVersion
1070
     0
1000
AcDbSavedByObjectVersion
1070
     0
1000
AcDbSavedByObjectVersion
1070
     0
1000
AcDbSavedByObjectVersion
1070
     0
1000
AcDbSavedByObjectVersion
1070
     0
1000
AcDbSavedByObjectVersion
1070
     0
1000
AcDbSavedByObjectVersion
1070
     0
1000
AcDbSavedByObjectVersion
1070
     0
1000
AcDbSavedByObjectVersion
1070
     0
1000
AcDbSavedByObjectVersion
1070
     0
1000
AcDbSavedByObjectVersion
1070
     0
1000
AcDbSavedByObjectVersion
1070
     0
1000
AcDbSavedByObjectVersion
1070
     0
1000
AcDbSavedByObjectVersion
1070
     0
1000
AcDbSavedByObjectVersion
1070
     0
1000
AcDbSavedByObjectVersion
1070
     0
1000
AcDbSavedByObjectVersion
1070
     0
1000
AcDbSavedByObjectVersion
1070
     0
1000
AcDbSavedByObjectVersion
1070
     0
1000
AcDbSavedByObjectVersion
1070
     0
1000
AcDbSavedByObjectVersion
1070
     0
1000
AcDbSavedByObjectVersion
1070
     0
1000
AcDbSavedByObjectVersion
1070
     0
1000
AcDbSavedByObjectVersion
1070
     0
  0
VISUALSTYLE
  5
3A
102
{ACAD_REACTORS
330
2A
102
}
330
2A
100
AcDbVisualStyle
  2
ColorChange
 70
    16
 71
     2
 72
     2
 73
     3
 90
        0
 40
-0.6
 41
-30.0
 62
     5
 63
     8
 74
     1
 91
        4
 64
     7
 65
   257
 75
     1
175
     1
 42
1.0
 92
        8
 66
     8
 43
1.0
 76
     1
 77
     6
 78
     2
 67
     7
 79
     5
170
     0
171
     0
290
     0
174
     0
 93
        1
 44
0.0
173
     0
291
     1
 45
0.0
1001
ACAD
1000
AcDbSavedByObjectVersion
1070
     0
1000
AcDbSavedByObjectVersion
1070
     0
1000
AcDbSavedByObjectVersion
1070
     0
1000
AcDbSavedByObjectVersion
1070
     0
1000
AcDbSavedByObjectVersion
1070
     0
1000
AcDbSavedByObjectVersion
1070
     0
1000
AcDbSavedByObjectVersion
1070
     0
1000
AcDbSavedByObjectVersion
1070
     0
1000
AcDbSavedByObjectVersion
1070
     0
1000
AcDbSavedByObjectVersion
1070
     0
1000
AcDbSavedByObjectVersion
1070
     0
1000
AcDbSavedByObjectVersion
1070
     0
1000
AcDbSavedByObjectVersion
1070
     0
1000
AcDbSavedByObjectVersion
1070
     0
1000
AcDbSavedByObjectVersion
1070
     0
1000
AcDbSavedByObjectVersion
1070
     0
1000
AcDbSavedByObjectVersion
1070
     0
1000
AcDbSavedByObjectVersion
1070
     0
1000
AcDbSavedByObjectVersion
1070
     0
1000
AcDbSavedByObjectVersion
1070
     0
1000
AcDbSavedByObjectVersion
1070
     0
1000
AcDbSavedByObjectVersion
1070
     0
1000
AcDbSavedByObjectVersion
1070
     0
1000
AcDbSavedByObjectVersion
1070
     0
1000
AcDbSavedByObjectVersion
1070
     0
1000
AcDbSavedByObjectVersion
1070
     0
1000
AcDbSavedByObjectVersion
1070
     0
1000
AcDbSavedByObjectVersion
1070
     0
1000
AcDbSavedByObjectVersion
1070
     0
1000
AcDbSavedByObjectVersion
1070
     0
1000
AcDbSavedByObjectVersion
1070
     0
1000
AcDbSavedByObjectVersion
1070
     0
1000
AcDbSavedByObjectVersion
1070
     0
1000
AcDbSavedByObjectVersion
1070
     0
1000
AcDbSavedByObjectVersion
1070
     0
1000
AcDbSavedByObjectVersion
1070
     0
1000
AcDbSavedByObjectVersion
1070
     0
1000
AcDbSavedByObjectVersion
1070
     0
1000
AcDbSavedByObjectVersion
1070
     0
1000
AcDbSavedByObjectVersion
1070
     0
1000
AcDbSavedByObjectVersion
1070
     0
1000
AcDbSavedByObjectVersion
1070
     0
1000
AcDbSavedByObjectVersion
1070
     0
1000
AcDbSavedByObjectVersion
1070
     0
1000
AcDbSavedByObjectVersion
1070
     0
1000
AcDbSavedByObjectVersion
1070
     0
1000
AcDbSavedByObjectVersion
1070
     0
  0
VISUALSTYLE
  5
34
102
{ACAD_REACTORS
330
2A
102
}
330
2A
100
AcDbVisualStyle
  2
Conceptual
 70
     9
 71
     3
 72
     2
 73
     0
 90
        0
 40
-0.6
 41
-30.0
 62
     5
 63
     7
 74
     2
 91
        2
 64
     7
 65
   257
 75
     1
175
     1
 42
40.0
 92
        8
 66
     7
 43
1.0
 76
     1
 77
     6
 78
     2
 67
     7
 79
     3
170
     0
171
     0
290
     0
174
     0
 93
        1
 44
0.0
173
     0
291
     0
 45
0.0
1001
ACAD
1000
AcDbSavedByObjectVersion
1070
     0
1000
AcDbSavedByObjectVersion
1070
     0
1000
AcDbSavedByObjectVersion
1070
     0
1000
AcDbSavedByObjectVersion
1070
     0
1000
AcDbSavedByObjectVersion
1070
     0
1000
AcDbSavedByObjectVersion
1070
     0
1000
AcDbSavedByObjectVersion
1070
     0
1000
AcDbSavedByObjectVersion
1070
     0
1000
AcDbSavedByObjectVersion
1070
     0
1000
AcDbSavedByObjectVersion
1070
     0
1000
AcDbSavedByObjectVersion
1070
     0
1000
AcDbSavedByObjectVersion
1070
     0
1000
AcDbSavedByObjectVersion
1070
     0
1000
AcDbSavedByObjectVersion
1070
     0
1000
AcDbSavedByObjectVersion
1070
     0
1000
AcDbSavedByObjectVersion
1070
     0
1000
AcDbSavedByObjectVersion
1070
     0
1000
AcDbSavedByObjectVersion
1070
     0
1000
AcDbSavedByObjectVersion
1070
     0
1000
AcDbSavedByObjectVersion
1070
     0
1000
AcDbSavedByObjectVersion
1070
     0
1000
AcDbSavedByObjectVersion
1070
     0
1000
AcDbSavedByObjectVersion
1070
     0
1000
AcDbSavedByObjectVersion
1070
     0
1000
AcDbSavedByObjectVersion
1070
     0
1000
AcDbSavedByObjectVersion
1070
     0
1000
AcDbSavedByObjectVersion
1070
     0
1000
AcDbSavedByObjectVersion
1070
     0
1000
AcDbSavedByObjectVersion
1070
     0
1000
AcDbSavedByObjectVersion
1070
     0
1000
AcDbSavedByObjectVersion
1070
     0
1000
AcDbSavedByObjectVersion
1070
     0
1000
AcDbSavedByObjectVersion
1070
     0
1000
AcDbSavedByObjectVersion
1070
     0
1000
AcDbSavedByObjectVersion
1070
     0
1000
AcDbSavedByObjectVersion
1070
     0
1000
AcDbSavedByObjectVersion
1070
     0
1000
AcDbSavedByObjectVersion
1070
     0
1000
AcDbSavedByObjectVersion
1070
     0
1000
AcDbSavedByObjectVersion
1070
     0
1000
AcDbSavedByObjectVersion
1070
     0
1000
AcDbSavedByObjectVersion
1070
     0
1000
AcDbSavedByObjectVersion
1070
     0
1000
AcDbSavedByObjectVersion
1070
     0
1000
AcDbSavedByObjectVersion
1070
     0
1000
AcDbSavedByObjectVersion
1070
     0
1000
AcDbSavedByObjectVersion
1070
     0
  0
VISUALSTYLE
  5
35
102
{ACAD_REACTORS
330
2A
102
}
330
2A
100
AcDbVisualStyle
  2
Dim
 70
    11
 71
     2
 72
     2
 73
     0
 90
        0
 40
-0.6
 41
-30.0
 62
     5
 63
     7
 74
     1
 91
        4
 64
     7
 65
   257
 75
     1
175
     1
 42
1.0
 92
        8
 66
     7
 43
1.0
 76
     1
 77
     6
 78
     2
 67
     7
 79
     5
170
     0
171
     0
290
     0
174
     0
 93
        1
 44
-50.0
173
     0
291
     1
 45
0.0
1001
ACAD
1000
AcDbSavedByObjectVersion
1070
     0
1000
AcDbSavedByObjectVersion
1070
     0
1000
AcDbSavedByObjectVersion
1070
     0
1000
AcDbSavedByObjectVersion
1070
     0
1000
AcDbSavedByObjectVersion
1070
     0
1000
AcDbSavedByObjectVersion
1070
     0
1000
AcDbSavedByObjectVersion
1070
     0
1000
AcDbSavedByObjectVersion
1070
     0
1000
AcDbSavedByObjectVersion
1070
     0
1000
AcDbSavedByObjectVersion
1070
     0
1000
AcDbSavedByObjectVersion
1070
     0
1000
AcDbSavedByObjectVersion
1070
     0
1000
AcDbSavedByObjectVersion
1070
     0
1000
AcDbSavedByObjectVersion
1070
     0
1000
AcDbSavedByObjectVersion
1070
     0
1000
AcDbSavedByObjectVersion
1070
     0
1000
AcDbSavedByObjectVersion
1070
     0
1000
AcDbSavedByObjectVersion
1070
     0
1000
AcDbSavedByObjectVersion
1070
     0
1000
AcDbSavedByObjectVersion
1070
     0
1000
AcDbSavedByObjectVersion
1070
     0
1000
AcDbSavedByObjectVersion
1070
     0
1000
AcDbSavedByObjectVersion
1070
     0
1000
AcDbSavedByObjectVersion
1070
     0
1000
AcDbSavedByObjectVersion
1070
     0
1000
AcDbSavedByObjectVersion
1070
     0
1000
AcDbSavedByObjectVersion
1070
     0
1000
AcDbSavedByObjectVersion
1070
     0
1000
AcDbSavedByObjectVersion
1070
     0
1000
AcDbSavedByObjectVersion
1070
     0
1000
AcDbSavedByObjectVersion
1070
     0
1000
AcDbSavedByObjectVersion
1070
     0
1000
AcDbSavedByObjectVersion
1070
     0
1000
AcDbSavedByObjectVersion
1070
     0
1000
AcDbSavedByObjectVersion
1070
     0
1000
AcDbSavedByObjectVersion
1070
     0
1000
AcDbSavedByObjectVersion
1070
     0
1000
AcDbSavedByObjectVersion
1070
     0
1000
AcDbSavedByObjectVersion
1070
     0
1000
AcDbSavedByObjectVersion
1070
     0
1000
AcDbSavedByObjectVersion
1070
     0
1000
AcDbSavedByObjectVersion
1070
     0
1000
AcDbSavedByObjectVersion
1070
     0
1000
AcDbSavedByObjectVersion
1070
     0
1000
AcDbSavedByObjectVersion
1070
     0
1000
AcDbSavedByObjectVersion
1070
     0
1000
AcDbSavedByObjectVersion
1070
     0
  0
VISUALSTYLE
  5
39
102
{ACAD_REACTORS
330
2A
102
}
330
2A
100
AcDbVisualStyle
  2
Facepattern
 70
    15
 71
     2
 72
     2
 73
     0
 90
        0
 40
-0.6
 41
-30.0
 62
     5
 63
     7
 74
     1
 91
        4
 64
     7
 65
   257
 75
     1
175
     1
 42
1.0
 92
        8
 66
     7
 43
1.0
 76
     1
 77
     6
 78
     2
 67
     7
 79
     5
170
     0
171
     0
290
     0
174
     0
 93
        1
 44
0.0
173
     0
291
     1
 45
0.0
1001
ACAD
1000
AcDbSavedByObjectVersion
1070
     0
1000
AcDbSavedByObjectVersion
1070
     0
1000
AcDbSavedByObjectVersion
1070
     0
1000
AcDbSavedByObjectVersion
1070
     0
1000
AcDbSavedByObjectVersion
1070
     0
1000
AcDbSavedByObjectVersion
1070
     0
1000
AcDbSavedByObjectVersion
1070
     0
1000
AcDbSavedByObjectVersion
1070
     0
1000
AcDbSavedByObjectVersion
1070
     0
1000
AcDbSavedByObjectVersion
1070
     0
1000
AcDbSavedByObjectVersion
1070
     0
1000
AcDbSavedByObjectVersion
1070
     0
1000
AcDbSavedByObjectVersion
1070
     0
1000
AcDbSavedByObjectVersion
1070
     0
1000
AcDbSavedByObjectVersion
1070
     0
1000
AcDbSavedByObjectVersion
1070
     0
1000
AcDbSavedByObjectVersion
1070
     0
1000
AcDbSavedByObjectVersion
1070
     0
1000
AcDbSavedByObjectVersion
1070
     0
1000
AcDbSavedByObjectVersion
1070
     0
1000
AcDbSavedByObjectVersion
1070
     0
1000
AcDbSavedByObjectVersion
1070
     0
1000
AcDbSavedByObjectVersion
1070
     0
1000
AcDbSavedByObjectVersion
1070
     0
1000
AcDbSavedByObjectVersion
1070
     0
1000
AcDbSavedByObjectVersion
1070
     0
1000
AcDbSavedByObjectVersion
1070
     0
1000
AcDbSavedByObjectVersion
1070
     0
1000
AcDbSavedByObjectVersion
1070
     0
1000
AcDbSavedByObjectVersion
1070
     0
1000
AcDbSavedByObjectVersion
1070
     0
1000
AcDbSavedByObjectVersion
1070
     0
1000
AcDbSavedByObjectVersion
1070
     0
1000
AcDbSavedByObjectVersion
1070
     0
1000
AcDbSavedByObjectVersion
1070
     0
1000
AcDbSavedByObjectVersion
1070
     0
1000
AcDbSavedByObjectVersion
1070
     0
1000
AcDbSavedByObjectVersion
1070
     0
1000
AcDbSavedByObjectVersion
1070
     0
1000
AcDbSavedByObjectVersion
1070
     0
1000
AcDbSavedByObjectVersion
1070
     0
1000
AcDbSavedByObjectVersion
1070
     0
1000
AcDbSavedByObjectVersion
1070
     0
1000
AcDbSavedByObjectVersion
1070
     0
1000
AcDbSavedByObjectVersion
1070
     0
1000
AcDbSavedByObjectVersion
1070
     0
1000
AcDbSavedByObjectVersion
1070
     0
  0
VISUALSTYLE
  5
2B
102
{ACAD_REACTORS
330
2A
102
}
330
2A
100
AcDbVisualStyle
  2
Flat
 70
     0
 71
     2
 72
     1
 73
     1
 90
        2
 40
-0.6
 41
30.0
 62
     5
 63
     7
 74
     0
 91
        4
 64
     7
 65
   257
 75
     1
175
     1
 42
1.0
 92
        8
 66
     7
 43
1.0
 76
     1
 77
     6
 78
     2
 67
     7
 79
     5
170
     0
171
     0
290
     0
174
     0
 93
       13
 44
0.0
173
     0
291
     1
 45
0.0
1001
ACAD
1000
AcDbSavedByObjectVersion
1070
     0
1000
AcDbSavedByObjectVersion
1070
     0
1000
AcDbSavedByObjectVersion
1070
     0
1000
AcDbSavedByObjectVersion
1070
     0
1000
AcDbSavedByObjectVersion
1070
     0
1000
AcDbSavedByObjectVersion
1070
     0
1000
AcDbSavedByObjectVersion
1070
     0
1000
AcDbSavedByObjectVersion
1070
     0
1000
AcDbSavedByObjectVersion
1070
     0
1000
AcDbSavedByObjectVersion
1070
     0
1000
AcDbSavedByObjectVersion
1070
     0
1000
AcDbSavedByObjectVersion
1070
     0
1000
AcDbSavedByObjectVersion
1070
     0
1000
AcDbSavedByObjectVersion
1070
     0
1000
AcDbSavedByObjectVersion
1070
     0
1000
AcDbSavedByObjectVersion
1070
     0
1000
AcDbSavedByObjectVersion
1070
     0
1000
AcDbSavedByObjectVersion
1070
     0
1000
AcDbSavedByObjectVersion
1070
     0
1000
AcDbSavedByObjectVersion
1070
     0
1000
AcDbSavedByObjectVersion
1070
     0
1000
AcDbSavedByObjectVersion
1070
     0
1000
AcDbSavedByObjectVersion
1070
     0
1000
AcDbSavedByObjectVersion
1070
     0
1000
AcDbSavedByObjectVersion
1070
     0
1000
AcDbSavedByObjectVersion
1070
     0
1000
AcDbSavedByObjectVersion
1070
     0
1000
AcDbSavedByObjectVersion
1070
     0
1000
AcDbSavedByObjectVersion
1070
     0
1000
AcDbSavedByObjectVersion
1070
     0
1000
AcDbSavedByObjectVersion
1070
     0
1000
AcDbSavedByObjectVersion
1070
     0
1000
AcDbSavedByObjectVersion
1070
     0
1000
AcDbSavedByObjectVersion
1070
     0
1000
AcDbSavedByObjectVersion
1070
     0
1000
AcDbSavedByObjectVersion
1070
     0
1000
AcDbSavedByObjectVersion
1070
     0
1000
AcDbSavedByObjectVersion
1070
     0
1000
AcDbSavedByObjectVersion
1070
     0
1000
AcDbSavedByObjectVersion
1070
     0
1000
AcDbSavedByObjectVersion
1070
     0
1000
AcDbSavedByObjectVersion
1070
     0
1000
AcDbSavedByObjectVersion
1070
     0
1000
AcDbSavedByObjectVersion
1070
     0
1000
AcDbSavedByObjectVersion
1070
     0
1000
AcDbSavedByObjectVersion
1070
     0
1000
AcDbSavedByObjectVersion
1070
     0
  0
VISUALSTYLE
  5
2C
102
{ACAD_REACTORS
330
2A
102
}
330
2A
100
AcDbVisualStyle
  2
FlatWithEdges
 70
     1
 71
     2
 72
     1
 73
     1
 90
        2
 40
-0.6
 41
30.0
 62
     5
 63
     7
 74
     1
 91
        4
 64
     7
 65
   257
 75
     1
175
     1
 42
1.0
 92
        0
 66
   257
 43
1.0
 76
     1
 77
     6
 78
     2
 67
     7
 79
     5
170
     0
171
     0
290
     0
174
     0
 93
       13
 44
0.0
173
     0
291
     1
 45
0.0
1001
ACAD
1000
AcDbSavedByObjectVersion
1070
     0
1000
AcDbSavedByObjectVersion
1070
     0
1000
AcDbSavedByObjectVersion
1070
     0
1000
AcDbSavedByObjectVersion
1070
     0
1000
AcDbSavedByObjectVersion
1070
     0
1000
AcDbSavedByObjectVersion
1070
     0
1000
AcDbSavedByObjectVersion
1070
     0
1000
AcDbSavedByObjectVersion
1070
     0
1000
AcDbSavedByObjectVersion
1070
     0
1000
AcDbSavedByObjectVersion
1070
     0
1000
AcDbSavedByObjectVersion
1070
     0
1000
AcDbSavedByObjectVersion
1070
     0
1000
AcDbSavedByObjectVersion
1070
     0
1000
AcDbSavedByObjectVersion
1070
     0
1000
AcDbSavedByObjectVersion
1070
     0
1000
AcDbSavedByObjectVersion
1070
     0
1000
AcDbSavedByObjectVersion
1070
     0
1000
AcDbSavedByObjectVersion
1070
     0
1000
AcDbSavedByObjectVersion
1070
     0
1000
AcDbSavedByObjectVersion
1070
     0
1000
AcDbSavedByObjectVersion
1070
     0
1000
AcDbSavedByObjectVersion
1070
     0
1000
AcDbSavedByObjectVersion
1070
     0
1000
AcDbSavedByObjectVersion
1070
     0
1000
AcDbSavedByObjectVersion
1070
     0
1000
AcDbSavedByObjectVersion
1070
     0
1000
AcDbSavedByObjectVersion
1070
     0
1000
AcDbSavedByObjectVersion
1070
     0
1000
AcDbSavedByObjectVersion
1070
     0
1000
AcDbSavedByObjectVersion
1070
     0
1000
AcDbSavedByObjectVersion
1070
     0
1000
AcDbSavedByObjectVersion
1070
     0
1000
AcDbSavedByObjectVersion
1070
     0
1000
AcDbSavedByObjectVersion
1070
     0
1000
AcDbSavedByObjectVersion
1070
     0
1000
AcDbSavedByObjectVersion
1070
     0
1000
AcDbSavedByObjectVersion
1070
     0
1000
AcDbSavedByObjectVersion
1070
     0
1000
AcDbSavedByObjectVersion
1070
     0
1000
AcDbSavedByObjectVersion
1070
     0
1000
AcDbSavedByObjectVersion
1070
     0
1000
AcDbSavedByObjectVersion
1070
     0
1000
AcDbSavedByObjectVersion
1070
     0
1000
AcDbSavedByObjectVersion
1070
     0
1000
AcDbSavedByObjectVersion
1070
     0
1000
AcDbSavedByObjectVersion
1070
     0
1000
AcDbSavedByObjectVersion
1070
     0
  0
VISUALSTYLE
  5
2D
102
{ACAD_REACTORS
330
2A
102
}
330
2A
100
AcDbVisualStyle
  2
Gouraud
 70
     2
 71
     2
 72
     2
 73
     1
 90
        2
 40
-0.6
 41
30.0
 62
     5
 63
     7
 74
     0
 91
        4
 64
     7
 65
   257
 75
     1
175
     1
 42
1.0
 92
        0
 66
     7
 43
1.0
 76
     1
 77
     6
 78
     2
 67
     7
 79
     5
170
     0
171
     0
290
     0
174
     0
 93
       13
 44
0.0
173
     0
291
     1
 45
0.0
1001
ACAD
1000
AcDbSavedByObjectVersion
1070
     0
1000
AcDbSavedByObjectVersion
1070
     0
1000
AcDbSavedByObjectVersion
1070
     0
1000
AcDbSavedByObjectVersion
1070
     0
1000
AcDbSavedByObjectVersion
1070
     0
1000
AcDbSavedByObjectVersion
1070
     0
1000
AcDbSavedByObjectVersion
1070
     0
1000
AcDbSavedByObjectVersion
1070
     0
1000
AcDbSavedByObjectVersion
1070
     0
1000
AcDbSavedByObjectVersion
1070
     0
1000
AcDbSavedByObjectVersion
1070
     0
1000
AcDbSavedByObjectVersion
1070
     0
1000
AcDbSavedByObjectVersion
1070
     0
1000
AcDbSavedByObjectVersion
1070
     0
1000
AcDbSavedByObjectVersion
1070
     0
1000
AcDbSavedByObjectVersion
1070
     0
1000
AcDbSavedByObjectVersion
1070
     0
1000
AcDbSavedByObjectVersion
1070
     0
1000
AcDbSavedByObjectVersion
1070
     0
1000
AcDbSavedByObjectVersion
1070
     0
1000
AcDbSavedByObjectVersion
1070
     0
1000
AcDbSavedByObjectVersion
1070
     0
1000
AcDbSavedByObjectVersion
1070
     0
1000
AcDbSavedByObjectVersion
1070
     0
1000
AcDbSavedByObjectVersion
1070
     0
1000
AcDbSavedByObjectVersion
1070
     0
1000
AcDbSavedByObjectVersion
1070
     0
1000
AcDbSavedByObjectVersion
1070
     0
1000
AcDbSavedByObjectVersion
1070
     0
1000
AcDbSavedByObjectVersion
1070
     0
1000
AcDbSavedByObjectVersion
1070
     0
1000
AcDbSavedByObjectVersion
1070
     0
1000
AcDbSavedByObjectVersion
1070
     0
1000
AcDbSavedByObjectVersion
1070
     0
1000
AcDbSavedByObjectVersion
1070
     0
1000
AcDbSavedByObjectVersion
1070
     0
1000
AcDbSavedByObjectVersion
1070
     0
1000
AcDbSavedByObjectVersion
1070
     0
1000
AcDbSavedByObjectVersion
1070
     0
1000
AcDbSavedByObjectVersion
1070
     0
1000
AcDbSavedByObjectVersion
1070
     0
1000
AcDbSavedByObjectVersion
1070
     0
1000
AcDbSavedByObjectVersion
1070
     0
1000
AcDbSavedByObjectVersion
1070
     0
1000
AcDbSavedByObjectVersion
1070
     0
1000
AcDbSavedByObjectVersion
1070
     0
1000
AcDbSavedByObjectVersion
1070
     0
  0
VISUALSTYLE
  5
2E
102
{ACAD_REACTORS
330
2A
102
}
330
2A
100
AcDbVisualStyle
  2
GouraudWithEdges
 70
     3
 71
     2
 72
     2
 73
     1
 90
        2
 40
-0.6
 41
30.0
 62
     5
 63
     7
 74
     1
 91
        4
 64
     7
 65
   257
 75
     1
175
     1
 42
1.0
 92
        0
 66
   257
 43
1.0
 76
     1
 77
     6
 78
     2
 67
     7
 79
     5
170
     0
171
     0
290
     0
174
     0
 93
       13
 44
0.0
173
     0
291
     1
 45
0.0
1001
ACAD
1000
AcDbSavedByObjectVersion
1070
     0
1000
AcDbSavedByObjectVersion
1070
     0
1000
AcDbSavedByObjectVersion
1070
     0
1000
AcDbSavedByObjectVersion
1070
     0
1000
AcDbSavedByObjectVersion
1070
     0
1000
AcDbSavedByObjectVersion
1070
     0
1000
AcDbSavedByObjectVersion
1070
     0
1000
AcDbSavedByObjectVersion
1070
     0
1000
AcDbSavedByObjectVersion
1070
     0
1000
AcDbSavedByObjectVersion
1070
     0
1000
AcDbSavedByObjectVersion
1070
     0
1000
AcDbSavedByObjectVersion
1070
     0
1000
AcDbSavedByObjectVersion
1070
     0
1000
AcDbSavedByObjectVersion
1070
     0
1000
AcDbSavedByObjectVersion
1070
     0
1000
AcDbSavedByObjectVersion
1070
     0
1000
AcDbSavedByObjectVersion
1070
     0
1000
AcDbSavedByObjectVersion
1070
     0
1000
AcDbSavedByObjectVersion
1070
     0
1000
AcDbSavedByObjectVersion
1070
     0
1000
AcDbSavedByObjectVersion
1070
     0
1000
AcDbSavedByObjectVersion
1070
     0
1000
AcDbSavedByObjectVersion
1070
     0
1000
AcDbSavedByObjectVersion
1070
     0
1000
AcDbSavedByObjectVersion
1070
     0
1000
AcDbSavedByObjectVersion
1070
     0
1000
AcDbSavedByObjectVersion
1070
     0
1000
AcDbSavedByObjectVersion
1070
     0
1000
AcDbSavedByObjectVersion
1070
     0
1000
AcDbSavedByObjectVersion
1070
     0
1000
AcDbSavedByObjectVersion
1070
     0
1000
AcDbSavedByObjectVersion
1070
     0
1000
AcDbSavedByObjectVersion
1070
     0
1000
AcDbSavedByObjectVersion
1070
     0
1000
AcDbSavedByObjectVersion
1070
     0
1000
AcDbSavedByObjectVersion
1070
     0
1000
AcDbSavedByObjectVersion
1070
     0
1000
AcDbSavedByObjectVersion
1070
     0
1000
AcDbSavedByObjectVersion
1070
     0
1000
AcDbSavedByObjectVersion
1070
     0
1000
AcDbSavedByObjectVersion
1070
     0
1000
AcDbSavedByObjectVersion
1070
     0
1000
AcDbSavedByObjectVersion
1070
     0
1000
AcDbSavedByObjectVersion
1070
     0
1000
AcDbSavedByObjectVersion
1070
     0
1000
AcDbSavedByObjectVersion
1070
     0
1000
AcDbSavedByObjectVersion
1070
     0
  0
VISUALSTYLE
  5
38
102
{ACAD_REACTORS
330
2A
102
}
330
2A
100
AcDbVisualStyle
  2
Linepattern
 70
    14
 71
     2
 72
     2
 73
     0
 90
        0
 40
-0.6
 41
-30.0
 62
     5
 63
     7
 74
     1
 91
        4
 64
     7
 65
   257
 75
     7
175
     7
 42
1.0
 92
        8
 66
     7
 43
1.0
 76
     1
 77
     6
 78
     2
 67
     7
 79
     5
170
     0
171
     0
290
     0
174
     0
 93
        1
 44
0.0
173
     0
291
     1
 45
0.0
1001
ACAD
1000
AcDbSavedByObjectVersion
1070
     0
1000
AcDbSavedByObjectVersion
1070
     0
1000
AcDbSavedByObjectVersion
1070
     0
1000
AcDbSavedByObjectVersion
1070
     0
1000
AcDbSavedByObjectVersion
1070
     0
1000
AcDbSavedByObjectVersion
1070
     0
1000
AcDbSavedByObjectVersion
1070
     0
1000
AcDbSavedByObjectVersion
1070
     0
1000
AcDbSavedByObjectVersion
1070
     0
1000
AcDbSavedByObjectVersion
1070
     0
1000
AcDbSavedByObjectVersion
1070
     0
1000
AcDbSavedByObjectVersion
1070
     0
1000
AcDbSavedByObjectVersion
1070
     0
1000
AcDbSavedByObjectVersion
1070
     0
1000
AcDbSavedByObjectVersion
1070
     0
1000
AcDbSavedByObjectVersion
1070
     0
1000
AcDbSavedByObjectVersion
1070
     0
1000
AcDbSavedByObjectVersion
1070
     0
1000
AcDbSavedByObjectVersion
1070
     0
1000
AcDbSavedByObjectVersion
1070
     0
1000
AcDbSavedByObjectVersion
1070
     0
1000
AcDbSavedByObjectVersion
1070
     0
1000
AcDbSavedByObjectVersion
1070
     0
1000
AcDbSavedByObjectVersion
1070
     0
1000
AcDbSavedByObjectVersion
1070
     0
1000
AcDbSavedByObjectVersion
1070
     0
1000
AcDbSavedByObjectVersion
1070
     0
1000
AcDbSavedByObjectVersion
1070
     0
1000
AcDbSavedByObjectVersion
1070
     0
1000
AcDbSavedByObjectVersion
1070
     0
1000
AcDbSavedByObjectVersion
1070
     0
1000
AcDbSavedByObjectVersion
1070
     0
1000
AcDbSavedByObjectVersion
1070
     0
1000
AcDbSavedByObjectVersion
1070
     0
1000
AcDbSavedByObjectVersion
1070
     0
1000
AcDbSavedByObjectVersion
1070
     0
1000
AcDbSavedByObjectVersion
1070
     0
1000
AcDbSavedByObjectVersion
1070
     0
1000
AcDbSavedByObjectVersion
1070
     0
1000
AcDbSavedByObjectVersion
1070
     0
1000
AcDbSavedByObjectVersion
1070
     0
1000
AcDbSavedByObjectVersion
1070
     0
1000
AcDbSavedByObjectVersion
1070
     0
1000
AcDbSavedByObjectVersion
1070
     0
1000
AcDbSavedByObjectVersion
1070
     0
1000
AcDbSavedByObjectVersion
1070
     0
1000
AcDbSavedByObjectVersion
1070
     0
  0
VISUALSTYLE
  5
33
102
{ACAD_REACTORS
330
2A
102
}
330
2A
100
AcDbVisualStyle
  2
Realistic
 70
     8
 71
     2
 72
     2
 73
     0
 90
        0
 40
-0.6
 41
-30.0
 62
     5
 63
     7
 74
     1
 91
        0
 64
     7
 65
   257
 75
     1
175
     1
 42
1.0
 92
        8
 66
     8
 43
1.0
 76
     1
 77
     6
 78
     2
 67
     7
 79
     5
170
     0
171
     0
290
     0
174
     0
 93
       13
 44
0.0
173
     0
291
     0
 45
0.0
1001
ACAD
1000
AcDbSavedByObjectVersion
1070
     0
1000
AcDbSavedByObjectVersion
1070
     0
1000
AcDbSavedByObjectVersion
1070
     0
1000
AcDbSavedByObjectVersion
1070
     0
1000
AcDbSavedByObjectVersion
1070
     0
1000
AcDbSavedByObjectVersion
1070
     0
1000
AcDbSavedByObjectVersion
1070
     0
1000
AcDbSavedByObjectVersion
1070
     0
1000
AcDbSavedByObjectVersion
1070
     0
1000
AcDbSavedByObjectVersion
1070
     0
1000
AcDbSavedByObjectVersion
1070
     0
1000
AcDbSavedByObjectVersion
1070
     0
1000
AcDbSavedByObjectVersion
1070
     0
1000
AcDbSavedByObjectVersion
1070
     0
1000
AcDbSavedByObjectVersion
1070
     0
1000
AcDbSavedByObjectVersion
1070
     0
1000
AcDbSavedByObjectVersion
1070
     0
1000
AcDbSavedByObjectVersion
1070
     0
1000
AcDbSavedByObjectVersion
1070
     0
1000
AcDbSavedByObjectVersion
1070
     0
1000
AcDbSavedByObjectVersion
1070
     0
1000
AcDbSavedByObjectVersion
1070
     0
1000
AcDbSavedByObjectVersion
1070
     0
1000
AcDbSavedByObjectVersion
1070
     0
1000
AcDbSavedByObjectVersion
1070
     0
1000
AcDbSavedByObjectVersion
1070
     0
1000
AcDbSavedByObjectVersion
1070
     0
1000
AcDbSavedByObjectVersion
1070
     0
1000
AcDbSavedByObjectVersion
1070
     0
1000
AcDbSavedByObjectVersion
1070
     0
1000
AcDbSavedByObjectVersion
1070
     0
1000
AcDbSavedByObjectVersion
1070
     0
1000
AcDbSavedByObjectVersion
1070
     0
1000
AcDbSavedByObjectVersion
1070
     0
1000
AcDbSavedByObjectVersion
1070
     0
1000
AcDbSavedByObjectVersion
1070
     0
1000
AcDbSavedByObjectVersion
1070
     0
1000
AcDbSavedByObjectVersion
1070
     0
1000
AcDbSavedByObjectVersion
1070
     0
1000
AcDbSavedByObjectVersion
1070
     0
1000
AcDbSavedByObjectVersion
1070
     0
1000
AcDbSavedByObjectVersion
1070
     0
1000
AcDbSavedByObjectVersion
1070
     0
1000
AcDbSavedByObjectVersion
1070
     0
1000
AcDbSavedByObjectVersion
1070
     0
1000
AcDbSavedByObjectVersion
1070
     0
1000
AcDbSavedByObjectVersion
1070
     0
  0
VISUALSTYLE
  5
37
102
{ACAD_REACTORS
330
2A
102
}
330
2A
100
AcDbVisualStyle
  2
Thicken
 70
    13
 71
     2
 72
     2
 73
     0
 90
        0
 40
-0.6
 41
-30.0
 62
     5
 63
     7
 74
     1
 91
        4
 64
     7
 65
   257
 75
     1
175
     1
 42
1.0
 92
       12
 66
     7
 43
1.0
 76
     1
 77
     6
 78
     2
 67
     7
 79
     5
170
     0
171
     0
290
     0
174
     0
 93
        1
 44
0.0
173
     0
291
     1
 45
0.0
1001
ACAD
1000
AcDbSavedByObjectVersion
1070
     0
1000
AcDbSavedByObjectVersion
1070
     0
1000
AcDbSavedByObjectVersion
1070
     0
1000
AcDbSavedByObjectVersion
1070
     0
1000
AcDbSavedByObjectVersion
1070
     0
1000
AcDbSavedByObjectVersion
1070
     0
1000
AcDbSavedByObjectVersion
1070
     0
1000
AcDbSavedByObjectVersion
1070
     0
1000
AcDbSavedByObjectVersion
1070
     0
1000
AcDbSavedByObjectVersion
1070
     0
1000
AcDbSavedByObjectVersion
1070
     0
1000
AcDbSavedByObjectVersion
1070
     0
1000
AcDbSavedByObjectVersion
1070
     0
1000
AcDbSavedByObjectVersion
1070
     0
1000
AcDbSavedByObjectVersion
1070
     0
1000
AcDbSavedByObjectVersion
1070
     0
1000
AcDbSavedByObjectVersion
1070
     0
1000
AcDbSavedByObjectVersion
1070
     0
1000
AcDbSavedByObjectVersion
1070
     0
1000
AcDbSavedByObjectVersion
1070
     0
1000
AcDbSavedByObjectVersion
1070
     0
1000
AcDbSavedByObjectVersion
1070
     0
1000
AcDbSavedByObjectVersion
1070
     0
1000
AcDbSavedByObjectVersion
1070
     0
1000
AcDbSavedByObjectVersion
1070
     0
1000
AcDbSavedByObjectVersion
1070
     0
1000
AcDbSavedByObjectVersion
1070
     0
1000
AcDbSavedByObjectVersion
1070
     0
1000
AcDbSavedByObjectVersion
1070
     0
1000
AcDbSavedByObjectVersion
1070
     0
1000
AcDbSavedByObjectVersion
1070
     0
1000
AcDbSavedByObjectVersion
1070
     0
1000
AcDbSavedByObjectVersion
1070
     0
1000
AcDbSavedByObjectVersion
1070
     0
1000
AcDbSavedByObjectVersion
1070
     0
1000
AcDbSavedByObjectVersion
1070
     0
1000
AcDbSavedByObjectVersion
1070
     0
1000
AcDbSavedByObjectVersion
1070
     0
1000
AcDbSavedByObjectVersion
1070
     0
1000
AcDbSavedByObjectVersion
1070
     0
1000
AcDbSavedByObjectVersion
1070
     0
1000
AcDbSavedByObjectVersion
1070
     0
1000
AcDbSavedByObjectVersion
1070
     0
1000
AcDbSavedByObjectVersion
1070
     0
1000
AcDbSavedByObjectVersion
1070
     0
1000
AcDbSavedByObjectVersion
1070
     0
1000
AcDbSavedByObjectVersion
1070
     0
  0
DICTIONARYVAR
  5
510B
102
{ACAD_REACTORS
330
5108
102
}
330
5108
100
DictionaryVariables
280
     0
  1
1:1
  0
DICTIONARYVAR
  5
510A
102
{ACAD_REACTORS
330
5108
102
}
330
5108
100
DictionaryVariables
280
     0
  1
STANDARD
  0
DICTIONARYVAR
  5
5109
102
{ACAD_REACTORS
330
5108
102
}
330
5108
100
DictionaryVariables
280
     0
  1
STANDARD
  0
DICTIONARYVAR
  5
510E
102
{ACAD_REACTORS
330
5108
102
}
330
5108
100
DictionaryVariables
280
     0
  1
1
  0
DICTIONARYVAR
  5
510D
102
{ACAD_REACTORS
330
5108
102
}
330
5108
100
DictionaryVariables
280
     0
  1
0
  0
DICTIONARYVAR
  5
13FA0
102
{ACAD_REACTORS
330
5108
102
}
330
5108
100
DictionaryVariables
280
     0
  1
0
  0
DICTIONARYVAR
  5
13F9F
102
{ACAD_REACTORS
330
5108
102
}
330
5108
100
DictionaryVariables
280
     0
  1
0
  0
DICTIONARYVAR
  5
510C
102
{ACAD_REACTORS
330
5108
102
}
330
5108
100
DictionaryVariables
280
     0
  1
127
  0
XRECORD
  5
11ACF
102
{ACAD_REACTORS
330
11ACE
102
}
330
11ACE
100
AcDbXrecord
280
     1
330
0
  0
VLO-VL
  5
13F83
102
{ACAD_REACTORS
330
13F82
102
}
330
13F82
100
vlo_VL
 90
   -64512
 91
       12
 92
        1
 40
2.5
300
(&VLO-R . 0)
  0
DICTIONARY
  5
4FEF
330
4FEE
100
AcDbDictionary
280
     1
281
     1
  3
ACAD_XREC_ROUNDTRIP
360
7C2C
  3
BUMPTILE
360
4FF1
  3
DIFFUSETILE
360
4FF0
  3
OPACITYTILE
360
4FF4
  3
REFLECTIONTILE
360
4FF3
  3
REFRACTIONTILE
360
4FF5
  3
SPECULARTILE
360
4FF2
  0
DICTIONARY
  5
4FE7
330
4FE6
100
AcDbDictionary
280
     1
281
     1
  3
ACAD_XREC_ROUNDTRIP
360
7C2B
  3
BUMPTILE
360
4FE9
  3
DIFFUSETILE
360
4FE8
  3
OPACITYTILE
360
4FEC
  3
REFLECTIONTILE
360
4FEB
  3
REFRACTIONTILE
360
4FED
  3
SPECULARTILE
360
4FEA
  0
DICTIONARY
  5
4FF7
330
4FF6
100
AcDbDictionary
280
     1
281
     1
  3
ACAD_XREC_ROUNDTRIP
360
7C2D
  3
BUMPTILE
360
4FF9
  3
DIFFUSETILE
360
4FF8
  3
OPACITYTILE
360
4FFC
  3
REFLECTIONTILE
360
4FFB
  3
REFRACTIONTILE
360
4FFD
  3
SPECULARTILE
360
4FFA
  0
DICTIONARY
  5
50D6
330
4FFF
100
AcDbDictionary
280
     1
281
     1
  3
ACAD_ROUNDTRIP_2008_TABLESTYLE_CELLSTYLEMAP
360
18B0E
  3
ACAD_XREC_ROUNDTRIP
360
18B2D
  0
XRECORD
  5
7C2C
102
{ACAD_REACTORS
330
4FEF
102
}
330
4FEF
100
AcDbXrecord
280
     1
102
MATERIAL
148
0.0
149
0.0
149
0.0
 93
        0
 94
      127
282
     0
 72
     0
 77
     0
171
     0
175
     0
179
     0
273
     0
  0
XRECORD
  5
4FF1
102
{ACAD_REACTORS
330
4FEF
102
}
330
4FEF
100
AcDbXrecord
280
     1
270
     1
271
     1
  0
XRECORD
  5
4FF0
102
{ACAD_REACTORS
330
4FEF
102
}
330
4FEF
100
AcDbXrecord
280
     1
270
     1
271
     1
  0
XRECORD
  5
4FF4
102
{ACAD_REACTORS
330
4FEF
102
}
330
4FEF
100
AcDbXrecord
280
     1
270
     1
271
     1
  0
XRECORD
  5
4FF3
102
{ACAD_REACTORS
330
4FEF
102
}
330
4FEF
100
AcDbXrecord
280
     1
270
     1
271
     1
  0
XRECORD
  5
4FF5
102
{ACAD_REACTORS
330
4FEF
102
}
330
4FEF
100
AcDbXrecord
280
     1
270
     1
271
     1
  0
XRECORD
  5
4FF2
102
{ACAD_REACTORS
330
4FEF
102
}
330
4FEF
100
AcDbXrecord
280
     1
270
     1
271
     1
  0
XRECORD
  5
7C2B
102
{ACAD_REACTORS
330
4FE7
102
}
330
4FE7
100
AcDbXrecord
280
     1
102
MATERIAL
148
0.0
149
0.0
149
0.0
 93
        0
 94
      127
282
     0
 72
     0
 77
     0
171
     0
175
     0
179
     0
273
     0
  0
XRECORD
  5
4FE9
102
{ACAD_REACTORS
330
4FE7
102
}
330
4FE7
100
AcDbXrecord
280
     1
270
     1
271
     1
  0
XRECORD
  5
4FE8
102
{ACAD_REACTORS
330
4FE7
102
}
330
4FE7
100
AcDbXrecord
280
     1
270
     1
271
     1
  0
XRECORD
  5
4FEC
102
{ACAD_REACTORS
330
4FE7
102
}
330
4FE7
100
AcDbXrecord
280
     1
270
     1
271
     1
  0
XRECORD
  5
4FEB
102
{ACAD_REACTORS
330
4FE7
102
}
330
4FE7
100
AcDbXrecord
280
     1
270
     1
271
     1
  0
XRECORD
  5
4FED
102
{ACAD_REACTORS
330
4FE7
102
}
330
4FE7
100
AcDbXrecord
280
     1
270
     1
271
     1
  0
XRECORD
  5
4FEA
102
{ACAD_REACTORS
330
4FE7
102
}
330
4FE7
100
AcDbXrecord
280
     1
270
     1
271
     1
  0
XRECORD
  5
7C2D
102
{ACAD_REACTORS
330
4FF7
102
}
330
4FF7
100
AcDbXrecord
280
     1
102
MATERIAL
148
0.0
149
0.0
149
0.0
 93
        0
 94
      127
282
     0
 72
     0
 77
     0
171
     0
175
     0
179
     0
273
     0
  0
XRECORD
  5
4FF9
102
{ACAD_REACTORS
330
4FF7
102
}
330
4FF7
100
AcDbXrecord
280
     1
270
     1
271
     1
  0
XRECORD
  5
4FF8
102
{ACAD_REACTORS
330
4FF7
102
}
330
4FF7
100
AcDbXrecord
280
     1
270
     1
271
     1
  0
XRECORD
  5
4FFC
102
{ACAD_REACTORS
330
4FF7
102
}
330
4FF7
100
AcDbXrecord
280
     1
270
     1
271
     1
  0
XRECORD
  5
4FFB
102
{ACAD_REACTORS
330
4FF7
102
}
330
4FF7
100
AcDbXrecord
280
     1
270
     1
271
     1
  0
XRECORD
  5
4FFD
102
{ACAD_REACTORS
330
4FF7
102
}
330
4FF7
100
AcDbXrecord
280
     1
270
     1
271
     1
  0
XRECORD
  5
4FFA
102
{ACAD_REACTORS
330
4FF7
102
}
330
4FF7
100
AcDbXrecord
280
     1
270
     1
271
     1
  0
CELLSTYLEMAP
  5
18B0E
102
{ACAD_REACTORS
330
50D6
102
}
330
50D6
100
AcDbCellStyleMap
 90
        3
300
CELLSTYLE
  1
TABLEFORMAT_BEGIN
 90
        5
170
     1
 91
        0
 92
    32768
 62
   257
 93
        1
300
CONTENTFORMAT
  1
CONTENTFORMAT_BEGIN
 90
        0
 91
        0
 92
      512
 93
        0
300

 40
0.0
140
1.0
 94
        5
 62
     0
340
11
144
0.25
309
CONTENTFORMAT_END
171
     1
301
MARGIN
  1
CELLMARGIN_BEGIN
 40
0.06
 40
0.06
 40
0.06
 40
0.06
 40
0.18
 40
0.18
309
CELLMARGIN_END
 94
        6
 95
        1
302
GRIDFORMAT
  1
GRIDFORMAT_BEGIN
 90
        0
 91
        1
 62
     0
 92
       -2
340
0
 93
        0
 40
0.045
309
GRIDFORMAT_END
 95
        2
302
GRIDFORMAT
  1
GRIDFORMAT_BEGIN
 90
        0
 91
        1
 62
     0
 92
       -2
340
0
 93
        0
 40
0.045
309
GRIDFORMAT_END
 95
        4
302
GRIDFORMAT
  1
GRIDFORMAT_BEGIN
 90
        0
 91
        1
 62
     0
 92
       -2
340
0
 93
        0
 40
0.045
309
GRIDFORMAT_END
 95
        8
302
GRIDFORMAT
  1
GRIDFORMAT_BEGIN
 90
        0
 91
        1
 62
     0
 92
       -2
340
0
 93
        0
 40
0.045
309
GRIDFORMAT_END
 95
       16
302
GRIDFORMAT
  1
GRIDFORMAT_BEGIN
 90
        0
 91
        1
 62
     0
 92
       -2
340
0
 93
        0
 40
0.045
309
GRIDFORMAT_END
 95
       32
302
GRIDFORMAT
  1
GRIDFORMAT_BEGIN
 90
        0
 91
        1
 62
     0
 92
       -2
340
0
 93
        0
 40
0.045
309
GRIDFORMAT_END
309
TABLEFORMAT_END
  1
CELLSTYLE_BEGIN
 90
        1
 91
        1
300
_TITLE
309
CELLSTYLE_END
300
CELLSTYLE
  1
TABLEFORMAT_BEGIN
 90
        5
170
     1
 91
        0
 92
        0
 62
   257
 93
        1
300
CONTENTFORMAT
  1
CONTENTFORMAT_BEGIN
 90
        0
 91
        0
 92
      512
 93
        0
300

 40
0.0
140
1.0
 94
        5
 62
     0
340
11
144
0.18
309
CONTENTFORMAT_END
171
     1
301
MARGIN
  1
CELLMARGIN_BEGIN
 40
0.06
 40
0.06
 40
0.06
 40
0.06
 40
0.18
 40
0.18
309
CELLMARGIN_END
 94
        6
 95
        1
302
GRIDFORMAT
  1
GRIDFORMAT_BEGIN
 90
        0
 91
        1
 62
     0
 92
       -2
340
0
 93
        0
 40
0.045
309
GRIDFORMAT_END
 95
        2
302
GRIDFORMAT
  1
GRIDFORMAT_BEGIN
 90
        0
 91
        1
 62
     0
 92
       -2
340
0
 93
        0
 40
0.045
309
GRIDFORMAT_END
 95
        4
302
GRIDFORMAT
  1
GRIDFORMAT_BEGIN
 90
        0
 91
        1
 62
     0
 92
       -2
340
0
 93
        0
 40
0.045
309
GRIDFORMAT_END
 95
        8
302
GRIDFORMAT
  1
GRIDFORMAT_BEGIN
 90
        0
 91
        1
 62
     0
 92
       -2
340
0
 93
        0
 40
0.045
309
GRIDFORMAT_END
 95
       16
302
GRIDFORMAT
  1
GRIDFORMAT_BEGIN
 90
        0
 91
        1
 62
     0
 92
       -2
340
0
 93
        0
 40
0.045
309
GRIDFORMAT_END
 95
       32
302
GRIDFORMAT
  1
GRIDFORMAT_BEGIN
 90
        0
 91
        1
 62
     0
 92
       -2
340
0
 93
        0
 40
0.045
309
GRIDFORMAT_END
309
TABLEFORMAT_END
  1
CELLSTYLE_BEGIN
 90
        2
 91
        1
300
_HEADER
309
CELLSTYLE_END
300
CELLSTYLE
  1
TABLEFORMAT_BEGIN
 90
        5
170
     1
 91
        0
 92
        0
 62
   257
 93
        1
300
CONTENTFORMAT
  1
CONTENTFORMAT_BEGIN
 90
        0
 91
        0
 92
      512
 93
        0
300

 40
0.0
140
1.0
 94
        2
 62
     0
340
11
144
0.18
309
CONTENTFORMAT_END
171
     1
301
MARGIN
  1
CELLMARGIN_BEGIN
 40
0.06
 40
0.06
 40
0.06
 40
0.06
 40
0.18
 40
0.18
309
CELLMARGIN_END
 94
        6
 95
        1
302
GRIDFORMAT
  1
GRIDFORMAT_BEGIN
 90
        0
 91
        1
 62
     0
 92
       -2
340
0
 93
        0
 40
0.045
309
GRIDFORMAT_END
 95
        2
302
GRIDFORMAT
  1
GRIDFORMAT_BEGIN
 90
        0
 91
        1
 62
     0
 92
       -2
340
0
 93
        0
 40
0.045
309
GRIDFORMAT_END
 95
        4
302
GRIDFORMAT
  1
GRIDFORMAT_BEGIN
 90
        0
 91
        1
 62
     0
 92
       -2
340
0
 93
        0
 40
0.045
309
GRIDFORMAT_END
 95
        8
302
GRIDFORMAT
  1
GRIDFORMAT_BEGIN
 90
        0
 91
        1
 62
     0
 92
       -2
340
0
 93
        0
 40
0.045
309
GRIDFORMAT_END
 95
       16
302
GRIDFORMAT
  1
GRIDFORMAT_BEGIN
 90
        0
 91
        1
 62
     0
 92
       -2
340
0
 93
        0
 40
0.045
309
GRIDFORMAT_END
 95
       32
302
GRIDFORMAT
  1
GRIDFORMAT_BEGIN
 90
        0
 91
        1
 62
     0
 92
       -2
340
0
 93
        0
 40
0.045
309
GRIDFORMAT_END
309
TABLEFORMAT_END
  1
CELLSTYLE_BEGIN
 90
        3
 91
        2
300
_DATA
309
CELLSTYLE_END
  0
XRECORD
  5
18B2D
102
{ACAD_REACTORS
330
50D6
102
}
330
50D6
100
AcDbXrecord
280
     1
102
ACAD_ROUNDTRIP_PRE2007_TABLESTYLE
 90
      512
 91
        0
  1

 92
      512
 93
        0
  2

 94
      512
 95
        0
  3

  0
ENDSEC
  0
EOF
