  0
SECTION
  2
HEADER
  9
$ACADVER
  1
AC1021
  9
$ACADMAINTVER
 70
    25
  9
$DWGCODEPAGE
  3
ANSI_936
  9
$LASTSAVEDBY
  1
14609
  9
$INSBASE
 10
0.0
 20
0.0
 30
0.0
  9
$EXTMIN
 10
141.3468373316848
 20
118.2923273244104
 30
0.0
  9
$EXTMAX
 10
586.8449622352414
 20
433.2923273244163
 30
0.0
  9
$LIMMIN
 10
0.0
 20
0.0
  9
$LIMMAX
 10
12.0
 20
9.0
  9
$ORTHOMODE
 70
     1
  9
$REGENMODE
 70
     1
  9
$FILLMODE
 70
     1
  9
$QTEXTMODE
 70
     0
  9
$MIRRTEXT
 70
     1
  9
$LTSCALE
 40
1.0
  9
$ATTMODE
 70
     1
  9
$TEXTSIZE
 40
0.2
  9
$TRACEWID
 40
0.05
  9
$TEXTSTYLE
  7
Standard
  9
$CLAYER
  8
DIM
  9
$CELTYPE
  6
ByLayer
  9
$CECOLOR
 62
   256
  9
$CELTSCALE
 40
1.0
  9
$DISPSILH
 70
     0
  9
$DIMSCALE
 40
1.0
  9
$DIMASZ
 40
3.0
  9
$DIMEXO
 40
0.2
  9
$DIMDLI
 40
0.2
  9
$DIMRND
 40
0.0
  9
$DIMDLE
 40
0.0
  9
$DIMEXE
 40
0.5
  9
$DIMTP
 40
0.0
  9
$DIMTM
 40
0.0
  9
$DIMTXT
 40
3.5
  9
$DIMCEN
 40
0.0
  9
$DIMTSZ
 40
0.0
  9
$DIMTOL
 70
     0
  9
$DIMLIM
 70
     0
  9
$DIMTIH
 70
     0
  9
$DIMTOH
 70
     0
  9
$DIMSE1
 70
     0
  9
$DIMSE2
 70
     0
  9
$DIMTAD
 70
     1
  9
$DIMZIN
 70
     8
  9
$DIMBLK
  1

  9
$DIMASO
 70
     1
  9
$DIMSHO
 70
     1
  9
$DIMPOST
  1

  9
$DIMAPOST
  1

  9
$DIMALT
 70
     0
  9
$DIMALTD
 70
     2
  9
$DIMALTF
 40
25.4
  9
$DIMLFAC
 40
1.0
  9
$DIMTOFL
 70
     0
  9
$DIMTVP
 40
0.0
  9
$DIMTIX
 70
     0
  9
$DIMSOXD
 70
     0
  9
$DIMSAH
 70
     0
  9
$DIMBLK1
  1

  9
$DIMBLK2
  1

  9
$DIMSTYLE
  2
01
  9
$DIMCLRD
 70
     1
  9
$DIMCLRE
 70
     6
  9
$DIMCLRT
 70
     4
  9
$DIMTFAC
 40
1.0
  9
$DIMGAP
 40
0.3
  9
$DIMJUST
 70
     0
  9
$DIMSD1
 70
     0
  9
$DIMSD2
 70
     0
  9
$DIMTOLJ
 70
     1
  9
$DIMTZIN
 70
     0
  9
$DIMALTZ
 70
     0
  9
$DIMALTTZ
 70
     0
  9
$DIMUPT
 70
     0
  9
$DIMDEC
 70
     1
  9
$DIMTDEC
 70
     1
  9
$DIMALTU
 70
     2
  9
$DIMALTTD
 70
     2
  9
$DIMTXSTY
  7
Romans字体
  9
$DIMAUNIT
 70
     0
  9
$DIMADEC
 70
     2
  9
$DIMALTRND
 40
0.0
  9
$DIMAZIN
 70
     2
  9
$DIMDSEP
 70
    46
  9
$DIMATFIT
 70
     3
  9
$DIMFRAC
 70
     0
  9
$DIMLDRBLK
  1

  9
$DIMLUNIT
 70
     2
  9
$DIMLWD
 70
    -2
  9
$DIMLWE
 70
    -2
  9
$DIMTMOVE
 70
     0
  9
$DIMFXL
 40
1.0
  9
$DIMFXLON
 70
     0
  9
$DIMJOGANG
 40
0.7853981633974483
  9
$DIMTFILL
 70
     0
  9
$DIMTFILLCLR
 70
     0
  9
$DIMARCSYM
 70
     0
  9
$DIMLTYPE
  6

  9
$DIMLTEX1
  6

  9
$DIMLTEX2
  6

  9
$LUNITS
 70
     2
  9
$LUPREC
 70
     4
  9
$SKETCHINC
 40
0.1
  9
$FILLETRAD
 40
0.5
  9
$AUNITS
 70
     0
  9
$AUPREC
 70
     0
  9
$MENU
  1
.
  9
$ELEVATION
 40
0.0
  9
$PELEVATION
 40
0.0
  9
$THICKNESS
 40
0.0
  9
$LIMCHECK
 70
     0
  9
$CHAMFERA
 40
0.5
  9
$CHAMFERB
 40
0.5
  9
$CHAMFERC
 40
1.0
  9
$CHAMFERD
 40
0.0
  9
$SKPOLY
 70
     0
  9
$TDCREATE
 40
2456524.383632987
  9
$TDUCREATE
 40
2456524.050299653
  9
$TDUPDATE
 40
2460346.540854097
  9
$TDUUPDATE
 40
2460346.207520764
  9
$TDINDWG
 40
1.2516635069
  9
$TDUSRTIMER
 40
1.2516434259
  9
$USRTIMER
 70
     1
  9
$ANGBASE
 50
0.0
  9
$ANGDIR
 70
     0
  9
$PDMODE
 70
     0
  9
$PDSIZE
 40
0.0
  9
$PLINEWID
 40
0.0
  9
$SPLFRAME
 70
     0
  9
$SPLINETYPE
 70
     6
  9
$SPLINESEGS
 70
     8
  9
$HANDSEED
  5
15D15
  9
$SURFTAB1
 70
     6
  9
$SURFTAB2
 70
     6
  9
$SURFTYPE
 70
     6
  9
$SURFU
 70
     6
  9
$SURFV
 70
     6
  9
$UCSBASE
  2

  9
$UCSNAME
  2

  9
$UCSORG
 10
0.0
 20
0.0
 30
0.0
  9
$UCSXDIR
 10
1.0
 20
0.0
 30
0.0
  9
$UCSYDIR
 10
0.0
 20
1.0
 30
0.0
  9
$UCSORTHOREF
  2

  9
$UCSORTHOVIEW
 70
     0
  9
$UCSORGTOP
 10
0.0
 20
0.0
 30
0.0
  9
$UCSORGBOTTOM
 10
0.0
 20
0.0
 30
0.0
  9
$UCSORGLEFT
 10
0.0
 20
0.0
 30
0.0
  9
$UCSORGRIGHT
 10
0.0
 20
0.0
 30
0.0
  9
$UCSORGFRONT
 10
0.0
 20
0.0
 30
0.0
  9
$UCSORGBACK
 10
0.0
 20
0.0
 30
0.0
  9
$PUCSBASE
  2

  9
$PUCSNAME
  2

  9
$PUCSORG
 10
0.0
 20
0.0
 30
0.0
  9
$PUCSXDIR
 10
1.0
 20
0.0
 30
0.0
  9
$PUCSYDIR
 10
0.0
 20
1.0
 30
0.0
  9
$PUCSORTHOREF
  2

  9
$PUCSORTHOVIEW
 70
     0
  9
$PUCSORGTOP
 10
0.0
 20
0.0
 30
0.0
  9
$PUCSORGBOTTOM
 10
0.0
 20
0.0
 30
0.0
  9
$PUCSORGLEFT
 10
0.0
 20
0.0
 30
0.0
  9
$PUCSORGRIGHT
 10
0.0
 20
0.0
 30
0.0
  9
$PUCSORGFRONT
 10
0.0
 20
0.0
 30
0.0
  9
$PUCSORGBACK
 10
0.0
 20
0.0
 30
0.0
  9
$USERI1
 70
     0
  9
$USERI2
 70
     0
  9
$USERI3
 70
     0
  9
$USERI4
 70
     0
  9
$USERI5
 70
     0
  9
$USERR1
 40
0.0
  9
$USERR2
 40
0.0
  9
$USERR3
 40
0.0
  9
$USERR4
 40
0.0
  9
$USERR5
 40
0.0
  9
$WORLDVIEW
 70
     1
  9
$SHADEDGE
 70
     3
  9
$SHADEDIF
 70
    70
  9
$TILEMODE
 70
     1
  9
$MAXACTVP
 70
    64
  9
$PINSBASE
 10
0.0
 20
0.0
 30
0.0
  9
$PLIMCHECK
 70
     0
  9
$PEXTMIN
 10
1.000000000000000E+20
 20
1.000000000000000E+20
 30
1.000000000000000E+20
  9
$PEXTMAX
 10
-1.000000000000000E+20
 20
-1.000000000000000E+20
 30
-1.000000000000000E+20
  9
$PLIMMIN
 10
0.0
 20
0.0
  9
$PLIMMAX
 10
12.0
 20
9.0
  9
$UNITMODE
 70
     0
  9
$VISRETAIN
 70
     1
  9
$PLINEGEN
 70
     0
  9
$PSLTSCALE
 70
     1
  9
$TREEDEPTH
 70
  3020
  9
$CMLSTYLE
  2
Standard
  9
$CMLJUST
 70
     0
  9
$CMLSCALE
 40
1.0
  9
$PROXYGRAPHICS
 70
     1
  9
$MEASUREMENT
 70
     0
  9
$CELWEIGHT
370
    -1
  9
$ENDCAPS
280
     0
  9
$JOINSTYLE
280
     0
  9
$LWDISPLAY
290
     0
  9
$INSUNITS
 70
     4
  9
$HYPERLINKBASE
  1

  9
$STYLESHEET
  1
MONOCHROME.CTB
  9
$XEDIT
290
     1
  9
$CEPSNTYPE
380
     0
  9
$PSTYLEMODE
290
     1
  9
$FINGERPRINTGUID
  2
{4A02065B-8BB3-4A96-9036-502DC906C165}
  9
$VERSIONGUID
  2
{181F078E-22D2-45E5-A655-3A788DF339CD}
  9
$EXTNAMES
290
     1
  9
$PSVPSCALE
 40
0.0
  9
$OLESTARTUP
290
     0
  9
$SORTENTS
280
   127
  9
$INDEXCTL
280
     0
  9
$HIDETEXT
280
     0
  9
$XCLIPFRAME
290
     0
  9
$HALOGAP
280
     0
  9
$OBSCOLOR
 70
   257
  9
$OBSLTYPE
280
     0
  9
$INTERSECTIONDISPLAY
280
     0
  9
$INTERSECTIONCOLOR
 70
   257
  9
$DIMASSOC
280
     1
  9
$PROJECTNAME
  1

  9
$CAMERADISPLAY
290
     0
  9
$LENSLENGTH
 40
50.0
  9
$CAMERAHEIGHT
 40
0.0
  9
$STEPSPERSEC
 40
2.0
  9
$STEPSIZE
 40
6.0
  9
$3DDWFPREC
 40
2.0
  9
$PSOLWIDTH
 40
0.25
  9
$PSOLHEIGHT
 40
4.0
  9
$LOFTANG1
 40
1.570796326794896
  9
$LOFTANG2
 40
1.570796326794896
  9
$LOFTMAG1
 40
0.0
  9
$LOFTMAG2
 40
0.0
  9
$LOFTPARAM
 70
     7
  9
$LOFTNORMALS
280
     1
  9
$LATITUDE
 40
37.795
  9
$LONGITUDE
 40
-122.394
  9
$NORTHDIRECTION
 40
0.0
  9
$TIMEZONE
 70
 -8000
  9
$LIGHTGLYPHDISPLAY
280
     1
  9
$TILEMODELIGHTSYNCH
280
     1
  9
$CMATERIAL
347
4FE6
  9
$SOLIDHIST
280
     1
  9
$SHOWHIST
280
     1
  9
$DWFFRAME
280
     2
  9
$DGNFRAME
280
     0
  9
$REALWORLDSCALE
290
     1
  9
$INTERFERECOLOR
 62
     1
  9
$INTERFEREOBJVS
345
33
  9
$INTERFEREVPVS
346
30
  9
$CSHADOW
280
     0
  9
$SHADOWPLANELOCATION
 40
0.0
  0
ENDSEC
  0
SECTION
  2
CLASSES
  0
CLASS
  1
ACDBDICTIONARYWDFLT
  2
AcDbDictionaryWithDefault
  3
ObjectDBX Classes
 90
        0
 91
        1
280
     0
281
     0
  0
CLASS
  1
VISUALSTYLE
  2
AcDbVisualStyle
  3
ObjectDBX Classes
 90
     4095
 91
       16
280
     0
281
     0
  0
CLASS
  1
MATERIAL
  2
AcDbMaterial
  3
ObjectDBX Classes
 90
     1153
 91
        3
280
     0
281
     0
  0
CLASS
  1
TABLESTYLE
  2
AcDbTableStyle
  3
ObjectDBX Classes
 90
     4095
 91
        1
280
     0
281
     0
  0
CLASS
  1
SCALE
  2
AcDbScale
  3
ObjectDBX Classes
 90
     1153
 91
       33
280
     0
281
     0
  0
CLASS
  1
MLEADERSTYLE
  2
AcDbMLeaderStyle
  3
ACDB_MLEADERSTYLE_CLASS
 90
     4095
 91
        1
280
     0
281
     0
  0
CLASS
  1
CELLSTYLEMAP
  2
AcDbCellStyleMap
  3
ObjectDBX Classes
 90
     1152
 91
        2
280
     0
281
     0
  0
CLASS
  1
DICTIONARYVAR
  2
AcDbDictionaryVar
  3
ObjectDBX Classes
 90
        0
 91
        8
280
     0
281
     0
  0
CLASS
  1
SORTENTSTABLE
  2
AcDbSortentsTable
  3
ObjectDBX Classes
 90
        0
 91
        1
280
     0
281
     0
  0
CLASS
  1
ACAD_EVALUATION_GRAPH
  2
AcDbEvalGraph
  3
ObjectDBX Classes
 90
     1153
 91
        0
280
     0
281
     0
  0
CLASS
  1
ACAECUSTOBJ
  2
AcAeEditorObj
  3
AcAeEditorObj
 90
     1024
 91
        0
280
     0
281
     0
  0
CLASS
  1
ACDB_DYNAMICBLOCKPURGEPREVENTER_VERSION
  2
AcDbDynamicBlockPurgePreventer
  3
ObjectDBX Classes
 90
     1153
 91
        0
280
     0
281
     0
  0
CLASS
  1
MENTALRAYRENDERSETTINGS
  2
AcDbMentalRayRenderSettings
  3
SCENEOE
 90
     1024
 91
        1
280
     0
281
     0
  0
CLASS
  1
ACDB_BLOCKREPRESENTATION_DATA
  2
AcDbBlockRepresentationData
  3
ObjectDBX Classes
 90
     1153
 91
        0
280
     0
281
     0
  0
CLASS
  1
DIMASSOC
  2
AcDbDimAssoc
  3
"AcDbDimAssoc|Product Desc:     AcDim ARX App For Dimension|Company:          Autodesk, Inc.|WEB Address:      www.autodesk.com"
 90
        0
 91
        3
280
     0
281
     0
  0
ENDSEC
  0
SECTION
  2
TABLES
  0
TABLE
  2
VPORT
  5
8
102
{ACAD_XDICTIONARY
360
50EE
102
}
330
0
100
AcDbSymbolTable
 70
     1
  0
VPORT
  5
29
330
8
100
AcDbSymbolTableRecord
100
AcDbViewportTableRecord
  2
*Active
 70
     0
 10
0.0
 20
0.0
 11
1.0
 21
1.0
 12
302.9251353062533
 22
136.7842546338422
 13
0.0
 23
0.0
 14
0.5
 24
0.5
 15
0.5
 25
0.5
 16
0.0
 26
0.0
 36
1.0
 17
104.9654968719086
 27
148.5022307685978
 37
0.0
 40
398.1399980748244
 41
1.967136150234741
 42
50.0
 43
0.0
 44
0.0
 50
0.0
 51
0.0
 71
     0
 72
   100
 73
     1
 74
     3
 75
     0
 76
     0
 77
     0
 78
     0
281
     0
 65
     1
110
0.0
120
0.0
130
0.0
111
1.0
121
0.0
131
0.0
112
0.0
122
1.0
132
0.0
 79
     0
146
0.0
348
2F
 60
     3
 61
     5
292
     1
282
     1
141
0.0
142
0.0
 63
   250
421
  3355443
  0
ENDTAB
  0
TABLE
  2
LTYPE
  5
5
330
0
100
AcDbSymbolTable
 70
     2
  0
LTYPE
  5
14
330
5
100
AcDbSymbolTableRecord
100
AcDbLinetypeTableRecord
  2
ByBlock
 70
     0
  3

 72
    65
 73
     0
 40
0.0
  0
LTYPE
  5
15
330
5
100
AcDbSymbolTableRecord
100
AcDbLinetypeTableRecord
  2
ByLayer
 70
     0
  3

 72
    65
 73
     0
 40
0.0
  0
LTYPE
  5
16
330
5
100
AcDbSymbolTableRecord
100
AcDbLinetypeTableRecord
  2
Continuous
 70
     0
  3
Solid line
 72
    65
 73
     0
 40
0.0
  0
LTYPE
  5
67BA
330
5
100
AcDbSymbolTableRecord
100
AcDbLinetypeTableRecord
  2
CENTER
 70
     0
  3
Center ____ _ ____ _ ____ _ ____ _ ____ _ ____
 72
    65
 73
     4
 40
2.0
 49
1.25
 74
     0
 49
-0.25
 74
     0
 49
0.25
 74
     0
 49
-0.25
 74
     0
  0
ENDTAB
  0
TABLE
  2
LAYER
  5
2
102
{ACAD_XDICTIONARY
360
50B8
102
}
330
0
100
AcDbSymbolTable
 70
     8
  0
LAYER
  5
10
102
{ACAD_XDICTIONARY
360
50D0
102
}
330
2
100
AcDbSymbolTableRecord
100
AcDbLayerTableRecord
  2
0
 70
     0
 62
     7
  6
Continuous
370
    30
390
F
347
4FF6
  0
LAYER
  5
3B
102
{ACAD_XDICTIONARY
360
50D2
102
}
330
2
100
AcDbSymbolTableRecord
100
AcDbLayerTableRecord
  2
图层 1
 70
     0
 62
     7
  6
Continuous
370
    -3
390
F
347
4FF6
  0
LAYER
  5
50AE
102
{ACAD_XDICTIONARY
360
50AF
102
}
330
2
100
AcDbSymbolTableRecord
100
AcDbLayerTableRecord
  2
图框
 70
     0
 62
     7
  6
Continuous
370
    20
390
F
347
4FF6
  0
LAYER
  5
5141
330
2
100
AcDbSymbolTableRecord
100
AcDbLayerTableRecord
  2
Defpoints
 70
     0
 62
     7
  6
Continuous
290
     0
370
    -3
390
F
347
4FF6
  0
LAYER
  5
5144
330
2
100
AcDbSymbolTableRecord
100
AcDbLayerTableRecord
  2
DIM
 70
     0
 62
     3
  6
Continuous
370
    15
390
F
347
4FF6
1001
AcAecLayerStandard
1000

1000

  0
LAYER
  5
52F3
330
2
100
AcDbSymbolTableRecord
100
AcDbLayerTableRecord
  2
打标文字
 70
     0
 62
     3
  6
Continuous
370
    20
390
F
347
4FF6
  0
LAYER
  5
67B7
330
2
100
AcDbSymbolTableRecord
100
AcDbLayerTableRecord
  2
CEN
 70
     0
 62
     1
  6
CENTER
370
    15
390
F
347
4FF6
1001
AcAecLayerStandard
1000

1000

  0
LAYER
  5
11B6B
330
2
100
AcDbSymbolTableRecord
100
AcDbLayerTableRecord
  2
hat
 70
     0
 62
     6
  6
Continuous
370
    15
390
F
347
4FF6
1001
AcAecLayerStandard
1000

1000

  0
ENDTAB
  0
TABLE
  2
STYLE
  5
3
330
0
100
AcDbSymbolTable
 70
     4
  0
STYLE
  5
11
330
3
100
AcDbSymbolTableRecord
100
AcDbTextStyleTableRecord
  2
Standard
 70
     0
 40
0.0
 41
0.75
 50
0.0
 71
     0
 42
0.2
  3

  4

1001
ACAD
1000
仿宋_GB2312
1071
    34353
  0
STYLE
  5
FD48
330
3
100
AcDbSymbolTableRecord
100
AcDbTextStyleTableRecord
  2
Romans字体
 70
     0
 40
0.0
 41
0.75
 50
0.0
 71
     0
 42
0.2
  3
romans.shx
  4

  0
STYLE
  5
11080
330
3
100
AcDbSymbolTableRecord
100
AcDbTextStyleTableRecord
  2
工程字
 70
     0
 40
0.0
 41
1.0
 50
0.0
 71
     0
 42
3.5
  3
gbenor.shx
  4
gbcbig.shx
  0
STYLE
  5
11081
330
3
100
AcDbSymbolTableRecord
100
AcDbTextStyleTableRecord
  2
Chinese
 70
     0
 40
0.0
 41
1.0
 50
0.0
 71
     0
 42
2.5
  3

  4

1001
ACAD
1000
PMingLiU
1071
    34834
  0
ENDTAB
  0
TABLE
  2
VIEW
  5
6
330
0
100
AcDbSymbolTable
 70
     0
  0
ENDTAB
  0
TABLE
  2
UCS
  5
7
330
0
100
AcDbSymbolTable
 70
     0
  0
ENDTAB
  0
TABLE
  2
APPID
  5
9
330
0
100
AcDbSymbolTable
 70
    18
  0
APPID
  5
12
330
9
100
AcDbSymbolTableRecord
100
AcDbRegAppTableRecord
  2
ACAD
 70
     0
  0
APPID
  5
5024
330
9
100
AcDbSymbolTableRecord
100
AcDbRegAppTableRecord
  2
ACAD_MLEADERVER
 70
     0
  0
APPID
  5
50B5
330
9
100
AcDbSymbolTableRecord
100
AcDbRegAppTableRecord
  2
AcDbDynamicBlockGUID
 70
     0
  0
APPID
  5
50B6
330
9
100
AcDbSymbolTableRecord
100
AcDbRegAppTableRecord
  2
AcDbBlockRepETag
 70
     0
  0
APPID
  5
50B7
330
9
100
AcDbSymbolTableRecord
100
AcDbRegAppTableRecord
  2
ACAD_PSEXT
 70
     0
  0
APPID
  5
50CF
330
9
100
AcDbSymbolTableRecord
100
AcDbRegAppTableRecord
  2
AcadAnnoPO
 70
     0
  0
APPID
  5
5146
330
9
100
AcDbSymbolTableRecord
100
AcDbRegAppTableRecord
  2
AcAecLayerStandard
 70
     0
  0
APPID
  5
5147
330
9
100
AcDbSymbolTableRecord
100
AcDbRegAppTableRecord
  2
ACAD_DSTYLE_DIMJAG
 70
     0
  0
APPID
  5
5148
330
9
100
AcDbSymbolTableRecord
100
AcDbRegAppTableRecord
  2
ACAD_DSTYLE_DIMTALN
 70
     0
  0
APPID
  5
52AD
330
9
100
AcDbSymbolTableRecord
100
AcDbRegAppTableRecord
  2
ACAUTHENVIRON
 70
     0
  0
APPID
  5
52B0
330
9
100
AcDbSymbolTableRecord
100
AcDbRegAppTableRecord
  2
AcDbDynamicBlockTrueName
 70
     0
  0
APPID
  5
67C6
330
9
100
AcDbSymbolTableRecord
100
AcDbRegAppTableRecord
  2
ACAD_EXEMPT_FROM_CAD_STANDARDS
 70
     0
  0
APPID
  5
6838
330
9
100
AcDbSymbolTableRecord
100
AcDbRegAppTableRecord
  2
ACAD_NAV_VCDISPLAY
 70
     0
  0
APPID
  5
70A9
330
9
100
AcDbSymbolTableRecord
100
AcDbRegAppTableRecord
  2
DCO15
 70
     0
  0
APPID
  5
8725
330
9
100
AcDbSymbolTableRecord
100
AcDbRegAppTableRecord
  2
AcDbBlockRepBTag
 70
     0
  0
APPID
  5
FE64
330
9
100
AcDbSymbolTableRecord
100
AcDbRegAppTableRecord
  2
ACAD_DSTYLE_DIMRADIAL_EXTENSION
 70
     0
  0
APPID
  5
FF93
330
9
100
AcDbSymbolTableRecord
100
AcDbRegAppTableRecord
  2
ACAD_DSTYLE_DIMBREAK
 70
     0
  0
APPID
  5
14E49
330
9
100
AcDbSymbolTableRecord
100
AcDbRegAppTableRecord
  2
ACAD_DSTYLE_DIMINSPECT
 70
     0
  0
ENDTAB
  0
TABLE
  2
DIMSTYLE
  5
A
330
0
100
AcDbSymbolTable
 70
     3
100
AcDbDimStyleTable
 71
     2
340
5145
340
27
  0
DIMSTYLE
105
27
330
A
100
AcDbSymbolTableRecord
100
AcDbDimStyleTableRecord
  2
Standard
 70
     0
340
11
  0
DIMSTYLE
105
5145
102
{ACAD_REACTORS
330
15069
330
1506D
330
15060
330
153BC
330
15957
330
159E0
102
}
330
A
100
AcDbSymbolTableRecord
100
AcDbDimStyleTableRecord
  2
01
 70
     0
 41
3.0
 42
0.2
 43
0.2
 44
0.5
 73
     0
 74
     0
 77
     1
 78
     8
 79
     2
140
3.5
141
0.0
147
0.3
176
     1
177
     6
178
     4
179
     2
271
     1
272
     1
340
FD48
1001
ACAD_DSTYLE_DIMJAG
1070
   388
1040
1.5
1001
ACAD_DSTYLE_DIMTALN
1070
   392
1070
     0
  0
DIMSTYLE
105
14E44
330
A
100
AcDbSymbolTableRecord
100
AcDbDimStyleTableRecord
  2
02
 70
     0
 40
0.65
 41
5.599999999999998
 42
0.0
 43
0.1
 44
2.0
 47
0.01
 48
0.000000001
 73
     0
 74
     0
 77
     1
 78
     8
 79
     2
140
5.0
141
0.0
146
0.7
147
2.7
176
     6
177
     6
178
     2
179
     2
271
     2
272
     2
284
     8
340
11
371
     0
372
     0
1001
ACAD_DSTYLE_DIMJAG
1070
   388
1040
1.5
1001
ACAD_DSTYLE_DIMTALN
1070
   392
1070
     0
  0
ENDTAB
  0
TABLE
  2
BLOCK_RECORD
  5
1
330
0
100
AcDbSymbolTable
 70
    10
  0
BLOCK_RECORD
  5
1F
102
{ACAD_XDICTIONARY
360
67C0
102
}
330
1
100
AcDbSymbolTableRecord
100
AcDbBlockTableRecord
  2
*Model_Space
340
22
 70
     0
280
     1
281
     0
  0
BLOCK_RECORD
  5
1B
330
1
100
AcDbSymbolTableRecord
100
AcDbBlockTableRecord
  2
*Paper_Space
340
1E
 70
     0
280
     1
281
     0
  0
BLOCK_RECORD
  5
23
330
1
100
AcDbSymbolTableRecord
100
AcDbBlockTableRecord
  2
*Paper_Space0
340
26
 70
     0
280
     1
281
     0
  0
BLOCK_RECORD
  5
13E17
102
{ACAD_XDICTIONARY
360
15CCC
102
}
330
1
100
AcDbSymbolTableRecord
100
AcDbBlockTableRecord
  2
A4图框-NEW
340
0
310
2800000020000000200000000100080000000000000400000000000000000000000000000000000000000000000080000080000000808000800000008000800080800000C0C0C000C0DCC000F0CAA6000020400000206000002080000020A0000020C0000020E00000400000004020000040400000406000004080000040A0
310
000040C0000040E00000600000006020000060400000606000006080000060A0000060C0000060E00000800000008020000080400000806000008080000080A0000080C0000080E00000A0000000A0200000A0400000A0600000A0800000A0A00000A0C00000A0E00000C0000000C0200000C0400000C0600000C0800000C0
310
A00000C0C00000C0E00000E0000000E0200000E0400000E0600000E0800000E0A00000E0C00000E0E00040000000400020004000400040006000400080004000A0004000C0004000E00040200000402020004020400040206000402080004020A0004020C0004020E000404000004040200040404000404060004040800040
310
40A0004040C0004040E00040600000406020004060400040606000406080004060A0004060C0004060E00040800000408020004080400040806000408080004080A0004080C0004080E00040A0000040A0200040A0400040A0600040A0800040A0A00040A0C00040A0E00040C0000040C0200040C0400040C0600040C08000
310
40C0A00040C0C00040C0E00040E0000040E0200040E0400040E0600040E0800040E0A00040E0C00040E0E00080000000800020008000400080006000800080008000A0008000C0008000E00080200000802020008020400080206000802080008020A0008020C0008020E00080400000804020008040400080406000804080
310
008040A0008040C0008040E00080600000806020008060400080606000806080008060A0008060C0008060E00080800000808020008080400080806000808080008080A0008080C0008080E00080A0000080A0200080A0400080A0600080A0800080A0A00080A0C00080A0E00080C0000080C0200080C0400080C0600080C0
310
800080C0A00080C0C00080C0E00080E0000080E0200080E0400080E0600080E0800080E0A00080E0C00080E0E000C0000000C0002000C0004000C0006000C0008000C000A000C000C000C000E000C0200000C0202000C0204000C0206000C0208000C020A000C020C000C020E000C0400000C0402000C0404000C0406000C0
310
408000C040A000C040C000C040E000C0600000C0602000C0604000C0606000C0608000C060A000C060C000C060E000C0800000C0802000C0804000C0806000C0808000C080A000C080C000C080E000C0A00000C0A02000C0A04000C0A06000C0A08000C0A0A000C0A0C000C0A0E000C0C00000C0C02000C0C04000C0C06000
310
C0C08000C0C0A000F0FBFF00A4A0A000808080000000FF0000FF000000FFFF00FF000000FF00FF00FFFF0000FFFFFF0000000000000000000000000000000000000000000000000000000000000000000000000000000000000000000000000000000000000000000000000000000000000000000000000000000000000000
310
000000000000000000000000000000000000000000000000000000000000000000000000000000000000000000000000000000000000000000000000000000000000000000000000000000000000000000000000000000000000000000000000000000000000000000000000000000000000F9F9F9F9F9F9F9F9F9F9F9F9F9
310
F9F9F9F9F9F9F9F9F9F9F9F9F9F9FF00000000F9FF000000000000000000FFFFFFFFFFFFFFFFFFFFFFFFF9FAFAFAFF00000000F9FF000000000000000000FFFFFFFFFFFFFFFFFFFFFFFFFFFFFFFFFF00000000F9FD000000000000000000FFFFFFFFFFFFFFFFFFFFFFFFFFFFFFFFFF00000000F9FF000000000000000000FF
310
FFFFFFFFFFFFFFFFFFFFFFFFFFFFFFFF00000000F9FD000000000000000000FFFFFFFFFFFFFFFFFFFFFFFFFFFFFFFFFF00000000F9FF00000000000000000000000000000000000000000000000000FF00000000F9FD00000000000000000000000000000000000000000000000000FF00000000F9FF000000000000000000
310
00000000000000000000000000000000FF00000000F9FD00000000000000000000000000000000000000000000000000FF00000000F9FF00000000000000000000000000000000000000000000000000FF00000000F9FD00000000000000000000000000000000000000000000000000FF00000000F9FD0000000000000000
310
0000000000000000000000000000000000FF00000000F9FF00000000000000000000000000000000000000000000000000FF00000000F9FD00000000000000000000000000000000000000000000000000FF00000000F9FF00000000000000000000000000000000000000000000000000FF00000000F9FD00000000000000
310
000000000000000000000000000000000000FF00000000F9FF00000000000000000000000000000000000000000000000000FF00000000F9FFFFFFFFFFFFFFFFFFFFFFFFFFFFFFFFFFFFFFFFFFFFFFFFFFFFFF00000000F9FFFFFFF9F9F9F9F9F9F9F9F9F9F9F9F9F9F9F9F9F9F9F9F9F9F9F9000000000000000000000000
310
00000000000000000000000000000000000000000000000000000000000000000000000000000000000000000000000000000000000000000000000000000000000000000000000000000000000000000000000000000000000000000000000000000000000000000000000000000000000000000000000000000000000000
310
0000000000000000000000000000000000000000000000000000000000000000000000000000000000000000000000000000000000000000
102
{BLKREFS
331
13EBE
102
}
 70
     4
280
     1
281
     0
1001
AcDbDynamicBlockGUID
1000
{176346AA-CAA9-44EE-834F-95C99EDFE6B5}
1001
AcDbBlockRepETag
1070
     1
1071
      149
  0
BLOCK_RECORD
  5
1510A
330
1
100
AcDbSymbolTableRecord
100
AcDbBlockTableRecord
  2
*D2
340
0
 70
     0
280
     1
281
     0
  0
BLOCK_RECORD
  5
1512E
330
1
100
AcDbSymbolTableRecord
100
AcDbBlockTableRecord
  2
*D4
340
0
 70
     0
280
     1
281
     0
  0
BLOCK_RECORD
  5
1513A
330
1
100
AcDbSymbolTableRecord
100
AcDbBlockTableRecord
  2
*D5
340
0
 70
     0
280
     1
281
     0
  0
BLOCK_RECORD
  5
153BD
330
1
100
AcDbSymbolTableRecord
100
AcDbBlockTableRecord
  2
*D6
340
0
 70
     0
280
     1
281
     0
  0
BLOCK_RECORD
  5
15958
330
1
100
AcDbSymbolTableRecord
100
AcDbBlockTableRecord
  2
*D7
340
0
 70
     0
280
     1
281
     0
  0
BLOCK_RECORD
  5
159E1
330
1
100
AcDbSymbolTableRecord
100
AcDbBlockTableRecord
  2
*D8
340
0
 70
     0
280
     1
281
     0
  0
ENDTAB
  0
ENDSEC
  0
SECTION
  2
BLOCKS
  0
BLOCK
  5
20
330
1F
100
AcDbEntity
  8
0
100
AcDbBlockBegin
  2
*Model_Space
 70
     0
 10
0.0
 20
0.0
 30
0.0
  3
*Model_Space
  1

  0
ENDBLK
  5
21
330
1F
100
AcDbEntity
  8
0
100
AcDbBlockEnd
  0
BLOCK
  5
1C
330
1B
100
AcDbEntity
 67
     1
  8
0
100
AcDbBlockBegin
  2
*Paper_Space
 70
     0
 10
0.0
 20
0.0
 30
0.0
  3
*Paper_Space
  1

  0
ENDBLK
  5
1D
330
1B
100
AcDbEntity
 67
     1
  8
0
100
AcDbBlockEnd
  0
BLOCK
  5
24
330
23
100
AcDbEntity
 67
     1
  8
0
100
AcDbBlockBegin
  2
*Paper_Space0
 70
     0
 10
0.0
 20
0.0
 30
0.0
  3
*Paper_Space0
  1

  0
ENDBLK
  5
25
330
23
100
AcDbEntity
 67
     1
  8
0
100
AcDbBlockEnd
  0
BLOCK
  5
13E19
330
13E17
100
AcDbEntity
  8
0
100
AcDbBlockBegin
  2
A4图框-NEW
 70
     0
 10
0.0
 20
0.0
 30
0.0
  3
A4图框-NEW
  1

  0
MTEXT
  5
15C37
102
{ACAD_XDICTIONARY
360
15CFD
102
}
330
13E17
100
AcDbEntity
  8
图框
 62
     3
100
AcDbMText
 10
967.6594956750133
 20
499.7664151964293
 30
0.0
 40
2.985513575034151
 41
15.50176341157864
 46
6.292658374511018
 71
     5
 72
     5
  1
BQ LUO
  7
Romans字体
 73
     1
 44
1.0
1001
AcDbBlockRepETag
1070
     1
1071
        0
1005
15C37
1001
ACAD
1000
ACAD_MTEXT_DEFINED_HEIGHT_BEGIN
1070
    46
1040
6.292658374511018
1000
ACAD_MTEXT_DEFINED_HEIGHT_END
  0
MTEXT
  5
15C38
330
13E17
100
AcDbEntity
  8
图框
 62
     3
100
AcDbMText
 10
983.041569333247
 20
499.7664151964293
 30
0.0
 40
2.487927979195124
 41
15.26238390489062
 46
6.292658374511042
 71
     5
 72
     5
  1
{\W0.7;18.10.2010}
  7
Romans字体
 73
     1
 44
1.0
1001
AcDbBlockRepETag
1070
     1
1071
        1
1005
15C38
1001
ACAD
1000
ACAD_MTEXT_DEFINED_HEIGHT_BEGIN
1070
    46
1040
6.292658374511042
1000
ACAD_MTEXT_DEFINED_HEIGHT_END
  0
MTEXT
  5
15C39
330
13E17
100
AcDbEntity
  8
图框
 62
     3
100
AcDbMText
 10
1012.477254728976
 20
487.1810984474071
 30
0.0
 40
2.985513575034151
 41
17.64876416884615
 46
6.292658374511455
 71
     5
 72
     5
  1
YY LIN
  7
Romans字体
 73
     1
 44
1.0
1001
AcDbBlockRepETag
1070
     1
1071
        2
1005
15C39
1001
ACAD
1000
ACAD_MTEXT_DEFINED_HEIGHT_BEGIN
1070
    46
1040
6.292658374511455
1000
ACAD_MTEXT_DEFINED_HEIGHT_END
  0
MTEXT
  5
15C3A
330
13E17
100
AcDbEntity
  8
图框
 62
     3
100
AcDbMText
 10
1028.977802139886
 20
487.1810984474071
 30
0.0
 40
2.487927979195124
 41
15.35233065297276
 46
6.292658374511495
 71
     5
 72
     5
  1
{\W0.7;18.10.2010}
  7
Romans字体
 73
     1
 44
1.0
1001
AcDbBlockRepETag
1070
     1
1071
        3
1005
15C3A
1001
ACAD
1000
ACAD_MTEXT_DEFINED_HEIGHT_BEGIN
1070
    46
1040
6.292658374511495
1000
ACAD_MTEXT_DEFINED_HEIGHT_END
  0
MTEXT
  5
15C3B
330
13E17
100
AcDbEntity
  8
图框
 62
     3
100
AcDbMText
 10
1063.722665487208
 20
525.4145966538831
 30
0.0
 40
2.985513575034151
 41
32.4973914334545
 46
11.82914190181707
 71
     5
 72
     5
  1
-
  7
Romans字体
 73
     1
 44
1.0
1001
AcDbBlockRepETag
1070
     1
1071
        4
1005
15C3B
1001
ACAD
1000
ACAD_MTEXT_DEFINED_HEIGHT_BEGIN
1070
    46
1040
11.82914190181707
1000
ACAD_MTEXT_DEFINED_HEIGHT_END
  0
MTEXT
  5
15C3C
330
13E17
100
AcDbEntity
  8
图框
 62
     3
100
AcDbMText
 10
1063.727338552349
 20
513.5854547520641
 30
0.0
 40
2.985513575034151
 41
32.48804530317308
 46
11.82914190182139
 71
     5
 72
     5
  1
-
  7
Romans字体
 73
     1
 44
1.0
1001
AcDbBlockRepETag
1070
     1
1071
        5
1005
15C3C
1001
ACAD
1000
ACAD_MTEXT_DEFINED_HEIGHT_BEGIN
1070
    46
1040
11.82914190182139
1000
ACAD_MTEXT_DEFINED_HEIGHT_END
  0
MTEXT
  5
15C3D
330
13E17
100
AcDbEntity
  8
图框
 62
     3
100
AcDbMText
 10
1110.122306614152
 20
526.8006839312707
 30
0.0
 40
2.985513575034151
 41
33.61239199242139
 46
9.05696734704178
 71
     5
 72
     5
  1
-
  7
Romans字体
 73
     1
 44
1.0
1001
AcDbBlockRepETag
1070
     1
1071
        6
1005
15C3D
1001
ACAD
1000
ACAD_MTEXT_DEFINED_HEIGHT_BEGIN
1070
    46
1040
9.05696734704178
1000
ACAD_MTEXT_DEFINED_HEIGHT_END
  0
MTEXT
  5
15C3E
330
13E17
100
AcDbEntity
  8
图框
 62
     3
100
AcDbMText
 10
1110.122306614152
 20
500.2775205517162
 30
0.0
 40
2.985513575034151
 41
33.61239199242139
 46
8.871557304763419
 71
     5
 72
     5
  1
-
  7
Romans字体
 73
     1
 44
1.0
1001
AcDbBlockRepETag
1070
     1
1071
        7
1005
15C3E
1001
ACAD
1000
ACAD_MTEXT_DEFINED_HEIGHT_BEGIN
1070
    46
1040
8.871557304763419
1000
ACAD_MTEXT_DEFINED_HEIGHT_END
  0
MTEXT
  5
15C3F
330
13E17
100
AcDbEntity
  8
图框
 62
     3
100
AcDbMText
 10
967.6594956750133
 20
493.4737568219182
 30
0.0
 40
2.985513575034151
 41
15.50176341157864
 46
6.292658374510335
 71
     5
 72
     5
  1
P RAO
  7
Romans字体
 73
     1
 44
1.0
1001
AcDbBlockRepETag
1070
     1
1071
        8
1005
15C3F
1001
ACAD
1000
ACAD_MTEXT_DEFINED_HEIGHT_BEGIN
1070
    46
1040
6.292658374510335
1000
ACAD_MTEXT_DEFINED_HEIGHT_END
  0
MTEXT
  5
15C40
330
13E17
100
AcDbEntity
  8
图框
 62
     3
100
AcDbMText
 10
983.041569333247
 20
493.2441970450405
 30
0.0
 40
2.487927979195124
 41
15.26238390489051
 46
6.751777928266487
 71
     5
 72
     5
  1
{\W0.7;18.10.2010}
  7
Romans字体
 73
     1
 44
1.0
1001
AcDbBlockRepETag
1070
     1
1071
        9
1005
15C40
1001
ACAD
1000
ACAD_MTEXT_DEFINED_HEIGHT_BEGIN
1070
    46
1040
6.751777928266487
1000
ACAD_MTEXT_DEFINED_HEIGHT_END
  0
MTEXT
  5
15C41
330
13E17
100
AcDbEntity
  8
图框
 62
     3
100
AcDbMText
 10
1012.477254728976
 20
499.7664151964291
 30
0.0
 40
2.985513575034151
 41
17.64876416884615
 46
6.292658374511397
 71
     5
 72
     5
  1
-
  7
Romans字体
 73
     1
 44
1.0
1001
AcDbBlockRepETag
1070
     1
1071
       10
1005
15C41
1001
ACAD
1000
ACAD_MTEXT_DEFINED_HEIGHT_BEGIN
1070
    46
1040
6.292658374511397
1000
ACAD_MTEXT_DEFINED_HEIGHT_END
  0
MTEXT
  5
15C42
330
13E17
100
AcDbEntity
  8
图框
 62
     3
100
AcDbMText
 10
1028.977802139886
 20
499.7664151964289
 30
0.0
 40
2.487927979195124
 41
15.35233065297265
 46
6.292658374511382
 71
     5
 72
     5
  1
-
  7
Romans字体
 73
     1
 44
1.0
1001
AcDbBlockRepETag
1070
     1
1071
       11
1005
15C42
1001
ACAD
1000
ACAD_MTEXT_DEFINED_HEIGHT_BEGIN
1070
    46
1040
6.292658374511382
1000
ACAD_MTEXT_DEFINED_HEIGHT_END
  0
MTEXT
  5
15C43
330
13E17
100
AcDbEntity
  8
图框
 62
     3
100
AcDbMText
 10
967.6594956750133
 20
487.1810984474071
 30
0.0
 40
2.985513575034151
 41
15.50176341157863
 46
6.292658374511478
 71
     5
 72
     5
  1
-
  7
Romans字体
 73
     1
 44
1.0
1001
AcDbBlockRepETag
1070
     1
1071
       12
1005
15C43
1001
ACAD
1000
ACAD_MTEXT_DEFINED_HEIGHT_BEGIN
1070
    46
1040
6.292658374511478
1000
ACAD_MTEXT_DEFINED_HEIGHT_END
  0
MTEXT
  5
15C44
330
13E17
100
AcDbEntity
  8
图框
 62
     3
100
AcDbMText
 10
983.041569333247
 20
487.1810984474071
 30
0.0
 40
2.487927979195124
 41
15.26238390489062
 46
6.292658374511495
 71
     5
 72
     5
  1
-
  7
Romans字体
 73
     1
 44
1.0
1001
AcDbBlockRepETag
1070
     1
1071
       13
1005
15C44
1001
ACAD
1000
ACAD_MTEXT_DEFINED_HEIGHT_BEGIN
1070
    46
1040
6.292658374511495
1000
ACAD_MTEXT_DEFINED_HEIGHT_END
  0
MTEXT
  5
15C45
330
13E17
100
AcDbEntity
  8
图框
 62
     3
100
AcDbMText
 10
1074.556686986741
 20
495.8417418993361
 30
0.0
 40
2.985513575034151
 41
10.82934843438978
 46
7.886094601210427
 71
     5
 72
     5
  1
-
  7
Romans字体
 73
     1
 44
1.0
1001
AcDbBlockRepETag
1070
     1
1071
       14
1005
15C45
1001
ACAD
1000
ACAD_MTEXT_DEFINED_HEIGHT_BEGIN
1070
    46
1040
7.886094601210427
1000
ACAD_MTEXT_DEFINED_HEIGHT_END
  0
LINE
  5
15C46
330
13E17
100
AcDbEntity
  8
图框
370
    -3
100
AcDbLine
 10
1036.653967466372
 20
499.7847891999413
 30
0.0
 11
1079.971361203936
 21
499.7847891999413
 31
0.0
1001
AcDbBlockRepETag
1070
     1
1071
       15
1005
15C46
  0
MTEXT
  5
15C47
330
13E17
100
AcDbEntity
  8
图框
 62
     1
370
    20
100
AcDbMText
 10
1108.26336443907
 20
491.5162596080882
 30
0.0
 40
2.699054613030988
 41
82.30831305643079
 46
0.0
 71
     5
 72
     5
  1
{\fSimHei|b0|i0|c134|p2;厦门唯恩电气有限公司}
 73
     1
 44
1.0
1001
AcDbBlockRepETag
1070
     1
1071
       16
1005
15C47
  0
MTEXT
  5
15C48
330
13E17
100
AcDbEntity
  8
图框
 62
     3
370
    20
100
AcDbMText
 10
1108.435451459908
 20
487.298967726064
 30
0.0
 40
1.652482416141417
 41
68.08558693693567
 46
0.0
 71
     5
 72
     5
  1
{\fArial Narrow|b0|i0|c0|p34;XIAMEN WAIN ELECTRICAL CO.LTD}
  7
工程字
 73
     1
 44
1.0
1001
AcDbBlockRepETag
1070
     1
1071
       17
1005
15C48
  0
MTEXT
  5
15C49
330
13E17
100
AcDbEntity
  8
图框
 62
     1
370
    20
100
AcDbMText
 10
1085.711816899387
 20
491.0944802995856
 30
0.0
 40
2.005930044038334
 41
5.047240019334847
 46
0.0
 71
     1
 72
     5
  1
{\fArial|b0|i0|c0|p34;A}
  7
Chinese
 73
     1
 44
1.0
1001
AcDbBlockRepETag
1070
     1
1071
       18
1005
15C49
  0
MTEXT
  5
15C4A
330
13E17
100
AcDbEntity
  8
图框
 62
     1
370
    20
100
AcDbMText
 10
1088.213485935716
 20
491.0944802995856
 30
0.0
 40
2.005930044038334
 41
5.047240019334847
 46
0.0
 71
     1
 72
     5
  1
{\fArial|b0|i0|c0|p34;I}
  7
Chinese
 73
     1
 44
1.0
1001
AcDbBlockRepETag
1070
     1
1071
       19
1005
15C4A
  0
MTEXT
  5
15C4B
330
13E17
100
AcDbEntity
  8
图框
 62
     1
370
    20
100
AcDbMText
 10
1089.142375222864
 20
491.0822866326808
 30
0.0
 40
2.005930044038334
 41
5.047240019334847
 46
0.0
 71
     1
 72
     5
  1
{\fArial|b0|i0|c0|p34;N}
  7
Chinese
 73
     1
 44
1.0
1001
AcDbBlockRepETag
1070
     1
1071
       20
1005
15C4B
  0
MTEXT
  5
15C4C
330
13E17
100
AcDbEntity
  8
图框
100
AcDbMText
 10
1069.142012769545
 20
487.9667319294409
 30
0.0
 40
2.252848170144607
 41
21.65869686878327
 46
7.863925338579296
 71
     5
 72
     5
  1
{\W0.5;\C1;All Dimensions in mm\POriginal Size DIN A 4}
  7
Romans字体
 73
     1
 44
1.0
1001
AcDbBlockRepETag
1070
     1
1071
       21
1005
15C4C
1001
ACAD
1000
ACAD_MTEXT_DEFINED_HEIGHT_BEGIN
1070
    46
1040
7.863925338579296
1000
ACAD_MTEXT_DEFINED_HEIGHT_END
  0
MTEXT
  5
15C4D
330
13E17
100
AcDbEntity
  8
图框
  6
ByBlock
 62
     6
370
    18
100
AcDbMText
 10
1127.40434942308
 20
508.7896535755975
 30
0.0
 40
2.651776162684904
 41
2.557913877927211
 46
0.0
 71
     1
 72
     5
  1
A
  7
Romans字体
 11
0.0000000000000001
 21
1.0
 31
0.0
 73
     1
 44
1.0
1001
AcDbBlockRepETag
1070
     1
1071
       22
1005
15C4D
  0
MTEXT
  5
15C4E
330
13E17
100
AcDbEntity
  8
图框
 62
     6
100
AcDbMText
 10
1127.40434942308
 20
556.3746573232886
 30
0.0
 40
2.651776162684904
 41
2.557913877927211
 46
0.0
 71
     1
 72
     5
  1
B
  7
Romans字体
 11
0.0000000000000001
 21
1.0
 31
0.0
 73
     1
 44
1.0
1001
AcDbBlockRepETag
1070
     1
1071
       23
1005
15C4E
  0
MTEXT
  5
15C4F
330
13E17
100
AcDbEntity
  8
图框
 62
     6
100
AcDbMText
 10
1127.40434942308
 20
607.5539372630998
 30
0.0
 40
2.651776162684904
 41
2.557913877927211
 46
0.0
 71
     1
 72
     5
  1
C
  7
Romans字体
 11
0.0000000000000001
 21
1.0
 31
0.0
 73
     1
 44
1.0
1001
AcDbBlockRepETag
1070
     1
1071
       24
1005
15C4F
  0
MTEXT
  5
15C50
330
13E17
100
AcDbEntity
  8
图框
 62
     6
100
AcDbMText
 10
1127.40434942308
 20
658.7332172029115
 30
0.0
 40
2.651776162684904
 41
2.557913877927211
 46
0.0
 71
     1
 72
     5
  1
D
  7
Romans字体
 11
0.0000000000000001
 21
1.0
 31
0.0
 73
     1
 44
1.0
1001
AcDbBlockRepETag
1070
     1
1071
       25
1005
15C50
  0
LINE
  5
15C51
330
13E17
100
AcDbEntity
  8
图框
 62
     6
100
AcDbLine
 10
1130.411601781241
 20
634.0726090796082
 30
0.0
 11
1126.928502610363
 21
634.0726090796082
 31
0.0
1001
AcDbBlockRepETag
1070
     1
1071
       26
1005
15C51
  0
LINE
  5
15C52
330
13E17
100
AcDbEntity
  8
图框
 62
     6
100
AcDbLine
 10
1130.411601781241
 20
582.89332913979
 30
0.0
 11
1126.928502610363
 21
582.89332913979
 31
0.0
1001
AcDbBlockRepETag
1070
     1
1071
       27
1005
15C52
  0
MTEXT
  5
15C53
330
13E17
100
AcDbEntity
  8
图框
 62
     6
100
AcDbMText
 10
1105.329704038389
 20
483.6164543011163
 30
0.0
 40
2.651776162684904
 41
2.557913877927211
 46
0.0
 71
     1
 72
     5
  1
6
  7
Romans字体
 73
     1
 44
1.0
1001
AcDbBlockRepETag
1070
     1
1071
       28
1005
15C53
  0
LINE
  5
15C54
330
13E17
100
AcDbEntity
  8
图框
 62
     6
100
AcDbLine
 10
1081.088565155284
 20
484.0347692601515
 30
0.0
 11
1081.088565155284
 21
480.5347692601475
 31
0.0
1001
AcDbBlockRepETag
1070
     1
1071
       29
1005
15C54
  0
MTEXT
  5
15C55
330
13E17
100
AcDbEntity
  8
图框
 62
     6
100
AcDbMText
 10
1055.900596365941
 20
483.520053108993
 30
0.0
 40
2.651776162684904
 41
2.557913877927211
 46
0.0
 71
     1
 72
     5
  1
5
  7
Romans字体
 73
     1
 44
1.0
1001
AcDbBlockRepETag
1070
     1
1071
       30
1005
15C55
  0
LINE
  5
15C56
330
13E17
100
AcDbEntity
  8
图框
 62
     6
100
AcDbLine
 10
1031.553386436349
 20
484.0347692601515
 30
0.0
 11
1031.553386436349
 21
480.5347692601475
 31
0.0
1001
AcDbBlockRepETag
1070
     1
1071
       31
1005
15C56
  0
MTEXT
  5
15C57
330
13E17
100
AcDbEntity
  8
图框
 62
     6
100
AcDbMText
 10
1006.383180575197
 20
483.5687958215896
 30
0.0
 40
2.651776162684904
 41
2.557913877927211
 46
0.0
 71
     1
 72
     5
  1
4
  7
Romans字体
 73
     1
 44
1.0
1001
AcDbBlockRepETag
1070
     1
1071
       32
1005
15C57
  0
LINE
  5
15C58
330
13E17
100
AcDbEntity
  8
图框
 62
     6
100
AcDbLine
 10
982.0182077173887
 20
484.0347692601515
 30
0.0
 11
982.0182077173887
 21
480.5347692601475
 31
0.0
1001
AcDbBlockRepETag
1070
     1
1071
       33
1005
15C58
  0
MTEXT
  5
15C59
330
13E17
100
AcDbEntity
  8
图框
 62
     6
100
AcDbMText
 10
956.8302389280352
 20
483.5989680297948
 30
0.0
 40
2.651776162684904
 41
2.557913877927211
 46
0.0
 71
     1
 72
     5
  1
3
  7
Romans字体
 73
     1
 44
1.0
1001
AcDbBlockRepETag
1070
     1
1071
       34
1005
15C59
  0
LINE
  5
15C5A
330
13E17
100
AcDbEntity
  8
图框
 62
     6
100
AcDbLine
 10
932.4830289984245
 20
484.0347692601515
 30
0.0
 11
932.4830289984245
 21
480.5347692601475
 31
0.0
1001
AcDbBlockRepETag
1070
     1
1071
       35
1005
15C5A
  0
MTEXT
  5
15C5B
330
13E17
100
AcDbEntity
  8
图框
 62
     6
100
AcDbMText
 10
906.0252349826365
 20
483.6475250013156
 30
0.0
 40
2.651776162684904
 41
2.557913877927211
 46
0.0
 71
     1
 72
     5
  1
2
  7
Romans字体
 73
     1
 44
1.0
1001
AcDbBlockRepETag
1070
     1
1071
       36
1005
15C5B
  0
LINE
  5
15C5C
330
13E17
100
AcDbEntity
  8
图框
 62
     6
100
AcDbLine
 10
882.9478502794648
 20
484.0347692601515
 30
0.0
 11
882.9478502794648
 21
480.5347692601475
 31
0.0
1001
AcDbBlockRepETag
1070
     1
1071
       37
1005
15C5C
  0
MTEXT
  5
15C5D
330
13E17
100
AcDbEntity
  8
图框
 62
     6
100
AcDbMText
 10
857.7598814901191
 20
483.651829494754
 30
0.0
 40
2.651776162684904
 41
2.557913877927211
 46
0.0
 71
     1
 72
     5
  1
1
  7
Romans字体
 73
     1
 44
1.0
1001
AcDbBlockRepETag
1070
     1
1071
       38
1005
15C5D
  0
LINE
  5
15C5E
330
13E17
100
AcDbEntity
  8
图框
370
    50
100
AcDbLine
 10
836.8548209370597
 20
484.0347692601515
 30
0.0
 11
1126.928502610363
 21
484.0347692601515
 31
0.0
1001
AcDbBlockRepETag
1070
     1
1071
       39
1005
15C5E
  0
LINE
  5
15C5F
330
13E17
100
AcDbEntity
  8
图框
370
    50
100
AcDbLine
 10
836.9128518455362
 20
484.0178684310246
 30
0.0
 11
836.9128518455394
 21
675.0207195125422
 31
0.0
1001
AcDbBlockRepETag
1070
     1
1071
       40
1005
15C5F
  0
MTEXT
  5
15C60
330
13E17
100
AcDbEntity
  8
图框
 62
     6
100
AcDbMText
 10
833.8475685789031
 20
658.7332172029115
 30
0.0
 40
2.651776162684904
 41
2.557913877927211
 46
0.0
 71
     1
 72
     5
  1
D
  7
Romans字体
 11
0.0000000000000001
 21
1.0
 31
0.0
 73
     1
 44
1.0
1001
AcDbBlockRepETag
1070
     1
1071
       41
1005
15C60
  0
LINE
  5
15C61
330
13E17
100
AcDbEntity
  8
图框
 62
     6
100
AcDbLine
 10
836.9128518455386
 20
634.0726090796082
 30
0.0
 11
833.4128518455365
 21
634.0726090796082
 31
0.0
1001
AcDbBlockRepETag
1070
     1
1071
       42
1005
15C61
  0
MTEXT
  5
15C62
330
13E17
100
AcDbEntity
  8
图框
 62
     6
100
AcDbMText
 10
833.9039177480142
 20
607.5539372630998
 30
0.0
 40
2.651776162684904
 41
2.557913877927211
 46
0.0
 71
     1
 72
     5
  1
C
  7
Romans字体
 11
0.0000000000000001
 21
1.0
 31
0.0
 73
     1
 44
1.0
1001
AcDbBlockRepETag
1070
     1
1071
       43
1005
15C62
  0
LINE
  5
15C63
330
13E17
100
AcDbEntity
  8
图框
 62
     6
100
AcDbLine
 10
836.9128518455378
 20
582.89332913979
 30
0.0
 11
833.4128518455365
 21
582.89332913979
 31
0.0
1001
AcDbBlockRepETag
1070
     1
1071
       44
1005
15C63
  0
MTEXT
  5
15C64
330
13E17
100
AcDbEntity
  8
图框
 62
     6
100
AcDbMText
 10
833.9039177480142
 20
556.3746573232886
 30
0.0
 40
2.651776162684904
 41
2.557913877927211
 46
0.0
 71
     1
 72
     5
  1
B
  7
Romans字体
 11
0.0000000000000001
 21
1.0
 31
0.0
 73
     1
 44
1.0
1001
AcDbBlockRepETag
1070
     1
1071
       45
1005
15C64
  0
LINE
  5
15C65
330
13E17
100
AcDbEntity
  8
图框
 62
     6
100
AcDbLine
 10
836.9128518455367
 20
531.714049199969
 30
0.0
 11
833.4128518455365
 21
531.714049199969
 31
0.0
1001
AcDbBlockRepETag
1070
     1
1071
       46
1005
15C65
  0
MTEXT
  5
15C66
330
13E17
100
AcDbEntity
  8
图框
 62
     6
100
AcDbMText
 10
833.9039177480142
 20
508.7896535755975
 30
0.0
 40
2.651776162684904
 41
2.557913877927211
 46
0.0
 71
     1
 72
     5
  1
A
  7
Romans字体
 11
0.0000000000000001
 21
1.0
 31
0.0
 73
     1
 44
1.0
1001
AcDbBlockRepETag
1070
     1
1071
       47
1005
15C66
  0
LINE
  5
15C67
330
13E17
100
AcDbEntity
  8
图框
370
    -3
100
AcDbLine
 10
836.9128518455394
 20
675.0207195125422
 30
0.0
 11
836.9128518455394
 21
684.5021384922564
 31
0.0
1001
AcDbBlockRepETag
1070
     1
1071
       48
1005
15C67
  0
LINE
  5
15C68
330
13E17
100
AcDbEntity
  8
图框
370
    -3
100
AcDbLine
 10
842.6237321475781
 20
675.5347692601515
 30
0.0
 11
842.6237321475781
 21
685.0161882398658
 31
0.0
1001
AcDbBlockRepETag
1070
     1
1071
       49
1005
15C68
  0
LINE
  5
15C69
330
13E17
100
AcDbEntity
  8
图框
370
    -3
100
AcDbLine
 10
848.3346124496179
 20
675.5347692601515
 30
0.0
 11
848.3346124496179
 21
685.0161882398658
 31
0.0
1001
AcDbBlockRepETag
1070
     1
1071
       50
1005
15C69
  0
LINE
  5
15C6A
330
13E17
100
AcDbEntity
  8
图框
370
    -3
100
AcDbLine
 10
854.0454927516588
 20
675.5347692601515
 30
0.0
 11
854.0454927516588
 21
685.0161882398658
 31
0.0
1001
AcDbBlockRepETag
1070
     1
1071
       51
1005
15C6A
  0
LINE
  5
15C6B
330
13E17
100
AcDbEntity
  8
图框
370
    -3
100
AcDbLine
 10
861.5351874539182
 20
675.5347692601515
 30
0.0
 11
861.5351874539182
 21
686.7901958362482
 31
0.0
1001
AcDbBlockRepETag
1070
     1
1071
       52
1005
15C6B
  0
MTEXT
  5
15C6C
330
13E17
100
AcDbEntity
  8
图框
 62
     6
100
AcDbMText
 10
1105.329704038389
 20
678.859919059449
 30
0.0
 40
2.651776162684904
 41
2.557913877927211
 46
0.0
 71
     1
 72
     5
  1
6
  7
Romans字体
 73
     1
 44
1.0
1001
AcDbBlockRepETag
1070
     1
1071
       53
1005
15C6C
  0
LINE
  5
15C6D
330
13E17
100
AcDbEntity
  8
图框
 62
     6
100
AcDbLine
 10
1081.088565155284
 20
679.0347692601516
 30
0.0
 11
1081.088565155284
 21
675.5347692601515
 31
0.0
1001
AcDbBlockRepETag
1070
     1
1071
       54
1005
15C6D
  0
MTEXT
  5
15C6E
330
13E17
100
AcDbEntity
  8
图框
 62
     6
100
AcDbMText
 10
1055.900596365941
 20
678.859919059449
 30
0.0
 40
2.651776162684904
 41
2.557913877927211
 46
0.0
 71
     1
 72
     5
  1
5
  7
Romans字体
 73
     1
 44
1.0
1001
AcDbBlockRepETag
1070
     1
1071
       55
1005
15C6E
  0
LINE
  5
15C6F
330
13E17
100
AcDbEntity
  8
图框
 62
     6
100
AcDbLine
 10
1031.553386436349
 20
679.0347692601516
 30
0.0
 11
1031.553386436349
 21
675.5347692601515
 31
0.0
1001
AcDbBlockRepETag
1070
     1
1071
       56
1005
15C6F
  0
MTEXT
  5
15C70
330
13E17
100
AcDbEntity
  8
图框
 62
     6
100
AcDbMText
 10
1006.36541764698
 20
678.7312083656147
 30
0.0
 40
2.651776162684904
 41
2.557913877927211
 46
0.0
 71
     1
 72
     5
  1
4
  7
Romans字体
 73
     1
 44
1.0
1001
AcDbBlockRepETag
1070
     1
1071
       57
1005
15C70
  0
LINE
  5
15C71
330
13E17
100
AcDbEntity
  8
图框
 62
     6
100
AcDbLine
 10
982.0182077173887
 20
679.0347692601516
 30
0.0
 11
982.0182077173887
 21
675.5347692601515
 31
0.0
1001
AcDbBlockRepETag
1070
     1
1071
       58
1005
15C71
  0
MTEXT
  5
15C72
330
13E17
100
AcDbEntity
  8
图框
 62
     6
100
AcDbMText
 10
956.8302389280352
 20
678.859919059449
 30
0.0
 40
2.651776162684904
 41
2.557913877927211
 46
0.0
 71
     1
 72
     5
  1
3
  7
Romans字体
 73
     1
 44
1.0
1001
AcDbBlockRepETag
1070
     1
1071
       59
1005
15C72
  0
LINE
  5
15C73
330
13E17
100
AcDbEntity
  8
图框
 62
     6
100
AcDbLine
 10
932.4830289984245
 20
679.0347692601516
 30
0.0
 11
932.4830289984245
 21
675.5347692601515
 31
0.0
1001
AcDbBlockRepETag
1070
     1
1071
       60
1005
15C73
  0
MTEXT
  5
15C74
330
13E17
100
AcDbEntity
  8
图框
 62
     6
100
AcDbMText
 10
907.295060209082
 20
678.859919059449
 30
0.0
 40
2.651776162684904
 41
2.557913877927211
 46
0.0
 71
     1
 72
     5
  1
2
  7
Romans字体
 73
     1
 44
1.0
1001
AcDbBlockRepETag
1070
     1
1071
       61
1005
15C74
  0
LINE
  5
15C75
330
13E17
100
AcDbEntity
  8
图框
 62
     6
100
AcDbLine
 10
882.9478502794648
 20
678.7962435131815
 30
0.0
 11
882.9478502794648
 21
675.5347692601515
 31
0.0
1001
AcDbBlockRepETag
1070
     1
1071
       62
1005
15C75
  0
MTEXT
  5
15C76
330
13E17
100
AcDbEntity
  8
图框
 62
     6
100
AcDbMText
 10
862.6286629643733
 20
678.859919059449
 30
0.0
 40
2.651776162684904
 41
2.557913877927211
 46
0.0
 71
     1
 72
     5
  1
1
  7
Romans字体
 73
     1
 44
1.0
1001
AcDbBlockRepETag
1070
     1
1071
       63
1005
15C76
  0
LINE
  5
15C77
330
13E17
100
AcDbEntity
  8
图框
370
    -3
100
AcDbLine
 10
836.9128518455394
 20
675.0207195125422
 30
0.0
 11
836.9128518455394
 21
686.7901958362482
 31
0.0
1001
AcDbBlockRepETag
1070
     1
1071
       64
1005
15C77
  0
LINE
  5
15C78
330
13E17
100
AcDbEntity
  8
图框
370
    50
100
AcDbLine
 10
836.9128518455394
 20
675.5347692601515
 30
0.0
 11
1126.928502610363
 21
675.5347692601515
 31
0.0
1001
AcDbBlockRepETag
1070
     1
1071
       65
1005
15C78
  0
LINE
  5
15C79
330
13E17
100
AcDbEntity
  8
图框
370
    -3
100
AcDbLine
 10
842.6237321475781
 20
675.5347692601515
 30
0.0
 11
842.6237321475781
 21
686.7901958362482
 31
0.0
1001
AcDbBlockRepETag
1070
     1
1071
       66
1005
15C79
  0
LINE
  5
15C7A
330
13E17
100
AcDbEntity
  8
图框
370
    -3
100
AcDbLine
 10
848.3346124496179
 20
675.5347692601515
 30
0.0
 11
848.3346124496179
 21
686.7901958362482
 31
0.0
1001
AcDbBlockRepETag
1070
     1
1071
       67
1005
15C7A
  0
MTEXT
  5
15C7B
102
{ACAD_XDICTIONARY
360
15CFF
102
}
330
13E17
100
AcDbEntity
  8
图框
100
AcDbMText
 10
857.7903401027889
 20
686.7901958362482
 30
0.0
 40
1.958998408821398
 41
11.25542657609672
 46
7.489694702258906
 71
     4
 72
     5
  1
\pi2.8203;档案员{\H0.7x;\P\pi1.4159;\Fromans|c134;Filing Clerk\fFangSong_GB2312|b0|i0|c134|p49; }
 11
-0.0000000000000002
 21
-1.0
 31
0.0
 73
     1
 44
1.0
1001
AcDbBlockRepETag
1070
     1
1071
       68
1005
15C7B
1001
ACAD
1000
ACAD_MTEXT_DEFINED_HEIGHT_BEGIN
1070
    46
1040
7.489694702258906
1000
ACAD_MTEXT_DEFINED_HEIGHT_END
  0
MTEXT
  5
15C7C
102
{ACAD_XDICTIONARY
360
15D01
102
}
330
13E17
100
AcDbEntity
  8
图框
100
AcDbMText
 10
845.479172298598
 20
686.7901958362482
 30
0.0
 40
1.958998408821398
 41
11.25542657609672
 46
5.710880302039671
 71
     4
 72
     5
  1
\pi0.7115;日期{\Fromans|c134;/Date}
 11
-0.0000000000000002
 21
-1.0
 31
0.0
 73
     1
 44
1.0
1001
AcDbBlockRepETag
1070
     1
1071
       69
1005
15C7C
1001
ACAD
1000
ACAD_MTEXT_DEFINED_HEIGHT_BEGIN
1070
    46
1040
5.710880302039671
1000
ACAD_MTEXT_DEFINED_HEIGHT_END
  0
LINE
  5
15C7D
330
13E17
100
AcDbEntity
  8
图框
370
    -3
100
AcDbLine
 10
854.0454927516588
 20
675.5347692601515
 30
0.0
 11
854.0454927516588
 21
686.7901958362482
 31
0.0
1001
AcDbBlockRepETag
1070
     1
1071
       70
1005
15C7D
  0
LINE
  5
15C7E
330
13E17
100
AcDbEntity
  8
图框
370
    -3
100
AcDbLine
 10
1036.653967466372
 20
531.3291676047914
 30
0.0
 11
1036.653967466372
 21
484.0126019753161
 31
0.0
1001
AcDbBlockRepETag
1070
     1
1071
       71
1005
15C7E
  0
LINE
  5
15C7F
330
13E17
100
AcDbEntity
  8
图框
370
    -3
100
AcDbLine
 10
1047.483315900763
 20
507.6708838011533
 30
0.0
 11
1047.483315900763
 21
491.8986945987308
 31
0.0
1001
AcDbBlockRepETag
1070
     1
1071
       72
1005
15C7F
  0
LINE
  5
15C80
330
13E17
100
AcDbEntity
  8
图框
370
    -3
100
AcDbLine
 10
1058.312664335153
 20
507.6708838011533
 30
0.0
 11
1058.312664335153
 21
484.0347692601515
 31
0.0
1001
AcDbBlockRepETag
1070
     1
1071
       73
1005
15C80
  0
LINE
  5
15C81
330
13E17
100
AcDbEntity
  8
图框
370
    25
100
AcDbLine
 10
1048.474135214456
 20
488.1095628329926
 30
0.0
 11
1054.946420288459
 21
488.1095628329926
 31
0.0
1001
AcDbBlockRepETag
1070
     1
1071
       74
1005
15C81
  0
LINE
  5
15C82
330
13E17
100
AcDbEntity
  8
图框
370
    25
100
AcDbLine
 10
1054.232527365989
 20
487.0761716842634
 30
0.0
 11
1049.156490914508
 21
486.4576273751
 31
0.0
1001
AcDbBlockRepETag
1070
     1
1071
       75
1005
15C82
  0
LINE
  5
15C83
330
13E17
100
AcDbEntity
  8
图框
370
    25
100
AcDbLine
 10
1054.232527365989
 20
489.1429539817209
 30
0.0
 11
1049.156490914508
 21
489.7614982908846
 31
0.0
1001
AcDbBlockRepETag
1070
     1
1071
       76
1005
15C83
  0
LINE
  5
15C84
330
13E17
100
AcDbEntity
  8
图框
370
    25
100
AcDbLine
 10
1049.156490914508
 20
489.7614982908846
 30
0.0
 11
1049.156490914508
 21
486.4576273751
 31
0.0
1001
AcDbBlockRepETag
1070
     1
1071
       77
1005
15C84
  0
LINE
  5
15C85
330
13E17
100
AcDbEntity
  8
图框
370
    25
100
AcDbLine
 10
1054.232527365989
 20
489.1429539817209
 30
0.0
 11
1054.232527365989
 21
487.0761716842634
 31
0.0
1001
AcDbBlockRepETag
1070
     1
1071
       78
1005
15C85
  0
CIRCLE
  5
15C86
330
13E17
100
AcDbEntity
  8
图框
370
    25
100
AcDbCircle
 10
1042.502700458579
 20
488.1095628329926
 30
0.0
 40
1.651935457891863
1001
AcDbBlockRepETag
1070
     1
1071
       79
1005
15C86
  0
CIRCLE
  5
15C87
330
13E17
100
AcDbEntity
  8
图框
370
    25
100
AcDbCircle
 10
1042.502700458579
 20
488.1095628329926
 30
0.0
 40
1.033391148728775
1001
AcDbBlockRepETag
1070
     1
1071
       80
1005
15C87
  0
LINE
  5
15C88
330
13E17
100
AcDbEntity
  8
图框
370
    25
100
AcDbLine
 10
1040.136872078216
 20
488.1095628329926
 30
0.0
 11
1044.868528838943
 21
488.1095628329926
 31
0.0
1001
AcDbBlockRepETag
1070
     1
1071
       81
1005
15C88
  0
LINE
  5
15C89
330
13E17
100
AcDbEntity
  8
图框
370
    25
100
AcDbLine
 10
1042.502700458579
 20
490.475391213355
 30
0.0
 11
1042.502700458579
 21
485.743734452629
 31
0.0
1001
AcDbBlockRepETag
1070
     1
1071
       82
1005
15C89
  0
LINE
  5
15C8A
330
13E17
100
AcDbEntity
  8
图框
370
    -3
100
AcDbLine
 10
1069.142012769546
 20
507.6708838011533
 30
0.0
 11
1069.142012769546
 21
491.8986945987308
 31
0.0
1001
AcDbBlockRepETag
1070
     1
1071
       83
1005
15C8A
  0
MTEXT
  5
15C8B
330
13E17
100
AcDbEntity
  8
图框
100
AcDbMText
 10
1086.643735910939
 20
526.8006839312707
 30
0.0
 40
2.154898249703542
 41
13.34474941400573
 46
9.056967347041775
 71
     5
 72
     5
  1
图号{\Ftxt|c134;\P\Fromans|c134;\W0.65;Drawing No.}
 73
     1
 44
1.0
1001
AcDbBlockRepETag
1070
     1
1071
       84
1005
15C8B
1001
ACAD
1000
ACAD_MTEXT_DEFINED_HEIGHT_BEGIN
1070
    46
1040
9.056967347041775
1000
ACAD_MTEXT_DEFINED_HEIGHT_END
  0
LINE
  5
15C8C
330
13E17
100
AcDbEntity
  8
图框
370
    -3
100
AcDbLine
 10
1093.316110617942
 20
531.3291676047914
 30
0.0
 11
1093.316110617942
 21
495.8417418993347
 31
0.0
1001
AcDbBlockRepETag
1070
     1
1071
       85
1005
15C8C
  0
LINE
  5
15C8D
330
13E17
100
AcDbEntity
  8
图框
370
    -3
100
AcDbLine
 10
1047.473969770481
 20
531.3291676047914
 30
0.0
 11
1047.473969770481
 21
507.6708838011533
 31
0.0
1001
AcDbBlockRepETag
1070
     1
1071
       86
1005
15C8D
  0
MTEXT
  5
15C8E
330
13E17
100
AcDbEntity
  8
图框
100
AcDbMText
 10
1063.72733855235
 20
503.7278365005473
 30
0.0
 40
2.252848170144607
 41
10.82934843439208
 46
7.886094601212128
 71
     5
 72
     5
  1
重量\P{\Fromans|c134;Weight}
 73
     1
 44
1.0
1001
AcDbBlockRepETag
1070
     1
1071
       87
1005
15C8E
1001
ACAD
1000
ACAD_MTEXT_DEFINED_HEIGHT_BEGIN
1070
    46
1040
7.886094601212128
1000
ACAD_MTEXT_DEFINED_HEIGHT_END
  0
LINE
  5
15C8F
330
13E17
100
AcDbEntity
  8
图框
370
    -3
100
AcDbLine
 10
1036.653967466372
 20
519.5000257029746
 30
0.0
 11
1079.971361203936
 21
519.5000257029746
 31
0.0
1001
AcDbBlockRepETag
1070
     1
1071
       88
1005
15C8F
  0
MTEXT
  5
15C90
330
13E17
100
AcDbEntity
  8
图框
100
AcDbMText
 10
1074.556686986741
 20
503.7278365005473
 30
0.0
 40
2.252848170144607
 41
10.82934843438984
 46
7.886094601212141
 71
     5
 72
     5
  1
数量\P{\Fromans|c134;Qty.}
 73
     1
 44
1.0
1001
AcDbBlockRepETag
1070
     1
1071
       89
1005
15C90
1001
ACAD
1000
ACAD_MTEXT_DEFINED_HEIGHT_BEGIN
1070
    46
1040
7.886094601212141
1000
ACAD_MTEXT_DEFINED_HEIGHT_END
  0
LINE
  5
15C91
330
13E17
100
AcDbEntity
  8
图框
370
    -3
100
AcDbLine
 10
1079.971361203936
 20
495.8417418993347
 30
0.0
 11
1126.928502610363
 21
495.8417418993342
 31
0.0
1001
AcDbBlockRepETag
1070
     1
1071
       90
1005
15C91
  0
LINE
  5
15C92
330
13E17
100
AcDbEntity
  8
图框
370
    -3
100
AcDbLine
 10
1079.971361203936
 20
504.7132992040975
 30
0.0
 11
1126.928502610363
 21
504.7132992040975
 31
0.0
1001
AcDbBlockRepETag
1070
     1
1071
       91
1005
15C92
  0
MTEXT
  5
15C93
330
13E17
100
AcDbEntity
  8
图框
100
AcDbMText
 10
1052.893317052817
 20
503.7278365005473
 30
0.0
 40
2.252848170144607
 41
10.83869456467139
 46
7.886094601212101
 71
     5
 72
     5
  1
版本\P{\Fromans|c134;REV.}
 73
     1
 44
1.0
1001
AcDbBlockRepETag
1070
     1
1071
       92
1005
15C93
1001
ACAD
1000
ACAD_MTEXT_DEFINED_HEIGHT_BEGIN
1070
    46
1040
7.886094601212101
1000
ACAD_MTEXT_DEFINED_HEIGHT_END
  0
MTEXT
  5
15C94
330
13E17
100
AcDbEntity
  8
图框
100
AcDbMText
 10
1042.068641683568
 20
503.7278365005473
 30
0.0
 40
2.252848170144607
 41
10.8293484343908
 46
7.886094601212136
 71
     5
 72
     5
  1
比例\P{\Fromans|c134;Scale}
 73
     1
 44
1.0
1001
AcDbBlockRepETag
1070
     1
1071
       93
1005
15C94
1001
ACAD
1000
ACAD_MTEXT_DEFINED_HEIGHT_BEGIN
1070
    46
1040
7.886094601212136
1000
ACAD_MTEXT_DEFINED_HEIGHT_END
  0
LINE
  5
15C95
330
13E17
100
AcDbEntity
  8
图框
370
    -3
100
AcDbLine
 10
1036.653967466372
 20
507.6708838011533
 30
0.0
 11
1079.971361203936
 21
507.6708838011533
 31
0.0
1001
AcDbBlockRepETag
1070
     1
1071
       94
1005
15C95
  0
LINE
  5
15C96
330
13E17
100
AcDbEntity
  8
图框
370
    -3
100
AcDbLine
 10
1036.653967466372
 20
491.8986945987308
 30
0.0
 11
1079.971361203936
 21
491.8986945987308
 31
0.0
1001
AcDbBlockRepETag
1070
     1
1071
       95
1005
15C96
  0
LINE
  5
15C97
330
13E17
100
AcDbEntity
  8
图框
370
    -3
100
AcDbLine
 10
1079.971361203936
 20
531.3291676047914
 30
0.0
 11
1079.971361203936
 21
484.0125999975168
 31
0.0
1001
AcDbBlockRepETag
1070
     1
1071
       96
1005
15C97
  0
MTEXT
  5
15C98
330
13E17
100
AcDbEntity
  8
图框
100
AcDbMText
 10
1042.063968618426
 20
525.4145966538832
 30
0.0
 40
2.252848170144607
 41
10.82000230410933
 46
11.82914190181708
 71
     5
 72
     5
  1
表面处理\P{\Fromans|c134;Finish}
 73
     1
 44
1.0
1001
AcDbBlockRepETag
1070
     1
1071
       97
1005
15C98
1001
ACAD
1000
ACAD_MTEXT_DEFINED_HEIGHT_BEGIN
1070
    46
1040
11.82914190181708
1000
ACAD_MTEXT_DEFINED_HEIGHT_END
  0
MTEXT
  5
15C99
330
13E17
100
AcDbEntity
  8
图框
100
AcDbMText
 10
1042.063968618426
 20
513.5854547520639
 30
0.0
 40
2.252848170144607
 41
10.82000230410933
 46
11.8291419018212
 71
     5
 72
     5
  1
材料\P{\Fromans|c134;Material}
 73
     1
 44
1.0
1001
AcDbBlockRepETag
1070
     1
1071
       98
1005
15C99
1001
ACAD
1000
ACAD_MTEXT_DEFINED_HEIGHT_BEGIN
1070
    46
1040
11.8291419018212
1000
ACAD_MTEXT_DEFINED_HEIGHT_END
  0
LINE
  5
15C9A
330
13E17
100
AcDbEntity
  8
图框
370
    -3
100
AcDbLine
 10
1079.971361203936
 20
522.27220025775
 30
0.0
 11
1126.928502610363
 21
522.27220025775
 31
0.0
1001
AcDbBlockRepETag
1070
     1
1071
       99
1005
15C9A
  0
LINE
  5
15C9B
330
13E17
100
AcDbEntity
  8
图框
370
    -3
100
AcDbLine
 10
1079.971361203936
 20
513.5854547520641
 30
0.0
 11
1126.928502610363
 21
513.5854547520639
 31
0.0
1001
AcDbBlockRepETag
1070
     1
1071
      100
1005
15C9B
  0
MTEXT
  5
15C9C
330
13E17
100
AcDbEntity
  8
图框
100
AcDbMText
 10
1086.643735910939
 20
517.9288275049072
 30
0.0
 40
1.958998408821398
 41
13.34474941400573
 46
8.686745505685811
 71
     5
 72
     5
  1
产品代号\P{\Fromans|c134;Part Code}
 73
     1
 44
1.0
1001
AcDbBlockRepETag
1070
     1
1071
      101
1005
15C9C
1001
ACAD
1000
ACAD_MTEXT_DEFINED_HEIGHT_BEGIN
1070
    46
1040
8.686745505685811
1000
ACAD_MTEXT_DEFINED_HEIGHT_END
  0
LINE
  5
15C9D
330
13E17
100
AcDbEntity
  8
图框
370
    -3
100
AcDbLine
 10
946.9285026103634
 20
525.7982263931411
 30
0.0
 11
1036.653967466372
 21
525.7982263931411
 31
0.0
1001
AcDbBlockRepETag
1070
     1
1071
      102
1005
15C9D
  0
LINE
  5
15C9E
330
13E17
100
AcDbEntity
  8
图框
370
    -3
100
AcDbLine
 10
946.9285026103634
 20
520.2672851814959
 30
0.0
 11
1036.653967466372
 21
520.2672851814959
 31
0.0
1001
AcDbBlockRepETag
1070
     1
1071
      103
1005
15C9E
  0
LINE
  5
15C9F
330
13E17
100
AcDbEntity
  8
图框
370
    35
100
AcDbLine
 10
946.9285026103634
 20
531.3291676047914
 30
0.0
 11
1126.928502610363
 21
531.3291676047914
 31
0.0
1001
AcDbBlockRepETag
1070
     1
1071
      104
1005
15C9F
  0
LINE
  5
15CA0
330
13E17
100
AcDbEntity
  8
图框
370
    -3
100
AcDbLine
 10
990.6727612856927
 20
509.2054027581959
 30
0.0
 11
990.6727612856927
 21
484.0347692601515
 31
0.0
1001
AcDbBlockRepETag
1070
     1
1071
      105
1005
15CA0
  0
MTEXT
  5
15CA1
102
{ACAD_XDICTIONARY
360
15D03
102
}
330
13E17
100
AcDbEntity
  8
图框
100
AcDbMText
 10
997.1628169651232
 20
499.816589978722
 30
0.0
 40
2.252848170144607
 41
12.98011135886052
 46
6.19230880992475
 71
     5
 72
     5
  1
{\fSimSun|b0|i0|c134|p2;标准化}\PStand.
  7
Romans字体
 73
     1
 44
1.0
1001
AcDbBlockRepETag
1070
     1
1071
      106
1005
15CA1
1001
ACAD
1000
ACAD_MTEXT_DEFINED_HEIGHT_BEGIN
1070
    46
1040
6.19230880992475
1000
ACAD_MTEXT_DEFINED_HEIGHT_END
  0
LINE
  5
15CA2
330
13E17
100
AcDbEntity
  8
图框
370
    -3
100
AcDbLine
 10
975.4103773808022
 20
509.2054027581959
 30
0.0
 11
975.4103773808022
 21
484.0347692601515
 31
0.0
1001
AcDbBlockRepETag
1070
     1
1071
      107
1005
15CA2
  0
MTEXT
  5
15CA3
330
13E17
100
AcDbEntity
  8
图框
100
AcDbMText
 10
984.5089229802068
 20
511.9708733640202
 30
0.0
 40
2.448748011026752
 41
38.287899328693
 46
5.530941211648832
 71
     5
 72
     5
  1
  变更描述{\Fromans|c134;/Description}
 73
     1
 44
1.0
1001
AcDbBlockRepETag
1070
     1
1071
      108
1005
15CA3
1001
ACAD
1000
ACAD_MTEXT_DEFINED_HEIGHT_BEGIN
1070
    46
1040
5.530941211648832
1000
ACAD_MTEXT_DEFINED_HEIGHT_END
  0
MTEXT
  5
15CA4
102
{ACAD_XDICTIONARY
360
15D05
102
}
330
13E17
100
AcDbEntity
  8
图框
100
AcDbMText
 10
1012.477254728976
 20
511.9708733640202
 30
0.0
 40
1.958998408821398
 41
17.64876416884548
 46
5.530941211649166
 71
     5
 72
     5
  1
签名\P{\Fromans|c134;Signature} 
 73
     1
 44
1.0
1001
AcDbBlockRepETag
1070
     1
1071
      109
1005
15CA4
1001
ACAD
1000
ACAD_MTEXT_DEFINED_HEIGHT_BEGIN
1070
    46
1040
5.530941211649166
1000
ACAD_MTEXT_DEFINED_HEIGHT_END
  0
MTEXT
  5
15CA5
102
{ACAD_XDICTIONARY
360
15D07
102
}
330
13E17
100
AcDbEntity
  8
图框
100
AcDbMText
 10
960.7558556394856
 20
511.9708733640202
 30
0.0
 40
1.958998408821398
 41
9.218235352749283
 46
5.530941211648841
 71
     5
 72
     5
  1
处数\P{\Fromans|c134;Number }
 73
     1
 44
1.0
1001
AcDbBlockRepETag
1070
     1
1071
      110
1005
15CA5
1001
ACAD
1000
ACAD_MTEXT_DEFINED_HEIGHT_BEGIN
1070
    46
1040
5.530941211648841
1000
ACAD_MTEXT_DEFINED_HEIGHT_END
  0
LINE
  5
15CA6
330
13E17
100
AcDbEntity
  8
图框
370
    -3
100
AcDbLine
 10
946.9285026103634
 20
514.7363439698449
 30
0.0
 11
1036.653967466372
 21
514.7363439698449
 31
0.0
1001
AcDbBlockRepETag
1070
     1
1071
      111
1005
15CA6
  0
LINE
  5
15CA7
330
13E17
100
AcDbEntity
  8
图框
370
    -3
100
AcDbLine
 10
946.9285026103634
 20
509.2054027581959
 30
0.0
 11
1036.653967466372
 21
509.2054027581959
 31
0.0
1001
AcDbBlockRepETag
1070
     1
1071
      112
1005
15CA7
  0
LINE
  5
15CA8
330
13E17
100
AcDbEntity
  8
图框
370
    -3
100
AcDbLine
 10
946.9285026103634
 20
502.9127443836848
 30
0.0
 11
1036.653967466372
 21
502.9127443836848
 31
0.0
1001
AcDbBlockRepETag
1070
     1
1071
      113
1005
15CA8
  0
LINE
  5
15CA9
330
13E17
100
AcDbEntity
  8
图框
370
    -3
100
AcDbLine
 10
946.9285026103634
 20
496.620086009173
 30
0.0
 11
1036.653967466372
 21
496.620086009173
 31
0.0
1001
AcDbBlockRepETag
1070
     1
1071
      114
1005
15CA9
  0
LINE
  5
15CAA
330
13E17
100
AcDbEntity
  8
图框
370
    35
380
     1
100
AcDbLine
 10
946.9285026103634
 20
531.3291676047914
 30
0.0
 11
946.9285026103634
 21
484.0347692601515
 31
0.0
1001
AcDbBlockRepETag
1070
     1
1071
      115
1005
15CAA
  0
LINE
  5
15CAB
330
13E17
100
AcDbEntity
  8
图框
370
    -3
100
AcDbLine
 10
1021.301636813399
 20
531.3291676047914
 30
0.0
 11
1021.301636813399
 21
484.0347692601515
 31
0.0
1001
AcDbBlockRepETag
1070
     1
1071
      116
1005
15CAB
  0
LINE
  5
15CAC
330
13E17
100
AcDbEntity
  8
图框
370
    -3
100
AcDbLine
 10
1003.652872644553
 20
531.3291676047914
 30
0.0
 11
1003.652872644553
 21
484.0347692601515
 31
0.0
1001
AcDbBlockRepETag
1070
     1
1071
      117
1005
15CAC
  0
LINE
  5
15CAD
330
13E17
100
AcDbEntity
  8
图框
370
    -3
100
AcDbLine
 10
965.3649733158603
 20
531.3291676047914
 30
0.0
 11
965.3649733158603
 21
509.2054027581959
 31
0.0
1001
AcDbBlockRepETag
1070
     1
1071
      118
1005
15CAD
  0
LINE
  5
15CAE
330
13E17
100
AcDbEntity
  8
图框
370
    -3
100
AcDbLine
 10
956.1467379631109
 20
531.3291676047914
 30
0.0
 11
956.1467379631109
 21
509.2054027581959
 31
0.0
1001
AcDbBlockRepETag
1070
     1
1071
      119
1005
15CAE
  0
MTEXT
  5
15CAF
102
{ACAD_XDICTIONARY
360
15D09
102
}
330
13E17
100
AcDbEntity
  8
图框
100
AcDbMText
 10
951.537620286737
 20
511.9708733640202
 30
0.0
 40
1.958998408821398
 41
9.218235352747692
 46
5.530941211648832
 71
     5
 72
     5
  1
标记\P{\Fromans|c134;Mark}
 73
     1
 44
1.0
1001
AcDbBlockRepETag
1070
     1
1071
      120
1005
15CAF
1001
ACAD
1000
ACAD_MTEXT_DEFINED_HEIGHT_BEGIN
1070
    46
1040
5.530941211648832
1000
ACAD_MTEXT_DEFINED_HEIGHT_END
  0
MTEXT
  5
15CB0
102
{ACAD_XDICTIONARY
360
15D0B
102
}
330
13E17
100
AcDbEntity
  8
图框
100
AcDbMText
 10
953.4185582897936
 20
493.4737568219182
 30
0.0
 40
2.252848170144607
 41
12.98011135886041
 46
6.292658374510382
 71
     5
 72
     5
  1
审核\P{\Fromans|c134;Checked}
 73
     1
 44
1.0
1001
AcDbBlockRepETag
1070
     1
1071
      121
1005
15CB0
1001
ACAD
1000
ACAD_MTEXT_DEFINED_HEIGHT_BEGIN
1070
    46
1040
6.292658374510382
1000
ACAD_MTEXT_DEFINED_HEIGHT_END
  0
MTEXT
  5
15CB1
102
{ACAD_XDICTIONARY
360
15D0D
102
}
330
13E17
100
AcDbEntity
  8
图框
100
AcDbMText
 10
953.4185582897936
 20
499.8775635376777
 30
0.0
 40
2.252848170144607
 41
12.98011135886041
 46
6.070361692014189
 71
     5
 72
     5
  1
绘图\P{\Fromans|c134;Drawn\Ftxt|c134; }
 73
     1
 44
1.0
1001
AcDbBlockRepETag
1070
     1
1071
      122
1005
15CB1
1001
ACAD
1000
ACAD_MTEXT_DEFINED_HEIGHT_BEGIN
1070
    46
1040
6.070361692014189
1000
ACAD_MTEXT_DEFINED_HEIGHT_END
  0
ARC
  5
15CB2
330
13E17
100
AcDbEntity
  8
图框
 62
     4
370
    35
100
AcDbCircle
 10
1086.900627017421
 20
490.0179944151195
 30
0.0
 40
4.063310408393665
100
AcDbArc
 50
18.95237904564806
 51
161.0476209543519
1001
AcDbBlockRepETag
1070
     1
1071
      123
1005
15CB2
  0
ARC
  5
15CB3
330
13E17
100
AcDbEntity
  8
图框
 62
     4
370
    35
100
AcDbCircle
 10
1086.900627017421
 20
490.0179944151195
 30
0.0
 40
4.063310408393665
100
AcDbArc
 50
198.952379045648
 51
341.0476209543519
1001
AcDbBlockRepETag
1070
     1
1071
      124
1005
15CB3
  0
LINE
  5
15CB4
330
13E17
100
AcDbEntity
  8
图框
 62
     4
370
    35
100
AcDbLine
 10
1083.057593369548
 20
488.6983035966752
 30
0.0
 11
1090.74366066529
 21
488.6983035966752
 31
0.0
1001
AcDbBlockRepETag
1070
     1
1071
      125
1005
15CB4
  0
LINE
  5
15CB5
330
13E17
100
AcDbEntity
  8
图框
 62
     4
370
    35
100
AcDbLine
 10
1083.057593369548
 20
491.3376852335652
 30
0.0
 11
1090.74366066529
 21
491.3376852335652
 31
0.0
1001
AcDbBlockRepETag
1070
     1
1071
      126
1005
15CB5
  0
MTEXT
  5
15CB6
330
13E17
100
AcDbEntity
  8
图框
 62
     1
370
    20
100
AcDbMText
 10
1083.034582879669
 20
491.0506288081688
 30
0.0
 40
2.005930044038334
 41
5.047240019334847
 46
0.0
 71
     1
 72
     5
  1
{\fArial|b0|i0|c0|p34;W}
  7
Chinese
 73
     1
 44
1.0
1001
AcDbBlockRepETag
1070
     1
1071
      127
1005
15CB6
  0
LINE
  5
15CB7
330
13E17
100
AcDbEntity
  8
图框
370
    -3
100
AcDbLine
 10
946.9285026103634
 20
490.327427634663
 30
0.0
 11
1036.653967466372
 21
490.327427634663
 31
0.0
1001
AcDbBlockRepETag
1070
     1
1071
      128
1005
15CB7
  0
LINE
  5
15CB8
330
13E17
100
AcDbEntity
  8
图框
370
    -3
100
AcDbLine
 10
959.9086139692238
 20
509.2054027581959
 30
0.0
 11
959.9086139692238
 21
484.0347692601515
 31
0.0
1001
AcDbBlockRepETag
1070
     1
1071
      129
1005
15CB8
  0
MTEXT
  5
15CB9
330
13E17
100
AcDbEntity
  8
图框
100
AcDbMText
 10
967.6594956750129
 20
506.0590735709403
 30
0.0
 40
2.252848170144607
 41
15.50176341157869
 46
6.292658374511246
 71
     5
 72
     5
  1
姓名{\Fromans|c134;/Name\Ftxt|c134; }
 73
     1
 44
1.0
1001
AcDbBlockRepETag
1070
     1
1071
      130
1005
15CB9
1001
ACAD
1000
ACAD_MTEXT_DEFINED_HEIGHT_BEGIN
1070
    46
1040
6.292658374511246
1000
ACAD_MTEXT_DEFINED_HEIGHT_END
  0
MTEXT
  5
15CBA
330
13E17
100
AcDbEntity
  8
图框
100
AcDbMText
 10
983.0415693332477
 20
506.0590735709403
 30
0.0
 40
2.252848170144607
 41
15.26238390489042
 46
6.2926583745112
 71
     5
 72
     5
  1
日期{\Fromans|c134;/Date}
 73
     1
 44
1.0
1001
AcDbBlockRepETag
1070
     1
1071
      131
1005
15CBA
1001
ACAD
1000
ACAD_MTEXT_DEFINED_HEIGHT_BEGIN
1070
    46
1040
6.2926583745112
1000
ACAD_MTEXT_DEFINED_HEIGHT_END
  0
LINE
  5
15CBB
330
13E17
100
AcDbEntity
  8
图框
370
    -3
100
AcDbLine
 10
946.9285026103634
 20
509.2054027581959
 30
0.0
 11
959.9086139692238
 21
502.9127443836848
 31
0.0
1001
AcDbBlockRepETag
1070
     1
1071
      132
1005
15CBB
  0
MTEXT
  5
15CBC
330
13E17
100
AcDbEntity
  8
图框
100
AcDbMText
 10
1012.931405110086
 20
506.0185715840725
 30
0.0
 40
2.252848170144607
 41
16.93492221063566
 46
0.0
 71
     5
 72
     5
  1
姓名{\Fromans|c134;/Name}
 73
     1
 44
1.0
1001
AcDbBlockRepETag
1070
     1
1071
      133
1005
15CBC
  0
MTEXT
  5
15CBD
330
13E17
100
AcDbEntity
  8
图框
100
AcDbMText
 10
1028.977802139886
 20
506.0590735709403
 30
0.0
 40
2.252848170144607
 41
15.35233065297283
 46
6.292658374511256
 71
     5
 72
     5
  1
日期{\Fromans|c134;/Date}
 73
     1
 44
1.0
1001
AcDbBlockRepETag
1070
     1
1071
      134
1005
15CBD
1001
ACAD
1000
ACAD_MTEXT_DEFINED_HEIGHT_BEGIN
1070
    46
1040
6.292658374511256
1000
ACAD_MTEXT_DEFINED_HEIGHT_END
  0
LINE
  5
15CBE
330
13E17
100
AcDbEntity
  8
图框
370
    -3
100
AcDbLine
 10
1003.652872644553
 20
502.9127443836848
 30
0.0
 11
990.6727612856927
 21
509.2054027581959
 31
0.0
1001
AcDbBlockRepETag
1070
     1
1071
      135
1005
15CBE
  0
MTEXT
  5
15CBF
102
{ACAD_XDICTIONARY
360
15D0F
102
}
330
13E17
100
AcDbEntity
  8
图框
100
AcDbMText
 10
997.1628169651232
 20
487.1810984474071
 30
0.0
 40
2.252848170144607
 41
12.98011135886052
 46
6.292658374511517
 71
     5
 72
     5
  1
批准\P{\Fromans|c134;Approved}
 73
     1
 44
1.0
1001
AcDbBlockRepETag
1070
     1
1071
      136
1005
15CBF
1001
ACAD
1000
ACAD_MTEXT_DEFINED_HEIGHT_BEGIN
1070
    46
1040
6.292658374511517
1000
ACAD_MTEXT_DEFINED_HEIGHT_END
  0
MTEXT
  5
15CC0
102
{ACAD_XDICTIONARY
360
15D11
102
}
330
13E17
100
AcDbEntity
  8
图框
100
AcDbMText
 10
953.4185582897936
 20
487.1810984474071
 30
0.0
 40
2.252848170144607
 41
12.98011135886041
 46
6.292658374511495
 71
     5
 72
     5
  1
工艺\P{\Fromans|c134;Process}
 73
     1
 44
1.0
1001
AcDbBlockRepETag
1070
     1
1071
      137
1005
15CC0
1001
ACAD
1000
ACAD_MTEXT_DEFINED_HEIGHT_BEGIN
1070
    46
1040
6.292658374511495
1000
ACAD_MTEXT_DEFINED_HEIGHT_END
  0
MTEXT
  5
15CC1
102
{ACAD_XDICTIONARY
360
15D13
102
}
330
13E17
100
AcDbEntity
  8
图框
100
AcDbMText
 10
1028.977802139886
 20
511.9708733640202
 30
0.0
 40
1.958998408821398
 41
15.35233065297235
 46
5.530941211648912
 71
     5
 72
     5
  1
日期\P{\Fromans|c134;Date}
 73
     1
 44
1.0
1001
AcDbBlockRepETag
1070
     1
1071
      138
1005
15CC1
1001
ACAD
1000
ACAD_MTEXT_DEFINED_HEIGHT_BEGIN
1070
    46
1040
5.530941211648912
1000
ACAD_MTEXT_DEFINED_HEIGHT_END
  0
MTEXT
  5
15CC2
330
13E17
100
AcDbEntity
  8
图框
100
AcDbMText
 10
1086.643735910939
 20
509.1493769780809
 30
0.0
 40
2.154898249703542
 41
13.34474941400573
 46
8.87215554796615
 71
     5
 72
     5
  1
产品料号\P{\Fromans|c134;Part No.}
 73
     1
 44
1.0
1001
AcDbBlockRepETag
1070
     1
1071
      139
1005
15CC2
1001
ACAD
1000
ACAD_MTEXT_DEFINED_HEIGHT_BEGIN
1070
    46
1040
8.87215554796615
1000
ACAD_MTEXT_DEFINED_HEIGHT_END
  0
MTEXT
  5
15CC3
330
13E17
100
AcDbEntity
  8
图框
100
AcDbMText
 10
1086.643735910939
 20
500.2775205517163
 30
0.0
 40
1.958998408821398
 41
13.34474941400573
 46
8.871557304763321
 71
     5
 72
     5
  1
产品名称\P{\Fromans|c134;Part Name}
 73
     1
 44
1.0
1001
AcDbBlockRepETag
1070
     1
1071
      140
1005
15CC3
1001
ACAD
1000
ACAD_MTEXT_DEFINED_HEIGHT_BEGIN
1070
    46
1040
8.871557304763321
1000
ACAD_MTEXT_DEFINED_HEIGHT_END
  0
LINE
  5
15CC4
330
13E17
100
AcDbEntity
  8
图框
 62
     1
370
    18
100
AcDbLine
 10
833.4128518455365
 20
690.5347692601515
 30
0.0
 11
833.4128518455365
 21
480.5347692601515
 31
0.0
1001
AcDbBlockRepETag
1070
     1
1071
      141
1005
15CC4
  0
LINE
  5
15CC5
330
13E17
100
AcDbEntity
  8
图框
 62
     1
370
    18
100
AcDbLine
 10
833.4128518455365
 20
480.5347692601515
 30
0.0
 11
1130.411601781236
 21
480.5347692601515
 31
0.0
1001
AcDbBlockRepETag
1070
     1
1071
      142
1005
15CC5
  0
LINE
  5
15CC6
330
13E17
100
AcDbEntity
  8
图框
 62
     1
370
    18
100
AcDbLine
 10
833.4128518455365
 20
690.5347692601515
 30
0.0
 11
1130.411601781236
 21
690.5347692601515
 31
0.0
1001
AcDbBlockRepETag
1070
     1
1071
      143
1005
15CC6
  0
LINE
  5
15CC7
330
13E17
100
AcDbEntity
  8
图框
 62
     1
370
    18
100
AcDbLine
 10
1130.411601781236
 20
480.5347692601515
 30
0.0
 11
1130.411601781236
 21
690.5347692601515
 31
0.0
1001
AcDbBlockRepETag
1070
     1
1071
      144
1005
15CC7
  0
LINE
  5
15CC8
330
13E17
100
AcDbEntity
  8
图框
370
    18
100
AcDbLine
 10
836.9128518455394
 20
686.7901958362482
 30
0.0
 11
861.5351874539182
 21
686.7901958362482
 31
0.0
1001
AcDbBlockRepETag
1070
     1
1071
      145
1005
15CC8
  0
LINE
  5
15CC9
330
13E17
100
AcDbEntity
  8
图框
370
    50
100
AcDbLine
 10
1126.928502610363
 20
484.3410054693078
 30
0.0
 11
1126.928502610363
 21
675.5347692601515
 31
0.0
1001
AcDbBlockRepETag
1070
     1
1071
      146
1005
15CC9
  0
MTEXT
  5
15CCA
330
13E17
100
AcDbEntity
  8
图框
 62
     3
100
AcDbMText
 10
1052.897990117958
 20
495.8417418993364
 30
0.0
 40
2.985513575034151
 41
10.82934843439114
 46
7.886094601211307
 71
     5
 72
     5
  1
V1.1
  7
Romans字体
 73
     1
 44
1.0
1001
AcDbBlockRepETag
1070
     1
1071
      147
1005
15CCA
1001
ACAD
1000
ACAD_MTEXT_DEFINED_HEIGHT_BEGIN
1070
    46
1040
7.886094601211307
1000
ACAD_MTEXT_DEFINED_HEIGHT_END
  0
LINE
  5
15CCB
330
13E17
100
AcDbEntity
  8
图框
 62
     6
100
AcDbLine
 10
1126.911601781236
 20
531.714049199969
 30
0.0
 11
1130.411601781236
 21
531.714049199969
 31
0.0
1001
AcDbBlockRepETag
1070
     1
1071
      148
1005
15CCB
  0
ENDBLK
  5
13EAE
330
13E17
100
AcDbEntity
  8
0
100
AcDbBlockEnd
  0
BLOCK
  5
1510B
330
1510A
100
AcDbEntity
  8
0
100
AcDbBlockBegin
  2
*D2
 70
     1
 10
0.0
 20
0.0
 30
0.0
  3
*D2
  1

  0
LINE
  5
15ABC
330
1510A
100
AcDbEntity
  8
DIM
 62
     6
370
    -2
100
AcDbLine
 10
357.6018717784533
 20
283.1924390202605
 30
0.0
 11
352.5238631600867
 21
283.1924390202605
 31
0.0
  0
LINE
  5
15ABD
330
1510A
100
AcDbEntity
  8
DIM
 62
     6
370
    -2
100
AcDbLine
 10
361.3518717784534
 20
327.1924390202605
 30
0.0
 11
352.5238631600867
 21
327.1924390202605
 31
0.0
  0
LINE
  5
15ABE
330
1510A
100
AcDbEntity
  8
DIM
 62
     1
370
    -2
100
AcDbLine
 10
353.0238631600868
 20
286.1924390202604
 30
0.0
 11
353.0238631600868
 21
324.1924390202605
 31
0.0
  0
SOLID
  5
15ABF
330
1510A
100
AcDbEntity
  8
DIM
 62
     1
100
AcDbTrace
 10
352.5238631600867
 20
286.1924390202604
 30
0.0
 11
353.5238631600868
 21
286.1924390202604
 31
0.0
 12
353.0238631600868
 22
283.1924390202605
 32
0.0
 13
353.0238631600868
 23
283.1924390202605
 33
0.0
  0
SOLID
  5
15AC0
330
1510A
100
AcDbEntity
  8
DIM
 62
     1
100
AcDbTrace
 10
352.5238631600867
 20
324.1924390202605
 30
0.0
 11
353.5238631600868
 21
324.1924390202605
 31
0.0
 12
353.0238631600868
 22
327.1924390202605
 32
0.0
 13
353.0238631600868
 23
327.1924390202605
 33
0.0
  0
MTEXT
  5
15AC1
330
1510A
100
AcDbEntity
  8
DIM
 62
     4
100
AcDbMText
 10
350.9738631600867
 20
305.1924390202605
 30
0.0
 40
3.5
 41
0.0
 46
0.0
 71
     5
 72
     1
  1
\A1;44
  7
Romans字体
 11
0.0000000000000001
 21
1.0
 31
0.0
 73
     1
 44
1.0
  0
POINT
  5
15AC2
330
1510A
100
AcDbEntity
  8
Defpoints
 62
     0
100
AcDbPoint
 10
357.8018717784534
 20
283.1924390202605
 30
0.0
  0
POINT
  5
15AC3
330
1510A
100
AcDbEntity
  8
Defpoints
 62
     0
100
AcDbPoint
 10
361.5518717784533
 20
327.1924390202605
 30
0.0
  0
POINT
  5
15AC4
330
1510A
100
AcDbEntity
  8
Defpoints
 62
     0
100
AcDbPoint
 10
353.0238631600868
 20
327.1924390202605
 30
0.0
  0
ENDBLK
  5
1510C
330
1510A
100
AcDbEntity
  8
0
100
AcDbBlockEnd
  0
BLOCK
  5
1512F
330
1512E
100
AcDbEntity
  8
0
100
AcDbBlockBegin
  2
*D4
 70
     1
 10
0.0
 20
0.0
 30
0.0
  3
*D4
  1

  0
LINE
  5
15AC5
330
1512E
100
AcDbEntity
  8
DIM
 62
     6
370
    -2
100
AcDbLine
 10
269.7878826955938
 20
282.9924390202604
 30
0.0
 11
269.7878826955938
 21
274.0320265107822
 31
0.0
  0
LINE
  5
15AC6
330
1512E
100
AcDbEntity
  8
DIM
 62
     6
370
    -2
100
AcDbLine
 10
299.7878826955938
 20
282.9924390202604
 30
0.0
 11
299.7878826955938
 21
274.0320265107822
 31
0.0
  0
LINE
  5
15AC7
330
1512E
100
AcDbEntity
  8
DIM
 62
     1
370
    -2
100
AcDbLine
 10
272.7878826955938
 20
274.5320265107823
 30
0.0
 11
296.7878826955938
 21
274.5320265107823
 31
0.0
  0
SOLID
  5
15AC8
330
1512E
100
AcDbEntity
  8
DIM
 62
     1
100
AcDbTrace
 10
272.7878826955938
 20
275.0320265107823
 30
0.0
 11
272.7878826955938
 21
274.0320265107822
 31
0.0
 12
269.7878826955938
 22
274.5320265107823
 32
0.0
 13
269.7878826955938
 23
274.5320265107823
 33
0.0
  0
SOLID
  5
15AC9
330
1512E
100
AcDbEntity
  8
DIM
 62
     1
100
AcDbTrace
 10
296.7878826955938
 20
275.0320265107823
 30
0.0
 11
296.7878826955938
 21
274.0320265107822
 31
0.0
 12
299.7878826955938
 22
274.5320265107823
 32
0.0
 13
299.7878826955938
 23
274.5320265107823
 33
0.0
  0
MTEXT
  5
15ACA
330
1512E
100
AcDbEntity
  8
DIM
 62
     4
100
AcDbMText
 10
284.7878826955938
 20
276.5820265107823
 30
0.0
 40
3.5
 41
0.0
 46
0.0
 71
     5
 72
     1
  1
\A1;%%c30
  7
Romans字体
 73
     1
 44
1.0
  0
POINT
  5
15ACB
330
1512E
100
AcDbEntity
  8
Defpoints
 62
     0
100
AcDbPoint
 10
269.7878826955938
 20
283.1924390202605
 30
0.0
  0
POINT
  5
15ACC
330
1512E
100
AcDbEntity
  8
Defpoints
 62
     0
100
AcDbPoint
 10
299.7878826955938
 20
283.1924390202605
 30
0.0
  0
POINT
  5
15ACD
330
1512E
100
AcDbEntity
  8
Defpoints
 62
     0
100
AcDbPoint
 10
299.7878826955938
 20
274.5320265107823
 30
0.0
  0
ENDBLK
  5
15130
330
1512E
100
AcDbEntity
  8
0
100
AcDbBlockEnd
  0
BLOCK
  5
1513B
330
1513A
100
AcDbEntity
  8
0
100
AcDbBlockBegin
  2
*D5
 70
     1
 10
0.0
 20
0.0
 30
0.0
  3
*D5
  1

  0
LINE
  5
15ACE
330
1513A
100
AcDbEntity
  8
DIM
 62
     6
370
    -2
100
AcDbLine
 10
299.2878826955938
 20
303.3924390202605
 30
0.0
 11
299.2878826955938
 21
304.1744974789274
 31
0.0
  0
LINE
  5
15ACF
330
1513A
100
AcDbEntity
  8
DIM
 62
     6
370
    -2
100
AcDbLine
 10
270.2878826955938
 20
303.3924390202605
 30
0.0
 11
270.2878826955938
 21
304.1744974789274
 31
0.0
  0
LINE
  5
15AD0
330
1513A
100
AcDbEntity
  8
DIM
 62
     1
370
    -2
100
AcDbLine
 10
296.2878826955938
 20
303.6744974789274
 30
0.0
 11
273.2878826955938
 21
303.6744974789274
 31
0.0
  0
SOLID
  5
15AD1
330
1513A
100
AcDbEntity
  8
DIM
 62
     1
100
AcDbTrace
 10
296.2878826955938
 20
304.1744974789274
 30
0.0
 11
296.2878826955938
 21
303.1744974789274
 31
0.0
 12
299.2878826955938
 22
303.6744974789274
 32
0.0
 13
299.2878826955938
 23
303.6744974789274
 33
0.0
  0
SOLID
  5
15AD2
330
1513A
100
AcDbEntity
  8
DIM
 62
     1
100
AcDbTrace
 10
273.2878826955938
 20
304.1744974789274
 30
0.0
 11
273.2878826955938
 21
303.1744974789274
 31
0.0
 12
270.2878826955938
 22
303.6744974789274
 32
0.0
 13
270.2878826955938
 23
303.6744974789274
 33
0.0
  0
MTEXT
  5
15AD3
330
1513A
100
AcDbEntity
  8
DIM
 62
     4
100
AcDbMText
 10
284.7878826955938
 20
305.7244974789274
 30
0.0
 40
3.5
 41
0.0
 46
0.0
 71
     5
 72
     1
  1
\A1;%%C29
  7
Romans字体
 73
     1
 44
1.0
  0
POINT
  5
15AD4
330
1513A
100
AcDbEntity
  8
Defpoints
 62
     0
100
AcDbPoint
 10
299.2878826955938
 20
303.1924390202605
 30
0.0
  0
POINT
  5
15AD5
330
1513A
100
AcDbEntity
  8
Defpoints
 62
     0
100
AcDbPoint
 10
270.2878826955938
 20
303.1924390202605
 30
0.0
  0
POINT
  5
15AD6
330
1513A
100
AcDbEntity
  8
Defpoints
 62
     0
100
AcDbPoint
 10
270.2878826955938
 20
303.6744974789274
 30
0.0
  0
ENDBLK
  5
1513C
330
1513A
100
AcDbEntity
  8
0
100
AcDbBlockEnd
  0
BLOCK
  5
153BE
330
153BD
100
AcDbEntity
  8
0
100
AcDbBlockBegin
  2
*D6
 70
     1
 10
0.0
 20
0.0
 30
0.0
  3
*D6
  1

  0
LINE
  5
15AD7
330
153BD
100
AcDbEntity
  8
DIM
 62
     6
370
    -2
100
AcDbLine
 10
274.7878826955938
 20
374.8924390202605
 30
0.0
 11
274.7878826955938
 21
387.9927428750374
 31
0.0
  0
LINE
  5
15AD8
330
153BD
100
AcDbEntity
  8
DIM
 62
     6
370
    -2
100
AcDbLine
 10
294.7878826955938
 20
374.8924390202605
 30
0.0
 11
294.7878826955938
 21
387.9927428750374
 31
0.0
  0
LINE
  5
15AD9
330
153BD
100
AcDbEntity
  8
DIM
 62
     1
370
    -2
100
AcDbLine
 10
277.7878826955938
 20
387.4927428750374
 30
0.0
 11
291.7878826955938
 21
387.4927428750374
 31
0.0
  0
SOLID
  5
15ADA
330
153BD
100
AcDbEntity
  8
DIM
 62
     1
100
AcDbTrace
 10
277.7878826955938
 20
387.9927428750374
 30
0.0
 11
277.7878826955938
 21
386.9927428750374
 31
0.0
 12
274.7878826955938
 22
387.4927428750374
 32
0.0
 13
274.7878826955938
 23
387.4927428750374
 33
0.0
  0
SOLID
  5
15ADB
330
153BD
100
AcDbEntity
  8
DIM
 62
     1
100
AcDbTrace
 10
291.7878826955938
 20
387.9927428750374
 30
0.0
 11
291.7878826955938
 21
386.9927428750374
 31
0.0
 12
294.7878826955938
 22
387.4927428750374
 32
0.0
 13
294.7878826955938
 23
387.4927428750374
 33
0.0
  0
MTEXT
  5
15ADC
330
153BD
100
AcDbEntity
  8
DIM
 62
     4
100
AcDbMText
 10
284.7878826955944
 20
389.5427428750374
 30
0.0
 40
3.5
 41
0.0
 46
0.0
 71
     5
 72
     1
  1
\A1;%%C20
  7
Romans字体
 73
     1
 44
1.0
  0
POINT
  5
15ADD
330
153BD
100
AcDbEntity
  8
Defpoints
 62
     0
100
AcDbPoint
 10
274.7878826955938
 20
374.6924390202604
 30
0.0
  0
POINT
  5
15ADE
330
153BD
100
AcDbEntity
  8
Defpoints
 62
     0
100
AcDbPoint
 10
294.7878826955938
 20
374.6924390202604
 30
0.0
  0
POINT
  5
15ADF
330
153BD
100
AcDbEntity
  8
Defpoints
 62
     0
100
AcDbPoint
 10
294.7878826955938
 20
387.4927428750374
 30
0.0
  0
ENDBLK
  5
153BF
330
153BD
100
AcDbEntity
  8
0
100
AcDbBlockEnd
  0
BLOCK
  5
15959
330
15958
100
AcDbEntity
  8
0
100
AcDbBlockBegin
  2
*D7
 70
     1
 10
0.0
 20
0.0
 30
0.0
  3
*D7
  1

  0
LINE
  5
15AE0
330
15958
100
AcDbEntity
  8
DIM
 62
     6
370
    -2
100
AcDbLine
 10
291.2001861371576
 20
376.6924390202604
 30
0.0
 11
314.7282781339009
 21
376.6924390202604
 31
0.0
  0
LINE
  5
15AE1
330
15958
100
AcDbEntity
  8
DIM
 62
     6
370
    -2
100
AcDbLine
 10
297.2852694628112
 20
283.1924390202605
 30
0.0
 11
314.7282781339009
 21
283.1924390202605
 31
0.0
  0
LINE
  5
15AE2
330
15958
100
AcDbEntity
  8
DIM
 62
     1
370
    -2
100
AcDbLine
 10
314.2282781339009
 20
373.6924390202605
 30
0.0
 11
314.2282781339009
 21
286.1924390202604
 31
0.0
  0
SOLID
  5
15AE3
330
15958
100
AcDbEntity
  8
DIM
 62
     1
100
AcDbTrace
 10
313.7282781339008
 20
373.6924390202605
 30
0.0
 11
314.7282781339009
 21
373.6924390202605
 31
0.0
 12
314.2282781339009
 22
376.6924390202604
 32
0.0
 13
314.2282781339009
 23
376.6924390202604
 33
0.0
  0
SOLID
  5
15AE4
330
15958
100
AcDbEntity
  8
DIM
 62
     1
100
AcDbTrace
 10
313.7282781339008
 20
286.1924390202604
 30
0.0
 11
314.7282781339009
 21
286.1924390202604
 31
0.0
 12
314.2282781339009
 22
283.1924390202605
 32
0.0
 13
314.2282781339009
 23
283.1924390202605
 33
0.0
  0
MTEXT
  5
15AE5
330
15958
100
AcDbEntity
  8
DIM
 62
     4
100
AcDbMText
 10
312.1782781339008
 20
329.9424390202605
 30
0.0
 40
3.5
 41
0.0
 46
0.0
 71
     5
 72
     1
  1
\A1;93.5
  7
Romans字体
 11
0.0000000000000001
 21
1.0
 31
0.0
 73
     1
 44
1.0
  0
POINT
  5
15AE6
330
15958
100
AcDbEntity
  8
Defpoints
 62
     0
100
AcDbPoint
 10
291.0001861371577
 20
376.6924390202604
 30
0.0
  0
POINT
  5
15AE7
330
15958
100
AcDbEntity
  8
Defpoints
 62
     0
100
AcDbPoint
 10
297.0852694628112
 20
283.1924390202605
 30
0.0
  0
POINT
  5
15AE8
330
15958
100
AcDbEntity
  8
Defpoints
 62
     0
100
AcDbPoint
 10
314.2282781339009
 20
283.1924390202605
 30
0.0
  0
ENDBLK
  5
1595A
330
15958
100
AcDbEntity
  8
0
100
AcDbBlockEnd
  0
BLOCK
  5
159E2
330
159E1
100
AcDbEntity
  8
0
100
AcDbBlockBegin
  2
*D8
 70
     1
 10
0.0
 20
0.0
 30
0.0
  3
*D8
  1

  0
LINE
  5
15AE9
330
159E1
100
AcDbEntity
  8
DIM
 62
     6
370
    -2
100
AcDbLine
 10
361.5518717784533
 20
284.7244898277595
 30
0.0
 11
361.5518717784533
 21
274.0320265107822
 31
0.0
  0
LINE
  5
15AEA
330
159E1
100
AcDbEntity
  8
DIM
 62
     6
370
    -2
100
AcDbLine
 10
384.0518717784533
 20
284.5244898277595
 30
0.0
 11
384.0518717784533
 21
274.0320265107822
 31
0.0
  0
LINE
  5
15AEB
330
159E1
100
AcDbEntity
  8
DIM
 62
     1
370
    -2
100
AcDbLine
 10
364.5518717784534
 20
274.5320265107823
 30
0.0
 11
381.0518717784534
 21
274.5320265107823
 31
0.0
  0
SOLID
  5
15AEC
330
159E1
100
AcDbEntity
  8
DIM
 62
     1
100
AcDbTrace
 10
364.5518717784534
 20
275.0320265107823
 30
0.0
 11
364.5518717784534
 21
274.0320265107822
 31
0.0
 12
361.5518717784533
 22
274.5320265107823
 32
0.0
 13
361.5518717784533
 23
274.5320265107823
 33
0.0
  0
SOLID
  5
15AED
330
159E1
100
AcDbEntity
  8
DIM
 62
     1
100
AcDbTrace
 10
381.0518717784534
 20
275.0320265107823
 30
0.0
 11
381.0518717784534
 21
274.0320265107822
 31
0.0
 12
384.0518717784533
 22
274.5320265107823
 32
0.0
 13
384.0518717784533
 23
274.5320265107823
 33
0.0
  0
MTEXT
  5
15AEE
330
159E1
100
AcDbEntity
  8
DIM
 62
     4
100
AcDbMText
 10
372.8018717784534
 20
276.5820265107823
 30
0.0
 40
3.5
 41
0.0
 46
0.0
 71
     5
 72
     1
  1
\A1;%%C22.5
  7
Romans字体
 73
     1
 44
1.0
  0
POINT
  5
15AEF
330
159E1
100
AcDbEntity
  8
Defpoints
 62
     0
100
AcDbPoint
 10
361.5518717784533
 20
284.9244898277595
 30
0.0
  0
POINT
  5
15AF0
330
159E1
100
AcDbEntity
  8
Defpoints
 62
     0
100
AcDbPoint
 10
384.0518717784533
 20
284.7244898277595
 30
0.0
  0
POINT
  5
15AF1
330
159E1
100
AcDbEntity
  8
Defpoints
 62
     0
100
AcDbPoint
 10
384.0518717784533
 20
274.5320265107823
 30
0.0
  0
ENDBLK
  5
159E3
330
159E1
100
AcDbEntity
  8
0
100
AcDbBlockEnd
  0
ENDSEC
  0
SECTION
  2
ENTITIES
  0
HATCH
  5
28AE
330
1F
100
AcDbEntity
  8
图层 1
 62
     7
100
AcDbHatch
 10
0.0
 20
0.0
 30
0.0
210
0.0
220
0.0
230
1.0
  2
SOLID
 70
     1
 71
     0
 91
        1
 92
        1
 93
        2
 72
     4
 94
        3
 73
     0
 74
     0
 95
       17
 96
       13
 40
0.0
 40
0.0
 40
0.0
 40
0.0
 40
0.3527780104152769
 40
0.3527780104152769
 40
0.3527780104152769
 40
0.7055560208305538
 40
0.7055560208305538
 40
0.7055560208305538
 40
1.058334031245828
 40
1.058334031245828
 40
1.058334031245828
 40
1.411112041661104
 40
1.411112041661104
 40
1.411112041661104
 40
1.411112041661104
 10
11.07013262565829
 20
29.50312817963231
 10
11.07013262565829
 20
29.50312817963231
 10
10.9431807732774
 20
29.50312817963231
 10
10.9431807732774
 20
29.50312817963231
 10
10.9431807732774
 20
29.50312817963231
 10
10.85843136843155
 20
29.22786486877117
 10
10.85843136843155
 20
29.22786486877117
 10
10.85843136843155
 20
29.22786486877117
 10
10.90080607085448
 20
29.2068497724476
 10
10.90080607085448
 20
29.2068497724476
 10
10.94455881238059
 20
29.31571486159919
 10
11.00346998404173
 20
29.40907701083995
 10
11.07013262565829
 20
29.50312817963231
 72
     1
 10
11.07013262565829
 20
29.50312817963231
 11
11.07013262565829
 21
29.50312817963231
 97
        0
 75
     0
 76
     1
 98
        0
450
        0
451
        0
460
0.0
461
0.0
452
        0
462
0.0
453
        0
470

  0
HATCH
  5
2C65
330
1F
100
AcDbEntity
  8
图层 1
 62
     7
100
AcDbHatch
 10
0.0
 20
0.0
 30
0.0
210
0.0
220
0.0
230
1.0
  2
SOLID
 70
     1
 71
     0
 91
        1
 92
        1
 93
        2
 72
     4
 94
        3
 73
     0
 74
     0
 95
       47
 96
       43
 40
0.0
 40
0.0
 40
0.0
 40
0.0
 40
0.3527780104152769
 40
0.3527780104152769
 40
0.3527780104152769
 40
0.7055560208305538
 40
0.7055560208305538
 40
0.7055560208305538
 40
1.058334031245828
 40
1.058334031245828
 40
1.058334031245828
 40
1.411112041661104
 40
1.411112041661104
 40
1.411112041661104
 40
1.763890052076384
 40
1.763890052076384
 40
1.763890052076384
 40
2.116668062491659
 40
2.116668062491659
 40
2.116668062491659
 40
2.469446072906936
 40
2.469446072906936
 40
2.469446072906936
 40
2.822224083322215
 40
2.822224083322215
 40
2.822224083322215
 40
3.175002093737492
 40
3.175002093737492
 40
3.175002093737492
 40
3.527780104152768
 40
3.527780104152768
 40
3.527780104152768
 40
3.880558114568044
 40
3.880558114568044
 40
3.880558114568044
 40
4.233336124983321
 40
4.233336124983321
 40
4.233336124983321
 40
4.586114135398599
 40
4.586114135398599
 40
4.586114135398599
 40
4.938892145813873
 40
4.938892145813873
 40
4.938892145813873
 40
4.938892145813873
 10
162.8986914070121
 20
257.4895347631509
 10
162.8986914070121
 20
257.4895347631509
 10
162.9200510131114
 20
257.4471600607279
 10
162.9200510131114
 20
257.4471600607279
 10
162.9200510131114
 20
257.4471600607279
 10
162.9200510131114
 20
257.404785358305
 10
162.9200510131114
 20
257.404785358305
 10
162.9200510131114
 20
257.404785358305
 10
162.8986914070121
 20
257.36258291077
 10
162.8986914070121
 20
257.36258291077
 10
162.8986914070121
 20
257.36258291077
 10
162.8986914070121
 20
257.320208208347
 10
162.8986914070121
 20
257.320208208347
 10
162.8986914070121
 20
257.320208208347
 10
162.8563167045891
 20
257.2990208571356
 10
162.8563167045891
 20
257.2990208571356
 10
162.8563167045891
 20
257.2990208571356
 10
162.8139420021662
 20
257.2563016449369
 10
162.8139420021662
 20
257.2563016449369
 10
162.8139420021662
 20
257.2563016449369
 10
162.7295371070961
 20
257.2563016449369
 10
162.7295371070961
 20
257.2563016449369
 10
162.7295371070961
 20
257.2563016449369
 10
162.6658027985738
 20
257.2778335059241
 10
162.6658027985738
 20
257.2778335059241
 10
162.6658027985738
 20
257.2778335059241
 10
162.6237726059267
 20
257.2990208571356
 10
162.6237726059267
 20
257.2990208571356
 10
162.6237726059267
 20
257.2990208571356
 10
162.5813979035038
 20
257.3413955595585
 10
162.5813979035038
 20
257.3413955595585
 10
162.5813979035038
 20
257.3413955595585
 10
162.5813979035038
 20
257.4895347631509
 10
162.5813979035038
 20
257.4895347631509
 10
162.5813979035038
 20
257.4895347631509
 10
162.6447877022503
 20
257.5525800521216
 10
162.6447877022503
 20
257.5525800521216
 10
162.6447877022503
 20
257.5525800521216
 10
162.7081775009967
 20
257.5525800521216
 10
162.7081775009967
 20
257.5525800521216
 10
162.8749202324821
 20
257.5424170137356
 10
162.7918933765152
 20
257.5939212252171
 10
162.8986914070121
 20
257.4895347631509
 72
     1
 10
162.8986914070121
 20
257.4895347631509
 11
162.8986914070121
 21
257.4895347631509
 97
        0
 75
     0
 76
     1
 98
        0
450
        0
451
        0
460
0.0
461
0.0
452
        0
462
0.0
453
        0
470

  0
HATCH
  5
2EE7
330
1F
100
AcDbEntity
  8
图层 1
 62
     7
100
AcDbHatch
 10
0.0
 20
0.0
 30
0.0
210
0.0
220
0.0
230
1.0
  2
SOLID
 70
     1
 71
     0
 91
        1
 92
        1
 93
        2
 72
     4
 94
        3
 73
     0
 74
     0
 95
       56
 96
       52
 40
0.0
 40
0.0
 40
0.0
 40
0.0
 40
0.3527780104152769
 40
0.3527780104152769
 40
0.3527780104152769
 40
0.7055560208305538
 40
0.7055560208305538
 40
0.7055560208305538
 40
1.058334031245828
 40
1.058334031245828
 40
1.058334031245828
 40
1.411112041661104
 40
1.411112041661104
 40
1.411112041661104
 40
1.763890052076384
 40
1.763890052076384
 40
1.763890052076384
 40
2.116668062491659
 40
2.116668062491659
 40
2.116668062491659
 40
2.469446072906936
 40
2.469446072906936
 40
2.469446072906936
 40
2.822224083322215
 40
2.822224083322215
 40
2.822224083322215
 40
3.175002093737492
 40
3.175002093737492
 40
3.175002093737492
 40
3.527780104152768
 40
3.527780104152768
 40
3.527780104152768
 40
3.880558114568044
 40
3.880558114568044
 40
3.880558114568044
 40
4.233336124983321
 40
4.233336124983321
 40
4.233336124983321
 40
4.586114135398599
 40
4.586114135398599
 40
4.586114135398599
 40
4.938892145813873
 40
4.938892145813873
 40
4.938892145813873
 40
5.291670156229153
 40
5.291670156229153
 40
5.291670156229153
 40
5.64444816664443
 40
5.64444816664443
 40
5.64444816664443
 40
5.997226177059705
 40
5.997226177059705
 40
5.997226177059705
 40
5.997226177059705
 10
185.4837187788815
 20
241.4451977396596
 10
185.4837187788815
 20
241.4451977396596
 10
185.4837187788815
 20
241.4028230372367
 10
185.4837187788815
 20
241.4028230372367
 10
185.4837187788815
 20
241.4028230372367
 10
185.5047338752051
 20
241.3604483348137
 10
185.5047338752051
 20
241.3604483348137
 10
185.4520238795082
 20
241.2782827532863
 10
185.4671823096433
 20
241.1897437409066
 10
185.335579575289
 20
241.2119646214456
 10
185.335579575289
 20
241.2119646214456
 10
185.2932048728662
 20
241.2119646214456
 10
185.2932048728662
 20
241.2119646214456
 10
185.2932048728662
 20
241.2119646214456
 10
185.2294705643439
 20
241.2334964824328
 10
185.2294705643439
 20
241.2334964824328
 10
185.2294705643439
 20
241.2334964824328
 10
185.1660807655974
 20
241.2543393238685
 10
185.1660807655974
 20
241.2543393238685
 10
185.1660807655974
 20
241.2543393238685
 10
185.1450656692739
 20
241.2758711848558
 10
185.1450656692739
 20
241.2758711848558
 10
185.1450656692739
 20
241.2758711848558
 10
185.1450656692739
 20
241.2967140262914
 10
185.1450656692739
 20
241.2967140262914
 10
185.1450656692739
 20
241.2967140262914
 10
185.1237060631745
 20
241.3604483348137
 10
185.1237060631745
 20
241.3604483348137
 10
185.1237060631745
 20
241.3604483348137
 10
185.1237060631745
 20
241.4028230372367
 10
185.1237060631745
 20
241.4028230372367
 10
185.1237060631745
 20
241.4028230372367
 10
185.1660807655974
 20
241.4875724420825
 10
185.1660807655974
 20
241.4875724420825
 10
185.1660807655974
 20
241.4875724420825
 10
185.2084554680203
 20
241.5085875384061
 10
185.2084554680203
 20
241.5085875384061
 10
185.2084554680203
 20
241.5085875384061
 10
185.2718452667668
 20
241.5297748896175
 10
185.2718452667668
 20
241.5297748896175
 10
185.2718452667668
 20
241.5297748896175
 10
185.3565946716127
 20
241.5297748896175
 10
185.3565946716127
 20
241.5297748896175
 10
185.3565946716127
 20
241.5297748896175
 10
185.4199844703592
 20
241.5085875384061
 10
185.4199844703592
 20
241.5085875384061
 10
185.4199844703592
 20
241.5085875384061
 10
185.4623591727821
 20
241.4875724420825
 10
185.4623591727821
 20
241.4875724420825
 10
185.4623591727821
 20
241.4875724420825
 10
185.4837187788815
 20
241.4451977396596
 10
185.4837187788815
 20
241.4451977396596
 72
     1
 10
185.4837187788815
 20
241.4451977396596
 11
185.4837187788815
 21
241.4451977396596
 97
        0
 75
     0
 76
     1
 98
        0
450
        0
451
        0
460
0.0
461
0.0
452
        0
462
0.0
453
        0
470

  0
HATCH
  5
2F93
330
1F
100
AcDbEntity
  8
图层 1
 62
     7
100
AcDbHatch
 10
0.0
 20
0.0
 30
0.0
210
0.0
220
0.0
230
1.0
  2
SOLID
 70
     1
 71
     0
 91
        1
 92
        1
 93
        2
 72
     4
 94
        3
 73
     0
 74
     0
 95
       38
 96
       34
 40
0.0
 40
0.0
 40
0.0
 40
0.0
 40
0.3527780104152769
 40
0.3527780104152769
 40
0.3527780104152769
 40
0.7055560208305538
 40
0.7055560208305538
 40
0.7055560208305538
 40
1.058334031245828
 40
1.058334031245828
 40
1.058334031245828
 40
1.411112041661104
 40
1.411112041661104
 40
1.411112041661104
 40
1.763890052076384
 40
1.763890052076384
 40
1.763890052076384
 40
2.116668062491659
 40
2.116668062491659
 40
2.116668062491659
 40
2.469446072906936
 40
2.469446072906936
 40
2.469446072906936
 40
2.822224083322215
 40
2.822224083322215
 40
2.822224083322215
 40
3.175002093737492
 40
3.175002093737492
 40
3.175002093737492
 40
3.527780104152768
 40
3.527780104152768
 40
3.527780104152768
 40
3.880558114568044
 40
3.880558114568044
 40
3.880558114568044
 40
3.880558114568044
 10
185.907121293335
 20
220.1937677098971
 10
185.9005756075949
 20
220.0449394867532
 10
185.9329595265197
 20
220.1136691870245
 10
185.864746590912
 20
219.9817219428946
 10
185.864746590912
 20
219.9817219428946
 10
185.822371888489
 20
219.9605345916831
 10
185.822371888489
 20
219.9605345916831
 10
185.822371888489
 20
219.9605345916831
 10
185.6528730787974
 20
219.9605345916831
 10
185.6528730787974
 20
219.9605345916831
 10
185.6528730787974
 20
219.9605345916831
 10
185.5894832800509
 20
220.002909294106
 10
185.5894832800509
 20
220.002909294106
 10
185.5894832800509
 20
220.002909294106
 10
185.5681236739515
 20
220.0240966453175
 10
185.5681236739515
 20
220.0240966453175
 10
185.5681236739515
 20
220.0240966453175
 10
185.5681236739515
 20
220.045283996529
 10
185.5681236739515
 20
220.045283996529
 10
185.5681236739515
 20
220.045283996529
 10
185.547108577628
 20
220.0876586989519
 10
185.547108577628
 20
220.0876586989519
 10
185.547108577628
 20
220.0876586989519
 10
185.547108577628
 20
220.1513930074742
 10
185.547108577628
 20
220.1513930074742
 10
185.547108577628
 20
220.1513930074742
 10
185.5894832800509
 20
220.23614241232
 10
185.5894832800509
 20
220.23614241232
 10
185.5894832800509
 20
220.23614241232
 10
185.6318579824738
 20
220.2573297635315
 10
185.6318579824738
 20
220.2573297635315
 10
185.7055830744942
 20
220.2566407439799
 10
185.8416644359337
 20
220.3310548555519
 10
185.907121293335
 20
220.1937677098971
 72
     1
 10
185.907121293335
 20
220.1937677098971
 11
185.907121293335
 21
220.1937677098971
 97
        0
 75
     0
 76
     1
 98
        0
450
        0
451
        0
460
0.0
461
0.0
452
        0
462
0.0
453
        0
470

  0
HATCH
  5
2FDE
330
1F
100
AcDbEntity
  8
图层 1
 62
     7
100
AcDbHatch
 10
0.0
 20
0.0
 30
0.0
210
0.0
220
0.0
230
1.0
  2
SOLID
 70
     1
 71
     0
 91
        1
 92
        1
 93
        2
 72
     4
 94
        3
 73
     0
 74
     0
 95
       50
 96
       46
 40
0.0
 40
0.0
 40
0.0
 40
0.0
 40
0.3527780104152769
 40
0.3527780104152769
 40
0.3527780104152769
 40
0.7055560208305538
 40
0.7055560208305538
 40
0.7055560208305538
 40
1.058334031245828
 40
1.058334031245828
 40
1.058334031245828
 40
1.411112041661104
 40
1.411112041661104
 40
1.411112041661104
 40
1.763890052076384
 40
1.763890052076384
 40
1.763890052076384
 40
2.116668062491659
 40
2.116668062491659
 40
2.116668062491659
 40
2.469446072906936
 40
2.469446072906936
 40
2.469446072906936
 40
2.822224083322215
 40
2.822224083322215
 40
2.822224083322215
 40
3.175002093737492
 40
3.175002093737492
 40
3.175002093737492
 40
3.527780104152768
 40
3.527780104152768
 40
3.527780104152768
 40
3.880558114568044
 40
3.880558114568044
 40
3.880558114568044
 40
4.233336124983321
 40
4.233336124983321
 40
4.233336124983321
 40
4.586114135398599
 40
4.586114135398599
 40
4.586114135398599
 40
4.938892145813873
 40
4.938892145813873
 40
4.938892145813873
 40
5.291670156229153
 40
5.291670156229153
 40
5.291670156229153
 40
5.291670156229153
 10
180.9117295442905
 20
208.9327766684477
 10
180.9117295442905
 20
208.9327766684477
 10
180.9117295442905
 20
208.7637946234197
 10
180.9117295442905
 20
208.7637946234197
 10
181.2273004989198
 20
208.6749111012643
 10
181.3833634273555
 20
208.6776671794706
 10
181.6948002646751
 20
208.5097186637701
 10
181.9542161258496
 20
208.4294478860095
 10
182.1388733656765
 20
208.2134402565853
 10
182.3297317814676
 20
208.02292635057
 10
182.3297317814676
 20
208.02292635057
 10
182.435496282637
 20
208.065301052993
 10
182.435496282637
 20
208.065301052993
 10
182.288390608372
 20
208.2733849575739
 10
182.3752070718726
 20
208.2134402565853
 10
182.1605774815516
 20
208.3824223016133
 10
182.1605774815516
 20
208.3824223016133
 10
182.1182027791287
 20
208.4247970040363
 10
182.1182027791287
 20
208.4247970040363
 10
182.1182027791287
 20
208.4247970040363
 10
182.0968431730294
 20
208.467516216235
 10
182.0968431730294
 20
208.467516216235
 10
182.0968431730294
 20
208.467516216235
 10
182.0544684706064
 20
208.4883590576707
 10
182.0544684706064
 20
208.4883590576707
 10
182.0544684706064
 20
208.4883590576707
 10
181.9910786718599
 20
208.5305615052057
 10
181.9910786718599
 20
208.5305615052057
 10
181.9910786718599
 20
208.5305615052057
 10
181.948703969437
 20
208.552093366193
 10
181.948703969437
 20
208.552093366193
 10
181.948703969437
 20
208.552093366193
 10
181.9063292670141
 20
208.5729362076286
 10
181.9063292670141
 20
208.5729362076286
 10
181.9063292670141
 20
208.5729362076286
 10
181.8639545645911
 20
208.6156554198274
 10
181.8639545645911
 20
208.6156554198274
 10
181.8639545645911
 20
208.6156554198274
 10
181.821924371944
 20
208.6368427710388
 10
181.821924371944
 20
208.6368427710388
 10
181.6637943848536
 20
208.6742220817127
 10
181.5452830219797
 20
208.8092699138248
 10
181.3771622513911
 20
208.8061693258427
 10
181.2803550043924
 20
208.8573290275484
 10
181.0126709085988
 20
208.8971199066528
 10
180.9117295442905
 20
208.9327766684477
 72
     1
 10
180.9117295442905
 20
208.9327766684477
 11
180.9117295442905
 21
208.9327766684477
 97
        0
 75
     0
 76
     1
 98
        0
450
        0
451
        0
460
0.0
461
0.0
452
        0
462
0.0
453
        0
470

  0
HATCH
  5
35C8
330
1F
100
AcDbEntity
  8
图层 1
 62
     7
100
AcDbHatch
 10
0.0
 20
0.0
 30
0.0
210
0.0
220
0.0
230
1.0
  2
SOLID
 70
     1
 71
     0
 91
        1
 92
        1
 93
        2
 72
     4
 94
        3
 73
     0
 74
     0
 95
       38
 96
       34
 40
0.0
 40
0.0
 40
0.0
 40
0.0
 40
0.3527780104152769
 40
0.3527780104152769
 40
0.3527780104152769
 40
0.7055560208305538
 40
0.7055560208305538
 40
0.7055560208305538
 40
1.058334031245828
 40
1.058334031245828
 40
1.058334031245828
 40
1.411112041661104
 40
1.411112041661104
 40
1.411112041661104
 40
1.763890052076384
 40
1.763890052076384
 40
1.763890052076384
 40
2.116668062491659
 40
2.116668062491659
 40
2.116668062491659
 40
2.469446072906936
 40
2.469446072906936
 40
2.469446072906936
 40
2.822224083322215
 40
2.822224083322215
 40
2.822224083322215
 40
3.175002093737492
 40
3.175002093737492
 40
3.175002093737492
 40
3.527780104152768
 40
3.527780104152768
 40
3.527780104152768
 40
3.880558114568044
 40
3.880558114568044
 40
3.880558114568044
 40
3.880558114568044
 10
189.145513185819
 20
166.8326485368285
 10
189.207869455238
 20
166.740492171803
 10
189.1317327947871
 20
166.6833035490209
 10
189.103138483396
 20
166.6209472796017
 10
189.103138483396
 20
166.6209472796017
 10
189.0607637809731
 20
166.5997599283903
 10
189.0607637809731
 20
166.5997599283903
 10
189.0607637809731
 20
166.5997599283903
 10
188.9973739822266
 20
166.5785725771788
 10
188.9973739822266
 20
166.5785725771788
 10
188.9973739822266
 20
166.5785725771788
 10
188.9549992798037
 20
166.5997599283903
 10
188.9549992798037
 20
166.5997599283903
 10
188.9549992798037
 20
166.5997599283903
 10
188.8916094810572
 20
166.5997599283903
 10
188.8916094810572
 20
166.5997599283903
 10
188.8916094810572
 20
166.5997599283903
 10
188.8492347786343
 20
166.6209472796017
 10
188.8492347786343
 20
166.6209472796017
 10
188.8492347786343
 20
166.6209472796017
 10
188.8278751725349
 20
166.6633219820247
 10
188.8278751725349
 20
166.6633219820247
 10
188.8278751725349
 20
166.6633219820247
 10
188.8068600762114
 20
166.6845093332361
 10
188.8068600762114
 20
166.6845093332361
 10
188.8068600762114
 20
166.6845093332361
 10
188.8068600762114
 20
166.8326485368285
 10
188.8068600762114
 20
166.8326485368285
 10
188.8068600762114
 20
166.8326485368285
 10
188.8702498749578
 20
166.896038335575
 10
188.8702498749578
 20
166.896038335575
 10
189.0228677056355
 20
166.8819134347673
 10
189.0686875058164
 20
166.9411691162043
 10
189.145513185819
 20
166.8326485368285
 72
     1
 10
189.145513185819
 20
166.8326485368285
 11
189.145513185819
 21
166.8326485368285
 97
        0
 75
     0
 76
     1
 98
        0
450
        0
451
        0
460
0.0
461
0.0
452
        0
462
0.0
453
        0
470

  0
HATCH
  5
35D8
330
1F
100
AcDbEntity
  8
图层 1
 62
     7
100
AcDbHatch
 10
0.0
 20
0.0
 30
0.0
210
0.0
220
0.0
230
1.0
  2
SOLID
 70
     1
 71
     0
 91
        1
 92
        1
 93
        2
 72
     4
 94
        3
 73
     0
 74
     0
 95
       68
 96
       64
 40
0.0
 40
0.0
 40
0.0
 40
0.0
 40
0.3527780104152769
 40
0.3527780104152769
 40
0.3527780104152769
 40
0.7055560208305538
 40
0.7055560208305538
 40
0.7055560208305538
 40
1.058334031245828
 40
1.058334031245828
 40
1.058334031245828
 40
1.411112041661104
 40
1.411112041661104
 40
1.411112041661104
 40
1.763890052076384
 40
1.763890052076384
 40
1.763890052076384
 40
2.116668062491659
 40
2.116668062491659
 40
2.116668062491659
 40
2.469446072906936
 40
2.469446072906936
 40
2.469446072906936
 40
2.822224083322215
 40
2.822224083322215
 40
2.822224083322215
 40
3.175002093737492
 40
3.175002093737492
 40
3.175002093737492
 40
3.527780104152768
 40
3.527780104152768
 40
3.527780104152768
 40
3.880558114568044
 40
3.880558114568044
 40
3.880558114568044
 40
4.233336124983321
 40
4.233336124983321
 40
4.233336124983321
 40
4.586114135398599
 40
4.586114135398599
 40
4.586114135398599
 40
4.938892145813873
 40
4.938892145813873
 40
4.938892145813873
 40
5.291670156229153
 40
5.291670156229153
 40
5.291670156229153
 40
5.64444816664443
 40
5.64444816664443
 40
5.64444816664443
 40
5.997226177059705
 40
5.997226177059705
 40
5.997226177059705
 40
6.350004187474984
 40
6.350004187474984
 40
6.350004187474984
 40
6.702782197890257
 40
6.702782197890257
 40
6.702782197890257
 40
7.055560208305537
 40
7.055560208305537
 40
7.055560208305537
 40
7.408338218720808
 40
7.408338218720808
 40
7.408338218720808
 40
7.408338218720808
 10
174.7732543591544
 20
135.4846705078077
 10
174.7732543591544
 20
135.4846705078077
 10
174.7732543591544
 20
135.3789060066383
 10
174.7732543591544
 20
135.3789060066383
 10
174.7732543591544
 20
135.3789060066383
 10
174.8156290615773
 20
135.3789060066383
 10
174.8156290615773
 20
135.3789060066383
 10
174.8156290615773
 20
135.3789060066383
 10
174.8580037640002
 20
135.3578909103147
 10
174.8580037640002
 20
135.3578909103147
 10
174.8580037640002
 20
135.3578909103147
 10
174.9213935627468
 20
135.3578909103147
 10
174.9213935627468
 20
135.3578909103147
 10
174.9213935627468
 20
135.3578909103147
 10
174.9637682651697
 20
135.3365313042154
 10
174.9637682651697
 20
135.3365313042154
 10
174.9637682651697
 20
135.3365313042154
 10
174.9847833614933
 20
135.3365313042154
 10
174.9847833614933
 20
135.3365313042154
 10
174.9847833614933
 20
135.3365313042154
 10
175.0271580639162
 20
135.3155162078918
 10
175.0271580639162
 20
135.3155162078918
 10
175.0271580639162
 20
135.3155162078918
 10
175.0485176700155
 20
135.2941566017924
 10
175.0485176700155
 20
135.2941566017924
 10
175.0485176700155
 20
135.2941566017924
 10
175.0695327663391
 20
135.2941566017924
 10
175.0695327663391
 20
135.2941566017924
 10
175.0695327663391
 20
135.2941566017924
 10
175.0908923724385
 20
135.2731415054689
 10
175.0908923724385
 20
135.2731415054689
 10
175.0908923724385
 20
135.2731415054689
 10
175.1332670748614
 20
135.2731415054689
 10
175.1332670748614
 20
135.2731415054689
 10
175.1332670748614
 20
135.2731415054689
 10
175.154282171185
 20
135.2517818993695
 10
175.154282171185
 20
135.2517818993695
 10
175.154282171185
 20
135.2517818993695
 10
175.154282171185
 20
135.3578909103147
 10
175.154282171185
 20
135.3578909103147
 10
175.154282171185
 20
135.3578909103147
 10
175.1332670748614
 20
135.3789060066383
 10
175.1332670748614
 20
135.3789060066383
 10
175.1332670748614
 20
135.3789060066383
 10
175.0908923724385
 20
135.3789060066383
 10
175.0908923724385
 20
135.3789060066383
 10
175.0908923724385
 20
135.3789060066383
 10
175.0908923724385
 20
135.3999211029619
 10
175.0908923724385
 20
135.3999211029619
 10
175.0908923724385
 20
135.3999211029619
 10
175.0695327663391
 20
135.3999211029619
 10
175.0695327663391
 20
135.3999211029619
 10
175.0695327663391
 20
135.3999211029619
 10
175.0271580639162
 20
135.4212807090612
 10
175.0271580639162
 20
135.4212807090612
 10
175.0271580639162
 20
135.4212807090612
 10
175.0061429675926
 20
135.4212807090612
 10
175.0061429675926
 20
135.4212807090612
 10
175.0061429675926
 20
135.4212807090612
 10
174.9637682651697
 20
135.4422958053848
 10
174.9637682651697
 20
135.4422958053848
 10
174.8996894468716
 20
135.4498750204523
 10
174.8394002361073
 20
135.4860485469109
 10
174.7732543591544
 20
135.4846705078077
 72
     1
 10
174.7732543591544
 20
135.4846705078077
 11
174.7732543591544
 21
135.4846705078077
 97
        0
 75
     0
 76
     1
 98
        0
450
        0
451
        0
460
0.0
461
0.0
452
        0
462
0.0
453
        0
470

  0
HATCH
  5
3807
330
1F
100
AcDbEntity
  8
图层 1
 62
     7
100
AcDbHatch
 10
0.0
 20
0.0
 30
0.0
210
0.0
220
0.0
230
1.0
  2
SOLID
 70
     1
 71
     0
 91
        1
 92
        1
 93
        2
 72
     4
 94
        3
 73
     0
 74
     0
 95
       29
 96
       25
 40
0.0
 40
0.0
 40
0.0
 40
0.0
 40
0.3527780104152769
 40
0.3527780104152769
 40
0.3527780104152769
 40
0.7055560208305538
 40
0.7055560208305538
 40
0.7055560208305538
 40
1.058334031245828
 40
1.058334031245828
 40
1.058334031245828
 40
1.411112041661104
 40
1.411112041661104
 40
1.411112041661104
 40
1.763890052076384
 40
1.763890052076384
 40
1.763890052076384
 40
2.116668062491659
 40
2.116668062491659
 40
2.116668062491659
 40
2.469446072906936
 40
2.469446072906936
 40
2.469446072906936
 40
2.822224083322215
 40
2.822224083322215
 40
2.822224083322215
 40
2.822224083322215
 10
175.4929352807925
 20
164.0174869039101
 10
175.4929352807925
 20
164.0174869039101
 10
175.5139503771161
 20
163.9751122014871
 10
175.5139503771161
 20
163.9751122014871
 10
175.5139503771161
 20
163.9751122014871
 10
175.5139503771161
 20
163.9327374990642
 10
175.5139503771161
 20
163.9327374990642
 10
175.5139503771161
 20
163.9327374990642
 10
175.4929352807925
 20
163.8903627966413
 10
175.4929352807925
 20
163.8903627966413
 10
175.4929352807925
 20
163.8903627966413
 10
175.471920184469
 20
163.8691754454298
 10
175.471920184469
 20
163.8691754454298
 10
175.471920184469
 20
163.8691754454298
 10
175.4505605783696
 20
163.8269729978948
 10
175.4505605783696
 20
163.8269729978948
 10
175.3571984291289
 20
163.7715069239916
 10
175.272449024283
 20
163.8195660377152
 10
175.1966568736079
 20
163.8691754454298
 10
175.208370205985
 20
163.9930267098286
 10
175.1563492298397
 20
164.0216210212197
 10
175.2600466723544
 20
164.0596893514451
 10
175.3330827448232
 20
164.1094710140476
 10
175.4357466580104
 20
164.0753645462439
 10
175.4929352807925
 20
164.0174869039101
 72
     1
 10
175.4929352807925
 20
164.0174869039101
 11
175.4929352807925
 21
164.0174869039101
 97
        0
 75
     0
 76
     1
 98
        0
450
        0
451
        0
460
0.0
461
0.0
452
        0
462
0.0
453
        0
470

  0
HATCH
  5
3895
330
1F
100
AcDbEntity
  8
图层 1
 62
     7
100
AcDbHatch
 10
0.0
 20
0.0
 30
0.0
210
0.0
220
0.0
230
1.0
  2
SOLID
 70
     1
 71
     0
 91
        1
 92
        1
 93
        2
 72
     4
 94
        3
 73
     0
 74
     0
 95
       11
 96
        7
 40
0.0
 40
0.0
 40
0.0
 40
0.0
 40
0.3527780104152769
 40
0.3527780104152769
 40
0.3527780104152769
 40
0.7055560208305538
 40
0.7055560208305538
 40
0.7055560208305538
 40
0.7055560208305538
 10
174.9213935627468
 20
174.5369206529582
 10
174.9213935627468
 20
174.5369206529582
 10
174.9213935627468
 20
174.3043765542958
 10
174.9213935627468
 20
174.3043765542958
 10
174.9213935627468
 20
174.3043765542958
 10
174.9213935627468
 20
174.5369206529582
 10
174.9213935627468
 20
174.5369206529582
 72
     1
 10
174.9213935627468
 20
174.5369206529582
 11
174.9213935627468
 21
174.5369206529582
 97
        0
 75
     0
 76
     1
 98
        0
450
        0
451
        0
460
0.0
461
0.0
452
        0
462
0.0
453
        0
470

  0
HATCH
  5
3943
330
1F
100
AcDbEntity
  8
图层 1
 62
     7
100
AcDbHatch
 10
0.0
 20
0.0
 30
0.0
210
0.0
220
0.0
230
1.0
  2
SOLID
 70
     1
 71
     0
 91
        1
 92
        1
 93
        2
 72
     4
 94
        3
 73
     0
 74
     0
 95
      131
 96
      127
 40
0.0
 40
0.0
 40
0.0
 40
0.0
 40
0.3527780104152769
 40
0.3527780104152769
 40
0.3527780104152769
 40
0.7055560208305538
 40
0.7055560208305538
 40
0.7055560208305538
 40
1.058334031245828
 40
1.058334031245828
 40
1.058334031245828
 40
1.411112041661104
 40
1.411112041661104
 40
1.411112041661104
 40
1.763890052076384
 40
1.763890052076384
 40
1.763890052076384
 40
2.116668062491659
 40
2.116668062491659
 40
2.116668062491659
 40
2.469446072906936
 40
2.469446072906936
 40
2.469446072906936
 40
2.822224083322215
 40
2.822224083322215
 40
2.822224083322215
 40
3.175002093737492
 40
3.175002093737492
 40
3.175002093737492
 40
3.527780104152768
 40
3.527780104152768
 40
3.527780104152768
 40
3.880558114568044
 40
3.880558114568044
 40
3.880558114568044
 40
4.233336124983321
 40
4.233336124983321
 40
4.233336124983321
 40
4.586114135398599
 40
4.586114135398599
 40
4.586114135398599
 40
4.938892145813873
 40
4.938892145813873
 40
4.938892145813873
 40
5.291670156229153
 40
5.291670156229153
 40
5.291670156229153
 40
5.64444816664443
 40
5.64444816664443
 40
5.64444816664443
 40
5.997226177059705
 40
5.997226177059705
 40
5.997226177059705
 40
6.350004187474984
 40
6.350004187474984
 40
6.350004187474984
 40
6.702782197890257
 40
6.702782197890257
 40
6.702782197890257
 40
7.055560208305537
 40
7.055560208305537
 40
7.055560208305537
 40
7.408338218720808
 40
7.408338218720808
 40
7.408338218720808
 40
7.76111622913609
 40
7.76111622913609
 40
7.76111622913609
 40
8.113894239551369
 40
8.113894239551369
 40
8.113894239551369
 40
8.466672249966642
 40
8.466672249966642
 40
8.466672249966642
 40
8.819450260381922
 40
8.819450260381922
 40
8.819450260381922
 40
9.172228270797198
 40
9.172228270797198
 40
9.172228270797198
 40
9.525006281212476
 40
9.525006281212476
 40
9.525006281212476
 40
9.877784291627751
 40
9.877784291627751
 40
9.877784291627751
 40
10.23056230204303
 40
10.23056230204303
 40
10.23056230204303
 40
10.58334031245831
 40
10.58334031245831
 40
10.58334031245831
 40
10.93611832287358
 40
10.93611832287358
 40
10.93611832287358
 40
11.28889633328886
 40
11.28889633328886
 40
11.28889633328886
 40
11.64167434370414
 40
11.64167434370414
 40
11.64167434370414
 40
11.99445235411941
 40
11.99445235411941
 40
11.99445235411941
 40
12.34723036453469
 40
12.34723036453469
 40
12.34723036453469
 40
12.70000837494997
 40
12.70000837494997
 40
12.70000837494997
 40
13.05278638536524
 40
13.05278638536524
 40
13.05278638536524
 40
13.40556439578052
 40
13.40556439578052
 40
13.40556439578052
 40
13.7583424061958
 40
13.7583424061958
 40
13.7583424061958
 40
14.11112041661107
 40
14.11112041661107
 40
14.11112041661107
 40
14.46389842702635
 40
14.46389842702635
 40
14.46389842702635
 40
14.81667643744163
 40
14.81667643744163
 40
14.81667643744163
 40
14.81667643744163
 10
173.3972823146245
 20
126.8274843518258
 10
173.3972823146245
 20
126.8274843518258
 10
173.3972823146245
 20
126.7217198506564
 10
173.3972823146245
 20
126.7217198506564
 10
173.3972823146245
 20
126.7217198506564
 10
173.4186419207238
 20
126.7217198506564
 10
173.4186419207238
 20
126.7217198506564
 10
173.4186419207238
 20
126.7217198506564
 10
173.4820317194703
 20
126.7007047543328
 10
173.4820317194703
 20
126.7007047543328
 10
173.4820317194703
 20
126.7007047543328
 10
173.5244064218933
 20
126.6793451482334
 10
173.5244064218933
 20
126.6793451482334
 10
173.5244064218933
 20
126.6793451482334
 10
173.5877962206398
 20
126.6793451482334
 10
173.5877962206398
 20
126.6793451482334
 10
173.5877962206398
 20
126.6793451482334
 10
173.6301709230627
 20
126.6583300519099
 10
173.6301709230627
 20
126.6583300519099
 10
173.7955356154449
 20
126.5911506456296
 10
173.759706598762
 20
126.6380039751379
 10
173.9478089363468
 20
126.5525655507404
 10
173.9478089363468
 20
126.5525655507404
 10
173.9688240326703
 20
126.4464565397952
 10
173.9688240326703
 20
126.4464565397952
 10
173.9688240326703
 20
126.4464565397952
 10
174.0325583411926
 20
126.5101908483175
 10
174.0325583411926
 20
126.5101908483175
 10
174.0325583411926
 20
126.5101908483175
 10
174.0749330436156
 20
126.5101908483175
 10
174.0749330436156
 20
126.5101908483175
 10
174.0749330436156
 20
126.5101908483175
 10
174.1593379386856
 20
126.4678161458946
 10
174.1593379386856
 20
126.4678161458946
 10
174.1593379386856
 20
126.4678161458946
 10
174.180697544785
 20
126.4464565397952
 10
174.180697544785
 20
126.4464565397952
 10
174.2464989119621
 20
126.3982251711837
 10
174.3298702777047
 20
126.3716979184474
 10
174.3922265471239
 20
126.3196769423022
 10
174.608234176548
 20
126.2059887162895
 10
174.7749769080334
 20
126.0278771622029
 10
174.9637682651697
 20
125.8749148217494
 10
174.9637682651697
 20
125.8749148217494
 10
175.0061429675926
 20
125.9172895241723
 10
175.0061429675926
 20
125.9172895241723
 10
174.961356696739
 20
125.9631093243532
 10
174.782211613325
 20
126.1246844092016
 10
174.7308796567315
 20
126.1501781326105
 10
174.7308796567315
 20
126.1501781326105
 10
174.6885049543085
 20
126.1925528350335
 10
174.6885049543085
 20
126.1925528350335
 10
174.6885049543085
 20
126.1925528350335
 10
174.667489857985
 20
126.2349275374564
 10
174.667489857985
 20
126.2349275374564
 10
174.667489857985
 20
126.2349275374564
 10
174.625115155562
 20
126.2559426337799
 10
174.625115155562
 20
126.2559426337799
 10
174.625115155562
 20
126.2559426337799
 10
174.5827404531391
 20
126.2983173362029
 10
174.5827404531391
 20
126.2983173362029
 10
174.5827404531391
 20
126.2983173362029
 10
174.5403657507162
 20
126.3196769423022
 10
174.5403657507162
 20
126.3196769423022
 10
174.5403657507162
 20
126.3196769423022
 10
174.4979910482932
 20
126.3620516447252
 10
174.4979910482932
 20
126.3620516447252
 10
174.4735308542117
 20
126.3875453681341
 10
174.3247026310678
 20
126.4695386947736
 10
174.2864620459544
 20
126.4888312422181
 10
174.2864620459544
 20
126.4888312422181
 10
174.2654469496308
 20
126.5101908483175
 10
174.2654469496308
 20
126.5101908483175
 10
174.2654469496308
 20
126.5101908483175
 10
174.2230722472079
 20
126.5312059446411
 10
174.2230722472079
 20
126.5312059446411
 10
174.2230722472079
 20
126.5312059446411
 10
174.2017126411085
 20
126.5525655507404
 10
174.2017126411085
 20
126.5525655507404
 10
174.2017126411085
 20
126.5525655507404
 10
174.1383228423621
 20
126.573580647064
 10
174.1383228423621
 20
126.573580647064
 10
174.1383228423621
 20
126.573580647064
 10
174.1169632362627
 20
126.5945957433876
 10
174.1169632362627
 20
126.5945957433876
 10
174.1169632362627
 20
126.5945957433876
 10
174.0959481399391
 20
126.7007047543328
 10
174.0959481399391
 20
126.7007047543328
 10
174.0959481399391
 20
126.7007047543328
 10
174.0325583411926
 20
126.6369704458105
 10
174.0325583411926
 20
126.6369704458105
 10
174.0325583411926
 20
126.6369704458105
 10
173.9901836387697
 20
126.6369704458105
 10
173.9901836387697
 20
126.6369704458105
 10
173.9901836387697
 20
126.6369704458105
 10
173.9054342339239
 20
126.6793451482334
 10
173.9054342339239
 20
126.6793451482334
 10
173.9054342339239
 20
126.6793451482334
 10
173.8420444351773
 20
126.7007047543328
 10
173.8420444351773
 20
126.7007047543328
 10
173.8420444351773
 20
126.7007047543328
 10
173.7996697327544
 20
126.7217198506564
 10
173.7996697327544
 20
126.7217198506564
 10
173.7996697327544
 20
126.7217198506564
 10
173.7572950303315
 20
126.7217198506564
 10
173.7572950303315
 20
126.7217198506564
 10
173.7572950303315
 20
126.7217198506564
 10
173.6725456254856
 20
126.7640945530793
 10
173.6725456254856
 20
126.7640945530793
 10
173.6725456254856
 20
126.7640945530793
 10
173.6515305291621
 20
126.7640945530793
 10
173.6515305291621
 20
126.7640945530793
 10
173.6515305291621
 20
126.7640945530793
 10
173.5667811243162
 20
126.7851096494029
 10
173.5667811243162
 20
126.7851096494029
 10
173.5667811243162
 20
126.7851096494029
 10
173.5033913255697
 20
126.8064692555022
 10
173.5033913255697
 20
126.8064692555022
 10
173.5033913255697
 20
126.8064692555022
 10
173.4396570170474
 20
126.8064692555022
 10
173.4396570170474
 20
126.8064692555022
 10
173.4396570170474
 20
126.8064692555022
 10
173.4186419207238
 20
126.8274843518258
 10
173.4186419207238
 20
126.8274843518258
 10
173.4186419207238
 20
126.8274843518258
 10
173.3972823146245
 20
126.8274843518258
 10
173.3972823146245
 20
126.8274843518258
 72
     1
 10
173.3972823146245
 20
126.8274843518258
 11
173.3972823146245
 21
126.8274843518258
 97
        0
 75
     0
 76
     1
 98
        0
450
        0
451
        0
460
0.0
461
0.0
452
        0
462
0.0
453
        0
470

  0
HATCH
  5
4842
330
1F
100
AcDbEntity
  8
图层 1
 62
     7
100
AcDbHatch
 10
0.0
 20
0.0
 30
0.0
210
0.0
220
0.0
230
1.0
  2
SOLID
 70
     1
 71
     0
 91
        1
 92
        1
 93
        2
 72
     4
 94
        3
 73
     0
 74
     0
 95
       47
 96
       43
 40
0.0
 40
0.0
 40
0.0
 40
0.0
 40
0.3527780104152769
 40
0.3527780104152769
 40
0.3527780104152769
 40
0.7055560208305538
 40
0.7055560208305538
 40
0.7055560208305538
 40
1.058334031245828
 40
1.058334031245828
 40
1.058334031245828
 40
1.411112041661104
 40
1.411112041661104
 40
1.411112041661104
 40
1.763890052076384
 40
1.763890052076384
 40
1.763890052076384
 40
2.116668062491659
 40
2.116668062491659
 40
2.116668062491659
 40
2.469446072906936
 40
2.469446072906936
 40
2.469446072906936
 40
2.822224083322215
 40
2.822224083322215
 40
2.822224083322215
 40
3.175002093737492
 40
3.175002093737492
 40
3.175002093737492
 40
3.527780104152768
 40
3.527780104152768
 40
3.527780104152768
 40
3.880558114568044
 40
3.880558114568044
 40
3.880558114568044
 40
4.233336124983321
 40
4.233336124983321
 40
4.233336124983321
 40
4.586114135398599
 40
4.586114135398599
 40
4.586114135398599
 40
4.938892145813873
 40
4.938892145813873
 40
4.938892145813873
 40
4.938892145813873
 10
180.1920486226523
 20
255.6479577566324
 10
180.1920486226523
 20
255.6479577566324
 10
180.2130637189759
 20
255.6055830542095
 10
180.2130637189759
 20
255.6055830542095
 10
180.2130637189759
 20
255.6055830542095
 10
180.2130637189759
 20
255.5210059042515
 10
180.2130637189759
 20
255.5210059042515
 10
180.2130637189759
 20
255.5210059042515
 10
180.1920486226523
 20
255.4786312018286
 10
180.1920486226523
 20
255.4786312018286
 10
180.1920486226523
 20
255.4786312018286
 10
180.1496739202294
 20
255.4359119896299
 10
180.1496739202294
 20
255.4359119896299
 10
180.1496739202294
 20
255.4359119896299
 10
180.1283143141301
 20
255.4147246384184
 10
180.1283143141301
 20
255.4147246384184
 10
180.1283143141301
 20
255.4147246384184
 10
180.0225498129606
 20
255.4147246384184
 10
180.0225498129606
 20
255.4147246384184
 10
180.0225498129606
 20
255.4147246384184
 10
179.9591600142141
 20
255.4359119896299
 10
179.9591600142141
 20
255.4359119896299
 10
179.9591600142141
 20
255.4359119896299
 10
179.9167853117912
 20
255.4570993408414
 10
179.9167853117912
 20
255.4570993408414
 10
179.9167853117912
 20
255.4570993408414
 10
179.8957702154676
 20
255.4786312018286
 10
179.8957702154676
 20
255.4786312018286
 10
179.8957702154676
 20
255.4786312018286
 10
179.8744106093683
 20
255.4994740432643
 10
179.8744106093683
 20
255.4994740432643
 10
179.8744106093683
 20
255.4994740432643
 10
179.8744106093683
 20
255.6479577566324
 10
179.8744106093683
 20
255.6479577566324
 10
179.9608825630931
 20
255.7323626517025
 10
180.045631967939
 20
255.7085914771726
 10
180.1496739202294
 20
255.7115198102668
 10
180.1496739202294
 20
255.7115198102668
 10
180.170689016553
 20
255.6688005980681
 10
180.170689016553
 20
255.6688005980681
 10
180.170689016553
 20
255.6688005980681
 10
180.1920486226523
 20
255.6479577566324
 10
180.1920486226523
 20
255.6479577566324
 72
     1
 10
180.1920486226523
 20
255.6479577566324
 11
180.1920486226523
 21
255.6479577566324
 97
        0
 75
     0
 76
     1
 98
        0
450
        0
451
        0
460
0.0
461
0.0
452
        0
462
0.0
453
        0
470

  0
MTEXT
  5
12C4B
102
{ACAD_XDICTIONARY
360
15CFB
102
}
330
1F
100
AcDbEntity
  8
打标文字
 62
     3
100
AcDbMText
 10
475.4539307028493
 20
350.3530511291314
 30
0.0
 40
4.5
 41
129.3822270652219
 46
161.7354166437584
 71
     1
 72
     5
  3
\A1;{\f仿宋_GB2312|b0|i0|c134|p49;技术参数}:\P- {\f仿宋_GB2312|b0|i0|c134|p49;材料}: {\f仿宋_GB2312|b0|i0|c134|p49;铜合金}\P- {\f仿宋_GB2312|b0|i0|c134|p49;表面处理}: {\f仿宋_GB2312|b0|i0|c134|p49;镀银}\P- {\f仿宋_GB2312|b0|i0|c134|p49;额定电流}: 650A\P- {\f仿宋_GB2312|b0|i0|c134|p4
  3
9;接触电阻}: ≤0.3mΩ\P- {\f仿宋_GB2312|b0|i0|c134|p49;线径范围}: 240mm{\H0.7x;\S2^ ;}\P- {\f仿宋_GB2312|b0|i0|c134|p49;最大电缆直径}: 32mm\P- {\f仿宋_GB2312|b0|i0|c134|p49;可插拔次数}: {\f仿宋_GB2312|b0|i0|c134|p49;≥}500\P- {\f仿宋_GB2312|b0|i0|c134|p49;压力要求}: 130kN\P\PTechnical s
  3
pecification:\P- Material: copper alloy\P- Surface: hard-silver plated\P- Rated current: 650A\P- Contact resistance: ≤0.3mΩ\P- Wire gauge: 240mm{\H0.7x;\S2^ ;}\P- Max. insulation diameter: 32mm\P- Mating cycles: {\f仿宋_GB2312|b0|i0|c134|p49;≥}500\P- Pr
  1
essing force requirement: 130kN
  7
Romans字体
 73
     1
 44
1.0
1001
ACAD
1000
ACAD_MTEXT_DEFINED_HEIGHT_BEGIN
1070
    46
1040
161.7354166437584
1000
ACAD_MTEXT_DEFINED_HEIGHT_END
  0
LINE
  5
12C63
330
1F
100
AcDbEntity
  8
图框
 62
     1
100
AcDbLine
 10
581.6203154702539
 20
410.7928091720275
 30
0.0
 11
581.6203154702539
 21
352.2035404834792
 31
0.0
  0
MTEXT
  5
13EBA
330
1F
100
AcDbEntity
  8
图框
 62
     3
100
AcDbMText
 10
556.4110214401961
 20
174.3834156039317
 30
0.0
 40
4.478270367810497
 41
50.41858804784355
 46
13.03011827383134
 71
     5
 72
     5
  1
CHSM650-240
  7
Romans字体
 73
     1
 44
1.0
1001
ACAD
1000
ACAD_MTEXT_DEFINED_HEIGHT_BEGIN
1070
    46
1040
13.03011827383134
1000
ACAD_MTEXT_DEFINED_HEIGHT_END
  0
MTEXT
  5
13EBB
330
1F
100
AcDbEntity
  8
图框
 62
     3
100
AcDbMText
 10
556.4110214401961
 20
161.2142397982265
 30
0.0
 40
4.478270367810497
 41
50.41858804784355
 46
13.30823333757831
 71
     5
 72
     5
  1
1010301102401
  7
Romans字体
 73
     1
 44
1.0
1001
ACAD
1000
ACAD_MTEXT_DEFINED_HEIGHT_BEGIN
1070
    46
1040
13.30823333757831
1000
ACAD_MTEXT_DEFINED_HEIGHT_END
  0
MTEXT
  5
13EBC
330
1F
100
AcDbEntity
  8
图框
 62
     3
100
AcDbMText
 10
454.3305239244356
 20
141.2527871566661
 30
0.0
 40
4.478270367810497
 41
16.24402267066266
 46
11.82914191570786
 71
     5
 72
     5
  1
2:3 
  7
Romans字体
 73
     1
 44
1.0
1001
ACAD
1000
ACAD_MTEXT_DEFINED_HEIGHT_BEGIN
1070
    46
1040
11.82914191570786
1000
ACAD_MTEXT_DEFINED_HEIGHT_END
  0
MTEXT
  5
13EBD
330
1F
100
AcDbEntity
  8
图框
 62
     3
100
AcDbMText
 10
486.8185692657641
 20
141.2527871566664
 30
0.0
 40
4.478270367810497
 41
16.24402267066519
 46
11.82914191570771
 71
     5
 72
     5
  1
261g
  7
Romans字体
 73
     1
 44
1.0
1001
ACAD
1000
ACAD_MTEXT_DEFINED_HEIGHT_BEGIN
1070
    46
1040
11.82914191570771
1000
ACAD_MTEXT_DEFINED_HEIGHT_END
  0
INSERT
  5
13EBE
330
1F
100
AcDbEntity
  8
DIM
100
AcDbBlockReference
  2
A4图框-NEW
 10
-1108.77244043662
 20
-602.5098265658108
 30
0.0
 41
1.5
 42
1.5
 43
1.5
  0
LINE
  5
14F80
102
{ACAD_REACTORS
330
1506B
102
}
330
1F
100
AcDbEntity
  8
0
100
AcDbLine
 10
269.7878826955938
 20
283.1924390202605
 30
0.0
 11
299.7878826955938
 21
283.1924390202605
 31
0.0
  0
LINE
  5
14F81
330
1F
100
AcDbEntity
  8
0
100
AcDbLine
 10
269.7878826955938
 20
288.1924390202605
 30
0.0
 11
299.7878826955938
 21
288.1924390202605
 31
0.0
  0
LINE
  5
14F82
330
1F
100
AcDbEntity
  8
0
100
AcDbLine
 10
270.2878826955938
 20
288.6924390202604
 30
0.0
 11
299.2878826955938
 21
288.6924390202604
 31
0.0
  0
LINE
  5
14F83
330
1F
100
AcDbEntity
  8
0
100
AcDbLine
 10
273.2878826963942
 20
343.69243902106
 30
0.0
 11
272.2878826964942
 21
342.69243902116
 31
0.0
  0
LINE
  5
14F84
330
1F
100
AcDbEntity
  8
0
100
AcDbLine
 10
270.7878826955938
 20
340.6924390202605
 30
0.0
 11
269.787882696194
 21
339.6924390208599
 31
0.0
  0
LINE
  5
14F85
330
1F
100
AcDbEntity
  8
0
100
AcDbLine
 10
269.7878826955938
 20
318.1924390202605
 30
0.0
 11
270.2878826955938
 21
317.6924390202605
 31
0.0
  0
LINE
  5
14F86
330
1F
100
AcDbEntity
  8
0
100
AcDbLine
 10
299.2878826955938
 20
288.6924390202604
 30
0.0
 11
299.7878826955938
 21
288.1924390202605
 31
0.0
  0
LINE
  5
14F87
330
1F
100
AcDbEntity
  8
0
100
AcDbLine
 10
269.7878826955938
 20
339.6924390202605
 30
0.0
 11
269.7878826955938
 21
318.1924390202605
 31
0.0
  0
LINE
  5
14F89
330
1F
100
AcDbEntity
  8
0
100
AcDbLine
 10
269.7878826955938
 20
288.1924390202605
 30
0.0
 11
269.7878826955938
 21
283.1924390202605
 31
0.0
  0
LINE
  5
14F8A
102
{ACAD_REACTORS
330
1506F
102
}
330
1F
100
AcDbEntity
  8
0
100
AcDbLine
 10
270.2878826955938
 20
317.6924390202605
 30
0.0
 11
270.2878826955938
 21
288.6924390202604
 31
0.0
  0
LINE
  5
14F8B
330
1F
100
AcDbEntity
  8
0
100
AcDbLine
 10
272.2878826955938
 20
342.6924390202605
 30
0.0
 11
272.2878826955938
 21
340.6924390202605
 31
0.0
  0
LINE
  5
14F8D
330
1F
100
AcDbEntity
  8
0
100
AcDbLine
 10
274.7878826955956
 20
374.6924390202604
 30
0.0
 11
274.7878826955938
 21
344.6924390202604
 31
0.0
  0
ARC
  5
14F8E
330
1F
100
AcDbEntity
  8
0
100
AcDbCircle
 10
276.7878826955956
 20
374.6924390202604
 30
0.0
 40
2.0
100
AcDbArc
 50
90.0
 51
180.0
  0
LINE
  5
14F8F
330
1F
100
AcDbEntity
  8
0
100
AcDbLine
 10
270.2878826955938
 20
317.6924390202605
 30
0.0
 11
299.2878826955938
 21
317.6924390202605
 31
0.0
  0
LINE
  5
14F90
330
1F
100
AcDbEntity
  8
0
100
AcDbLine
 10
269.7878826955938
 20
318.1924390202605
 30
0.0
 11
299.7878826955938
 21
318.1924390202605
 31
0.0
  0
LINE
  5
14F91
330
1F
100
AcDbEntity
  8
0
100
AcDbLine
 10
278.249534280293
 20
339.6924390202605
 30
0.0
 11
278.249534280293
 21
321.8924390202594
 31
0.0
  0
LINE
  5
14F92
330
1F
100
AcDbEntity
  8
0
100
AcDbLine
 10
291.3262311108928
 20
321.8924390202594
 30
0.0
 11
278.249534280293
 21
321.8924390202594
 31
0.0
  0
LINE
  5
14F93
330
1F
100
AcDbEntity
  8
0
100
AcDbLine
 10
283.2878826955938
 20
376.6924390202604
 30
0.0
 11
283.2878826955938
 21
344.6924390202604
 31
0.0
  0
LINE
  5
14F94
330
1F
100
AcDbEntity
  8
CEN
 48
5.0
100
AcDbLine
 10
284.7878826955938
 20
280.1924390202604
 30
0.0
 11
284.7878826955938
 21
301.0441013179218
 31
0.0
  0
LINE
  5
14F95
330
1F
100
AcDbEntity
  8
0
100
AcDbLine
 10
286.2878826955938
 20
344.6924390202604
 30
0.0
 11
286.2878826955938
 21
376.6924390202604
 31
0.0
  0
LINE
  5
14F96
330
1F
100
AcDbEntity
  8
0
100
AcDbLine
 10
291.3262311108928
 20
339.6924390202605
 30
0.0
 11
291.3262311108928
 21
321.8924390202594
 31
0.0
  0
LINE
  5
14F97
330
1F
100
AcDbEntity
  8
0
100
AcDbLine
 10
294.7878826955938
 20
374.6924390202604
 30
0.0
 11
294.7878826955938
 21
344.6924390202604
 31
0.0
  0
ARC
  5
14F98
330
1F
100
AcDbEntity
  8
0
100
AcDbCircle
 10
292.7878826955938
 20
374.6924390202604
 30
0.0
 40
2.0
100
AcDbArc
 50
0.0
 51
90.0
  0
LINE
  5
14F99
330
1F
100
AcDbEntity
  8
0
100
AcDbLine
 10
297.2878826955938
 20
342.6924390202605
 30
0.0
 11
297.2878826955938
 21
340.6924390202605
 31
0.0
  0
LINE
  5
14F9B
330
1F
100
AcDbEntity
  8
0
100
AcDbLine
 10
299.7878826955938
 20
339.6924390202605
 30
0.0
 11
291.3262311108928
 21
339.6924390202605
 31
0.0
  0
LINE
  5
14F9C
330
1F
100
AcDbEntity
  8
0
100
AcDbLine
 10
278.249534280293
 20
339.6924390202605
 30
0.0
 11
269.7878826955938
 21
339.6924390202605
 31
0.0
  0
LINE
  5
14F9D
330
1F
100
AcDbEntity
  8
0
100
AcDbLine
 10
270.7881808342926
 20
340.6924390202605
 30
0.0
 11
298.7875845569933
 21
340.6924390202605
 31
0.0
  0
LINE
  5
14F9E
330
1F
100
AcDbEntity
  8
0
100
AcDbLine
 10
297.2878826955938
 20
342.6924390202605
 30
0.0
 11
272.2878826955938
 21
342.6924390202605
 31
0.0
  0
LINE
  5
14F9F
102
{ACAD_REACTORS
330
1506F
102
}
330
1F
100
AcDbEntity
  8
0
100
AcDbLine
 10
299.2878826955938
 20
317.6924390202605
 30
0.0
 11
299.2878826955938
 21
288.6924390202604
 31
0.0
  0
LINE
  5
14FA0
330
1F
100
AcDbEntity
  8
0
100
AcDbLine
 10
299.7878826955938
 20
339.6924390202605
 30
0.0
 11
299.7878826955938
 21
318.1924390202605
 31
0.0
  0
LINE
  5
14FA2
330
1F
100
AcDbEntity
  8
0
100
AcDbLine
 10
299.7878826955938
 20
288.1924390202605
 30
0.0
 11
299.7878826955938
 21
283.1924390202605
 31
0.0
  0
LINE
  5
14FA3
330
1F
100
AcDbEntity
  8
0
100
AcDbLine
 10
296.2878826954938
 20
343.6924390202605
 30
0.0
 11
273.2878826957939
 21
343.6924390202605
 31
0.0
  0
LINE
  5
14FA4
330
1F
100
AcDbEntity
  8
0
100
AcDbLine
 10
274.7878826955938
 20
344.6924390202604
 30
0.0
 11
294.7878826955938
 21
344.6924390202604
 31
0.0
  0
LINE
  5
14FA5
330
1F
100
AcDbEntity
  8
0
100
AcDbLine
 10
299.7878826955938
 20
318.1924390202605
 30
0.0
 11
299.2878826955938
 21
317.6924390202605
 31
0.0
  0
LINE
  5
14FA6
330
1F
100
AcDbEntity
  8
0
100
AcDbLine
 10
270.2878826955938
 20
288.6924390202604
 30
0.0
 11
269.7878826955938
 21
288.1924390202605
 31
0.0
  0
LINE
  5
14FA7
330
1F
100
AcDbEntity
  8
0
100
AcDbLine
 10
298.7878826955938
 20
340.6924390202605
 30
0.0
 11
299.7878826949935
 21
339.6924390208599
 31
0.0
  0
LINE
  5
14FA8
330
1F
100
AcDbEntity
  8
0
100
AcDbLine
 10
296.2878826946934
 20
343.69243902116
 30
0.0
 11
297.2878826945933
 21
342.69243902126
 31
0.0
  0
LINE
  5
14FA9
330
1F
100
AcDbEntity
  8
0
100
AcDbLine
 10
292.7878826955938
 20
376.6924390202604
 30
0.0
 11
286.2878826955938
 21
376.6924390202604
 31
0.0
  0
LINE
  5
14FAA
330
1F
100
AcDbEntity
  8
0
100
AcDbLine
 10
283.2878826955938
 20
376.6924390202604
 30
0.0
 11
276.7878826955956
 21
376.6924390202604
 31
0.0
  0
LINE
  5
14FAB
330
1F
100
AcDbEntity
  8
0
100
AcDbLine
 10
357.8018717784534
 20
283.1924390202605
 30
0.0
 11
387.8018717784533
 21
283.1924390202605
 31
0.0
  0
LINE
  5
14FAC
330
1F
100
AcDbEntity
  8
0
100
AcDbLine
 10
361.5518717784533
 20
284.9244898277595
 30
0.0
 11
384.0518717784533
 21
284.9244898277595
 31
0.0
  0
LINE
  5
14FAD
330
1F
100
AcDbEntity
  8
0
100
AcDbLine
 10
361.3018717784533
 20
343.6924390202605
 30
0.0
 11
360.3018717784534
 21
342.6924390202605
 31
0.0
  0
LINE
  5
14FAE
330
1F
100
AcDbEntity
  8
0
100
AcDbLine
 10
357.8018717784534
 20
318.1924390202605
 30
0.0
 11
358.3018717784534
 21
317.6924390202605
 31
0.0
  0
LINE
  5
14FAF
330
1F
100
AcDbEntity
  8
0
100
AcDbLine
 10
387.3018717784534
 20
288.6924390202604
 30
0.0
 11
387.8018717784533
 21
288.1924390202605
 31
0.0
  0
LINE
  5
14FB0
330
1F
100
AcDbEntity
  8
0
100
AcDbLine
 10
357.8018717784534
 20
321.8924390202594
 30
0.0
 11
357.8018717784534
 21
318.1924390202605
 31
0.0
  0
LINE
  5
14FB1
330
1F
100
AcDbEntity
  8
0
100
AcDbLine
 10
357.8018717784534
 20
288.1924390202605
 30
0.0
 11
357.8018717784534
 21
283.1924390202605
 31
0.0
  0
LINE
  5
14FB2
330
1F
100
AcDbEntity
  8
0
100
AcDbLine
 10
358.3018717784534
 20
317.6924390202605
 30
0.0
 11
358.3018717784534
 21
288.6924390202604
 31
0.0
  0
LINE
  5
14FB3
330
1F
100
AcDbEntity
  8
0
100
AcDbLine
 10
359.3018717784533
 20
340.6924390202605
 30
0.0
 11
359.3018717784533
 21
321.8924390202594
 31
0.0
  0
LINE
  5
14FB4
330
1F
100
AcDbEntity
  8
0
100
AcDbLine
 10
360.3018717784534
 20
342.6924390202605
 30
0.0
 11
360.3018717784534
 21
340.6924390202605
 31
0.0
  0
LINE
  5
14FB5
330
1F
100
AcDbEntity
  8
0
100
AcDbLine
 10
361.5518717784533
 20
327.1924390202605
 30
0.0
 11
361.5518717784533
 21
284.9244898277595
 31
0.0
  0
LINE
  5
14FB6
330
1F
100
AcDbEntity
  8
0
100
AcDbLine
 10
362.9150118131428
 20
374.6924390202597
 30
0.0
 11
362.915011811753
 21
344.6924390202604
 31
0.0
  0
LINE
  5
14FB7
330
1F
100
AcDbEntity
  8
0
100
AcDbLine
 10
384.0518717784533
 20
284.9244898277595
 30
0.0
 11
385.0518717784534
 21
283.1924390202605
 31
0.0
  0
LINE
  5
14FB8
330
1F
100
AcDbEntity
  8
0
100
AcDbLine
 10
387.8018717784533
 20
321.8924390202594
 30
0.0
 11
386.3018717784533
 21
321.8924390202594
 31
0.0
  0
LINE
  5
14FB9
330
1F
100
AcDbEntity
  8
0
100
AcDbLine
 10
359.3018717784533
 20
321.8924390202594
 30
0.0
 11
357.8018717784534
 21
321.8924390202594
 31
0.0
  0
LINE
  5
14FBA
330
1F
100
AcDbEntity
  8
0
100
AcDbLine
 10
384.0518717784533
 20
322.6924390202605
 30
0.0
 11
386.3018717784533
 21
322.6924390202605
 31
0.0
  0
LINE
  5
14FBB
330
1F
100
AcDbEntity
  8
0
100
AcDbLine
 10
372.8018717784534
 20
333.9521209842599
 30
0.0
 11
361.5518717784533
 21
327.1924390202605
 31
0.0
  0
LINE
  5
14FBC
330
1F
100
AcDbEntity
  8
CEN
  6
CENTER
 62
     1
 48
2.0
370
     0
100
AcDbLine
 10
380.8726666911523
 20
324.6924390202605
 30
0.0
 11
389.3018717784534
 21
324.6924390202605
 31
0.0
  0
LINE
  5
14FBD
330
1F
100
AcDbEntity
  8
CEN
 48
5.0
100
AcDbLine
 10
372.8018717784534
 20
280.1924390202604
 30
0.0
 11
372.8018717784534
 21
379.6924390202605
 31
0.0
  0
LINE
  5
14FBE
330
1F
100
AcDbEntity
  8
0
100
AcDbLine
 10
384.0518717784533
 20
326.6924390202605
 30
0.0
 11
386.3018717784533
 21
326.6924390202605
 31
0.0
  0
LINE
  5
14FBF
102
{ACAD_REACTORS
330
15062
102
}
330
1F
100
AcDbEntity
  8
0
100
AcDbLine
 10
361.5518717784533
 20
327.1924390202605
 30
0.0
 11
384.0518717784533
 21
327.1924390202605
 31
0.0
  0
LINE
  5
14FC0
330
1F
100
AcDbEntity
  8
0
100
AcDbLine
 10
372.8018717784534
 20
333.9521209842599
 30
0.0
 11
384.0518717784533
 21
327.1924390202605
 31
0.0
  0
LINE
  5
14FC1
330
1F
100
AcDbEntity
  8
0
100
AcDbLine
 10
382.6887317438767
 20
374.6924390202597
 30
0.0
 11
382.6887317450518
 21
344.6924390202604
 31
0.0
  0
LINE
  5
14FC2
330
1F
100
AcDbEntity
  8
0
100
AcDbLine
 10
384.0518717784533
 20
327.1924390202605
 30
0.0
 11
384.0518717784533
 21
326.6924390202605
 31
0.0
  0
LINE
  5
14FC3
330
1F
100
AcDbEntity
  8
0
100
AcDbLine
 10
384.0518717784533
 20
322.6924390202605
 30
0.0
 11
384.0518717784533
 21
284.9244898277595
 31
0.0
  0
LINE
  5
14FC4
330
1F
100
AcDbEntity
  8
0
100
AcDbLine
 10
385.3018717784534
 20
342.6924390202605
 30
0.0
 11
385.3018717784534
 21
340.6924390202605
 31
0.0
  0
LINE
  5
14FC5
330
1F
100
AcDbEntity
  8
0
100
AcDbLine
 10
361.5518717784533
 20
284.9244898277595
 30
0.0
 11
360.5518717784534
 21
283.1924390202605
 31
0.0
  0
LINE
  5
14FC6
330
1F
100
AcDbEntity
  8
0
100
AcDbLine
 10
386.3018717784533
 20
340.6924390202605
 30
0.0
 11
385.3018717784534
 21
340.6924390202605
 31
0.0
  0
LINE
  5
14FC7
330
1F
100
AcDbEntity
  8
0
100
AcDbLine
 10
360.3018717784534
 20
340.6924390202605
 30
0.0
 11
359.3018717784533
 21
340.6924390202605
 31
0.0
  0
LINE
  5
14FC8
330
1F
100
AcDbEntity
  8
0
100
AcDbLine
 10
386.3018717784533
 20
321.8924390202594
 30
0.0
 11
386.3018717784533
 21
340.6924390202605
 31
0.0
  0
LINE
  5
14FC9
330
1F
100
AcDbEntity
  8
0
100
AcDbLine
 10
387.3018717784534
 20
317.6924390202605
 30
0.0
 11
387.3018717784534
 21
288.6924390202604
 31
0.0
  0
LINE
  5
14FCA
330
1F
100
AcDbEntity
  8
0
100
AcDbLine
 10
387.8018717784533
 20
321.8924390202594
 30
0.0
 11
387.8018717784533
 21
318.1924390202605
 31
0.0
  0
LINE
  5
14FCB
330
1F
100
AcDbEntity
  8
0
100
AcDbLine
 10
387.8018717784533
 20
288.1924390202605
 30
0.0
 11
387.8018717784533
 21
283.1924390202605
 31
0.0
  0
LINE
  5
14FCC
330
1F
100
AcDbEntity
  8
0
100
AcDbLine
 10
384.3018717784533
 20
343.6924390202605
 30
0.0
 11
383.8018717784533
 21
343.6924390202605
 31
0.0
  0
LINE
  5
14FCD
330
1F
100
AcDbEntity
  8
0
100
AcDbLine
 10
361.8018717784533
 20
343.6924390202605
 30
0.0
 11
361.3018717784533
 21
343.6924390202605
 31
0.0
  0
LINE
  5
14FCE
330
1F
100
AcDbEntity
  8
0
100
AcDbLine
 10
362.8018717784533
 20
344.6924390202604
 30
0.0
 11
382.8018717784534
 21
344.6924390202604
 31
0.0
  0
LINE
  5
14FCF
330
1F
100
AcDbEntity
  8
0
100
AcDbLine
 10
387.8018717784533
 20
318.1924390202605
 30
0.0
 11
387.3018717784534
 21
317.6924390202605
 31
0.0
  0
LINE
  5
14FD0
330
1F
100
AcDbEntity
  8
0
100
AcDbLine
 10
358.3018717784534
 20
288.6924390202604
 30
0.0
 11
357.8018717784534
 21
288.1924390202605
 31
0.0
  0
LINE
  5
14FD1
330
1F
100
AcDbEntity
  8
0
100
AcDbLine
 10
384.3018717784533
 20
343.6924390202605
 30
0.0
 11
385.3018717784534
 21
342.6924390202605
 31
0.0
  0
LINE
  5
14FD2
330
1F
100
AcDbEntity
  8
0
100
AcDbLine
 10
291.3262311108928
 20
218.7909207533323
 30
0.0
 11
278.249534280293
 21
218.7909207533323
 31
0.0
  0
LINE
  5
14FD3
330
1F
100
AcDbEntity
  8
0
100
AcDbLine
 10
283.2878826955938
 20
222.4040607880326
 30
0.0
 11
283.2878826955938
 21
242.1777807189321
 31
0.0
  0
LINE
  5
14FD4
330
1F
100
AcDbEntity
  8
0
100
AcDbLine
 10
286.2878826955938
 20
222.4040607878325
 30
0.0
 11
286.2878826955938
 21
242.177780718632
 31
0.0
  0
LINE
  5
14FD5
330
1F
100
AcDbEntity
  8
0
100
AcDbLine
 10
278.249534280293
 20
245.7909207533323
 30
0.0
 11
291.3262311108928
 21
245.7909207533323
 31
0.0
  0
LWPOLYLINE
  5
14FD6
330
1F
100
AcDbEntity
  8
0
100
AcDbPolyline
 90
        6
 70
     0
 43
0.0
 10
170.506887211052
 20
209.2571253988916
 10
170.2291214777529
 20
208.0176449907921
 10
170.151129503453
 20
206.7514339227927
 10
170.2657528181522
 20
205.4897061693918
 10
170.6203449185528
 20
204.0536803746926
 10
171.1329410430522
 20
202.8010000998919
  0
LINE
  5
14FD7
330
1F
100
AcDbEntity
  8
0
100
AcDbLine
 10
175.4780719175529
 20
203.1495582346924
 30
0.0
 11
179.5286161713526
 21
216.2571242437915
 31
0.0
  0
LINE
  5
14FD8
330
1F
100
AcDbEntity
  8
0
100
AcDbLine
 10
178.2412549028528
 20
203.1495582453917
 30
0.0
 11
182.2917991566524
 21
216.2571242544927
 31
0.0
  0
LINE
  5
14FD9
330
1F
100
AcDbEntity
  8
0
100
AcDbLine
 10
176.4004679339528
 20
180.7172417531928
 30
0.0
 11
182.9588680665516
 21
167.3526274353916
 31
0.0
  0
LINE
  5
14FDA
330
1F
100
AcDbEntity
  8
0
100
AcDbLine
 10
192.1101240655522
 20
148.7043283872916
 30
0.0
 11
193.6353333986522
 21
145.5962785458922
 31
0.0
  0
LINE
  5
14FDB
330
1F
100
AcDbEntity
  8
0
100
AcDbLine
 10
184.5953229354514
 20
165.1528467655915
 30
0.0
 11
192.4064689589528
 21
149.2354047258922
 31
0.0
  0
LINE
  5
14FDC
330
1F
100
AcDbEntity
  8
0
100
AcDbLine
 10
184.5663660695523
 20
182.6887887645916
 30
0.0
 11
185.6340570798516
 21
186.1438381401921
 31
0.0
  0
LINE
  5
14FDD
330
1F
100
AcDbEntity
  8
0
100
AcDbLine
 10
186.0060749053524
 20
165.685811671692
 30
0.0
 11
198.0505102864523
 21
165.685811671692
 31
0.0
  0
LINE
  5
14FDE
330
1F
100
AcDbEntity
  8
0
100
AcDbLine
 10
180.5763296793526
 20
176.7504691068915
 30
0.0
 11
186.0060749053524
 21
165.685811671692
 31
0.0
  0
LINE
  5
14FDF
330
1F
100
AcDbEntity
  8
0
100
AcDbLine
 10
177.7296714676527
 20
183.6834284302921
 30
0.0
 11
178.3397552009524
 21
182.4402084937918
 31
0.0
  0
LINE
  5
14FE0
330
1F
100
AcDbEntity
  8
0
100
AcDbLine
 10
171.1329422537516
 20
202.8009976246921
 30
0.0
 11
171.1277850075517
 21
202.8114772604921
 31
0.0
  0
LINE
  5
14FE1
330
1F
100
AcDbEntity
  8
0
100
AcDbLine
 10
171.1277864689515
 20
202.8114742823926
 30
0.0
 11
179.3639168680516
 21
186.0280051390926
 31
0.0
  0
LINE
  5
14FE2
330
1F
100
AcDbEntity
  8
0
100
AcDbLine
 10
176.3302367830516
 20
199.4722556423921
 30
0.0
 11
184.5663660695523
 21
182.6887887645916
 31
0.0
  0
LINE
  5
14FE3
330
1F
100
AcDbEntity
  8
0
100
AcDbLine
 10
179.0934198329529
 20
199.4722555037923
 30
0.0
 11
187.3295490515525
 21
182.6887887645916
 31
0.0
  0
LINE
  5
14FE4
330
1F
100
AcDbEntity
  8
0
100
AcDbLine
 10
192.6207650604525
 20
176.7504691068915
 30
0.0
 11
198.0505102864523
 21
165.685811671692
 31
0.0
  0
LINE
  5
14FE5
330
1F
100
AcDbEntity
  8
0
100
AcDbLine
 10
189.7088910783519
 20
177.3720790751921
 30
0.0
 11
182.8781199281517
 21
177.3720790751921
 31
0.0
  0
LINE
  5
14FE6
330
1F
100
AcDbEntity
  8
0
100
AcDbLine
 10
181.1167883546519
 20
214.9615427962925
 30
0.0
 11
181.5921118597531
 21
213.9929353319921
 31
0.0
  0
LINE
  5
14FE7
330
1F
100
AcDbEntity
  8
0
100
AcDbLine
 10
189.0824195382525
 20
211.6223284605921
 30
0.0
 11
197.3185499373527
 21
194.8388593172921
 31
0.0
  0
LINE
  5
14FE8
330
1F
100
AcDbEntity
  8
0
100
AcDbLine
 10
189.0824209996521
 20
211.6223254824926
 30
0.0
 11
189.0879150762526
 21
211.6110956362917
 31
0.0
  0
LWPOLYLINE
  5
14FE9
330
1F
100
AcDbEntity
  8
0
100
AcDbPolyline
 90
        7
 70
     0
 43
0.0
 10
189.0879139006525
 20
211.611098024592
 10
188.3726021445514
 20
212.8393251735924
 10
187.4207827222513
 20
214.0178545455928
 10
186.4502020674523
 20
214.8945725583925
 10
185.339760350053
 20
215.6150521954923
 10
183.9963580247518
 20
216.185099233492
 10
182.6047594736525
 20
216.5070949847922
  0
LINE
  5
14FEA
330
1F
100
AcDbEntity
  8
0
100
AcDbLine
 10
200.1729628042527
 20
194.6969961530921
 30
0.0
 11
200.7830465374524
 21
193.4537762164927
 31
0.0
  0
LINE
  5
14FEB
330
1F
100
AcDbEntity
  8
0
100
AcDbLine
 10
210.6499885590516
 20
177.8869173469919
 30
0.0
 11
218.4406869093515
 21
162.0111432842922
 31
0.0
  0
LINE
  5
14FEC
330
1F
100
AcDbEntity
  8
0
100
AcDbLine
 10
203.3324175377516
 20
193.9335230204923
 30
0.0
 11
209.8908176703522
 21
180.5689087026921
 31
0.0
  0
LINE
  5
14FED
330
1F
100
AcDbEntity
  8
0
100
AcDbLine
 10
219.0420736693528
 20
161.9206096545921
 30
0.0
 11
220.5672830025529
 21
158.8125598131918
 31
0.0
  0
LINE
  5
14FEE
330
1F
100
AcDbEntity
  8
0
100
AcDbLine
 10
196.2446818103513
 20
198.5219056350924
 30
0.0
 11
195.5111733168529
 21
198.5219056350924
 31
0.0
  0
LWPOLYLINE
  5
14FEF
330
1F
100
AcDbEntity
  8
0
100
AcDbPolyline
 90
        9
 70
     0
 43
0.0
 10
179.7630316607525
 20
216.5081248768919
 10
179.0703590480521
 20
216.3913768722922
 10
177.4310516289521
 20
215.9384974521926
 10
175.8515310159515
 20
215.2531331309928
 10
174.3778929145524
 20
214.3534664517919
 10
173.0562596508522
 20
213.2606632041915
 10
171.9345544685516
 20
212.0016228296917
 10
171.0596994501526
 20
210.6114936859921
 10
170.506562952553
 20
209.2560735592923
  0
CIRCLE
  5
14FF0
330
1F
100
AcDbEntity
  8
0
100
AcDbCircle
 10
284.7878826955938
 20
324.6924390202605
 30
0.0
 40
2.0
  0
ARC
  5
14FF1
330
1F
100
AcDbEntity
  8
0
100
AcDbCircle
 10
295.7878826955938
 20
344.6924390202604
 30
0.0
 40
1.0
100
AcDbArc
 50
180.0
 51
270.0
  0
ARC
  5
14FF2
330
1F
100
AcDbEntity
  8
0
100
AcDbCircle
 10
273.7878826955938
 20
344.6924390202604
 30
0.0
 40
1.0
100
AcDbArc
 50
270.0
 51
0.0
  0
ARC
  5
14FF3
330
1F
100
AcDbEntity
  8
0
100
AcDbCircle
 10
383.8018717784533
 20
344.6924390202604
 30
0.0
 40
1.0
100
AcDbArc
 50
180.0
 51
270.0
  0
ARC
  5
14FF4
330
1F
100
AcDbEntity
  8
0
100
AcDbCircle
 10
361.8018717784533
 20
344.6924390202604
 30
0.0
 40
1.0
100
AcDbArc
 50
270.0
 51
0.0
  0
CIRCLE
  5
14FF5
330
1F
100
AcDbEntity
  8
0
100
AcDbCircle
 10
284.7878826955938
 20
232.2909207533323
 30
0.0
 40
15.0
  0
ARC
  5
14FF6
330
1F
100
AcDbEntity
  8
0
100
AcDbCircle
 10
284.7878826955938
 20
232.2909207533323
 30
0.0
 40
14.0
100
AcDbArc
 50
285.3588855807997
 51
74.64111441920036
  0
ARC
  5
14FF7
330
1F
100
AcDbEntity
  8
0
100
AcDbCircle
 10
284.7878826955938
 20
232.2909207533323
 30
0.0
 40
14.0
100
AcDbArc
 50
105.3588855807996
 51
254.6411144192004
  0
CIRCLE
  5
14FF8
330
1F
100
AcDbEntity
  8
0
100
AcDbCircle
 10
284.7878826955938
 20
232.2909207533323
 30
0.0
 40
12.5
  0
CIRCLE
  5
14FF9
330
1F
100
AcDbEntity
  8
0
100
AcDbCircle
 10
284.7878826955938
 20
232.2909207533323
 30
0.0
 40
11.5
  0
CIRCLE
  5
14FFA
330
1F
100
AcDbEntity
  8
0
100
AcDbCircle
 10
284.7878826955938
 20
232.2909207533323
 30
0.0
 40
11.0
  0
CIRCLE
  5
14FFB
330
1F
100
AcDbEntity
  8
0
100
AcDbCircle
 10
284.7878826955938
 20
232.2909207533323
 30
0.0
 40
10.0
  0
ARC
  5
14FFC
330
1F
100
AcDbEntity
  8
0
100
AcDbCircle
 10
284.7878826406931
 20
232.2909206323322
 30
0.0
 40
8.4999999451
100
AcDbArc
 50
100.1642483122736
 51
259.8357512270332
  0
ARC
  5
14FFD
330
1F
100
AcDbEntity
  8
0
100
AcDbCircle
 10
284.7878827504927
 20
232.2909208743324
 30
0.0
 40
8.4999999451
100
AcDbArc
 50
280.1642483122736
 51
79.83575122703323
  0
ARC
  5
14FFE
330
1F
100
AcDbEntity
  8
0
100
AcDbCircle
 10
188.5172617717513
 20
184.1356970275919
 30
0.0
 40
12.4551722309
100
AcDbArc
 50
152.7117688730006
 51
155.4680851715909
  0
ARC
  5
14FFF
330
1F
100
AcDbEntity
  8
0
100
AcDbCircle
 10
186.6995218627531
 20
186.3272762482919
 30
0.0
 40
9.693873147099999
100
AcDbArc
 50
160.232310711696
 51
162.8223981181053
  0
SPLINE
  5
15000
330
1F
100
AcDbEntity
  8
0
100
AcDbSpline
210
0.0
220
0.0
230
1.0
 70
     8
 71
     3
 72
     9
 73
     5
 74
     0
 42
0.0000000001
 43
0.0000000001
 40
0.0
 40
0.0
 40
0.0
 40
0.0
 40
0.2500795941
 40
1.0
 40
1.0
 40
1.0
 40
1.0
 10
281.0797834520935
 20
340.6924390202605
 30
0.0
 10
280.8377619483934
 20
340.6283361806602
 30
0.0
 10
279.8757726783941
 20
340.3501928814606
 30
0.0
 10
278.9377749596941
 20
339.9924361772594
 30
0.0
 10
278.249534280293
 20
339.6924390202605
 30
0.0
  0
SPLINE
  5
15001
330
1F
100
AcDbEntity
  8
0
100
AcDbSpline
210
0.0
220
0.0
230
1.0
 70
     8
 71
     3
 72
     9
 73
     5
 74
     0
 42
0.0000000001
 43
0.0000000001
 40
0.0
 40
0.0
 40
0.0
 40
0.0
 40
0.7499204806000001
 40
1.0
 40
1.0
 40
1.0
 40
1.0
 10
291.3262311108928
 20
339.6924390202605
 30
0.0
 10
290.6379903625938
 20
339.99243620726
 30
0.0
 10
289.6999926564939
 20
340.3501929542601
 30
0.0
 10
288.738003370593
 20
340.6283361997596
 30
0.0
 10
288.4959819391942
 20
340.6924390202605
 30
0.0
  0
SPLINE
  5
15002
330
1F
100
AcDbEntity
  8
0
100
AcDbSpline
210
0.0
220
0.0
230
1.0
 70
     8
 71
     3
 72
     9
 73
     5
 74
     0
 42
0.0000000001
 43
0.0000000001
 40
0.0
 40
0.0
 40
0.0
 40
0.0
 40
0.2948646458
 40
1.0
 40
1.0
 40
1.0
 40
1.0
 10
384.0518717784533
 20
326.6924390202605
 30
0.0
 10
384.017218416352
 20
326.4980974249595
 30
0.0
 10
383.916160949252
 20
325.8354855601595
 30
0.0
 10
383.8726666911524
 20
325.16478979106
 30
0.0
 10
383.8726666911524
 20
324.6924390202605
 30
0.0
  0
SPLINE
  5
15003
330
1F
100
AcDbEntity
  8
0
100
AcDbSpline
210
0.0
220
0.0
230
1.0
 70
     8
 71
     3
 72
     9
 73
     5
 74
     0
 42
0.0000000001
 43
0.0000000001
 40
0.0
 40
0.0
 40
0.0
 40
0.0
 40
0.7051336359000002
 40
1.0
 40
1.0
 40
1.0
 40
1.0
 10
383.8726666911524
 20
324.6924390202605
 30
0.0
 10
383.8726666911524
 20
324.2200893990597
 30
0.0
 10
383.9161608401527
 20
323.5493936338601
 30
0.0
 10
384.0172182131527
 20
322.88678174846
 30
0.0
 10
384.0518717784533
 20
322.6924390202605
 30
0.0
  0
SPLINE
  5
15004
330
1F
100
AcDbEntity
  8
0
100
AcDbSpline
210
0.0
220
0.0
230
1.0
 70
     8
 71
     3
 72
     9
 73
     5
 74
     0
 42
0.0000000001
 43
0.0000000001
 40
0.0
 40
0.0
 40
0.0
 40
0.0
 40
0.4740381763000002
 40
1.0
 40
1.0
 40
1.0
 40
1.0
 10
193.0849424708527
 20
166.8355747770919
 30
0.0
 10
193.1132407544524
 20
166.9270175937926
 30
0.0
 10
193.1285926671521
 20
167.1353480455926
 30
0.0
 10
193.0630857201528
 20
167.3309749238923
 30
0.0
 10
193.016297357352
 20
167.4263195827915
 30
0.0
  0
SPLINE
  5
15005
330
1F
100
AcDbEntity
  8
0
100
AcDbSpline
210
0.0
220
0.0
230
1.0
 70
     8
 71
     3
 72
    11
 73
     7
 74
     0
 42
0.0000000001
 43
0.0000000001
 40
0.0
 40
0.0
 40
0.0
 40
0.0
 40
0.2661339902
 40
0.5192078892000001
 40
0.7623144402
 40
1.0
 40
1.0
 40
1.0
 40
1.0
 10
195.5627553513519
 20
198.4476562791923
 30
0.0
 10
196.0776833264523
 20
198.2817554149923
 30
0.0
 10
197.0586013914513
 20
197.8753182814925
 30
0.0
 10
198.3639792595519
 20
197.0224690232916
 30
0.0
 10
199.4289403251519
 20
195.9624512725921
 30
0.0
 10
199.9600770176517
 20
195.1307311974923
 30
0.0
 10
200.1729417023531
 20
194.6969847709923
 30
0.0
  0
SPLINE
  5
15006
330
1F
100
AcDbEntity
  8
0
100
AcDbSpline
210
0.0
220
0.0
230
1.0
 70
     8
 71
     3
 72
     9
 73
     5
 74
     0
 42
0.0000000001
 43
0.0000000001
 40
0.0
 40
0.0
 40
0.0
 40
0.0
 40
0.2427517485
 40
1.0
 40
1.0
 40
1.0
 40
1.0
 10
176.050527825852
 20
187.3253823868926
 30
0.0
 10
176.1241085940515
 20
187.563489840292
 30
0.0
 10
176.4592562976528
 20
188.5343349115918
 30
0.0
 10
176.9168804246515
 20
189.4615290623923
 30
0.0
 10
177.3158333778525
 20
190.128772774492
 30
0.0
  0
SPLINE
  5
15007
330
1F
100
AcDbEntity
  8
0
100
AcDbSpline
210
0.0
220
0.0
230
1.0
 70
     8
 71
     3
 72
    11
 73
     7
 74
     0
 42
0.0000000001
 43
0.0000000001
 40
0.0
 40
0.0
 40
0.0
 40
0.0
 40
0.261571903
 40
0.5136296374000002
 40
0.7586537126000002
 40
1.0
 40
1.0
 40
1.0
 40
1.0
 10
199.1565557923519
 20
197.9002956667918
 30
0.0
 10
199.6189821157519
 20
197.6820430304923
 30
0.0
 10
200.4978072699528
 20
197.1869606892923
 30
0.0
 10
201.6627970211526
 20
196.2584697162919
 30
0.0
 10
202.626587614052
 20
195.1742216038928
 30
0.0
 10
203.1245736942516
 20
194.3570796651919
 30
0.0
 10
203.3324093673515
 20
193.9335184098925
 30
0.0
  0
SPLINE
  5
15008
330
1F
100
AcDbEntity
  8
0
100
AcDbSpline
210
0.0
220
0.0
230
1.0
 70
     8
 71
     3
 72
     9
 73
     5
 74
     0
 42
0.0000000001
 43
0.0000000001
 40
0.0
 40
0.0
 40
0.0
 40
0.0
 40
0.5035511122000002
 40
1.0
 40
1.0
 40
1.0
 40
1.0
 10
217.4264282106529
 20
164.1358834643923
 30
0.0
 10
217.7575312909526
 20
163.8137827544923
 30
0.0
 10
218.3639429936526
 20
163.118917171192
 30
0.0
 10
218.841408930452
 20
162.3294313027925
 30
0.0
 10
219.0420478677521
 20
161.9205969925923
 30
0.0
  0
SPLINE
  5
15009
330
1F
100
AcDbEntity
  8
0
100
AcDbSpline
210
0.0
220
0.0
230
1.0
 70
     8
 71
     3
 72
    21
 73
    17
 74
     0
 42
0.0000000001
 43
0.0000000001
 40
0.0
 40
0.0
 40
0.0
 40
0.0
 40
0.0507163986
 40
0.1025699436
 40
0.1565174987
 40
0.2132150727
 40
0.2729737022
 40
0.3357751044
 40
0.4013187583
 40
0.4690805285000001
 40
0.5383728362
 40
0.6084030449000001
 40
0.7470829412000001
 40
0.8143626596
 40
0.8792769041999999
 40
1.0
 40
1.0
 40
1.0
 40
1.0
 10
193.6351983512528
 20
145.5966189832924
 30
0.0
 10
193.8883736048525
 20
145.0806724906923
 30
0.0
 10
194.5189158787512
 20
144.0910414330918
 30
0.0
 10
195.7811842350515
 20
142.8272588568924
 30
0.0
 10
197.3281677963519
 20
141.8069425649918
 30
0.0
 10
199.1170415008515
 20
141.0541101343923
 30
0.0
 10
201.1019014272521
 20
140.5842274172918
 30
0.0
 10
203.2332814629522
 20
140.4066954588924
 30
0.0
 10
205.4587822808522
 20
140.5244284418921
 30
0.0
 10
207.723553231052
 20
140.9336311174919
 30
0.0
 10
209.972374609452
 20
141.6240141168927
 30
0.0
 10
212.8622158704517
 20
142.8905296159918
 30
0.0
 10
215.5022905939519
 20
144.6291641453916
 30
0.0
 10
217.7247220230516
 20
146.7574219813922
 30
0.0
 10
219.528273374152
 20
148.9897835549926
 30
0.0
 10
220.5133161914515
 20
150.8973759098916
 30
0.0
 10
220.9172231106518
 20
152.204419179592
 30
0.0
  0
SPLINE
  5
1500A
330
1F
100
AcDbEntity
  8
0
100
AcDbSpline
210
0.0
220
0.0
230
1.0
 70
     8
 71
     3
 72
    21
 73
    17
 74
     0
 42
0.0000000001
 43
0.0000000001
 40
0.0
 40
0.0
 40
0.0
 40
0.0
 40
0.0507163889
 40
0.1025701199
 40
0.1565179804
 40
0.2132159002
 40
0.2729748499
 40
0.3357764999
 40
0.4013203026
 40
0.4690821131
 40
0.5383743576
 40
0.6084044147
 40
0.7470838431999999
 40
0.8143632936999999
 40
0.8792772845
 40
1.0
 40
1.0
 40
1.0
 40
1.0
 10
182.9588938681523
 20
167.3526400973923
 30
0.0
 10
183.2120904711524
 20
166.8367110360922
 30
0.0
 10
183.842671975252
 20
165.8471178972921
 30
0.0
 10
185.1049814619515
 20
164.5833965524924
 30
0.0
 10
186.6519912416521
 20
163.5631398778922
 30
0.0
 10
188.4408772329521
 20
162.8103631008924
 30
0.0
 10
190.4257368238528
 20
162.3405304459919
 30
0.0
 10
192.5571053549525
 20
162.1630417032919
 30
0.0
 10
194.7825851684525
 20
162.280810078092
 30
0.0
 10
197.0473275321515
 20
162.6900396382915
 30
0.0
 10
199.296114849753
 20
163.380440670392
 30
0.0
 10
202.1859055696519
 20
164.6469679176915
 30
0.0
 10
204.8259297361516
 20
166.3855979984927
 30
0.0
 10
207.0483169031528
 20
168.513838109592
 30
0.0
 10
208.8518325210522
 20
170.746175952392
 30
0.0
 10
209.836856442053
 20
172.6537428652916
 30
0.0
 10
210.240757778553
 20
173.9607680690923
 30
0.0
  0
SPLINE
  5
1500B
330
1F
100
AcDbEntity
  8
0
100
AcDbSpline
210
0.0
220
0.0
230
1.0
 70
     8
 71
     3
 72
     9
 73
     5
 74
     0
 42
0.0000000001
 43
0.0000000001
 40
0.0
 40
0.0
 40
0.0
 40
0.0
 40
0.5036543842
 40
1.0
 40
1.0
 40
1.0
 40
1.0
 10
191.3413032234517
 20
151.383656225892
 30
0.0
 10
191.3918237565527
 20
150.9166182866919
 30
0.0
 10
191.5696061879522
 20
149.9957577174916
 30
0.0
 10
191.9061926072523
 20
149.1199369789918
 30
0.0
 10
192.1101498671529
 20
148.7043410492923
 30
0.0
  0
SPLINE
  5
1500C
330
1F
100
AcDbEntity
  8
0
100
AcDbSpline
210
0.0
220
0.0
230
1.0
 70
     8
 71
     3
 72
    11
 73
     7
 74
     0
 42
0.0000000001
 43
0.0000000001
 40
0.0
 40
0.0
 40
0.0
 40
0.0
 40
0.2390851193
 40
0.4829127591
 40
0.7355807794000002
 40
1.0
 40
1.0
 40
1.0
 40
1.0
 10
176.400476104353
 20
180.7172463638925
 30
0.0
 10
176.1627985422516
 20
181.2016242625922
 30
0.0
 10
175.7839359323521
 20
182.2332299704921
 30
0.0
 10
175.5386419392531
 20
183.8856637677926
 30
0.0
 10
175.6162926133516
 20
185.6106639445915
 30
0.0
 10
175.8743476678524
 20
186.7552631863927
 30
0.0
 10
176.050527825852
 20
187.3253823868926
 30
0.0
  0
SPLINE
  5
1500D
330
1F
100
AcDbEntity
  8
0
100
AcDbSpline
210
0.0
220
0.0
230
1.0
 70
     8
 71
     3
 72
    10
 73
     6
 74
     0
 42
0.0000000001
 43
0.0000000001
 40
0.0
 40
0.0
 40
0.0
 40
0.0
 40
0.2496116791
 40
0.5083797994000001
 40
1.0
 40
1.0
 40
1.0
 40
1.0
 10
190.4747773136519
 20
168.6606506842926
 30
0.0
 10
190.6178157510518
 20
168.5407190949917
 30
0.0
 10
190.9330295206515
 20
168.3232055497918
 30
0.0
 10
191.6130927408527
 20
168.0101268479919
 30
0.0
 10
192.1909888024515
 20
167.9180215535924
 30
0.0
 10
192.5564843740527
 20
167.9576990544918
 30
0.0
  0
SPLINE
  5
1500E
330
1F
100
AcDbEntity
  8
0
100
AcDbSpline
210
0.0
220
0.0
230
1.0
 70
     8
 71
     3
 72
     9
 73
     5
 74
     0
 42
0.0000000001
 43
0.0000000001
 40
0.0
 40
0.0
 40
0.0
 40
0.0
 40
0.2483559904
 40
1.0
 40
1.0
 40
1.0
 40
1.0
 10
196.2446818103513
 20
198.5219056350924
 30
0.0
 10
196.4879588877525
 20
198.4819261393922
 30
0.0
 10
197.4653400422527
 20
198.3077699591921
 30
0.0
 10
198.4339025266514
 20
198.0860648006926
 30
0.0
 10
199.1565557923519
 20
197.9002956667918
 30
0.0
  0
SPLINE
  5
1500F
330
1F
100
AcDbEntity
  8
0
100
AcDbSpline
210
0.0
220
0.0
230
1.0
 70
     8
 71
     3
 72
    15
 73
    11
 74
     0
 42
0.0000000001
 43
0.0000000001
 40
0.0
 40
0.0
 40
0.0
 40
0.0
 40
0.3007631453
 40
0.4404748579000002
 40
0.5724361957000001
 40
0.6957282386000001
 40
0.8089329895
 40
0.8612414078
 40
0.9104056141999999
 40
1.0
 40
1.0
 40
1.0
 40
1.0
 10
181.1167883546519
 20
214.9615427962925
 30
0.0
 10
181.0228183922523
 20
215.1530334462922
 30
0.0
 10
180.874150860253
 20
215.4284388961923
 30
0.0
 10
180.6545559011525
 20
215.7700888100916
 30
0.0
 10
180.4891461254525
 20
215.9964261290924
 30
0.0
 10
180.3190388147528
 20
216.1951893476925
 30
0.0
 10
180.1697936915521
 20
216.3363740859922
 30
0.0
 10
180.0457007438513
 20
216.4255303258923
 30
0.0
 10
179.9276489100526
 20
216.4907768136926
 30
0.0
 10
179.8259798763525
 20
216.5167889028925
 30
0.0
 10
179.7630315566517
 20
216.5081271118924
 30
0.0
  0
SPLINE
  5
15010
330
1F
100
AcDbEntity
  8
0
100
AcDbSpline
210
0.0
220
0.0
230
1.0
 70
     8
 71
     3
 72
    11
 73
     7
 74
     0
 42
0.0000000001
 43
0.0000000001
 40
0.0
 40
0.0
 40
0.0
 40
0.0
 40
0.3505916902
 40
0.6034310677
 40
0.8072985162
 40
1.0
 40
1.0
 40
1.0
 40
1.0
 10
182.2917991566524
 20
216.2571242544927
 30
0.0
 10
182.3069909980518
 20
216.3062850713922
 30
0.0
 10
182.3416979101517
 20
216.3894055448926
 30
0.0
 10
182.4256422088516
 20
216.4779049620919
 30
0.0
 10
182.5174863052531
 20
216.5124949367927
 30
0.0
 10
182.5767854703523
 20
216.5112858303927
 30
0.0
 10
182.6047602537515
 20
216.5071295641919
 30
0.0
  0
SPLINE
  5
15011
330
1F
100
AcDbEntity
  8
0
100
AcDbSpline
210
0.0
220
0.0
230
1.0
 70
     8
 71
     3
 72
    16
 73
    12
 74
     0
 42
0.0000000001
 43
0.0000000001
 40
0.0
 40
0.0
 40
0.0
 40
0.0
 40
0.2157273639
 40
0.3313206326
 40
0.4523739403000002
 40
0.5795832563000002
 40
0.7141775213
 40
0.7847816863000002
 40
0.8576725232999999
 40
0.9316231034999999
 40
1.0
 40
1.0
 40
1.0
 40
1.0
 10
179.0934198329529
 20
199.4722555037923
 30
0.0
 10
178.9722115258524
 20
199.719252064392
 30
0.0
 10
178.8048904036519
 20
200.1080545379918
 30
0.0
 10
178.6087896188515
 20
200.6507339896924
 30
0.0
 10
178.4697109671529
 20
201.0936411904921
 30
0.0
 10
178.3454172804528
 20
201.5660233260923
 30
0.0
 10
178.2611621153524
 20
201.9819216199921
 30
0.0
 10
178.2123555082513
 20
202.3333081636919
 30
0.0
 10
178.1897198057528
 20
202.6100223731918
 30
0.0
 10
178.1902322646516
 20
202.8845770946918
 30
0.0
 10
178.2155074331518
 20
203.0662394029922
 30
0.0
 10
178.2412549028528
 20
203.1495582453917
 30
0.0
  0
SPLINE
  5
15012
330
1F
100
AcDbEntity
  8
0
100
AcDbSpline
210
0.0
220
0.0
230
1.0
 70
     8
 71
     3
 72
    11
 73
     7
 74
     0
 42
0.0000000001
 43
0.0000000001
 40
0.0
 40
0.0
 40
0.0
 40
0.0
 40
0.2390883616
 40
0.4829066751
 40
0.7355931723
 40
1.0
 40
1.0
 40
1.0
 40
1.0
 10
177.7296925696524
 20
183.6834398122918
 30
0.0
 10
177.531602171152
 20
184.0870812269922
 30
0.0
 10
177.2159509986528
 20
184.9467649162924
 30
0.0
 10
177.0114604192518
 20
186.3237971762918
 30
0.0
 10
177.0762287693529
 20
187.761291136192
 30
0.0
 10
177.2912450792524
 20
188.7151361590921
 30
0.0
 10
177.4380547109527
 20
189.1902122916926
 30
0.0
  0
SPLINE
  5
15013
330
1F
100
AcDbEntity
  8
0
100
AcDbSpline
210
0.0
220
0.0
230
1.0
 70
     8
 71
     3
 72
    17
 73
    13
 74
     0
 42
0.0000000001
 43
0.0000000001
 40
0.0
 40
0.0
 40
0.0
 40
0.0
 40
0.1137636642
 40
0.2471282663
 40
0.3933285659
 40
0.5422653543
 40
0.6832338965000001
 40
0.8074080218999998
 40
0.8618875197999999
 40
0.9113657035999999
 40
0.9568229052999999
 40
1.0
 40
1.0
 40
1.0
 40
1.0
 10
193.016297357352
 20
167.4263195827915
 30
0.0
 10
192.9425910652522
 20
167.5765172144919
 30
0.0
 10
192.7136346589528
 20
167.8687873557918
 30
0.0
 10
192.2473723566514
 20
168.2179354434919
 30
0.0
 10
191.6733599964524
 20
168.4876979868921
 30
0.0
 10
191.048959667453
 20
168.649935972492
 30
0.0
 10
190.4375078242525
 20
168.6888813017921
 30
0.0
 10
189.9670910443516
 20
168.6113222720922
 30
0.0
 10
189.6578816153528
 20
168.4768519770922
 30
0.0
 10
189.4759001729513
 20
168.3505938698925
 30
0.0
 10
189.3395905475523
 20
168.1971145786918
 30
0.0
 10
189.2821805709523
 20
168.0777250383925
 30
0.0
 10
189.2634082678529
 20
168.017064388592
 30
0.0
  0
SPLINE
  5
15014
330
1F
100
AcDbEntity
  8
0
100
AcDbSpline
210
0.0
220
0.0
230
1.0
 70
     8
 71
     3
 72
    11
 73
     7
 74
     0
 42
0.0000000001
 43
0.0000000001
 40
0.0
 40
0.0
 40
0.0
 40
0.0
 40
0.2390883379
 40
0.4829066281000002
 40
0.7355931485
 40
1.0
 40
1.0
 40
1.0
 40
1.0
 10
209.8907918687515
 20
180.5688960406923
 30
0.0
 10
210.128500440053
 20
180.0845263509925
 30
0.0
 10
210.5072819681523
 20
179.0529058918927
 30
0.0
 10
210.7526709320524
 20
177.4004669989916
 30
0.0
 10
210.6749489448526
 20
175.6754739048919
 30
0.0
 10
210.4169293776527
 20
174.5308595727919
 30
0.0
 10
210.240757778553
 20
173.9607680690923
 30
0.0
  0
SPLINE
  5
15015
330
1F
100
AcDbEntity
  8
0
100
AcDbSpline
210
0.0
220
0.0
230
1.0
 70
     8
 71
     3
 72
    11
 73
     7
 74
     0
 42
0.0000000001
 43
0.0000000001
 40
0.0
 40
0.0
 40
0.0
 40
0.0
 40
0.2390881717
 40
0.4829067758
 40
0.7355935127
 40
1.0
 40
1.0
 40
1.0
 40
1.0
 10
220.5674180499523
 20
158.8122193758917
 30
0.0
 10
220.8050910748521
 20
158.3278649144921
 30
0.0
 10
221.1838096368525
 20
157.2962849888916
 30
0.0
 10
221.4291394517519
 20
155.6439285316918
 30
0.0
 10
221.3513953567513
 20
153.9190300444914
 30
0.0
 10
221.0933850127518
 20
152.7744793035925
 30
0.0
 10
220.9172231106518
 20
152.204419179592
 30
0.0
  0
SPLINE
  5
15016
330
1F
100
AcDbEntity
  8
0
100
AcDbSpline
210
0.0
220
0.0
230
1.0
 70
     8
 71
     3
 72
    14
 73
    10
 74
     0
 42
0.0000000001
 43
0.0000000001
 40
0.0
 40
0.0
 40
0.0
 40
0.0
 40
0.2273597852
 40
0.3487441145
 40
0.4743990531000001
 40
0.6034593961
 40
0.7348676169
 40
0.8674697330999999
 40
1.0
 40
1.0
 40
1.0
 40
1.0
 10
203.6823576459525
 20
187.3253823868926
 30
0.0
 10
203.3286756947515
 20
186.1808671737925
 30
0.0
 10
202.5077088415515
 20
184.5034188383923
 30
0.0
 10
201.0165322140516
 20
182.4941262606916
 30
0.0
 10
199.6567020482513
 20
181.0460456084919
 30
0.0
 10
198.1079385239523
 20
179.7212839466919
 30
0.0
 10
196.3996451572517
 20
178.5438587586922
 30
0.0
 10
194.565137935852
 20
177.5369907214916
 30
0.0
 10
193.2766321517525
 20
176.9901153993922
 30
0.0
 10
192.6207650604525
 20
176.7504691068915
 30
0.0
  0
SPLINE
  5
15017
330
1F
100
AcDbEntity
  8
0
100
AcDbSpline
210
0.0
220
0.0
230
1.0
 70
     8
 71
     3
 72
    11
 73
     7
 74
     0
 42
0.0000000001
 43
0.0000000001
 40
0.0
 40
0.0
 40
0.0
 40
0.0
 40
0.261571903
 40
0.5136296374000002
 40
0.7586537126000002
 40
1.0
 40
1.0
 40
1.0
 40
1.0
 10
180.5763296793526
 20
176.7504691068915
 30
0.0
 10
180.1139033559526
 20
176.9687217432919
 30
0.0
 10
179.2350782018515
 20
177.4638040844919
 30
0.0
 10
178.0700884506519
 20
178.3922950573923
 30
0.0
 10
177.1062978576525
 20
179.4765431697923
 30
0.0
 10
176.6083117774529
 20
180.2936851084922
 30
0.0
 10
176.400476104353
 20
180.7172463638925
 30
0.0
  0
SPLINE
  5
15018
330
1F
100
AcDbEntity
  8
0
100
AcDbSpline
210
0.0
220
0.0
230
1.0
 70
     8
 71
     3
 72
    21
 73
    17
 74
     0
 42
0.0000000001
 43
0.0000000001
 40
0.0
 40
0.0
 40
0.0
 40
0.0
 40
0.0507163889
 40
0.1025701199
 40
0.1565179804
 40
0.2132159002
 40
0.2729748499
 40
0.3357764999
 40
0.4013203026
 40
0.4690821131
 40
0.5383743576
 40
0.6084044147
 40
0.7470838431999999
 40
0.8143632936999999
 40
0.8792772845
 40
1.0
 40
1.0
 40
1.0
 40
1.0
 10
192.4064939005517
 20
149.2354169657918
 30
0.0
 10
192.6512506167515
 20
148.7366855398921
 30
0.0
 10
193.260812737352
 20
147.7800788389921
 30
0.0
 10
194.4810452411515
 20
146.5584815389919
 30
0.0
 10
195.9764880282515
 20
145.5722334202927
 30
0.0
 10
197.7057444864518
 20
144.844549202592
 30
0.0
 10
199.6244420910521
 20
144.390377636092
 30
0.0
 10
201.6847650044516
 20
144.2188051848915
 30
0.0
 10
203.8360621574526
 20
144.3326479471924
 30
0.0
 10
206.0253131090527
 20
144.7282365219924
 30
0.0
 10
208.1991408493528
 20
145.3956241863924
 30
0.0
 10
210.9926052119523
 20
146.619933858792
 30
0.0
 10
213.5446285729527
 20
148.3006096034922
 30
0.0
 10
215.6929361676526
 20
150.357908377592
 30
0.0
 10
217.4363345982516
 20
152.5158349588927
 30
0.0
 10
218.3885243886531
 20
154.3598163080922
 30
0.0
 10
218.7789623471513
 20
155.6232740050926
 30
0.0
  0
SPLINE
  5
15019
330
1F
100
AcDbEntity
  8
0
100
AcDbSpline
210
0.0
220
0.0
230
1.0
 70
     8
 71
     3
 72
    15
 73
    11
 74
     0
 42
0.0000000001
 43
0.0000000001
 40
0.0
 40
0.0
 40
0.0
 40
0.0
 40
0.1338727164
 40
0.262614272
 40
0.3870708699
 40
0.5086647603
 40
0.6290293003000002
 40
0.7499331028000002
 40
0.873095705
 40
1.0
 40
1.0
 40
1.0
 40
1.0
 10
198.7779462033528
 20
189.8118222599923
 30
0.0
 10
198.8883998012521
 20
190.1692502337918
 30
0.0
 10
199.0584255257514
 20
190.8861283117921
 30
0.0
 10
199.1503503464524
 20
191.9680249157917
 30
0.0
 10
199.0710472674514
 20
193.0172023251925
 30
0.0
 10
198.8210835740525
 20
194.0154602453921
 30
0.0
 10
198.4041405841513
 20
194.9456077122921
 30
0.0
 10
197.8273549568516
 20
195.7913316050925
 30
0.0
 10
197.1013452403518
 20
196.5379708876916
 30
0.0
 10
196.5360088343519
 20
196.9545584295919
 30
0.0
 10
196.2355539875521
 20
197.1429485249918
 30
0.0
  0
SPLINE
  5
1501A
330
1F
100
AcDbEntity
  8
0
100
AcDbSpline
210
0.0
220
0.0
230
1.0
 70
     8
 71
     3
 72
    22
 73
    18
 74
     0
 42
0.0000000001
 43
0.0000000001
 40
0.0
 40
0.0
 40
0.0
 40
0.0
 40
0.0543359601
 40
0.1066819964
 40
0.1585423368
 40
0.2115236838
 40
0.2669921934
 40
0.3258300377
 40
0.3883593445
 40
0.4543875634
 40
0.5233077043
 40
0.5942123959000001
 40
0.7371907151000002
 40
0.8072618086
 40
0.8748786039
 40
0.9392645918999999
 40
1.0
 40
1.0
 40
1.0
 40
1.0
 10
178.2099261272529
 20
188.3516635310915
 30
0.0
 10
178.1552209982515
 20
187.8402576945918
 30
0.0
 10
178.1571352776524
 20
186.819556069492
 30
0.0
 10
178.5304092453521
 20
185.3497728797919
 30
0.0
 10
179.2632652748531
 20
184.0353948831925
 30
0.0
 10
180.3252508173524
 20
182.9297405139922
 30
0.0
 10
181.6716484316517
 20
182.0710892301921
 30
0.0
 10
183.251184460653
 20
181.4845815853922
 30
0.0
 10
185.0088698473524
 20
181.1853877514922
 30
0.0
 10
186.8857413792525
 20
181.1803713981916
 30
0.0
 10
188.8201702671526
 20
181.4682209084921
 30
0.0
 10
191.3930761023516
 20
182.2292108034925
 30
0.0
 10
193.8020711228515
 20
183.5067746342919
 30
0.0
 10
195.8534161230515
 20
185.2053678708925
 30
0.0
 10
197.141051999452
 20
186.6302280217923
 30
0.0
 10
198.1415678401523
 20
188.1649545150921
 30
0.0
 10
198.608209036353
 20
189.262552585992
 30
0.0
 10
198.7779462033528
 20
189.8118222599923
 30
0.0
  0
SPLINE
  5
1501B
330
1F
100
AcDbEntity
  8
0
100
AcDbSpline
210
0.0
220
0.0
230
1.0
 70
     8
 71
     3
 72
    15
 73
    11
 74
     0
 42
0.0000000001
 43
0.0000000001
 40
0.0
 40
0.0
 40
0.0
 40
0.0
 40
0.1295428981
 40
0.2542216432
 40
0.3755587318
 40
0.4954657329
 40
0.6160350115
 40
0.7392576964000001
 40
0.8668655657999998
 40
1.0
 40
1.0
 40
1.0
 40
1.0
 10
195.869096846253
 20
197.871001742892
 30
0.0
 10
196.2405816662526
 20
197.6894081945919
 30
0.0
 10
196.9437469814516
 20
197.275894644992
 30
0.0
 10
197.8628490084524
 20
196.496829406692
 30
0.0
 10
198.6052508066519
 20
195.5861015075915
 30
0.0
 10
199.1544273743517
 20
194.5619765852915
 30
0.0
 10
199.4986749361529
 20
193.4459015679921
 30
0.0
 10
199.6318087297519
 20
192.2612391085921
 30
0.0
 10
199.5522876008513
 20
191.0325406317914
 30
0.0
 10
199.3639443979524
 20
190.2178358626915
 30
0.0
 10
199.2384767003519
 20
189.8118222599923
 30
0.0
  0
SPLINE
  5
1501C
330
1F
100
AcDbEntity
  8
0
100
AcDbSpline
210
0.0
220
0.0
230
1.0
 70
     8
 71
     3
 72
    25
 73
    21
 74
     0
 42
0.0000000001
 43
0.0000000001
 40
0.0
 40
0.0
 40
0.0
 40
0.0
 40
0.0609313426
 40
0.1256132609
 40
0.1935893717
 40
0.2640128714999999
 40
0.4073489160000002
 40
0.4781376530000001
 40
0.5466815667000002
 40
0.6120768025
 40
0.6434367717000002
 40
0.6738420201000001
 40
0.7317731234
 40
0.786451746
 40
0.8129525734000001
 40
0.8391021106
 40
0.8651089176999999
 40
0.8911902179
 40
0.9442972564999999
 40
1.0
 40
1.0
 40
1.0
 40
1.0
 10
199.2384767003519
 20
189.8118222599923
 30
0.0
 10
199.055942032052
 20
189.2211398333919
 30
0.0
 10
198.550159221752
 20
188.0409781606921
 30
0.0
 10
197.4609015894517
 20
186.3960420292923
 30
0.0
 10
196.0573595756528
 20
184.8755307487917
 30
0.0
 10
193.8250914282513
 20
183.0779919351916
 30
0.0
 10
191.2110166748522
 20
181.7515792725916
 30
0.0
 10
188.4344051685516
 20
181.0043366391927
 30
0.0
 10
186.3634854080524
 20
180.7597260263918
 30
0.0
 10
184.6791235650531
 20
180.8273093047917
 30
0.0
 10
183.4066338684521
 20
181.0507368359921
 30
0.0
 10
182.2338887612519
 20
181.3719746208916
 30
0.0
 10
180.8952131812517
 20
181.9605194159921
 30
0.0
 10
179.752258975052
 20
182.8137402380925
 30
0.0
 10
179.016859207352
 20
183.6205441416922
 30
0.0
 10
178.5584777792524
 20
184.2767275427922
 30
0.0
 10
178.1926964204527
 20
184.9839614398915
 30
0.0
 10
177.8308087453521
 20
185.9910366430921
 30
0.0
 10
177.6279788199523
 20
187.3605391245927
 30
0.0
 10
177.7373354270517
 20
188.4703400946927
 30
0.0
 10
177.8512476368529
 20
189.0239327091921
 30
0.0
  0
SPLINE
  5
1501D
330
1F
100
AcDbEntity
  8
0
100
AcDbSpline
210
0.0
220
0.0
230
1.0
 70
     8
 71
     3
 72
    13
 73
     9
 74
     0
 42
0.0000000001
 43
0.0000000001
 40
0.0
 40
0.0
 40
0.0
 40
0.0
 40
0.2726357214
 40
0.5274083678000001
 40
0.6491840591
 40
0.7679274232
 40
0.8845238087999998
 40
1.0
 40
1.0
 40
1.0
 40
1.0
 10
176.3302356627524
 20
199.472257908992
 30
0.0
 10
175.7520000121518
 20
199.5499659254928
 30
0.0
 10
174.643354290853
 20
199.8033535827925
 30
0.0
 10
173.3753842539523
 20
200.4035735581928
 30
0.0
 10
172.5172841118516
 20
201.0302278999915
 30
0.0
 10
171.9627644653525
 20
201.5595477308924
 30
0.0
 10
171.4942882118526
 20
202.1491391463923
 30
0.0
 10
171.2423312803517
 20
202.5794113291921
 30
0.0
 10
171.1329599479528
 20
202.8010063338924
 30
0.0
  0
SPLINE
  5
1501E
330
1F
100
AcDbEntity
  8
0
100
AcDbSpline
210
0.0
220
0.0
230
1.0
 70
     8
 71
     3
 72
    20
 73
    16
 74
     0
 42
0.0000000001
 43
0.0000000001
 40
0.0
 40
0.0
 40
0.0
 40
0.0
 40
0.0507339128
 40
0.1026050098
 40
0.1565706997
 40
0.2132871486
 40
0.3355426398
 40
0.4011081696
 40
0.4688929999
 40
0.6080300210000002
 40
0.6779815040999999
 40
0.7469944059
 40
0.8142980523
 40
0.8792334915999997
 40
1.0
 40
1.0
 40
1.0
 40
1.0
 10
178.339368093852
 20
182.441029597292
 30
0.0
 10
178.5503291262526
 20
182.0110527182923
 30
0.0
 10
179.0756898007517
 20
181.1862717466919
 30
0.0
 10
180.1274846169513
 20
180.1330411547923
 30
0.0
 10
181.4168000890518
 20
179.2826337274927
 30
0.0
 10
183.4528366384516
 20
178.4255614650918
 30
0.0
 10
185.7784513060529
 20
178.0855714142925
 30
0.0
 10
188.1917936844516
 20
178.2137109473923
 30
0.0
 10
190.729084931953
 20
178.6717978195919
 30
0.0
 10
193.2035571989514
 20
179.5964377464915
 30
0.0
 10
195.4760104166531
 20
180.9195477790926
 30
0.0
 10
197.0380230706529
 20
182.0899023463916
 30
0.0
 10
198.4142522955522
 20
183.4078671214919
 30
0.0
 10
199.9170959915524
 20
185.267965930292
 30
0.0
 10
200.738061527653
 20
186.8577486391922
 30
0.0
 10
201.0746632942524
 20
187.9469923550922
 30
0.0
  0
SPLINE
  5
1501F
330
1F
100
AcDbEntity
  8
0
100
AcDbSpline
210
0.0
220
0.0
230
1.0
 70
     8
 71
     3
 72
     9
 73
     5
 74
     0
 42
0.0000000001
 43
0.0000000001
 40
0.0
 40
0.0
 40
0.0
 40
0.0
 40
0.2573631417
 40
1.0
 40
1.0
 40
1.0
 40
1.0
 10
187.3295490515525
 20
182.6887887645916
 30
0.0
 10
187.093950409952
 20
182.6595553185924
 30
0.0
 10
186.1755346346513
 20
182.5730531491917
 30
0.0
 10
185.2453101715515
 20
182.5975471700921
 30
0.0
 10
184.5663660695523
 20
182.6887887645916
 30
0.0
  0
SPLINE
  5
15020
330
1F
100
AcDbEntity
  8
0
100
AcDbSpline
210
0.0
220
0.0
230
1.0
 70
     8
 71
     3
 72
    23
 73
    19
 74
     0
 42
0.0000000001
 43
0.0000000001
 40
0.0
 40
0.0
 40
0.0
 40
0.0
 40
0.1446657764
 40
0.217613022
 40
0.289665923
 40
0.3599677432
 40
0.4277923931000001
 40
0.4926070077000002
 40
0.5238149733
 40
0.5541954241
 40
0.6125118153
 40
0.6680458256000002
 40
0.7216145445000001
 40
0.7743408908000001
 40
0.8274907231
 40
0.8822550165999999
 40
0.9395714171999999
 40
1.0
 40
1.0
 40
1.0
 40
1.0
 10
189.7088910783519
 20
177.3720790751921
 30
0.0
 10
191.1776119928514
 20
177.6920722167923
 30
0.0
 10
193.3371700468529
 20
178.4523354904921
 30
0.0
 10
195.9645096008522
 20
179.9295438305925
 30
0.0
 10
197.7765036948518
 20
181.2515797077921
 30
0.0
 10
199.3739101478519
 20
182.7491914189922
 30
0.0
 10
200.7157125546515
 20
184.3839995940924
 30
0.0
 10
201.6027727274528
 20
185.8452753777928
 30
0.0
 10
202.1469683030524
 20
187.0421375281919
 30
0.0
 10
202.5674981219514
 20
188.2161221295918
 30
0.0
 10
202.8890387654525
 20
189.6891330395919
 30
0.0
 10
202.9249429598518
 20
191.4402820351924
 30
0.0
 10
202.6008021002513
 20
193.1041676950916
 30
0.0
 10
201.9226977064523
 20
194.6315044427919
 30
0.0
 10
200.9104829531521
 20
195.9762459708926
 30
0.0
 10
199.5959936713521
 20
197.1003510350919
 30
0.0
 10
198.0194097149529
 20
197.9751328761921
 30
0.0
 10
196.8535733209524
 20
198.3686021396915
 30
0.0
 10
196.2446818103513
 20
198.5219056350924
 30
0.0
  0
SPLINE
  5
15021
330
1F
100
AcDbEntity
  8
0
100
AcDbSpline
210
0.0
220
0.0
230
1.0
 70
     8
 71
     3
 72
     9
 73
     5
 74
     0
 42
0.0000000001
 43
0.0000000001
 40
0.0
 40
0.0
 40
0.0
 40
0.0
 40
0.2513703044
 40
1.0
 40
1.0
 40
1.0
 40
1.0
 10
192.6207650604525
 20
176.7504691068915
 30
0.0
 10
192.379095852652
 20
176.8125938927923
 30
0.0
 10
191.4155303364519
 20
177.0510820627922
 30
0.0
 10
190.4421936005516
 20
177.2515701256924
 30
0.0
 10
189.7088910783519
 20
177.3720790751921
 30
0.0
  0
SPLINE
  5
15022
330
1F
100
AcDbEntity
  8
0
100
AcDbSpline
210
0.0
220
0.0
230
1.0
 70
     8
 71
     3
 72
    11
 73
     7
 74
     0
 42
0.0000000001
 43
0.0000000001
 40
0.0
 40
0.0
 40
0.0
 40
0.0
 40
0.1863159975
 40
0.3972840936
 40
0.6605061165000002
 40
1.0
 40
1.0
 40
1.0
 40
1.0
 10
179.7630315566517
 20
216.5081271118924
 30
0.0
 10
179.7407218865524
 20
216.5050572650925
 30
0.0
 10
179.6937172402527
 20
216.491624563292
 30
0.0
 10
179.627159825052
 20
216.4449251384921
 30
0.0
 10
179.5680800267515
 20
216.3645501357922
 30
0.0
 10
179.540731468353
 20
216.296329359392
 30
0.0
 10
179.5286161713526
 20
216.2571242437915
 30
0.0
  0
SPLINE
  5
15023
330
1F
100
AcDbEntity
  8
0
100
AcDbSpline
210
0.0
220
0.0
230
1.0
 70
     8
 71
     3
 72
    15
 73
    11
 74
     0
 42
0.0000000001
 43
0.0000000001
 40
0.0
 40
0.0
 40
0.0
 40
0.0
 40
0.1348052868
 40
0.2620217445
 40
0.3832081846
 40
0.5009685615999999
 40
0.6185742233
 40
0.7393295872
 40
0.8659161965
 40
1.0
 40
1.0
 40
1.0
 40
1.0
 10
177.1864162221523
 20
189.3070850841922
 30
0.0
 10
176.900276588553
 20
188.6796375429921
 30
0.0
 10
176.4468662912519
 20
187.4085999999915
 30
0.0
 10
176.162750115253
 20
185.4548461069915
 30
0.0
 10
176.3094705197514
 20
183.5703017824925
 30
0.0
 10
176.8887012179517
 20
181.8210080444923
 30
0.0
 10
177.8820273300522
 20
180.2714798598917
 30
0.0
 10
179.2512442778521
 20
178.9770361472928
 30
0.0
 10
180.943857117653
 20
177.9780713181916
 30
0.0
 10
182.212956222153
 20
177.5395504873921
 30
0.0
 10
182.8781199281517
 20
177.3720790751921
 30
0.0
  0
SPLINE
  5
15024
330
1F
100
AcDbEntity
  8
0
100
AcDbSpline
210
0.0
220
0.0
230
1.0
 70
     8
 71
     3
 72
     9
 73
     5
 74
     0
 42
0.0000000001
 43
0.0000000001
 40
0.0
 40
0.0
 40
0.0
 40
0.0
 40
0.2578080819
 40
1.0
 40
1.0
 40
1.0
 40
1.0
 10
182.8781199281517
 20
177.3720790751921
 30
0.0
 10
182.6769571345526
 20
177.3326631260914
 30
0.0
 10
181.8995497939528
 20
177.1652704495916
 30
0.0
 10
181.1343984358524
 20
176.9423373843928
 30
0.0
 10
180.5763296793526
 20
176.7504691068915
 30
0.0
  0
SPLINE
  5
15025
330
1F
100
AcDbEntity
  8
0
100
AcDbSpline
210
0.0
220
0.0
230
1.0
 70
     8
 71
     3
 72
     9
 73
     5
 74
     0
 42
0.0000000001
 43
0.0000000001
 40
0.0
 40
0.0
 40
0.0
 40
0.0
 40
0.4740381763000002
 40
1.0
 40
1.0
 40
1.0
 40
1.0
 10
189.2634082678529
 20
168.017064388592
 30
0.0
 10
189.2351099843514
 20
167.9256215718923
 30
0.0
 10
189.2197580716516
 20
167.7172911200921
 30
0.0
 10
189.2852650185528
 20
167.5216642416925
 30
0.0
 10
189.3320533813517
 20
167.4263195827915
 30
0.0
  0
SPLINE
  5
15026
330
1F
100
AcDbEntity
  8
0
100
AcDbSpline
210
0.0
220
0.0
230
1.0
 70
     8
 71
     3
 72
    15
 73
    11
 74
     0
 42
0.0000000001
 43
0.0000000001
 40
0.0
 40
0.0
 40
0.0
 40
0.0
 40
0.1382529155
 40
0.2687748261
 40
0.3925622625
 40
0.5116496214000002
 40
0.6289032313
 40
0.7475425862
 40
0.8705183450999999
 40
1.0
 40
1.0
 40
1.0
 40
1.0
 10
175.4780719175529
 20
203.1495582346924
 30
0.0
 10
175.064020767552
 20
203.2158117128919
 30
0.0
 10
174.2671977641517
 20
203.4091459541923
 30
0.0
 10
173.174161939553
 20
203.8992554840924
 30
0.0
 10
172.2501777162529
 20
204.569521102192
 30
0.0
 10
171.5270477939526
 20
205.4016388867921
 30
0.0
 10
171.0311591292526
 20
206.3693409025927
 30
0.0
 10
170.7800628182527
 20
207.4390820027919
 30
0.0
 10
170.7797220996513
 20
208.5734255710921
 30
0.0
 10
170.9399667342519
 20
209.328133549392
 30
0.0
 10
171.055917088052
 20
209.7033412445925
 30
0.0
  0
SPLINE
  5
15027
330
1F
100
AcDbEntity
  8
0
100
AcDbSpline
210
0.0
220
0.0
230
1.0
 70
     8
 71
     3
 72
    17
 73
    13
 74
     0
 42
0.0000000001
 43
0.0000000001
 40
0.0
 40
0.0
 40
0.0
 40
0.0
 40
0.0327920217
 40
0.06866375
 40
0.1426909833
 40
0.2155958139
 40
0.2861823099
 40
0.4207145662
 40
0.5478575806000002
 40
0.668846595
 40
0.7843793578
 40
1.0
 40
1.0
 40
1.0
 40
1.0
 10
175.4780719175529
 20
203.1495582346924
 30
0.0
 10
175.4657227404519
 20
203.1095962830922
 30
0.0
 10
175.4470036337521
 20
203.0237193048924
 30
0.0
 10
175.4265215611527
 20
202.8426976404916
 30
0.0
 10
175.4267112774529
 20
202.6089036025923
 30
0.0
 10
175.4492435532525
 20
202.3322521164918
 30
0.0
 10
175.498184584953
 20
201.980869219792
 30
0.0
 10
175.5824398046521
 20
201.5651487082922
 30
0.0
 10
175.7067254287527
 20
201.0929569711915
 30
0.0
 10
175.8457731911517
 20
200.6502482442919
 30
0.0
 10
176.0418163962518
 20
200.1077983007926
 30
0.0
 10
176.2090759812514
 20
199.7191553973916
 30
0.0
 10
176.3302367830516
 20
199.4722556423921
 30
0.0
  0
SPLINE
  5
15028
330
1F
100
AcDbEntity
  8
0
100
AcDbSpline
210
0.0
220
0.0
230
1.0
 70
     8
 71
     3
 72
    15
 73
    11
 74
     0
 42
0.0000000001
 43
0.0000000001
 40
0.0
 40
0.0
 40
0.0
 40
0.0
 40
0.1382529155
 40
0.2687748261
 40
0.3925622625
 40
0.5116496214000002
 40
0.6289032313
 40
0.7475425862
 40
0.8705183450999999
 40
1.0
 40
1.0
 40
1.0
 40
1.0
 10
182.2917991566524
 20
216.2571242544927
 30
0.0
 10
182.7058503066515
 20
216.1908707762922
 30
0.0
 10
183.5026733099517
 20
215.9975365350928
 30
0.0
 10
184.5957091346523
 20
215.5074270051918
 30
0.0
 10
185.5196933578523
 20
214.8371613869921
 30
0.0
 10
186.2428232801527
 20
214.005043602392
 30
0.0
 10
186.7387119449528
 20
213.0373415866924
 30
0.0
 10
186.9898082558526
 20
211.9676004864922
 30
0.0
 10
186.9901489744521
 20
210.833256918092
 30
0.0
 10
186.8299043398516
 20
210.0785489397921
 30
0.0
 10
186.7139539860514
 20
209.7033412445925
 30
0.0
  0
SPLINE
  5
15029
330
1F
100
AcDbEntity
  8
0
100
AcDbSpline
210
0.0
220
0.0
230
1.0
 70
     8
 71
     3
 72
    11
 73
     7
 74
     0
 42
0.0000000001
 43
0.0000000001
 40
0.0
 40
0.0
 40
0.0
 40
0.0
 40
0.2644036846
 40
0.5170947582
 40
0.7609109661
 40
1.0
 40
1.0
 40
1.0
 40
1.0
 10
197.551843342752
 20
190.4334322281919
 30
0.0
 10
197.6692896316514
 20
190.8134885582921
 30
0.0
 10
197.8412965384528
 20
191.5765672732922
 30
0.0
 10
197.8931225488528
 20
192.7265617200918
 30
0.0
 10
197.7295169641516
 20
193.8281889278923
 30
0.0
 10
197.4770111374515
 20
194.515939664292
 30
0.0
 10
197.3185327036522
 20
194.8388508597926
 30
0.0
  0
SPLINE
  5
1502A
330
1F
100
AcDbEntity
  8
0
100
AcDbSpline
210
0.0
220
0.0
230
1.0
 70
     8
 71
     3
 72
    11
 73
     7
 74
     0
 42
0.0000000001
 43
0.0000000001
 40
0.0
 40
0.0
 40
0.0
 40
0.0
 40
0.239080722
 40
0.4829131934000002
 40
0.7356152840000001
 40
1.0
 40
1.0
 40
1.0
 40
1.0
 10
189.0878982630516
 20
211.6110874111927
 30
0.0
 10
189.2451609250516
 20
211.2886993093924
 30
0.0
 10
189.495514529052
 20
210.6023394635921
 30
0.0
 10
189.6570977948528
 20
209.5035367027921
 30
0.0
 10
189.6045177409529
 20
208.3567831313921
 30
0.0
 10
189.4328281318527
 20
207.5958823266919
 30
0.0
 10
189.3157129436518
 20
207.2169013714919
 30
0.0
  0
SPLINE
  5
1502B
330
1F
100
AcDbEntity
  8
0
100
AcDbSpline
210
0.0
220
0.0
230
1.0
 70
     8
 71
     3
 72
    17
 73
    13
 74
     0
 42
0.0000000001
 43
0.0000000001
 40
0.0
 40
0.0
 40
0.0
 40
0.0
 40
0.1137636642
 40
0.2471282663
 40
0.3933285659
 40
0.5422653543
 40
0.6832338965000001
 40
0.8074080218999998
 40
0.8618875197999999
 40
0.9113657035999999
 40
0.9568229052999999
 40
1.0
 40
1.0
 40
1.0
 40
1.0
 10
189.3320533813517
 20
167.4263195827915
 30
0.0
 10
189.4057596735516
 20
167.276121951092
 30
0.0
 10
189.6347160797528
 20
166.9838518097921
 30
0.0
 10
190.1009783820524
 20
166.634703722192
 30
0.0
 10
190.6749907422514
 20
166.3649411787918
 30
0.0
 10
191.2993910712526
 20
166.2027031931919
 30
0.0
 10
191.9108429145513
 20
166.1637578637927
 30
0.0
 10
192.3812596943522
 20
166.2413168935926
 30
0.0
 10
192.6904691234527
 20
166.3757871884917
 30
0.0
 10
192.8724505658525
 20
166.5020452957923
 30
0.0
 10
193.0087601912515
 20
166.655524586892
 30
0.0
 10
193.0661701677514
 20
166.7749141271923
 30
0.0
 10
193.0849424708527
 20
166.8355747770919
 30
0.0
  0
SPLINE
  5
1502C
330
1F
100
AcDbEntity
  8
0
100
AcDbSpline
210
0.0
220
0.0
230
1.0
 70
     8
 71
     3
 72
    13
 73
     9
 74
     0
 42
0.0000000001
 43
0.0000000001
 40
0.0
 40
0.0
 40
0.0
 40
0.0
 40
0.2579833931
 40
0.3897378957
 40
0.5205357047
 40
0.6484774865000002
 40
0.7719057278000001
 40
1.0
 40
1.0
 40
1.0
 40
1.0
 10
187.3295490515525
 20
182.6887887645916
 30
0.0
 10
188.4779248345516
 20
182.8312810187926
 30
0.0
 10
190.1910433270519
 20
183.2968637731918
 30
0.0
 10
192.2924642561525
 20
184.3230954090922
 30
0.0
 10
193.7602344260527
 20
185.2883162893921
 30
0.0
 10
195.0607392511525
 20
186.4143842301927
 30
0.0
 10
196.4782793971521
 20
188.0355717187921
 30
0.0
 10
197.2497713445524
 20
189.455926883892
 30
0.0
 10
197.551843342752
 20
190.4334322281919
 30
0.0
  0
SPLINE
  5
1502D
330
1F
100
AcDbEntity
  8
0
100
AcDbSpline
210
0.0
220
0.0
230
1.0
 70
     8
 71
     3
 72
    13
 73
     9
 74
     0
 42
0.0000000001
 43
0.0000000001
 40
0.0
 40
0.0
 40
0.0
 40
0.0
 40
0.2279083953
 40
0.3511024212
 40
0.4788074411000001
 40
0.6094485636
 40
0.7412103089000001
 40
1.0
 40
1.0
 40
1.0
 40
1.0
 10
186.7139539860514
 20
209.7033412445925
 30
0.0
 10
186.4622673907529
 20
208.8888711965918
 30
0.0
 10
185.8246941021521
 20
207.704415354592
 30
0.0
 10
184.6537406179528
 20
206.3461753169921
 30
0.0
 10
183.5796304596519
 20
205.3990998353919
 30
0.0
 10
182.3659463631526
 20
204.5816535352923
 30
0.0
 10
180.6228968553519
 20
203.7017495710915
 30
0.0
 10
179.1991334809523
 20
203.289037316892
 30
0.0
 10
178.2412549028528
 20
203.1495582453917
 30
0.0
  0
SPLINE
  5
1502E
330
1F
100
AcDbEntity
  8
0
100
AcDbSpline
210
0.0
220
0.0
230
1.0
 70
     8
 71
     3
 72
    13
 73
     9
 74
     0
 42
0.0000000001
 43
0.0000000001
 40
0.0
 40
0.0
 40
0.0
 40
0.0
 40
0.2280941635
 40
0.3515224107
 40
0.4794642160000002
 40
0.6102620413000001
 40
0.742016555
 40
1.0
 40
1.0
 40
1.0
 40
1.0
 10
189.3157129436518
 20
207.2169013714919
 30
0.0
 10
189.0136431083525
 20
206.2393958689917
 30
0.0
 10
188.2421489924514
 20
204.8190418731919
 30
0.0
 10
186.8246099104513
 20
203.1978542588921
 30
0.0
 10
185.5241048966514
 20
202.0717860983922
 30
0.0
 10
184.0563346330515
 20
201.1065650143919
 30
0.0
 10
181.954913458953
 20
200.0803329170921
 30
0.0
 10
180.2417945959519
 20
199.6147508180919
 30
0.0
 10
179.0934186593518
 20
199.4722579087919
 30
0.0
  0
SPLINE
  5
1502F
330
1F
100
AcDbEntity
  8
0
100
AcDbSpline
210
0.0
220
0.0
230
1.0
 70
     8
 71
     3
 72
    13
 73
     9
 74
     0
 42
0.0000000001
 43
0.0000000001
 40
0.0
 40
0.0
 40
0.0
 40
0.0
 40
0.1154861561
 40
0.2320799259
 40
0.3508137891
 40
0.4725786243
 40
0.7273403763
 40
1.0
 40
1.0
 40
1.0
 40
1.0
 10
179.3639341188523
 20
186.0280135617921
 30
0.0
 10
179.4730150428518
 20
185.8057533456921
 30
0.0
 10
179.7245319555519
 20
185.3741510369927
 30
0.0
 10
180.1928037757521
 20
184.7826498022922
 30
0.0
 10
180.7475276963528
 20
184.2515903637922
 30
0.0
 10
181.6064304098514
 20
183.6228662626926
 30
0.0
 10
182.8763614221521
 20
183.0206922803917
 30
0.0
 10
183.9870330770523
 20
182.7666438720916
 30
0.0
 10
184.5663660695523
 20
182.6887887645916
 30
0.0
  0
SPLINE
  5
15030
330
1F
100
AcDbEntity
  8
0
100
AcDbSpline
210
0.0
220
0.0
230
1.0
 70
     8
 71
     3
 72
    21
 73
    17
 74
     0
 42
0.0000000001
 43
0.0000000001
 40
0.0
 40
0.0
 40
0.0
 40
0.0
 40
0.0507163889
 40
0.1025701199
 40
0.1565179804
 40
0.2132159002
 40
0.2729748499
 40
0.3357764999
 40
0.4013203026
 40
0.4690821131
 40
0.5383743576
 40
0.6084044147
 40
0.7470838431999999
 40
0.8143632936999999
 40
0.8792772845
 40
1.0
 40
1.0
 40
1.0
 40
1.0
 10
192.1101498671529
 20
148.7043410492923
 30
0.0
 10
192.363346470153
 20
148.1884119879922
 30
0.0
 10
192.9939279742526
 20
147.1988188490921
 30
0.0
 10
194.256237460952
 20
145.9350975042924
 30
0.0
 10
195.8032472406527
 20
144.9148408297923
 30
0.0
 10
197.5921332319527
 20
144.1620640527925
 30
0.0
 10
199.5769928228515
 20
143.6922313977919
 30
0.0
 10
201.7083613539513
 20
143.5147426551919
 30
0.0
 10
203.9338411674513
 20
143.6325110299921
 30
0.0
 10
206.1985835311521
 20
144.0417405901916
 30
0.0
 10
208.4473708487518
 20
144.732141622292
 30
0.0
 10
211.3371615686525
 20
145.9986688695916
 30
0.0
 10
213.9771857351521
 20
147.7372989503927
 30
0.0
 10
216.1995729021515
 20
149.8655390614921
 30
0.0
 10
218.0030885199527
 20
152.097876904192
 30
0.0
 10
218.9881124410518
 20
154.0054438171918
 30
0.0
 10
219.3920137774517
 20
155.3124690208923
 30
0.0
  0
SPLINE
  5
15031
330
1F
100
AcDbEntity
  8
0
100
AcDbSpline
210
0.0
220
0.0
230
1.0
 70
     8
 71
     3
 72
    11
 73
     7
 74
     0
 42
0.0000000001
 43
0.0000000001
 40
0.0
 40
0.0
 40
0.0
 40
0.0
 40
0.2390883615
 40
0.4829066752000001
 40
0.7355931721
 40
1.0
 40
1.0
 40
1.0
 40
1.0
 10
200.1729417023531
 20
194.6969847709923
 30
0.0
 10
200.3710321007516
 20
194.2933433563919
 30
0.0
 10
200.6866832730526
 20
193.4336596667925
 30
0.0
 10
200.8911738529519
 20
192.0566274074916
 30
0.0
 10
200.8264055033529
 20
190.619133446692
 30
0.0
 10
200.6113891873525
 20
189.665288426292
 30
0.0
 10
200.4645795609527
 20
189.1902122916926
 30
0.0
  0
SPLINE
  5
15032
330
1F
100
AcDbEntity
  8
0
100
AcDbSpline
210
0.0
220
0.0
230
1.0
 70
     8
 71
     3
 72
    11
 73
     7
 74
     0
 42
0.0000000001
 43
0.0000000001
 40
0.0
 40
0.0
 40
0.0
 40
0.0
 40
0.2390895955
 40
0.4829020184
 40
0.7356058602
 40
1.0
 40
1.0
 40
1.0
 40
1.0
 10
200.7834336446526
 20
193.4529551129925
 30
0.0
 10
200.9814525803527
 20
193.0493565763917
 30
0.0
 10
201.2968846161517
 20
192.1897604001923
 30
0.0
 10
201.5012829631529
 20
190.8129243582915
 30
0.0
 10
201.436406548452
 20
189.3756685243915
 30
0.0
 10
201.2214422744515
 20
188.4219693090926
 30
0.0
 10
201.0746632942524
 20
187.9469923550922
 30
0.0
  0
SPLINE
  5
15033
330
1F
100
AcDbEntity
  8
0
100
AcDbSpline
210
0.0
220
0.0
230
1.0
 70
     8
 71
     3
 72
    13
 73
     9
 74
     0
 42
0.0000000001
 43
0.0000000001
 40
0.0
 40
0.0
 40
0.0
 40
0.0
 40
0.2279083953
 40
0.3511024212
 40
0.4788074411000001
 40
0.6094485636
 40
0.7412103089000001
 40
1.0
 40
1.0
 40
1.0
 40
1.0
 10
171.055917088052
 20
209.7033412445925
 30
0.0
 10
171.3076036834523
 20
210.5178112925922
 30
0.0
 10
171.9451769720514
 20
211.7022671345921
 30
0.0
 10
173.1161304561525
 20
213.060507172292
 30
0.0
 10
174.1902406145515
 20
214.0075826537922
 30
0.0
 10
175.4039247109527
 20
214.8250289539919
 30
0.0
 10
177.1469742188515
 20
215.7049329181917
 30
0.0
 10
178.570737593153
 20
216.1176451723922
 30
0.0
 10
179.5286161713526
 20
216.2571242437915
 30
0.0
  0
SPLINE
  5
15034
330
1F
100
AcDbEntity
  8
0
100
AcDbSpline
210
0.0
220
0.0
230
1.0
 70
     8
 71
     3
 72
    11
 73
     7
 74
     0
 42
0.0000000001
 43
0.0000000001
 40
0.0
 40
0.0
 40
0.0
 40
0.0
 40
0.2390851193
 40
0.4829127591
 40
0.7355807794000002
 40
1.0
 40
1.0
 40
1.0
 40
1.0
 10
203.3324093673515
 20
193.9335184098925
 30
0.0
 10
203.5700869294529
 20
193.449140511192
 30
0.0
 10
203.9489495393524
 20
192.4175348031921
 30
0.0
 10
204.1942435324514
 20
190.7651010059925
 30
0.0
 10
204.1165928582528
 20
189.0401008291918
 30
0.0
 10
203.8585378040521
 20
187.8955015872924
 30
0.0
 10
203.6823576459525
 20
187.3253823868926
 30
0.0
  0
SPLINE
  5
15035
330
1F
100
AcDbEntity
  8
0
100
AcDbSpline
210
0.0
220
0.0
230
1.0
 70
     8
 71
     3
 72
    20
 73
    16
 74
     0
 42
0.0000000001
 43
0.0000000001
 40
0.0
 40
0.0
 40
0.0
 40
0.0
 40
0.1207640959
 40
0.1857003487
 40
0.2530028737999999
 40
0.3220152206
 40
0.3919659676
 40
0.5311020143000002
 40
0.5988870644
 40
0.6644533457000002
 40
0.7867109779000003
 40
0.8434283416999999
 40
0.8973947029999999
 40
0.949266217
 40
1.0
 40
1.0
 40
1.0
 40
1.0
 10
200.4645795609527
 20
189.1902122916926
 30
0.0
 10
200.1279951507518
 20
188.1010247641915
 30
0.0
 10
199.3070685185526
 20
186.5113103295915
 30
0.0
 10
197.8043466732529
 20
184.6512421120923
 30
0.0
 10
196.4281711536519
 20
183.3333190946922
 30
0.0
 10
194.8662505168528
 20
182.1629843685922
 30
0.0
 10
192.5939089927529
 20
180.8398893075917
 30
0.0
 10
190.1195634600522
 20
179.9152073910916
 30
0.0
 10
187.5823768414526
 20
179.4570046647922
 30
0.0
 10
185.1690893009514
 20
179.3287271963926
 30
0.0
 10
182.843491661352
 20
179.6685623167922
 30
0.0
 10
180.8074277954515
 20
180.5254752327927
 30
0.0
 10
179.5180597601525
 20
181.3757484279921
 30
0.0
 10
178.4661848812526
 20
182.4288345338917
 30
0.0
 10
177.9406896837523
 20
183.253498864592
 30
0.0
 10
177.7296925696524
 20
183.6834398122918
 30
0.0
  0
SPLINE
  5
15036
330
1F
100
AcDbEntity
  8
0
100
AcDbSpline
210
0.0
220
0.0
230
1.0
 70
     8
 71
     3
 72
    11
 73
     7
 74
     0
 42
0.0000000001
 43
0.0000000001
 40
0.0
 40
0.0
 40
0.0
 40
0.0
 40
0.2390883379
 40
0.4829066281000002
 40
0.7355931485
 40
1.0
 40
1.0
 40
1.0
 40
1.0
 10
218.4406619677526
 20
162.0111310442915
 30
0.0
 10
218.6704469199527
 20
161.542907010992
 30
0.0
 10
219.0366023971515
 20
160.545673900392
 30
0.0
 10
219.2738117289524
 20
158.9483163039921
 30
0.0
 10
219.1986804745526
 20
157.2808229796918
 30
0.0
 10
218.9492615596524
 20
156.1743624586924
 30
0.0
 10
218.7789623471513
 20
155.6232740050926
 30
0.0
  0
SPLINE
  5
15037
330
1F
100
AcDbEntity
  8
0
100
AcDbSpline
210
0.0
220
0.0
230
1.0
 70
     8
 71
     3
 72
    11
 73
     7
 74
     0
 42
0.0000000001
 43
0.0000000001
 40
0.0
 40
0.0
 40
0.0
 40
0.0
 40
0.2390883379
 40
0.4829066281000002
 40
0.7355931485
 40
1.0
 40
1.0
 40
1.0
 40
1.0
 10
219.0420478677521
 20
161.9205969925923
 30
0.0
 10
219.2797564390517
 20
161.4362273028927
 30
0.0
 10
219.6585379671529
 20
160.4046068436927
 30
0.0
 10
219.9039269310529
 20
158.7521679508917
 30
0.0
 10
219.8262049437513
 20
157.0271748566919
 30
0.0
 10
219.5681853766515
 20
155.8825605246919
 30
0.0
 10
219.3920137774517
 20
155.3124690208923
 30
0.0
  0
SPLINE
  5
15038
330
1F
100
AcDbEntity
  8
0
100
AcDbSpline
210
0.0
220
0.0
230
1.0
 70
     8
 71
     3
 72
    11
 73
     7
 74
     0
 42
0.0000000001
 43
0.0000000001
 40
0.0
 40
0.0
 40
0.0
 40
0.0
 40
0.2693911434
 40
0.5284800255
 40
0.7727276765000001
 40
1.0
 40
1.0
 40
1.0
 40
1.0
 10
198.0505102864523
 20
165.685811671692
 30
0.0
 10
197.0103965025524
 20
165.3057660566918
 30
0.0
 10
194.9051601193519
 20
164.7237362830926
 30
0.0
 10
191.7271180492522
 20
164.4125256174919
 30
0.0
 10
188.7174437463514
 20
164.6895162215922
 30
0.0
 10
186.8509377662526
 20
165.2870594004924
 30
0.0
 10
186.0060749053524
 20
165.685811671692
 30
0.0
  0
LINE
  5
15039
330
1F
100
AcDbEntity
  8
0
100
AcDbLine
 10
384.3018717784533
 20
343.6924390202605
 30
0.0
 11
383.8018717784533
 21
343.6924390202605
 31
0.0
  0
LINE
  5
1503A
330
1F
100
AcDbEntity
  8
0
100
AcDbLine
 10
384.3018717784533
 20
343.6924390202605
 30
0.0
 11
385.3018717784534
 21
342.6924390202605
 31
0.0
  0
LINE
  5
1503B
330
1F
100
AcDbEntity
  8
0
100
AcDbLine
 10
385.3018717784534
 20
342.6924390202605
 30
0.0
 11
385.3018717784534
 21
340.6924390202605
 31
0.0
  0
LINE
  5
1503C
330
1F
100
AcDbEntity
  8
0
100
AcDbLine
 10
386.3018717784533
 20
340.6924390202605
 30
0.0
 11
385.3018717784534
 21
340.6924390202605
 31
0.0
  0
LINE
  5
1503D
330
1F
100
AcDbEntity
  8
0
100
AcDbLine
 10
386.3018717784533
 20
326.6924390202605
 30
0.0
 11
386.3018717784533
 21
340.6924390202605
 31
0.0
  0
LINE
  5
1503E
330
1F
100
AcDbEntity
  8
0
100
AcDbLine
 10
384.0518717784533
 20
326.6924390202605
 30
0.0
 11
386.3018717784533
 21
326.6924390202605
 31
0.0
  0
LINE
  5
1503F
330
1F
100
AcDbEntity
  8
0
100
AcDbLine
 10
384.0518717784533
 20
327.1924390202605
 30
0.0
 11
384.0518717784533
 21
326.6924390202605
 31
0.0
  0
LINE
  5
15040
330
1F
100
AcDbEntity
  8
0
100
AcDbLine
 10
372.8018717784534
 20
333.9521209842599
 30
0.0
 11
384.0518717784533
 21
327.1924390202605
 31
0.0
  0
LINE
  5
15041
330
1F
100
AcDbEntity
  8
0
100
AcDbLine
 10
372.8018717784534
 20
333.9521209842599
 30
0.0
 11
361.5518717784533
 21
327.1924390202605
 31
0.0
  0
LINE
  5
15042
330
1F
100
AcDbEntity
  8
0
100
AcDbLine
 10
361.5518717784533
 20
327.1924390202605
 30
0.0
 11
361.5518717784533
 21
284.9244898277595
 31
0.0
  0
LINE
  5
15043
330
1F
100
AcDbEntity
  8
0
100
AcDbLine
 10
361.5518717784533
 20
284.9244898277595
 30
0.0
 11
360.5518717784534
 21
283.1924390202605
 31
0.0
  0
LINE
  5
15044
102
{ACAD_REACTORS
330
15062
102
}
330
1F
100
AcDbEntity
  8
0
100
AcDbLine
 10
360.5518717784534
 20
283.1924390202605
 30
0.0
 11
357.8018717784534
 21
283.1924390202605
 31
0.0
  0
LINE
  5
15045
330
1F
100
AcDbEntity
  8
0
100
AcDbLine
 10
357.8018717784534
 20
288.1924390202605
 30
0.0
 11
357.8018717784534
 21
283.1924390202605
 31
0.0
  0
LINE
  5
15046
330
1F
100
AcDbEntity
  8
0
100
AcDbLine
 10
358.3018717784534
 20
288.6924390202604
 30
0.0
 11
357.8018717784534
 21
288.1924390202605
 31
0.0
  0
LINE
  5
15047
330
1F
100
AcDbEntity
  8
0
100
AcDbLine
 10
358.3018717784534
 20
317.6924390202605
 30
0.0
 11
358.3018717784534
 21
288.6924390202604
 31
0.0
  0
LINE
  5
15048
330
1F
100
AcDbEntity
  8
0
100
AcDbLine
 10
357.8018717784534
 20
318.1924390202605
 30
0.0
 11
358.3018717784534
 21
317.6924390202605
 31
0.0
  0
LINE
  5
15049
330
1F
100
AcDbEntity
  8
0
100
AcDbLine
 10
357.8018717784534
 20
321.8924390202594
 30
0.0
 11
357.8018717784534
 21
318.1924390202605
 31
0.0
  0
LINE
  5
1504A
330
1F
100
AcDbEntity
  8
0
100
AcDbLine
 10
359.3018717784533
 20
321.8924390202594
 30
0.0
 11
357.8018717784534
 21
321.8924390202594
 31
0.0
  0
LINE
  5
1504B
330
1F
100
AcDbEntity
  8
0
100
AcDbLine
 10
359.3018717784533
 20
340.6924390202605
 30
0.0
 11
359.3018717784533
 21
321.8924390202594
 31
0.0
  0
LINE
  5
1504C
330
1F
100
AcDbEntity
  8
0
100
AcDbLine
 10
360.3018717784534
 20
340.6924390202605
 30
0.0
 11
359.3018717784533
 21
340.6924390202605
 31
0.0
  0
LINE
  5
1504D
330
1F
100
AcDbEntity
  8
0
100
AcDbLine
 10
360.3018717784534
 20
342.6924390202605
 30
0.0
 11
360.3018717784534
 21
340.6924390202605
 31
0.0
  0
LINE
  5
1504E
330
1F
100
AcDbEntity
  8
0
100
AcDbLine
 10
361.3018717784533
 20
343.6924390202605
 30
0.0
 11
360.3018717784534
 21
342.6924390202605
 31
0.0
  0
LINE
  5
1504F
330
1F
100
AcDbEntity
  8
0
100
AcDbLine
 10
361.8018717784533
 20
343.6924390202605
 30
0.0
 11
361.3018717784533
 21
343.6924390202605
 31
0.0
  0
LINE
  5
15050
330
1F
100
AcDbEntity
  8
0
100
AcDbLine
 10
362.8018717784533
 20
344.6924390202604
 30
0.0
 11
382.8018717784534
 21
344.6924390202604
 31
0.0
  0
SPLINE
  5
15051
330
1F
100
AcDbEntity
  8
0
100
AcDbSpline
210
0.0
220
0.0
230
1.0
 70
    12
 71
     3
 72
     8
 73
     4
 74
     0
 42
0.0000000001
 43
0.0000000001
 40
0.0
 40
0.0
 40
0.0
 40
0.0
 40
1.0
 40
1.0
 40
1.0
 40
1.0
 10
383.8018717784533
 20
343.6924390202605
 30
0.0
 41
1.0
 10
383.2160853407531
 20
343.6924390202604
 30
0.0
 41
0.8047378541
 10
382.8018717784533
 20
344.1066525825601
 30
0.0
 41
0.8047378541
 10
382.8018717784534
 20
344.6924390202604
 30
0.0
 41
1.0
  0
LINE
  5
15052
330
1F
100
AcDbEntity
  8
0
100
AcDbLine
 10
387.8018717784533
 20
283.1924390202605
 30
0.0
 11
385.0518717784534
 21
283.1924390202605
 31
0.0
  0
LINE
  5
15053
330
1F
100
AcDbEntity
  8
0
100
AcDbLine
 10
384.0518717784533
 20
284.9244898277595
 30
0.0
 11
385.0518717784534
 21
283.1924390202605
 31
0.0
  0
LINE
  5
15054
330
1F
100
AcDbEntity
  8
0
100
AcDbLine
 10
384.0518717784533
 20
322.6924390202605
 30
0.0
 11
384.0518717784533
 21
284.9244898277595
 31
0.0
  0
LINE
  5
15055
330
1F
100
AcDbEntity
  8
0
100
AcDbLine
 10
384.0518717784533
 20
322.6924390202605
 30
0.0
 11
386.3018717784533
 21
322.6924390202605
 31
0.0
  0
LINE
  5
15056
330
1F
100
AcDbEntity
  8
0
100
AcDbLine
 10
386.3018717784533
 20
321.8924390202594
 30
0.0
 11
386.3018717784533
 21
322.6924390202605
 31
0.0
  0
LINE
  5
15057
330
1F
100
AcDbEntity
  8
0
100
AcDbLine
 10
387.8018717784533
 20
321.8924390202594
 30
0.0
 11
386.3018717784533
 21
321.8924390202594
 31
0.0
  0
LINE
  5
15058
330
1F
100
AcDbEntity
  8
0
100
AcDbLine
 10
387.8018717784533
 20
321.8924390202594
 30
0.0
 11
387.8018717784533
 21
318.1924390202605
 31
0.0
  0
LINE
  5
15059
330
1F
100
AcDbEntity
  8
0
100
AcDbLine
 10
387.8018717784533
 20
318.1924390202605
 30
0.0
 11
387.3018717784534
 21
317.6924390202605
 31
0.0
  0
LINE
  5
1505A
330
1F
100
AcDbEntity
  8
0
100
AcDbLine
 10
387.3018717784534
 20
317.6924390202605
 30
0.0
 11
387.3018717784534
 21
288.6924390202604
 31
0.0
  0
LINE
  5
1505B
330
1F
100
AcDbEntity
  8
0
100
AcDbLine
 10
387.3018717784534
 20
288.6924390202604
 30
0.0
 11
387.8018717784533
 21
288.1924390202605
 31
0.0
  0
LINE
  5
1505C
330
1F
100
AcDbEntity
  8
0
100
AcDbLine
 10
387.8018717784533
 20
288.1924390202605
 30
0.0
 11
387.8018717784533
 21
283.1924390202605
 31
0.0
  0
HATCH
  5
1505D
330
1F
100
AcDbEntity
  8
hat
100
AcDbHatch
 10
0.0
 20
0.0
 30
0.0
210
0.0
220
0.0
230
1.0
  2
ANSI31
 70
     0
 71
     0
 91
        2
 92
        1
 93
       26
 72
     1
 10
384.3018717784533
 20
343.6924390202605
 11
383.8018717784533
 21
343.6924390202605
 72
     1
 10
384.3018717784533
 20
343.6924390202605
 11
385.3018717784534
 21
342.6924390202605
 72
     1
 10
385.3018717784534
 20
342.6924390202605
 11
385.3018717784534
 21
340.6924390202605
 72
     1
 10
386.3018717784533
 20
340.6924390202605
 11
385.3018717784534
 21
340.6924390202605
 72
     1
 10
386.3018717784533
 20
326.6924390202605
 11
386.3018717784533
 21
340.6924390202605
 72
     1
 10
384.0518717784533
 20
326.6924390202605
 11
386.3018717784533
 21
326.6924390202605
 72
     1
 10
384.0518717784533
 20
327.1924390202605
 11
384.0518717784533
 21
326.6924390202605
 72
     1
 10
372.8018717784534
 20
333.9521209842599
 11
384.0518717784533
 21
327.1924390202605
 72
     1
 10
372.8018717784534
 20
333.9521209842599
 11
361.5518717784533
 21
327.1924390202605
 72
     1
 10
361.5518717784533
 20
327.1924390202605
 11
361.5518717784533
 21
284.9244898277604
 72
     1
 10
361.5518717784533
 20
284.9244898277595
 11
360.5518717784534
 21
283.1924390202595
 72
     1
 10
360.5518717784534
 20
283.1924390202605
 11
357.8018717784534
 21
283.1924390202605
 72
     1
 10
357.8018717784534
 20
288.1924390202605
 11
357.8018717784534
 21
283.1924390202605
 72
     1
 10
358.3018717784534
 20
288.6924390202604
 11
357.8018717784534
 21
288.1924390202605
 72
     1
 10
358.3018717784534
 20
317.6924390202605
 11
358.3018717784534
 21
288.6924390202605
 72
     1
 10
357.8018717784534
 20
318.1924390202605
 11
358.3018717784534
 21
317.6924390202605
 72
     1
 10
357.8018717784534
 20
321.8924390202594
 11
357.8018717784534
 21
318.1924390202596
 72
     1
 10
359.3018717784533
 20
321.8924390202594
 11
357.8018717784534
 21
321.8924390202594
 72
     1
 10
359.3018717784533
 20
340.6924390202605
 11
359.3018717784533
 21
321.8924390202603
 72
     1
 10
360.3018717784534
 20
340.6924390202605
 11
359.3018717784533
 21
340.6924390202605
 72
     1
 10
360.3018717784534
 20
342.6924390202605
 11
360.3018717784534
 21
340.6924390202605
 72
     1
 10
361.3018717784533
 20
343.6924390202605
 11
360.3018717784534
 21
342.6924390202605
 72
     1
 10
361.8018717784533
 20
343.6924390202605
 11
361.3018717784533
 21
343.6924390202605
 72
     4
 94
        3
 73
     1
 74
     0
 95
        8
 96
        4
 40
0.0
 40
0.0
 40
0.0
 40
0.0
 40
1.0
 40
1.0
 40
1.0
 40
1.0
 10
361.8018717784533
 20
343.6924390202605
 42
1.0
 10
362.3876582160507
 20
343.6924390202604
 42
0.8047378541
 10
362.8018717784541
 20
344.1066525825601
 42
0.8047378541
 10
362.8018717784533
 20
344.6924390202604
 42
1.0
 72
     1
 10
362.8018717784533
 20
344.6924390202604
 11
382.8018717784534
 21
344.6924390202604
 72
     4
 94
        3
 73
     1
 74
     0
 95
        8
 96
        4
 40
0.0
 40
0.0
 40
0.0
 40
0.0
 40
1.0
 40
1.0
 40
1.0
 40
1.0
 10
383.8018717784533
 20
343.6924390202605
 42
1.0
 10
383.2160853407531
 20
343.6924390202604
 42
0.8047378541
 10
382.8018717784533
 20
344.1066525825601
 42
0.8047378541
 10
382.8018717784534
 20
344.6924390202604
 42
1.0
 97
        0
 92
        1
 93
       11
 72
     1
 10
387.8018717784533
 20
283.1924390202605
 11
385.0518717784534
 21
283.1924390202605
 72
     1
 10
384.0518717784533
 20
284.9244898277595
 11
385.0518717784534
 21
283.1924390202595
 72
     1
 10
384.0518717784533
 20
322.6924390202605
 11
384.0518717784533
 21
284.9244898277604
 72
     1
 10
384.0518717784533
 20
322.6924390202605
 11
386.3018717784533
 21
322.6924390202605
 72
     1
 10
386.3018717784533
 20
321.8924390202594
 11
386.3018717784533
 21
322.6924390202597
 72
     1
 10
387.8018717784533
 20
321.8924390202594
 11
386.3018717784533
 21
321.8924390202594
 72
     1
 10
387.8018717784533
 20
321.8924390202594
 11
387.8018717784533
 21
318.1924390202596
 72
     1
 10
387.8018717784533
 20
318.1924390202605
 11
387.3018717784534
 21
317.6924390202605
 72
     1
 10
387.3018717784534
 20
317.6924390202605
 11
387.3018717784534
 21
288.6924390202605
 72
     1
 10
387.3018717784534
 20
288.6924390202604
 11
387.8018717784533
 21
288.1924390202605
 72
     1
 10
387.8018717784533
 20
288.1924390202605
 11
387.8018717784533
 21
283.1924390202605
 97
        0
 75
     0
 76
     1
 52
0.0
 41
0.5
 77
     0
 78
     1
 53
45.0
 43
-8296.240346975071
 44
2810.108830295766
 45
-1.122532015133643
 46
1.122532015133643
 79
     0
 98
        1
 10
230.3500164376518
 20
195.9568219693594
1001
ACAD
1010
0.0
1020
0.0
1030
0.0
  0
LINE
  5
1505E
330
1F
100
AcDbEntity
  8
CEN
  6
CENTER
 62
     1
 48
7.0
370
     0
100
AcDbLine
 10
266.9678826955923
 20
232.2909207533323
 30
0.0
 11
302.6078826955935
 21
232.2909207533323
 31
0.0
  0
LINE
  5
1505F
330
1F
100
AcDbEntity
  8
CEN
  6
CENTER
 62
     1
 48
7.0
370
     0
100
AcDbLine
 10
284.7878826955938
 20
214.4709207533326
 30
0.0
 11
284.7878826955938
 21
250.110920753332
 31
0.0
  0
DIMENSION
  5
15060
102
{ACAD_XDICTIONARY
360
15061
102
}
102
{ACAD_REACTORS
330
15062
102
}
330
1F
100
AcDbEntity
  8
DIM
100
AcDbDimension
  2
*D2
 10
353.0238631600868
 20
327.1924390202605
 30
0.0
 11
350.9738631600867
 21
305.1924390202605
 31
0.0
 70
    32
 71
     5
 42
44.00000000000004
 73
     0
 74
     0
 75
     0
  3
01
100
AcDbAlignedDimension
 13
357.8018717784534
 23
283.1924390202605
 33
0.0
 14
361.5518717784533
 24
327.1924390202605
 34
0.0
 50
90.0
100
AcDbRotatedDimension
  0
DIMENSION
  5
15069
102
{ACAD_XDICTIONARY
360
1506A
102
}
102
{ACAD_REACTORS
330
1506B
102
}
330
1F
100
AcDbEntity
  8
DIM
100
AcDbDimension
  2
*D4
 10
299.7878826955938
 20
274.5320265107823
 30
0.0
 11
284.7878826955938
 21
276.5820265107823
 31
0.0
 70
    32
  1
%%c<>
 71
     5
 42
30.0
 73
     0
 74
     0
 75
     0
  3
01
100
AcDbAlignedDimension
 13
269.7878826955938
 23
283.1924390202605
 33
0.0
 14
299.7878826955938
 24
283.1924390202605
 34
0.0
100
AcDbRotatedDimension
  0
LINE
  5
1506C
330
1F
100
AcDbEntity
  8
CEN
  6
CENTER
 62
     1
 48
2.0
370
     0
100
AcDbLine
 10
281.4878826955927
 20
324.6924390202605
 30
0.0
 11
288.0878826955949
 21
324.6924390202605
 31
0.0
  0
DIMENSION
  5
1506D
102
{ACAD_XDICTIONARY
360
1506E
102
}
102
{ACAD_REACTORS
330
1506F
102
}
330
1F
100
AcDbEntity
  8
DIM
100
AcDbDimension
  2
*D5
 10
270.2878826955938
 20
303.6744974789274
 30
0.0
 11
284.7878826955938
 21
305.7244974789274
 31
0.0
 70
    32
  1
%%C<>
 71
     5
 42
29.0
 73
     0
 74
     0
 75
     0
  3
01
100
AcDbAlignedDimension
 13
299.2878826955938
 23
303.1924390202605
 33
0.0
 14
270.2878826955938
 24
303.1924390202605
 34
0.0
100
AcDbRotatedDimension
  0
LINE
  5
1509D
330
1F
100
AcDbEntity
  8
0
100
AcDbLine
 10
294.7878826955938
 20
374.6924390202604
 30
0.0
 11
286.2878827027934
 21
374.6924390202604
 31
0.0
  0
LINE
  5
1509E
330
1F
100
AcDbEntity
  8
0
100
AcDbLine
 10
283.2878826955938
 20
374.6924390202604
 30
0.0
 11
274.7878826955938
 21
374.6924390202604
 31
0.0
  0
LINE
  5
1509F
330
1F
100
AcDbEntity
  8
0
100
AcDbLine
 10
362.915011813141
 20
374.6924390202604
 30
0.0
 11
382.6887317438767
 21
374.6924390202604
 31
0.0
  0
LINE
  5
150AB
330
1F
100
AcDbEntity
  8
0
100
AcDbLine
 10
380.659988601259
 20
376.6924390202604
 30
0.0
 11
364.9437549557597
 21
376.6924390202604
 31
0.0
  0
SPLINE
  5
150AC
330
1F
100
AcDbEntity
  8
0
100
AcDbSpline
210
0.0
220
0.0
230
1.0
 70
     8
 71
     3
 72
    11
 73
     7
 74
     0
 42
0.0000000001
 43
0.0000000001
 40
0.0
 40
0.0
 40
0.0
 40
0.0
 40
0.2500660386
 40
0.5000770185
 40
0.7500473683
 40
1.0
 40
1.0
 40
1.0
 40
1.0
 10
380.659988601259
 20
376.6924390202604
 30
0.0
 10
380.9221115553591
 20
376.6924390202604
 30
0.0
 10
381.451913133359
 20
376.5906901624605
 30
0.0
 10
382.1264847863594
 20
376.1498692561612
 30
0.0
 10
382.5817372145591
 20
375.4843918169602
 30
0.0
 10
382.6887317451591
 20
374.9544430995604
 30
0.0
 10
382.6887317451591
 20
374.6924390202604
 30
0.0
  0
SPLINE
  5
150AD
330
1F
100
AcDbEntity
  8
0
100
AcDbSpline
210
0.0
220
0.0
230
1.0
 70
     8
 71
     3
 72
    11
 73
     7
 74
     0
 42
0.0000000001
 43
0.0000000001
 40
0.0
 40
0.0
 40
0.0
 40
0.0
 40
0.2499526317
 40
0.4999229815
 40
0.7499339614000001
 40
1.0
 40
1.0
 40
1.0
 40
1.0
 10
362.9150118118595
 20
374.6924390202604
 30
0.0
 10
362.9150118118595
 20
374.9544430995604
 30
0.0
 10
363.0220063425593
 20
375.4843918169602
 30
0.0
 10
363.4772587706592
 20
376.1498692561612
 30
0.0
 10
364.1518304237596
 20
376.5906901624605
 30
0.0
 10
364.6816320016595
 20
376.6924390202604
 30
0.0
 10
364.9437549557597
 20
376.6924390202604
 30
0.0
  0
DIMENSION
  5
153BC
330
1F
100
AcDbEntity
  8
DIM
100
AcDbDimension
  2
*D6
 10
294.7878826955938
 20
387.4927428750374
 30
0.0
 11
284.7878826955944
 21
387.4927428750374
 31
0.0
 70
   160
  1
%%C<>
 71
     5
 42
20.0
 73
     0
 74
     0
 75
     0
  3
01
100
AcDbAlignedDimension
 13
274.7878826955938
 23
374.6924390202604
 33
0.0
 14
294.7878826955938
 24
374.6924390202604
 34
0.0
100
AcDbRotatedDimension
  0
DIMENSION
  5
15957
330
1F
100
AcDbEntity
  8
DIM
100
AcDbDimension
  2
*D7
 10
314.2282781339009
 20
283.1924390202605
 30
0.0
 11
312.1782781339008
 21
329.9424390202605
 31
0.0
 70
    32
 71
     5
 42
93.50000000000006
 73
     0
 74
     0
 75
     0
  3
01
100
AcDbAlignedDimension
 13
291.0001861371577
 23
376.6924390202604
 33
0.0
 14
297.0852694628112
 24
283.1924390202605
 34
0.0
 50
90.0
100
AcDbRotatedDimension
  0
LINE
  5
159DF
330
1F
100
AcDbEntity
  8
CEN
 48
5.0
100
AcDbLine
 10
284.7878826955938
 20
309.6896015031356
 30
0.0
 11
284.7878826955938
 21
379.6924390202605
 31
0.0
  0
DIMENSION
  5
159E0
330
1F
100
AcDbEntity
  8
DIM
100
AcDbDimension
  2
*D8
 10
384.0518717784533
 20
274.5320265107823
 30
0.0
 11
372.8018717784534
 21
276.5820265107823
 31
0.0
 70
    32
  1
%%C<>
 71
     5
 42
22.5
 73
     0
 74
     0
 75
     0
  3
01
100
AcDbAlignedDimension
 13
361.5518717784533
 23
284.9244898277595
 33
0.0
 14
384.0518717784533
 24
284.7244898277595
 34
0.0
100
AcDbRotatedDimension
  0
ENDSEC
  0
SECTION
  2
OBJECTS
  0
DICTIONARY
  5
C
330
0
100
AcDbDictionary
281
     1
  3
ACAD_COLOR
350
4FFE
  3
ACAD_GROUP
350
D
  3
ACAD_LAYOUT
350
1A
  3
ACAD_MATERIAL
350
4FE5
  3
ACAD_MLEADERSTYLE
350
5022
  3
ACAD_MLINESTYLE
350
17
  3
ACAD_PLOTSETTINGS
350
19
  3
ACAD_PLOTSTYLENAME
350
E
  3
ACAD_RENDER_PLOT_SETTINGS
350
6537
  3
ACAD_SCALELIST
350
5000
  3
ACAD_TABLESTYLE
350
4FE3
  3
ACAD_VISUALSTYLE
350
2A
  3
ACDB_RECOMPOSE_DATA
350
50EC
  3
AcDbVariableDictionary
350
5108
  3
ASE_INDEX_DICTIONARY
350
14143
  0
DICTIONARY
  5
50EE
330
8
100
AcDbDictionary
280
     1
281
     1
  0
DICTIONARY
  5
50B8
330
2
100
AcDbDictionary
280
     1
281
     1
  3
ACAD_LAYERFILTERS
360
146E2
  3
ACAD_LAYERSTATES
360
50B9
  3
ACLYDICTIONARY
360
146E1
  0
DICTIONARY
  5
50D0
330
10
100
AcDbDictionary
280
     1
281
     1
  3
ADSK_XREC_LAYER_RECONCILED
360
50D1
  0
DICTIONARY
  5
50D2
330
3B
100
AcDbDictionary
280
     1
281
     1
  3
ADSK_XREC_LAYER_RECONCILED
360
50D3
  0
DICTIONARY
  5
50AF
330
50AE
100
AcDbDictionary
280
     1
281
     1
  3
ADSK_XREC_LAYER_RECONCILED
360
50D4
  0
DICTIONARY
  5
67C0
330
1F
100
AcDbDictionary
280
     1
281
     1
  3
ACAD_SORTENTS
360
67C1
  0
DICTIONARY
  5
15CCC
330
13E17
100
AcDbDictionary
280
     1
281
     1
  0
DICTIONARY
  5
15CFD
330
15C37
100
AcDbDictionary
280
     1
281
     1
  3
ACAD_MTEXT_2008_RT
360
15CFE
  0
DICTIONARY
  5
15CFF
330
15C7B
100
AcDbDictionary
280
     1
281
     1
  3
ACAD_MTEXT_2008_RT
360
15D00
  0
DICTIONARY
  5
15D01
330
15C7C
100
AcDbDictionary
280
     1
281
     1
  3
ACAD_MTEXT_2008_RT
360
15D02
  0
DICTIONARY
  5
15D03
330
15CA1
100
AcDbDictionary
280
     1
281
     1
  3
ACAD_MTEXT_2008_RT
360
15D04
  0
DICTIONARY
  5
15D05
330
15CA4
100
AcDbDictionary
280
     1
281
     1
  3
ACAD_MTEXT_2008_RT
360
15D06
  0
DICTIONARY
  5
15D07
330
15CA5
100
AcDbDictionary
280
     1
281
     1
  3
ACAD_MTEXT_2008_RT
360
15D08
  0
DICTIONARY
  5
15D09
330
15CAF
100
AcDbDictionary
280
     1
281
     1
  3
ACAD_MTEXT_2008_RT
360
15D0A
  0
DICTIONARY
  5
15D0B
330
15CB0
100
AcDbDictionary
280
     1
281
     1
  3
ACAD_MTEXT_2008_RT
360
15D0C
  0
DICTIONARY
  5
15D0D
330
15CB1
100
AcDbDictionary
280
     1
281
     1
  3
ACAD_MTEXT_2008_RT
360
15D0E
  0
DICTIONARY
  5
15D0F
330
15CBF
100
AcDbDictionary
280
     1
281
     1
  3
ACAD_MTEXT_2008_RT
360
15D10
  0
DICTIONARY
  5
15D11
330
15CC0
100
AcDbDictionary
280
     1
281
     1
  3
ACAD_MTEXT_2008_RT
360
15D12
  0
DICTIONARY
  5
15D13
330
15CC1
100
AcDbDictionary
280
     1
281
     1
  3
ACAD_MTEXT_2008_RT
360
15D14
  0
DICTIONARY
  5
15CFB
330
12C4B
100
AcDbDictionary
280
     1
281
     1
  3
ACAD_MTEXT_2008_RT
360
15CFC
  0
DICTIONARY
  5
15061
330
15060
100
AcDbDictionary
280
     1
281
     1
  3
ACAD_DIMASSOC
360
15062
  0
DICTIONARY
  5
1506A
330
15069
100
AcDbDictionary
280
     1
281
     1
  3
ACAD_DIMASSOC
360
1506B
  0
DICTIONARY
  5
1506E
330
1506D
100
AcDbDictionary
280
     1
281
     1
  3
ACAD_DIMASSOC
360
1506F
  0
DICTIONARY
  5
4FFE
102
{ACAD_REACTORS
330
C
102
}
330
C
100
AcDbDictionary
281
     1
  0
DICTIONARY
  5
D
102
{ACAD_REACTORS
330
C
102
}
330
C
100
AcDbDictionary
281
     1
  0
DICTIONARY
  5
1A
102
{ACAD_REACTORS
330
C
102
}
330
C
100
AcDbDictionary
281
     1
  3
Layout1
350
1E
  3
Layout2
350
26
  3
Model
350
22
  0
DICTIONARY
  5
4FE5
102
{ACAD_REACTORS
330
C
102
}
330
C
100
AcDbDictionary
281
     1
  3
ByBlock
350
4FEE
  3
ByLayer
350
4FE6
  3
Global
350
4FF6
  0
DICTIONARY
  5
5022
102
{ACAD_REACTORS
330
C
102
}
330
C
100
AcDbDictionary
281
     1
  3
Standard
350
5023
  0
DICTIONARY
  5
17
102
{ACAD_REACTORS
330
C
102
}
330
C
100
AcDbDictionary
281
     1
  3
Standard
350
18
  0
DICTIONARY
  5
19
102
{ACAD_REACTORS
330
C
102
}
330
C
100
AcDbDictionary
281
     1
  0
ACDBDICTIONARYWDFLT
  5
E
102
{ACAD_REACTORS
330
C
102
}
330
C
100
AcDbDictionary
281
     1
  3
Normal
350
F
100
AcDbDictionaryWithDefault
340
F
  0
DICTIONARY
  5
6537
102
{ACAD_REACTORS
330
C
102
}
330
C
100
AcDbDictionary
281
     1
  3
{1DC63513-1B1A-422F-9880-65CFD2B8D533}
350
6538
  0
DICTIONARY
  5
5000
102
{ACAD_REACTORS
330
C
102
}
330
C
100
AcDbDictionary
281
     1
  3
A0
350
5001
  3
A1
350
5002
  3
A2
350
5003
  3
A3
350
5004
  3
A4
350
5005
  3
A5
350
5006
  3
A6
350
5007
  3
A7
350
5008
  3
A8
350
5009
  3
A9
350
500A
  3
B0
350
500B
  3
B1
350
500C
  3
B2
350
500D
  3
B3
350
500E
  3
B4
350
500F
  3
B5
350
5010
  3
B6
350
5011
  3
B7
350
5012
  3
B8
350
5013
  3
B9
350
5014
  3
C0
350
5015
  3
C1
350
5016
  3
C2
350
5017
  3
C3
350
5018
  3
C4
350
5019
  3
C5
350
501A
  3
C6
350
501B
  3
C7
350
501C
  3
C8
350
501D
  3
C9
350
501E
  3
D0
350
501F
  3
D1
350
5020
  3
D2
350
5021
  0
DICTIONARY
  5
4FE3
102
{ACAD_REACTORS
330
C
102
}
330
C
100
AcDbDictionary
281
     1
  3
Standard
350
4FFF
  0
DICTIONARY
  5
2A
102
{ACAD_REACTORS
330
C
102
}
330
C
100
AcDbDictionary
281
     1
  3
2dWireframe
350
2F
  3
3D Hidden
350
31
  3
3dWireframe
350
30
  3
Basic
350
32
  3
Brighten
350
36
  3
ColorChange
350
3A
  3
Conceptual
350
34
  3
Dim
350
35
  3
Facepattern
350
39
  3
Flat
350
2B
  3
FlatWithEdges
350
2C
  3
Gouraud
350
2D
  3
GouraudWithEdges
350
2E
  3
Linepattern
350
38
  3
Realistic
350
33
  3
Thicken
350
37
  0
XRECORD
  5
50EC
102
{ACAD_REACTORS
330
C
102
}
330
C
100
AcDbXrecord
280
     1
 90
        1
330
4FFF
330
12C4B
330
15C37
330
15C7B
330
15C7C
330
15CA1
330
15CA4
330
15CA5
330
15CAF
330
15CB0
330
15CB1
330
15CBF
330
15CC0
330
15CC1
  0
DICTIONARY
  5
5108
102
{ACAD_REACTORS
330
C
102
}
330
C
100
AcDbDictionary
281
     1
  3
CANNOSCALE
350
510B
  3
CMLEADERSTYLE
350
510A
  3
CTABLESTYLE
350
5109
  3
DIMASSOC
350
510E
  3
INDEXCTL
350
510D
  3
LIGHTINGUNITS
350
15CEC
  3
MSLTSCALE
350
15CEB
  3
SORTENTS
350
510C
  0
DICTIONARY
  5
14143
102
{ACAD_REACTORS
330
C
102
}
330
C
100
AcDbDictionary
281
     1
  3
ASEBlockHierarchyIndexRecord
350
14144
1001
DCO15
1040
1903428632.093
  0
DICTIONARY
  5
146E2
102
{ACAD_REACTORS
330
50B8
102
}
330
50B8
100
AcDbDictionary
281
     1
  0
DICTIONARY
  5
50B9
102
{ACAD_REACTORS
330
50B8
102
}
330
50B8
100
AcDbDictionary
281
     1
  0
DICTIONARY
  5
146E1
102
{ACAD_REACTORS
330
50B8
102
}
330
50B8
100
AcDbDictionary
281
     1
1001
ACAD
1000
<All
  0
XRECORD
  5
50D1
102
{ACAD_REACTORS
330
50D0
102
}
330
50D0
100
AcDbXrecord
280
     1
290
     1
  0
XRECORD
  5
50D3
102
{ACAD_REACTORS
330
50D2
102
}
330
50D2
100
AcDbXrecord
280
     1
290
     1
  0
XRECORD
  5
50D4
102
{ACAD_REACTORS
330
50AF
102
}
330
50AF
100
AcDbXrecord
280
     1
290
     1
  0
SORTENTSTABLE
  5
67C1
102
{ACAD_REACTORS
330
67C0
102
}
330
67C0
100
AcDbSortentsTable
330
1F
331
2C65
  5
2EE7
331
15019
  5
1501B
331
15050
  5
15052
331
14FA3
  5
14FA5
331
14FDA
  5
14FDC
331
15021
  5
15023
331
15058
  5
1505A
331
14FAB
  5
14FAD
331
14FE2
  5
14FE4
331
15060
  5
15069
331
15029
  5
1502B
331
14FB3
  5
14FB5
331
14FEA
  5
14FEC
331
15031
  5
15033
331
14FBB
  5
14FBD
331
14FF2
  5
14FF4
331
15039
  5
1503B
331
14FC3
  5
14FC5
331
14F84
  5
14F84
331
14FFA
  5
14FFC
331
15041
  5
15043
331
15002
  5
15004
331
14FCB
  5
14FCD
331
15957
  5
159DF
331
1500A
  5
1500C
331
14F94
  5
14F94
331
14FD3
  5
14FD5
331
15049
  5
1504B
331
15012
  5
15014
331
14F9C
  5
14F9E
331
28AE
  5
2A38
331
3895
  5
3943
331
1501A
  5
1501C
331
14FA4
  5
14FA6
331
14FDB
  5
14FDD
331
15051
  5
15053
331
159DF
  5
14F96
331
15022
  5
15024
331
14FAC
  5
14FAE
331
14FE3
  5
14FE5
331
15059
  5
1505B
331
1502A
  5
1502C
331
14FB4
  5
14FB6
331
14FEB
  5
14FED
331
15069
  5
1506D
331
15032
  5
15034
331
14FBC
  5
14FBE
331
14FF3
  5
14FF5
331
2FDE
  5
35C8
331
14FFB
  5
14FFD
331
14FC4
  5
14FC6
331
14F85
  5
14F85
331
1503A
  5
1503C
331
15003
  5
15005
331
14FCC
  5
14FCE
331
14F8D
  5
14F8D
331
15042
  5
15044
331
1504A
  5
1504C
331
14FD4
  5
14FD6
331
14F95
  5
14F97
331
1500B
  5
1500D
331
14F9D
  5
14F9F
331
15013
  5
15015
331
2EE7
  5
2F93
331
1501B
  5
1501D
331
15052
  5
15054
331
14FA5
  5
14FA7
331
14FDC
  5
14FDE
331
15023
  5
15025
331
14FAD
  5
14FAF
331
14FE4
  5
14FE6
331
1505A
  5
1505C
331
1502B
  5
1502D
331
14FB5
  5
14FB7
331
14FEC
  5
14FEE
331
15033
  5
15035
331
14FBD
  5
14FBF
331
14FF4
  5
14FF6
331
1503B
  5
1503D
331
14FC5
  5
14FC7
331
14F86
  5
14F86
331
14FFC
  5
14FFE
331
15043
  5
15045
331
15004
  5
15006
331
14F8E
  5
14F8E
331
14FCD
  5
14FCF
331
1500C
  5
1500E
331
14FD5
  5
14FD7
331
14F96
  5
14F98
331
1504B
  5
1504D
331
15014
  5
15016
331
14F9E
  5
14FA0
331
3807
  5
3895
331
1501C
  5
1501E
331
14FA6
  5
14FA8
331
14FDD
  5
14FDF
331
15053
  5
15055
331
15024
  5
15026
331
14FAE
  5
14FB0
331
14FE5
  5
14FE7
331
1505B
  5
1505D
331
1502C
  5
1502E
331
14FB6
  5
14FB8
331
14FED
  5
14FEF
331
15034
  5
15036
331
14FBE
  5
14FC0
331
14FF5
  5
14FF7
331
35C8
  5
35D8
331
35D8
  5
3807
331
14FFD
  5
14FFF
331
14FC6
  5
14FC8
331
14F87
  5
14F87
331
1503C
  5
1503E
331
13EBA
  5
13EBB
331
15044
  5
15046
331
14FCE
  5
14FD0
331
14F8F
  5
14F8F
331
15005
  5
15007
331
150AB
  5
150AD
331
1504C
  5
1504E
331
14FD6
  5
14FD8
331
14F97
  5
14F99
331
1500D
  5
1500F
331
14F9F
  5
14FA1
331
15015
  5
15017
331
12C4B
  5
13081
331
1501D
  5
1501F
331
15054
  5
15056
331
14FA7
  5
14FA9
331
14FDE
  5
14FE0
331
12C63
  5
13098
331
15025
  5
15027
331
14FAF
  5
14FB1
331
14FE6
  5
14FE8
331
1505C
  5
1505E
331
1502D
  5
1502F
331
14FB7
  5
14FB9
331
14FEE
  5
14FF0
331
15035
  5
15037
331
14FBF
  5
14FC1
331
14FF6
  5
14FF8
331
1506C
  5
15073
331
14F80
  5
14F80
331
1503D
  5
1503F
331
14FC7
  5
14FC9
331
14FFE
  5
15000
331
13EBB
  5
13EBC
331
15045
  5
15047
331
15006
  5
15008
331
14F90
  5
14F90
331
14FCF
  5
14FD1
331
150AC
  5
153BC
331
1500E
  5
15010
331
14FD7
  5
14FD9
331
14F98
  5
14F9A
331
1504D
  5
1504F
331
15016
  5
15018
331
14FA0
  5
14FA2
331
1501E
  5
15020
331
14FA8
  5
14FAA
331
14FDF
  5
14FE1
331
15055
  5
15057
331
15026
  5
15028
331
14FB0
  5
14FB2
331
14FE7
  5
14FE9
331
1505D
  5
1505F
331
1502E
  5
15030
331
14FB8
  5
14FBA
331
14FEF
  5
14FF1
331
15036
  5
15038
331
14FF7
  5
14FF9
331
1506D
  5
15074
331
14F81
  5
14F81
331
14FC0
  5
14FC2
331
14FFF
  5
15001
331
14FC8
  5
14FCA
331
14F89
  5
14F89
331
1503E
  5
15040
331
1509D
  5
1509F
331
13EBC
  5
13EBD
331
153BC
  5
1584D
331
15046
  5
15048
331
14FD0
  5
14FD2
331
14F91
  5
14F91
331
15007
  5
15009
331
150AD
  5
1584C
331
1504E
  5
15050
331
14F99
  5
14F9B
331
1500F
  5
15011
331
15017
  5
15019
331
14FD8
  5
14FDA
331
2F93
  5
2FDE
331
15056
  5
15058
331
1501F
  5
15021
331
4842
  5
4E94
331
14FA9
  5
14FAB
331
14FE0
  5
14FE2
331
15027
  5
15029
331
14FB1
  5
14FB3
331
14FE8
  5
14FEA
331
1505E
  5
15060
331
1502F
  5
15031
331
14FB9
  5
14FBB
331
14FF0
  5
14FF2
331
15037
  5
15039
331
14FC1
  5
14FC3
331
14F82
  5
14F82
331
14FF8
  5
14FFA
331
1503F
  5
15041
331
15000
  5
15002
331
13EBD
  5
13EBE
331
14F8A
  5
14F8A
331
14FC9
  5
14FCB
331
1509E
  5
150AB
331
15047
  5
15049
331
15008
  5
1500A
331
14F92
  5
14F92
331
14FD1
  5
14FD3
331
15010
  5
15012
331
1504F
  5
15051
331
15018
  5
1501A
331
14FA2
  5
14FA4
331
14FD9
  5
14FDB
331
3943
  5
4842
331
15020
  5
15022
331
14FAA
  5
14FAC
331
14FE1
  5
14FE3
331
15057
  5
15059
331
15028
  5
1502A
331
14FB2
  5
14FB4
331
14FE9
  5
14FEB
331
1505F
  5
15063
331
15030
  5
15032
331
14FBA
  5
14FBC
331
14FF1
  5
14FF3
331
14FF9
  5
14FFB
331
14F83
  5
14F83
331
14FC2
  5
14FC4
331
15038
  5
1503A
331
15001
  5
15003
331
14FCA
  5
14FCC
331
13EBE
  5
14313
331
14F8B
  5
14F8B
331
15040
  5
15042
331
1509F
  5
150AC
331
15048
  5
1504A
331
14FD2
  5
14FD4
331
14F93
  5
14F93
331
15009
  5
1500B
331
14F9B
  5
14F9D
331
15011
  5
15013
  0
XRECORD
  5
15CFE
102
{ACAD_REACTORS
330
15CFD
102
}
330
15CFD
100
AcDbXrecord
280
     1
 40
1527.0
  1
\pxqc;BQ LUO
  0
XRECORD
  5
15D00
102
{ACAD_REACTORS
330
15CFF
102
}
330
15CFF
100
AcDbXrecord
280
     1
 40
1262561.0
  1
\pxqc;档案员{\H0.7x;\P\Fromans|c134;Filing Clerk\fFangSong_GB2312|b0|i0|c134|p49; }
  0
XRECORD
  5
15D02
102
{ACAD_REACTORS
330
15D01
102
}
330
15D01
100
AcDbXrecord
280
     1
 40
650528.0
  1
\pxqc;日期{\Fromans|c134;/Date}
  0
XRECORD
  5
15D04
102
{ACAD_REACTORS
330
15D03
102
}
330
15D03
100
AcDbXrecord
280
     1
 40
1836818.0
  1
\pxsm0.7;{\fFangSong_GB2312|b0|i0|c134|p49;标准化}\PStand.
  0
XRECORD
  5
15D06
102
{ACAD_REACTORS
330
15D05
102
}
330
15D05
100
AcDbXrecord
280
     1
 40
118135.0
  1
\pxsm0.7;签名\P{\Fromans|c134;Signature} 
  0
XRECORD
  5
15D08
102
{ACAD_REACTORS
330
15D07
102
}
330
15D07
100
AcDbXrecord
280
     1
 40
108939.0
  1
\pxsm0.7,qc;处数\P{\Fromans|c134;Number }
  0
XRECORD
  5
15D0A
102
{ACAD_REACTORS
330
15D09
102
}
330
15D09
100
AcDbXrecord
280
     1
 40
125762.0
  1
\pxsm0.7;标记\P{\Fromans|c134;Mark}
  0
XRECORD
  5
15D0C
102
{ACAD_REACTORS
330
15D0B
102
}
330
15D0B
100
AcDbXrecord
280
     1
 40
111973.0
  1
\pxsm0.7;审核\P{\Fromans|c134;Checked}
  0
XRECORD
  5
15D0E
102
{ACAD_REACTORS
330
15D0D
102
}
330
15D0D
100
AcDbXrecord
280
     1
 40
137968.0
  1
\pxsm0.7;绘图\P{\Fromans|c134;Drawn\Ftxt|c134; }
  0
XRECORD
  5
15D10
102
{ACAD_REACTORS
330
15D0F
102
}
330
15D0F
100
AcDbXrecord
280
     1
 40
106320.0
  1
\pxsm0.7;批准\P{\Fromans|c134;Approved}
  0
XRECORD
  5
15D12
102
{ACAD_REACTORS
330
15D11
102
}
330
15D11
100
AcDbXrecord
280
     1
 40
127283.0
  1
\pxsm0.7;工艺\P{\Fromans|c134;Process}
  0
XRECORD
  5
15D14
102
{ACAD_REACTORS
330
15D13
102
}
330
15D13
100
AcDbXrecord
280
     1
 40
106220.0
  1
\pxsm0.7;日期\P{\Fromans|c134;Date}
  0
XRECORD
  5
15CFC
102
{ACAD_REACTORS
330
15CFB
102
}
330
15CFB
100
AcDbXrecord
280
     1
 40
491198877.0
  1
\A1;\pxql;{\f仿宋_GB2312|b0|i0|c134|p49;技术参数}:\P\pq*;- {\f仿宋_GB2312|b0|i0|c134|p49;材料}: {\f仿宋_GB2312|b0|i0|c134|p49;铜合金}\P- {\f仿宋_GB2312|b0|i0|c134|p49;表面处理}: {\f仿宋_GB2312|b0|i0|c134|p49;镀银}\P\pql;- {\f仿宋_GB2312|b0|i0|c134|p49;额定电流}: 650A\P- {\f仿宋_GB23
  1
12|b0|i0|c134|p49;接触电阻}: ≤0.3mΩ\P- {\f仿宋_GB2312|b0|i0|c134|p49;线径范围}: 240mm{\H0.7x;\S2^ ;}\P- {\f仿宋_GB2312|b0|i0|c134|p49;最大电缆直径}: 32mm\P\pq*;- {\f仿宋_GB2312|b0|i0|c134|p49;可插拔次数}: {\f仿宋_GB2312|b0|i0|c134|p49;≥}500\P- {\f仿宋_GB2312|b0|i0|c134|p49;压力要求}:
  1
 130kN\P\P\pql;Technical specification:\P- Material: copper alloy\P- Surface: hard-silver plated\P- Rated current: 650A\P- Contact resistance: ≤0.3mΩ\P- Wire gauge: 240mm{\H0.7x;\S2^ ;}\P- Max. insulation diameter: 32mm\P- Mating cycles: {\f仿宋_GB2312|
  1
b0|i0|c134|p49;≥}500\P- Pressing force requirement: 130kN
  0
DIMASSOC
  5
15062
102
{ACAD_REACTORS
330
15061
102
}
330
15061
100
AcDbDimAssoc
330
15060
 90
        3
 70
     0
 71
     0
  1
AcDbOsnapPointRef
 72
     1
331
15044
 73
     2
 91
        0
 40
1.0
 10
0.0
 20
0.0
 30
2.000000000000000E+50
 75
     0
  1
AcDbOsnapPointRef
 72
    13
331
14FBF
 73
     2
 91
        0
 40
0.0
 10
0.0
 20
0.0
 30
2.000000000000000E+50
 75
     0
  0
DIMASSOC
  5
1506B
102
{ACAD_REACTORS
330
1506A
102
}
330
1506A
100
AcDbDimAssoc
330
15069
 90
        3
 70
     0
 71
     0
  1
AcDbOsnapPointRef
 72
    13
331
14F80
 73
     2
 91
        0
 40
0.0
 10
0.0
 20
0.0
 30
2.000000000000000E+50
 75
     0
  1
AcDbOsnapPointRef
 72
     1
331
14F80
 73
     2
 91
        0
 40
1.0
 10
0.0
 20
0.0
 30
2.000000000000000E+50
 75
     0
  0
DIMASSOC
  5
1506F
102
{ACAD_REACTORS
330
1506E
102
}
330
1506E
100
AcDbDimAssoc
330
1506D
 90
        3
 70
     0
 71
     0
  1
AcDbOsnapPointRef
 72
     2
331
14F9F
 73
     2
 91
        0
 40
0.5
 10
0.0
 20
0.0
 30
0.0
 75
     0
  1
AcDbOsnapPointRef
 72
     2
331
14F8A
 73
     2
 91
        0
 40
0.5
 10
0.0
 20
0.0
 30
0.0
 75
     0
  0
LAYOUT
  5
1E
102
{ACAD_REACTORS
330
1A
102
}
330
1A
100
AcDbPlotSettings
  1

  2
none_device
  4

  6

 40
0.0
 41
0.0
 42
0.0
 43
0.0
 44
0.0
 45
0.0
 46
0.0
 47
0.0
 48
0.0
 49
0.0
140
0.0
141
0.0
142
1.0
143
1.0
 70
   688
 72
     0
 73
     0
 74
     5
  7

 75
    16
147
1.0
 76
     0
 77
     2
 78
   300
148
0.0
149
0.0
100
AcDbLayout
  1
Layout1
 70
     1
 71
     1
 10
0.0
 20
0.0
 11
12.0
 21
9.0
 12
0.0
 22
0.0
 32
0.0
 14
1.000000000000000E+20
 24
1.000000000000000E+20
 34
1.000000000000000E+20
 15
-1.000000000000000E+20
 25
-1.000000000000000E+20
 35
-1.000000000000000E+20
146
0.0
 13
0.0
 23
0.0
 33
0.0
 16
1.0
 26
0.0
 36
0.0
 17
0.0
 27
1.0
 37
0.0
 76
     0
330
1B
  0
LAYOUT
  5
26
102
{ACAD_REACTORS
330
1A
102
}
330
1A
100
AcDbPlotSettings
  1

  2
none_device
  4

  6

 40
0.0
 41
0.0
 42
0.0
 43
0.0
 44
0.0
 45
0.0
 46
0.0
 47
0.0
 48
0.0
 49
0.0
140
0.0
141
0.0
142
1.0
143
1.0
 70
   688
 72
     0
 73
     0
 74
     5
  7

 75
    16
147
1.0
 76
     0
 77
     2
 78
   300
148
0.0
149
0.0
100
AcDbLayout
  1
Layout2
 70
     1
 71
     2
 10
0.0
 20
0.0
 11
0.0
 21
0.0
 12
0.0
 22
0.0
 32
0.0
 14
0.0
 24
0.0
 34
0.0
 15
0.0
 25
0.0
 35
0.0
146
0.0
 13
0.0
 23
0.0
 33
0.0
 16
1.0
 26
0.0
 36
0.0
 17
0.0
 27
1.0
 37
0.0
 76
     0
330
23
  0
LAYOUT
  5
22
102
{ACAD_REACTORS
330
1A
102
}
330
1A
100
AcDbPlotSettings
  1

  2
Adobe PDF Converter.pc3
  4
A4
  6

 40
3.174999952316281
 41
3.174999952316281
 42
3.17498779296875
 43
3.175003051757812
 44
297.0318298339844
 45
209.9733276367186
 46
0.0000000000000076
 47
1.630241740247063
 48
246.9897427644609
 49
39.36804549891383
140
544.952097801264
141
244.7492402188181
142
1.0
143
1.025046328645055
 70
  3764
 72
     1
 73
     0
 74
     4
  7
monochrome.ctb
 75
     0
147
0.9755656618192436
 76
     1
 77
     2
 78
   300
148
-246.9897427644609
149
-39.36804549891383
100
AcDbLayout
  1
Model
 70
     1
 71
     0
 10
0.0
 20
0.0
 11
12.0
 21
9.0
 12
0.0
 22
0.0
 32
0.0
 14
1.000000000000000E+20
 24
1.000000000000000E+20
 34
1.000000000000000E+20
 15
-1.000000000000000E+20
 25
-1.000000000000000E+20
 35
-1.000000000000000E+20
146
0.0
 13
0.0
 23
0.0
 33
0.0
 16
1.0
 26
0.0
 36
0.0
 17
0.0
 27
1.0
 37
0.0
 76
     0
330
1F
331
29
1001
ACAD_PSEXT
1000
Adobe PDF Converter.pc3
1000
Adobe PDF Converter
1000
桌面\*.pdf
1000

1070
     0
  0
MATERIAL
  5
4FEE
102
{ACAD_XDICTIONARY
360
4FEF
102
}
102
{ACAD_REACTORS
330
4FE5
102
}
330
4FE5
100
AcDbMaterial
  1
ByBlock
 72
     0
 43
0.0208333333333333
 43
0.0
 43
0.0
 43
0.0
 43
0.0
 43
0.0208333333333333
 43
0.0
 43
0.0
 43
0.0
 43
0.0
 43
1.0
 43
0.0
 43
0.0
 43
0.0
 43
0.0
 43
1.0
 77
     0
 47
0.0208333333333333
 47
0.0
 47
0.0
 47
0.0
 47
0.0
 47
0.0208333333333333
 47
0.0
 47
0.0
 47
0.0
 47
0.0
 47
1.0
 47
0.0
 47
0.0
 47
0.0
 47
0.0
 47
1.0
171
     0
 49
0.0208333333333333
 49
0.0
 49
0.0
 49
0.0
 49
0.0
 49
0.0208333333333333
 49
0.0
 49
0.0
 49
0.0
 49
0.0
 49
1.0
 49
0.0
 49
0.0
 49
0.0
 49
0.0
 49
1.0
175
     0
142
0.0208333333333333
142
0.0
142
0.0
142
0.0
142
0.0
142
0.0208333333333333
142
0.0
142
0.0
142
0.0
142
0.0
142
1.0
142
0.0
142
0.0
142
0.0
142
0.0
142
1.0
179
     0
144
0.0208333333333333
144
0.0
144
0.0
144
0.0
144
0.0
144
0.0208333333333333
144
0.0
144
0.0
144
0.0
144
0.0
144
1.0
144
0.0
144
0.0
144
0.0
144
0.0
144
1.0
147
0.0208333333333333
147
0.0
147
0.0
147
0.0
147
0.0
147
0.0208333333333333
147
0.0
147
0.0
147
0.0
147
0.0
147
1.0
147
0.0
147
0.0
147
0.0
147
0.0
147
1.0
  0
MATERIAL
  5
4FE6
102
{ACAD_XDICTIONARY
360
4FE7
102
}
102
{ACAD_REACTORS
330
4FE5
102
}
330
4FE5
100
AcDbMaterial
  1
ByLayer
 72
     0
 43
0.0208333333333333
 43
0.0
 43
0.0
 43
0.0
 43
0.0
 43
0.0208333333333333
 43
0.0
 43
0.0
 43
0.0
 43
0.0
 43
1.0
 43
0.0
 43
0.0
 43
0.0
 43
0.0
 43
1.0
 77
     0
 47
0.0208333333333333
 47
0.0
 47
0.0
 47
0.0
 47
0.0
 47
0.0208333333333333
 47
0.0
 47
0.0
 47
0.0
 47
0.0
 47
1.0
 47
0.0
 47
0.0
 47
0.0
 47
0.0
 47
1.0
171
     0
 49
0.0208333333333333
 49
0.0
 49
0.0
 49
0.0
 49
0.0
 49
0.0208333333333333
 49
0.0
 49
0.0
 49
0.0
 49
0.0
 49
1.0
 49
0.0
 49
0.0
 49
0.0
 49
0.0
 49
1.0
175
     0
142
0.0208333333333333
142
0.0
142
0.0
142
0.0
142
0.0
142
0.0208333333333333
142
0.0
142
0.0
142
0.0
142
0.0
142
1.0
142
0.0
142
0.0
142
0.0
142
0.0
142
1.0
179
     0
144
0.0208333333333333
144
0.0
144
0.0
144
0.0
144
0.0
144
0.0208333333333333
144
0.0
144
0.0
144
0.0
144
0.0
144
1.0
144
0.0
144
0.0
144
0.0
144
0.0
144
1.0
147
0.0208333333333333
147
0.0
147
0.0
147
0.0
147
0.0
147
0.0208333333333333
147
0.0
147
0.0
147
0.0
147
0.0
147
1.0
147
0.0
147
0.0
147
0.0
147
0.0
147
1.0
  0
MATERIAL
  5
4FF6
102
{ACAD_XDICTIONARY
360
4FF7
102
}
102
{ACAD_REACTORS
330
4FE5
102
}
330
4FE5
100
AcDbMaterial
  1
Global
 72
     0
 43
0.0208333333333333
 43
0.0
 43
0.0
 43
0.0
 43
0.0
 43
0.0208333333333333
 43
0.0
 43
0.0
 43
0.0
 43
0.0
 43
1.0
 43
0.0
 43
0.0
 43
0.0
 43
0.0
 43
1.0
 77
     0
 47
0.0208333333333333
 47
0.0
 47
0.0
 47
0.0
 47
0.0
 47
0.0208333333333333
 47
0.0
 47
0.0
 47
0.0
 47
0.0
 47
1.0
 47
0.0
 47
0.0
 47
0.0
 47
0.0
 47
1.0
171
     0
 49
0.0208333333333333
 49
0.0
 49
0.0
 49
0.0
 49
0.0
 49
0.0208333333333333
 49
0.0
 49
0.0
 49
0.0
 49
0.0
 49
1.0
 49
0.0
 49
0.0
 49
0.0
 49
0.0
 49
1.0
175
     0
142
0.0208333333333333
142
0.0
142
0.0
142
0.0
142
0.0
142
0.0208333333333333
142
0.0
142
0.0
142
0.0
142
0.0
142
1.0
142
0.0
142
0.0
142
0.0
142
0.0
142
1.0
179
     0
144
0.0208333333333333
144
0.0
144
0.0
144
0.0
144
0.0
144
0.0208333333333333
144
0.0
144
0.0
144
0.0
144
0.0
144
1.0
144
0.0
144
0.0
144
0.0
144
0.0
144
1.0
147
0.0208333333333333
147
0.0
147
0.0
147
0.0
147
0.0
147
0.0208333333333333
147
0.0
147
0.0
147
0.0
147
0.0
147
1.0
147
0.0
147
0.0
147
0.0
147
0.0
147
1.0
  0
MLEADERSTYLE
  5
5023
102
{ACAD_REACTORS
330
5022
102
}
330
5022
100
AcDbMLeaderStyle
170
     2
171
     1
172
     0
 90
        2
 40
0.0
 41
0.0
173
     1
 91
-1056964608
340
14
 92
       -2
290
     1
 42
0.09
291
     1
 43
0.36
  3
Standard
 44
0.18
300

342
11
174
     1
178
     6
175
     1
176
     0
 93
-1056964608
 45
0.18
292
     0
297
     0
 46
0.18
 94
-1056964608
 47
1.0
 49
1.0
140
1.0
293
     1
141
0.0
294
     1
177
     0
142
1.0
295
     0
296
     0
143
0.125
1001
ACAD_MLEADERVER
1070
     2
  0
MLINESTYLE
  5
18
102
{ACAD_REACTORS
330
17
102
}
330
17
100
AcDbMlineStyle
  2
STANDARD
 70
     0
  3

 62
   256
 51
90.0
 52
90.0
 71
     2
 49
0.5
 62
   256
  6
BYLAYER
 49
-0.5
 62
   256
  6
BYLAYER
  0
ACDBPLACEHOLDER
  5
F
102
{ACAD_REACTORS
330
E
102
}
330
E
  0
MENTALRAYRENDERSETTINGS
  5
6538
102
{ACAD_REACTORS
330
6537
102
}
330
6537
100
AcDbRenderSettings
 90
        2
  1
中
290
     1
290
     1
290
     1
290
     1
  1

  1
渲染质量好于“低级”。包括纹理过滤并且强制双面处于激活状态。处理中等级反锯齿和 5 反射/折射的光线跟踪深度。
 90
        0
100
AcDbMentalRayRenderSettings
 90
        2
 90
        0
 90
        1
 70
     2
 40
3.0
 40
3.0
 40
0.0500000007450581
 40
0.0500000007450581
 40
0.0500000007450581
 40
0.0500000007450581
 70
     0
290
     0
290
     1
 90
        5
 90
        5
 90
        5
290
     0
 90
      500
290
     0
 40
1.0
 90
    10000
 90
        5
 90
        5
 90
        5
290
     0
 90
      200
290
     0
290
     0
290
     0
 40
0.1
 40
1.0
 40
1500.0
 70
     0
 70
     0
 40
10.0
 70
     0
 70
     0
290
     0
  1

 90
       32
 70
     0
 90
     1048
290
     0
 40
1.0
  0
SCALE
  5
5001
102
{ACAD_REACTORS
330
5000
102
}
330
5000
100
AcDbScale
 70
     0
300
1:1
140
1.0
141
1.0
290
     1
  0
SCALE
  5
5002
102
{ACAD_REACTORS
330
5000
102
}
330
5000
100
AcDbScale
 70
     0
300
1:2
140
1.0
141
2.0
290
     0
  0
SCALE
  5
5003
102
{ACAD_REACTORS
330
5000
102
}
330
5000
100
AcDbScale
 70
     0
300
1:4
140
1.0
141
4.0
290
     0
  0
SCALE
  5
5004
102
{ACAD_REACTORS
330
5000
102
}
330
5000
100
AcDbScale
 70
     0
300
1:5
140
1.0
141
5.0
290
     0
  0
SCALE
  5
5005
102
{ACAD_REACTORS
330
5000
102
}
330
5000
100
AcDbScale
 70
     0
300
1:8
140
1.0
141
8.0
290
     0
  0
SCALE
  5
5006
102
{ACAD_REACTORS
330
5000
102
}
330
5000
100
AcDbScale
 70
     0
300
1:10
140
1.0
141
10.0
290
     0
  0
SCALE
  5
5007
102
{ACAD_REACTORS
330
5000
102
}
330
5000
100
AcDbScale
 70
     0
300
1:16
140
1.0
141
16.0
290
     0
  0
SCALE
  5
5008
102
{ACAD_REACTORS
330
5000
102
}
330
5000
100
AcDbScale
 70
     0
300
1:20
140
1.0
141
20.0
290
     0
  0
SCALE
  5
5009
102
{ACAD_REACTORS
330
5000
102
}
330
5000
100
AcDbScale
 70
     0
300
1:30
140
1.0
141
30.0
290
     0
  0
SCALE
  5
500A
102
{ACAD_REACTORS
330
5000
102
}
330
5000
100
AcDbScale
 70
     0
300
1:40
140
1.0
141
40.0
290
     0
  0
SCALE
  5
500B
102
{ACAD_REACTORS
330
5000
102
}
330
5000
100
AcDbScale
 70
     0
300
1:50
140
1.0
141
50.0
290
     0
  0
SCALE
  5
500C
102
{ACAD_REACTORS
330
5000
102
}
330
5000
100
AcDbScale
 70
     0
300
1:100
140
1.0
141
100.0
290
     0
  0
SCALE
  5
500D
102
{ACAD_REACTORS
330
5000
102
}
330
5000
100
AcDbScale
 70
     0
300
2:1
140
2.0
141
1.0
290
     0
  0
SCALE
  5
500E
102
{ACAD_REACTORS
330
5000
102
}
330
5000
100
AcDbScale
 70
     0
300
4:1
140
4.0
141
1.0
290
     0
  0
SCALE
  5
500F
102
{ACAD_REACTORS
330
5000
102
}
330
5000
100
AcDbScale
 70
     0
300
8:1
140
8.0
141
1.0
290
     0
  0
SCALE
  5
5010
102
{ACAD_REACTORS
330
5000
102
}
330
5000
100
AcDbScale
 70
     0
300
10:1
140
10.0
141
1.0
290
     0
  0
SCALE
  5
5011
102
{ACAD_REACTORS
330
5000
102
}
330
5000
100
AcDbScale
 70
     0
300
100:1
140
100.0
141
1.0
290
     0
  0
SCALE
  5
5012
102
{ACAD_REACTORS
330
5000
102
}
330
5000
100
AcDbScale
 70
     0
300
1/128" = 1'-0"
140
0.0078125
141
12.0
290
     0
  0
SCALE
  5
5013
102
{ACAD_REACTORS
330
5000
102
}
330
5000
100
AcDbScale
 70
     0
300
1/64" = 1'-0"
140
0.015625
141
12.0
290
     0
  0
SCALE
  5
5014
102
{ACAD_REACTORS
330
5000
102
}
330
5000
100
AcDbScale
 70
     0
300
1/32" = 1'-0"
140
0.03125
141
12.0
290
     0
  0
SCALE
  5
5015
102
{ACAD_REACTORS
330
5000
102
}
330
5000
100
AcDbScale
 70
     0
300
1/16" = 1'-0"
140
0.0625
141
12.0
290
     0
  0
SCALE
  5
5016
102
{ACAD_REACTORS
330
5000
102
}
330
5000
100
AcDbScale
 70
     0
300
3/32" = 1'-0"
140
0.09375
141
12.0
290
     0
  0
SCALE
  5
5017
102
{ACAD_REACTORS
330
5000
102
}
330
5000
100
AcDbScale
 70
     0
300
1/8" = 1'-0"
140
0.125
141
12.0
290
     0
  0
SCALE
  5
5018
102
{ACAD_REACTORS
330
5000
102
}
330
5000
100
AcDbScale
 70
     0
300
3/16" = 1'-0"
140
0.1875
141
12.0
290
     0
  0
SCALE
  5
5019
102
{ACAD_REACTORS
330
5000
102
}
330
5000
100
AcDbScale
 70
     0
300
1/4" = 1'-0"
140
0.25
141
12.0
290
     0
  0
SCALE
  5
501A
102
{ACAD_REACTORS
330
5000
102
}
330
5000
100
AcDbScale
 70
     0
300
3/8" = 1'-0"
140
0.375
141
12.0
290
     0
  0
SCALE
  5
501B
102
{ACAD_REACTORS
330
5000
102
}
330
5000
100
AcDbScale
 70
     0
300
1/2" = 1'-0"
140
0.5
141
12.0
290
     0
  0
SCALE
  5
501C
102
{ACAD_REACTORS
330
5000
102
}
330
5000
100
AcDbScale
 70
     0
300
3/4" = 1'-0"
140
0.75
141
12.0
290
     0
  0
SCALE
  5
501D
102
{ACAD_REACTORS
330
5000
102
}
330
5000
100
AcDbScale
 70
     0
300
1" = 1'-0"
140
1.0
141
12.0
290
     0
  0
SCALE
  5
501E
102
{ACAD_REACTORS
330
5000
102
}
330
5000
100
AcDbScale
 70
     0
300
1-1/2" = 1'-0"
140
1.5
141
12.0
290
     0
  0
SCALE
  5
501F
102
{ACAD_REACTORS
330
5000
102
}
330
5000
100
AcDbScale
 70
     0
300
3" = 1'-0"
140
3.0
141
12.0
290
     0
  0
SCALE
  5
5020
102
{ACAD_REACTORS
330
5000
102
}
330
5000
100
AcDbScale
 70
     0
300
6" = 1'-0"
140
6.0
141
12.0
290
     0
  0
SCALE
  5
5021
102
{ACAD_REACTORS
330
5000
102
}
330
5000
100
AcDbScale
 70
     0
300
1'-0" = 1'-0"
140
12.0
141
12.0
290
     0
  0
TABLESTYLE
  5
4FFF
102
{ACAD_XDICTIONARY
360
50D6
102
}
102
{ACAD_REACTORS
330
4FE3
102
}
330
4FE3
100
AcDbTableStyle
  3
Standard
 70
     0
 71
     0
 40
0.06
 41
0.06
280
     0
281
     0
  7
Standard
140
0.18
170
     2
 62
     0
 63
     7
283
     0
 90
      512
 91
        0
  1

274
    -2
284
     1
 64
     0
275
    -2
285
     1
 65
     0
276
    -2
286
     1
 66
     0
277
    -2
287
     1
 67
     0
278
    -2
288
     1
 68
     0
279
    -2
289
     1
 69
     0
  7
Standard
140
0.25
170
     5
 62
     0
 63
     7
283
     0
 90
      512
 91
        0
  1

274
    -2
284
     1
 64
     0
275
    -2
285
     1
 65
     0
276
    -2
286
     1
 66
     0
277
    -2
287
     1
 67
     0
278
    -2
288
     1
 68
     0
279
    -2
289
     1
 69
     0
  7
Standard
140
0.18
170
     5
 62
     0
 63
     7
283
     0
 90
      512
 91
        0
  1

274
    -2
284
     1
 64
     0
275
    -2
285
     1
 65
     0
276
    -2
286
     1
 66
     0
277
    -2
287
     1
 67
     0
278
    -2
288
     1
 68
     0
279
    -2
289
     1
 69
     0
  0
VISUALSTYLE
  5
2F
102
{ACAD_REACTORS
330
2A
102
}
330
2A
100
AcDbVisualStyle
  2
2dWireframe
 70
     4
 71
     0
 72
     2
 73
     0
 90
        0
 40
-0.6
 41
-30.0
 62
     5
 63
     7
 74
     1
 91
        4
 64
     7
 65
   257
 75
     1
175
     1
 42
1.0
 92
        0
 66
   257
 43
1.0
 76
     1
 77
     6
 78
     2
 67
     7
 79
     5
170
     0
171
     0
290
     0
174
     0
 93
        1
 44
0.0
173
     0
291
     0
 45
0.0
1001
ACAD
1000
AcDbSavedByObjectVersion
1070
     0
1000
AcDbSavedByObjectVersion
1070
     0
1000
AcDbSavedByObjectVersion
1070
     0
1000
AcDbSavedByObjectVersion
1070
     0
1000
AcDbSavedByObjectVersion
1070
     0
1000
AcDbSavedByObjectVersion
1070
     0
1000
AcDbSavedByObjectVersion
1070
     0
1000
AcDbSavedByObjectVersion
1070
     0
1000
AcDbSavedByObjectVersion
1070
     0
1000
AcDbSavedByObjectVersion
1070
     0
1000
AcDbSavedByObjectVersion
1070
     0
1000
AcDbSavedByObjectVersion
1070
     0
1000
AcDbSavedByObjectVersion
1070
     0
1000
AcDbSavedByObjectVersion
1070
     0
1000
AcDbSavedByObjectVersion
1070
     0
1000
AcDbSavedByObjectVersion
1070
     0
1000
AcDbSavedByObjectVersion
1070
     0
1000
AcDbSavedByObjectVersion
1070
     0
1000
AcDbSavedByObjectVersion
1070
     0
1000
AcDbSavedByObjectVersion
1070
     0
1000
AcDbSavedByObjectVersion
1070
     0
1000
AcDbSavedByObjectVersion
1070
     0
1000
AcDbSavedByObjectVersion
1070
     0
1000
AcDbSavedByObjectVersion
1070
     0
1000
AcDbSavedByObjectVersion
1070
     0
1000
AcDbSavedByObjectVersion
1070
     0
1000
AcDbSavedByObjectVersion
1070
     0
1000
AcDbSavedByObjectVersion
1070
     0
1000
AcDbSavedByObjectVersion
1070
     0
1000
AcDbSavedByObjectVersion
1070
     0
1000
AcDbSavedByObjectVersion
1070
     0
1000
AcDbSavedByObjectVersion
1070
     0
1000
AcDbSavedByObjectVersion
1070
     0
1000
AcDbSavedByObjectVersion
1070
     0
1000
AcDbSavedByObjectVersion
1070
     0
1000
AcDbSavedByObjectVersion
1070
     0
1000
AcDbSavedByObjectVersion
1070
     0
1000
AcDbSavedByObjectVersion
1070
     0
1000
AcDbSavedByObjectVersion
1070
     0
1000
AcDbSavedByObjectVersion
1070
     0
1000
AcDbSavedByObjectVersion
1070
     0
1000
AcDbSavedByObjectVersion
1070
     0
1000
AcDbSavedByObjectVersion
1070
     0
1000
AcDbSavedByObjectVersion
1070
     0
1000
AcDbSavedByObjectVersion
1070
     0
1000
AcDbSavedByObjectVersion
1070
     0
1000
AcDbSavedByObjectVersion
1070
     0
1000
AcDbSavedByObjectVersion
1070
     0
1000
AcDbSavedByObjectVersion
1070
     0
1000
AcDbSavedByObjectVersion
1070
     0
1000
AcDbSavedByObjectVersion
1070
     0
1000
AcDbSavedByObjectVersion
1070
     0
1000
AcDbSavedByObjectVersion
1070
     0
1000
AcDbSavedByObjectVersion
1070
     0
1000
AcDbSavedByObjectVersion
1070
     0
1000
AcDbSavedByObjectVersion
1070
     0
  0
VISUALSTYLE
  5
31
102
{ACAD_REACTORS
330
2A
102
}
330
2A
100
AcDbVisualStyle
  2
3D Hidden
 70
     6
 71
     1
 72
     2
 73
     2
 90
        0
 40
-0.6
 41
-30.0
 62
     5
 63
     7
 74
     2
 91
        2
 64
     7
 65
   257
 75
     2
175
     1
 42
40.0
 92
        0
 66
   257
 43
1.0
 76
     1
 77
     6
 78
     2
 67
     7
 79
     3
170
     0
171
     0
290
     0
174
     0
 93
        1
 44
0.0
173
     0
291
     0
 45
0.0
1001
ACAD
1000
AcDbSavedByObjectVersion
1070
     0
1000
AcDbSavedByObjectVersion
1070
     0
1000
AcDbSavedByObjectVersion
1070
     0
1000
AcDbSavedByObjectVersion
1070
     0
1000
AcDbSavedByObjectVersion
1070
     0
1000
AcDbSavedByObjectVersion
1070
     0
1000
AcDbSavedByObjectVersion
1070
     0
1000
AcDbSavedByObjectVersion
1070
     0
1000
AcDbSavedByObjectVersion
1070
     0
1000
AcDbSavedByObjectVersion
1070
     0
1000
AcDbSavedByObjectVersion
1070
     0
1000
AcDbSavedByObjectVersion
1070
     0
1000
AcDbSavedByObjectVersion
1070
     0
1000
AcDbSavedByObjectVersion
1070
     0
1000
AcDbSavedByObjectVersion
1070
     0
1000
AcDbSavedByObjectVersion
1070
     0
1000
AcDbSavedByObjectVersion
1070
     0
1000
AcDbSavedByObjectVersion
1070
     0
1000
AcDbSavedByObjectVersion
1070
     0
1000
AcDbSavedByObjectVersion
1070
     0
1000
AcDbSavedByObjectVersion
1070
     0
1000
AcDbSavedByObjectVersion
1070
     0
1000
AcDbSavedByObjectVersion
1070
     0
1000
AcDbSavedByObjectVersion
1070
     0
1000
AcDbSavedByObjectVersion
1070
     0
1000
AcDbSavedByObjectVersion
1070
     0
1000
AcDbSavedByObjectVersion
1070
     0
1000
AcDbSavedByObjectVersion
1070
     0
1000
AcDbSavedByObjectVersion
1070
     0
1000
AcDbSavedByObjectVersion
1070
     0
1000
AcDbSavedByObjectVersion
1070
     0
1000
AcDbSavedByObjectVersion
1070
     0
1000
AcDbSavedByObjectVersion
1070
     0
1000
AcDbSavedByObjectVersion
1070
     0
1000
AcDbSavedByObjectVersion
1070
     0
1000
AcDbSavedByObjectVersion
1070
     0
1000
AcDbSavedByObjectVersion
1070
     0
1000
AcDbSavedByObjectVersion
1070
     0
1000
AcDbSavedByObjectVersion
1070
     0
1000
AcDbSavedByObjectVersion
1070
     0
1000
AcDbSavedByObjectVersion
1070
     0
1000
AcDbSavedByObjectVersion
1070
     0
1000
AcDbSavedByObjectVersion
1070
     0
1000
AcDbSavedByObjectVersion
1070
     0
1000
AcDbSavedByObjectVersion
1070
     0
1000
AcDbSavedByObjectVersion
1070
     0
1000
AcDbSavedByObjectVersion
1070
     0
1000
AcDbSavedByObjectVersion
1070
     0
1000
AcDbSavedByObjectVersion
1070
     0
1000
AcDbSavedByObjectVersion
1070
     0
1000
AcDbSavedByObjectVersion
1070
     0
1000
AcDbSavedByObjectVersion
1070
     0
1000
AcDbSavedByObjectVersion
1070
     0
1000
AcDbSavedByObjectVersion
1070
     0
1000
AcDbSavedByObjectVersion
1070
     0
1000
AcDbSavedByObjectVersion
1070
     0
  0
VISUALSTYLE
  5
30
102
{ACAD_REACTORS
330
2A
102
}
330
2A
100
AcDbVisualStyle
  2
3dWireframe
 70
     5
 71
     0
 72
     2
 73
     0
 90
        0
 40
-0.6
 41
-30.0
 62
     5
 63
     7
 74
     1
 91
        4
 64
     7
 65
   257
 75
     1
175
     1
 42
1.0
 92
        0
 66
   257
 43
1.0
 76
     1
 77
     6
 78
     2
 67
     7
 79
     5
170
     0
171
     0
290
     0
174
     0
 93
        1
 44
0.0
173
     0
291
     0
 45
0.0
1001
ACAD
1000
AcDbSavedByObjectVersion
1070
     0
1000
AcDbSavedByObjectVersion
1070
     0
1000
AcDbSavedByObjectVersion
1070
     0
1000
AcDbSavedByObjectVersion
1070
     0
1000
AcDbSavedByObjectVersion
1070
     0
1000
AcDbSavedByObjectVersion
1070
     0
1000
AcDbSavedByObjectVersion
1070
     0
1000
AcDbSavedByObjectVersion
1070
     0
1000
AcDbSavedByObjectVersion
1070
     0
1000
AcDbSavedByObjectVersion
1070
     0
1000
AcDbSavedByObjectVersion
1070
     0
1000
AcDbSavedByObjectVersion
1070
     0
1000
AcDbSavedByObjectVersion
1070
     0
1000
AcDbSavedByObjectVersion
1070
     0
1000
AcDbSavedByObjectVersion
1070
     0
1000
AcDbSavedByObjectVersion
1070
     0
1000
AcDbSavedByObjectVersion
1070
     0
1000
AcDbSavedByObjectVersion
1070
     0
1000
AcDbSavedByObjectVersion
1070
     0
1000
AcDbSavedByObjectVersion
1070
     0
1000
AcDbSavedByObjectVersion
1070
     0
1000
AcDbSavedByObjectVersion
1070
     0
1000
AcDbSavedByObjectVersion
1070
     0
1000
AcDbSavedByObjectVersion
1070
     0
1000
AcDbSavedByObjectVersion
1070
     0
1000
AcDbSavedByObjectVersion
1070
     0
1000
AcDbSavedByObjectVersion
1070
     0
1000
AcDbSavedByObjectVersion
1070
     0
1000
AcDbSavedByObjectVersion
1070
     0
1000
AcDbSavedByObjectVersion
1070
     0
1000
AcDbSavedByObjectVersion
1070
     0
1000
AcDbSavedByObjectVersion
1070
     0
1000
AcDbSavedByObjectVersion
1070
     0
1000
AcDbSavedByObjectVersion
1070
     0
1000
AcDbSavedByObjectVersion
1070
     0
1000
AcDbSavedByObjectVersion
1070
     0
1000
AcDbSavedByObjectVersion
1070
     0
1000
AcDbSavedByObjectVersion
1070
     0
1000
AcDbSavedByObjectVersion
1070
     0
1000
AcDbSavedByObjectVersion
1070
     0
1000
AcDbSavedByObjectVersion
1070
     0
1000
AcDbSavedByObjectVersion
1070
     0
1000
AcDbSavedByObjectVersion
1070
     0
1000
AcDbSavedByObjectVersion
1070
     0
1000
AcDbSavedByObjectVersion
1070
     0
1000
AcDbSavedByObjectVersion
1070
     0
1000
AcDbSavedByObjectVersion
1070
     0
1000
AcDbSavedByObjectVersion
1070
     0
1000
AcDbSavedByObjectVersion
1070
     0
1000
AcDbSavedByObjectVersion
1070
     0
1000
AcDbSavedByObjectVersion
1070
     0
1000
AcDbSavedByObjectVersion
1070
     0
1000
AcDbSavedByObjectVersion
1070
     0
1000
AcDbSavedByObjectVersion
1070
     0
1000
AcDbSavedByObjectVersion
1070
     0
1000
AcDbSavedByObjectVersion
1070
     0
  0
VISUALSTYLE
  5
32
102
{ACAD_REACTORS
330
2A
102
}
330
2A
100
AcDbVisualStyle
  2
Basic
 70
     7
 71
     1
 72
     0
 73
     1
 90
        0
 40
-0.6
 41
-30.0
 62
     5
 63
     7
 74
     0
 91
        4
 64
     7
 65
   257
 75
     1
175
     1
 42
1.0
 92
        8
 66
     7
 43
1.0
 76
     1
 77
     6
 78
     2
 67
     7
 79
     5
170
     0
171
     0
290
     0
174
     0
 93
        1
 44
0.0
173
     0
291
     1
 45
0.0
1001
ACAD
1000
AcDbSavedByObjectVersion
1070
     0
1000
AcDbSavedByObjectVersion
1070
     0
1000
AcDbSavedByObjectVersion
1070
     0
1000
AcDbSavedByObjectVersion
1070
     0
1000
AcDbSavedByObjectVersion
1070
     0
1000
AcDbSavedByObjectVersion
1070
     0
1000
AcDbSavedByObjectVersion
1070
     0
1000
AcDbSavedByObjectVersion
1070
     0
1000
AcDbSavedByObjectVersion
1070
     0
1000
AcDbSavedByObjectVersion
1070
     0
1000
AcDbSavedByObjectVersion
1070
     0
1000
AcDbSavedByObjectVersion
1070
     0
1000
AcDbSavedByObjectVersion
1070
     0
1000
AcDbSavedByObjectVersion
1070
     0
1000
AcDbSavedByObjectVersion
1070
     0
1000
AcDbSavedByObjectVersion
1070
     0
1000
AcDbSavedByObjectVersion
1070
     0
1000
AcDbSavedByObjectVersion
1070
     0
1000
AcDbSavedByObjectVersion
1070
     0
1000
AcDbSavedByObjectVersion
1070
     0
1000
AcDbSavedByObjectVersion
1070
     0
1000
AcDbSavedByObjectVersion
1070
     0
1000
AcDbSavedByObjectVersion
1070
     0
1000
AcDbSavedByObjectVersion
1070
     0
1000
AcDbSavedByObjectVersion
1070
     0
1000
AcDbSavedByObjectVersion
1070
     0
1000
AcDbSavedByObjectVersion
1070
     0
1000
AcDbSavedByObjectVersion
1070
     0
1000
AcDbSavedByObjectVersion
1070
     0
1000
AcDbSavedByObjectVersion
1070
     0
1000
AcDbSavedByObjectVersion
1070
     0
1000
AcDbSavedByObjectVersion
1070
     0
1000
AcDbSavedByObjectVersion
1070
     0
1000
AcDbSavedByObjectVersion
1070
     0
1000
AcDbSavedByObjectVersion
1070
     0
1000
AcDbSavedByObjectVersion
1070
     0
1000
AcDbSavedByObjectVersion
1070
     0
1000
AcDbSavedByObjectVersion
1070
     0
1000
AcDbSavedByObjectVersion
1070
     0
1000
AcDbSavedByObjectVersion
1070
     0
1000
AcDbSavedByObjectVersion
1070
     0
1000
AcDbSavedByObjectVersion
1070
     0
1000
AcDbSavedByObjectVersion
1070
     0
1000
AcDbSavedByObjectVersion
1070
     0
1000
AcDbSavedByObjectVersion
1070
     0
1000
AcDbSavedByObjectVersion
1070
     0
1000
AcDbSavedByObjectVersion
1070
     0
1000
AcDbSavedByObjectVersion
1070
     0
1000
AcDbSavedByObjectVersion
1070
     0
1000
AcDbSavedByObjectVersion
1070
     0
1000
AcDbSavedByObjectVersion
1070
     0
1000
AcDbSavedByObjectVersion
1070
     0
1000
AcDbSavedByObjectVersion
1070
     0
1000
AcDbSavedByObjectVersion
1070
     0
1000
AcDbSavedByObjectVersion
1070
     0
1000
AcDbSavedByObjectVersion
1070
     0
  0
VISUALSTYLE
  5
36
102
{ACAD_REACTORS
330
2A
102
}
330
2A
100
AcDbVisualStyle
  2
Brighten
 70
    12
 71
     2
 72
     2
 73
     0
 90
        0
 40
-0.6
 41
-30.0
 62
     5
 63
     7
 74
     1
 91
        4
 64
     7
 65
   257
 75
     1
175
     1
 42
1.0
 92
        8
 66
     7
 43
1.0
 76
     1
 77
     6
 78
     2
 67
     7
 79
     5
170
     0
171
     0
290
     0
174
     0
 93
        1
 44
50.0
173
     0
291
     1
 45
0.0
1001
ACAD
1000
AcDbSavedByObjectVersion
1070
     0
1000
AcDbSavedByObjectVersion
1070
     0
1000
AcDbSavedByObjectVersion
1070
     0
1000
AcDbSavedByObjectVersion
1070
     0
1000
AcDbSavedByObjectVersion
1070
     0
1000
AcDbSavedByObjectVersion
1070
     0
1000
AcDbSavedByObjectVersion
1070
     0
1000
AcDbSavedByObjectVersion
1070
     0
1000
AcDbSavedByObjectVersion
1070
     0
1000
AcDbSavedByObjectVersion
1070
     0
1000
AcDbSavedByObjectVersion
1070
     0
1000
AcDbSavedByObjectVersion
1070
     0
1000
AcDbSavedByObjectVersion
1070
     0
1000
AcDbSavedByObjectVersion
1070
     0
1000
AcDbSavedByObjectVersion
1070
     0
1000
AcDbSavedByObjectVersion
1070
     0
1000
AcDbSavedByObjectVersion
1070
     0
1000
AcDbSavedByObjectVersion
1070
     0
1000
AcDbSavedByObjectVersion
1070
     0
1000
AcDbSavedByObjectVersion
1070
     0
1000
AcDbSavedByObjectVersion
1070
     0
1000
AcDbSavedByObjectVersion
1070
     0
1000
AcDbSavedByObjectVersion
1070
     0
1000
AcDbSavedByObjectVersion
1070
     0
1000
AcDbSavedByObjectVersion
1070
     0
1000
AcDbSavedByObjectVersion
1070
     0
1000
AcDbSavedByObjectVersion
1070
     0
1000
AcDbSavedByObjectVersion
1070
     0
1000
AcDbSavedByObjectVersion
1070
     0
1000
AcDbSavedByObjectVersion
1070
     0
1000
AcDbSavedByObjectVersion
1070
     0
1000
AcDbSavedByObjectVersion
1070
     0
1000
AcDbSavedByObjectVersion
1070
     0
1000
AcDbSavedByObjectVersion
1070
     0
1000
AcDbSavedByObjectVersion
1070
     0
1000
AcDbSavedByObjectVersion
1070
     0
1000
AcDbSavedByObjectVersion
1070
     0
1000
AcDbSavedByObjectVersion
1070
     0
1000
AcDbSavedByObjectVersion
1070
     0
1000
AcDbSavedByObjectVersion
1070
     0
1000
AcDbSavedByObjectVersion
1070
     0
1000
AcDbSavedByObjectVersion
1070
     0
1000
AcDbSavedByObjectVersion
1070
     0
1000
AcDbSavedByObjectVersion
1070
     0
1000
AcDbSavedByObjectVersion
1070
     0
1000
AcDbSavedByObjectVersion
1070
     0
1000
AcDbSavedByObjectVersion
1070
     0
1000
AcDbSavedByObjectVersion
1070
     0
1000
AcDbSavedByObjectVersion
1070
     0
1000
AcDbSavedByObjectVersion
1070
     0
1000
AcDbSavedByObjectVersion
1070
     0
1000
AcDbSavedByObjectVersion
1070
     0
1000
AcDbSavedByObjectVersion
1070
     0
1000
AcDbSavedByObjectVersion
1070
     0
1000
AcDbSavedByObjectVersion
1070
     0
1000
AcDbSavedByObjectVersion
1070
     0
  0
VISUALSTYLE
  5
3A
102
{ACAD_REACTORS
330
2A
102
}
330
2A
100
AcDbVisualStyle
  2
ColorChange
 70
    16
 71
     2
 72
     2
 73
     3
 90
        0
 40
-0.6
 41
-30.0
 62
     5
 63
     8
 74
     1
 91
        4
 64
     7
 65
   257
 75
     1
175
     1
 42
1.0
 92
        8
 66
     8
 43
1.0
 76
     1
 77
     6
 78
     2
 67
     7
 79
     5
170
     0
171
     0
290
     0
174
     0
 93
        1
 44
0.0
173
     0
291
     1
 45
0.0
1001
ACAD
1000
AcDbSavedByObjectVersion
1070
     0
1000
AcDbSavedByObjectVersion
1070
     0
1000
AcDbSavedByObjectVersion
1070
     0
1000
AcDbSavedByObjectVersion
1070
     0
1000
AcDbSavedByObjectVersion
1070
     0
1000
AcDbSavedByObjectVersion
1070
     0
1000
AcDbSavedByObjectVersion
1070
     0
1000
AcDbSavedByObjectVersion
1070
     0
1000
AcDbSavedByObjectVersion
1070
     0
1000
AcDbSavedByObjectVersion
1070
     0
1000
AcDbSavedByObjectVersion
1070
     0
1000
AcDbSavedByObjectVersion
1070
     0
1000
AcDbSavedByObjectVersion
1070
     0
1000
AcDbSavedByObjectVersion
1070
     0
1000
AcDbSavedByObjectVersion
1070
     0
1000
AcDbSavedByObjectVersion
1070
     0
1000
AcDbSavedByObjectVersion
1070
     0
1000
AcDbSavedByObjectVersion
1070
     0
1000
AcDbSavedByObjectVersion
1070
     0
1000
AcDbSavedByObjectVersion
1070
     0
1000
AcDbSavedByObjectVersion
1070
     0
1000
AcDbSavedByObjectVersion
1070
     0
1000
AcDbSavedByObjectVersion
1070
     0
1000
AcDbSavedByObjectVersion
1070
     0
1000
AcDbSavedByObjectVersion
1070
     0
1000
AcDbSavedByObjectVersion
1070
     0
1000
AcDbSavedByObjectVersion
1070
     0
1000
AcDbSavedByObjectVersion
1070
     0
1000
AcDbSavedByObjectVersion
1070
     0
1000
AcDbSavedByObjectVersion
1070
     0
1000
AcDbSavedByObjectVersion
1070
     0
1000
AcDbSavedByObjectVersion
1070
     0
1000
AcDbSavedByObjectVersion
1070
     0
1000
AcDbSavedByObjectVersion
1070
     0
1000
AcDbSavedByObjectVersion
1070
     0
1000
AcDbSavedByObjectVersion
1070
     0
1000
AcDbSavedByObjectVersion
1070
     0
1000
AcDbSavedByObjectVersion
1070
     0
1000
AcDbSavedByObjectVersion
1070
     0
1000
AcDbSavedByObjectVersion
1070
     0
1000
AcDbSavedByObjectVersion
1070
     0
1000
AcDbSavedByObjectVersion
1070
     0
1000
AcDbSavedByObjectVersion
1070
     0
1000
AcDbSavedByObjectVersion
1070
     0
1000
AcDbSavedByObjectVersion
1070
     0
1000
AcDbSavedByObjectVersion
1070
     0
1000
AcDbSavedByObjectVersion
1070
     0
1000
AcDbSavedByObjectVersion
1070
     0
1000
AcDbSavedByObjectVersion
1070
     0
1000
AcDbSavedByObjectVersion
1070
     0
1000
AcDbSavedByObjectVersion
1070
     0
1000
AcDbSavedByObjectVersion
1070
     0
1000
AcDbSavedByObjectVersion
1070
     0
1000
AcDbSavedByObjectVersion
1070
     0
1000
AcDbSavedByObjectVersion
1070
     0
1000
AcDbSavedByObjectVersion
1070
     0
  0
VISUALSTYLE
  5
34
102
{ACAD_REACTORS
330
2A
102
}
330
2A
100
AcDbVisualStyle
  2
Conceptual
 70
     9
 71
     3
 72
     2
 73
     0
 90
        0
 40
-0.6
 41
-30.0
 62
     5
 63
     7
 74
     2
 91
        2
 64
     7
 65
   257
 75
     1
175
     1
 42
40.0
 92
        8
 66
     7
 43
1.0
 76
     1
 77
     6
 78
     2
 67
     7
 79
     3
170
     0
171
     0
290
     0
174
     0
 93
        1
 44
0.0
173
     0
291
     0
 45
0.0
1001
ACAD
1000
AcDbSavedByObjectVersion
1070
     0
1000
AcDbSavedByObjectVersion
1070
     0
1000
AcDbSavedByObjectVersion
1070
     0
1000
AcDbSavedByObjectVersion
1070
     0
1000
AcDbSavedByObjectVersion
1070
     0
1000
AcDbSavedByObjectVersion
1070
     0
1000
AcDbSavedByObjectVersion
1070
     0
1000
AcDbSavedByObjectVersion
1070
     0
1000
AcDbSavedByObjectVersion
1070
     0
1000
AcDbSavedByObjectVersion
1070
     0
1000
AcDbSavedByObjectVersion
1070
     0
1000
AcDbSavedByObjectVersion
1070
     0
1000
AcDbSavedByObjectVersion
1070
     0
1000
AcDbSavedByObjectVersion
1070
     0
1000
AcDbSavedByObjectVersion
1070
     0
1000
AcDbSavedByObjectVersion
1070
     0
1000
AcDbSavedByObjectVersion
1070
     0
1000
AcDbSavedByObjectVersion
1070
     0
1000
AcDbSavedByObjectVersion
1070
     0
1000
AcDbSavedByObjectVersion
1070
     0
1000
AcDbSavedByObjectVersion
1070
     0
1000
AcDbSavedByObjectVersion
1070
     0
1000
AcDbSavedByObjectVersion
1070
     0
1000
AcDbSavedByObjectVersion
1070
     0
1000
AcDbSavedByObjectVersion
1070
     0
1000
AcDbSavedByObjectVersion
1070
     0
1000
AcDbSavedByObjectVersion
1070
     0
1000
AcDbSavedByObjectVersion
1070
     0
1000
AcDbSavedByObjectVersion
1070
     0
1000
AcDbSavedByObjectVersion
1070
     0
1000
AcDbSavedByObjectVersion
1070
     0
1000
AcDbSavedByObjectVersion
1070
     0
1000
AcDbSavedByObjectVersion
1070
     0
1000
AcDbSavedByObjectVersion
1070
     0
1000
AcDbSavedByObjectVersion
1070
     0
1000
AcDbSavedByObjectVersion
1070
     0
1000
AcDbSavedByObjectVersion
1070
     0
1000
AcDbSavedByObjectVersion
1070
     0
1000
AcDbSavedByObjectVersion
1070
     0
1000
AcDbSavedByObjectVersion
1070
     0
1000
AcDbSavedByObjectVersion
1070
     0
1000
AcDbSavedByObjectVersion
1070
     0
1000
AcDbSavedByObjectVersion
1070
     0
1000
AcDbSavedByObjectVersion
1070
     0
1000
AcDbSavedByObjectVersion
1070
     0
1000
AcDbSavedByObjectVersion
1070
     0
1000
AcDbSavedByObjectVersion
1070
     0
1000
AcDbSavedByObjectVersion
1070
     0
1000
AcDbSavedByObjectVersion
1070
     0
1000
AcDbSavedByObjectVersion
1070
     0
1000
AcDbSavedByObjectVersion
1070
     0
1000
AcDbSavedByObjectVersion
1070
     0
1000
AcDbSavedByObjectVersion
1070
     0
1000
AcDbSavedByObjectVersion
1070
     0
1000
AcDbSavedByObjectVersion
1070
     0
1000
AcDbSavedByObjectVersion
1070
     0
  0
VISUALSTYLE
  5
35
102
{ACAD_REACTORS
330
2A
102
}
330
2A
100
AcDbVisualStyle
  2
Dim
 70
    11
 71
     2
 72
     2
 73
     0
 90
        0
 40
-0.6
 41
-30.0
 62
     5
 63
     7
 74
     1
 91
        4
 64
     7
 65
   257
 75
     1
175
     1
 42
1.0
 92
        8
 66
     7
 43
1.0
 76
     1
 77
     6
 78
     2
 67
     7
 79
     5
170
     0
171
     0
290
     0
174
     0
 93
        1
 44
-50.0
173
     0
291
     1
 45
0.0
1001
ACAD
1000
AcDbSavedByObjectVersion
1070
     0
1000
AcDbSavedByObjectVersion
1070
     0
1000
AcDbSavedByObjectVersion
1070
     0
1000
AcDbSavedByObjectVersion
1070
     0
1000
AcDbSavedByObjectVersion
1070
     0
1000
AcDbSavedByObjectVersion
1070
     0
1000
AcDbSavedByObjectVersion
1070
     0
1000
AcDbSavedByObjectVersion
1070
     0
1000
AcDbSavedByObjectVersion
1070
     0
1000
AcDbSavedByObjectVersion
1070
     0
1000
AcDbSavedByObjectVersion
1070
     0
1000
AcDbSavedByObjectVersion
1070
     0
1000
AcDbSavedByObjectVersion
1070
     0
1000
AcDbSavedByObjectVersion
1070
     0
1000
AcDbSavedByObjectVersion
1070
     0
1000
AcDbSavedByObjectVersion
1070
     0
1000
AcDbSavedByObjectVersion
1070
     0
1000
AcDbSavedByObjectVersion
1070
     0
1000
AcDbSavedByObjectVersion
1070
     0
1000
AcDbSavedByObjectVersion
1070
     0
1000
AcDbSavedByObjectVersion
1070
     0
1000
AcDbSavedByObjectVersion
1070
     0
1000
AcDbSavedByObjectVersion
1070
     0
1000
AcDbSavedByObjectVersion
1070
     0
1000
AcDbSavedByObjectVersion
1070
     0
1000
AcDbSavedByObjectVersion
1070
     0
1000
AcDbSavedByObjectVersion
1070
     0
1000
AcDbSavedByObjectVersion
1070
     0
1000
AcDbSavedByObjectVersion
1070
     0
1000
AcDbSavedByObjectVersion
1070
     0
1000
AcDbSavedByObjectVersion
1070
     0
1000
AcDbSavedByObjectVersion
1070
     0
1000
AcDbSavedByObjectVersion
1070
     0
1000
AcDbSavedByObjectVersion
1070
     0
1000
AcDbSavedByObjectVersion
1070
     0
1000
AcDbSavedByObjectVersion
1070
     0
1000
AcDbSavedByObjectVersion
1070
     0
1000
AcDbSavedByObjectVersion
1070
     0
1000
AcDbSavedByObjectVersion
1070
     0
1000
AcDbSavedByObjectVersion
1070
     0
1000
AcDbSavedByObjectVersion
1070
     0
1000
AcDbSavedByObjectVersion
1070
     0
1000
AcDbSavedByObjectVersion
1070
     0
1000
AcDbSavedByObjectVersion
1070
     0
1000
AcDbSavedByObjectVersion
1070
     0
1000
AcDbSavedByObjectVersion
1070
     0
1000
AcDbSavedByObjectVersion
1070
     0
1000
AcDbSavedByObjectVersion
1070
     0
1000
AcDbSavedByObjectVersion
1070
     0
1000
AcDbSavedByObjectVersion
1070
     0
1000
AcDbSavedByObjectVersion
1070
     0
1000
AcDbSavedByObjectVersion
1070
     0
1000
AcDbSavedByObjectVersion
1070
     0
1000
AcDbSavedByObjectVersion
1070
     0
1000
AcDbSavedByObjectVersion
1070
     0
1000
AcDbSavedByObjectVersion
1070
     0
  0
VISUALSTYLE
  5
39
102
{ACAD_REACTORS
330
2A
102
}
330
2A
100
AcDbVisualStyle
  2
Facepattern
 70
    15
 71
     2
 72
     2
 73
     0
 90
        0
 40
-0.6
 41
-30.0
 62
     5
 63
     7
 74
     1
 91
        4
 64
     7
 65
   257
 75
     1
175
     1
 42
1.0
 92
        8
 66
     7
 43
1.0
 76
     1
 77
     6
 78
     2
 67
     7
 79
     5
170
     0
171
     0
290
     0
174
     0
 93
        1
 44
0.0
173
     0
291
     1
 45
0.0
1001
ACAD
1000
AcDbSavedByObjectVersion
1070
     0
1000
AcDbSavedByObjectVersion
1070
     0
1000
AcDbSavedByObjectVersion
1070
     0
1000
AcDbSavedByObjectVersion
1070
     0
1000
AcDbSavedByObjectVersion
1070
     0
1000
AcDbSavedByObjectVersion
1070
     0
1000
AcDbSavedByObjectVersion
1070
     0
1000
AcDbSavedByObjectVersion
1070
     0
1000
AcDbSavedByObjectVersion
1070
     0
1000
AcDbSavedByObjectVersion
1070
     0
1000
AcDbSavedByObjectVersion
1070
     0
1000
AcDbSavedByObjectVersion
1070
     0
1000
AcDbSavedByObjectVersion
1070
     0
1000
AcDbSavedByObjectVersion
1070
     0
1000
AcDbSavedByObjectVersion
1070
     0
1000
AcDbSavedByObjectVersion
1070
     0
1000
AcDbSavedByObjectVersion
1070
     0
1000
AcDbSavedByObjectVersion
1070
     0
1000
AcDbSavedByObjectVersion
1070
     0
1000
AcDbSavedByObjectVersion
1070
     0
1000
AcDbSavedByObjectVersion
1070
     0
1000
AcDbSavedByObjectVersion
1070
     0
1000
AcDbSavedByObjectVersion
1070
     0
1000
AcDbSavedByObjectVersion
1070
     0
1000
AcDbSavedByObjectVersion
1070
     0
1000
AcDbSavedByObjectVersion
1070
     0
1000
AcDbSavedByObjectVersion
1070
     0
1000
AcDbSavedByObjectVersion
1070
     0
1000
AcDbSavedByObjectVersion
1070
     0
1000
AcDbSavedByObjectVersion
1070
     0
1000
AcDbSavedByObjectVersion
1070
     0
1000
AcDbSavedByObjectVersion
1070
     0
1000
AcDbSavedByObjectVersion
1070
     0
1000
AcDbSavedByObjectVersion
1070
     0
1000
AcDbSavedByObjectVersion
1070
     0
1000
AcDbSavedByObjectVersion
1070
     0
1000
AcDbSavedByObjectVersion
1070
     0
1000
AcDbSavedByObjectVersion
1070
     0
1000
AcDbSavedByObjectVersion
1070
     0
1000
AcDbSavedByObjectVersion
1070
     0
1000
AcDbSavedByObjectVersion
1070
     0
1000
AcDbSavedByObjectVersion
1070
     0
1000
AcDbSavedByObjectVersion
1070
     0
1000
AcDbSavedByObjectVersion
1070
     0
1000
AcDbSavedByObjectVersion
1070
     0
1000
AcDbSavedByObjectVersion
1070
     0
1000
AcDbSavedByObjectVersion
1070
     0
1000
AcDbSavedByObjectVersion
1070
     0
1000
AcDbSavedByObjectVersion
1070
     0
1000
AcDbSavedByObjectVersion
1070
     0
1000
AcDbSavedByObjectVersion
1070
     0
1000
AcDbSavedByObjectVersion
1070
     0
1000
AcDbSavedByObjectVersion
1070
     0
1000
AcDbSavedByObjectVersion
1070
     0
1000
AcDbSavedByObjectVersion
1070
     0
1000
AcDbSavedByObjectVersion
1070
     0
  0
VISUALSTYLE
  5
2B
102
{ACAD_REACTORS
330
2A
102
}
330
2A
100
AcDbVisualStyle
  2
Flat
 70
     0
 71
     2
 72
     1
 73
     1
 90
        2
 40
-0.6
 41
30.0
 62
     5
 63
     7
 74
     0
 91
        4
 64
     7
 65
   257
 75
     1
175
     1
 42
1.0
 92
        8
 66
     7
 43
1.0
 76
     1
 77
     6
 78
     2
 67
     7
 79
     5
170
     0
171
     0
290
     0
174
     0
 93
       13
 44
0.0
173
     0
291
     1
 45
0.0
1001
ACAD
1000
AcDbSavedByObjectVersion
1070
     0
1000
AcDbSavedByObjectVersion
1070
     0
1000
AcDbSavedByObjectVersion
1070
     0
1000
AcDbSavedByObjectVersion
1070
     0
1000
AcDbSavedByObjectVersion
1070
     0
1000
AcDbSavedByObjectVersion
1070
     0
1000
AcDbSavedByObjectVersion
1070
     0
1000
AcDbSavedByObjectVersion
1070
     0
1000
AcDbSavedByObjectVersion
1070
     0
1000
AcDbSavedByObjectVersion
1070
     0
1000
AcDbSavedByObjectVersion
1070
     0
1000
AcDbSavedByObjectVersion
1070
     0
1000
AcDbSavedByObjectVersion
1070
     0
1000
AcDbSavedByObjectVersion
1070
     0
1000
AcDbSavedByObjectVersion
1070
     0
1000
AcDbSavedByObjectVersion
1070
     0
1000
AcDbSavedByObjectVersion
1070
     0
1000
AcDbSavedByObjectVersion
1070
     0
1000
AcDbSavedByObjectVersion
1070
     0
1000
AcDbSavedByObjectVersion
1070
     0
1000
AcDbSavedByObjectVersion
1070
     0
1000
AcDbSavedByObjectVersion
1070
     0
1000
AcDbSavedByObjectVersion
1070
     0
1000
AcDbSavedByObjectVersion
1070
     0
1000
AcDbSavedByObjectVersion
1070
     0
1000
AcDbSavedByObjectVersion
1070
     0
1000
AcDbSavedByObjectVersion
1070
     0
1000
AcDbSavedByObjectVersion
1070
     0
1000
AcDbSavedByObjectVersion
1070
     0
1000
AcDbSavedByObjectVersion
1070
     0
1000
AcDbSavedByObjectVersion
1070
     0
1000
AcDbSavedByObjectVersion
1070
     0
1000
AcDbSavedByObjectVersion
1070
     0
1000
AcDbSavedByObjectVersion
1070
     0
1000
AcDbSavedByObjectVersion
1070
     0
1000
AcDbSavedByObjectVersion
1070
     0
1000
AcDbSavedByObjectVersion
1070
     0
1000
AcDbSavedByObjectVersion
1070
     0
1000
AcDbSavedByObjectVersion
1070
     0
1000
AcDbSavedByObjectVersion
1070
     0
1000
AcDbSavedByObjectVersion
1070
     0
1000
AcDbSavedByObjectVersion
1070
     0
1000
AcDbSavedByObjectVersion
1070
     0
1000
AcDbSavedByObjectVersion
1070
     0
1000
AcDbSavedByObjectVersion
1070
     0
1000
AcDbSavedByObjectVersion
1070
     0
1000
AcDbSavedByObjectVersion
1070
     0
1000
AcDbSavedByObjectVersion
1070
     0
1000
AcDbSavedByObjectVersion
1070
     0
1000
AcDbSavedByObjectVersion
1070
     0
1000
AcDbSavedByObjectVersion
1070
     0
1000
AcDbSavedByObjectVersion
1070
     0
1000
AcDbSavedByObjectVersion
1070
     0
1000
AcDbSavedByObjectVersion
1070
     0
1000
AcDbSavedByObjectVersion
1070
     0
1000
AcDbSavedByObjectVersion
1070
     0
  0
VISUALSTYLE
  5
2C
102
{ACAD_REACTORS
330
2A
102
}
330
2A
100
AcDbVisualStyle
  2
FlatWithEdges
 70
     1
 71
     2
 72
     1
 73
     1
 90
        2
 40
-0.6
 41
30.0
 62
     5
 63
     7
 74
     1
 91
        4
 64
     7
 65
   257
 75
     1
175
     1
 42
1.0
 92
        0
 66
   257
 43
1.0
 76
     1
 77
     6
 78
     2
 67
     7
 79
     5
170
     0
171
     0
290
     0
174
     0
 93
       13
 44
0.0
173
     0
291
     1
 45
0.0
1001
ACAD
1000
AcDbSavedByObjectVersion
1070
     0
1000
AcDbSavedByObjectVersion
1070
     0
1000
AcDbSavedByObjectVersion
1070
     0
1000
AcDbSavedByObjectVersion
1070
     0
1000
AcDbSavedByObjectVersion
1070
     0
1000
AcDbSavedByObjectVersion
1070
     0
1000
AcDbSavedByObjectVersion
1070
     0
1000
AcDbSavedByObjectVersion
1070
     0
1000
AcDbSavedByObjectVersion
1070
     0
1000
AcDbSavedByObjectVersion
1070
     0
1000
AcDbSavedByObjectVersion
1070
     0
1000
AcDbSavedByObjectVersion
1070
     0
1000
AcDbSavedByObjectVersion
1070
     0
1000
AcDbSavedByObjectVersion
1070
     0
1000
AcDbSavedByObjectVersion
1070
     0
1000
AcDbSavedByObjectVersion
1070
     0
1000
AcDbSavedByObjectVersion
1070
     0
1000
AcDbSavedByObjectVersion
1070
     0
1000
AcDbSavedByObjectVersion
1070
     0
1000
AcDbSavedByObjectVersion
1070
     0
1000
AcDbSavedByObjectVersion
1070
     0
1000
AcDbSavedByObjectVersion
1070
     0
1000
AcDbSavedByObjectVersion
1070
     0
1000
AcDbSavedByObjectVersion
1070
     0
1000
AcDbSavedByObjectVersion
1070
     0
1000
AcDbSavedByObjectVersion
1070
     0
1000
AcDbSavedByObjectVersion
1070
     0
1000
AcDbSavedByObjectVersion
1070
     0
1000
AcDbSavedByObjectVersion
1070
     0
1000
AcDbSavedByObjectVersion
1070
     0
1000
AcDbSavedByObjectVersion
1070
     0
1000
AcDbSavedByObjectVersion
1070
     0
1000
AcDbSavedByObjectVersion
1070
     0
1000
AcDbSavedByObjectVersion
1070
     0
1000
AcDbSavedByObjectVersion
1070
     0
1000
AcDbSavedByObjectVersion
1070
     0
1000
AcDbSavedByObjectVersion
1070
     0
1000
AcDbSavedByObjectVersion
1070
     0
1000
AcDbSavedByObjectVersion
1070
     0
1000
AcDbSavedByObjectVersion
1070
     0
1000
AcDbSavedByObjectVersion
1070
     0
1000
AcDbSavedByObjectVersion
1070
     0
1000
AcDbSavedByObjectVersion
1070
     0
1000
AcDbSavedByObjectVersion
1070
     0
1000
AcDbSavedByObjectVersion
1070
     0
1000
AcDbSavedByObjectVersion
1070
     0
1000
AcDbSavedByObjectVersion
1070
     0
1000
AcDbSavedByObjectVersion
1070
     0
1000
AcDbSavedByObjectVersion
1070
     0
1000
AcDbSavedByObjectVersion
1070
     0
1000
AcDbSavedByObjectVersion
1070
     0
1000
AcDbSavedByObjectVersion
1070
     0
1000
AcDbSavedByObjectVersion
1070
     0
1000
AcDbSavedByObjectVersion
1070
     0
1000
AcDbSavedByObjectVersion
1070
     0
1000
AcDbSavedByObjectVersion
1070
     0
  0
VISUALSTYLE
  5
2D
102
{ACAD_REACTORS
330
2A
102
}
330
2A
100
AcDbVisualStyle
  2
Gouraud
 70
     2
 71
     2
 72
     2
 73
     1
 90
        2
 40
-0.6
 41
30.0
 62
     5
 63
     7
 74
     0
 91
        4
 64
     7
 65
   257
 75
     1
175
     1
 42
1.0
 92
        0
 66
     7
 43
1.0
 76
     1
 77
     6
 78
     2
 67
     7
 79
     5
170
     0
171
     0
290
     0
174
     0
 93
       13
 44
0.0
173
     0
291
     1
 45
0.0
1001
ACAD
1000
AcDbSavedByObjectVersion
1070
     0
1000
AcDbSavedByObjectVersion
1070
     0
1000
AcDbSavedByObjectVersion
1070
     0
1000
AcDbSavedByObjectVersion
1070
     0
1000
AcDbSavedByObjectVersion
1070
     0
1000
AcDbSavedByObjectVersion
1070
     0
1000
AcDbSavedByObjectVersion
1070
     0
1000
AcDbSavedByObjectVersion
1070
     0
1000
AcDbSavedByObjectVersion
1070
     0
1000
AcDbSavedByObjectVersion
1070
     0
1000
AcDbSavedByObjectVersion
1070
     0
1000
AcDbSavedByObjectVersion
1070
     0
1000
AcDbSavedByObjectVersion
1070
     0
1000
AcDbSavedByObjectVersion
1070
     0
1000
AcDbSavedByObjectVersion
1070
     0
1000
AcDbSavedByObjectVersion
1070
     0
1000
AcDbSavedByObjectVersion
1070
     0
1000
AcDbSavedByObjectVersion
1070
     0
1000
AcDbSavedByObjectVersion
1070
     0
1000
AcDbSavedByObjectVersion
1070
     0
1000
AcDbSavedByObjectVersion
1070
     0
1000
AcDbSavedByObjectVersion
1070
     0
1000
AcDbSavedByObjectVersion
1070
     0
1000
AcDbSavedByObjectVersion
1070
     0
1000
AcDbSavedByObjectVersion
1070
     0
1000
AcDbSavedByObjectVersion
1070
     0
1000
AcDbSavedByObjectVersion
1070
     0
1000
AcDbSavedByObjectVersion
1070
     0
1000
AcDbSavedByObjectVersion
1070
     0
1000
AcDbSavedByObjectVersion
1070
     0
1000
AcDbSavedByObjectVersion
1070
     0
1000
AcDbSavedByObjectVersion
1070
     0
1000
AcDbSavedByObjectVersion
1070
     0
1000
AcDbSavedByObjectVersion
1070
     0
1000
AcDbSavedByObjectVersion
1070
     0
1000
AcDbSavedByObjectVersion
1070
     0
1000
AcDbSavedByObjectVersion
1070
     0
1000
AcDbSavedByObjectVersion
1070
     0
1000
AcDbSavedByObjectVersion
1070
     0
1000
AcDbSavedByObjectVersion
1070
     0
1000
AcDbSavedByObjectVersion
1070
     0
1000
AcDbSavedByObjectVersion
1070
     0
1000
AcDbSavedByObjectVersion
1070
     0
1000
AcDbSavedByObjectVersion
1070
     0
1000
AcDbSavedByObjectVersion
1070
     0
1000
AcDbSavedByObjectVersion
1070
     0
1000
AcDbSavedByObjectVersion
1070
     0
1000
AcDbSavedByObjectVersion
1070
     0
1000
AcDbSavedByObjectVersion
1070
     0
1000
AcDbSavedByObjectVersion
1070
     0
1000
AcDbSavedByObjectVersion
1070
     0
1000
AcDbSavedByObjectVersion
1070
     0
1000
AcDbSavedByObjectVersion
1070
     0
1000
AcDbSavedByObjectVersion
1070
     0
1000
AcDbSavedByObjectVersion
1070
     0
1000
AcDbSavedByObjectVersion
1070
     0
  0
VISUALSTYLE
  5
2E
102
{ACAD_REACTORS
330
2A
102
}
330
2A
100
AcDbVisualStyle
  2
GouraudWithEdges
 70
     3
 71
     2
 72
     2
 73
     1
 90
        2
 40
-0.6
 41
30.0
 62
     5
 63
     7
 74
     1
 91
        4
 64
     7
 65
   257
 75
     1
175
     1
 42
1.0
 92
        0
 66
   257
 43
1.0
 76
     1
 77
     6
 78
     2
 67
     7
 79
     5
170
     0
171
     0
290
     0
174
     0
 93
       13
 44
0.0
173
     0
291
     1
 45
0.0
1001
ACAD
1000
AcDbSavedByObjectVersion
1070
     0
1000
AcDbSavedByObjectVersion
1070
     0
1000
AcDbSavedByObjectVersion
1070
     0
1000
AcDbSavedByObjectVersion
1070
     0
1000
AcDbSavedByObjectVersion
1070
     0
1000
AcDbSavedByObjectVersion
1070
     0
1000
AcDbSavedByObjectVersion
1070
     0
1000
AcDbSavedByObjectVersion
1070
     0
1000
AcDbSavedByObjectVersion
1070
     0
1000
AcDbSavedByObjectVersion
1070
     0
1000
AcDbSavedByObjectVersion
1070
     0
1000
AcDbSavedByObjectVersion
1070
     0
1000
AcDbSavedByObjectVersion
1070
     0
1000
AcDbSavedByObjectVersion
1070
     0
1000
AcDbSavedByObjectVersion
1070
     0
1000
AcDbSavedByObjectVersion
1070
     0
1000
AcDbSavedByObjectVersion
1070
     0
1000
AcDbSavedByObjectVersion
1070
     0
1000
AcDbSavedByObjectVersion
1070
     0
1000
AcDbSavedByObjectVersion
1070
     0
1000
AcDbSavedByObjectVersion
1070
     0
1000
AcDbSavedByObjectVersion
1070
     0
1000
AcDbSavedByObjectVersion
1070
     0
1000
AcDbSavedByObjectVersion
1070
     0
1000
AcDbSavedByObjectVersion
1070
     0
1000
AcDbSavedByObjectVersion
1070
     0
1000
AcDbSavedByObjectVersion
1070
     0
1000
AcDbSavedByObjectVersion
1070
     0
1000
AcDbSavedByObjectVersion
1070
     0
1000
AcDbSavedByObjectVersion
1070
     0
1000
AcDbSavedByObjectVersion
1070
     0
1000
AcDbSavedByObjectVersion
1070
     0
1000
AcDbSavedByObjectVersion
1070
     0
1000
AcDbSavedByObjectVersion
1070
     0
1000
AcDbSavedByObjectVersion
1070
     0
1000
AcDbSavedByObjectVersion
1070
     0
1000
AcDbSavedByObjectVersion
1070
     0
1000
AcDbSavedByObjectVersion
1070
     0
1000
AcDbSavedByObjectVersion
1070
     0
1000
AcDbSavedByObjectVersion
1070
     0
1000
AcDbSavedByObjectVersion
1070
     0
1000
AcDbSavedByObjectVersion
1070
     0
1000
AcDbSavedByObjectVersion
1070
     0
1000
AcDbSavedByObjectVersion
1070
     0
1000
AcDbSavedByObjectVersion
1070
     0
1000
AcDbSavedByObjectVersion
1070
     0
1000
AcDbSavedByObjectVersion
1070
     0
1000
AcDbSavedByObjectVersion
1070
     0
1000
AcDbSavedByObjectVersion
1070
     0
1000
AcDbSavedByObjectVersion
1070
     0
1000
AcDbSavedByObjectVersion
1070
     0
1000
AcDbSavedByObjectVersion
1070
     0
1000
AcDbSavedByObjectVersion
1070
     0
1000
AcDbSavedByObjectVersion
1070
     0
1000
AcDbSavedByObjectVersion
1070
     0
1000
AcDbSavedByObjectVersion
1070
     0
  0
VISUALSTYLE
  5
38
102
{ACAD_REACTORS
330
2A
102
}
330
2A
100
AcDbVisualStyle
  2
Linepattern
 70
    14
 71
     2
 72
     2
 73
     0
 90
        0
 40
-0.6
 41
-30.0
 62
     5
 63
     7
 74
     1
 91
        4
 64
     7
 65
   257
 75
     7
175
     7
 42
1.0
 92
        8
 66
     7
 43
1.0
 76
     1
 77
     6
 78
     2
 67
     7
 79
     5
170
     0
171
     0
290
     0
174
     0
 93
        1
 44
0.0
173
     0
291
     1
 45
0.0
1001
ACAD
1000
AcDbSavedByObjectVersion
1070
     0
1000
AcDbSavedByObjectVersion
1070
     0
1000
AcDbSavedByObjectVersion
1070
     0
1000
AcDbSavedByObjectVersion
1070
     0
1000
AcDbSavedByObjectVersion
1070
     0
1000
AcDbSavedByObjectVersion
1070
     0
1000
AcDbSavedByObjectVersion
1070
     0
1000
AcDbSavedByObjectVersion
1070
     0
1000
AcDbSavedByObjectVersion
1070
     0
1000
AcDbSavedByObjectVersion
1070
     0
1000
AcDbSavedByObjectVersion
1070
     0
1000
AcDbSavedByObjectVersion
1070
     0
1000
AcDbSavedByObjectVersion
1070
     0
1000
AcDbSavedByObjectVersion
1070
     0
1000
AcDbSavedByObjectVersion
1070
     0
1000
AcDbSavedByObjectVersion
1070
     0
1000
AcDbSavedByObjectVersion
1070
     0
1000
AcDbSavedByObjectVersion
1070
     0
1000
AcDbSavedByObjectVersion
1070
     0
1000
AcDbSavedByObjectVersion
1070
     0
1000
AcDbSavedByObjectVersion
1070
     0
1000
AcDbSavedByObjectVersion
1070
     0
1000
AcDbSavedByObjectVersion
1070
     0
1000
AcDbSavedByObjectVersion
1070
     0
1000
AcDbSavedByObjectVersion
1070
     0
1000
AcDbSavedByObjectVersion
1070
     0
1000
AcDbSavedByObjectVersion
1070
     0
1000
AcDbSavedByObjectVersion
1070
     0
1000
AcDbSavedByObjectVersion
1070
     0
1000
AcDbSavedByObjectVersion
1070
     0
1000
AcDbSavedByObjectVersion
1070
     0
1000
AcDbSavedByObjectVersion
1070
     0
1000
AcDbSavedByObjectVersion
1070
     0
1000
AcDbSavedByObjectVersion
1070
     0
1000
AcDbSavedByObjectVersion
1070
     0
1000
AcDbSavedByObjectVersion
1070
     0
1000
AcDbSavedByObjectVersion
1070
     0
1000
AcDbSavedByObjectVersion
1070
     0
1000
AcDbSavedByObjectVersion
1070
     0
1000
AcDbSavedByObjectVersion
1070
     0
1000
AcDbSavedByObjectVersion
1070
     0
1000
AcDbSavedByObjectVersion
1070
     0
1000
AcDbSavedByObjectVersion
1070
     0
1000
AcDbSavedByObjectVersion
1070
     0
1000
AcDbSavedByObjectVersion
1070
     0
1000
AcDbSavedByObjectVersion
1070
     0
1000
AcDbSavedByObjectVersion
1070
     0
1000
AcDbSavedByObjectVersion
1070
     0
1000
AcDbSavedByObjectVersion
1070
     0
1000
AcDbSavedByObjectVersion
1070
     0
1000
AcDbSavedByObjectVersion
1070
     0
1000
AcDbSavedByObjectVersion
1070
     0
1000
AcDbSavedByObjectVersion
1070
     0
1000
AcDbSavedByObjectVersion
1070
     0
1000
AcDbSavedByObjectVersion
1070
     0
1000
AcDbSavedByObjectVersion
1070
     0
  0
VISUALSTYLE
  5
33
102
{ACAD_REACTORS
330
2A
102
}
330
2A
100
AcDbVisualStyle
  2
Realistic
 70
     8
 71
     2
 72
     2
 73
     0
 90
        0
 40
-0.6
 41
-30.0
 62
     5
 63
     7
 74
     1
 91
        0
 64
     7
 65
   257
 75
     1
175
     1
 42
1.0
 92
        8
 66
     8
 43
1.0
 76
     1
 77
     6
 78
     2
 67
     7
 79
     5
170
     0
171
     0
290
     0
174
     0
 93
       13
 44
0.0
173
     0
291
     0
 45
0.0
1001
ACAD
1000
AcDbSavedByObjectVersion
1070
     0
1000
AcDbSavedByObjectVersion
1070
     0
1000
AcDbSavedByObjectVersion
1070
     0
1000
AcDbSavedByObjectVersion
1070
     0
1000
AcDbSavedByObjectVersion
1070
     0
1000
AcDbSavedByObjectVersion
1070
     0
1000
AcDbSavedByObjectVersion
1070
     0
1000
AcDbSavedByObjectVersion
1070
     0
1000
AcDbSavedByObjectVersion
1070
     0
1000
AcDbSavedByObjectVersion
1070
     0
1000
AcDbSavedByObjectVersion
1070
     0
1000
AcDbSavedByObjectVersion
1070
     0
1000
AcDbSavedByObjectVersion
1070
     0
1000
AcDbSavedByObjectVersion
1070
     0
1000
AcDbSavedByObjectVersion
1070
     0
1000
AcDbSavedByObjectVersion
1070
     0
1000
AcDbSavedByObjectVersion
1070
     0
1000
AcDbSavedByObjectVersion
1070
     0
1000
AcDbSavedByObjectVersion
1070
     0
1000
AcDbSavedByObjectVersion
1070
     0
1000
AcDbSavedByObjectVersion
1070
     0
1000
AcDbSavedByObjectVersion
1070
     0
1000
AcDbSavedByObjectVersion
1070
     0
1000
AcDbSavedByObjectVersion
1070
     0
1000
AcDbSavedByObjectVersion
1070
     0
1000
AcDbSavedByObjectVersion
1070
     0
1000
AcDbSavedByObjectVersion
1070
     0
1000
AcDbSavedByObjectVersion
1070
     0
1000
AcDbSavedByObjectVersion
1070
     0
1000
AcDbSavedByObjectVersion
1070
     0
1000
AcDbSavedByObjectVersion
1070
     0
1000
AcDbSavedByObjectVersion
1070
     0
1000
AcDbSavedByObjectVersion
1070
     0
1000
AcDbSavedByObjectVersion
1070
     0
1000
AcDbSavedByObjectVersion
1070
     0
1000
AcDbSavedByObjectVersion
1070
     0
1000
AcDbSavedByObjectVersion
1070
     0
1000
AcDbSavedByObjectVersion
1070
     0
1000
AcDbSavedByObjectVersion
1070
     0
1000
AcDbSavedByObjectVersion
1070
     0
1000
AcDbSavedByObjectVersion
1070
     0
1000
AcDbSavedByObjectVersion
1070
     0
1000
AcDbSavedByObjectVersion
1070
     0
1000
AcDbSavedByObjectVersion
1070
     0
1000
AcDbSavedByObjectVersion
1070
     0
1000
AcDbSavedByObjectVersion
1070
     0
1000
AcDbSavedByObjectVersion
1070
     0
1000
AcDbSavedByObjectVersion
1070
     0
1000
AcDbSavedByObjectVersion
1070
     0
1000
AcDbSavedByObjectVersion
1070
     0
1000
AcDbSavedByObjectVersion
1070
     0
1000
AcDbSavedByObjectVersion
1070
     0
1000
AcDbSavedByObjectVersion
1070
     0
1000
AcDbSavedByObjectVersion
1070
     0
1000
AcDbSavedByObjectVersion
1070
     0
1000
AcDbSavedByObjectVersion
1070
     0
  0
VISUALSTYLE
  5
37
102
{ACAD_REACTORS
330
2A
102
}
330
2A
100
AcDbVisualStyle
  2
Thicken
 70
    13
 71
     2
 72
     2
 73
     0
 90
        0
 40
-0.6
 41
-30.0
 62
     5
 63
     7
 74
     1
 91
        4
 64
     7
 65
   257
 75
     1
175
     1
 42
1.0
 92
       12
 66
     7
 43
1.0
 76
     1
 77
     6
 78
     2
 67
     7
 79
     5
170
     0
171
     0
290
     0
174
     0
 93
        1
 44
0.0
173
     0
291
     1
 45
0.0
1001
ACAD
1000
AcDbSavedByObjectVersion
1070
     0
1000
AcDbSavedByObjectVersion
1070
     0
1000
AcDbSavedByObjectVersion
1070
     0
1000
AcDbSavedByObjectVersion
1070
     0
1000
AcDbSavedByObjectVersion
1070
     0
1000
AcDbSavedByObjectVersion
1070
     0
1000
AcDbSavedByObjectVersion
1070
     0
1000
AcDbSavedByObjectVersion
1070
     0
1000
AcDbSavedByObjectVersion
1070
     0
1000
AcDbSavedByObjectVersion
1070
     0
1000
AcDbSavedByObjectVersion
1070
     0
1000
AcDbSavedByObjectVersion
1070
     0
1000
AcDbSavedByObjectVersion
1070
     0
1000
AcDbSavedByObjectVersion
1070
     0
1000
AcDbSavedByObjectVersion
1070
     0
1000
AcDbSavedByObjectVersion
1070
     0
1000
AcDbSavedByObjectVersion
1070
     0
1000
AcDbSavedByObjectVersion
1070
     0
1000
AcDbSavedByObjectVersion
1070
     0
1000
AcDbSavedByObjectVersion
1070
     0
1000
AcDbSavedByObjectVersion
1070
     0
1000
AcDbSavedByObjectVersion
1070
     0
1000
AcDbSavedByObjectVersion
1070
     0
1000
AcDbSavedByObjectVersion
1070
     0
1000
AcDbSavedByObjectVersion
1070
     0
1000
AcDbSavedByObjectVersion
1070
     0
1000
AcDbSavedByObjectVersion
1070
     0
1000
AcDbSavedByObjectVersion
1070
     0
1000
AcDbSavedByObjectVersion
1070
     0
1000
AcDbSavedByObjectVersion
1070
     0
1000
AcDbSavedByObjectVersion
1070
     0
1000
AcDbSavedByObjectVersion
1070
     0
1000
AcDbSavedByObjectVersion
1070
     0
1000
AcDbSavedByObjectVersion
1070
     0
1000
AcDbSavedByObjectVersion
1070
     0
1000
AcDbSavedByObjectVersion
1070
     0
1000
AcDbSavedByObjectVersion
1070
     0
1000
AcDbSavedByObjectVersion
1070
     0
1000
AcDbSavedByObjectVersion
1070
     0
1000
AcDbSavedByObjectVersion
1070
     0
1000
AcDbSavedByObjectVersion
1070
     0
1000
AcDbSavedByObjectVersion
1070
     0
1000
AcDbSavedByObjectVersion
1070
     0
1000
AcDbSavedByObjectVersion
1070
     0
1000
AcDbSavedByObjectVersion
1070
     0
1000
AcDbSavedByObjectVersion
1070
     0
1000
AcDbSavedByObjectVersion
1070
     0
1000
AcDbSavedByObjectVersion
1070
     0
1000
AcDbSavedByObjectVersion
1070
     0
1000
AcDbSavedByObjectVersion
1070
     0
1000
AcDbSavedByObjectVersion
1070
     0
1000
AcDbSavedByObjectVersion
1070
     0
1000
AcDbSavedByObjectVersion
1070
     0
1000
AcDbSavedByObjectVersion
1070
     0
1000
AcDbSavedByObjectVersion
1070
     0
1000
AcDbSavedByObjectVersion
1070
     0
  0
DICTIONARYVAR
  5
510B
102
{ACAD_REACTORS
330
5108
102
}
330
5108
100
DictionaryVariables
280
     0
  1
1:1
  0
DICTIONARYVAR
  5
510A
102
{ACAD_REACTORS
330
5108
102
}
330
5108
100
DictionaryVariables
280
     0
  1
STANDARD
  0
DICTIONARYVAR
  5
5109
102
{ACAD_REACTORS
330
5108
102
}
330
5108
100
DictionaryVariables
280
     0
  1
STANDARD
  0
DICTIONARYVAR
  5
510E
102
{ACAD_REACTORS
330
5108
102
}
330
5108
100
DictionaryVariables
280
     0
  1
1
  0
DICTIONARYVAR
  5
510D
102
{ACAD_REACTORS
330
5108
102
}
330
5108
100
DictionaryVariables
280
     0
  1
0
  0
DICTIONARYVAR
  5
15CEC
102
{ACAD_REACTORS
330
5108
102
}
330
5108
100
DictionaryVariables
280
     0
  1
0
  0
DICTIONARYVAR
  5
15CEB
102
{ACAD_REACTORS
330
5108
102
}
330
5108
100
DictionaryVariables
280
     0
  1
0
  0
DICTIONARYVAR
  5
510C
102
{ACAD_REACTORS
330
5108
102
}
330
5108
100
DictionaryVariables
280
     0
  1
127
  0
XRECORD
  5
14144
102
{ACAD_REACTORS
330
14143
102
}
330
14143
100
AcDbXrecord
280
     1
330
13EBE
  0
DICTIONARY
  5
4FEF
330
4FEE
100
AcDbDictionary
280
     1
281
     1
  3
ACAD_XREC_ROUNDTRIP
360
7C2C
  3
BUMPTILE
360
4FF1
  3
DIFFUSETILE
360
4FF0
  3
OPACITYTILE
360
4FF4
  3
REFLECTIONTILE
360
4FF3
  3
REFRACTIONTILE
360
4FF5
  3
SPECULARTILE
360
4FF2
  0
DICTIONARY
  5
4FE7
330
4FE6
100
AcDbDictionary
280
     1
281
     1
  3
ACAD_XREC_ROUNDTRIP
360
7C2B
  3
BUMPTILE
360
4FE9
  3
DIFFUSETILE
360
4FE8
  3
OPACITYTILE
360
4FEC
  3
REFLECTIONTILE
360
4FEB
  3
REFRACTIONTILE
360
4FED
  3
SPECULARTILE
360
4FEA
  0
DICTIONARY
  5
4FF7
330
4FF6
100
AcDbDictionary
280
     1
281
     1
  3
ACAD_XREC_ROUNDTRIP
360
7C2D
  3
BUMPTILE
360
4FF9
  3
DIFFUSETILE
360
4FF8
  3
OPACITYTILE
360
4FFC
  3
REFLECTIONTILE
360
4FFB
  3
REFRACTIONTILE
360
4FFD
  3
SPECULARTILE
360
4FFA
  0
DICTIONARY
  5
50D6
330
4FFF
100
AcDbDictionary
280
     1
281
     1
  3
ACAD_ROUNDTRIP_2008_TABLESTYLE_CELLSTYLEMAP
360
15CFA
  0
XRECORD
  5
7C2C
102
{ACAD_REACTORS
330
4FEF
102
}
330
4FEF
100
AcDbXrecord
280
     1
102
MATERIAL
148
0.0
149
0.0
149
0.0
 93
        0
 94
      127
282
     0
 72
     0
 77
     0
171
     0
175
     0
179
     0
273
     0
  0
XRECORD
  5
4FF1
102
{ACAD_REACTORS
330
4FEF
102
}
330
4FEF
100
AcDbXrecord
280
     1
270
     1
271
     1
  0
XRECORD
  5
4FF0
102
{ACAD_REACTORS
330
4FEF
102
}
330
4FEF
100
AcDbXrecord
280
     1
270
     1
271
     1
  0
XRECORD
  5
4FF4
102
{ACAD_REACTORS
330
4FEF
102
}
330
4FEF
100
AcDbXrecord
280
     1
270
     1
271
     1
  0
XRECORD
  5
4FF3
102
{ACAD_REACTORS
330
4FEF
102
}
330
4FEF
100
AcDbXrecord
280
     1
270
     1
271
     1
  0
XRECORD
  5
4FF5
102
{ACAD_REACTORS
330
4FEF
102
}
330
4FEF
100
AcDbXrecord
280
     1
270
     1
271
     1
  0
XRECORD
  5
4FF2
102
{ACAD_REACTORS
330
4FEF
102
}
330
4FEF
100
AcDbXrecord
280
     1
270
     1
271
     1
  0
XRECORD
  5
7C2B
102
{ACAD_REACTORS
330
4FE7
102
}
330
4FE7
100
AcDbXrecord
280
     1
102
MATERIAL
148
0.0
149
0.0
149
0.0
 93
        0
 94
      127
282
     0
 72
     0
 77
     0
171
     0
175
     0
179
     0
273
     0
  0
XRECORD
  5
4FE9
102
{ACAD_REACTORS
330
4FE7
102
}
330
4FE7
100
AcDbXrecord
280
     1
270
     1
271
     1
  0
XRECORD
  5
4FE8
102
{ACAD_REACTORS
330
4FE7
102
}
330
4FE7
100
AcDbXrecord
280
     1
270
     1
271
     1
  0
XRECORD
  5
4FEC
102
{ACAD_REACTORS
330
4FE7
102
}
330
4FE7
100
AcDbXrecord
280
     1
270
     1
271
     1
  0
XRECORD
  5
4FEB
102
{ACAD_REACTORS
330
4FE7
102
}
330
4FE7
100
AcDbXrecord
280
     1
270
     1
271
     1
  0
XRECORD
  5
4FED
102
{ACAD_REACTORS
330
4FE7
102
}
330
4FE7
100
AcDbXrecord
280
     1
270
     1
271
     1
  0
XRECORD
  5
4FEA
102
{ACAD_REACTORS
330
4FE7
102
}
330
4FE7
100
AcDbXrecord
280
     1
270
     1
271
     1
  0
XRECORD
  5
7C2D
102
{ACAD_REACTORS
330
4FF7
102
}
330
4FF7
100
AcDbXrecord
280
     1
102
MATERIAL
148
0.0
149
0.0
149
0.0
 93
        0
 94
      127
282
     0
 72
     0
 77
     0
171
     0
175
     0
179
     0
273
     0
  0
XRECORD
  5
4FF9
102
{ACAD_REACTORS
330
4FF7
102
}
330
4FF7
100
AcDbXrecord
280
     1
270
     1
271
     1
  0
XRECORD
  5
4FF8
102
{ACAD_REACTORS
330
4FF7
102
}
330
4FF7
100
AcDbXrecord
280
     1
270
     1
271
     1
  0
XRECORD
  5
4FFC
102
{ACAD_REACTORS
330
4FF7
102
}
330
4FF7
100
AcDbXrecord
280
     1
270
     1
271
     1
  0
XRECORD
  5
4FFB
102
{ACAD_REACTORS
330
4FF7
102
}
330
4FF7
100
AcDbXrecord
280
     1
270
     1
271
     1
  0
XRECORD
  5
4FFD
102
{ACAD_REACTORS
330
4FF7
102
}
330
4FF7
100
AcDbXrecord
280
     1
270
     1
271
     1
  0
XRECORD
  5
4FFA
102
{ACAD_REACTORS
330
4FF7
102
}
330
4FF7
100
AcDbXrecord
280
     1
270
     1
271
     1
  0
CELLSTYLEMAP
  5
15CFA
102
{ACAD_REACTORS
330
50D6
102
}
330
50D6
100
AcDbCellStyleMap
 90
        3
300
CELLSTYLE
  1
TABLEFORMAT_BEGIN
 90
        5
170
     1
 91
        0
 92
    32768
 62
   257
 93
        1
300
CONTENTFORMAT
  1
CONTENTFORMAT_BEGIN
 90
        0
 91
        0
 92
      512
 93
        0
300

 40
0.0
140
1.0
 94
        5
 62
     0
340
11
144
0.25
309
CONTENTFORMAT_END
171
     1
301
MARGIN
  1
CELLMARGIN_BEGIN
 40
0.06
 40
0.06
 40
0.06
 40
0.06
 40
0.18
 40
0.18
309
CELLMARGIN_END
 94
        6
 95
        1
302
GRIDFORMAT
  1
GRIDFORMAT_BEGIN
 90
        0
 91
        1
 62
     0
 92
       -2
340
0
 93
        0
 40
0.045
309
GRIDFORMAT_END
 95
        2
302
GRIDFORMAT
  1
GRIDFORMAT_BEGIN
 90
        0
 91
        1
 62
     0
 92
       -2
340
0
 93
        0
 40
0.045
309
GRIDFORMAT_END
 95
        4
302
GRIDFORMAT
  1
GRIDFORMAT_BEGIN
 90
        0
 91
        1
 62
     0
 92
       -2
340
0
 93
        0
 40
0.045
309
GRIDFORMAT_END
 95
        8
302
GRIDFORMAT
  1
GRIDFORMAT_BEGIN
 90
        0
 91
        1
 62
     0
 92
       -2
340
0
 93
        0
 40
0.045
309
GRIDFORMAT_END
 95
       16
302
GRIDFORMAT
  1
GRIDFORMAT_BEGIN
 90
        0
 91
        1
 62
     0
 92
       -2
340
0
 93
        0
 40
0.045
309
GRIDFORMAT_END
 95
       32
302
GRIDFORMAT
  1
GRIDFORMAT_BEGIN
 90
        0
 91
        1
 62
     0
 92
       -2
340
0
 93
        0
 40
0.045
309
GRIDFORMAT_END
309
TABLEFORMAT_END
  1
CELLSTYLE_BEGIN
 90
        1
 91
        1
300
_TITLE
309
CELLSTYLE_END
300
CELLSTYLE
  1
TABLEFORMAT_BEGIN
 90
        5
170
     1
 91
        0
 92
        0
 62
   257
 93
        1
300
CONTENTFORMAT
  1
CONTENTFORMAT_BEGIN
 90
        0
 91
        0
 92
      512
 93
        0
300

 40
0.0
140
1.0
 94
        5
 62
     0
340
11
144
0.18
309
CONTENTFORMAT_END
171
     1
301
MARGIN
  1
CELLMARGIN_BEGIN
 40
0.06
 40
0.06
 40
0.06
 40
0.06
 40
0.18
 40
0.18
309
CELLMARGIN_END
 94
        6
 95
        1
302
GRIDFORMAT
  1
GRIDFORMAT_BEGIN
 90
        0
 91
        1
 62
     0
 92
       -2
340
0
 93
        0
 40
0.045
309
GRIDFORMAT_END
 95
        2
302
GRIDFORMAT
  1
GRIDFORMAT_BEGIN
 90
        0
 91
        1
 62
     0
 92
       -2
340
0
 93
        0
 40
0.045
309
GRIDFORMAT_END
 95
        4
302
GRIDFORMAT
  1
GRIDFORMAT_BEGIN
 90
        0
 91
        1
 62
     0
 92
       -2
340
0
 93
        0
 40
0.045
309
GRIDFORMAT_END
 95
        8
302
GRIDFORMAT
  1
GRIDFORMAT_BEGIN
 90
        0
 91
        1
 62
     0
 92
       -2
340
0
 93
        0
 40
0.045
309
GRIDFORMAT_END
 95
       16
302
GRIDFORMAT
  1
GRIDFORMAT_BEGIN
 90
        0
 91
        1
 62
     0
 92
       -2
340
0
 93
        0
 40
0.045
309
GRIDFORMAT_END
 95
       32
302
GRIDFORMAT
  1
GRIDFORMAT_BEGIN
 90
        0
 91
        1
 62
     0
 92
       -2
340
0
 93
        0
 40
0.045
309
GRIDFORMAT_END
309
TABLEFORMAT_END
  1
CELLSTYLE_BEGIN
 90
        2
 91
        1
300
_HEADER
309
CELLSTYLE_END
300
CELLSTYLE
  1
TABLEFORMAT_BEGIN
 90
        5
170
     1
 91
        0
 92
        0
 62
   257
 93
        1
300
CONTENTFORMAT
  1
CONTENTFORMAT_BEGIN
 90
        0
 91
        0
 92
      512
 93
        0
300

 40
0.0
140
1.0
 94
        2
 62
     0
340
11
144
0.18
309
CONTENTFORMAT_END
171
     1
301
MARGIN
  1
CELLMARGIN_BEGIN
 40
0.06
 40
0.06
 40
0.06
 40
0.06
 40
0.18
 40
0.18
309
CELLMARGIN_END
 94
        6
 95
        1
302
GRIDFORMAT
  1
GRIDFORMAT_BEGIN
 90
        0
 91
        1
 62
     0
 92
       -2
340
0
 93
        0
 40
0.045
309
GRIDFORMAT_END
 95
        2
302
GRIDFORMAT
  1
GRIDFORMAT_BEGIN
 90
        0
 91
        1
 62
     0
 92
       -2
340
0
 93
        0
 40
0.045
309
GRIDFORMAT_END
 95
        4
302
GRIDFORMAT
  1
GRIDFORMAT_BEGIN
 90
        0
 91
        1
 62
     0
 92
       -2
340
0
 93
        0
 40
0.045
309
GRIDFORMAT_END
 95
        8
302
GRIDFORMAT
  1
GRIDFORMAT_BEGIN
 90
        0
 91
        1
 62
     0
 92
       -2
340
0
 93
        0
 40
0.045
309
GRIDFORMAT_END
 95
       16
302
GRIDFORMAT
  1
GRIDFORMAT_BEGIN
 90
        0
 91
        1
 62
     0
 92
       -2
340
0
 93
        0
 40
0.045
309
GRIDFORMAT_END
 95
       32
302
GRIDFORMAT
  1
GRIDFORMAT_BEGIN
 90
        0
 91
        1
 62
     0
 92
       -2
340
0
 93
        0
 40
0.045
309
GRIDFORMAT_END
309
TABLEFORMAT_END
  1
CELLSTYLE_BEGIN
 90
        3
 91
        2
300
_DATA
309
CELLSTYLE_END
  0
ENDSEC
  0
EOF
