  0
SECTION
  2
HEADER
  9
$ACADVER
  1
AC1021
  9
$ACADMAINTVER
 70
    25
  9
$DWGCODEPAGE
  3
ANSI_936
  9
$LASTSAVEDBY
  1
14609
  9
$INSBASE
 10
0.0
 20
0.0
 30
0.0
  9
$EXTMIN
 10
362.2152430620301
 20
184.5734201987883
 30
0.0
  9
$EXTMAX
 10
510.7146182042826
 20
289.5734203896823
 30
0.0
  9
$LIMMIN
 10
0.0
 20
0.0
  9
$LIMMAX
 10
12.0
 20
9.0
  9
$ORTHOMODE
 70
     0
  9
$REGENMODE
 70
     1
  9
$FILLMODE
 70
     1
  9
$QTEXTMODE
 70
     0
  9
$MIRRTEXT
 70
     1
  9
$LTSCALE
 40
1.0
  9
$ATTMODE
 70
     1
  9
$TEXTSIZE
 40
0.2
  9
$TRACEWID
 40
0.05
  9
$TEXTSTYLE
  7
Standard
  9
$CLAYER
  8
DIM
  9
$CELTYPE
  6
ByLayer
  9
$CECOLOR
 62
   256
  9
$CELTSCALE
 40
1.0
  9
$DISPSILH
 70
     0
  9
$DIMSCALE
 40
1.0
  9
$DIMASZ
 40
0.5
  9
$DIMEXO
 40
0.2
  9
$DIMDLI
 40
0.2
  9
$DIMRND
 40
0.0
  9
$DIMDLE
 40
0.0
  9
$DIMEXE
 40
0.3
  9
$DIMTP
 40
0.0
  9
$DIMTM
 40
0.0
  9
$DIMTXT
 40
1.0
  9
$DIMCEN
 40
0.0
  9
$DIMTSZ
 40
0.0
  9
$DIMTOL
 70
     0
  9
$DIMLIM
 70
     0
  9
$DIMTIH
 70
     0
  9
$DIMTOH
 70
     0
  9
$DIMSE1
 70
     0
  9
$DIMSE2
 70
     0
  9
$DIMTAD
 70
     1
  9
$DIMZIN
 70
     8
  9
$DIMBLK
  1

  9
$DIMASO
 70
     1
  9
$DIMSHO
 70
     1
  9
$DIMPOST
  1

  9
$DIMAPOST
  1

  9
$DIMALT
 70
     0
  9
$DIMALTD
 70
     2
  9
$DIMALTF
 40
25.4
  9
$DIMLFAC
 40
1.0
  9
$DIMTOFL
 70
     0
  9
$DIMTVP
 40
0.0
  9
$DIMTIX
 70
     0
  9
$DIMSOXD
 70
     0
  9
$DIMSAH
 70
     0
  9
$DIMBLK1
  1

  9
$DIMBLK2
  1

  9
$DIMSTYLE
  2
01
  9
$DIMCLRD
 70
     1
  9
$DIMCLRE
 70
     6
  9
$DIMCLRT
 70
     4
  9
$DIMTFAC
 40
1.0
  9
$DIMGAP
 40
0.3
  9
$DIMJUST
 70
     0
  9
$DIMSD1
 70
     0
  9
$DIMSD2
 70
     0
  9
$DIMTOLJ
 70
     1
  9
$DIMTZIN
 70
     0
  9
$DIMALTZ
 70
     0
  9
$DIMALTTZ
 70
     0
  9
$DIMUPT
 70
     0
  9
$DIMDEC
 70
     1
  9
$DIMTDEC
 70
     1
  9
$DIMALTU
 70
     2
  9
$DIMALTTD
 70
     2
  9
$DIMTXSTY
  7
Romans字体
  9
$DIMAUNIT
 70
     0
  9
$DIMADEC
 70
     2
  9
$DIMALTRND
 40
0.0
  9
$DIMAZIN
 70
     2
  9
$DIMDSEP
 70
    46
  9
$DIMATFIT
 70
     3
  9
$DIMFRAC
 70
     0
  9
$DIMLDRBLK
  1

  9
$DIMLUNIT
 70
     2
  9
$DIMLWD
 70
    -2
  9
$DIMLWE
 70
    -2
  9
$DIMTMOVE
 70
     0
  9
$DIMFXL
 40
1.0
  9
$DIMFXLON
 70
     0
  9
$DIMJOGANG
 40
0.7853981633974483
  9
$DIMTFILL
 70
     0
  9
$DIMTFILLCLR
 70
     0
  9
$DIMARCSYM
 70
     0
  9
$DIMLTYPE
  6

  9
$DIMLTEX1
  6

  9
$DIMLTEX2
  6

  9
$LUNITS
 70
     2
  9
$LUPREC
 70
     4
  9
$SKETCHINC
 40
0.1
  9
$FILLETRAD
 40
0.5
  9
$AUNITS
 70
     0
  9
$AUPREC
 70
     0
  9
$MENU
  1
.
  9
$ELEVATION
 40
0.0
  9
$PELEVATION
 40
0.0
  9
$THICKNESS
 40
0.0
  9
$LIMCHECK
 70
     0
  9
$CHAMFERA
 40
0.5
  9
$CHAMFERB
 40
0.5
  9
$CHAMFERC
 40
1.0
  9
$CHAMFERD
 40
0.0
  9
$SKPOLY
 70
     0
  9
$TDCREATE
 40
2456524.383632987
  9
$TDUCREATE
 40
2456524.050299653
  9
$TDUPDATE
 40
2460346.477084838
  9
$TDUUPDATE
 40
2460346.143751505
  9
$TDINDWG
 40
1.2846101620
  9
$TDUSRTIMER
 40
1.2845817593
  9
$USRTIMER
 70
     1
  9
$ANGBASE
 50
0.0
  9
$ANGDIR
 70
     0
  9
$PDMODE
 70
     0
  9
$PDSIZE
 40
0.0
  9
$PLINEWID
 40
0.0
  9
$SPLFRAME
 70
     0
  9
$SPLINETYPE
 70
     6
  9
$SPLINESEGS
 70
     8
  9
$HANDSEED
  5
14D5A
  9
$SURFTAB1
 70
     6
  9
$SURFTAB2
 70
     6
  9
$SURFTYPE
 70
     6
  9
$SURFU
 70
     6
  9
$SURFV
 70
     6
  9
$UCSBASE
  2

  9
$UCSNAME
  2

  9
$UCSORG
 10
0.0
 20
0.0
 30
0.0
  9
$UCSXDIR
 10
1.0
 20
0.0
 30
0.0
  9
$UCSYDIR
 10
0.0
 20
1.0
 30
0.0
  9
$UCSORTHOREF
  2

  9
$UCSORTHOVIEW
 70
     0
  9
$UCSORGTOP
 10
0.0
 20
0.0
 30
0.0
  9
$UCSORGBOTTOM
 10
0.0
 20
0.0
 30
0.0
  9
$UCSORGLEFT
 10
0.0
 20
0.0
 30
0.0
  9
$UCSORGRIGHT
 10
0.0
 20
0.0
 30
0.0
  9
$UCSORGFRONT
 10
0.0
 20
0.0
 30
0.0
  9
$UCSORGBACK
 10
0.0
 20
0.0
 30
0.0
  9
$PUCSBASE
  2

  9
$PUCSNAME
  2

  9
$PUCSORG
 10
0.0
 20
0.0
 30
0.0
  9
$PUCSXDIR
 10
1.0
 20
0.0
 30
0.0
  9
$PUCSYDIR
 10
0.0
 20
1.0
 30
0.0
  9
$PUCSORTHOREF
  2

  9
$PUCSORTHOVIEW
 70
     0
  9
$PUCSORGTOP
 10
0.0
 20
0.0
 30
0.0
  9
$PUCSORGBOTTOM
 10
0.0
 20
0.0
 30
0.0
  9
$PUCSORGLEFT
 10
0.0
 20
0.0
 30
0.0
  9
$PUCSORGRIGHT
 10
0.0
 20
0.0
 30
0.0
  9
$PUCSORGFRONT
 10
0.0
 20
0.0
 30
0.0
  9
$PUCSORGBACK
 10
0.0
 20
0.0
 30
0.0
  9
$USERI1
 70
     0
  9
$USERI2
 70
     0
  9
$USERI3
 70
     0
  9
$USERI4
 70
     0
  9
$USERI5
 70
     0
  9
$USERR1
 40
0.0
  9
$USERR2
 40
0.0
  9
$USERR3
 40
0.0
  9
$USERR4
 40
0.0
  9
$USERR5
 40
0.0
  9
$WORLDVIEW
 70
     1
  9
$SHADEDGE
 70
     3
  9
$SHADEDIF
 70
    70
  9
$TILEMODE
 70
     1
  9
$MAXACTVP
 70
    64
  9
$PINSBASE
 10
0.0
 20
0.0
 30
0.0
  9
$PLIMCHECK
 70
     0
  9
$PEXTMIN
 10
1.000000000000000E+20
 20
1.000000000000000E+20
 30
1.000000000000000E+20
  9
$PEXTMAX
 10
-1.000000000000000E+20
 20
-1.000000000000000E+20
 30
-1.000000000000000E+20
  9
$PLIMMIN
 10
0.0
 20
0.0
  9
$PLIMMAX
 10
12.0
 20
9.0
  9
$UNITMODE
 70
     0
  9
$VISRETAIN
 70
     1
  9
$PLINEGEN
 70
     0
  9
$PSLTSCALE
 70
     1
  9
$TREEDEPTH
 70
  3020
  9
$CMLSTYLE
  2
Standard
  9
$CMLJUST
 70
     0
  9
$CMLSCALE
 40
1.0
  9
$PROXYGRAPHICS
 70
     1
  9
$MEASUREMENT
 70
     0
  9
$CELWEIGHT
370
    -1
  9
$ENDCAPS
280
     0
  9
$JOINSTYLE
280
     0
  9
$LWDISPLAY
290
     0
  9
$INSUNITS
 70
     4
  9
$HYPERLINKBASE
  1

  9
$STYLESHEET
  1
monochrome.ctb
  9
$XEDIT
290
     1
  9
$CEPSNTYPE
380
     0
  9
$PSTYLEMODE
290
     1
  9
$FINGERPRINTGUID
  2
{4A02065B-8BB3-4A96-9036-502DC906C165}
  9
$VERSIONGUID
  2
{6B3F0694-1D8B-4D0E-AF59-765B8B9E2697}
  9
$EXTNAMES
290
     1
  9
$PSVPSCALE
 40
0.0
  9
$OLESTARTUP
290
     0
  9
$SORTENTS
280
   127
  9
$INDEXCTL
280
     0
  9
$HIDETEXT
280
     0
  9
$XCLIPFRAME
290
     0
  9
$HALOGAP
280
     0
  9
$OBSCOLOR
 70
   257
  9
$OBSLTYPE
280
     0
  9
$INTERSECTIONDISPLAY
280
     0
  9
$INTERSECTIONCOLOR
 70
   257
  9
$DIMASSOC
280
     1
  9
$PROJECTNAME
  1

  9
$CAMERADISPLAY
290
     0
  9
$LENSLENGTH
 40
50.0
  9
$CAMERAHEIGHT
 40
0.0
  9
$STEPSPERSEC
 40
2.0
  9
$STEPSIZE
 40
6.0
  9
$3DDWFPREC
 40
2.0
  9
$PSOLWIDTH
 40
0.25
  9
$PSOLHEIGHT
 40
4.0
  9
$LOFTANG1
 40
1.570796326794896
  9
$LOFTANG2
 40
1.570796326794896
  9
$LOFTMAG1
 40
0.0
  9
$LOFTMAG2
 40
0.0
  9
$LOFTPARAM
 70
     7
  9
$LOFTNORMALS
280
     1
  9
$LATITUDE
 40
37.795
  9
$LONGITUDE
 40
-122.394
  9
$NORTHDIRECTION
 40
0.0
  9
$TIMEZONE
 70
 -8000
  9
$LIGHTGLYPHDISPLAY
280
     1
  9
$TILEMODELIGHTSYNCH
280
     1
  9
$CMATERIAL
347
4FE6
  9
$SOLIDHIST
280
     1
  9
$SHOWHIST
280
     1
  9
$DWFFRAME
280
     2
  9
$DGNFRAME
280
     0
  9
$REALWORLDSCALE
290
     1
  9
$INTERFERECOLOR
 62
     1
  9
$INTERFEREOBJVS
345
33
  9
$INTERFEREVPVS
346
30
  9
$CSHADOW
280
     0
  9
$SHADOWPLANELOCATION
 40
0.0
  0
ENDSEC
  0
SECTION
  2
CLASSES
  0
CLASS
  1
ACDBDICTIONARYWDFLT
  2
AcDbDictionaryWithDefault
  3
ObjectDBX Classes
 90
        0
 91
        1
280
     0
281
     0
  0
CLASS
  1
VISUALSTYLE
  2
AcDbVisualStyle
  3
ObjectDBX Classes
 90
     4095
 91
       16
280
     0
281
     0
  0
CLASS
  1
MATERIAL
  2
AcDbMaterial
  3
ObjectDBX Classes
 90
     1153
 91
        3
280
     0
281
     0
  0
CLASS
  1
TABLESTYLE
  2
AcDbTableStyle
  3
ObjectDBX Classes
 90
     4095
 91
        1
280
     0
281
     0
  0
CLASS
  1
SCALE
  2
AcDbScale
  3
ObjectDBX Classes
 90
     1153
 91
       33
280
     0
281
     0
  0
CLASS
  1
MLEADERSTYLE
  2
AcDbMLeaderStyle
  3
ACDB_MLEADERSTYLE_CLASS
 90
     4095
 91
        1
280
     0
281
     0
  0
CLASS
  1
CELLSTYLEMAP
  2
AcDbCellStyleMap
  3
ObjectDBX Classes
 90
     1152
 91
        2
280
     0
281
     0
  0
CLASS
  1
DICTIONARYVAR
  2
AcDbDictionaryVar
  3
ObjectDBX Classes
 90
        0
 91
        8
280
     0
281
     0
  0
CLASS
  1
SORTENTSTABLE
  2
AcDbSortentsTable
  3
ObjectDBX Classes
 90
        0
 91
        1
280
     0
281
     0
  0
CLASS
  1
ACAD_EVALUATION_GRAPH
  2
AcDbEvalGraph
  3
ObjectDBX Classes
 90
     1153
 91
        0
280
     0
281
     0
  0
CLASS
  1
ACAECUSTOBJ
  2
AcAeEditorObj
  3
AcAeEditorObj
 90
     1024
 91
        0
280
     0
281
     0
  0
CLASS
  1
ACDB_DYNAMICBLOCKPURGEPREVENTER_VERSION
  2
AcDbDynamicBlockPurgePreventer
  3
ObjectDBX Classes
 90
     1153
 91
        0
280
     0
281
     0
  0
CLASS
  1
MENTALRAYRENDERSETTINGS
  2
AcDbMentalRayRenderSettings
  3
SCENEOE
 90
     1024
 91
        1
280
     0
281
     0
  0
CLASS
  1
ACDB_BLOCKREPRESENTATION_DATA
  2
AcDbBlockRepresentationData
  3
ObjectDBX Classes
 90
     1153
 91
        0
280
     0
281
     0
  0
CLASS
  1
DIMASSOC
  2
AcDbDimAssoc
  3
"AcDbDimAssoc|Product Desc:     AcDim ARX App For Dimension|Company:          Autodesk, Inc.|WEB Address:      www.autodesk.com"
 90
        0
 91
        0
280
     0
281
     0
  0
ENDSEC
  0
SECTION
  2
TABLES
  0
TABLE
  2
VPORT
  5
8
102
{ACAD_XDICTIONARY
360
50EE
102
}
330
0
100
AcDbSymbolTable
 70
     1
  0
VPORT
  5
29
330
8
100
AcDbSymbolTableRecord
100
AcDbViewportTableRecord
  2
*Active
 70
     0
 10
0.0
 20
0.0
 11
1.0
 21
1.0
 12
328.8648217260995
 22
87.11202323627661
 13
0.0
 23
0.0
 14
0.5
 24
0.5
 15
0.5
 25
0.5
 16
0.0
 26
0.0
 36
1.0
 17
104.9654968719086
 27
148.5022307685978
 37
0.0
 40
129.4233908011314
 41
1.967136150234741
 42
50.0
 43
0.0
 44
0.0
 50
0.0
 51
0.0
 71
     0
 72
   100
 73
     1
 74
     3
 75
     0
 76
     0
 77
     0
 78
     0
281
     0
 65
     1
110
0.0
120
0.0
130
0.0
111
1.0
121
0.0
131
0.0
112
0.0
122
1.0
132
0.0
 79
     0
146
0.0
348
2F
 60
     3
 61
     5
292
     1
282
     1
141
0.0
142
0.0
 63
   250
421
  3355443
  0
ENDTAB
  0
TABLE
  2
LTYPE
  5
5
330
0
100
AcDbSymbolTable
 70
     2
  0
LTYPE
  5
14
330
5
100
AcDbSymbolTableRecord
100
AcDbLinetypeTableRecord
  2
ByBlock
 70
     0
  3

 72
    65
 73
     0
 40
0.0
  0
LTYPE
  5
15
330
5
100
AcDbSymbolTableRecord
100
AcDbLinetypeTableRecord
  2
ByLayer
 70
     0
  3

 72
    65
 73
     0
 40
0.0
  0
LTYPE
  5
16
330
5
100
AcDbSymbolTableRecord
100
AcDbLinetypeTableRecord
  2
Continuous
 70
     0
  3
Solid line
 72
    65
 73
     0
 40
0.0
  0
LTYPE
  5
67BA
330
5
100
AcDbSymbolTableRecord
100
AcDbLinetypeTableRecord
  2
CENTER
 70
     0
  3
Center ____ _ ____ _ ____ _ ____ _ ____ _ ____
 72
    65
 73
     4
 40
2.0
 49
1.25
 74
     0
 49
-0.25
 74
     0
 49
0.25
 74
     0
 49
-0.25
 74
     0
  0
ENDTAB
  0
TABLE
  2
LAYER
  5
2
102
{ACAD_XDICTIONARY
360
50B8
102
}
330
0
100
AcDbSymbolTable
 70
     8
  0
LAYER
  5
10
102
{ACAD_XDICTIONARY
360
50D0
102
}
330
2
100
AcDbSymbolTableRecord
100
AcDbLayerTableRecord
  2
0
 70
     0
 62
     7
  6
Continuous
370
    30
390
F
347
4FF6
  0
LAYER
  5
3B
102
{ACAD_XDICTIONARY
360
50D2
102
}
330
2
100
AcDbSymbolTableRecord
100
AcDbLayerTableRecord
  2
图层 1
 70
     0
 62
     7
  6
Continuous
370
    -3
390
F
347
4FF6
  0
LAYER
  5
50AE
102
{ACAD_XDICTIONARY
360
50AF
102
}
330
2
100
AcDbSymbolTableRecord
100
AcDbLayerTableRecord
  2
图框
 70
     0
 62
     7
  6
Continuous
370
    20
390
F
347
4FF6
  0
LAYER
  5
5141
330
2
100
AcDbSymbolTableRecord
100
AcDbLayerTableRecord
  2
Defpoints
 70
     0
 62
     7
  6
Continuous
290
     0
370
    -3
390
F
347
4FF6
  0
LAYER
  5
5144
330
2
100
AcDbSymbolTableRecord
100
AcDbLayerTableRecord
  2
DIM
 70
     0
 62
     3
  6
Continuous
370
    15
390
F
347
4FF6
1001
AcAecLayerStandard
1000

1000

  0
LAYER
  5
52F3
330
2
100
AcDbSymbolTableRecord
100
AcDbLayerTableRecord
  2
打标文字
 70
     0
 62
     3
  6
Continuous
370
    20
390
F
347
4FF6
  0
LAYER
  5
67B7
330
2
100
AcDbSymbolTableRecord
100
AcDbLayerTableRecord
  2
CEN
 70
     0
 62
     1
  6
CENTER
370
    15
390
F
347
4FF6
1001
AcAecLayerStandard
1000

1000

  0
LAYER
  5
11B6B
330
2
100
AcDbSymbolTableRecord
100
AcDbLayerTableRecord
  2
hat
 70
     0
 62
     6
  6
Continuous
370
    15
390
F
347
4FF6
1001
AcAecLayerStandard
1000

1000

  0
ENDTAB
  0
TABLE
  2
STYLE
  5
3
330
0
100
AcDbSymbolTable
 70
     4
  0
STYLE
  5
11
330
3
100
AcDbSymbolTableRecord
100
AcDbTextStyleTableRecord
  2
Standard
 70
     0
 40
0.0
 41
0.75
 50
0.0
 71
     0
 42
0.2
  3

  4

1001
ACAD
1000
FangSong_GB2312
1071
    34353
  0
STYLE
  5
FD48
330
3
100
AcDbSymbolTableRecord
100
AcDbTextStyleTableRecord
  2
Romans字体
 70
     0
 40
0.0
 41
0.75
 50
0.0
 71
     0
 42
0.2
  3
romans.shx
  4

  0
STYLE
  5
11080
330
3
100
AcDbSymbolTableRecord
100
AcDbTextStyleTableRecord
  2
工程字
 70
     0
 40
0.0
 41
1.0
 50
0.0
 71
     0
 42
3.5
  3
gbenor.shx
  4
gbcbig.shx
  0
STYLE
  5
11081
330
3
100
AcDbSymbolTableRecord
100
AcDbTextStyleTableRecord
  2
Chinese
 70
     0
 40
0.0
 41
1.0
 50
0.0
 71
     0
 42
2.5
  3

  4

1001
ACAD
1000
PMingLiU
1071
    34834
  0
ENDTAB
  0
TABLE
  2
VIEW
  5
6
330
0
100
AcDbSymbolTable
 70
     0
  0
ENDTAB
  0
TABLE
  2
UCS
  5
7
330
0
100
AcDbSymbolTable
 70
     0
  0
ENDTAB
  0
TABLE
  2
APPID
  5
9
330
0
100
AcDbSymbolTable
 70
    17
  0
APPID
  5
12
330
9
100
AcDbSymbolTableRecord
100
AcDbRegAppTableRecord
  2
ACAD
 70
     0
  0
APPID
  5
5024
330
9
100
AcDbSymbolTableRecord
100
AcDbRegAppTableRecord
  2
ACAD_MLEADERVER
 70
     0
  0
APPID
  5
50B5
330
9
100
AcDbSymbolTableRecord
100
AcDbRegAppTableRecord
  2
AcDbDynamicBlockGUID
 70
     0
  0
APPID
  5
50B6
330
9
100
AcDbSymbolTableRecord
100
AcDbRegAppTableRecord
  2
AcDbBlockRepETag
 70
     0
  0
APPID
  5
50B7
330
9
100
AcDbSymbolTableRecord
100
AcDbRegAppTableRecord
  2
ACAD_PSEXT
 70
     0
  0
APPID
  5
50CF
330
9
100
AcDbSymbolTableRecord
100
AcDbRegAppTableRecord
  2
AcadAnnoPO
 70
     0
  0
APPID
  5
5146
330
9
100
AcDbSymbolTableRecord
100
AcDbRegAppTableRecord
  2
AcAecLayerStandard
 70
     0
  0
APPID
  5
5147
330
9
100
AcDbSymbolTableRecord
100
AcDbRegAppTableRecord
  2
ACAD_DSTYLE_DIMJAG
 70
     0
  0
APPID
  5
5148
330
9
100
AcDbSymbolTableRecord
100
AcDbRegAppTableRecord
  2
ACAD_DSTYLE_DIMTALN
 70
     0
  0
APPID
  5
52AD
330
9
100
AcDbSymbolTableRecord
100
AcDbRegAppTableRecord
  2
ACAUTHENVIRON
 70
     0
  0
APPID
  5
52B0
330
9
100
AcDbSymbolTableRecord
100
AcDbRegAppTableRecord
  2
AcDbDynamicBlockTrueName
 70
     0
  0
APPID
  5
67C6
330
9
100
AcDbSymbolTableRecord
100
AcDbRegAppTableRecord
  2
ACAD_EXEMPT_FROM_CAD_STANDARDS
 70
     0
  0
APPID
  5
6838
330
9
100
AcDbSymbolTableRecord
100
AcDbRegAppTableRecord
  2
ACAD_NAV_VCDISPLAY
 70
     0
  0
APPID
  5
70A9
330
9
100
AcDbSymbolTableRecord
100
AcDbRegAppTableRecord
  2
DCO15
 70
     0
  0
APPID
  5
8725
330
9
100
AcDbSymbolTableRecord
100
AcDbRegAppTableRecord
  2
AcDbBlockRepBTag
 70
     0
  0
APPID
  5
FE64
330
9
100
AcDbSymbolTableRecord
100
AcDbRegAppTableRecord
  2
ACAD_DSTYLE_DIMRADIAL_EXTENSION
 70
     0
  0
APPID
  5
FF93
330
9
100
AcDbSymbolTableRecord
100
AcDbRegAppTableRecord
  2
ACAD_DSTYLE_DIMBREAK
 70
     0
  0
ENDTAB
  0
TABLE
  2
DIMSTYLE
  5
A
330
0
100
AcDbSymbolTable
 70
     2
100
AcDbDimStyleTable
 71
     2
340
5145
340
27
  0
DIMSTYLE
105
27
330
A
100
AcDbSymbolTableRecord
100
AcDbDimStyleTableRecord
  2
Standard
 70
     0
340
11
  0
DIMSTYLE
105
5145
102
{ACAD_REACTORS
330
1436F
330
14365
330
14373
330
14370
330
14372
330
14371
102
}
330
A
100
AcDbSymbolTableRecord
100
AcDbDimStyleTableRecord
  2
01
 70
     0
 41
0.5
 42
0.2
 43
0.2
 44
0.3
 73
     0
 74
     0
 77
     1
 78
     8
 79
     2
140
1.0
141
0.0
147
0.3
176
     1
177
     6
178
     4
179
     2
271
     1
272
     1
340
FD48
1001
ACAD_DSTYLE_DIMJAG
1070
   388
1040
1.5
1001
ACAD_DSTYLE_DIMTALN
1070
   392
1070
     0
  0
ENDTAB
  0
TABLE
  2
BLOCK_RECORD
  5
1
330
0
100
AcDbSymbolTable
 70
     8
  0
BLOCK_RECORD
  5
1F
102
{ACAD_XDICTIONARY
360
67C0
102
}
330
1
100
AcDbSymbolTableRecord
100
AcDbBlockTableRecord
  2
*Model_Space
340
22
 70
     0
280
     1
281
     0
  0
BLOCK_RECORD
  5
1B
330
1
100
AcDbSymbolTableRecord
100
AcDbBlockTableRecord
  2
*Paper_Space
340
1E
 70
     0
280
     1
281
     0
  0
BLOCK_RECORD
  5
23
330
1
100
AcDbSymbolTableRecord
100
AcDbBlockTableRecord
  2
*Paper_Space0
340
26
 70
     0
280
     1
281
     0
  0
BLOCK_RECORD
  5
13E17
102
{ACAD_XDICTIONARY
360
14CC3
102
}
330
1
100
AcDbSymbolTableRecord
100
AcDbBlockTableRecord
  2
A4图框-NEW
340
0
310
2800000020000000200000000100080000000000000400000000000000000000000000000000000000000000000080000080000000808000800000008000800080800000C0C0C000C0DCC000F0CAA6000020400000206000002080000020A0000020C0000020E00000400000004020000040400000406000004080000040A0
310
000040C0000040E00000600000006020000060400000606000006080000060A0000060C0000060E00000800000008020000080400000806000008080000080A0000080C0000080E00000A0000000A0200000A0400000A0600000A0800000A0A00000A0C00000A0E00000C0000000C0200000C0400000C0600000C0800000C0
310
A00000C0C00000C0E00000E0000000E0200000E0400000E0600000E0800000E0A00000E0C00000E0E00040000000400020004000400040006000400080004000A0004000C0004000E00040200000402020004020400040206000402080004020A0004020C0004020E000404000004040200040404000404060004040800040
310
40A0004040C0004040E00040600000406020004060400040606000406080004060A0004060C0004060E00040800000408020004080400040806000408080004080A0004080C0004080E00040A0000040A0200040A0400040A0600040A0800040A0A00040A0C00040A0E00040C0000040C0200040C0400040C0600040C08000
310
40C0A00040C0C00040C0E00040E0000040E0200040E0400040E0600040E0800040E0A00040E0C00040E0E00080000000800020008000400080006000800080008000A0008000C0008000E00080200000802020008020400080206000802080008020A0008020C0008020E00080400000804020008040400080406000804080
310
008040A0008040C0008040E00080600000806020008060400080606000806080008060A0008060C0008060E00080800000808020008080400080806000808080008080A0008080C0008080E00080A0000080A0200080A0400080A0600080A0800080A0A00080A0C00080A0E00080C0000080C0200080C0400080C0600080C0
310
800080C0A00080C0C00080C0E00080E0000080E0200080E0400080E0600080E0800080E0A00080E0C00080E0E000C0000000C0002000C0004000C0006000C0008000C000A000C000C000C000E000C0200000C0202000C0204000C0206000C0208000C020A000C020C000C020E000C0400000C0402000C0404000C0406000C0
310
408000C040A000C040C000C040E000C0600000C0602000C0604000C0606000C0608000C060A000C060C000C060E000C0800000C0802000C0804000C0806000C0808000C080A000C080C000C080E000C0A00000C0A02000C0A04000C0A06000C0A08000C0A0A000C0A0C000C0A0E000C0C00000C0C02000C0C04000C0C06000
310
C0C08000C0C0A000F0FBFF00A4A0A000808080000000FF0000FF000000FFFF00FF000000FF00FF00FFFF0000FFFFFF0000000000000000000000000000000000000000000000000000000000000000000000000000000000000000000000000000000000000000000000000000000000000000000000000000000000000000
310
000000000000000000000000000000000000000000000000000000000000000000000000000000000000000000000000000000000000000000000000000000000000000000000000000000000000000000000000000000000000000000000000000000000000000000000000000000000000F9F9F9F9F9F9F9F9F9F9F9F9F9
310
F9F9F9F9F9F9F9F9F9F9F9F9F9F9FF00000000F9FF000000000000000000FFFFFFFFFFFFFFFFFFFFFFFFF9FAFAFAFF00000000F9FF000000000000000000FFFFFFFFFFFFFFFFFFFFFFFFFFFFFFFFFF00000000F9FD000000000000000000FFFFFFFFFFFFFFFFFFFFFFFFFFFFFFFFFF00000000F9FF000000000000000000FF
310
FFFFFFFFFFFFFFFFFFFFFFFFFFFFFFFF00000000F9FD000000000000000000FFFFFFFFFFFFFFFFFFFFFFFFFFFFFFFFFF00000000F9FF00000000000000000000000000000000000000000000000000FF00000000F9FD00000000000000000000000000000000000000000000000000FF00000000F9FF000000000000000000
310
00000000000000000000000000000000FF00000000F9FD00000000000000000000000000000000000000000000000000FF00000000F9FF00000000000000000000000000000000000000000000000000FF00000000F9FD00000000000000000000000000000000000000000000000000FF00000000F9FD0000000000000000
310
0000000000000000000000000000000000FF00000000F9FF00000000000000000000000000000000000000000000000000FF00000000F9FD00000000000000000000000000000000000000000000000000FF00000000F9FF00000000000000000000000000000000000000000000000000FF00000000F9FD00000000000000
310
000000000000000000000000000000000000FF00000000F9FF00000000000000000000000000000000000000000000000000FF00000000F9FFFFFFFFFFFFFFFFFFFFFFFFFFFFFFFFFFFFFFFFFFFFFFFFFFFFFF00000000F9FFFFFFF9F9F9F9F9F9F9F9F9F9F9F9F9F9F9F9F9F9F9F9F9F9F9F9000000000000000000000000
310
00000000000000000000000000000000000000000000000000000000000000000000000000000000000000000000000000000000000000000000000000000000000000000000000000000000000000000000000000000000000000000000000000000000000000000000000000000000000000000000000000000000000000
310
0000000000000000000000000000000000000000000000000000000000000000000000000000000000000000000000000000000000000000
102
{BLKREFS
331
13EBE
102
}
 70
     4
280
     1
281
     0
1001
AcDbDynamicBlockGUID
1000
{7A9B6B55-EC37-4328-9239-78A66953783E}
1001
AcDbBlockRepETag
1070
     1
1071
      151
  0
BLOCK_RECORD
  5
1442C
330
1
100
AcDbSymbolTableRecord
100
AcDbBlockTableRecord
  2
*D2
340
0
 70
     0
280
     1
281
     0
  0
BLOCK_RECORD
  5
14439
330
1
100
AcDbSymbolTableRecord
100
AcDbBlockTableRecord
  2
*D3
340
0
 70
     0
280
     1
281
     0
  0
BLOCK_RECORD
  5
14446
330
1
100
AcDbSymbolTableRecord
100
AcDbBlockTableRecord
  2
*D4
340
0
 70
     0
280
     1
281
     0
  0
BLOCK_RECORD
  5
14453
330
1
100
AcDbSymbolTableRecord
100
AcDbBlockTableRecord
  2
*D5
340
0
 70
     0
280
     1
281
     0
  0
BLOCK_RECORD
  5
14460
330
1
100
AcDbSymbolTableRecord
100
AcDbBlockTableRecord
  2
*D6
340
0
 70
     0
280
     1
281
     0
  0
BLOCK_RECORD
  5
1446D
330
1
100
AcDbSymbolTableRecord
100
AcDbBlockTableRecord
  2
*D7
340
0
 70
     0
280
     1
281
     0
  0
ENDTAB
  0
ENDSEC
  0
SECTION
  2
BLOCKS
  0
BLOCK
  5
20
330
1F
100
AcDbEntity
  8
0
100
AcDbBlockBegin
  2
*Model_Space
 70
     0
 10
0.0
 20
0.0
 30
0.0
  3
*Model_Space
  1

  0
ENDBLK
  5
21
330
1F
100
AcDbEntity
  8
0
100
AcDbBlockEnd
  0
BLOCK
  5
1C
330
1B
100
AcDbEntity
 67
     1
  8
0
100
AcDbBlockBegin
  2
*Paper_Space
 70
     0
 10
0.0
 20
0.0
 30
0.0
  3
*Paper_Space
  1

  0
ENDBLK
  5
1D
330
1B
100
AcDbEntity
 67
     1
  8
0
100
AcDbBlockEnd
  0
BLOCK
  5
24
330
23
100
AcDbEntity
 67
     1
  8
0
100
AcDbBlockBegin
  2
*Paper_Space0
 70
     0
 10
0.0
 20
0.0
 30
0.0
  3
*Paper_Space0
  1

  0
ENDBLK
  5
25
330
23
100
AcDbEntity
 67
     1
  8
0
100
AcDbBlockEnd
  0
BLOCK
  5
13E19
330
13E17
100
AcDbEntity
  8
0
100
AcDbBlockBegin
  2
A4图框-NEW
 70
     0
 10
0.0
 20
0.0
 30
0.0
  3
A4图框-NEW
  1

  0
MTEXT
  5
14C2E
102
{ACAD_XDICTIONARY
360
14D42
102
}
330
13E17
100
AcDbEntity
  8
图框
 62
     3
100
AcDbMText
 10
967.6594956750133
 20
499.7664151964293
 30
0.0
 40
2.985513575034151
 41
15.50176341157864
 46
6.292658374511018
 71
     5
 72
     5
  1
YL YE
  7
Romans字体
 73
     1
 44
1.0
1001
AcDbBlockRepETag
1070
     1
1071
        0
1005
14C2E
1001
ACAD
1000
ACAD_MTEXT_DEFINED_HEIGHT_BEGIN
1070
    46
1040
6.292658374511018
1000
ACAD_MTEXT_DEFINED_HEIGHT_END
  0
MTEXT
  5
14C2F
330
13E17
100
AcDbEntity
  8
图框
 62
     3
100
AcDbMText
 10
983.041569333247
 20
499.7664151964293
 30
0.0
 40
2.487927979195124
 41
15.26238390489062
 46
6.292658374511042
 71
     5
 72
     5
  1
{\W0.7;16.06.2022}
  7
Romans字体
 73
     1
 44
1.0
1001
AcDbBlockRepETag
1070
     1
1071
        1
1005
14C2F
1001
ACAD
1000
ACAD_MTEXT_DEFINED_HEIGHT_BEGIN
1070
    46
1040
6.292658374511042
1000
ACAD_MTEXT_DEFINED_HEIGHT_END
  0
MTEXT
  5
14C30
330
13E17
100
AcDbEntity
  8
图框
 62
     3
100
AcDbMText
 10
1012.477254728976
 20
487.1810984474071
 30
0.0
 40
2.799999999999998
 41
17.64876416884615
 46
6.292658374511455
 71
     5
 72
     5
  1
HQ ZHANG
  7
Romans字体
 73
     1
 44
1.0
1001
AcDbBlockRepETag
1070
     1
1071
        2
1005
14C30
1001
ACAD
1000
ACAD_MTEXT_DEFINED_HEIGHT_BEGIN
1070
    46
1040
6.292658374511455
1000
ACAD_MTEXT_DEFINED_HEIGHT_END
  0
MTEXT
  5
14C31
330
13E17
100
AcDbEntity
  8
图框
 62
     3
100
AcDbMText
 10
1063.722665487208
 20
525.4145966538831
 30
0.0
 40
2.985513575034151
 41
32.4973914334545
 46
11.82914190181707
 71
     5
 72
     5
  1
-
  7
Romans字体
 73
     1
 44
1.0
1001
AcDbBlockRepETag
1070
     1
1071
        4
1005
14C31
1001
ACAD
1000
ACAD_MTEXT_DEFINED_HEIGHT_BEGIN
1070
    46
1040
11.82914190181707
1000
ACAD_MTEXT_DEFINED_HEIGHT_END
  0
MTEXT
  5
14C32
330
13E17
100
AcDbEntity
  8
图框
 62
     3
100
AcDbMText
 10
1063.727338552349
 20
513.5854547520641
 30
0.0
 40
2.985513575034151
 41
32.48804530317308
 46
11.82914190182139
 71
     5
 72
     5
  1
-
  7
Romans字体
 73
     1
 44
1.0
1001
AcDbBlockRepETag
1070
     1
1071
        5
1005
14C32
1001
ACAD
1000
ACAD_MTEXT_DEFINED_HEIGHT_BEGIN
1070
    46
1040
11.82914190182139
1000
ACAD_MTEXT_DEFINED_HEIGHT_END
  0
MTEXT
  5
14C33
330
13E17
100
AcDbEntity
  8
图框
 62
     3
100
AcDbMText
 10
1110.122306614152
 20
526.8006839312707
 30
0.0
 40
2.985513575034151
 41
33.61239199242139
 46
9.05696734704178
 71
     5
 72
     5
  1
-
  7
Romans字体
 73
     1
 44
1.0
1001
AcDbBlockRepETag
1070
     1
1071
        6
1005
14C33
1001
ACAD
1000
ACAD_MTEXT_DEFINED_HEIGHT_BEGIN
1070
    46
1040
9.05696734704178
1000
ACAD_MTEXT_DEFINED_HEIGHT_END
  0
MTEXT
  5
14C34
330
13E17
100
AcDbEntity
  8
图框
 62
     3
100
AcDbMText
 10
1110.122306614152
 20
500.2775205517162
 30
0.0
 40
2.985513575034151
 41
33.61239199242139
 46
8.871557304763419
 71
     5
 72
     5
  1
-
  7
Romans字体
 73
     1
 44
1.0
1001
AcDbBlockRepETag
1070
     1
1071
        7
1005
14C34
1001
ACAD
1000
ACAD_MTEXT_DEFINED_HEIGHT_BEGIN
1070
    46
1040
8.871557304763419
1000
ACAD_MTEXT_DEFINED_HEIGHT_END
  0
MTEXT
  5
14C35
330
13E17
100
AcDbEntity
  8
图框
 62
     3
100
AcDbMText
 10
967.6594956750133
 20
493.4737568219182
 30
0.0
 40
2.985513575034151
 41
15.50176341157864
 46
6.292658374510335
 71
     5
 72
     5
  1
P RAO
  7
Romans字体
 73
     1
 44
1.0
1001
AcDbBlockRepETag
1070
     1
1071
        8
1005
14C35
1001
ACAD
1000
ACAD_MTEXT_DEFINED_HEIGHT_BEGIN
1070
    46
1040
6.292658374510335
1000
ACAD_MTEXT_DEFINED_HEIGHT_END
  0
MTEXT
  5
14C36
330
13E17
100
AcDbEntity
  8
图框
 62
     3
100
AcDbMText
 10
1012.477254728976
 20
499.7664151964291
 30
0.0
 40
2.985513575034151
 41
17.64876416884615
 46
6.292658374511397
 71
     5
 72
     5
  1
-
  7
Romans字体
 73
     1
 44
1.0
1001
AcDbBlockRepETag
1070
     1
1071
       10
1005
14C36
1001
ACAD
1000
ACAD_MTEXT_DEFINED_HEIGHT_BEGIN
1070
    46
1040
6.292658374511397
1000
ACAD_MTEXT_DEFINED_HEIGHT_END
  0
MTEXT
  5
14C37
330
13E17
100
AcDbEntity
  8
图框
 62
     3
100
AcDbMText
 10
1028.977802139886
 20
499.7664151964289
 30
0.0
 40
2.487927979195124
 41
15.35233065297265
 46
6.292658374511382
 71
     5
 72
     5
  1
-
  7
Romans字体
 73
     1
 44
1.0
1001
AcDbBlockRepETag
1070
     1
1071
       11
1005
14C37
1001
ACAD
1000
ACAD_MTEXT_DEFINED_HEIGHT_BEGIN
1070
    46
1040
6.292658374511382
1000
ACAD_MTEXT_DEFINED_HEIGHT_END
  0
MTEXT
  5
14C38
330
13E17
100
AcDbEntity
  8
图框
 62
     3
100
AcDbMText
 10
967.6594956750133
 20
487.1810984474071
 30
0.0
 40
2.985513575034151
 41
15.50176341157863
 46
6.292658374511478
 71
     5
 72
     5
  1
-
  7
Romans字体
 73
     1
 44
1.0
1001
AcDbBlockRepETag
1070
     1
1071
       12
1005
14C38
1001
ACAD
1000
ACAD_MTEXT_DEFINED_HEIGHT_BEGIN
1070
    46
1040
6.292658374511478
1000
ACAD_MTEXT_DEFINED_HEIGHT_END
  0
MTEXT
  5
14C39
330
13E17
100
AcDbEntity
  8
图框
 62
     3
100
AcDbMText
 10
983.041569333247
 20
487.1810984474071
 30
0.0
 40
2.487927979195124
 41
15.26238390489062
 46
6.292658374511495
 71
     5
 72
     5
  1
-
  7
Romans字体
 73
     1
 44
1.0
1001
AcDbBlockRepETag
1070
     1
1071
       13
1005
14C39
1001
ACAD
1000
ACAD_MTEXT_DEFINED_HEIGHT_BEGIN
1070
    46
1040
6.292658374511495
1000
ACAD_MTEXT_DEFINED_HEIGHT_END
  0
MTEXT
  5
14C3A
330
13E17
100
AcDbEntity
  8
图框
 62
     3
100
AcDbMText
 10
1074.556686986741
 20
495.8417418993361
 30
0.0
 40
2.985513575034151
 41
10.82934843438978
 46
7.886094601210427
 71
     5
 72
     5
  1
-
  7
Romans字体
 73
     1
 44
1.0
1001
AcDbBlockRepETag
1070
     1
1071
       14
1005
14C3A
1001
ACAD
1000
ACAD_MTEXT_DEFINED_HEIGHT_BEGIN
1070
    46
1040
7.886094601210427
1000
ACAD_MTEXT_DEFINED_HEIGHT_END
  0
LINE
  5
14C3B
330
13E17
100
AcDbEntity
  8
图框
370
    -3
100
AcDbLine
 10
1036.653967466372
 20
499.7847891999413
 30
0.0
 11
1079.971361203936
 21
499.7847891999413
 31
0.0
1001
AcDbBlockRepETag
1070
     1
1071
       15
1005
14C3B
  0
MTEXT
  5
14C3C
330
13E17
100
AcDbEntity
  8
图框
 62
     1
370
    20
100
AcDbMText
 10
1108.26336443907
 20
491.5162596080882
 30
0.0
 40
2.699054613030988
 41
82.30831305643079
 46
0.0
 71
     5
 72
     5
  1
{\fSimHei|b0|i0|c134|p2;厦门唯恩电气有限公司}
 73
     1
 44
1.0
1001
AcDbBlockRepETag
1070
     1
1071
       16
1005
14C3C
  0
MTEXT
  5
14C3D
330
13E17
100
AcDbEntity
  8
图框
 62
     3
370
    20
100
AcDbMText
 10
1108.435451459908
 20
487.298967726064
 30
0.0
 40
1.652482416141417
 41
68.08558693693567
 46
0.0
 71
     5
 72
     5
  1
{\fArial Narrow|b0|i0|c0|p34;XIAMEN WAIN ELECTRICAL CO.LTD}
  7
工程字
 73
     1
 44
1.0
1001
AcDbBlockRepETag
1070
     1
1071
       17
1005
14C3D
  0
MTEXT
  5
14C3E
330
13E17
100
AcDbEntity
  8
图框
 62
     1
370
    20
100
AcDbMText
 10
1085.711816899387
 20
491.0944802995856
 30
0.0
 40
2.005930044038334
 41
5.047240019334847
 46
0.0
 71
     1
 72
     5
  1
{\fArial|b0|i0|c0|p34;A}
  7
Chinese
 73
     1
 44
1.0
1001
AcDbBlockRepETag
1070
     1
1071
       18
1005
14C3E
  0
MTEXT
  5
14C3F
330
13E17
100
AcDbEntity
  8
图框
 62
     1
370
    20
100
AcDbMText
 10
1088.213485935716
 20
491.0944802995856
 30
0.0
 40
2.005930044038334
 41
5.047240019334847
 46
0.0
 71
     1
 72
     5
  1
{\fArial|b0|i0|c0|p34;I}
  7
Chinese
 73
     1
 44
1.0
1001
AcDbBlockRepETag
1070
     1
1071
       19
1005
14C3F
  0
MTEXT
  5
14C40
330
13E17
100
AcDbEntity
  8
图框
 62
     1
370
    20
100
AcDbMText
 10
1089.142375222864
 20
491.0822866326808
 30
0.0
 40
2.005930044038334
 41
5.047240019334847
 46
0.0
 71
     1
 72
     5
  1
{\fArial|b0|i0|c0|p34;N}
  7
Chinese
 73
     1
 44
1.0
1001
AcDbBlockRepETag
1070
     1
1071
       20
1005
14C40
  0
MTEXT
  5
14C41
330
13E17
100
AcDbEntity
  8
图框
100
AcDbMText
 10
1069.142012769545
 20
487.9667319294409
 30
0.0
 40
2.252848170144607
 41
21.65869686878327
 46
7.863925338579296
 71
     5
 72
     5
  1
{\W0.5;\C1;All Dimensions in mm\POriginal Size DIN A 4}
  7
Romans字体
 73
     1
 44
1.0
1001
AcDbBlockRepETag
1070
     1
1071
       21
1005
14C41
1001
ACAD
1000
ACAD_MTEXT_DEFINED_HEIGHT_BEGIN
1070
    46
1040
7.863925338579296
1000
ACAD_MTEXT_DEFINED_HEIGHT_END
  0
MTEXT
  5
14C42
330
13E17
100
AcDbEntity
  8
图框
  6
ByBlock
 62
     6
370
    18
100
AcDbMText
 10
1127.40434942308
 20
508.7896535755975
 30
0.0
 40
2.651776162684904
 41
2.557913877927211
 46
0.0
 71
     1
 72
     5
  1
A
  7
Romans字体
 11
0.0000000000000001
 21
1.0
 31
0.0
 73
     1
 44
1.0
1001
AcDbBlockRepETag
1070
     1
1071
       22
1005
14C42
  0
MTEXT
  5
14C43
330
13E17
100
AcDbEntity
  8
图框
 62
     6
100
AcDbMText
 10
1127.40434942308
 20
556.3746573232886
 30
0.0
 40
2.651776162684904
 41
2.557913877927211
 46
0.0
 71
     1
 72
     5
  1
B
  7
Romans字体
 11
0.0000000000000001
 21
1.0
 31
0.0
 73
     1
 44
1.0
1001
AcDbBlockRepETag
1070
     1
1071
       23
1005
14C43
  0
MTEXT
  5
14C44
330
13E17
100
AcDbEntity
  8
图框
 62
     6
100
AcDbMText
 10
1127.40434942308
 20
607.5539372630998
 30
0.0
 40
2.651776162684904
 41
2.557913877927211
 46
0.0
 71
     1
 72
     5
  1
C
  7
Romans字体
 11
0.0000000000000001
 21
1.0
 31
0.0
 73
     1
 44
1.0
1001
AcDbBlockRepETag
1070
     1
1071
       24
1005
14C44
  0
MTEXT
  5
14C45
330
13E17
100
AcDbEntity
  8
图框
 62
     6
100
AcDbMText
 10
1127.40434942308
 20
658.7332172029115
 30
0.0
 40
2.651776162684904
 41
2.557913877927211
 46
0.0
 71
     1
 72
     5
  1
D
  7
Romans字体
 11
0.0000000000000001
 21
1.0
 31
0.0
 73
     1
 44
1.0
1001
AcDbBlockRepETag
1070
     1
1071
       25
1005
14C45
  0
LINE
  5
14C46
330
13E17
100
AcDbEntity
  8
图框
 62
     6
100
AcDbLine
 10
1130.411601781241
 20
634.0726090796082
 30
0.0
 11
1126.928502610363
 21
634.0726090796082
 31
0.0
1001
AcDbBlockRepETag
1070
     1
1071
       26
1005
14C46
  0
LINE
  5
14C47
330
13E17
100
AcDbEntity
  8
图框
 62
     6
100
AcDbLine
 10
1130.411601781241
 20
582.89332913979
 30
0.0
 11
1126.928502610363
 21
582.89332913979
 31
0.0
1001
AcDbBlockRepETag
1070
     1
1071
       27
1005
14C47
  0
MTEXT
  5
14C48
330
13E17
100
AcDbEntity
  8
图框
 62
     6
100
AcDbMText
 10
1105.329704038389
 20
483.6164543011163
 30
0.0
 40
2.651776162684904
 41
2.557913877927211
 46
0.0
 71
     1
 72
     5
  1
6
  7
Romans字体
 73
     1
 44
1.0
1001
AcDbBlockRepETag
1070
     1
1071
       28
1005
14C48
  0
LINE
  5
14C49
330
13E17
100
AcDbEntity
  8
图框
 62
     6
100
AcDbLine
 10
1081.088565155284
 20
484.0347692601515
 30
0.0
 11
1081.088565155284
 21
480.5347692601475
 31
0.0
1001
AcDbBlockRepETag
1070
     1
1071
       29
1005
14C49
  0
MTEXT
  5
14C4A
330
13E17
100
AcDbEntity
  8
图框
 62
     6
100
AcDbMText
 10
1055.900596365941
 20
483.520053108993
 30
0.0
 40
2.651776162684904
 41
2.557913877927211
 46
0.0
 71
     1
 72
     5
  1
5
  7
Romans字体
 73
     1
 44
1.0
1001
AcDbBlockRepETag
1070
     1
1071
       30
1005
14C4A
  0
LINE
  5
14C4B
330
13E17
100
AcDbEntity
  8
图框
 62
     6
100
AcDbLine
 10
1031.553386436349
 20
484.0347692601515
 30
0.0
 11
1031.553386436349
 21
480.5347692601475
 31
0.0
1001
AcDbBlockRepETag
1070
     1
1071
       31
1005
14C4B
  0
MTEXT
  5
14C4C
330
13E17
100
AcDbEntity
  8
图框
 62
     6
100
AcDbMText
 10
1006.383180575197
 20
483.5687958215896
 30
0.0
 40
2.651776162684904
 41
2.557913877927211
 46
0.0
 71
     1
 72
     5
  1
4
  7
Romans字体
 73
     1
 44
1.0
1001
AcDbBlockRepETag
1070
     1
1071
       32
1005
14C4C
  0
LINE
  5
14C4D
330
13E17
100
AcDbEntity
  8
图框
 62
     6
100
AcDbLine
 10
982.0182077173887
 20
484.0347692601515
 30
0.0
 11
982.0182077173887
 21
480.5347692601475
 31
0.0
1001
AcDbBlockRepETag
1070
     1
1071
       33
1005
14C4D
  0
MTEXT
  5
14C4E
330
13E17
100
AcDbEntity
  8
图框
 62
     6
100
AcDbMText
 10
956.8302389280352
 20
483.5989680297948
 30
0.0
 40
2.651776162684904
 41
2.557913877927211
 46
0.0
 71
     1
 72
     5
  1
3
  7
Romans字体
 73
     1
 44
1.0
1001
AcDbBlockRepETag
1070
     1
1071
       34
1005
14C4E
  0
LINE
  5
14C4F
330
13E17
100
AcDbEntity
  8
图框
 62
     6
100
AcDbLine
 10
932.4830289984245
 20
484.0347692601515
 30
0.0
 11
932.4830289984245
 21
480.5347692601475
 31
0.0
1001
AcDbBlockRepETag
1070
     1
1071
       35
1005
14C4F
  0
MTEXT
  5
14C50
330
13E17
100
AcDbEntity
  8
图框
 62
     6
100
AcDbMText
 10
906.0252349826365
 20
483.6475250013156
 30
0.0
 40
2.651776162684904
 41
2.557913877927211
 46
0.0
 71
     1
 72
     5
  1
2
  7
Romans字体
 73
     1
 44
1.0
1001
AcDbBlockRepETag
1070
     1
1071
       36
1005
14C50
  0
LINE
  5
14C51
330
13E17
100
AcDbEntity
  8
图框
 62
     6
100
AcDbLine
 10
882.9478502794648
 20
484.0347692601515
 30
0.0
 11
882.9478502794648
 21
480.5347692601475
 31
0.0
1001
AcDbBlockRepETag
1070
     1
1071
       37
1005
14C51
  0
MTEXT
  5
14C52
330
13E17
100
AcDbEntity
  8
图框
 62
     6
100
AcDbMText
 10
857.7598814901191
 20
483.651829494754
 30
0.0
 40
2.651776162684904
 41
2.557913877927211
 46
0.0
 71
     1
 72
     5
  1
1
  7
Romans字体
 73
     1
 44
1.0
1001
AcDbBlockRepETag
1070
     1
1071
       38
1005
14C52
  0
LINE
  5
14C53
330
13E17
100
AcDbEntity
  8
图框
370
    50
100
AcDbLine
 10
836.8548209370597
 20
484.0347692601515
 30
0.0
 11
1126.928502610363
 21
484.0347692601515
 31
0.0
1001
AcDbBlockRepETag
1070
     1
1071
       39
1005
14C53
  0
LINE
  5
14C54
330
13E17
100
AcDbEntity
  8
图框
370
    50
100
AcDbLine
 10
836.9128518455362
 20
484.0178684310246
 30
0.0
 11
836.9128518455394
 21
675.0207195125422
 31
0.0
1001
AcDbBlockRepETag
1070
     1
1071
       40
1005
14C54
  0
MTEXT
  5
14C55
330
13E17
100
AcDbEntity
  8
图框
 62
     6
100
AcDbMText
 10
833.8475685789031
 20
658.7332172029115
 30
0.0
 40
2.651776162684904
 41
2.557913877927211
 46
0.0
 71
     1
 72
     5
  1
D
  7
Romans字体
 11
0.0000000000000001
 21
1.0
 31
0.0
 73
     1
 44
1.0
1001
AcDbBlockRepETag
1070
     1
1071
       41
1005
14C55
  0
LINE
  5
14C56
330
13E17
100
AcDbEntity
  8
图框
 62
     6
100
AcDbLine
 10
836.9128518455386
 20
634.0726090796082
 30
0.0
 11
833.4128518455365
 21
634.0726090796082
 31
0.0
1001
AcDbBlockRepETag
1070
     1
1071
       42
1005
14C56
  0
MTEXT
  5
14C57
330
13E17
100
AcDbEntity
  8
图框
 62
     6
100
AcDbMText
 10
833.9039177480142
 20
607.5539372630998
 30
0.0
 40
2.651776162684904
 41
2.557913877927211
 46
0.0
 71
     1
 72
     5
  1
C
  7
Romans字体
 11
0.0000000000000001
 21
1.0
 31
0.0
 73
     1
 44
1.0
1001
AcDbBlockRepETag
1070
     1
1071
       43
1005
14C57
  0
LINE
  5
14C58
330
13E17
100
AcDbEntity
  8
图框
 62
     6
100
AcDbLine
 10
836.9128518455378
 20
582.89332913979
 30
0.0
 11
833.4128518455365
 21
582.89332913979
 31
0.0
1001
AcDbBlockRepETag
1070
     1
1071
       44
1005
14C58
  0
MTEXT
  5
14C59
330
13E17
100
AcDbEntity
  8
图框
 62
     6
100
AcDbMText
 10
833.9039177480142
 20
556.3746573232886
 30
0.0
 40
2.651776162684904
 41
2.557913877927211
 46
0.0
 71
     1
 72
     5
  1
B
  7
Romans字体
 11
0.0000000000000001
 21
1.0
 31
0.0
 73
     1
 44
1.0
1001
AcDbBlockRepETag
1070
     1
1071
       45
1005
14C59
  0
LINE
  5
14C5A
330
13E17
100
AcDbEntity
  8
图框
 62
     6
100
AcDbLine
 10
836.9128518455367
 20
531.714049199969
 30
0.0
 11
833.4128518455365
 21
531.714049199969
 31
0.0
1001
AcDbBlockRepETag
1070
     1
1071
       46
1005
14C5A
  0
MTEXT
  5
14C5B
330
13E17
100
AcDbEntity
  8
图框
 62
     6
100
AcDbMText
 10
833.9039177480142
 20
508.7896535755975
 30
0.0
 40
2.651776162684904
 41
2.557913877927211
 46
0.0
 71
     1
 72
     5
  1
A
  7
Romans字体
 11
0.0000000000000001
 21
1.0
 31
0.0
 73
     1
 44
1.0
1001
AcDbBlockRepETag
1070
     1
1071
       47
1005
14C5B
  0
LINE
  5
14C5C
330
13E17
100
AcDbEntity
  8
图框
370
    -3
100
AcDbLine
 10
836.9128518455394
 20
675.0207195125422
 30
0.0
 11
836.9128518455394
 21
684.5021384922564
 31
0.0
1001
AcDbBlockRepETag
1070
     1
1071
       48
1005
14C5C
  0
LINE
  5
14C5D
330
13E17
100
AcDbEntity
  8
图框
370
    -3
100
AcDbLine
 10
842.6237321475781
 20
675.5347692601515
 30
0.0
 11
842.6237321475781
 21
685.0161882398658
 31
0.0
1001
AcDbBlockRepETag
1070
     1
1071
       49
1005
14C5D
  0
LINE
  5
14C5E
330
13E17
100
AcDbEntity
  8
图框
370
    -3
100
AcDbLine
 10
848.3346124496179
 20
675.5347692601515
 30
0.0
 11
848.3346124496179
 21
685.0161882398658
 31
0.0
1001
AcDbBlockRepETag
1070
     1
1071
       50
1005
14C5E
  0
LINE
  5
14C5F
330
13E17
100
AcDbEntity
  8
图框
370
    -3
100
AcDbLine
 10
854.0454927516588
 20
675.5347692601515
 30
0.0
 11
854.0454927516588
 21
685.0161882398658
 31
0.0
1001
AcDbBlockRepETag
1070
     1
1071
       51
1005
14C5F
  0
LINE
  5
14C60
330
13E17
100
AcDbEntity
  8
图框
370
    -3
100
AcDbLine
 10
861.5351874539182
 20
675.5347692601515
 30
0.0
 11
861.5351874539182
 21
686.7901958362482
 31
0.0
1001
AcDbBlockRepETag
1070
     1
1071
       52
1005
14C60
  0
MTEXT
  5
14C61
330
13E17
100
AcDbEntity
  8
图框
 62
     6
100
AcDbMText
 10
1105.329704038389
 20
678.859919059449
 30
0.0
 40
2.651776162684904
 41
2.557913877927211
 46
0.0
 71
     1
 72
     5
  1
6
  7
Romans字体
 73
     1
 44
1.0
1001
AcDbBlockRepETag
1070
     1
1071
       53
1005
14C61
  0
LINE
  5
14C62
330
13E17
100
AcDbEntity
  8
图框
 62
     6
100
AcDbLine
 10
1081.088565155284
 20
679.0347692601516
 30
0.0
 11
1081.088565155284
 21
675.5347692601515
 31
0.0
1001
AcDbBlockRepETag
1070
     1
1071
       54
1005
14C62
  0
MTEXT
  5
14C63
330
13E17
100
AcDbEntity
  8
图框
 62
     6
100
AcDbMText
 10
1055.900596365941
 20
678.859919059449
 30
0.0
 40
2.651776162684904
 41
2.557913877927211
 46
0.0
 71
     1
 72
     5
  1
5
  7
Romans字体
 73
     1
 44
1.0
1001
AcDbBlockRepETag
1070
     1
1071
       55
1005
14C63
  0
LINE
  5
14C64
330
13E17
100
AcDbEntity
  8
图框
 62
     6
100
AcDbLine
 10
1031.553386436349
 20
679.0347692601516
 30
0.0
 11
1031.553386436349
 21
675.5347692601515
 31
0.0
1001
AcDbBlockRepETag
1070
     1
1071
       56
1005
14C64
  0
MTEXT
  5
14C65
330
13E17
100
AcDbEntity
  8
图框
 62
     6
100
AcDbMText
 10
1006.36541764698
 20
678.7312083656147
 30
0.0
 40
2.651776162684904
 41
2.557913877927211
 46
0.0
 71
     1
 72
     5
  1
4
  7
Romans字体
 73
     1
 44
1.0
1001
AcDbBlockRepETag
1070
     1
1071
       57
1005
14C65
  0
LINE
  5
14C66
330
13E17
100
AcDbEntity
  8
图框
 62
     6
100
AcDbLine
 10
982.0182077173887
 20
679.0347692601516
 30
0.0
 11
982.0182077173887
 21
675.5347692601515
 31
0.0
1001
AcDbBlockRepETag
1070
     1
1071
       58
1005
14C66
  0
MTEXT
  5
14C67
330
13E17
100
AcDbEntity
  8
图框
 62
     6
100
AcDbMText
 10
956.8302389280352
 20
678.859919059449
 30
0.0
 40
2.651776162684904
 41
2.557913877927211
 46
0.0
 71
     1
 72
     5
  1
3
  7
Romans字体
 73
     1
 44
1.0
1001
AcDbBlockRepETag
1070
     1
1071
       59
1005
14C67
  0
LINE
  5
14C68
330
13E17
100
AcDbEntity
  8
图框
 62
     6
100
AcDbLine
 10
932.4830289984245
 20
679.0347692601516
 30
0.0
 11
932.4830289984245
 21
675.5347692601515
 31
0.0
1001
AcDbBlockRepETag
1070
     1
1071
       60
1005
14C68
  0
MTEXT
  5
14C69
330
13E17
100
AcDbEntity
  8
图框
 62
     6
100
AcDbMText
 10
907.295060209082
 20
678.859919059449
 30
0.0
 40
2.651776162684904
 41
2.557913877927211
 46
0.0
 71
     1
 72
     5
  1
2
  7
Romans字体
 73
     1
 44
1.0
1001
AcDbBlockRepETag
1070
     1
1071
       61
1005
14C69
  0
LINE
  5
14C6A
330
13E17
100
AcDbEntity
  8
图框
 62
     6
100
AcDbLine
 10
882.9478502794648
 20
678.7962435131815
 30
0.0
 11
882.9478502794648
 21
675.5347692601515
 31
0.0
1001
AcDbBlockRepETag
1070
     1
1071
       62
1005
14C6A
  0
MTEXT
  5
14C6B
330
13E17
100
AcDbEntity
  8
图框
 62
     6
100
AcDbMText
 10
862.6286629643733
 20
678.859919059449
 30
0.0
 40
2.651776162684904
 41
2.557913877927211
 46
0.0
 71
     1
 72
     5
  1
1
  7
Romans字体
 73
     1
 44
1.0
1001
AcDbBlockRepETag
1070
     1
1071
       63
1005
14C6B
  0
LINE
  5
14C6C
330
13E17
100
AcDbEntity
  8
图框
370
    -3
100
AcDbLine
 10
836.9128518455394
 20
675.0207195125422
 30
0.0
 11
836.9128518455394
 21
686.7901958362482
 31
0.0
1001
AcDbBlockRepETag
1070
     1
1071
       64
1005
14C6C
  0
LINE
  5
14C6D
330
13E17
100
AcDbEntity
  8
图框
370
    50
100
AcDbLine
 10
836.9128518455394
 20
675.5347692601515
 30
0.0
 11
1126.928502610363
 21
675.5347692601515
 31
0.0
1001
AcDbBlockRepETag
1070
     1
1071
       65
1005
14C6D
  0
LINE
  5
14C6E
330
13E17
100
AcDbEntity
  8
图框
370
    -3
100
AcDbLine
 10
842.6237321475781
 20
675.5347692601515
 30
0.0
 11
842.6237321475781
 21
686.7901958362482
 31
0.0
1001
AcDbBlockRepETag
1070
     1
1071
       66
1005
14C6E
  0
LINE
  5
14C6F
330
13E17
100
AcDbEntity
  8
图框
370
    -3
100
AcDbLine
 10
848.3346124496179
 20
675.5347692601515
 30
0.0
 11
848.3346124496179
 21
686.7901958362482
 31
0.0
1001
AcDbBlockRepETag
1070
     1
1071
       67
1005
14C6F
  0
MTEXT
  5
14C70
102
{ACAD_XDICTIONARY
360
14D44
102
}
330
13E17
100
AcDbEntity
  8
图框
100
AcDbMText
 10
857.7903401027889
 20
686.7901958362482
 30
0.0
 40
1.958998408821398
 41
11.25542657609672
 46
7.489694702258906
 71
     4
 72
     5
  1
\pi2.6646;{\fSimSun|b0|i0|c134|p2;档案员\fFangSong_GB2312|b0|i0|c134|p49;\H0.7x;\P\pi1.4159;\Fromans|c134;Filing Clerk\fFangSong_GB2312|b0|i0|c134|p49; }
 11
-0.0000000000000002
 21
-1.0
 31
0.0
 73
     1
 44
1.0
1001
AcDbBlockRepETag
1070
     1
1071
       68
1005
14C70
1001
ACAD
1000
ACAD_MTEXT_DEFINED_HEIGHT_BEGIN
1070
    46
1040
7.489694702258906
1000
ACAD_MTEXT_DEFINED_HEIGHT_END
  0
MTEXT
  5
14C71
102
{ACAD_XDICTIONARY
360
14D46
102
}
330
13E17
100
AcDbEntity
  8
图框
100
AcDbMText
 10
845.479172298598
 20
686.7901958362482
 30
0.0
 40
1.958998408821398
 41
11.25542657609672
 46
5.710880302039671
 71
     4
 72
     5
  1
\pi0.63465;{\fSimSun|b0|i0|c134|p2;日期\Fromans|c134;/Date}
 11
-0.0000000000000002
 21
-1.0
 31
0.0
 73
     1
 44
1.0
1001
AcDbBlockRepETag
1070
     1
1071
       69
1005
14C71
1001
ACAD
1000
ACAD_MTEXT_DEFINED_HEIGHT_BEGIN
1070
    46
1040
5.710880302039671
1000
ACAD_MTEXT_DEFINED_HEIGHT_END
  0
LINE
  5
14C72
330
13E17
100
AcDbEntity
  8
图框
370
    -3
100
AcDbLine
 10
854.0454927516588
 20
675.5347692601515
 30
0.0
 11
854.0454927516588
 21
686.7901958362482
 31
0.0
1001
AcDbBlockRepETag
1070
     1
1071
       70
1005
14C72
  0
LINE
  5
14C73
330
13E17
100
AcDbEntity
  8
图框
370
    -3
100
AcDbLine
 10
1036.653967466372
 20
531.3291676047914
 30
0.0
 11
1036.653967466372
 21
484.0126019753161
 31
0.0
1001
AcDbBlockRepETag
1070
     1
1071
       71
1005
14C73
  0
LINE
  5
14C74
330
13E17
100
AcDbEntity
  8
图框
370
    -3
100
AcDbLine
 10
1047.483315900763
 20
507.6708838011533
 30
0.0
 11
1047.483315900763
 21
491.8986945987308
 31
0.0
1001
AcDbBlockRepETag
1070
     1
1071
       72
1005
14C74
  0
LINE
  5
14C75
330
13E17
100
AcDbEntity
  8
图框
370
    -3
100
AcDbLine
 10
1058.312664335153
 20
507.6708838011533
 30
0.0
 11
1058.312664335153
 21
484.0347692601515
 31
0.0
1001
AcDbBlockRepETag
1070
     1
1071
       73
1005
14C75
  0
LINE
  5
14C76
330
13E17
100
AcDbEntity
  8
图框
370
    25
100
AcDbLine
 10
1048.474135214456
 20
488.1095628329926
 30
0.0
 11
1054.946420288459
 21
488.1095628329926
 31
0.0
1001
AcDbBlockRepETag
1070
     1
1071
       74
1005
14C76
  0
LINE
  5
14C77
330
13E17
100
AcDbEntity
  8
图框
370
    25
100
AcDbLine
 10
1054.232527365989
 20
487.0761716842634
 30
0.0
 11
1049.156490914508
 21
486.4576273751
 31
0.0
1001
AcDbBlockRepETag
1070
     1
1071
       75
1005
14C77
  0
LINE
  5
14C78
330
13E17
100
AcDbEntity
  8
图框
370
    25
100
AcDbLine
 10
1054.232527365989
 20
489.1429539817209
 30
0.0
 11
1049.156490914508
 21
489.7614982908846
 31
0.0
1001
AcDbBlockRepETag
1070
     1
1071
       76
1005
14C78
  0
LINE
  5
14C79
330
13E17
100
AcDbEntity
  8
图框
370
    25
100
AcDbLine
 10
1049.156490914508
 20
489.7614982908846
 30
0.0
 11
1049.156490914508
 21
486.4576273751
 31
0.0
1001
AcDbBlockRepETag
1070
     1
1071
       77
1005
14C79
  0
LINE
  5
14C7A
330
13E17
100
AcDbEntity
  8
图框
370
    25
100
AcDbLine
 10
1054.232527365989
 20
489.1429539817209
 30
0.0
 11
1054.232527365989
 21
487.0761716842634
 31
0.0
1001
AcDbBlockRepETag
1070
     1
1071
       78
1005
14C7A
  0
CIRCLE
  5
14C7B
330
13E17
100
AcDbEntity
  8
图框
370
    25
100
AcDbCircle
 10
1042.502700458579
 20
488.1095628329926
 30
0.0
 40
1.651935457891863
1001
AcDbBlockRepETag
1070
     1
1071
       79
1005
14C7B
  0
CIRCLE
  5
14C7C
330
13E17
100
AcDbEntity
  8
图框
370
    25
100
AcDbCircle
 10
1042.502700458579
 20
488.1095628329926
 30
0.0
 40
1.033391148728775
1001
AcDbBlockRepETag
1070
     1
1071
       80
1005
14C7C
  0
LINE
  5
14C7D
330
13E17
100
AcDbEntity
  8
图框
370
    25
100
AcDbLine
 10
1040.136872078216
 20
488.1095628329926
 30
0.0
 11
1044.868528838943
 21
488.1095628329926
 31
0.0
1001
AcDbBlockRepETag
1070
     1
1071
       81
1005
14C7D
  0
LINE
  5
14C7E
330
13E17
100
AcDbEntity
  8
图框
370
    25
100
AcDbLine
 10
1042.502700458579
 20
490.475391213355
 30
0.0
 11
1042.502700458579
 21
485.743734452629
 31
0.0
1001
AcDbBlockRepETag
1070
     1
1071
       82
1005
14C7E
  0
LINE
  5
14C7F
330
13E17
100
AcDbEntity
  8
图框
370
    -3
100
AcDbLine
 10
1069.142012769546
 20
507.6708838011533
 30
0.0
 11
1069.142012769546
 21
491.8986945987308
 31
0.0
1001
AcDbBlockRepETag
1070
     1
1071
       83
1005
14C7F
  0
MTEXT
  5
14C80
330
13E17
100
AcDbEntity
  8
图框
100
AcDbMText
 10
1086.643735910939
 20
526.8006839312707
 30
0.0
 40
2.154898249703542
 41
13.34474941400573
 46
9.056967347041775
 71
     5
 72
     5
  1
图号{\Ftxt|c134;\P\Fromans|c134;\W0.65;Drawing No.}
 73
     1
 44
1.0
1001
AcDbBlockRepETag
1070
     1
1071
       84
1005
14C80
1001
ACAD
1000
ACAD_MTEXT_DEFINED_HEIGHT_BEGIN
1070
    46
1040
9.056967347041775
1000
ACAD_MTEXT_DEFINED_HEIGHT_END
  0
LINE
  5
14C81
330
13E17
100
AcDbEntity
  8
图框
370
    -3
100
AcDbLine
 10
1093.316110617942
 20
531.3291676047914
 30
0.0
 11
1093.316110617942
 21
495.8417418993347
 31
0.0
1001
AcDbBlockRepETag
1070
     1
1071
       85
1005
14C81
  0
LINE
  5
14C82
330
13E17
100
AcDbEntity
  8
图框
370
    -3
100
AcDbLine
 10
1047.473969770481
 20
531.3291676047914
 30
0.0
 11
1047.473969770481
 21
507.6708838011533
 31
0.0
1001
AcDbBlockRepETag
1070
     1
1071
       86
1005
14C82
  0
MTEXT
  5
14C83
330
13E17
100
AcDbEntity
  8
图框
100
AcDbMText
 10
1063.72733855235
 20
503.7278365005473
 30
0.0
 40
2.252848170144607
 41
10.82934843439208
 46
7.886094601212128
 71
     5
 72
     5
  1
重量\P{\Fromans|c134;Weight}
 73
     1
 44
1.0
1001
AcDbBlockRepETag
1070
     1
1071
       87
1005
14C83
1001
ACAD
1000
ACAD_MTEXT_DEFINED_HEIGHT_BEGIN
1070
    46
1040
7.886094601212128
1000
ACAD_MTEXT_DEFINED_HEIGHT_END
  0
LINE
  5
14C84
330
13E17
100
AcDbEntity
  8
图框
370
    -3
100
AcDbLine
 10
1036.653967466372
 20
519.5000257029746
 30
0.0
 11
1079.971361203936
 21
519.5000257029746
 31
0.0
1001
AcDbBlockRepETag
1070
     1
1071
       88
1005
14C84
  0
MTEXT
  5
14C85
330
13E17
100
AcDbEntity
  8
图框
100
AcDbMText
 10
1074.556686986741
 20
503.7278365005473
 30
0.0
 40
2.252848170144607
 41
10.82934843438984
 46
7.886094601212141
 71
     5
 72
     5
  1
数量\P{\Fromans|c134;Qty.}
 73
     1
 44
1.0
1001
AcDbBlockRepETag
1070
     1
1071
       89
1005
14C85
1001
ACAD
1000
ACAD_MTEXT_DEFINED_HEIGHT_BEGIN
1070
    46
1040
7.886094601212141
1000
ACAD_MTEXT_DEFINED_HEIGHT_END
  0
LINE
  5
14C86
330
13E17
100
AcDbEntity
  8
图框
370
    -3
100
AcDbLine
 10
1079.971361203936
 20
495.8417418993347
 30
0.0
 11
1126.928502610363
 21
495.8417418993342
 31
0.0
1001
AcDbBlockRepETag
1070
     1
1071
       90
1005
14C86
  0
LINE
  5
14C87
330
13E17
100
AcDbEntity
  8
图框
370
    -3
100
AcDbLine
 10
1079.971361203936
 20
504.7132992040975
 30
0.0
 11
1126.928502610363
 21
504.7132992040975
 31
0.0
1001
AcDbBlockRepETag
1070
     1
1071
       91
1005
14C87
  0
MTEXT
  5
14C88
330
13E17
100
AcDbEntity
  8
图框
100
AcDbMText
 10
1052.893317052817
 20
503.7278365005473
 30
0.0
 40
2.252848170144607
 41
10.83869456467139
 46
7.886094601212101
 71
     5
 72
     5
  1
版本\P{\Fromans|c134;REV.}
 73
     1
 44
1.0
1001
AcDbBlockRepETag
1070
     1
1071
       92
1005
14C88
1001
ACAD
1000
ACAD_MTEXT_DEFINED_HEIGHT_BEGIN
1070
    46
1040
7.886094601212101
1000
ACAD_MTEXT_DEFINED_HEIGHT_END
  0
MTEXT
  5
14C89
330
13E17
100
AcDbEntity
  8
图框
100
AcDbMText
 10
1042.068641683568
 20
503.7278365005473
 30
0.0
 40
2.252848170144607
 41
10.8293484343908
 46
7.886094601212136
 71
     5
 72
     5
  1
比例\P{\Fromans|c134;Scale}
 73
     1
 44
1.0
1001
AcDbBlockRepETag
1070
     1
1071
       93
1005
14C89
1001
ACAD
1000
ACAD_MTEXT_DEFINED_HEIGHT_BEGIN
1070
    46
1040
7.886094601212136
1000
ACAD_MTEXT_DEFINED_HEIGHT_END
  0
LINE
  5
14C8A
330
13E17
100
AcDbEntity
  8
图框
370
    -3
100
AcDbLine
 10
1036.653967466372
 20
507.6708838011533
 30
0.0
 11
1079.971361203936
 21
507.6708838011533
 31
0.0
1001
AcDbBlockRepETag
1070
     1
1071
       94
1005
14C8A
  0
LINE
  5
14C8B
330
13E17
100
AcDbEntity
  8
图框
370
    -3
100
AcDbLine
 10
1036.653967466372
 20
491.8986945987308
 30
0.0
 11
1079.971361203936
 21
491.8986945987308
 31
0.0
1001
AcDbBlockRepETag
1070
     1
1071
       95
1005
14C8B
  0
LINE
  5
14C8C
330
13E17
100
AcDbEntity
  8
图框
370
    -3
100
AcDbLine
 10
1079.971361203936
 20
531.3291676047914
 30
0.0
 11
1079.971361203936
 21
484.0125999975168
 31
0.0
1001
AcDbBlockRepETag
1070
     1
1071
       96
1005
14C8C
  0
MTEXT
  5
14C8D
330
13E17
100
AcDbEntity
  8
图框
100
AcDbMText
 10
1042.063968618426
 20
525.4145966538832
 30
0.0
 40
2.252848170144607
 41
10.82000230410933
 46
11.82914190181708
 71
     5
 72
     5
  1
表面处理\P{\Fromans|c134;Finish}
 73
     1
 44
1.0
1001
AcDbBlockRepETag
1070
     1
1071
       97
1005
14C8D
1001
ACAD
1000
ACAD_MTEXT_DEFINED_HEIGHT_BEGIN
1070
    46
1040
11.82914190181708
1000
ACAD_MTEXT_DEFINED_HEIGHT_END
  0
MTEXT
  5
14C8E
330
13E17
100
AcDbEntity
  8
图框
100
AcDbMText
 10
1042.063968618426
 20
513.5854547520639
 30
0.0
 40
2.252848170144607
 41
10.82000230410933
 46
11.8291419018212
 71
     5
 72
     5
  1
材料\P{\Fromans|c134;Material}
 73
     1
 44
1.0
1001
AcDbBlockRepETag
1070
     1
1071
       98
1005
14C8E
1001
ACAD
1000
ACAD_MTEXT_DEFINED_HEIGHT_BEGIN
1070
    46
1040
11.8291419018212
1000
ACAD_MTEXT_DEFINED_HEIGHT_END
  0
LINE
  5
14C8F
330
13E17
100
AcDbEntity
  8
图框
370
    -3
100
AcDbLine
 10
1079.971361203936
 20
522.27220025775
 30
0.0
 11
1126.928502610363
 21
522.27220025775
 31
0.0
1001
AcDbBlockRepETag
1070
     1
1071
       99
1005
14C8F
  0
LINE
  5
14C90
330
13E17
100
AcDbEntity
  8
图框
370
    -3
100
AcDbLine
 10
1079.971361203936
 20
513.5854547520641
 30
0.0
 11
1126.928502610363
 21
513.5854547520639
 31
0.0
1001
AcDbBlockRepETag
1070
     1
1071
      100
1005
14C90
  0
MTEXT
  5
14C91
330
13E17
100
AcDbEntity
  8
图框
100
AcDbMText
 10
1086.643735910939
 20
517.9288275049072
 30
0.0
 40
1.958998408821398
 41
13.34474941400573
 46
8.686745505685811
 71
     5
 72
     5
  1
产品代号\P{\Fromans|c134;Part Code}
 73
     1
 44
1.0
1001
AcDbBlockRepETag
1070
     1
1071
      101
1005
14C91
1001
ACAD
1000
ACAD_MTEXT_DEFINED_HEIGHT_BEGIN
1070
    46
1040
8.686745505685811
1000
ACAD_MTEXT_DEFINED_HEIGHT_END
  0
LINE
  5
14C92
330
13E17
100
AcDbEntity
  8
图框
370
    -3
100
AcDbLine
 10
946.9285026103634
 20
525.7982263931411
 30
0.0
 11
1036.653967466372
 21
525.7982263931411
 31
0.0
1001
AcDbBlockRepETag
1070
     1
1071
      102
1005
14C92
  0
LINE
  5
14C93
330
13E17
100
AcDbEntity
  8
图框
370
    -3
100
AcDbLine
 10
946.9285026103634
 20
520.2672851814959
 30
0.0
 11
1036.653967466372
 21
520.2672851814959
 31
0.0
1001
AcDbBlockRepETag
1070
     1
1071
      103
1005
14C93
  0
LINE
  5
14C94
330
13E17
100
AcDbEntity
  8
图框
370
    35
100
AcDbLine
 10
946.9285026103634
 20
531.3291676047914
 30
0.0
 11
1126.928502610363
 21
531.3291676047914
 31
0.0
1001
AcDbBlockRepETag
1070
     1
1071
      104
1005
14C94
  0
LINE
  5
14C95
330
13E17
100
AcDbEntity
  8
图框
370
    -3
100
AcDbLine
 10
990.6727612856927
 20
509.2054027581959
 30
0.0
 11
990.6727612856927
 21
484.0347692601515
 31
0.0
1001
AcDbBlockRepETag
1070
     1
1071
      105
1005
14C95
  0
MTEXT
  5
14C96
102
{ACAD_XDICTIONARY
360
14D48
102
}
330
13E17
100
AcDbEntity
  8
图框
100
AcDbMText
 10
997.1628169651232
 20
499.816589978722
 30
0.0
 40
2.252848170144607
 41
12.98011135886052
 46
6.19230880992475
 71
     5
 72
     5
  1
{\fSimSun|b0|i0|c134|p2;标准化}\PStand.
  7
Romans字体
 73
     1
 44
1.0
1001
AcDbBlockRepETag
1070
     1
1071
      106
1005
14C96
1001
ACAD
1000
ACAD_MTEXT_DEFINED_HEIGHT_BEGIN
1070
    46
1040
6.19230880992475
1000
ACAD_MTEXT_DEFINED_HEIGHT_END
  0
LINE
  5
14C97
330
13E17
100
AcDbEntity
  8
图框
370
    -3
100
AcDbLine
 10
975.4103773808022
 20
509.2054027581959
 30
0.0
 11
975.4103773808022
 21
484.0347692601515
 31
0.0
1001
AcDbBlockRepETag
1070
     1
1071
      107
1005
14C97
  0
MTEXT
  5
14C98
330
13E17
100
AcDbEntity
  8
图框
100
AcDbMText
 10
984.5089229802068
 20
511.9708733640202
 30
0.0
 40
2.448748011026752
 41
38.287899328693
 46
5.530941211648832
 71
     5
 72
     5
  1
  变更描述{\Fromans|c134;/Description}
 73
     1
 44
1.0
1001
AcDbBlockRepETag
1070
     1
1071
      108
1005
14C98
1001
ACAD
1000
ACAD_MTEXT_DEFINED_HEIGHT_BEGIN
1070
    46
1040
5.530941211648832
1000
ACAD_MTEXT_DEFINED_HEIGHT_END
  0
MTEXT
  5
14C99
102
{ACAD_XDICTIONARY
360
14D4A
102
}
330
13E17
100
AcDbEntity
  8
图框
100
AcDbMText
 10
1012.477254728976
 20
511.9708733640202
 30
0.0
 40
1.958998408821398
 41
17.64876416884548
 46
5.530941211649166
 71
     5
 72
     5
  1
{\fSimSun|b0|i0|c134|p2;签名\P\Fromans|c134;Signature} 
 73
     1
 44
1.0
1001
AcDbBlockRepETag
1070
     1
1071
      109
1005
14C99
1001
ACAD
1000
ACAD_MTEXT_DEFINED_HEIGHT_BEGIN
1070
    46
1040
5.530941211649166
1000
ACAD_MTEXT_DEFINED_HEIGHT_END
  0
MTEXT
  5
14C9A
102
{ACAD_XDICTIONARY
360
14D4C
102
}
330
13E17
100
AcDbEntity
  8
图框
100
AcDbMText
 10
960.7558556394856
 20
511.9708733640202
 30
0.0
 40
1.958998408821398
 41
9.218235352749283
 46
5.530941211648841
 71
     5
 72
     5
  1
{\fSimSun|b0|i0|c134|p2;处数\P\Fromans|c134;Number }
 73
     1
 44
1.0
1001
AcDbBlockRepETag
1070
     1
1071
      110
1005
14C9A
1001
ACAD
1000
ACAD_MTEXT_DEFINED_HEIGHT_BEGIN
1070
    46
1040
5.530941211648841
1000
ACAD_MTEXT_DEFINED_HEIGHT_END
  0
LINE
  5
14C9B
330
13E17
100
AcDbEntity
  8
图框
370
    -3
100
AcDbLine
 10
946.9285026103634
 20
514.7363439698449
 30
0.0
 11
1036.653967466372
 21
514.7363439698449
 31
0.0
1001
AcDbBlockRepETag
1070
     1
1071
      111
1005
14C9B
  0
LINE
  5
14C9C
330
13E17
100
AcDbEntity
  8
图框
370
    -3
100
AcDbLine
 10
946.9285026103634
 20
509.2054027581959
 30
0.0
 11
1036.653967466372
 21
509.2054027581959
 31
0.0
1001
AcDbBlockRepETag
1070
     1
1071
      112
1005
14C9C
  0
LINE
  5
14C9D
330
13E17
100
AcDbEntity
  8
图框
370
    -3
100
AcDbLine
 10
946.9285026103634
 20
502.9127443836848
 30
0.0
 11
1036.653967466372
 21
502.9127443836848
 31
0.0
1001
AcDbBlockRepETag
1070
     1
1071
      113
1005
14C9D
  0
LINE
  5
14C9E
330
13E17
100
AcDbEntity
  8
图框
370
    -3
100
AcDbLine
 10
946.9285026103634
 20
496.620086009173
 30
0.0
 11
1036.653967466372
 21
496.620086009173
 31
0.0
1001
AcDbBlockRepETag
1070
     1
1071
      114
1005
14C9E
  0
LINE
  5
14C9F
330
13E17
100
AcDbEntity
  8
图框
370
    35
380
     1
100
AcDbLine
 10
946.9285026103634
 20
531.3291676047914
 30
0.0
 11
946.9285026103634
 21
484.0347692601515
 31
0.0
1001
AcDbBlockRepETag
1070
     1
1071
      115
1005
14C9F
  0
LINE
  5
14CA0
330
13E17
100
AcDbEntity
  8
图框
370
    -3
100
AcDbLine
 10
1021.301636813399
 20
531.3291676047914
 30
0.0
 11
1021.301636813399
 21
484.0347692601515
 31
0.0
1001
AcDbBlockRepETag
1070
     1
1071
      116
1005
14CA0
  0
LINE
  5
14CA1
330
13E17
100
AcDbEntity
  8
图框
370
    -3
100
AcDbLine
 10
1003.652872644553
 20
531.3291676047914
 30
0.0
 11
1003.652872644553
 21
484.0347692601515
 31
0.0
1001
AcDbBlockRepETag
1070
     1
1071
      117
1005
14CA1
  0
LINE
  5
14CA2
330
13E17
100
AcDbEntity
  8
图框
370
    -3
100
AcDbLine
 10
965.3649733158603
 20
531.3291676047914
 30
0.0
 11
965.3649733158603
 21
509.2054027581959
 31
0.0
1001
AcDbBlockRepETag
1070
     1
1071
      118
1005
14CA2
  0
LINE
  5
14CA3
330
13E17
100
AcDbEntity
  8
图框
370
    -3
100
AcDbLine
 10
956.1467379631109
 20
531.3291676047914
 30
0.0
 11
956.1467379631109
 21
509.2054027581959
 31
0.0
1001
AcDbBlockRepETag
1070
     1
1071
      119
1005
14CA3
  0
MTEXT
  5
14CA4
102
{ACAD_XDICTIONARY
360
14D4E
102
}
330
13E17
100
AcDbEntity
  8
图框
100
AcDbMText
 10
951.537620286737
 20
511.9708733640202
 30
0.0
 40
1.958998408821398
 41
9.218235352747692
 46
5.530941211648832
 71
     5
 72
     5
  1
{\fSimSun|b0|i0|c134|p2;标记\P\Fromans|c134;Mark}
 73
     1
 44
1.0
1001
AcDbBlockRepETag
1070
     1
1071
      120
1005
14CA4
1001
ACAD
1000
ACAD_MTEXT_DEFINED_HEIGHT_BEGIN
1070
    46
1040
5.530941211648832
1000
ACAD_MTEXT_DEFINED_HEIGHT_END
  0
MTEXT
  5
14CA5
102
{ACAD_XDICTIONARY
360
14D50
102
}
330
13E17
100
AcDbEntity
  8
图框
100
AcDbMText
 10
953.4185582897936
 20
493.4737568219182
 30
0.0
 40
2.252848170144607
 41
12.98011135886041
 46
6.292658374510382
 71
     5
 72
     5
  1
{\fSimSun|b0|i0|c134|p2;审核\P\Fromans|c134;Checked}
 73
     1
 44
1.0
1001
AcDbBlockRepETag
1070
     1
1071
      121
1005
14CA5
1001
ACAD
1000
ACAD_MTEXT_DEFINED_HEIGHT_BEGIN
1070
    46
1040
6.292658374510382
1000
ACAD_MTEXT_DEFINED_HEIGHT_END
  0
MTEXT
  5
14CA6
102
{ACAD_XDICTIONARY
360
14D52
102
}
330
13E17
100
AcDbEntity
  8
图框
100
AcDbMText
 10
953.4185582897936
 20
499.8775635376777
 30
0.0
 40
2.252848170144607
 41
12.98011135886041
 46
6.070361692014189
 71
     5
 72
     5
  1
{\fSimSun|b0|i0|c134|p2;绘图\P\Fromans|c134;Drawn\Ftxt|c134; }
 73
     1
 44
1.0
1001
AcDbBlockRepETag
1070
     1
1071
      122
1005
14CA6
1001
ACAD
1000
ACAD_MTEXT_DEFINED_HEIGHT_BEGIN
1070
    46
1040
6.070361692014189
1000
ACAD_MTEXT_DEFINED_HEIGHT_END
  0
ARC
  5
14CA7
330
13E17
100
AcDbEntity
  8
图框
 62
     4
370
    35
100
AcDbCircle
 10
1086.900627017421
 20
490.0179944151195
 30
0.0
 40
4.063310408393665
100
AcDbArc
 50
18.95237904564806
 51
161.0476209543519
1001
AcDbBlockRepETag
1070
     1
1071
      123
1005
14CA7
  0
ARC
  5
14CA8
330
13E17
100
AcDbEntity
  8
图框
 62
     4
370
    35
100
AcDbCircle
 10
1086.900627017421
 20
490.0179944151195
 30
0.0
 40
4.063310408393665
100
AcDbArc
 50
198.952379045648
 51
341.0476209543519
1001
AcDbBlockRepETag
1070
     1
1071
      124
1005
14CA8
  0
LINE
  5
14CA9
330
13E17
100
AcDbEntity
  8
图框
 62
     4
370
    35
100
AcDbLine
 10
1083.057593369548
 20
488.6983035966752
 30
0.0
 11
1090.74366066529
 21
488.6983035966752
 31
0.0
1001
AcDbBlockRepETag
1070
     1
1071
      125
1005
14CA9
  0
LINE
  5
14CAA
330
13E17
100
AcDbEntity
  8
图框
 62
     4
370
    35
100
AcDbLine
 10
1083.057593369548
 20
491.3376852335652
 30
0.0
 11
1090.74366066529
 21
491.3376852335652
 31
0.0
1001
AcDbBlockRepETag
1070
     1
1071
      126
1005
14CAA
  0
MTEXT
  5
14CAB
330
13E17
100
AcDbEntity
  8
图框
 62
     1
370
    20
100
AcDbMText
 10
1083.034582879669
 20
491.0506288081688
 30
0.0
 40
2.005930044038334
 41
5.047240019334847
 46
0.0
 71
     1
 72
     5
  1
{\fArial|b0|i0|c0|p34;W}
  7
Chinese
 73
     1
 44
1.0
1001
AcDbBlockRepETag
1070
     1
1071
      127
1005
14CAB
  0
LINE
  5
14CAC
330
13E17
100
AcDbEntity
  8
图框
370
    -3
100
AcDbLine
 10
946.9285026103634
 20
490.327427634663
 30
0.0
 11
1036.653967466372
 21
490.327427634663
 31
0.0
1001
AcDbBlockRepETag
1070
     1
1071
      128
1005
14CAC
  0
LINE
  5
14CAD
330
13E17
100
AcDbEntity
  8
图框
370
    -3
100
AcDbLine
 10
959.9086139692238
 20
509.2054027581959
 30
0.0
 11
959.9086139692238
 21
484.0347692601515
 31
0.0
1001
AcDbBlockRepETag
1070
     1
1071
      129
1005
14CAD
  0
MTEXT
  5
14CAE
330
13E17
100
AcDbEntity
  8
图框
100
AcDbMText
 10
967.6594956750129
 20
506.0590735709403
 30
0.0
 40
2.252848170144607
 41
15.50176341157869
 46
6.292658374511246
 71
     5
 72
     5
  1
姓名{\Fromans|c134;/Name\Ftxt|c134; }
 73
     1
 44
1.0
1001
AcDbBlockRepETag
1070
     1
1071
      130
1005
14CAE
1001
ACAD
1000
ACAD_MTEXT_DEFINED_HEIGHT_BEGIN
1070
    46
1040
6.292658374511246
1000
ACAD_MTEXT_DEFINED_HEIGHT_END
  0
MTEXT
  5
14CAF
330
13E17
100
AcDbEntity
  8
图框
100
AcDbMText
 10
983.0415693332477
 20
506.0590735709403
 30
0.0
 40
2.252848170144607
 41
15.26238390489042
 46
6.2926583745112
 71
     5
 72
     5
  1
日期{\Fromans|c134;/Date}
 73
     1
 44
1.0
1001
AcDbBlockRepETag
1070
     1
1071
      131
1005
14CAF
1001
ACAD
1000
ACAD_MTEXT_DEFINED_HEIGHT_BEGIN
1070
    46
1040
6.2926583745112
1000
ACAD_MTEXT_DEFINED_HEIGHT_END
  0
LINE
  5
14CB0
330
13E17
100
AcDbEntity
  8
图框
370
    -3
100
AcDbLine
 10
946.9285026103634
 20
509.2054027581959
 30
0.0
 11
959.9086139692238
 21
502.9127443836848
 31
0.0
1001
AcDbBlockRepETag
1070
     1
1071
      132
1005
14CB0
  0
MTEXT
  5
14CB1
330
13E17
100
AcDbEntity
  8
图框
100
AcDbMText
 10
1012.931405110086
 20
506.0185715840725
 30
0.0
 40
2.252848170144607
 41
16.93492221063566
 46
0.0
 71
     5
 72
     5
  1
姓名{\Fromans|c134;/Name}
 73
     1
 44
1.0
1001
AcDbBlockRepETag
1070
     1
1071
      133
1005
14CB1
  0
MTEXT
  5
14CB2
330
13E17
100
AcDbEntity
  8
图框
100
AcDbMText
 10
1028.977802139886
 20
506.0590735709403
 30
0.0
 40
2.252848170144607
 41
15.35233065297283
 46
6.292658374511256
 71
     5
 72
     5
  1
日期{\Fromans|c134;/Date}
 73
     1
 44
1.0
1001
AcDbBlockRepETag
1070
     1
1071
      134
1005
14CB2
1001
ACAD
1000
ACAD_MTEXT_DEFINED_HEIGHT_BEGIN
1070
    46
1040
6.292658374511256
1000
ACAD_MTEXT_DEFINED_HEIGHT_END
  0
LINE
  5
14CB3
330
13E17
100
AcDbEntity
  8
图框
370
    -3
100
AcDbLine
 10
1003.652872644553
 20
502.9127443836848
 30
0.0
 11
990.6727612856927
 21
509.2054027581959
 31
0.0
1001
AcDbBlockRepETag
1070
     1
1071
      135
1005
14CB3
  0
MTEXT
  5
14CB4
102
{ACAD_XDICTIONARY
360
14D54
102
}
330
13E17
100
AcDbEntity
  8
图框
100
AcDbMText
 10
997.1628169651232
 20
487.1810984474071
 30
0.0
 40
2.252848170144607
 41
12.98011135886052
 46
6.292658374511517
 71
     5
 72
     5
  1
{\fSimSun|b0|i0|c134|p2;批准\P\Fromans|c134;Approved}
 73
     1
 44
1.0
1001
AcDbBlockRepETag
1070
     1
1071
      136
1005
14CB4
1001
ACAD
1000
ACAD_MTEXT_DEFINED_HEIGHT_BEGIN
1070
    46
1040
6.292658374511517
1000
ACAD_MTEXT_DEFINED_HEIGHT_END
  0
MTEXT
  5
14CB5
102
{ACAD_XDICTIONARY
360
14D56
102
}
330
13E17
100
AcDbEntity
  8
图框
100
AcDbMText
 10
953.4185582897936
 20
487.1810984474071
 30
0.0
 40
2.252848170144607
 41
12.98011135886041
 46
6.292658374511495
 71
     5
 72
     5
  1
{\fSimSun|b0|i0|c134|p2;工艺\P\Fromans|c134;Process}
 73
     1
 44
1.0
1001
AcDbBlockRepETag
1070
     1
1071
      137
1005
14CB5
1001
ACAD
1000
ACAD_MTEXT_DEFINED_HEIGHT_BEGIN
1070
    46
1040
6.292658374511495
1000
ACAD_MTEXT_DEFINED_HEIGHT_END
  0
MTEXT
  5
14CB6
102
{ACAD_XDICTIONARY
360
14D58
102
}
330
13E17
100
AcDbEntity
  8
图框
100
AcDbMText
 10
1028.977802139886
 20
511.9708733640202
 30
0.0
 40
1.958998408821398
 41
15.35233065297235
 46
5.530941211648913
 71
     5
 72
     5
  1
{\fSimSun|b0|i0|c134|p2;日期\P\Fromans|c134;Date}
 73
     1
 44
1.0
1001
AcDbBlockRepETag
1070
     1
1071
      138
1005
14CB6
1001
ACAD
1000
ACAD_MTEXT_DEFINED_HEIGHT_BEGIN
1070
    46
1040
5.530941211648913
1000
ACAD_MTEXT_DEFINED_HEIGHT_END
  0
MTEXT
  5
14CB7
330
13E17
100
AcDbEntity
  8
图框
100
AcDbMText
 10
1086.643735910939
 20
509.1493769780809
 30
0.0
 40
2.154898249703542
 41
13.34474941400573
 46
8.87215554796615
 71
     5
 72
     5
  1
产品料号\P{\Fromans|c134;Part No.}
 73
     1
 44
1.0
1001
AcDbBlockRepETag
1070
     1
1071
      139
1005
14CB7
1001
ACAD
1000
ACAD_MTEXT_DEFINED_HEIGHT_BEGIN
1070
    46
1040
8.87215554796615
1000
ACAD_MTEXT_DEFINED_HEIGHT_END
  0
MTEXT
  5
14CB8
330
13E17
100
AcDbEntity
  8
图框
100
AcDbMText
 10
1086.643735910939
 20
500.2775205517163
 30
0.0
 40
1.958998408821398
 41
13.34474941400573
 46
8.871557304763321
 71
     5
 72
     5
  1
产品名称\P{\Fromans|c134;Part Name}
 73
     1
 44
1.0
1001
AcDbBlockRepETag
1070
     1
1071
      140
1005
14CB8
1001
ACAD
1000
ACAD_MTEXT_DEFINED_HEIGHT_BEGIN
1070
    46
1040
8.871557304763321
1000
ACAD_MTEXT_DEFINED_HEIGHT_END
  0
LINE
  5
14CB9
330
13E17
100
AcDbEntity
  8
图框
 62
     1
370
    18
100
AcDbLine
 10
833.4128518455365
 20
690.5347692601515
 30
0.0
 11
833.4128518455365
 21
480.5347692601515
 31
0.0
1001
AcDbBlockRepETag
1070
     1
1071
      141
1005
14CB9
  0
LINE
  5
14CBA
330
13E17
100
AcDbEntity
  8
图框
 62
     1
370
    18
100
AcDbLine
 10
833.4128518455365
 20
480.5347692601515
 30
0.0
 11
1130.411601781236
 21
480.5347692601515
 31
0.0
1001
AcDbBlockRepETag
1070
     1
1071
      142
1005
14CBA
  0
LINE
  5
14CBB
330
13E17
100
AcDbEntity
  8
图框
 62
     1
370
    18
100
AcDbLine
 10
833.4128518455365
 20
690.5347692601515
 30
0.0
 11
1130.411601781236
 21
690.5347692601515
 31
0.0
1001
AcDbBlockRepETag
1070
     1
1071
      143
1005
14CBB
  0
LINE
  5
14CBC
330
13E17
100
AcDbEntity
  8
图框
 62
     1
370
    18
100
AcDbLine
 10
1130.411601781236
 20
480.5347692601515
 30
0.0
 11
1130.411601781236
 21
690.5347692601515
 31
0.0
1001
AcDbBlockRepETag
1070
     1
1071
      144
1005
14CBC
  0
LINE
  5
14CBD
330
13E17
100
AcDbEntity
  8
图框
370
    18
100
AcDbLine
 10
836.9128518455394
 20
686.7901958362482
 30
0.0
 11
861.5351874539182
 21
686.7901958362482
 31
0.0
1001
AcDbBlockRepETag
1070
     1
1071
      145
1005
14CBD
  0
LINE
  5
14CBE
330
13E17
100
AcDbEntity
  8
图框
370
    50
100
AcDbLine
 10
1126.928502610363
 20
484.3410054693078
 30
0.0
 11
1126.928502610363
 21
675.5347692601515
 31
0.0
1001
AcDbBlockRepETag
1070
     1
1071
      146
1005
14CBE
  0
MTEXT
  5
14CBF
330
13E17
100
AcDbEntity
  8
图框
 62
     3
100
AcDbMText
 10
1052.897990117958
 20
495.8417418993364
 30
0.0
 40
2.985513575034151
 41
10.82934843439114
 46
7.886094601211307
 71
     5
 72
     5
  1
V1.2
  7
Romans字体
 73
     1
 44
1.0
1001
AcDbBlockRepETag
1070
     1
1071
      147
1005
14CBF
1001
ACAD
1000
ACAD_MTEXT_DEFINED_HEIGHT_BEGIN
1070
    46
1040
7.886094601211307
1000
ACAD_MTEXT_DEFINED_HEIGHT_END
  0
LINE
  5
14CC0
330
13E17
100
AcDbEntity
  8
图框
 62
     6
100
AcDbLine
 10
1126.911601781236
 20
531.714049199969
 30
0.0
 11
1130.411601781236
 21
531.714049199969
 31
0.0
1001
AcDbBlockRepETag
1070
     1
1071
      148
1005
14CC0
  0
MTEXT
  5
14CC1
330
13E17
100
AcDbEntity
  8
图框
 62
     3
100
AcDbMText
 10
983.0415693332477
 20
493.4737568219173
 30
0.0
 40
2.487927979195124
 41
15.26238390489062
 46
6.292658374511042
 71
     5
 72
     5
  1
{\W0.7;16.06.2022}
  7
Romans字体
 73
     1
 44
1.0
1001
AcDbBlockRepETag
1070
     1
1071
      149
1005
14CC1
1001
ACAD
1000
ACAD_MTEXT_DEFINED_HEIGHT_BEGIN
1070
    46
1040
6.292658374511042
1000
ACAD_MTEXT_DEFINED_HEIGHT_END
  0
MTEXT
  5
14CC2
330
13E17
100
AcDbEntity
  8
图框
 62
     3
100
AcDbMText
 10
1028.932828765844
 20
487.1810984474075
 30
0.0
 40
2.487927979195124
 41
15.26238390489062
 46
6.292658374511042
 71
     5
 72
     5
  1
{\W0.7;16.06.2022}
  7
Romans字体
 73
     1
 44
1.0
1001
AcDbBlockRepETag
1070
     1
1071
      150
1005
14CC2
1001
ACAD
1000
ACAD_MTEXT_DEFINED_HEIGHT_BEGIN
1070
    46
1040
6.292658374511042
1000
ACAD_MTEXT_DEFINED_HEIGHT_END
  0
ENDBLK
  5
13EAE
330
13E17
100
AcDbEntity
  8
0
100
AcDbBlockEnd
  0
BLOCK
  5
1442D
330
1442C
100
AcDbEntity
  8
0
100
AcDbBlockBegin
  2
*D2
 70
     1
 10
0.0
 20
0.0
 30
0.0
  3
*D2
  1

  0
LINE
  5
146A8
330
1442C
100
AcDbEntity
  8
DIM
 62
     6
370
    -2
100
AcDbLine
 10
417.9008306649542
 20
234.1974863536241
 30
0.0
 11
417.9008306649542
 21
230.9852860923183
 31
0.0
  0
LINE
  5
146A9
330
1442C
100
AcDbEntity
  8
DIM
 62
     6
370
    -2
100
AcDbLine
 10
408.3028389407026
 20
232.9471202606631
 30
0.0
 11
408.3028389407026
 21
230.9852860923183
 31
0.0
  0
LINE
  5
146AA
330
1442C
100
AcDbEntity
  8
DIM
 62
     1
370
    -2
100
AcDbLine
 10
417.4008306649542
 20
231.2852860923183
 30
0.0
 11
408.8028389407027
 21
231.2852860923183
 31
0.0
  0
SOLID
  5
146AB
330
1442C
100
AcDbEntity
  8
DIM
 62
     1
100
AcDbTrace
 10
417.4008306649542
 20
231.3686194256516
 30
0.0
 11
417.4008306649542
 21
231.2019527589849
 31
0.0
 12
417.9008306649542
 22
231.2852860923183
 32
0.0
 13
417.9008306649542
 23
231.2852860923183
 33
0.0
  0
SOLID
  5
146AC
330
1442C
100
AcDbEntity
  8
DIM
 62
     1
100
AcDbTrace
 10
408.8028389407027
 20
231.3686194256516
 30
0.0
 11
408.8028389407027
 21
231.2019527589849
 31
0.0
 12
408.3028389407026
 22
231.2852860923183
 32
0.0
 13
408.3028389407026
 23
231.2852860923183
 33
0.0
  0
MTEXT
  5
146AD
330
1442C
100
AcDbEntity
  8
DIM
 62
     4
100
AcDbMText
 10
413.1018348028286
 20
232.0852860923183
 30
0.0
 40
1.0
 41
0.0
 46
0.0
 71
     5
 72
     1
  1
\A1;9.6
  7
Romans字体
 73
     1
 44
1.0
  0
POINT
  5
146AE
330
1442C
100
AcDbEntity
  8
Defpoints
 62
     0
100
AcDbPoint
 10
417.9008306649542
 20
234.3974863536241
 30
0.0
  0
POINT
  5
146AF
330
1442C
100
AcDbEntity
  8
Defpoints
 62
     0
100
AcDbPoint
 10
408.3028389407026
 20
233.1471202606631
 30
0.0
  0
POINT
  5
146B0
330
1442C
100
AcDbEntity
  8
Defpoints
 62
     0
100
AcDbPoint
 10
408.3028389407026
 20
231.2852860923183
 30
0.0
  0
ENDBLK
  5
1442E
330
1442C
100
AcDbEntity
  8
0
100
AcDbBlockEnd
  0
BLOCK
  5
1443A
330
14439
100
AcDbEntity
  8
0
100
AcDbBlockBegin
  2
*D3
 70
     1
 10
0.0
 20
0.0
 30
0.0
  3
*D3
  1

  0
LINE
  5
146B1
330
14439
100
AcDbEntity
  8
DIM
 62
     6
370
    -2
100
AcDbLine
 10
408.3028389407026
 20
232.5112074260004
 30
0.0
 11
408.3028389407026
 21
228.6521134423667
 31
0.0
  0
LINE
  5
146B2
330
14439
100
AcDbEntity
  8
DIM
 62
     6
370
    -2
100
AcDbLine
 10
437.3967513549203
 20
234.3474549743552
 30
0.0
 11
437.3967513549203
 21
228.6521134423667
 31
0.0
  0
LINE
  5
146B3
330
14439
100
AcDbEntity
  8
DIM
 62
     1
370
    -2
100
AcDbLine
 10
408.8028389407027
 20
228.9521134423667
 30
0.0
 11
436.8967513549203
 21
228.9521134423667
 31
0.0
  0
SOLID
  5
146B4
330
14439
100
AcDbEntity
  8
DIM
 62
     1
100
AcDbTrace
 10
408.8028389407027
 20
229.0354467757001
 30
0.0
 11
408.8028389407027
 21
228.8687801090334
 31
0.0
 12
408.3028389407026
 22
228.9521134423667
 32
0.0
 13
408.3028389407026
 23
228.9521134423667
 33
0.0
  0
SOLID
  5
146B5
330
14439
100
AcDbEntity
  8
DIM
 62
     1
100
AcDbTrace
 10
436.8967513549203
 20
229.0354467757001
 30
0.0
 11
436.8967513549203
 21
228.8687801090334
 31
0.0
 12
437.3967513549203
 22
228.9521134423667
 32
0.0
 13
437.3967513549203
 23
228.9521134423667
 33
0.0
  0
MTEXT
  5
146B6
330
14439
100
AcDbEntity
  8
DIM
 62
     4
100
AcDbMText
 10
422.8497951478113
 20
229.7521134423667
 30
0.0
 40
1.0
 41
0.0
 46
0.0
 71
     5
 72
     1
  1
\A1;29.1
  7
Romans字体
 73
     1
 44
1.0
  0
POINT
  5
146B7
330
14439
100
AcDbEntity
  8
Defpoints
 62
     0
100
AcDbPoint
 10
408.3028389407026
 20
232.7112074260004
 30
0.0
  0
POINT
  5
146B8
330
14439
100
AcDbEntity
  8
Defpoints
 62
     0
100
AcDbPoint
 10
437.3967513549203
 20
234.5474549743552
 30
0.0
  0
POINT
  5
146B9
330
14439
100
AcDbEntity
  8
Defpoints
 62
     0
100
AcDbPoint
 10
437.3967513549203
 20
228.9521134423667
 30
0.0
  0
ENDBLK
  5
1443B
330
14439
100
AcDbEntity
  8
0
100
AcDbBlockEnd
  0
BLOCK
  5
14447
330
14446
100
AcDbEntity
  8
0
100
AcDbBlockBegin
  2
*D4
 70
     1
 10
0.0
 20
0.0
 30
0.0
  3
*D4
  1

  0
LINE
  5
146BA
330
14446
100
AcDbEntity
  8
DIM
 62
     6
370
    -2
100
AcDbLine
 10
408.1028389407026
 20
239.1464926758236
 30
0.0
 11
403.7468305764948
 21
239.1464926758236
 31
0.0
  0
LINE
  5
146BB
330
14446
100
AcDbEntity
  8
DIM
 62
     6
370
    -2
100
AcDbLine
 10
408.1028389407026
 20
233.1477478478492
 30
0.0
 11
403.7468305764948
 21
233.1477478478492
 31
0.0
  0
LINE
  5
146BC
330
14446
100
AcDbEntity
  8
DIM
 62
     1
370
    -2
100
AcDbLine
 10
404.0468305764949
 20
238.6464926758236
 30
0.0
 11
404.0468305764949
 21
233.6477478478492
 31
0.0
  0
SOLID
  5
146BD
330
14446
100
AcDbEntity
  8
DIM
 62
     1
100
AcDbTrace
 10
403.9634972431617
 20
238.6464926758236
 30
0.0
 11
404.1301639098283
 21
238.6464926758236
 31
0.0
 12
404.0468305764949
 22
239.1464926758236
 32
0.0
 13
404.0468305764949
 23
239.1464926758236
 33
0.0
  0
SOLID
  5
146BE
330
14446
100
AcDbEntity
  8
DIM
 62
     1
100
AcDbTrace
 10
403.9634972431617
 20
233.6477478478492
 30
0.0
 11
404.1301639098283
 21
233.6477478478492
 31
0.0
 12
404.0468305764949
 22
233.1477478478492
 32
0.0
 13
404.0468305764949
 23
233.1477478478492
 33
0.0
  0
MTEXT
  5
146BF
330
14446
100
AcDbEntity
  8
DIM
 62
     4
100
AcDbMText
 10
403.2468305764949
 20
236.1471202618365
 30
0.0
 40
1.0
 41
0.0
 46
0.0
 71
     5
 72
     1
  1
\A1;%%C6
  7
Romans字体
 11
0.0000000000000001
 21
1.0
 31
0.0
 73
     1
 44
1.0
  0
POINT
  5
146C0
330
14446
100
AcDbEntity
  8
Defpoints
 62
     0
100
AcDbPoint
 10
408.3028389407026
 20
239.1464926758236
 30
0.0
  0
POINT
  5
146C1
330
14446
100
AcDbEntity
  8
Defpoints
 62
     0
100
AcDbPoint
 10
408.3028389407026
 20
233.1477478478492
 30
0.0
  0
POINT
  5
146C2
330
14446
100
AcDbEntity
  8
Defpoints
 62
     0
100
AcDbPoint
 10
404.0468305764949
 20
233.1477478478492
 30
0.0
  0
ENDBLK
  5
14448
330
14446
100
AcDbEntity
  8
0
100
AcDbBlockEnd
  0
BLOCK
  5
14454
330
14453
100
AcDbEntity
  8
0
100
AcDbBlockBegin
  2
*D5
 70
     1
 10
0.0
 20
0.0
 30
0.0
  3
*D5
  1

  0
LINE
  5
146C3
330
14453
100
AcDbEntity
  8
DIM
 62
     6
370
    -2
100
AcDbLine
 10
435.5101920632441
 20
238.1467018709493
 30
0.0
 11
440.6132915707244
 21
238.1467018709493
 31
0.0
  0
LINE
  5
146C4
330
14453
100
AcDbEntity
  8
DIM
 62
     6
370
    -2
100
AcDbLine
 10
435.5101920632441
 20
234.1475386527228
 30
0.0
 11
440.6132915707244
 21
234.1475386527228
 31
0.0
  0
LINE
  5
146C5
330
14453
100
AcDbEntity
  8
DIM
 62
     1
370
    -2
100
AcDbLine
 10
440.3132915707244
 20
237.6467018709493
 30
0.0
 11
440.3132915707244
 21
234.6475386527228
 31
0.0
  0
SOLID
  5
146C6
330
14453
100
AcDbEntity
  8
DIM
 62
     1
100
AcDbTrace
 10
440.2299582373911
 20
237.6467018709493
 30
0.0
 11
440.3966249040577
 21
237.6467018709493
 31
0.0
 12
440.3132915707244
 22
238.1467018709493
 32
0.0
 13
440.3132915707244
 23
238.1467018709493
 33
0.0
  0
SOLID
  5
146C7
330
14453
100
AcDbEntity
  8
DIM
 62
     1
100
AcDbTrace
 10
440.2299582373911
 20
234.6475386527228
 30
0.0
 11
440.3966249040577
 21
234.6475386527228
 31
0.0
 12
440.3132915707244
 22
234.1475386527228
 32
0.0
 13
440.3132915707244
 23
234.1475386527228
 33
0.0
  0
MTEXT
  5
146C8
330
14453
100
AcDbEntity
  8
DIM
 62
     4
100
AcDbMText
 10
439.5132915707243
 20
236.147120261836
 30
0.0
 40
1.0
 41
0.0
 46
0.0
 71
     5
 72
     1
  1
\A1;%%C4
  7
Romans字体
 11
0.0000000000000001
 21
1.0
 31
0.0
 73
     1
 44
1.0
  0
POINT
  5
146C9
330
14453
100
AcDbEntity
  8
Defpoints
 62
     0
100
AcDbPoint
 10
435.3101920632441
 20
238.1467018709493
 30
0.0
  0
POINT
  5
146CA
330
14453
100
AcDbEntity
  8
Defpoints
 62
     0
100
AcDbPoint
 10
435.3101920632441
 20
234.1475386527228
 30
0.0
  0
POINT
  5
146CB
330
14453
100
AcDbEntity
  8
Defpoints
 62
     0
100
AcDbPoint
 10
440.3132915707244
 20
234.1475386527228
 30
0.0
  0
ENDBLK
  5
14455
330
14453
100
AcDbEntity
  8
0
100
AcDbBlockEnd
  0
BLOCK
  5
14461
330
14460
100
AcDbEntity
  8
0
100
AcDbBlockBegin
  2
*D6
 70
     1
 10
0.0
 20
0.0
 30
0.0
  3
*D6
  1

  0
LINE
  5
146CC
330
14460
100
AcDbEntity
  8
DIM
 62
     6
370
    -2
100
AcDbLine
 10
412.3826379256851
 20
238.6465972733867
 30
0.0
 11
412.0700054311233
 21
238.6465972733867
 31
0.0
  0
LINE
  5
146CD
330
14460
100
AcDbEntity
  8
DIM
 62
     6
370
    -2
100
AcDbLine
 10
412.3826379256851
 20
233.6476432502862
 30
0.0
 11
412.0700054311233
 21
233.6476432502862
 31
0.0
  0
LINE
  5
146CE
330
14460
100
AcDbEntity
  8
DIM
 62
     1
370
    -2
100
AcDbLine
 10
412.3700054311233
 20
234.1476432502862
 30
0.0
 11
412.3700054311233
 21
238.1465972733867
 31
0.0
  0
LINE
  5
146CF
330
14460
100
AcDbEntity
  8
DIM
 62
     1
370
    -2
100
AcDbLine
 10
412.3700054311233
 20
238.6465972733867
 30
0.0
 11
412.3700054311233
 21
241.4704067971963
 31
0.0
  0
SOLID
  5
146D0
330
14460
100
AcDbEntity
  8
DIM
 62
     1
100
AcDbTrace
 10
412.2866720977898
 20
234.1476432502862
 30
0.0
 11
412.4533387644564
 21
234.1476432502862
 31
0.0
 12
412.3700054311233
 22
233.6476432502862
 32
0.0
 13
412.3700054311233
 23
233.6476432502862
 33
0.0
  0
SOLID
  5
146D1
330
14460
100
AcDbEntity
  8
DIM
 62
     1
100
AcDbTrace
 10
412.2866720977898
 20
238.1465972733867
 30
0.0
 11
412.4533387644564
 21
238.1465972733867
 31
0.0
 12
412.3700054311233
 22
238.6465972733867
 32
0.0
 13
412.3700054311233
 23
238.6465972733867
 33
0.0
  0
MTEXT
  5
146D2
330
14460
100
AcDbEntity
  8
DIM
 62
     4
100
AcDbMText
 10
411.5700054311232
 20
240.5632639400535
 30
0.0
 40
1.0
 41
0.0
 46
0.0
 71
     5
 72
     1
  1
\A1;%%CD
  7
Romans字体
 11
0.0000000000000001
 21
1.0
 31
0.0
 73
     1
 44
1.0
  0
POINT
  5
146D3
330
14460
100
AcDbEntity
  8
Defpoints
 62
     0
100
AcDbPoint
 10
412.5826379256852
 20
238.6465972733867
 30
0.0
  0
POINT
  5
146D4
330
14460
100
AcDbEntity
  8
Defpoints
 62
     0
100
AcDbPoint
 10
412.5826379256852
 20
233.6476432502862
 30
0.0
  0
POINT
  5
146D5
330
14460
100
AcDbEntity
  8
Defpoints
 62
     0
100
AcDbPoint
 10
412.3700054311233
 20
233.6476432502862
 30
0.0
  0
ENDBLK
  5
14462
330
14460
100
AcDbEntity
  8
0
100
AcDbBlockEnd
  0
BLOCK
  5
1446E
330
1446D
100
AcDbEntity
  8
0
100
AcDbBlockBegin
  2
*D7
 70
     1
 10
0.0
 20
0.0
 30
0.0
  3
*D7
  1

  0
LINE
  5
146D6
330
1446D
100
AcDbEntity
  8
DIM
 62
     6
370
    -2
100
AcDbLine
 10
408.9686831756479
 20
237.8967541700486
 30
0.0
 11
405.8479584067763
 21
237.8967541700486
 31
0.0
  0
LINE
  5
146D7
330
1446D
100
AcDbEntity
  8
DIM
 62
     6
370
    -2
100
AcDbLine
 10
408.9686831756479
 20
234.3974863536241
 30
0.0
 11
405.8479584067763
 21
234.3974863536241
 31
0.0
  0
LINE
  5
146D8
330
1446D
100
AcDbEntity
  8
DIM
 62
     1
370
    -2
100
AcDbLine
 10
406.1479584067763
 20
237.3967541700487
 30
0.0
 11
406.1479584067763
 21
234.8974863536241
 31
0.0
  0
SOLID
  5
146D9
330
1446D
100
AcDbEntity
  8
DIM
 62
     1
100
AcDbTrace
 10
406.0646250734428
 20
237.3967541700487
 30
0.0
 11
406.2312917401097
 21
237.3967541700487
 31
0.0
 12
406.1479584067763
 22
237.8967541700486
 32
0.0
 13
406.1479584067763
 23
237.8967541700486
 33
0.0
  0
SOLID
  5
146DA
330
1446D
100
AcDbEntity
  8
DIM
 62
     1
100
AcDbTrace
 10
406.0646250734428
 20
234.8974863536241
 30
0.0
 11
406.2312917401097
 21
234.8974863536241
 31
0.0
 12
406.1479584067763
 22
234.3974863536241
 32
0.0
 13
406.1479584067763
 23
234.3974863536241
 33
0.0
  0
MTEXT
  5
146DB
330
1446D
100
AcDbEntity
  8
DIM
 62
     4
100
AcDbMText
 10
405.3479584067763
 20
236.1471202618365
 30
0.0
 40
1.0
 41
0.0
 46
0.0
 71
     5
 72
     1
  1
\A1;%%Cd
  7
Romans字体
 11
0.0000000000000001
 21
1.0
 31
0.0
 73
     1
 44
1.0
  0
POINT
  5
146DC
330
1446D
100
AcDbEntity
  8
Defpoints
 62
     0
100
AcDbPoint
 10
409.1686831756478
 20
237.8967541700486
 30
0.0
  0
POINT
  5
146DD
330
1446D
100
AcDbEntity
  8
Defpoints
 62
     0
100
AcDbPoint
 10
409.1686831756478
 20
234.3974863536241
 30
0.0
  0
POINT
  5
146DE
330
1446D
100
AcDbEntity
  8
Defpoints
 62
     0
100
AcDbPoint
 10
406.1479584067763
 20
234.3974863536241
 30
0.0
  0
ENDBLK
  5
1446F
330
1446D
100
AcDbEntity
  8
0
100
AcDbBlockEnd
  0
ENDSEC
  0
SECTION
  2
ENTITIES
  0
HATCH
  5
28AE
330
1F
100
AcDbEntity
  8
图层 1
 62
     7
100
AcDbHatch
 10
0.0
 20
0.0
 30
0.0
210
0.0
220
0.0
230
1.0
  2
SOLID
 70
     1
 71
     0
 91
        1
 92
        1
 93
        2
 72
     4
 94
        3
 73
     0
 74
     0
 95
       17
 96
       13
 40
0.0
 40
0.0
 40
0.0
 40
0.0
 40
0.3527780104152769
 40
0.3527780104152769
 40
0.3527780104152769
 40
0.7055560208305538
 40
0.7055560208305538
 40
0.7055560208305538
 40
1.058334031245828
 40
1.058334031245828
 40
1.058334031245828
 40
1.411112041661104
 40
1.411112041661104
 40
1.411112041661104
 40
1.411112041661104
 10
11.07013262565829
 20
29.50312817963231
 10
11.07013262565829
 20
29.50312817963231
 10
10.9431807732774
 20
29.50312817963231
 10
10.9431807732774
 20
29.50312817963231
 10
10.9431807732774
 20
29.50312817963231
 10
10.85843136843155
 20
29.22786486877117
 10
10.85843136843155
 20
29.22786486877117
 10
10.85843136843155
 20
29.22786486877117
 10
10.90080607085448
 20
29.2068497724476
 10
10.90080607085448
 20
29.2068497724476
 10
10.94455881238059
 20
29.31571486159919
 10
11.00346998404173
 20
29.40907701083995
 10
11.07013262565829
 20
29.50312817963231
 72
     1
 10
11.07013262565829
 20
29.50312817963231
 11
11.07013262565829
 21
29.50312817963231
 97
        0
 75
     0
 76
     1
 98
        0
450
        0
451
        0
460
0.0
461
0.0
452
        0
462
0.0
453
        0
470

  0
HATCH
  5
2C65
330
1F
100
AcDbEntity
  8
图层 1
 62
     7
100
AcDbHatch
 10
0.0
 20
0.0
 30
0.0
210
0.0
220
0.0
230
1.0
  2
SOLID
 70
     1
 71
     0
 91
        1
 92
        1
 93
        2
 72
     4
 94
        3
 73
     0
 74
     0
 95
       47
 96
       43
 40
0.0
 40
0.0
 40
0.0
 40
0.0
 40
0.3527780104152769
 40
0.3527780104152769
 40
0.3527780104152769
 40
0.7055560208305538
 40
0.7055560208305538
 40
0.7055560208305538
 40
1.058334031245828
 40
1.058334031245828
 40
1.058334031245828
 40
1.411112041661104
 40
1.411112041661104
 40
1.411112041661104
 40
1.763890052076384
 40
1.763890052076384
 40
1.763890052076384
 40
2.116668062491659
 40
2.116668062491659
 40
2.116668062491659
 40
2.469446072906936
 40
2.469446072906936
 40
2.469446072906936
 40
2.822224083322215
 40
2.822224083322215
 40
2.822224083322215
 40
3.175002093737492
 40
3.175002093737492
 40
3.175002093737492
 40
3.527780104152768
 40
3.527780104152768
 40
3.527780104152768
 40
3.880558114568044
 40
3.880558114568044
 40
3.880558114568044
 40
4.233336124983321
 40
4.233336124983321
 40
4.233336124983321
 40
4.586114135398599
 40
4.586114135398599
 40
4.586114135398599
 40
4.938892145813873
 40
4.938892145813873
 40
4.938892145813873
 40
4.938892145813873
 10
162.8986914070121
 20
257.4895347631509
 10
162.8986914070121
 20
257.4895347631509
 10
162.9200510131114
 20
257.4471600607279
 10
162.9200510131114
 20
257.4471600607279
 10
162.9200510131114
 20
257.4471600607279
 10
162.9200510131114
 20
257.404785358305
 10
162.9200510131114
 20
257.404785358305
 10
162.9200510131114
 20
257.404785358305
 10
162.8986914070121
 20
257.36258291077
 10
162.8986914070121
 20
257.36258291077
 10
162.8986914070121
 20
257.36258291077
 10
162.8986914070121
 20
257.320208208347
 10
162.8986914070121
 20
257.320208208347
 10
162.8986914070121
 20
257.320208208347
 10
162.8563167045891
 20
257.2990208571356
 10
162.8563167045891
 20
257.2990208571356
 10
162.8563167045891
 20
257.2990208571356
 10
162.8139420021662
 20
257.2563016449369
 10
162.8139420021662
 20
257.2563016449369
 10
162.8139420021662
 20
257.2563016449369
 10
162.7295371070961
 20
257.2563016449369
 10
162.7295371070961
 20
257.2563016449369
 10
162.7295371070961
 20
257.2563016449369
 10
162.6658027985738
 20
257.2778335059241
 10
162.6658027985738
 20
257.2778335059241
 10
162.6658027985738
 20
257.2778335059241
 10
162.6237726059267
 20
257.2990208571356
 10
162.6237726059267
 20
257.2990208571356
 10
162.6237726059267
 20
257.2990208571356
 10
162.5813979035038
 20
257.3413955595585
 10
162.5813979035038
 20
257.3413955595585
 10
162.5813979035038
 20
257.3413955595585
 10
162.5813979035038
 20
257.4895347631509
 10
162.5813979035038
 20
257.4895347631509
 10
162.5813979035038
 20
257.4895347631509
 10
162.6447877022503
 20
257.5525800521216
 10
162.6447877022503
 20
257.5525800521216
 10
162.6447877022503
 20
257.5525800521216
 10
162.7081775009967
 20
257.5525800521216
 10
162.7081775009967
 20
257.5525800521216
 10
162.8749202324821
 20
257.5424170137356
 10
162.7918933765152
 20
257.5939212252171
 10
162.8986914070121
 20
257.4895347631509
 72
     1
 10
162.8986914070121
 20
257.4895347631509
 11
162.8986914070121
 21
257.4895347631509
 97
        0
 75
     0
 76
     1
 98
        0
450
        0
451
        0
460
0.0
461
0.0
452
        0
462
0.0
453
        0
470

  0
HATCH
  5
2EE7
330
1F
100
AcDbEntity
  8
图层 1
 62
     7
100
AcDbHatch
 10
0.0
 20
0.0
 30
0.0
210
0.0
220
0.0
230
1.0
  2
SOLID
 70
     1
 71
     0
 91
        1
 92
        1
 93
        2
 72
     4
 94
        3
 73
     0
 74
     0
 95
       56
 96
       52
 40
0.0
 40
0.0
 40
0.0
 40
0.0
 40
0.3527780104152769
 40
0.3527780104152769
 40
0.3527780104152769
 40
0.7055560208305538
 40
0.7055560208305538
 40
0.7055560208305538
 40
1.058334031245828
 40
1.058334031245828
 40
1.058334031245828
 40
1.411112041661104
 40
1.411112041661104
 40
1.411112041661104
 40
1.763890052076384
 40
1.763890052076384
 40
1.763890052076384
 40
2.116668062491659
 40
2.116668062491659
 40
2.116668062491659
 40
2.469446072906936
 40
2.469446072906936
 40
2.469446072906936
 40
2.822224083322215
 40
2.822224083322215
 40
2.822224083322215
 40
3.175002093737492
 40
3.175002093737492
 40
3.175002093737492
 40
3.527780104152768
 40
3.527780104152768
 40
3.527780104152768
 40
3.880558114568044
 40
3.880558114568044
 40
3.880558114568044
 40
4.233336124983321
 40
4.233336124983321
 40
4.233336124983321
 40
4.586114135398599
 40
4.586114135398599
 40
4.586114135398599
 40
4.938892145813873
 40
4.938892145813873
 40
4.938892145813873
 40
5.291670156229153
 40
5.291670156229153
 40
5.291670156229153
 40
5.64444816664443
 40
5.64444816664443
 40
5.64444816664443
 40
5.997226177059705
 40
5.997226177059705
 40
5.997226177059705
 40
5.997226177059705
 10
185.4837187788815
 20
241.4451977396596
 10
185.4837187788815
 20
241.4451977396596
 10
185.4837187788815
 20
241.4028230372367
 10
185.4837187788815
 20
241.4028230372367
 10
185.4837187788815
 20
241.4028230372367
 10
185.5047338752051
 20
241.3604483348137
 10
185.5047338752051
 20
241.3604483348137
 10
185.4520238795082
 20
241.2782827532863
 10
185.4671823096433
 20
241.1897437409066
 10
185.335579575289
 20
241.2119646214456
 10
185.335579575289
 20
241.2119646214456
 10
185.2932048728662
 20
241.2119646214456
 10
185.2932048728662
 20
241.2119646214456
 10
185.2932048728662
 20
241.2119646214456
 10
185.2294705643439
 20
241.2334964824328
 10
185.2294705643439
 20
241.2334964824328
 10
185.2294705643439
 20
241.2334964824328
 10
185.1660807655974
 20
241.2543393238685
 10
185.1660807655974
 20
241.2543393238685
 10
185.1660807655974
 20
241.2543393238685
 10
185.1450656692739
 20
241.2758711848558
 10
185.1450656692739
 20
241.2758711848558
 10
185.1450656692739
 20
241.2758711848558
 10
185.1450656692739
 20
241.2967140262914
 10
185.1450656692739
 20
241.2967140262914
 10
185.1450656692739
 20
241.2967140262914
 10
185.1237060631745
 20
241.3604483348137
 10
185.1237060631745
 20
241.3604483348137
 10
185.1237060631745
 20
241.3604483348137
 10
185.1237060631745
 20
241.4028230372367
 10
185.1237060631745
 20
241.4028230372367
 10
185.1237060631745
 20
241.4028230372367
 10
185.1660807655974
 20
241.4875724420825
 10
185.1660807655974
 20
241.4875724420825
 10
185.1660807655974
 20
241.4875724420825
 10
185.2084554680203
 20
241.5085875384061
 10
185.2084554680203
 20
241.5085875384061
 10
185.2084554680203
 20
241.5085875384061
 10
185.2718452667668
 20
241.5297748896175
 10
185.2718452667668
 20
241.5297748896175
 10
185.2718452667668
 20
241.5297748896175
 10
185.3565946716127
 20
241.5297748896175
 10
185.3565946716127
 20
241.5297748896175
 10
185.3565946716127
 20
241.5297748896175
 10
185.4199844703592
 20
241.5085875384061
 10
185.4199844703592
 20
241.5085875384061
 10
185.4199844703592
 20
241.5085875384061
 10
185.4623591727821
 20
241.4875724420825
 10
185.4623591727821
 20
241.4875724420825
 10
185.4623591727821
 20
241.4875724420825
 10
185.4837187788815
 20
241.4451977396596
 10
185.4837187788815
 20
241.4451977396596
 72
     1
 10
185.4837187788815
 20
241.4451977396596
 11
185.4837187788815
 21
241.4451977396596
 97
        0
 75
     0
 76
     1
 98
        0
450
        0
451
        0
460
0.0
461
0.0
452
        0
462
0.0
453
        0
470

  0
HATCH
  5
2F93
330
1F
100
AcDbEntity
  8
图层 1
 62
     7
100
AcDbHatch
 10
0.0
 20
0.0
 30
0.0
210
0.0
220
0.0
230
1.0
  2
SOLID
 70
     1
 71
     0
 91
        1
 92
        1
 93
        2
 72
     4
 94
        3
 73
     0
 74
     0
 95
       38
 96
       34
 40
0.0
 40
0.0
 40
0.0
 40
0.0
 40
0.3527780104152769
 40
0.3527780104152769
 40
0.3527780104152769
 40
0.7055560208305538
 40
0.7055560208305538
 40
0.7055560208305538
 40
1.058334031245828
 40
1.058334031245828
 40
1.058334031245828
 40
1.411112041661104
 40
1.411112041661104
 40
1.411112041661104
 40
1.763890052076384
 40
1.763890052076384
 40
1.763890052076384
 40
2.116668062491659
 40
2.116668062491659
 40
2.116668062491659
 40
2.469446072906936
 40
2.469446072906936
 40
2.469446072906936
 40
2.822224083322215
 40
2.822224083322215
 40
2.822224083322215
 40
3.175002093737492
 40
3.175002093737492
 40
3.175002093737492
 40
3.527780104152768
 40
3.527780104152768
 40
3.527780104152768
 40
3.880558114568044
 40
3.880558114568044
 40
3.880558114568044
 40
3.880558114568044
 10
185.907121293335
 20
220.1937677098971
 10
185.9005756075949
 20
220.0449394867532
 10
185.9329595265197
 20
220.1136691870245
 10
185.864746590912
 20
219.9817219428946
 10
185.864746590912
 20
219.9817219428946
 10
185.822371888489
 20
219.9605345916831
 10
185.822371888489
 20
219.9605345916831
 10
185.822371888489
 20
219.9605345916831
 10
185.6528730787974
 20
219.9605345916831
 10
185.6528730787974
 20
219.9605345916831
 10
185.6528730787974
 20
219.9605345916831
 10
185.5894832800509
 20
220.002909294106
 10
185.5894832800509
 20
220.002909294106
 10
185.5894832800509
 20
220.002909294106
 10
185.5681236739515
 20
220.0240966453175
 10
185.5681236739515
 20
220.0240966453175
 10
185.5681236739515
 20
220.0240966453175
 10
185.5681236739515
 20
220.045283996529
 10
185.5681236739515
 20
220.045283996529
 10
185.5681236739515
 20
220.045283996529
 10
185.547108577628
 20
220.0876586989519
 10
185.547108577628
 20
220.0876586989519
 10
185.547108577628
 20
220.0876586989519
 10
185.547108577628
 20
220.1513930074742
 10
185.547108577628
 20
220.1513930074742
 10
185.547108577628
 20
220.1513930074742
 10
185.5894832800509
 20
220.23614241232
 10
185.5894832800509
 20
220.23614241232
 10
185.5894832800509
 20
220.23614241232
 10
185.6318579824738
 20
220.2573297635315
 10
185.6318579824738
 20
220.2573297635315
 10
185.7055830744942
 20
220.2566407439799
 10
185.8416644359337
 20
220.3310548555519
 10
185.907121293335
 20
220.1937677098971
 72
     1
 10
185.907121293335
 20
220.1937677098971
 11
185.907121293335
 21
220.1937677098971
 97
        0
 75
     0
 76
     1
 98
        0
450
        0
451
        0
460
0.0
461
0.0
452
        0
462
0.0
453
        0
470

  0
HATCH
  5
2FDE
330
1F
100
AcDbEntity
  8
图层 1
 62
     7
100
AcDbHatch
 10
0.0
 20
0.0
 30
0.0
210
0.0
220
0.0
230
1.0
  2
SOLID
 70
     1
 71
     0
 91
        1
 92
        1
 93
        2
 72
     4
 94
        3
 73
     0
 74
     0
 95
       50
 96
       46
 40
0.0
 40
0.0
 40
0.0
 40
0.0
 40
0.3527780104152769
 40
0.3527780104152769
 40
0.3527780104152769
 40
0.7055560208305538
 40
0.7055560208305538
 40
0.7055560208305538
 40
1.058334031245828
 40
1.058334031245828
 40
1.058334031245828
 40
1.411112041661104
 40
1.411112041661104
 40
1.411112041661104
 40
1.763890052076384
 40
1.763890052076384
 40
1.763890052076384
 40
2.116668062491659
 40
2.116668062491659
 40
2.116668062491659
 40
2.469446072906936
 40
2.469446072906936
 40
2.469446072906936
 40
2.822224083322215
 40
2.822224083322215
 40
2.822224083322215
 40
3.175002093737492
 40
3.175002093737492
 40
3.175002093737492
 40
3.527780104152768
 40
3.527780104152768
 40
3.527780104152768
 40
3.880558114568044
 40
3.880558114568044
 40
3.880558114568044
 40
4.233336124983321
 40
4.233336124983321
 40
4.233336124983321
 40
4.586114135398599
 40
4.586114135398599
 40
4.586114135398599
 40
4.938892145813873
 40
4.938892145813873
 40
4.938892145813873
 40
5.291670156229153
 40
5.291670156229153
 40
5.291670156229153
 40
5.291670156229153
 10
180.9117295442905
 20
208.9327766684477
 10
180.9117295442905
 20
208.9327766684477
 10
180.9117295442905
 20
208.7637946234197
 10
180.9117295442905
 20
208.7637946234197
 10
181.2273004989198
 20
208.6749111012643
 10
181.3833634273555
 20
208.6776671794706
 10
181.6948002646751
 20
208.5097186637701
 10
181.9542161258496
 20
208.4294478860095
 10
182.1388733656765
 20
208.2134402565853
 10
182.3297317814676
 20
208.02292635057
 10
182.3297317814676
 20
208.02292635057
 10
182.435496282637
 20
208.065301052993
 10
182.435496282637
 20
208.065301052993
 10
182.288390608372
 20
208.2733849575739
 10
182.3752070718726
 20
208.2134402565853
 10
182.1605774815516
 20
208.3824223016133
 10
182.1605774815516
 20
208.3824223016133
 10
182.1182027791287
 20
208.4247970040363
 10
182.1182027791287
 20
208.4247970040363
 10
182.1182027791287
 20
208.4247970040363
 10
182.0968431730294
 20
208.467516216235
 10
182.0968431730294
 20
208.467516216235
 10
182.0968431730294
 20
208.467516216235
 10
182.0544684706064
 20
208.4883590576707
 10
182.0544684706064
 20
208.4883590576707
 10
182.0544684706064
 20
208.4883590576707
 10
181.9910786718599
 20
208.5305615052057
 10
181.9910786718599
 20
208.5305615052057
 10
181.9910786718599
 20
208.5305615052057
 10
181.948703969437
 20
208.552093366193
 10
181.948703969437
 20
208.552093366193
 10
181.948703969437
 20
208.552093366193
 10
181.9063292670141
 20
208.5729362076286
 10
181.9063292670141
 20
208.5729362076286
 10
181.9063292670141
 20
208.5729362076286
 10
181.8639545645911
 20
208.6156554198274
 10
181.8639545645911
 20
208.6156554198274
 10
181.8639545645911
 20
208.6156554198274
 10
181.821924371944
 20
208.6368427710388
 10
181.821924371944
 20
208.6368427710388
 10
181.6637943848536
 20
208.6742220817127
 10
181.5452830219797
 20
208.8092699138248
 10
181.3771622513911
 20
208.8061693258427
 10
181.2803550043924
 20
208.8573290275484
 10
181.0126709085988
 20
208.8971199066528
 10
180.9117295442905
 20
208.9327766684477
 72
     1
 10
180.9117295442905
 20
208.9327766684477
 11
180.9117295442905
 21
208.9327766684477
 97
        0
 75
     0
 76
     1
 98
        0
450
        0
451
        0
460
0.0
461
0.0
452
        0
462
0.0
453
        0
470

  0
HATCH
  5
35C8
330
1F
100
AcDbEntity
  8
图层 1
 62
     7
100
AcDbHatch
 10
0.0
 20
0.0
 30
0.0
210
0.0
220
0.0
230
1.0
  2
SOLID
 70
     1
 71
     0
 91
        1
 92
        1
 93
        2
 72
     4
 94
        3
 73
     0
 74
     0
 95
       38
 96
       34
 40
0.0
 40
0.0
 40
0.0
 40
0.0
 40
0.3527780104152769
 40
0.3527780104152769
 40
0.3527780104152769
 40
0.7055560208305538
 40
0.7055560208305538
 40
0.7055560208305538
 40
1.058334031245828
 40
1.058334031245828
 40
1.058334031245828
 40
1.411112041661104
 40
1.411112041661104
 40
1.411112041661104
 40
1.763890052076384
 40
1.763890052076384
 40
1.763890052076384
 40
2.116668062491659
 40
2.116668062491659
 40
2.116668062491659
 40
2.469446072906936
 40
2.469446072906936
 40
2.469446072906936
 40
2.822224083322215
 40
2.822224083322215
 40
2.822224083322215
 40
3.175002093737492
 40
3.175002093737492
 40
3.175002093737492
 40
3.527780104152768
 40
3.527780104152768
 40
3.527780104152768
 40
3.880558114568044
 40
3.880558114568044
 40
3.880558114568044
 40
3.880558114568044
 10
189.145513185819
 20
166.8326485368285
 10
189.207869455238
 20
166.740492171803
 10
189.1317327947871
 20
166.6833035490209
 10
189.103138483396
 20
166.6209472796017
 10
189.103138483396
 20
166.6209472796017
 10
189.0607637809731
 20
166.5997599283903
 10
189.0607637809731
 20
166.5997599283903
 10
189.0607637809731
 20
166.5997599283903
 10
188.9973739822266
 20
166.5785725771788
 10
188.9973739822266
 20
166.5785725771788
 10
188.9973739822266
 20
166.5785725771788
 10
188.9549992798037
 20
166.5997599283903
 10
188.9549992798037
 20
166.5997599283903
 10
188.9549992798037
 20
166.5997599283903
 10
188.8916094810572
 20
166.5997599283903
 10
188.8916094810572
 20
166.5997599283903
 10
188.8916094810572
 20
166.5997599283903
 10
188.8492347786343
 20
166.6209472796017
 10
188.8492347786343
 20
166.6209472796017
 10
188.8492347786343
 20
166.6209472796017
 10
188.8278751725349
 20
166.6633219820247
 10
188.8278751725349
 20
166.6633219820247
 10
188.8278751725349
 20
166.6633219820247
 10
188.8068600762114
 20
166.6845093332361
 10
188.8068600762114
 20
166.6845093332361
 10
188.8068600762114
 20
166.6845093332361
 10
188.8068600762114
 20
166.8326485368285
 10
188.8068600762114
 20
166.8326485368285
 10
188.8068600762114
 20
166.8326485368285
 10
188.8702498749578
 20
166.896038335575
 10
188.8702498749578
 20
166.896038335575
 10
189.0228677056355
 20
166.8819134347673
 10
189.0686875058164
 20
166.9411691162043
 10
189.145513185819
 20
166.8326485368285
 72
     1
 10
189.145513185819
 20
166.8326485368285
 11
189.145513185819
 21
166.8326485368285
 97
        0
 75
     0
 76
     1
 98
        0
450
        0
451
        0
460
0.0
461
0.0
452
        0
462
0.0
453
        0
470

  0
HATCH
  5
35D8
330
1F
100
AcDbEntity
  8
图层 1
 62
     7
100
AcDbHatch
 10
0.0
 20
0.0
 30
0.0
210
0.0
220
0.0
230
1.0
  2
SOLID
 70
     1
 71
     0
 91
        1
 92
        1
 93
        2
 72
     4
 94
        3
 73
     0
 74
     0
 95
       68
 96
       64
 40
0.0
 40
0.0
 40
0.0
 40
0.0
 40
0.3527780104152769
 40
0.3527780104152769
 40
0.3527780104152769
 40
0.7055560208305538
 40
0.7055560208305538
 40
0.7055560208305538
 40
1.058334031245828
 40
1.058334031245828
 40
1.058334031245828
 40
1.411112041661104
 40
1.411112041661104
 40
1.411112041661104
 40
1.763890052076384
 40
1.763890052076384
 40
1.763890052076384
 40
2.116668062491659
 40
2.116668062491659
 40
2.116668062491659
 40
2.469446072906936
 40
2.469446072906936
 40
2.469446072906936
 40
2.822224083322215
 40
2.822224083322215
 40
2.822224083322215
 40
3.175002093737492
 40
3.175002093737492
 40
3.175002093737492
 40
3.527780104152768
 40
3.527780104152768
 40
3.527780104152768
 40
3.880558114568044
 40
3.880558114568044
 40
3.880558114568044
 40
4.233336124983321
 40
4.233336124983321
 40
4.233336124983321
 40
4.586114135398599
 40
4.586114135398599
 40
4.586114135398599
 40
4.938892145813873
 40
4.938892145813873
 40
4.938892145813873
 40
5.291670156229153
 40
5.291670156229153
 40
5.291670156229153
 40
5.64444816664443
 40
5.64444816664443
 40
5.64444816664443
 40
5.997226177059705
 40
5.997226177059705
 40
5.997226177059705
 40
6.350004187474984
 40
6.350004187474984
 40
6.350004187474984
 40
6.702782197890257
 40
6.702782197890257
 40
6.702782197890257
 40
7.055560208305537
 40
7.055560208305537
 40
7.055560208305537
 40
7.408338218720808
 40
7.408338218720808
 40
7.408338218720808
 40
7.408338218720808
 10
174.7732543591544
 20
135.4846705078077
 10
174.7732543591544
 20
135.4846705078077
 10
174.7732543591544
 20
135.3789060066383
 10
174.7732543591544
 20
135.3789060066383
 10
174.7732543591544
 20
135.3789060066383
 10
174.8156290615773
 20
135.3789060066383
 10
174.8156290615773
 20
135.3789060066383
 10
174.8156290615773
 20
135.3789060066383
 10
174.8580037640002
 20
135.3578909103147
 10
174.8580037640002
 20
135.3578909103147
 10
174.8580037640002
 20
135.3578909103147
 10
174.9213935627468
 20
135.3578909103147
 10
174.9213935627468
 20
135.3578909103147
 10
174.9213935627468
 20
135.3578909103147
 10
174.9637682651697
 20
135.3365313042154
 10
174.9637682651697
 20
135.3365313042154
 10
174.9637682651697
 20
135.3365313042154
 10
174.9847833614933
 20
135.3365313042154
 10
174.9847833614933
 20
135.3365313042154
 10
174.9847833614933
 20
135.3365313042154
 10
175.0271580639162
 20
135.3155162078918
 10
175.0271580639162
 20
135.3155162078918
 10
175.0271580639162
 20
135.3155162078918
 10
175.0485176700155
 20
135.2941566017924
 10
175.0485176700155
 20
135.2941566017924
 10
175.0485176700155
 20
135.2941566017924
 10
175.0695327663391
 20
135.2941566017924
 10
175.0695327663391
 20
135.2941566017924
 10
175.0695327663391
 20
135.2941566017924
 10
175.0908923724385
 20
135.2731415054689
 10
175.0908923724385
 20
135.2731415054689
 10
175.0908923724385
 20
135.2731415054689
 10
175.1332670748614
 20
135.2731415054689
 10
175.1332670748614
 20
135.2731415054689
 10
175.1332670748614
 20
135.2731415054689
 10
175.154282171185
 20
135.2517818993695
 10
175.154282171185
 20
135.2517818993695
 10
175.154282171185
 20
135.2517818993695
 10
175.154282171185
 20
135.3578909103147
 10
175.154282171185
 20
135.3578909103147
 10
175.154282171185
 20
135.3578909103147
 10
175.1332670748614
 20
135.3789060066383
 10
175.1332670748614
 20
135.3789060066383
 10
175.1332670748614
 20
135.3789060066383
 10
175.0908923724385
 20
135.3789060066383
 10
175.0908923724385
 20
135.3789060066383
 10
175.0908923724385
 20
135.3789060066383
 10
175.0908923724385
 20
135.3999211029619
 10
175.0908923724385
 20
135.3999211029619
 10
175.0908923724385
 20
135.3999211029619
 10
175.0695327663391
 20
135.3999211029619
 10
175.0695327663391
 20
135.3999211029619
 10
175.0695327663391
 20
135.3999211029619
 10
175.0271580639162
 20
135.4212807090612
 10
175.0271580639162
 20
135.4212807090612
 10
175.0271580639162
 20
135.4212807090612
 10
175.0061429675926
 20
135.4212807090612
 10
175.0061429675926
 20
135.4212807090612
 10
175.0061429675926
 20
135.4212807090612
 10
174.9637682651697
 20
135.4422958053848
 10
174.9637682651697
 20
135.4422958053848
 10
174.8996894468716
 20
135.4498750204523
 10
174.8394002361073
 20
135.4860485469109
 10
174.7732543591544
 20
135.4846705078077
 72
     1
 10
174.7732543591544
 20
135.4846705078077
 11
174.7732543591544
 21
135.4846705078077
 97
        0
 75
     0
 76
     1
 98
        0
450
        0
451
        0
460
0.0
461
0.0
452
        0
462
0.0
453
        0
470

  0
HATCH
  5
3807
330
1F
100
AcDbEntity
  8
图层 1
 62
     7
100
AcDbHatch
 10
0.0
 20
0.0
 30
0.0
210
0.0
220
0.0
230
1.0
  2
SOLID
 70
     1
 71
     0
 91
        1
 92
        1
 93
        2
 72
     4
 94
        3
 73
     0
 74
     0
 95
       29
 96
       25
 40
0.0
 40
0.0
 40
0.0
 40
0.0
 40
0.3527780104152769
 40
0.3527780104152769
 40
0.3527780104152769
 40
0.7055560208305538
 40
0.7055560208305538
 40
0.7055560208305538
 40
1.058334031245828
 40
1.058334031245828
 40
1.058334031245828
 40
1.411112041661104
 40
1.411112041661104
 40
1.411112041661104
 40
1.763890052076384
 40
1.763890052076384
 40
1.763890052076384
 40
2.116668062491659
 40
2.116668062491659
 40
2.116668062491659
 40
2.469446072906936
 40
2.469446072906936
 40
2.469446072906936
 40
2.822224083322215
 40
2.822224083322215
 40
2.822224083322215
 40
2.822224083322215
 10
175.4929352807925
 20
164.0174869039101
 10
175.4929352807925
 20
164.0174869039101
 10
175.5139503771161
 20
163.9751122014871
 10
175.5139503771161
 20
163.9751122014871
 10
175.5139503771161
 20
163.9751122014871
 10
175.5139503771161
 20
163.9327374990642
 10
175.5139503771161
 20
163.9327374990642
 10
175.5139503771161
 20
163.9327374990642
 10
175.4929352807925
 20
163.8903627966413
 10
175.4929352807925
 20
163.8903627966413
 10
175.4929352807925
 20
163.8903627966413
 10
175.471920184469
 20
163.8691754454298
 10
175.471920184469
 20
163.8691754454298
 10
175.471920184469
 20
163.8691754454298
 10
175.4505605783696
 20
163.8269729978948
 10
175.4505605783696
 20
163.8269729978948
 10
175.3571984291289
 20
163.7715069239916
 10
175.272449024283
 20
163.8195660377152
 10
175.1966568736079
 20
163.8691754454298
 10
175.208370205985
 20
163.9930267098286
 10
175.1563492298397
 20
164.0216210212197
 10
175.2600466723544
 20
164.0596893514451
 10
175.3330827448232
 20
164.1094710140476
 10
175.4357466580104
 20
164.0753645462439
 10
175.4929352807925
 20
164.0174869039101
 72
     1
 10
175.4929352807925
 20
164.0174869039101
 11
175.4929352807925
 21
164.0174869039101
 97
        0
 75
     0
 76
     1
 98
        0
450
        0
451
        0
460
0.0
461
0.0
452
        0
462
0.0
453
        0
470

  0
HATCH
  5
3895
330
1F
100
AcDbEntity
  8
图层 1
 62
     7
100
AcDbHatch
 10
0.0
 20
0.0
 30
0.0
210
0.0
220
0.0
230
1.0
  2
SOLID
 70
     1
 71
     0
 91
        1
 92
        1
 93
        2
 72
     4
 94
        3
 73
     0
 74
     0
 95
       11
 96
        7
 40
0.0
 40
0.0
 40
0.0
 40
0.0
 40
0.3527780104152769
 40
0.3527780104152769
 40
0.3527780104152769
 40
0.7055560208305538
 40
0.7055560208305538
 40
0.7055560208305538
 40
0.7055560208305538
 10
174.9213935627468
 20
174.5369206529582
 10
174.9213935627468
 20
174.5369206529582
 10
174.9213935627468
 20
174.3043765542958
 10
174.9213935627468
 20
174.3043765542958
 10
174.9213935627468
 20
174.3043765542958
 10
174.9213935627468
 20
174.5369206529582
 10
174.9213935627468
 20
174.5369206529582
 72
     1
 10
174.9213935627468
 20
174.5369206529582
 11
174.9213935627468
 21
174.5369206529582
 97
        0
 75
     0
 76
     1
 98
        0
450
        0
451
        0
460
0.0
461
0.0
452
        0
462
0.0
453
        0
470

  0
HATCH
  5
3943
330
1F
100
AcDbEntity
  8
图层 1
 62
     7
100
AcDbHatch
 10
0.0
 20
0.0
 30
0.0
210
0.0
220
0.0
230
1.0
  2
SOLID
 70
     1
 71
     0
 91
        1
 92
        1
 93
        2
 72
     4
 94
        3
 73
     0
 74
     0
 95
      131
 96
      127
 40
0.0
 40
0.0
 40
0.0
 40
0.0
 40
0.3527780104152769
 40
0.3527780104152769
 40
0.3527780104152769
 40
0.7055560208305538
 40
0.7055560208305538
 40
0.7055560208305538
 40
1.058334031245828
 40
1.058334031245828
 40
1.058334031245828
 40
1.411112041661104
 40
1.411112041661104
 40
1.411112041661104
 40
1.763890052076384
 40
1.763890052076384
 40
1.763890052076384
 40
2.116668062491659
 40
2.116668062491659
 40
2.116668062491659
 40
2.469446072906936
 40
2.469446072906936
 40
2.469446072906936
 40
2.822224083322215
 40
2.822224083322215
 40
2.822224083322215
 40
3.175002093737492
 40
3.175002093737492
 40
3.175002093737492
 40
3.527780104152768
 40
3.527780104152768
 40
3.527780104152768
 40
3.880558114568044
 40
3.880558114568044
 40
3.880558114568044
 40
4.233336124983321
 40
4.233336124983321
 40
4.233336124983321
 40
4.586114135398599
 40
4.586114135398599
 40
4.586114135398599
 40
4.938892145813873
 40
4.938892145813873
 40
4.938892145813873
 40
5.291670156229153
 40
5.291670156229153
 40
5.291670156229153
 40
5.64444816664443
 40
5.64444816664443
 40
5.64444816664443
 40
5.997226177059705
 40
5.997226177059705
 40
5.997226177059705
 40
6.350004187474984
 40
6.350004187474984
 40
6.350004187474984
 40
6.702782197890257
 40
6.702782197890257
 40
6.702782197890257
 40
7.055560208305537
 40
7.055560208305537
 40
7.055560208305537
 40
7.408338218720808
 40
7.408338218720808
 40
7.408338218720808
 40
7.76111622913609
 40
7.76111622913609
 40
7.76111622913609
 40
8.113894239551369
 40
8.113894239551369
 40
8.113894239551369
 40
8.466672249966642
 40
8.466672249966642
 40
8.466672249966642
 40
8.819450260381922
 40
8.819450260381922
 40
8.819450260381922
 40
9.172228270797198
 40
9.172228270797198
 40
9.172228270797198
 40
9.525006281212476
 40
9.525006281212476
 40
9.525006281212476
 40
9.877784291627751
 40
9.877784291627751
 40
9.877784291627751
 40
10.23056230204303
 40
10.23056230204303
 40
10.23056230204303
 40
10.58334031245831
 40
10.58334031245831
 40
10.58334031245831
 40
10.93611832287358
 40
10.93611832287358
 40
10.93611832287358
 40
11.28889633328886
 40
11.28889633328886
 40
11.28889633328886
 40
11.64167434370414
 40
11.64167434370414
 40
11.64167434370414
 40
11.99445235411941
 40
11.99445235411941
 40
11.99445235411941
 40
12.34723036453469
 40
12.34723036453469
 40
12.34723036453469
 40
12.70000837494997
 40
12.70000837494997
 40
12.70000837494997
 40
13.05278638536524
 40
13.05278638536524
 40
13.05278638536524
 40
13.40556439578052
 40
13.40556439578052
 40
13.40556439578052
 40
13.7583424061958
 40
13.7583424061958
 40
13.7583424061958
 40
14.11112041661107
 40
14.11112041661107
 40
14.11112041661107
 40
14.46389842702635
 40
14.46389842702635
 40
14.46389842702635
 40
14.81667643744163
 40
14.81667643744163
 40
14.81667643744163
 40
14.81667643744163
 10
173.3972823146245
 20
126.8274843518258
 10
173.3972823146245
 20
126.8274843518258
 10
173.3972823146245
 20
126.7217198506564
 10
173.3972823146245
 20
126.7217198506564
 10
173.3972823146245
 20
126.7217198506564
 10
173.4186419207238
 20
126.7217198506564
 10
173.4186419207238
 20
126.7217198506564
 10
173.4186419207238
 20
126.7217198506564
 10
173.4820317194703
 20
126.7007047543328
 10
173.4820317194703
 20
126.7007047543328
 10
173.4820317194703
 20
126.7007047543328
 10
173.5244064218933
 20
126.6793451482334
 10
173.5244064218933
 20
126.6793451482334
 10
173.5244064218933
 20
126.6793451482334
 10
173.5877962206398
 20
126.6793451482334
 10
173.5877962206398
 20
126.6793451482334
 10
173.5877962206398
 20
126.6793451482334
 10
173.6301709230627
 20
126.6583300519099
 10
173.6301709230627
 20
126.6583300519099
 10
173.7955356154449
 20
126.5911506456296
 10
173.759706598762
 20
126.6380039751379
 10
173.9478089363468
 20
126.5525655507404
 10
173.9478089363468
 20
126.5525655507404
 10
173.9688240326703
 20
126.4464565397952
 10
173.9688240326703
 20
126.4464565397952
 10
173.9688240326703
 20
126.4464565397952
 10
174.0325583411926
 20
126.5101908483175
 10
174.0325583411926
 20
126.5101908483175
 10
174.0325583411926
 20
126.5101908483175
 10
174.0749330436156
 20
126.5101908483175
 10
174.0749330436156
 20
126.5101908483175
 10
174.0749330436156
 20
126.5101908483175
 10
174.1593379386856
 20
126.4678161458946
 10
174.1593379386856
 20
126.4678161458946
 10
174.1593379386856
 20
126.4678161458946
 10
174.180697544785
 20
126.4464565397952
 10
174.180697544785
 20
126.4464565397952
 10
174.2464989119621
 20
126.3982251711837
 10
174.3298702777047
 20
126.3716979184474
 10
174.3922265471239
 20
126.3196769423022
 10
174.608234176548
 20
126.2059887162895
 10
174.7749769080334
 20
126.0278771622029
 10
174.9637682651697
 20
125.8749148217494
 10
174.9637682651697
 20
125.8749148217494
 10
175.0061429675926
 20
125.9172895241723
 10
175.0061429675926
 20
125.9172895241723
 10
174.961356696739
 20
125.9631093243532
 10
174.782211613325
 20
126.1246844092016
 10
174.7308796567315
 20
126.1501781326105
 10
174.7308796567315
 20
126.1501781326105
 10
174.6885049543085
 20
126.1925528350335
 10
174.6885049543085
 20
126.1925528350335
 10
174.6885049543085
 20
126.1925528350335
 10
174.667489857985
 20
126.2349275374564
 10
174.667489857985
 20
126.2349275374564
 10
174.667489857985
 20
126.2349275374564
 10
174.625115155562
 20
126.2559426337799
 10
174.625115155562
 20
126.2559426337799
 10
174.625115155562
 20
126.2559426337799
 10
174.5827404531391
 20
126.2983173362029
 10
174.5827404531391
 20
126.2983173362029
 10
174.5827404531391
 20
126.2983173362029
 10
174.5403657507162
 20
126.3196769423022
 10
174.5403657507162
 20
126.3196769423022
 10
174.5403657507162
 20
126.3196769423022
 10
174.4979910482932
 20
126.3620516447252
 10
174.4979910482932
 20
126.3620516447252
 10
174.4735308542117
 20
126.3875453681341
 10
174.3247026310678
 20
126.4695386947736
 10
174.2864620459544
 20
126.4888312422181
 10
174.2864620459544
 20
126.4888312422181
 10
174.2654469496308
 20
126.5101908483175
 10
174.2654469496308
 20
126.5101908483175
 10
174.2654469496308
 20
126.5101908483175
 10
174.2230722472079
 20
126.5312059446411
 10
174.2230722472079
 20
126.5312059446411
 10
174.2230722472079
 20
126.5312059446411
 10
174.2017126411085
 20
126.5525655507404
 10
174.2017126411085
 20
126.5525655507404
 10
174.2017126411085
 20
126.5525655507404
 10
174.1383228423621
 20
126.573580647064
 10
174.1383228423621
 20
126.573580647064
 10
174.1383228423621
 20
126.573580647064
 10
174.1169632362627
 20
126.5945957433876
 10
174.1169632362627
 20
126.5945957433876
 10
174.1169632362627
 20
126.5945957433876
 10
174.0959481399391
 20
126.7007047543328
 10
174.0959481399391
 20
126.7007047543328
 10
174.0959481399391
 20
126.7007047543328
 10
174.0325583411926
 20
126.6369704458105
 10
174.0325583411926
 20
126.6369704458105
 10
174.0325583411926
 20
126.6369704458105
 10
173.9901836387697
 20
126.6369704458105
 10
173.9901836387697
 20
126.6369704458105
 10
173.9901836387697
 20
126.6369704458105
 10
173.9054342339239
 20
126.6793451482334
 10
173.9054342339239
 20
126.6793451482334
 10
173.9054342339239
 20
126.6793451482334
 10
173.8420444351773
 20
126.7007047543328
 10
173.8420444351773
 20
126.7007047543328
 10
173.8420444351773
 20
126.7007047543328
 10
173.7996697327544
 20
126.7217198506564
 10
173.7996697327544
 20
126.7217198506564
 10
173.7996697327544
 20
126.7217198506564
 10
173.7572950303315
 20
126.7217198506564
 10
173.7572950303315
 20
126.7217198506564
 10
173.7572950303315
 20
126.7217198506564
 10
173.6725456254856
 20
126.7640945530793
 10
173.6725456254856
 20
126.7640945530793
 10
173.6725456254856
 20
126.7640945530793
 10
173.6515305291621
 20
126.7640945530793
 10
173.6515305291621
 20
126.7640945530793
 10
173.6515305291621
 20
126.7640945530793
 10
173.5667811243162
 20
126.7851096494029
 10
173.5667811243162
 20
126.7851096494029
 10
173.5667811243162
 20
126.7851096494029
 10
173.5033913255697
 20
126.8064692555022
 10
173.5033913255697
 20
126.8064692555022
 10
173.5033913255697
 20
126.8064692555022
 10
173.4396570170474
 20
126.8064692555022
 10
173.4396570170474
 20
126.8064692555022
 10
173.4396570170474
 20
126.8064692555022
 10
173.4186419207238
 20
126.8274843518258
 10
173.4186419207238
 20
126.8274843518258
 10
173.4186419207238
 20
126.8274843518258
 10
173.3972823146245
 20
126.8274843518258
 10
173.3972823146245
 20
126.8274843518258
 72
     1
 10
173.3972823146245
 20
126.8274843518258
 11
173.3972823146245
 21
126.8274843518258
 97
        0
 75
     0
 76
     1
 98
        0
450
        0
451
        0
460
0.0
461
0.0
452
        0
462
0.0
453
        0
470

  0
HATCH
  5
4842
330
1F
100
AcDbEntity
  8
图层 1
 62
     7
100
AcDbHatch
 10
0.0
 20
0.0
 30
0.0
210
0.0
220
0.0
230
1.0
  2
SOLID
 70
     1
 71
     0
 91
        1
 92
        1
 93
        2
 72
     4
 94
        3
 73
     0
 74
     0
 95
       47
 96
       43
 40
0.0
 40
0.0
 40
0.0
 40
0.0
 40
0.3527780104152769
 40
0.3527780104152769
 40
0.3527780104152769
 40
0.7055560208305538
 40
0.7055560208305538
 40
0.7055560208305538
 40
1.058334031245828
 40
1.058334031245828
 40
1.058334031245828
 40
1.411112041661104
 40
1.411112041661104
 40
1.411112041661104
 40
1.763890052076384
 40
1.763890052076384
 40
1.763890052076384
 40
2.116668062491659
 40
2.116668062491659
 40
2.116668062491659
 40
2.469446072906936
 40
2.469446072906936
 40
2.469446072906936
 40
2.822224083322215
 40
2.822224083322215
 40
2.822224083322215
 40
3.175002093737492
 40
3.175002093737492
 40
3.175002093737492
 40
3.527780104152768
 40
3.527780104152768
 40
3.527780104152768
 40
3.880558114568044
 40
3.880558114568044
 40
3.880558114568044
 40
4.233336124983321
 40
4.233336124983321
 40
4.233336124983321
 40
4.586114135398599
 40
4.586114135398599
 40
4.586114135398599
 40
4.938892145813873
 40
4.938892145813873
 40
4.938892145813873
 40
4.938892145813873
 10
180.1920486226523
 20
255.6479577566324
 10
180.1920486226523
 20
255.6479577566324
 10
180.2130637189759
 20
255.6055830542095
 10
180.2130637189759
 20
255.6055830542095
 10
180.2130637189759
 20
255.6055830542095
 10
180.2130637189759
 20
255.5210059042515
 10
180.2130637189759
 20
255.5210059042515
 10
180.2130637189759
 20
255.5210059042515
 10
180.1920486226523
 20
255.4786312018286
 10
180.1920486226523
 20
255.4786312018286
 10
180.1920486226523
 20
255.4786312018286
 10
180.1496739202294
 20
255.4359119896299
 10
180.1496739202294
 20
255.4359119896299
 10
180.1496739202294
 20
255.4359119896299
 10
180.1283143141301
 20
255.4147246384184
 10
180.1283143141301
 20
255.4147246384184
 10
180.1283143141301
 20
255.4147246384184
 10
180.0225498129606
 20
255.4147246384184
 10
180.0225498129606
 20
255.4147246384184
 10
180.0225498129606
 20
255.4147246384184
 10
179.9591600142141
 20
255.4359119896299
 10
179.9591600142141
 20
255.4359119896299
 10
179.9591600142141
 20
255.4359119896299
 10
179.9167853117912
 20
255.4570993408414
 10
179.9167853117912
 20
255.4570993408414
 10
179.9167853117912
 20
255.4570993408414
 10
179.8957702154676
 20
255.4786312018286
 10
179.8957702154676
 20
255.4786312018286
 10
179.8957702154676
 20
255.4786312018286
 10
179.8744106093683
 20
255.4994740432643
 10
179.8744106093683
 20
255.4994740432643
 10
179.8744106093683
 20
255.4994740432643
 10
179.8744106093683
 20
255.6479577566324
 10
179.8744106093683
 20
255.6479577566324
 10
179.9608825630931
 20
255.7323626517025
 10
180.045631967939
 20
255.7085914771726
 10
180.1496739202294
 20
255.7115198102668
 10
180.1496739202294
 20
255.7115198102668
 10
180.170689016553
 20
255.6688005980681
 10
180.170689016553
 20
255.6688005980681
 10
180.170689016553
 20
255.6688005980681
 10
180.1920486226523
 20
255.6479577566324
 10
180.1920486226523
 20
255.6479577566324
 72
     1
 10
180.1920486226523
 20
255.6479577566324
 11
180.1920486226523
 21
255.6479577566324
 97
        0
 75
     0
 76
     1
 98
        0
450
        0
451
        0
460
0.0
461
0.0
452
        0
462
0.0
453
        0
470

  0
LINE
  5
12B16
330
1F
100
AcDbEntity
  8
图框
370
    -3
100
AcDbLine
 10
385.2092584876153
 20
279.3691361588869
 30
0.0
 11
406.7477128303826
 21
279.3691361588869
 31
0.0
  0
LINE
  5
12B17
330
1F
100
AcDbEntity
  8
图框
370
    -3
100
AcDbLine
 10
363.9652432364341
 20
276.6646917852563
 30
0.0
 11
428.1367332238747
 21
276.6646917852581
 31
0.0
  0
LINE
  5
12B18
330
1F
100
AcDbEntity
  8
图框
370
    -3
100
AcDbLine
 10
363.9652432364341
 20
273.9602474116243
 30
0.0
 11
428.1367332238747
 21
273.9602474116243
 31
0.0
  0
MTEXT
  5
12B19
330
1F
100
AcDbEntity
  8
图框
100
AcDbMText
 10
399.8882650501483
 20
280.721358345772
 30
0.0
 40
1.200004709114095
 41
13.71936813429339
 46
2.704444373770122
 71
     5
 72
     5
  1
{\fFangSong_GB2312|b0|i0|c134|p49;\C4;线径\Fromans|c134;/Wire Gauge}
  7
Romans字体
 73
     1
 44
1.0
1001
ACAD
1000
ACAD_MTEXT_DEFINED_HEIGHT_BEGIN
1070
    46
1040
2.704444373770122
1000
ACAD_MTEXT_DEFINED_HEIGHT_END
  0
LINE
  5
12B1A
330
1F
100
AcDbEntity
  8
图框
370
    -3
100
AcDbLine
 10
363.9652432364341
 20
271.2558030379941
 30
0.0
 11
428.1367332238747
 21
271.2558030379938
 31
0.0
  0
MTEXT
  5
12B1B
330
1F
100
AcDbEntity
  8
图框
100
AcDbMText
 10
403.797808152385
 20
278.0168439041535
 30
0.0
 40
1.200004709114095
 41
5.899809355995848
 46
2.704304237791748
 71
     5
 72
     5
  1
{\C4;AWG}
  7
Romans字体
 73
     1
 44
1.0
1001
ACAD
1000
ACAD_MTEXT_DEFINED_HEIGHT_BEGIN
1070
    46
1040
2.704304237791748
1000
ACAD_MTEXT_DEFINED_HEIGHT_END
  0
MTEXT
  5
12B1C
330
1F
100
AcDbEntity
  8
图框
100
AcDbMText
 10
396.9382422280273
 20
278.0169139720721
 30
0.0
 40
1.200004709114095
 41
7.819322492718732
 46
2.704444373629514
 71
     5
 72
     5
  1
\A1;{\C4;mm\H0.7x;\S2^  ;}
  7
Romans字体
 73
     1
 44
1.0
1001
ACAD
1000
ACAD_MTEXT_DEFINED_HEIGHT_BEGIN
1070
    46
1040
2.704444373629514
1000
ACAD_MTEXT_DEFINED_HEIGHT_END
  0
MTEXT
  5
12B1D
330
1F
100
AcDbEntity
  8
图框
100
AcDbMText
 10
396.9382422286943
 20
275.3124695984407
 30
0.0
 40
1.200004709114095
 41
7.819322494052451
 46
2.704444373633005
 71
     5
 72
     5
  1
{\C4;1.5}
  7
Romans字体
 73
     1
 44
1.0
1001
ACAD
1000
ACAD_MTEXT_DEFINED_HEIGHT_BEGIN
1070
    46
1040
2.704444373633005
1000
ACAD_MTEXT_DEFINED_HEIGHT_END
  0
MTEXT
  5
12B1E
330
1F
100
AcDbEntity
  8
图框
100
AcDbMText
 10
396.9382422286943
 20
272.608025224809
 30
0.0
 40
1.200004709114095
 41
7.819322494052451
 46
2.704444373630458
 71
     5
 72
     5
  1
{\C4;2.5}
  7
Romans字体
 73
     1
 44
1.0
1001
ACAD
1000
ACAD_MTEXT_DEFINED_HEIGHT_BEGIN
1070
    46
1040
2.704444373630458
1000
ACAD_MTEXT_DEFINED_HEIGHT_END
  0
MTEXT
  5
12B1F
330
1F
100
AcDbEntity
  8
图框
100
AcDbMText
 10
403.7978081530516
 20
275.3124695984409
 30
0.0
 40
1.200004709114095
 41
5.899809357329709
 46
2.704444373633271
 71
     5
 72
     5
  1
{\C4;16}
  7
Romans字体
 73
     1
 44
1.0
1001
ACAD
1000
ACAD_MTEXT_DEFINED_HEIGHT_BEGIN
1070
    46
1040
2.704444373633271
1000
ACAD_MTEXT_DEFINED_HEIGHT_END
  0
MTEXT
  5
12B20
330
1F
100
AcDbEntity
  8
图框
100
AcDbMText
 10
403.7978081537186
 20
272.608025224809
 30
0.0
 40
1.200004709114095
 41
5.899809355996247
 46
2.704444373630328
 71
     5
 72
     5
  1
{\C4;14}
  7
Romans字体
 73
     1
 44
1.0
1001
ACAD
1000
ACAD_MTEXT_DEFINED_HEIGHT_BEGIN
1070
    46
1040
2.704444373630328
1000
ACAD_MTEXT_DEFINED_HEIGHT_END
  0
MTEXT
  5
12B21
330
1F
100
AcDbEntity
  8
图框
100
AcDbMText
 10
379.1424244894323
 20
279.3690560874694
 30
0.0
 40
1.200004709114095
 41
12.13366799636653
 46
5.408728604425681
 71
     5
 72
     5
  1
{\fFangSong_GB2312|b0|i0|c134|p49;\C4;产品料号\Fromans|c134;\PPart NO.}
  7
Romans字体
 73
     1
 44
1.0
1001
ACAD
1000
ACAD_MTEXT_DEFINED_HEIGHT_BEGIN
1070
    46
1040
5.408728604425681
1000
ACAD_MTEXT_DEFINED_HEIGHT_END
  0
MTEXT
  5
12B22
330
1F
100
AcDbEntity
  8
图框
100
AcDbMText
 10
409.1806165561122
 20
279.3690560874701
 30
0.0
 40
1.200004709114095
 41
4.86580745145943
 46
5.408728604424871
 71
     5
 72
     5
  1
{\C4;d}
  7
Romans字体
 73
     1
 44
1.0
1001
ACAD
1000
ACAD_MTEXT_DEFINED_HEIGHT_BEGIN
1070
    46
1040
5.408728604424871
1000
ACAD_MTEXT_DEFINED_HEIGHT_END
  0
MTEXT
  5
12B23
330
1F
100
AcDbEntity
  8
图框
100
AcDbMText
 10
368.5204168645084
 20
275.31246959844
 30
0.0
 40
1.200004709114095
 41
9.110347256148227
 46
2.7044443736324
 71
     5
 72
     5
  1
{\C4;CCSM-1.5}
  7
Romans字体
 73
     1
 44
1.0
1001
ACAD
1000
ACAD_MTEXT_DEFINED_HEIGHT_BEGIN
1070
    46
1040
2.7044443736324
1000
ACAD_MTEXT_DEFINED_HEIGHT_END
  0
MTEXT
  5
12B24
330
1F
100
AcDbEntity
  8
图框
100
AcDbMText
 10
409.1806165561123
 20
275.3124695984408
 30
0.0
 40
1.200004709114095
 41
4.865807451458961
 46
2.704444373633339
 71
     5
 72
     5
  1
{\C4;1.75}
  7
Romans字体
 73
     1
 44
1.0
1001
ACAD
1000
ACAD_MTEXT_DEFINED_HEIGHT_BEGIN
1070
    46
1040
2.704444373633339
1000
ACAD_MTEXT_DEFINED_HEIGHT_END
  0
MTEXT
  5
12B25
330
1F
100
AcDbEntity
  8
图框
100
AcDbMText
 10
409.1806165561123
 20
272.6080252248089
 30
0.0
 40
1.200004709114095
 41
4.865807451458945
 46
2.704444373630395
 71
     5
 72
     5
  1
{\C4;2.25}
  7
Romans字体
 73
     1
 44
1.0
1001
ACAD
1000
ACAD_MTEXT_DEFINED_HEIGHT_BEGIN
1070
    46
1040
2.704444373630395
1000
ACAD_MTEXT_DEFINED_HEIGHT_END
  0
LINE
  5
12B26
330
1F
100
AcDbEntity
  8
图框
370
    35
100
AcDbLine
 10
363.9652432364341
 20
263.1366004552543
 30
0.0
 11
428.1367332238747
 21
263.1366004552561
 31
0.0
  0
MTEXT
  5
12B27
330
1F
100
AcDbEntity
  8
图框
100
AcDbMText
 10
368.5204168645082
 20
272.6080252248086
 30
0.0
 40
1.200004709114095
 41
9.110347256148321
 46
2.704444373630384
 71
     5
 72
     5
  1
{\C4;CCSM-2.5}
  7
Romans字体
 73
     1
 44
1.0
1001
ACAD
1000
ACAD_MTEXT_DEFINED_HEIGHT_BEGIN
1070
    46
1040
2.704444373630384
1000
ACAD_MTEXT_DEFINED_HEIGHT_END
  0
MTEXT
  5
12B28
330
1F
100
AcDbEntity
  8
图框
100
AcDbMText
 10
414.0464240069045
 20
279.3690560874701
 30
0.0
 40
1.200004709114095
 41
4.865807450125148
 46
5.408728604424871
 71
     5
 72
     5
  1
{\C4;D}
  7
Romans字体
 73
     1
 44
1.0
1001
ACAD
1000
ACAD_MTEXT_DEFINED_HEIGHT_BEGIN
1070
    46
1040
5.408728604424871
1000
ACAD_MTEXT_DEFINED_HEIGHT_END
  0
MTEXT
  5
12B29
330
1F
100
AcDbEntity
  8
图框
100
AcDbMText
 10
414.0464240069045
 20
272.6080252248089
 30
0.0
 40
1.200004709114095
 41
4.865807450125021
 46
2.704444373630395
 71
     5
 72
     5
  1
{\C4;3.5}
  7
Romans字体
 73
     1
 44
1.0
1001
ACAD
1000
ACAD_MTEXT_DEFINED_HEIGHT_BEGIN
1070
    46
1040
2.704444373630395
1000
ACAD_MTEXT_DEFINED_HEIGHT_END
  0
MTEXT
  5
12B34
330
1F
100
AcDbEntity
  8
图框
100
AcDbMText
 10
414.0464240069045
 20
275.312469598441
 30
0.0
 40
1.200004709114095
 41
4.865807450125195
 46
2.70444437363364
 71
     5
 72
     5
  1
{\C4;3}
  7
Romans字体
 73
     1
 44
1.0
1001
ACAD
1000
ACAD_MTEXT_DEFINED_HEIGHT_BEGIN
1070
    46
1040
2.70444437363364
1000
ACAD_MTEXT_DEFINED_HEIGHT_END
  0
LINE
  5
12C15
330
1F
100
AcDbEntity
  8
图框
370
    35
380
     1
100
AcDbLine
 10
411.6135202818417
 20
282.073580532657
 30
0.0
 11
411.6135202818417
 21
263.1366004552556
 31
0.0
  0
LINE
  5
12C16
330
1F
100
AcDbEntity
  8
图框
370
    -3
100
AcDbLine
 10
406.7477128317158
 20
282.073580532657
 30
0.0
 11
406.7477128317174
 21
263.1366004552555
 31
0.0
  0
LINE
  5
12C17
330
1F
100
AcDbEntity
  8
图框
370
    -3
100
AcDbLine
 10
400.8479034757206
 20
279.3691561660238
 30
0.0
 11
400.8479034757201
 21
263.1366004552553
 31
0.0
  0
LINE
  5
12C18
330
1F
100
AcDbEntity
  8
图框
370
    -3
100
AcDbLine
 10
373.0755904925824
 20
263.1366004552546
 30
0.0
 11
373.0755904925825
 21
279.3691561660223
 31
0.0
  0
LINE
  5
12C19
330
1F
100
AcDbEntity
  8
图框
370
    -3
100
AcDbLine
 10
385.209258488949
 20
263.136600455255
 30
0.0
 11
385.209258488949
 21
282.0735805326567
 31
0.0
  0
MTEXT
  5
12C1B
330
1F
100
AcDbEntity
  8
图框
100
AcDbMText
 10
396.9382422293611
 20
269.9035808511786
 30
0.0
 40
1.19999583169232
 41
7.819322492718757
 46
2.704444373630559
 71
     5
 72
     5
  1
{\C4;4}
  7
Romans字体
 73
     1
 44
1.0
1001
ACAD
1000
ACAD_MTEXT_DEFINED_HEIGHT_BEGIN
1070
    46
1040
2.704444373630559
1000
ACAD_MTEXT_DEFINED_HEIGHT_END
  0
MTEXT
  5
12C1C
330
1F
100
AcDbEntity
  8
图框
100
AcDbMText
 10
403.7978081537186
 20
269.9035808511786
 30
0.0
 40
1.19999583169232
 41
5.899809355996548
 46
2.704444373630423
 71
     5
 72
     5
  1
{\C4;12}
  7
Romans字体
 73
     1
 44
1.0
1001
ACAD
1000
ACAD_MTEXT_DEFINED_HEIGHT_BEGIN
1070
    46
1040
2.704444373630423
1000
ACAD_MTEXT_DEFINED_HEIGHT_END
  0
MTEXT
  5
12C1D
330
1F
100
AcDbEntity
  8
图框
100
AcDbMText
 10
409.1806165567794
 20
269.9035808511786
 30
0.0
 40
1.19999583169232
 41
4.865807450125251
 46
2.704444373630491
 71
     5
 72
     5
  1
{\C4;2.85}
  7
Romans字体
 73
     1
 44
1.0
1001
ACAD
1000
ACAD_MTEXT_DEFINED_HEIGHT_BEGIN
1070
    46
1040
2.704444373630491
1000
ACAD_MTEXT_DEFINED_HEIGHT_END
  0
MTEXT
  5
12C1E
330
1F
100
AcDbEntity
  8
图框
100
AcDbMText
 10
368.520416863447
 20
269.9035808511784
 30
0.0
 40
1.19999583169232
 41
9.110347255603928
 46
2.704444373630491
 71
     5
 72
     5
  1
{\C4;CCSM-4.0}
  7
Romans字体
 73
     1
 44
1.0
1001
ACAD
1000
ACAD_MTEXT_DEFINED_HEIGHT_BEGIN
1070
    46
1040
2.704444373630491
1000
ACAD_MTEXT_DEFINED_HEIGHT_END
  0
MTEXT
  5
12C1F
330
1F
100
AcDbEntity
  8
图框
100
AcDbMText
 10
368.520416863447
 20
267.1991364775478
 30
0.0
 40
1.19999583169232
 41
9.110347258271113
 46
2.704444373630491
 71
     5
 72
     5
  1
{\C4;CCSM-6.0}
  7
Romans字体
 73
     1
 44
1.0
1001
ACAD
1000
ACAD_MTEXT_DEFINED_HEIGHT_BEGIN
1070
    46
1040
2.704444373630491
1000
ACAD_MTEXT_DEFINED_HEIGHT_END
  0
MTEXT
  5
12C20
330
1F
100
AcDbEntity
  8
图框
100
AcDbMText
 10
368.5204168641138
 20
264.4917573729935
 30
0.0
 40
1.19999583169232
 41
9.110347256937654
 46
2.710313835478121
 71
     5
 72
     5
  1
{\C4;CCSM-10.0}
  7
Romans字体
 73
     1
 44
1.0
1001
ACAD
1000
ACAD_MTEXT_DEFINED_HEIGHT_BEGIN
1070
    46
1040
2.710313835478121
1000
ACAD_MTEXT_DEFINED_HEIGHT_END
  0
MTEXT
  5
12C21
330
1F
100
AcDbEntity
  8
图框
100
AcDbMText
 10
396.9382422293611
 20
267.1947844312986
 30
0.0
 40
1.19999583169232
 41
7.819322492718757
 46
2.695740281131214
 71
     5
 72
     5
  1
{\C4;6}
  7
Romans字体
 73
     1
 44
1.0
1001
ACAD
1000
ACAD_MTEXT_DEFINED_HEIGHT_BEGIN
1070
    46
1040
2.695740281131214
1000
ACAD_MTEXT_DEFINED_HEIGHT_END
  0
MTEXT
  5
12C22
330
1F
100
AcDbEntity
  8
图框
100
AcDbMText
 10
396.9382422286941
 20
264.4917573729943
 30
0.0
 40
1.19999583169232
 41
7.819322494052218
 46
2.710313835477585
 71
     5
 72
     5
  1
{\C4;10}
  7
Romans字体
 73
     1
 44
1.0
1001
ACAD
1000
ACAD_MTEXT_DEFINED_HEIGHT_BEGIN
1070
    46
1040
2.710313835477585
1000
ACAD_MTEXT_DEFINED_HEIGHT_END
  0
MTEXT
  5
12C23
330
1F
100
AcDbEntity
  8
图框
100
AcDbMText
 10
403.7978081530519
 20
267.1947043598113
 30
0.0
 40
1.19999583169232
 41
5.899809354663361
 46
2.695580138156738
 71
     5
 72
     5
  1
{\C4;10}
  7
Romans字体
 73
     1
 44
1.0
1001
ACAD
1000
ACAD_MTEXT_DEFINED_HEIGHT_BEGIN
1070
    46
1040
2.695580138156738
1000
ACAD_MTEXT_DEFINED_HEIGHT_END
  0
MTEXT
  5
12C24
330
1F
100
AcDbEntity
  8
图框
100
AcDbMText
 10
403.7978081537188
 20
264.4917573729942
 30
0.0
 40
1.19999583169232
 41
5.899809355997221
 46
2.710313835477518
 71
     5
 72
     5
  1
{\C4;8}
  7
Romans字体
 73
     1
 44
1.0
1001
ACAD
1000
ACAD_MTEXT_DEFINED_HEIGHT_BEGIN
1070
    46
1040
2.710313835477518
1000
ACAD_MTEXT_DEFINED_HEIGHT_END
  0
MTEXT
  5
12C25
330
1F
100
AcDbEntity
  8
图框
100
AcDbMText
 10
414.0464240069045
 20
269.9035808511785
 30
0.0
 40
1.19999583169232
 41
4.865807450125076
 46
2.704444373630188
 71
     5
 72
     5
  1
{\C4;3.9}
  7
Romans字体
 73
     1
 44
1.0
1001
ACAD
1000
ACAD_MTEXT_DEFINED_HEIGHT_BEGIN
1070
    46
1040
2.704444373630188
1000
ACAD_MTEXT_DEFINED_HEIGHT_END
  0
MTEXT
  5
12C26
330
1F
100
AcDbEntity
  8
图框
100
AcDbMText
 10
409.1806165561128
 20
267.1991364775481
 30
0.0
 40
1.19999583169232
 41
4.865807451458461
 46
2.704444373630491
 71
     5
 72
     5
  1
{\C4;3.5}
  7
Romans字体
 73
     1
 44
1.0
1001
ACAD
1000
ACAD_MTEXT_DEFINED_HEIGHT_BEGIN
1070
    46
1040
2.704444373630491
1000
ACAD_MTEXT_DEFINED_HEIGHT_END
  0
MTEXT
  5
12C27
330
1F
100
AcDbEntity
  8
图框
100
AcDbMText
 10
409.1806165561129
 20
264.4917573729943
 30
0.0
 40
1.19999583169232
 41
4.865807451458196
 46
2.710313835477184
 71
     5
 72
     5
  1
{\C4;4.3}
  7
Romans字体
 73
     1
 44
1.0
1001
ACAD
1000
ACAD_MTEXT_DEFINED_HEIGHT_BEGIN
1070
    46
1040
2.710313835477184
1000
ACAD_MTEXT_DEFINED_HEIGHT_END
  0
MTEXT
  5
12C28
330
1F
100
AcDbEntity
  8
图框
100
AcDbMText
 10
414.0464240069045
 20
267.1991364775482
 30
0.0
 40
1.19999583169232
 41
4.865807450125188
 46
2.704444373630594
 71
     5
 72
     5
  1
{\C4;5}
  7
Romans字体
 73
     1
 44
1.0
1001
ACAD
1000
ACAD_MTEXT_DEFINED_HEIGHT_BEGIN
1070
    46
1040
2.704444373630594
1000
ACAD_MTEXT_DEFINED_HEIGHT_END
  0
MTEXT
  5
12C29
330
1F
100
AcDbEntity
  8
图框
100
AcDbMText
 10
414.0464240069043
 20
264.4917573729944
 30
0.0
 40
1.19999583169232
 41
4.865807450125188
 46
2.71031383547714
 71
     5
 72
     5
  1
{\C4;5.6}
  7
Romans字体
 73
     1
 44
1.0
1001
ACAD
1000
ACAD_MTEXT_DEFINED_HEIGHT_BEGIN
1070
    46
1040
2.71031383547714
1000
ACAD_MTEXT_DEFINED_HEIGHT_END
  0
LINE
  5
12C31
330
1F
100
AcDbEntity
  8
图框
370
    -3
100
AcDbLine
 10
406.7477128303825
 20
282.0734203896825
 30
0.0
 11
406.7477128303839
 21
263.1366004552555
 31
0.0
  0
LINE
  5
12C32
330
1F
100
AcDbEntity
  8
图框
370
    -3
100
AcDbLine
 10
400.8479034743869
 20
279.3689960230492
 30
0.0
 11
400.8479034743865
 21
263.1366004552553
 31
0.0
  0
LINE
  5
12C33
330
1F
100
AcDbEntity
  8
图框
370
    -3
100
AcDbLine
 10
373.0755904912488
 20
263.1366004552546
 30
0.0
 11
373.0755904912489
 21
282.0734203896823
 31
0.0
  0
LINE
  5
12C34
330
1F
100
AcDbEntity
  8
图框
370
    -3
100
AcDbLine
 10
385.2092584876152
 20
263.1366004552549
 30
0.0
 11
385.2092584876153
 21
282.0734203896824
 31
0.0
  0
LINE
  5
12C38
330
1F
100
AcDbEntity
  8
图框
370
    35
380
     1
100
AcDbLine
 10
428.1367332238747
 20
282.0734203896829
 30
0.0
 11
428.1367332238747
 21
263.1366004552561
 31
0.0
  0
LINE
  5
12C46
330
1F
100
AcDbEntity
  8
图框
370
    -3
100
AcDbLine
 10
363.9652432364341
 20
268.5513586643637
 30
0.0
 11
428.1367332238747
 21
268.5513586643633
 31
0.0
  0
LINE
  5
12C47
330
1F
100
AcDbEntity
  8
图框
370
    -3
100
AcDbLine
 10
363.9652432364341
 20
265.8469142907332
 30
0.0
 11
428.1367332238747
 21
265.8469142907329
 31
0.0
  0
MTEXT
  5
12C4B
102
{ACAD_XDICTIONARY
360
14D40
102
}
330
1F
100
AcDbEntity
  8
打标文字
 62
     3
100
AcDbMText
 10
465.8456595971053
 20
251.0690766020604
 30
0.0
 40
1.5
 41
43.12740902174065
 46
53.91180554791946
 71
     1
 72
     5
  3
\A1;{\f仿宋_GB2312|b0|i0|c134|p49;技术参数}:\P- {\f仿宋_GB2312|b0|i0|c134|p49;材料}: {\f仿宋_GB2312|b0|i0|c134|p49;铜合金}\P- {\f仿宋_GB2312|b0|i0|c134|p49;表面处理}: {\f仿宋_GB2312|b0|i0|c134|p49;镀银}\P- {\f仿宋_GB2312|b0|i0|c134|p49;额定电流}: 40A\P- {\f仿宋_GB2312|b0|i0|c134|p49
  3
;接触电阻}: ≤1mΩ\P- {\f仿宋_GB2312|b0|i0|c134|p49;线径范围}: 1.5mm{\H0.7x;\S2^ ;}(16 AWG)\P- {\f仿宋_GB2312|b0|i0|c134|p49;可插拔次数}: {\fSimSun|b0|i0|c134|p2;≥}500\P\PTechnical specification:\P- Material: copper alloy\P- Surface: hard-silver plated\P- Rated current:
  1
 40A\P- Contact resistance: ≤1mΩ\P- Wire gauge: 1.5mm{\H0.7x;\S2^ ;}(16 AWG)\P- Mating cycles: {\fSimSun|b0|i0|c134|p2;≥}500
  7
Romans字体
 73
     1
 44
1.0
1001
ACAD
1000
ACAD_MTEXT_DEFINED_HEIGHT_BEGIN
1070
    46
1040
53.91180554791946
1000
ACAD_MTEXT_DEFINED_HEIGHT_END
  0
MTEXT
  5
12C4D
330
1F
100
AcDbEntity
  8
图框
100
AcDbMText
 10
368.5204168638418
 20
279.3691461624544
 30
0.0
 40
1.200004709114095
 41
9.110347254814612
 46
5.408548454455798
 71
     5
 72
     5
  1
{\fFangSong_GB2312|b0|i0|c134|p49;\C4;产品代号\P\Fromans|c134;Part code}
  7
Romans字体
 73
     1
 44
1.0
1001
ACAD
1000
ACAD_MTEXT_DEFINED_HEIGHT_BEGIN
1070
    46
1040
5.408548454455798
1000
ACAD_MTEXT_DEFINED_HEIGHT_END
  0
MTEXT
  5
12C4E
330
1F
100
AcDbEntity
  8
图框
100
AcDbMText
 10
379.1424244907657
 20
275.3124695984401
 30
0.0
 40
1.200004709114095
 41
12.13366799636653
 46
2.704444373632686
 71
     5
 72
     5
  1
{\C4;1010231100901}
  7
Romans字体
 73
     1
 44
1.0
1001
ACAD
1000
ACAD_MTEXT_DEFINED_HEIGHT_BEGIN
1070
    46
1040
2.704444373632686
1000
ACAD_MTEXT_DEFINED_HEIGHT_END
  0
MTEXT
  5
12C4F
330
1F
100
AcDbEntity
  8
图框
100
AcDbMText
 10
379.1424244907657
 20
272.6080252248071
 30
0.0
 40
1.200004709114095
 41
12.13366799636653
 46
2.704444373632686
 71
     5
 72
     5
  1
{\C4;1010231101001}
  7
Romans字体
 73
     1
 44
1.0
1001
ACAD
1000
ACAD_MTEXT_DEFINED_HEIGHT_BEGIN
1070
    46
1040
2.704444373632686
1000
ACAD_MTEXT_DEFINED_HEIGHT_END
  0
MTEXT
  5
12C50
330
1F
100
AcDbEntity
  8
图框
100
AcDbMText
 10
379.1424244907657
 20
269.9035808511767
 30
0.0
 40
1.200004709114095
 41
12.13366799636653
 46
2.704444373632686
 71
     5
 72
     5
  1
{\C4;1010231101201}
  7
Romans字体
 73
     1
 44
1.0
1001
ACAD
1000
ACAD_MTEXT_DEFINED_HEIGHT_BEGIN
1070
    46
1040
2.704444373632686
1000
ACAD_MTEXT_DEFINED_HEIGHT_END
  0
MTEXT
  5
12C51
330
1F
100
AcDbEntity
  8
图框
100
AcDbMText
 10
379.1424244907657
 20
267.1991364775463
 30
0.0
 40
1.200004709114095
 41
12.13366799636653
 46
2.704444373632686
 71
     5
 72
     5
  1
{\C4;1010231101301}
  7
Romans字体
 73
     1
 44
1.0
1001
ACAD
1000
ACAD_MTEXT_DEFINED_HEIGHT_BEGIN
1070
    46
1040
2.704444373632686
1000
ACAD_MTEXT_DEFINED_HEIGHT_END
  0
MTEXT
  5
12C52
330
1F
100
AcDbEntity
  8
图框
100
AcDbMText
 10
379.1424244907657
 20
264.4946921039159
 30
0.0
 40
1.200004709114095
 41
12.13366799636653
 46
2.704444373632686
 71
     5
 72
     5
  1
{\C4;1010231101401}
  7
Romans字体
 73
     1
 44
1.0
1001
ACAD
1000
ACAD_MTEXT_DEFINED_HEIGHT_BEGIN
1070
    46
1040
2.704444373632686
1000
ACAD_MTEXT_DEFINED_HEIGHT_END
  0
MTEXT
  5
12C56
330
1F
100
AcDbEntity
  8
图框
100
AcDbMText
 10
389.1189197353084
 20
275.3124695984401
 30
0.0
 40
1.200004709114095
 41
7.819322492718905
 46
2.704444373633061
 71
     5
 72
     5
  1
{\C4;2.98}
  7
Romans字体
 73
     1
 44
1.0
1001
ACAD
1000
ACAD_MTEXT_DEFINED_HEIGHT_BEGIN
1070
    46
1040
2.704444373633061
1000
ACAD_MTEXT_DEFINED_HEIGHT_END
  0
MTEXT
  5
12C57
330
1F
100
AcDbEntity
  8
图框
100
AcDbMText
 10
389.1189197353085
 20
280.7212782742846
 30
0.0
 40
1.200004709114095
 41
7.819322492718882
 46
2.704284230795455
 71
     5
 72
     5
  1
{\fFangSong_GB2312|b0|i0|c134|p49;\C4;重量\Fromans|c134;/Weight}
  7
Romans字体
 73
     1
 44
1.0
1001
ACAD
1000
ACAD_MTEXT_DEFINED_HEIGHT_BEGIN
1070
    46
1040
2.704284230795455
1000
ACAD_MTEXT_DEFINED_HEIGHT_END
  0
MTEXT
  5
12C58
330
1F
100
AcDbEntity
  8
图框
100
AcDbMText
 10
389.1189197353085
 20
278.016913972072
 30
0.0
 40
1.200004709114095
 41
7.819322492718766
 46
2.704444373629943
 71
     5
 72
     5
  1
{\C4;g}
  7
Romans字体
 73
     1
 44
1.0
1001
ACAD
1000
ACAD_MTEXT_DEFINED_HEIGHT_BEGIN
1070
    46
1040
2.704444373629943
1000
ACAD_MTEXT_DEFINED_HEIGHT_END
  0
LINE
  5
12C59
330
1F
100
AcDbEntity
  8
图框
370
    -3
100
AcDbLine
 10
393.0285809816681
 20
282.0734203896823
 30
0.0
 11
393.0285809816676
 21
263.1366004552551
 31
0.0
  0
MTEXT
  5
12C5A
330
1F
100
AcDbEntity
  8
图框
100
AcDbMText
 10
389.1189197353083
 20
272.6080252248071
 30
0.0
 40
1.200004709114095
 41
7.819322492718905
 46
2.704444373633061
 71
     5
 72
     5
  1
{\C4;3.08}
  7
Romans字体
 73
     1
 44
1.0
1001
ACAD
1000
ACAD_MTEXT_DEFINED_HEIGHT_BEGIN
1070
    46
1040
2.704444373633061
1000
ACAD_MTEXT_DEFINED_HEIGHT_END
  0
MTEXT
  5
12C5B
330
1F
100
AcDbEntity
  8
图框
100
AcDbMText
 10
389.1189197353084
 20
269.9035808511768
 30
0.0
 40
1.200004709114095
 41
7.819322492718905
 46
2.704444373633061
 71
     5
 72
     5
  1
{\C4;3.1}
  7
Romans字体
 73
     1
 44
1.0
1001
ACAD
1000
ACAD_MTEXT_DEFINED_HEIGHT_BEGIN
1070
    46
1040
2.704444373633061
1000
ACAD_MTEXT_DEFINED_HEIGHT_END
  0
MTEXT
  5
12C5C
330
1F
100
AcDbEntity
  8
图框
100
AcDbMText
 10
389.1189197353084
 20
267.1991364775463
 30
0.0
 40
1.200004709114095
 41
7.819322492718905
 46
2.704444373633061
 71
     5
 72
     5
  1
{\C4;3.18}
  7
Romans字体
 73
     1
 44
1.0
1001
ACAD
1000
ACAD_MTEXT_DEFINED_HEIGHT_BEGIN
1070
    46
1040
2.704444373633061
1000
ACAD_MTEXT_DEFINED_HEIGHT_END
  0
MTEXT
  5
12C5D
330
1F
100
AcDbEntity
  8
图框
100
AcDbMText
 10
389.1189197353083
 20
264.4946921039159
 30
0.0
 40
1.200004709114095
 41
7.819322492718905
 46
2.704444373633061
 71
     5
 72
     5
  1
{\C4;3.07}
  7
Romans字体
 73
     1
 44
1.0
1001
ACAD
1000
ACAD_MTEXT_DEFINED_HEIGHT_BEGIN
1070
    46
1040
2.704444373633061
1000
ACAD_MTEXT_DEFINED_HEIGHT_END
  0
LINE
  5
12C63
330
1F
100
AcDbEntity
  8
图框
 62
     1
100
AcDbLine
 10
508.9730686188461
 20
282.0735805324943
 30
0.0
 11
508.9730686188461
 21
262.5438243029781
 31
0.0
  0
MTEXT
  5
13003
330
1F
100
AcDbEntity
  8
图框
100
AcDbMText
 10
422.3080304779206
 20
279.3690560874701
 30
0.0
 40
1.199999999999999
 41
11.65740549190757
 46
5.408728604424518
 71
     5
 72
     5
  1
{\fFangSong_GB2312|b0|i0|c134|p49;\C4;剥线长度\Fromans|c134;\PStripping length}
  7
Romans字体
 73
     1
 44
1.0
1001
ACAD
1000
ACAD_MTEXT_DEFINED_HEIGHT_BEGIN
1070
    46
1040
5.408728604424518
1000
ACAD_MTEXT_DEFINED_HEIGHT_END
  0
LINE
  5
13093
330
1F
100
AcDbEntity
  8
图框
 62
     1
370
    18
100
AcDbLine
 10
362.2152432364329
 20
289.5734203896823
 30
0.0
 11
510.7146182042826
 21
289.5734203896823
 31
0.0
1001
AcDbBlockRepETag
1070
     1
1071
      143
1005
13093
  0
LINE
  5
1309A
330
1F
100
AcDbEntity
  8
图框
370
    35
380
     1
100
AcDbLine
 10
416.4793277319668
 20
282.0734203896825
 30
0.0
 11
416.4793277319667
 21
263.1366004552558
 31
0.0
  0
MTEXT
  5
1309B
330
1F
100
AcDbEntity
  8
图框
100
AcDbMText
 10
422.3080304779206
 20
275.3124695984411
 30
0.0
 40
1.200004709114095
 41
11.65740549190751
 46
2.70444437363364
 71
     5
 72
     5
  1
{\C4;9.6}
  7
Romans字体
 73
     1
 44
1.0
1001
ACAD
1000
ACAD_MTEXT_DEFINED_HEIGHT_BEGIN
1070
    46
1040
2.70444437363364
1000
ACAD_MTEXT_DEFINED_HEIGHT_END
  0
MTEXT
  5
1309C
330
1F
100
AcDbEntity
  8
图框
100
AcDbMText
 10
422.3080304779206
 20
272.6080252248074
 30
0.0
 40
1.200004709114095
 41
11.65740549190751
 46
2.704444373633473
 71
     5
 72
     5
  1
{\C4;9.6}
  7
Romans字体
 73
     1
 44
1.0
1001
ACAD
1000
ACAD_MTEXT_DEFINED_HEIGHT_BEGIN
1070
    46
1040
2.704444373633473
1000
ACAD_MTEXT_DEFINED_HEIGHT_END
  0
MTEXT
  5
1309D
330
1F
100
AcDbEntity
  8
图框
100
AcDbMText
 10
422.3080304779206
 20
269.903580851177
 30
0.0
 40
1.200004709114095
 41
11.65740549190751
 46
2.704444373633473
 71
     5
 72
     5
  1
{\C4;9.6}
  7
Romans字体
 73
     1
 44
1.0
1001
ACAD
1000
ACAD_MTEXT_DEFINED_HEIGHT_BEGIN
1070
    46
1040
2.704444373633473
1000
ACAD_MTEXT_DEFINED_HEIGHT_END
  0
MTEXT
  5
1309E
330
1F
100
AcDbEntity
  8
图框
100
AcDbMText
 10
422.3080304779206
 20
267.1991364775466
 30
0.0
 40
1.200004709114095
 41
11.65740549190751
 46
2.704444373633358
 71
     5
 72
     5
  1
{\C4;9.6}
  7
Romans字体
 73
     1
 44
1.0
1001
ACAD
1000
ACAD_MTEXT_DEFINED_HEIGHT_BEGIN
1070
    46
1040
2.704444373633358
1000
ACAD_MTEXT_DEFINED_HEIGHT_END
  0
MTEXT
  5
1309F
330
1F
100
AcDbEntity
  8
图框
100
AcDbMText
 10
422.3080304779206
 20
264.4917573729945
 30
0.0
 40
1.200004709114095
 41
11.65740549190757
 46
2.71031383547689
 71
     5
 72
     5
  1
{\C4;12}
  7
Romans字体
 73
     1
 44
1.0
1001
ACAD
1000
ACAD_MTEXT_DEFINED_HEIGHT_BEGIN
1070
    46
1040
2.71031383547689
1000
ACAD_MTEXT_DEFINED_HEIGHT_END
  0
MTEXT
  5
13EBA
330
1F
100
AcDbEntity
  8
图框
 62
     3
100
AcDbMText
 10
500.5699706088269
 20
203.270449343129
 30
0.0
 40
1.492756789270166
 41
16.80619601594785
 46
4.343372757943781
 71
     5
 72
     5
  1
CCSM-1.5
  7
Romans字体
 73
     1
 44
1.0
1001
ACAD
1000
ACAD_MTEXT_DEFINED_HEIGHT_BEGIN
1070
    46
1040
4.343372757943781
1000
ACAD_MTEXT_DEFINED_HEIGHT_END
  0
MTEXT
  5
13EBB
330
1F
100
AcDbEntity
  8
图框
 62
     3
100
AcDbMText
 10
500.5699706088269
 20
198.8807240745606
 30
0.0
 40
1.492756789270166
 41
16.80619601594785
 46
4.436077779192773
 71
     5
 72
     5
  1
1010231100901
  7
Romans字体
 73
     1
 44
1.0
1001
ACAD
1000
ACAD_MTEXT_DEFINED_HEIGHT_BEGIN
1070
    46
1040
4.436077779192773
1000
ACAD_MTEXT_DEFINED_HEIGHT_END
  0
MTEXT
  5
13EBC
330
1F
100
AcDbEntity
  8
图框
 62
     3
100
AcDbMText
 10
466.5431381035733
 20
192.2269065273738
 30
0.0
 40
1.492756789270166
 41
5.414674223554219
 46
3.943047305235955
 71
     5
 72
     5
  1
2:1 
  7
Romans字体
 73
     1
 44
1.0
1001
ACAD
1000
ACAD_MTEXT_DEFINED_HEIGHT_BEGIN
1070
    46
1040
3.943047305235955
1000
ACAD_MTEXT_DEFINED_HEIGHT_END
  0
MTEXT
  5
13EBD
330
1F
100
AcDbEntity
  8
图框
 62
     3
100
AcDbMText
 10
477.3724865506828
 20
192.2269065273739
 30
0.0
 40
1.492756789270166
 41
5.414674223555066
 46
3.943047305235906
 71
     5
 72
     5
  1
2.98g 
  7
Romans字体
 73
     1
 44
1.0
1001
ACAD
1000
ACAD_MTEXT_DEFINED_HEIGHT_BEGIN
1070
    46
1040
3.943047305235906
1000
ACAD_MTEXT_DEFINED_HEIGHT_END
  0
INSERT
  5
13EBE
330
1F
100
AcDbEntity
  8
DIM
100
AcDbBlockReference
  2
A4图框-NEW
 10
-54.49118335011199
 20
-55.69396471345189
 30
0.0
 41
0.5000000005871926
 42
0.5000000005871926
 43
0.5000000005871991
  0
SPLINE
  5
14313
330
1F
100
AcDbEntity
  8
0
100
AcDbSpline
210
0.0
220
0.0
230
1.0
 70
     8
 71
     3
 72
    20
 73
    16
 74
    14
 42
0.0000000001
 43
0.0000000001
 44
0.0000000001
 12
-0.9554208442421703
 22
0.2952473715167985
 32
0.0
 13
0.8976647402017633
 23
0.4406790376209205
 33
0.0
 40
0.0
 40
0.0
 40
0.0
 40
0.0
 40
0.478090637525749
 40
0.9863903984409665
 40
1.5209093805575
 40
2.074473999379126
 40
2.637841956199988
 40
3.200774065595372
 40
3.75307455780757
 40
4.285632871306543
 40
4.791499204799369
 40
5.267001841860112
 40
5.712827887583762
 40
6.134772929279196
 40
6.526576766725895
 40
6.526576766725895
 40
6.526576766725895
 40
6.526576766725895
 10
387.0193127513645
 20
198.0283751700929
 30
0.0
 10
386.8670534978548
 20
198.0754268381183
 30
0.0
 10
386.5628911453594
 20
198.2068926877941
 30
0.0
 10
386.1403628434551
 20
198.4912947915458
 30
0.0
 10
385.7517617965878
 20
198.858074724656
 30
0.0
 10
385.4115215066665
 20
199.2933005322745
 30
0.0
 10
385.1320788092153
 20
199.7806977855098
 30
0.0
 10
384.9238449061031
 20
200.3020520318148
 30
0.0
 10
384.794632550653
 20
200.837935702583
 30
0.0
 10
384.7494252872847
 20
201.3684596113569
 30
0.0
 10
384.7903021819424
 20
201.8740324832454
 30
0.0
 10
384.9165193413617
 20
202.3359463791152
 30
0.0
 10
385.1248069213309
 20
202.7366996272992
 30
0.0
 10
385.4048871773335
 20
203.0553920595242
 30
0.0
 10
385.6335795576673
 20
203.2078478337678
 30
0.0
 10
385.7508157209845
 20
203.2654010797752
 30
0.0
 11
387.0193127513645
 21
198.0283751700929
 31
0.0
 11
386.5792846653701
 21
198.2153135054494
 31
0.0
 11
386.1561666119815
 21
198.4969866490807
 31
0.0
 11
385.7662187804824
 21
198.8625700608379
 31
0.0
 11
385.4244266472567
 21
199.2980145749567
 31
0.0
 11
385.1439250931723
 21
199.7865863024735
 31
0.0
 11
384.9354936348188
 21
200.3095097069573
 31
0.0
 11
384.8071421764277
 21
200.8466891339896
 31
0.0
 11
384.7638031927534
 21
201.3774810798318
 31
0.0
 11
384.8071421764277
 21
201.8814875082189
 31
0.0
 11
384.9354936348188
 21
202.3393397343581
 31
0.0
 11
385.1439250931723
 21
202.7334427541565
 31
0.0
 11
385.4244266472567
 21
203.0486514094431
 31
0.0
 11
385.7508157209845
 21
203.2654010797752
 31
0.0
  0
SPLINE
  5
14314
330
1F
100
AcDbEntity
  8
0
100
AcDbSpline
210
0.0
220
0.0
230
1.0
 70
     8
 71
     3
 72
    10
 73
     6
 74
     4
 42
0.0000000001
 43
0.0000000001
 44
0.0000000001
 12
0.9554208443023629
 22
-0.2952473713220151
 32
0.0
 13
0.8979786178196466
 23
0.4400390913756607
 33
0.0
 40
0.0
 40
0.0
 40
0.0
 40
0.0
 40
0.3974513254834773
 40
0.7721561548659693
 40
1.081729116926825
 40
1.081729116926825
 40
1.081729116926825
 40
1.081729116926825
 10
382.0673606661934
 20
196.0403268315547
 30
0.0
 10
382.1939384265143
 20
196.0012113451955
 30
0.0
 10
382.4494589815783
 20
195.9516246438221
 30
0.0
 10
382.8135747442689
 20
195.9757244581849
 30
0.0
 10
383.0317699661947
 20
196.0509152596863
 30
0.0
 10
383.1244332663899
 20
196.0963233279995
 30
0.0
 11
382.0673606661934
 21
196.0403268315547
 31
0.0
 11
382.4581496714894
 21
195.9678595322514
 31
0.0
 11
382.8318593217559
 21
195.9951506747751
 31
0.0
 11
383.1244332663899
 21
196.0963233279995
 31
0.0
  0
SPLINE
  5
14315
330
1F
100
AcDbEntity
  8
0
100
AcDbSpline
210
0.0
220
0.0
230
1.0
 70
     8
 71
     3
 72
     9
 73
     5
 74
     3
 42
0.0000000001
 43
0.0000000001
 44
0.0000000001
 12
0.9372554356560044
 22
0.3486434401122064
 32
0.0
 13
0.9906384919053634
 23
0.1365114586965782
 33
0.0
 40
0.0
 40
0.0
 40
0.0
 40
0.0
 40
0.1583810506026917
 40
0.2331435808447071
 40
0.2331435808447071
 40
0.2331435808447071
 40
0.2331435808447071
 10
386.8053232246258
 20
202.7706134905931
 30
0.0
 10
386.8548043914866
 20
202.7890196620367
 30
0.0
 10
386.9298794334505
 20
202.8105570861661
 30
0.0
 10
387.0065049147208
 20
202.8237600982118
 30
0.0
 10
387.0311924614575
 20
202.8271620788982
 30
0.0
 11
386.8053232246258
 21
202.7706134905931
 31
0.0
 11
386.9575211121031
 21
202.8144354056295
 31
0.0
 11
387.0311924614575
 21
202.8271620788982
 31
0.0
  0
LINE
  5
14316
330
1F
100
AcDbEntity
  8
0
100
AcDbLine
 10
386.7975179324929
 20
202.7676740408081
 30
0.0
 11
386.805323224626
 21
202.7706134905931
 31
0.0
  0
SPLINE
  5
14317
330
1F
100
AcDbEntity
  8
0
100
AcDbSpline
210
0.0
220
0.0
230
1.0
 70
     8
 71
     3
 72
    21
 73
    17
 74
    15
 42
0.0000000001
 43
0.0000000001
 44
0.0000000001
 12
-0.9554208442503375
 22
0.2952473714903693
 32
0.0
 13
0.9344032351071104
 23
0.3562170605422573
 33
0.0
 40
0.0
 40
0.0
 40
0.0
 40
0.0
 40
0.3373588332462007
 40
0.696536256975778
 40
1.075825072571401
 40
1.467217109966262
 40
1.865519330220356
 40
2.261435713138169
 40
2.648886693230847
 40
3.020355152920719
 40
3.372686080159111
 40
3.696004710924182
 40
3.972211664022796
 40
4.203828241360091
 40
4.404344989304291
 40
4.573731938042561
 40
4.573731938042561
 40
4.573731938042561
 40
4.573731938042561
 10
387.5809842509307
 20
199.1362516002578
 30
0.0
 10
387.4735443638389
 20
199.1694530365128
 30
0.0
 10
387.2589563440764
 20
199.2629751248356
 30
0.0
 10
386.9615199998651
 20
199.4664034096702
 30
0.0
 10
386.6893493522582
 20
199.729115561106
 30
0.0
 10
386.4530149021106
 20
200.0407360258445
 30
0.0
 10
386.2620248359782
 20
200.3883148650781
 30
0.0
 10
386.1235615425959
 20
200.7585542786257
 30
0.0
 10
386.0431610586849
 20
201.1365403849536
 30
0.0
 10
386.0239900709022
 20
201.5081470763494
 30
0.0
 10
386.0669933447681
 20
201.8565420834371
 30
0.0
 10
386.1671691639104
 20
202.1600322102291
 30
0.0
 10
386.3085714570963
 20
202.4007634140327
 30
0.0
 10
386.469527838595
 20
202.5758184181739
 30
0.0
 10
386.6329491704276
 20
202.6940751313712
 30
0.0
 10
386.7447593615309
 20
202.7475612004837
 30
0.0
 10
386.7975179324929
 20
202.7676740408083
 30
0.0
 11
387.5809842509307
 21
199.1362516002578
 31
0.0
 11
387.2708424663926
 21
199.2690034584472
 31
0.0
 11
386.9732966257153
 21
199.4701871914195
 31
0.0
 11
386.6994922666214
 21
199.7326584823774
 31
0.0
 11
386.4623809680833
 21
200.0440520581648
 31
0.0
 11
386.2704123065575
 21
200.3930401548835
 31
0.0
 11
386.1320852885466
 21
200.7640056766654
 31
0.0
 11
386.0524072039884
 21
201.1431753811724
 31
0.0
 11
386.034778328463
 21
201.514225295998
 31
0.0
 11
386.079975579085
 21
201.8636452307826
 31
0.0
 11
386.1834412865588
 21
202.1699617082642
 31
0.0
 11
386.3247357821663
 21
202.4072930092994
 31
0.0
 11
386.4821128338671
 21
202.5772303580353
 31
0.0
 11
386.6447313025284
 21
202.6945427608595
 31
0.0
 11
386.7975179324929
 21
202.7676740408083
 31
0.0
  0
SPLINE
  5
14318
330
1F
100
AcDbEntity
  8
0
100
AcDbSpline
210
0.0
220
0.0
230
1.0
 70
     8
 71
     3
 72
    20
 73
    16
 74
    14
 42
0.0000000001
 43
0.0000000001
 44
0.0000000001
 12
-0.9554208442421703
 22
0.2952473715167985
 32
0.0
 13
0.8976647402017633
 23
0.4406790376209205
 33
0.0
 40
0.0
 40
0.0
 40
0.0
 40
0.0
 40
0.4780906375254509
 40
0.986390398440826
 40
1.520909380557576
 40
2.074473999379486
 40
2.637841956199175
 40
3.200774065594643
 40
3.753074557807699
 40
4.285632871305888
 40
4.79149920479861
 40
5.267001841859597
 40
5.712827887584082
 40
6.134772929279067
 40
6.526576766725812
 40
6.526576766725812
 40
6.526576766725812
 40
6.526576766725812
 10
381.8951310957475
 20
195.5137920442432
 30
0.0
 10
381.7428718422379
 20
195.5608437122686
 30
0.0
 10
381.4387094897425
 20
195.6923095619442
 30
0.0
 10
381.0161811878381
 20
195.9767116656957
 30
0.0
 10
380.6275801409705
 20
196.3434915988063
 30
0.0
 10
380.2873398510502
 20
196.7787174064251
 30
0.0
 10
380.0078971535984
 20
197.2661146596597
 30
0.0
 10
379.7996632504862
 20
197.7874689059646
 30
0.0
 10
379.6704508950364
 20
198.3233525767329
 30
0.0
 10
379.6252436316678
 20
198.8538764855069
 30
0.0
 10
379.6661205263257
 20
199.359449357395
 30
0.0
 10
379.792337685745
 20
199.8213632532652
 30
0.0
 10
380.0006252657139
 20
200.2221165014495
 30
0.0
 10
380.2807055217171
 20
200.5408089336743
 30
0.0
 10
380.5093979020501
 20
200.6932647079187
 30
0.0
 10
380.6266340653674
 20
200.7508179539261
 30
0.0
 11
381.8951310957475
 21
195.5137920442432
 31
0.0
 11
381.4551030097533
 21
195.7007303795995
 31
0.0
 11
381.0319849563645
 21
195.9824035232307
 31
0.0
 11
380.6420371248653
 21
196.3479869349882
 31
0.0
 11
380.3002449916399
 21
196.7834314491075
 31
0.0
 11
380.0197434375557
 21
197.2720031766231
 31
0.0
 11
379.811311979202
 21
197.7949265811069
 31
0.0
 11
379.682960520811
 21
198.3321060081401
 31
0.0
 11
379.6396215371365
 21
198.8628979539815
 31
0.0
 11
379.682960520811
 21
199.3669043823685
 31
0.0
 11
379.811311979202
 21
199.824756608508
 31
0.0
 11
380.0197434375557
 21
200.2188596283072
 31
0.0
 11
380.3002449916399
 21
200.5340682835934
 31
0.0
 11
380.6266340653674
 21
200.7508179539261
 31
0.0
  0
SPLINE
  5
14319
330
1F
100
AcDbEntity
  8
0
100
AcDbSpline
210
0.0
220
0.0
230
1.0
 70
     8
 71
     3
 72
    11
 73
     7
 74
     5
 42
0.0000000001
 43
0.0000000001
 44
0.0000000001
 12
0.9554208441923485
 22
-0.295247371678022
 32
0.0
 13
0.8976647401382937
 23
0.4406790377502088
 33
0.0
 40
0.0
 40
0.0
 40
0.0
 40
0.0
 40
0.4481663172791665
 40
0.8717646779263507
 40
1.281128630496253
 40
1.298239344500827
 40
1.298239344500827
 40
1.298239344500827
 40
1.298239344500827
 10
381.8951310957475
 20
195.5137920442432
 30
0.0
 10
382.037860242812
 20
195.4696854018261
 30
0.0
 10
382.3256084033909
 20
195.4119371922012
 30
0.0
 10
382.7564930217545
 20
195.4297333843908
 30
0.0
 10
383.0305484719252
 20
195.51654909672
 30
0.0
 10
383.158508231857
 20
195.5784541684766
 30
0.0
 10
383.1636281267372
 20
195.5809676128042
 30
0.0
 11
381.8951310957475
 21
195.5137920442432
 31
0.0
 11
382.3351591823513
 21
195.4287724527163
 31
0.0
 11
382.7582772357402
 21
195.4489388614039
 31
0.0
 11
383.1482250672394
 21
195.5735162846103
 31
0.0
 11
383.1636281267372
 21
195.5809676128042
 31
0.0
  0
SPLINE
  5
1431A
330
1F
100
AcDbEntity
  8
0
100
AcDbSpline
210
0.0
220
0.0
230
1.0
 70
     8
 71
     3
 72
    13
 73
     9
 74
     7
 42
0.0000000001
 43
0.0000000001
 44
0.0000000001
 12
-0.7427602168083089
 22
0.6695575108434482
 32
0.0
 13
-0.0752365598991735
 23
0.9971657134371088
 33
0.0
 40
0.0
 40
0.0
 40
0.0
 40
0.0
 40
0.3710474730859856
 40
0.8658111959465372
 40
1.367327068384283
 40
1.865157253063916
 40
2.349283457093758
 40
2.381392832833396
 40
2.381392832833396
 40
2.381392832833396
 40
2.381392832833396
 10
384.801275970949
 20
198.2947863507615
 30
0.0
 10
384.7094095370971
 20
198.3775988915895
 30
0.0
 10
384.5077746969074
 20
198.5853048918348
 30
0.0
 10
384.2383795401082
 20
198.9552082203688
 30
0.0
 10
384.0082599987982
 20
199.3990240429088
 30
0.0
 10
383.8482632020667
 20
199.8688192497148
 30
0.0
 10
383.7899295487702
 20
200.2035450397367
 30
0.0
 10
383.7759960851037
 20
200.3750546263318
 30
0.0
 10
383.77519081878
 20
200.3857274158543
 30
0.0
 11
384.801275970949
 21
198.2947863507615
 31
0.0
 11
384.5422890195004
 21
198.5604966935463
 31
0.0
 11
384.2502765172533
 21
198.9598960425571
 31
0.0
 11
384.0193112512908
 21
199.4050625464923
 31
0.0
 11
383.8594875125667
 21
199.8765402928583
 31
0.0
 11
383.7777903639381
 21
200.3537234414861
 31
0.0
 11
383.77519081878
 21
200.3857274158543
 31
0.0
  0
SPLINE
  5
1431B
330
1F
100
AcDbEntity
  8
0
100
AcDbSpline
210
0.0
220
0.0
230
1.0
 70
     8
 71
     3
 72
    13
 73
     9
 74
     7
 42
0.0000000001
 43
0.0000000001
 44
0.0000000001
 12
-0.7427509696542848
 22
0.6695677688461564
 32
0.0
 13
-0.0751858961321023
 23
0.9971695347446253
 33
0.0
 40
0.0
 40
0.0
 40
0.0
 40
0.0
 40
0.3358592691886178
 40
0.8894238880110036
 40
1.452791844830932
 40
2.015723953659698
 40
2.568024446465817
 40
2.858194234322033
 40
2.858194234322033
 40
2.858194234322033
 40
2.858194234322033
 10
384.9876246441244
 20
198.126784746333
 30
0.0
 10
384.904471378172
 20
198.2017449268386
 30
0.0
 10
384.6941812947711
 20
198.4114334003641
 30
0.0
 10
384.3947857705396
 20
198.7943878769149
 30
0.0
 10
384.115367881847
 20
199.2817708073094
 30
0.0
 10
383.9071330703747
 20
199.8030846016287
 30
0.0
 10
383.7969101874468
 20
200.2602860295687
 30
0.0
 10
383.7635869128766
 20
200.5394659729904
 30
0.0
 10
383.7563146876998
 20
200.6359154637749
 30
0.0
 11
384.9876246441244
 21
198.126784746333
 31
0.0
 11
384.7495035453834
 21
198.3636386908522
 31
0.0
 11
384.4077114121581
 21
198.7990832049723
 31
0.0
 11
384.1272098580736
 21
199.287654932488
 31
0.0
 11
383.91877839972
 21
199.8105783363618
 31
0.0
 11
383.7904269413288
 21
200.3477577640047
 31
0.0
 11
383.7563146876998
 21
200.6359154637749
 31
0.0
  0
SPLINE
  5
1431C
330
1F
100
AcDbEntity
  8
0
100
AcDbSpline
210
0.0
220
0.0
230
1.0
 70
     8
 71
     3
 72
    20
 73
    16
 74
    14
 42
0.0000000001
 43
0.0000000001
 44
0.0000000001
 12
-0.9554208442714838
 22
0.2952473714219406
 32
0.0
 13
0.8979786176976787
 23
0.4400390916245582
 33
0.0
 40
0.0
 40
0.0
 40
0.0
 40
0.0
 40
0.425789674913987
 40
0.8800558281020295
 40
1.358403996686535
 40
1.853167719547291
 40
2.354683591984883
 40
2.852513776860785
 40
3.336639980787291
 40
3.79867333864099
 40
4.233114589077188
 40
4.638636875503758
 40
5.019165863290044
 40
5.384129055128719
 40
5.437858339157451
 40
5.437858339157451
 40
5.437858339157451
 40
5.437858339157451
 10
382.0673606661934
 20
196.0403268315547
 30
0.0
 10
381.9317578892973
 20
196.082231258987
 30
0.0
 10
381.6609880706854
 20
196.201640362029
 30
0.0
 10
381.2880283691709
 20
196.4625020811481
 30
0.0
 10
380.9491690278508
 20
196.7996287552356
 30
0.0
 10
380.6586607360739
 20
197.1985337194881
 30
0.0
 10
380.428535898724
 20
197.6423275661446
 30
0.0
 10
380.2685321605795
 20
198.1122361910717
 30
0.0
 10
380.1854989460037
 20
198.5884590113054
 30
0.0
 10
380.1832313495293
 20
199.0510479085494
 30
0.0
 10
380.2624512412324
 20
199.4806847145486
 30
0.0
 10
380.4211869821603
 20
199.8592350224409
 30
0.0
 10
380.6542342659503
 20
200.1693933812501
 30
0.0
 10
380.8702282435468
 20
200.332517019255
 30
0.0
 10
380.9942054838725
 20
200.3966172386344
 30
0.0
 10
381.0102880666065
 20
200.404498233747
 30
0.0
 11
382.0673606661934
 21
196.0403268315547
 31
0.0
 11
381.6765716615068
 21
196.2093854044796
 31
0.0
 11
381.3028620112403
 21
196.4676465808689
 31
0.0
 11
380.9625646208388
 21
196.8038231066318
 31
0.0
 11
380.6705521185916
 21
197.2032224556428
 31
0.0
 11
380.4395868526293
 21
197.6483889595779
 31
0.0
 11
380.2797631132955
 21
198.1198667059445
 31
0.0
 11
380.1980659652764
 21
198.5970498545718
 31
0.0
 11
380.1980659652764
 21
199.0590832124255
 31
0.0
 11
380.2797631132955
 21
199.4857737045695
 31
0.0
 11
380.4395868526293
 21
199.8584729092024
 31
0.0
 11
380.6705521185916
 21
200.1608920826432
 31
0.0
 11
380.9625646208388
 21
200.3798140548809
 31
0.0
 11
381.0102880666065
 21
200.404498233747
 31
0.0
  0
SPLINE
  5
1431D
330
1F
100
AcDbEntity
  8
0
100
AcDbSpline
210
0.0
220
0.0
230
1.0
 70
     8
 71
     3
 72
    14
 73
    10
 74
     8
 42
0.0000000001
 43
0.0000000001
 44
0.0000000001
 12
-0.8988386921805322
 22
-0.4382795973339289
 32
0.0
 13
-0.95542084420558
 23
0.2952473716352054
 33
0.0
 40
0.0
 40
0.0
 40
0.0
 40
0.0
 40
0.0969501591878573
 40
0.2516298948921341
 40
0.3943545895755018
 40
0.5273808717469502
 40
0.6507519758471715
 40
0.7636444031490589
 40
0.8647466966457548
 40
0.8647466966457548
 40
0.8647466966457548
 40
0.8647466966457548
 10
388.5088005491781
 20
199.2731435586467
 30
0.0
 10
388.4797530310811
 20
199.2589797997366
 30
0.0
 10
388.4025484435442
 20
199.2258479139714
 30
0.0
 10
388.27568917019
 20
199.1894028004421
 30
0.0
 10
388.1331476838253
 20
199.169744150939
 30
0.0
 10
387.9998178512796
 20
199.1680686123333
 30
0.0
 10
387.8770749321213
 20
199.1797934681105
 30
0.0
 10
387.7664607873076
 20
199.2007743291206
 30
0.0
 10
387.6975575772826
 20
199.2194922198427
 30
0.0
 10
387.6653591644147
 20
199.2294422819831
 30
0.0
 11
388.5088005491781
 21
199.2731435586467
 31
0.0
 11
388.4197054554399
 21
199.2349153277391
 31
0.0
 11
388.2710813798596
 21
199.1920585336984
 31
0.0
 11
388.1297219004684
 21
199.1723649799636
 31
0.0
 11
387.9967085645694
 21
199.1705091186038
 31
0.0
 11
387.8738819479525
 21
199.1820871830944
 31
0.0
 11
387.762945895524
 21
199.2030130621368
 31
0.0
 11
387.6653591644147
 21
199.2294422819831
 31
0.0
  0
SPLINE
  5
1431E
330
1F
100
AcDbEntity
  8
0
100
AcDbSpline
210
0.0
220
0.0
230
1.0
 70
     8
 71
     3
 72
     9
 73
     5
 74
     3
 42
0.0000000001
 43
0.0000000001
 44
0.0000000001
 12
-0.829962995481542
 22
0.5578184526629661
 32
0.0
 13
-0.9554208441107848
 23
0.2952473719419626
 33
0.0
 40
0.0
 40
0.0
 40
0.0
 40
0.0
 40
0.0797921635625241
 40
0.395691869085806
 40
0.395691869085806
 40
0.395691869085806
 40
0.395691869085806
 10
398.5910257479385
 20
207.4263399981308
 30
0.0
 10
398.5689509002431
 20
207.4411765118685
 30
0.0
 10
398.4576712626499
 20
207.5119044426816
 30
0.0
 10
398.336388255143
 20
207.5680840237158
 30
0.0
 10
398.2357825340412
 20
207.5991735430001
 30
0.0
 11
398.5910257479385
 21
207.4263399981308
 31
0.0
 11
398.5236645438132
 21
207.4691098186211
 31
0.0
 11
398.2357825340412
 21
207.5991735430001
 31
0.0
  0
SPLINE
  5
1431F
330
1F
100
AcDbEntity
  8
0
100
AcDbSpline
210
0.0
220
0.0
230
1.0
 70
     8
 71
     3
 72
    20
 73
    16
 74
    14
 42
0.0000000001
 43
0.0000000001
 44
0.0000000001
 12
-0.9554208442642188
 22
0.2952473714454493
 32
0.0
 13
0.9554208442642188
 23
-0.2952473714454493
 33
0.0
 40
0.0
 40
0.0
 40
0.0
 40
0.0
 40
0.3158997055232167
 40
0.6556471716558936
 40
1.01410484916674
 40
1.382873902575716
 40
1.751935688120064
 40
2.111227195517825
 40
2.452214308853042
 40
2.769528920836729
 40
3.062632090981022
 40
3.337078149959541
 40
3.604188333121451
 40
3.877869201119327
 40
4.169702559631931
 40
4.169702559631931
 40
4.169702559631931
 40
4.169702559631931
 10
398.2357825340412
 20
204.7702660875307
 30
0.0
 10
398.1351768129233
 20
204.8013556067627
 30
0.0
 10
397.9345718296132
 20
204.8942156945013
 30
0.0
 10
397.6644819971491
 20
205.1010855791288
 30
0.0
 10
397.4273218984643
 20
205.3688796089453
 30
0.0
 10
397.236217950601
 20
205.6825063141048
 30
0.0
 10
397.1016049677946
 20
206.0245196914626
 30
0.0
 10
397.0310673193718
 20
206.3759502309449
 30
0.0
 10
397.0288324286186
 20
206.7174741755488
 30
0.0
 10
397.0958768568721
 20
207.0304276575517
 30
0.0
 10
397.2302901792298
 20
207.2972437430782
 30
0.0
 10
397.4268818609838
 20
207.500863313984
 30
0.0
 10
397.6744494513381
 20
207.6253457450177
 30
0.0
 10
397.9544033366432
 20
207.6614049509597
 30
0.0
 10
398.1428413094497
 20
207.6278945536671
 30
0.0
 10
398.2357825340412
 20
207.5991735430001
 30
0.0
 11
398.2357825340412
 21
204.7702660875307
 31
0.0
 11
397.9479005242692
 21
204.9003298119094
 31
0.0
 11
397.6767491708209
 21
205.1050376140732
 31
0.0
 11
397.4380868038413
 21
205.3724926217926
 31
0.0
 11
397.2457836132358
 21
205.68715132203
 31
0.0
 11
397.1110155615911
 21
206.0307268942191
 31
0.0
 11
397.0416148785052
 21
206.3832519748522
 31
0.0
 11
397.0416148785052
 21
206.7242390881874
 31
0.0
 11
397.1110155615911
 21
207.0338713025411
 31
0.0
 11
397.2457836132358
 21
207.2941539193339
 31
0.0
 11
397.4380868038413
 21
207.4899602577701
 31
0.0
 11
397.6767491708209
 21
207.6099107664664
 31
0.0
 11
397.9479005242692
 21
207.6470343577692
 31
0.0
 11
398.2357825340412
 21
207.5991735430001
 31
0.0
  0
SPLINE
  5
14320
330
1F
100
AcDbEntity
  8
0
100
AcDbSpline
210
0.0
220
0.0
230
1.0
 70
     8
 71
     3
 72
    14
 73
    10
 74
     8
 42
0.0000000001
 43
0.0000000001
 44
0.0000000001
 12
0.9554208442808265
 22
-0.2952473713917072
 32
0.0
 13
0.0664824416906203
 23
0.9977875951057185
 33
0.0
 40
0.0
 40
0.0
 40
0.0
 40
0.0
 40
0.2918333585125609
 40
0.5655142270315206
 40
0.8326244096489181
 40
1.107070469062145
 40
1.400173639206436
 40
1.71748825132319
 40
1.778541951641396
 40
1.778541951641396
 40
1.778541951641396
 40
1.778541951641396
 10
398.2357825340412
 20
204.7702660875307
 30
0.0
 10
398.3287237586343
 20
204.7415450768689
 30
0.0
 10
398.517161699409
 20
204.7080343050148
 30
0.0
 10
398.7971157210525
 20
204.744095096705
 30
0.0
 10
399.0446828263131
 20
204.8685718734301
 30
0.0
 10
399.2412763976793
 20
205.0722134790524
 30
0.0
 10
399.3756819443794
 20
205.3389389152972
 30
0.0
 10
399.423022765041
 20
205.5600795237778
 30
0.0
 10
399.4338599920173
 20
205.6857207859061
 30
0.0
 10
399.4352129917078
 20
205.706026994177
 30
0.0
 11
398.2357825340412
 21
204.7702660875307
 31
0.0
 11
398.5236645438132
 21
204.7224052727615
 31
0.0
 11
398.7948158978709
 21
204.759528863455
 31
0.0
 11
399.0334782642407
 21
204.8794793721519
 31
0.0
 11
399.2257814548468
 21
205.0752857111968
 31
0.0
 11
399.3605495064914
 21
205.3355683279897
 31
0.0
 11
399.4299501901866
 21
205.6452005423432
 31
0.0
 11
399.4352129917078
 21
205.706026994177
 31
0.0
  0
SPLINE
  5
14321
330
1F
100
AcDbEntity
  8
0
100
AcDbSpline
210
0.0
220
0.0
230
1.0
 70
     8
 71
     3
 72
    10
 73
     6
 74
     4
 42
0.0000000001
 43
0.0000000001
 44
0.0000000001
 12
0.9554208441748938
 22
-0.2952473717345053
 32
0.0
 13
0.8979943428715671
 23
0.4400070001382507
 33
0.0
 40
0.0
 40
0.0
 40
0.0
 40
0.0
 40
0.339772774013758
 40
0.6592558619002138
 40
0.8652292522704154
 40
0.8652292522704154
 40
0.8652292522704154
 40
0.8652292522704154
 10
397.5198376543088
 20
204.06531793794
 30
0.0
 10
397.6280463178341
 20
204.0318789317685
 30
0.0
 10
397.8468464508657
 20
203.9910503761365
 30
0.0
 10
398.1382364175734
 20
204.0187657160834
 30
0.0
 10
398.3038181978932
 20
204.0799526207402
 30
0.0
 10
398.3654725110047
 20
204.1101625319419
 30
0.0
 11
397.5198376543088
 21
204.06531793794
 31
0.0
 11
397.8544363832152
 21
204.0062482454129
 31
0.0
 11
398.1722569352289
 21
204.0387988239511
 31
0.0
 11
398.3654725110047
 21
204.1101625319419
 31
0.0
  0
SPLINE
  5
14322
330
1F
100
AcDbEntity
  8
0
100
AcDbSpline
210
0.0
220
0.0
230
1.0
 70
     8
 71
     3
 72
    19
 73
    15
 74
    13
 42
0.0000000001
 43
0.0000000001
 44
0.0000000001
 12
-0.9554208442592564
 22
0.2952473714615081
 32
0.0
 13
0.8979943428249608
 23
0.4400070002333675
 33
0.0
 40
0.0
 40
0.0
 40
0.0
 40
0.0
 40
0.3657592931615104
 40
0.7574748438769652
 40
1.170433717896414
 40
1.596668474178538
 40
2.026386477853011
 40
2.449339187701372
 40
2.856171954521774
 40
3.23981055776183
 40
3.596906294136223
 40
3.929206469743271
 40
4.24429752085167
 40
4.349476582943267
 40
4.349476582943267
 40
4.349476582943267
 40
4.349476582943267
 10
397.5198376543088
 20
204.06531793794
 30
0.0
 10
397.4033529700861
 20
204.1013144279045
 30
0.0
 10
397.1708959487309
 20
204.2061791390338
 30
0.0
 10
396.853972222861
 20
204.4375343555244
 30
0.0
 10
396.5703389923774
 20
204.7369331907026
 30
0.0
 10
396.3336149069673
 20
205.089707089622
 30
0.0
 10
396.1550038900609
 20
205.4788108575583
 30
0.0
 10
396.0431700335729
 20
205.8854706444289
 30
0.0
 10
396.0036799012082
 20
206.2901851068621
 30
0.0
 10
396.0388944550905
 20
206.6736693719625
 30
0.0
 10
396.1482702959789
 20
207.0176531407578
 30
0.0
 10
396.3281926578127
 20
207.3047556139843
 30
0.0
 10
396.5201014694142
 20
207.4729818082032
 30
0.0
 10
396.6427193966987
 20
207.5411811557135
 30
0.0
 10
396.6742027976126
 20
207.5566076635796
 30
0.0
 11
397.5198376543088
 21
204.06531793794
 31
0.0
 11
397.1852389254024
 21
204.2130459012652
 31
0.0
 11
396.8674183739981
 21
204.4420244368912
 31
0.0
 11
396.5823128489952
 21
204.7407716063242
 31
0.0
 11
396.3442187328195
 21
205.0943069783952
 31
0.0
 11
396.1650750585676
 21
205.4849028138281
 31
0.0
 11
396.0538648379938
 21
205.8929730058392
 31
0.0
 11
396.0161646150315
 21
206.2980552115053
 31
0.0
 11
396.0538648379938
 21
206.6798369175686
 31
0.0
 11
396.1650750585676
 21
207.0191739944946
 31
0.0
 11
396.3442187328195
 21
207.2990506649836
 31
0.0
 11
396.5823128489952
 21
207.505432743496
 31
0.0
 11
396.6742027976126
 21
207.5566076635796
 31
0.0
  0
SPLINE
  5
14323
330
1F
100
AcDbEntity
  8
0
100
AcDbSpline
210
0.0
220
0.0
230
1.0
 70
     8
 71
     3
 72
    11
 73
     7
 74
     5
 42
0.0000000001
 43
0.0000000001
 44
0.0000000001
 12
0.9554208441923485
 22
-0.295247371678022
 32
0.0
 13
0.8976647401382937
 23
0.4406790377502088
 33
0.0
 40
0.0
 40
0.0
 40
0.0
 40
0.0
 40
0.4481663165651993
 40
0.8717646777917735
 40
1.281128630547188
 40
1.298239344286628
 40
1.298239344286628
 40
1.298239344286628
 40
1.298239344286628
 10
387.0193127513645
 20
198.0283751700929
 30
0.0
 10
387.1620418982016
 20
197.984268527746
 30
0.0
 10
387.4497900584224
 20
197.9265203200393
 30
0.0
 10
387.8806746786561
 20
197.9443165069034
 30
0.0
 10
388.1547301245644
 20
198.0311322289953
 30
0.0
 10
388.2826898875531
 20
198.0930372943659
 30
0.0
 10
388.2878097823539
 20
198.0955507386546
 30
0.0
 11
387.0193127513645
 21
198.0283751700929
 31
0.0
 11
387.4593408373589
 21
197.9433555791755
 31
0.0
 11
387.8824588913569
 21
197.963521987254
 31
0.0
 11
388.2724067228563
 21
198.0880994110691
 31
0.0
 11
388.2878097823539
 21
198.0955507386546
 31
0.0
  0
SPLINE
  5
14324
330
1F
100
AcDbEntity
  8
0
100
AcDbSpline
210
0.0
220
0.0
230
1.0
 70
     8
 71
     3
 72
    15
 73
    11
 74
     9
 42
0.0000000001
 43
0.0000000001
 44
0.0000000001
 12
-0.8493972399881137
 22
-0.5277540418609555
 32
0.0
 13
-0.955420844150438
 23
0.2952473718136448
 33
0.0
 40
0.0
 40
0.0
 40
0.0
 40
0.0
 40
0.0279864587835607
 40
0.2048562366115454
 40
0.3640664766721426
 40
0.5109714926720763
 40
0.6478940422803332
 40
0.7748786003726882
 40
0.8910775942155328
 40
0.9951411143585231
 40
0.9951411143585231
 40
0.9951411143585231
 40
0.9951411143585231
 10
388.5412078303768
 20
199.2321121304005
 30
0.0
 10
388.5332839567609
 20
199.2271888081537
 30
0.0
 10
388.4748015020672
 20
199.191938469305
 30
0.0
 10
388.3645053379946
 20
199.1396486302203
 30
0.0
 10
388.2092035971339
 20
199.0950461461969
 30
0.0
 10
388.0624709255568
 20
199.0748037182825
 30
0.0
 10
387.9252398347403
 20
199.0730808746203
 30
0.0
 10
387.7989009196613
 20
199.0851487326597
 30
0.0
 10
387.6850471417959
 20
199.1067440345633
 30
0.0
 10
387.6141257363508
 20
199.1260101066498
 30
0.0
 10
387.5809842509307
 20
199.1362516002578
 30
0.0
 11
388.5412078303768
 21
199.2321121304005
 31
0.0
 11
388.5172379660491
 21
199.2176661109019
 31
0.0
 11
388.3574249253952
 21
199.1418854382612
 31
0.0
 11
388.2044477481279
 21
199.097773265616
 31
0.0
 11
388.0589479436419
 21
199.0775028285098
 31
0.0
 11
387.9220387207264
 21
199.0755925217549
 31
0.0
 11
387.7956145953131
 21
199.0875096735706
 31
0.0
 11
387.6814292537486
 21
199.1090483351327
 31
0.0
 11
387.5809842509307
 21
199.1362516002578
 31
0.0
  0
SPLINE
  5
14325
330
1F
100
AcDbEntity
  8
0
100
AcDbSpline
210
0.0
220
0.0
230
1.0
 70
     8
 71
     3
 72
     9
 73
     5
 74
     3
 42
0.0000000001
 43
0.0000000001
 44
0.0000000001
 12
-0.7176806259744098
 22
-0.6963723997265971
 32
0.0
 13
-0.8493972397094218
 23
-0.5277540423094976
 33
0.0
 40
0.0
 40
0.0
 40
0.0
 40
0.0
 40
0.0551462679837755
 40
0.2277875052460081
 40
0.2277875052460081
 40
0.2277875052460081
 40
0.2277875052460081
 10
388.7203899531996
 20
199.3723705727778
 30
0.0
 10
388.707197483824
 20
199.3595697931205
 30
0.0
 10
388.6513971059044
 20
199.3080644906282
 30
0.0
 10
388.5900881605071
 20
199.262482834012
 30
0.0
 10
388.5412078303768
 20
199.2321121304005
 30
0.0
 11
388.7203899531996
 21
199.3723705727778
 31
0.0
 11
388.6798566157239
 21
199.3349786027092
 31
0.0
 11
388.5412078303768
 21
199.2321121304005
 31
0.0
  0
SPLINE
  5
14326
330
1F
100
AcDbEntity
  8
0
100
AcDbSpline
210
0.0
220
0.0
230
1.0
 70
     8
 71
     3
 72
    21
 73
    17
 74
    15
 42
0.0000000001
 43
0.0000000001
 44
0.0000000001
 12
-0.9554208442931626
 22
0.2952473713517878
 32
0.0
 13
0.8977543987007971
 23
0.4404963559592412
 33
0.0
 40
0.0
 40
0.0
 40
0.0
 40
0.0
 40
0.3277587446387999
 40
0.6767155693896334
 40
1.045211424337467
 40
1.425466055786351
 40
1.812434249281879
 40
2.197084515202549
 40
2.573510302142254
 40
2.934408404681994
 40
3.276713565425148
 40
3.590831973751603
 40
3.859179601891743
 40
4.084205633339325
 40
4.279016655990517
 40
4.351588037925129
 40
4.351588037925129
 40
4.351588037925129
 40
4.351588037925129
 10
387.6653591644147
 20
199.2294422819831
 30
0.0
 10
387.5609766522389
 20
199.2616989179138
 30
0.0
 10
387.352496259207
 20
199.3525622892939
 30
0.0
 10
387.0635209425618
 20
199.5501975076789
 30
0.0
 10
386.7990969953914
 20
199.805436349427
 30
0.0
 10
386.5694870685393
 20
200.1081886854533
 30
0.0
 10
386.383931781401
 20
200.4458769831534
 30
0.0
 10
386.249408479876
 20
200.8055808587998
 30
0.0
 10
386.1712954450865
 20
201.1728110450831
 30
0.0
 10
386.1526693007543
 20
201.533843258107
 30
0.0
 10
386.1944500785042
 20
201.8723251175349
 30
0.0
 10
386.2917692327384
 20
202.1671776352214
 30
0.0
 10
386.4291629692076
 20
202.4010652186039
 30
0.0
 10
386.5854991150429
 20
202.5711185544965
 30
0.0
 10
386.7193785012169
 20
202.6679746563694
 30
0.0
 10
386.7979793861454
 20
202.7101329994752
 30
0.0
 10
386.819696478596
 20
202.7207888092382
 30
0.0
 11
387.6653591644147
 21
199.2294422819831
 31
0.0
 11
387.3640434835519
 21
199.3584176872098
 31
0.0
 11
387.0749632362677
 21
199.5538747826817
 31
0.0
 11
386.8089508541613
 21
199.8088779349756
 31
0.0
 11
386.5785867151668
 21
200.1114104922378
 31
0.0
 11
386.3920805677129
 21
200.4504677731493
 31
0.0
 11
386.2576896241145
 21
200.8108771256245
 31
0.0
 11
386.180278429762
 21
201.1792572011743
 31
0.0
 11
386.163150892886
 21
201.5397486544674
 31
0.0
 11
386.2070615373626
 21
201.8792257205161
 31
0.0
 11
386.3075822592125
 21
202.1768260547369
 31
0.0
 11
386.444856897445
 21
202.4074038577158
 31
0.0
 11
386.5977562158225
 21
202.5725053818418
 31
0.0
 11
386.7557474506107
 21
202.6864795204721
 31
0.0
 11
386.819696478596
 21
202.7207888092382
 31
0.0
  0
SPLINE
  5
14327
330
1F
100
AcDbEntity
  8
0
100
AcDbSpline
210
0.0
220
0.0
230
1.0
 70
     8
 71
     3
 72
    11
 73
     7
 74
     5
 42
0.0000000001
 43
0.0000000001
 44
0.0000000001
 12
0.8976647402074211
 22
0.4406790376093957
 32
0.0
 13
0.3632815827500373
 23
0.9316793931576611
 33
0.0
 40
0.0
 40
0.0
 40
0.0
 40
0.0
 40
0.3918038372755651
 40
0.8137488793763914
 40
1.259574924561857
 40
1.269890960404879
 40
1.269890960404879
 40
1.269890960404879
 40
1.269890960404879
 10
383.1636281267372
 20
195.5809676128042
 30
0.0
 10
383.2808642900039
 20
195.6385208587849
 30
0.0
 10
383.5095690049986
 20
195.7910066647421
 30
0.0
 10
383.7895890433051
 20
196.1095524944561
 30
0.0
 10
383.9259030095178
 20
196.3719064507899
 30
0.0
 10
383.9814714637029
 20
196.5134275156569
 30
0.0
 10
383.9827206723125
 20
196.5166312616616
 30
0.0
 11
383.1636281267372
 21
195.5809676128042
 31
0.0
 11
383.4900171998551
 21
195.7977172837453
 31
0.0
 11
383.7705187545491
 21
196.1129259390321
 31
0.0
 11
383.9789502129028
 21
196.5070289582216
 31
0.0
 11
383.9827206723125
 21
196.5166312616616
 31
0.0
  0
SPLINE
  5
14328
330
1F
100
AcDbEntity
  8
0
100
AcDbSpline
210
0.0
220
0.0
230
1.0
 70
     8
 71
     3
 72
    11
 73
     7
 74
     5
 42
0.0000000001
 43
0.0000000001
 44
0.0000000001
 12
0.8977316533830929
 22
0.4405427090692324
 32
0.0
 13
0.9554208442948205
 23
-0.2952473713464232
 33
0.0
 40
0.0
 40
0.0
 40
0.0
 40
0.0
 40
0.3583691336695691
 40
0.720044397369839
 40
1.084038042603234
 40
1.448899460692081
 40
1.448899460692081
 40
1.448899460692081
 40
1.448899460692081
 10
396.6741725994707
 20
207.5566692940455
 30
0.0
 10
396.7814123711009
 20
207.6092949303767
 30
0.0
 10
397.0073414776767
 20
207.6950685343687
 30
0.0
 10
397.3652290059669
 20
207.7582667142
 30
0.0
 10
397.7308162308038
 20
207.7530445740544
 30
0.0
 10
397.9703952852003
 20
207.7033174942467
 30
0.0
 10
398.0865940199074
 20
207.6674093693812
 30
0.0
 11
396.6741725994707
 21
207.5566692940455
 31
0.0
 11
397.0092242285915
 21
207.6838260547408
 31
0.0
 11
397.3653820430916
 21
207.7467594126934
 31
0.0
 11
397.7293379347895
 21
207.7415170211863
 31
0.0
 11
398.0865940199074
 21
207.6674093693812
 31
0.0
  0
SPLINE
  5
14329
330
1F
100
AcDbEntity
  8
0
100
AcDbSpline
210
0.0
220
0.0
230
1.0
 70
     8
 71
     3
 72
     9
 73
     5
 74
     3
 42
0.0000000001
 43
0.0000000001
 44
0.0000000001
 12
-0.8579445117142505
 22
0.5137423622978706
 32
0.0
 13
-0.9554208441869379
 23
0.2952473716955307
 33
0.0
 40
0.0
 40
0.0
 40
0.0
 40
0.0
 40
0.1151515761192704
 40
0.5932422136450671
 40
0.5932422136450671
 40
0.5932422136450671
 40
0.5932422136450671
 10
387.5593562827577
 20
203.0885699671581
 30
0.0
 10
387.5264250618421
 20
203.108289381404
 30
0.0
 10
387.3547350350609
 20
203.206325307055
 30
0.0
 10
387.1715720048655
 20
203.2855249808924
 30
0.0
 10
387.0193127513645
 20
203.3325766489463
 30
0.0
 11
387.5593562827577
 21
203.0885699671581
 31
0.0
 11
387.4593408373589
 21
203.1456383135895
 31
0.0
 11
387.0193127513645
 21
203.3325766489463
 31
0.0
  0
SPLINE
  5
1432A
330
1F
100
AcDbEntity
  8
0
100
AcDbSpline
210
0.0
220
0.0
230
1.0
 70
     8
 71
     3
 72
    12
 73
     8
 74
     6
 42
0.0000000001
 43
0.0000000001
 44
0.0000000001
 12
0.8976647402152519
 22
0.4406790375934443
 32
0.0
 13
0.1188828096735564
 23
0.9929082926253164
 33
0.0
 40
0.0
 40
0.0
 40
0.0
 40
0.0
 40
0.391803837275739
 40
0.813748878970623
 40
1.259574924156296
 40
1.735077561217215
 40
1.89047041926217
 40
1.89047041926217
 40
1.89047041926217
 40
1.89047041926217
 10
388.2878097823539
 20
198.0955507386546
 30
0.0
 10
388.4050459456217
 20
198.1531039846333
 30
0.0
 10
388.6337377693278
 20
198.3055558476356
 30
0.0
 10
388.9138207391087
 20
198.6242673779786
 30
0.0
 10
389.1220974223932
 20
199.0249439353022
 30
0.0
 10
389.2173533625781
 20
199.3736635815123
 30
0.0
 10
389.2481883848486
 20
199.5817357742591
 30
0.0
 10
389.2543462313711
 20
199.6331660600483
 30
0.0
 11
388.2878097823539
 21
198.0955507386546
 31
0.0
 11
388.6141988554721
 21
198.3123004095956
 31
0.0
 11
388.8947004095563
 21
198.6275090648817
 31
0.0
 11
389.1031318679102
 21
199.0216120840713
 31
0.0
 11
389.2314833263012
 21
199.4794643102107
 31
0.0
 11
389.2543462313711
 21
199.6331660600483
 31
0.0
  0
SPLINE
  5
1432B
330
1F
100
AcDbEntity
  8
0
100
AcDbSpline
210
0.0
220
0.0
230
1.0
 70
     8
 71
     3
 72
    11
 73
     7
 74
     5
 42
0.0000000001
 43
0.0000000001
 44
0.0000000001
 12
0.8976647401382937
 22
0.4406790377502088
 32
0.0
 13
0.9554208441923485
 23
-0.295247371678022
 33
0.0
 40
0.0
 40
0.0
 40
0.0
 40
0.0
 40
0.0171107140047741
 40
0.4264746667601063
 40
0.8500730273779302
 40
1.298239343943109
 40
1.298239343943109
 40
1.298239343943109
 40
1.298239343943109
 10
385.7508157209845
 20
203.2654010797752
 30
0.0
 10
385.7559356158648
 20
203.2679145241028
 30
0.0
 10
385.8838953758533
 20
203.3298195958776
 30
0.0
 10
386.1579508258123
 20
203.4166353093358
 30
0.0
 10
386.5888354440984
 20
203.4344314998333
 30
0.0
 10
386.8765836045274
 20
203.3766832912931
 30
0.0
 10
387.0193127513645
 20
203.3325766489463
 30
0.0
 11
385.7508157209845
 21
203.2654010797752
 31
0.0
 11
385.7662187804824
 21
203.2728524079694
 31
0.0
 11
386.1561666119815
 21
203.3974298317853
 31
0.0
 11
386.5792846653701
 21
203.4175962398633
 31
0.0
 11
387.0193127513645
 21
203.3325766489463
 31
0.0
  0
SPLINE
  5
1432C
330
1F
100
AcDbEntity
  8
0
100
AcDbSpline
210
0.0
220
0.0
230
1.0
 70
     8
 71
     3
 72
    13
 73
     9
 74
     7
 42
0.0000000001
 43
0.0000000001
 44
0.0000000001
 12
-0.0751858962301285
 22
0.9971695347372342
 32
0.0
 13
0.8976647401938338
 23
0.4406790376370731
 33
0.0
 40
0.0
 40
0.0
 40
0.0
 40
0.0
 40
0.2428096166011843
 40
0.7486759500933729
 40
1.224178587154146
 40
1.670004632879156
 40
2.091949674574204
 40
2.483753511512743
 40
2.483753511512743
 40
2.483753511512743
 40
2.483753511512743
 10
383.7563146876998
 20
200.6359154637749
 30
0.0
 10
383.7502294014873
 20
200.7166229145802
 30
0.0
 10
383.7405370198732
 20
200.9661732005538
 30
0.0
 10
383.7735857915567
 20
201.3751384619583
 30
0.0
 10
383.8998043874643
 20
201.8370059185343
 30
0.0
 10
384.1080916167746
 20
202.237770501975
 30
0.0
 10
384.3881719600945
 20
202.5564601110296
 30
0.0
 10
384.6168643221119
 20
202.708916463855
 30
0.0
 10
384.7341004852761
 20
202.7664697097898
 30
0.0
 11
383.7563146876998
 21
200.6359154637749
 31
0.0
 11
383.7470879576546
 21
200.8785497098464
 31
0.0
 11
383.7904269413288
 21
201.3825561382329
 31
0.0
 11
383.91877839972
 21
201.8404083643721
 31
0.0
 11
384.1272098580736
 21
202.234511384172
 31
0.0
 11
384.4077114121581
 21
202.549720039458
 31
0.0
 11
384.7341004852761
 21
202.7664697097898
 31
0.0
  0
SPLINE
  5
1432D
330
1F
100
AcDbEntity
  8
0
100
AcDbSpline
210
0.0
220
0.0
230
1.0
 70
     8
 71
     3
 72
    11
 73
     7
 74
     5
 42
0.0000000001
 43
0.0000000001
 44
0.0000000001
 12
0.8976647402155556
 22
0.440679037592826
 32
0.0
 13
0.9594958133503341
 23
-0.281722885409015
 33
0.0
 40
0.0
 40
0.0
 40
0.0
 40
0.0
 40
0.0171107140045175
 40
0.4264746667598433
 40
0.8500730273779133
 40
1.267656021274562
 40
1.267656021274562
 40
1.267656021274562
 40
1.267656021274562
 10
380.6266340653674
 20
200.7508179539261
 30
0.0
 10
380.6317539602479
 20
200.7533313982527
 30
0.0
 10
380.7597138253432
 20
200.8152364504145
 30
0.0
 10
381.0337590412398
 20
200.9020540738256
 30
0.0
 10
381.4544043481451
 20
200.9194166889369
 30
0.0
 10
381.7321281878837
 20
200.8660804946889
 30
0.0
 10
381.8656845660072
 20
200.8268662660428
 30
0.0
 11
380.6266340653674
 21
200.7508179539261
 31
0.0
 11
380.6420371248653
 21
200.7582692821195
 31
0.0
 11
381.0319849563645
 21
200.8828467059352
 31
0.0
 11
381.4551030097533
 21
200.9030131140136
 31
0.0
 11
381.8656845660072
 21
200.8268662660428
 31
0.0
  0
SPLINE
  5
1432E
330
1F
100
AcDbEntity
  8
0
100
AcDbSpline
210
0.0
220
0.0
230
1.0
 70
     8
 71
     3
 72
    13
 73
     9
 74
     7
 42
0.0000000001
 43
0.0000000001
 44
0.0000000001
 12
-0.0663519270002206
 22
-0.9977962827067244
 32
0.0
 13
-0.897731653462716
 23
-0.4405427089069777
 33
0.0
 40
0.0
 40
0.0
 40
0.0
 40
0.0
 40
0.3366511236830345
 40
0.668152298608425
 40
0.9984600525762731
 40
1.332158868804929
 40
1.669132023018018
 40
2.009550036883285
 40
2.009550036883285
 40
2.009550036883285
 40
2.009550036883285
 10
399.4352057475182
 20
205.7060160486603
 30
0.0
 10
399.4277599305905
 20
205.594046302067
 30
0.0
 10
399.393361215855
 20
205.3726254360652
 30
0.0
 10
399.2854663471318
 20
205.0561096317359
 30
0.0
 10
399.1252847065172
 20
204.7636026366754
 30
0.0
 10
398.9159098590624
 20
204.5016251649407
 30
0.0
 10
398.6616708902796
 20
204.2778591821828
 30
0.0
 10
398.4673707179657
 20
204.1600904594724
 30
0.0
 10
398.3655027091471
 20
204.1101009014761
 30
0.0
 11
399.4352057475182
 21
205.7060160486603
 31
0.0
 11
399.383499162045
 21
205.3733594568186
 31
0.0
 11
399.276562800766
 21
205.0595798468798
 31
0.0
 11
399.1178998255293
 21
204.7698743539731
 31
0.0
 11
398.9095747219506
 21
204.5091914984353
 31
0.0
 11
398.6566054207486
 21
204.2865764959991
 31
0.0
 11
398.3655027091471
 21
204.1101009014761
 31
0.0
  0
SPLINE
  5
1432F
330
1F
100
AcDbEntity
  8
0
100
AcDbSpline
210
0.0
220
0.0
230
1.0
 70
     8
 71
     3
 72
    13
 73
     9
 74
     7
 42
0.0000000001
 43
0.0000000001
 44
0.0000000001
 12
0.0664824419001596
 22
0.9977875950917571
 32
0.0
 13
-0.8299629954562435
 23
0.5578184527006071
 33
0.0
 40
0.0
 40
0.0
 40
0.0
 40
0.0
 40
0.2802100878501974
 40
0.6395015953652895
 40
1.008563380910627
 40
1.377332433799054
 40
1.735790110903938
 40
1.996086740377323
 40
1.996086740377323
 40
1.996086740377323
 40
1.996086740377323
 10
399.4352129917078
 20
205.706026994177
 30
0.0
 10
399.4414226753363
 20
205.7992237107359
 30
0.0
 10
399.4364945587292
 20
206.0134619559027
 30
0.0
 10
399.3699581411744
 20
206.3449203148557
 30
0.0
 10
399.2353482797287
 20
206.6869333440307
 30
0.0
 10
399.0442405443284
 20
207.0005595368114
 30
0.0
 10
398.8247509020459
 20
207.2484147556492
 30
0.0
 10
398.6630379380402
 20
207.3779405770988
 30
0.0
 10
398.5910257479385
 20
207.4263399981308
 30
0.0
 11
399.4352129917078
 21
205.706026994177
 31
0.0
 11
399.4299501901866
 21
205.9861876556789
 31
0.0
 11
399.3605495064914
 21
206.3387127363116
 31
0.0
 11
399.2257814548468
 21
206.6822883085018
 31
0.0
 11
399.0334782642407
 21
206.9969470081288
 31
0.0
 11
398.7948158978709
 21
207.2644020158482
 31
0.0
 11
398.5910257479385
 21
207.4263399981308
 31
0.0
  0
SPLINE
  5
14330
330
1F
100
AcDbEntity
  8
0
100
AcDbSpline
210
0.0
220
0.0
230
1.0
 70
     8
 71
     3
 72
    11
 73
     7
 74
     5
 42
0.0000000001
 43
0.0000000001
 44
0.0000000001
 12
0.9554208441923485
 22
-0.295247371678022
 32
0.0
 13
0.8976647401382937
 23
0.4406790377502088
 33
0.0
 40
0.0
 40
0.0
 40
0.0
 40
0.0
 40
0.4481663166809189
 40
0.871764677907527
 40
1.281128630082363
 40
1.298239344635877
 40
1.298239344635877
 40
1.298239344635877
 40
1.298239344635877
 10
386.0025975162657
 20
197.5294438001079
 30
0.0
 10
386.1453266631396
 20
197.4853371577497
 30
0.0
 10
386.4330748234362
 20
197.4275889487811
 30
0.0
 10
386.8639594427217
 20
197.445385137685
 30
0.0
 10
387.1380148907499
 20
197.5322008555517
 30
0.0
 10
387.2659746522108
 20
197.5941059242608
 30
0.0
 10
387.2710945472552
 20
197.5966193686691
 30
0.0
 11
386.0025975162657
 21
197.5294438001079
 31
0.0
 11
386.4426256022601
 21
197.4444242085808
 31
0.0
 11
386.8657436562582
 21
197.4645906166588
 31
0.0
 11
387.2556914871481
 21
197.5891680404741
 31
0.0
 11
387.2710945472552
 21
197.5966193686691
 31
0.0
  0
SPLINE
  5
14331
330
1F
100
AcDbEntity
  8
0
100
AcDbSpline
210
0.0
220
0.0
230
1.0
 70
     8
 71
     3
 72
    11
 73
     7
 74
     5
 42
0.0000000001
 43
0.0000000001
 44
0.0000000001
 12
0.9554208442494475
 22
-0.2952473714932491
 32
0.0
 13
0.8976934373580956
 23
0.4406205766010105
 33
0.0
 40
0.0
 40
0.0
 40
0.0
 40
0.0
 40
0.4481663165651094
 40
0.8717646771830038
 40
1.281128629938476
 40
1.29814294648415
 40
1.29814294648415
 40
1.29814294648415
 40
1.29814294648415
 10
380.8741192003791
 20
195.0127521792438
 30
0.0
 10
381.0168483472247
 20
194.9686455369246
 30
0.0
 10
381.3045965198632
 20
194.9108973325871
 30
0.0
 10
381.7354810862406
 20
194.9286935050817
 30
0.0
 10
382.0095055830213
 20
195.0154994169075
 30
0.0
 10
382.1374384819849
 20
195.0773863173559
 30
0.0
 10
382.1425296954196
 20
195.0798852700115
 30
0.0
 11
380.8741192003791
 21
195.0127521792438
 31
0.0
 11
381.3141472863735
 21
194.9277325883272
 31
0.0
 11
381.7372653397622
 21
194.9478989964043
 31
0.0
 11
382.1272131712614
 21
195.0724764202205
 31
0.0
 11
382.1425296954196
 21
195.0798852700115
 31
0.0
  0
SPLINE
  5
14332
330
1F
100
AcDbEntity
  8
0
100
AcDbSpline
210
0.0
220
0.0
230
1.0
 70
     8
 71
     3
 72
    10
 73
     6
 74
     4
 42
0.0000000001
 43
0.0000000001
 44
0.0000000001
 12
-0.9554208442698943
 22
0.2952473714270838
 32
0.0
 13
-0.742750969775893
 23
0.6695677687112566
 33
0.0
 40
0.0
 40
0.0
 40
0.0
 40
0.0
 40
0.4780906375257378
 40
0.986390398948262
 40
1.185444744116159
 40
1.185444744116159
 40
1.185444744116159
 40
1.185444744116159
 10
386.0025975162657
 20
197.5294438001079
 30
0.0
 10
385.8503382627516
 20
197.576495468119
 30
0.0
 10
385.5462099780494
 20
197.7079325964022
 30
0.0
 10
385.216750089308
 20
197.9297124813871
 30
0.0
 10
385.0369072467615
 20
198.0823579550842
 30
0.0
 10
384.9876246441244
 20
198.126784746333
 30
0.0
 11
386.0025975162657
 21
197.5294438001079
 31
0.0
 11
385.5625694302713
 21
197.7163821354644
 31
0.0
 11
385.1394513762734
 21
197.9980552790958
 31
0.0
 11
384.9876246441244
 21
198.126784746333
 31
0.0
  0
SPLINE
  5
14333
330
1F
100
AcDbEntity
  8
0
100
AcDbSpline
210
0.0
220
0.0
230
1.0
 70
     8
 71
     3
 72
    20
 73
    16
 74
    14
 42
0.0000000001
 43
0.0000000001
 44
0.0000000001
 12
-0.9554208442571551
 22
0.2952473714683079
 32
0.0
 13
0.8976934372296543
 23
0.4406205768626891
 33
0.0
 40
0.0
 40
0.0
 40
0.0
 40
0.0
 40
0.4780906380864302
 40
0.9863903990022146
 40
1.520909381118364
 40
2.074473999564107
 40
2.63784195668791
 40
3.20077406608322
 40
3.753074558295886
 40
4.285632871794326
 40
4.791499205286617
 40
5.267001842347501
 40
5.712827888072205
 40
6.13477293017234
 40
6.526672354858263
 40
6.526672354858263
 40
6.526672354858263
 40
6.526672354858263
 10
380.8741192003791
 20
195.0127521792438
 30
0.0
 10
380.7218599466884
 20
195.0598038473167
 30
0.0
 10
380.4176975938674
 20
195.1912696967333
 30
0.0
 10
379.9951692919178
 20
195.4756718007593
 30
0.0
 10
379.6065682449018
 20
195.84245173358
 30
0.0
 10
379.2663279558537
 20
196.2776775418169
 30
0.0
 10
378.9868852574926
 20
196.7650747944628
 30
0.0
 10
378.7786513544283
 20
197.2864290409228
 30
0.0
 10
378.6494389995236
 20
197.8223127119975
 30
0.0
 10
378.6042317340124
 20
198.3528366195548
 30
0.0
 10
378.645108636131
 20
198.8584094956803
 30
0.0
 10
378.7713257701112
 20
199.3203233771028
 30
0.0
 10
378.9796134366843
 20
199.7210766745564
 30
0.0
 10
379.2597146525336
 20
200.0397931243254
 30
0.0
 10
379.4884401914741
 20
200.1922609171367
 30
0.0
 10
379.605708705339
 20
200.2498205673292
 30
0.0
 11
380.8741192003791
 21
195.0127521792438
 31
0.0
 11
380.4340911137753
 21
195.1996905145999
 31
0.0
 11
380.0109730603868
 21
195.4813636582323
 31
0.0
 11
379.6210252288872
 21
195.8469470699884
 31
0.0
 11
379.2792330962715
 21
196.2823915841082
 31
0.0
 11
378.9987315415776
 21
196.7709633116244
 31
0.0
 11
378.7903000832242
 21
197.2938867161082
 31
0.0
 11
378.661948624833
 21
197.8310661431409
 31
0.0
 11
378.6186096411589
 21
198.3618580889826
 31
0.0
 11
378.661948624833
 21
198.8658645173692
 31
0.0
 11
378.7903000832242
 21
199.3237167435085
 31
0.0
 11
378.9987315415776
 21
199.7178197633081
 31
0.0
 11
379.2792330962715
 21
200.0330284185941
 31
0.0
 11
379.605708705339
 21
200.2498205673292
 31
0.0
  0
LINE
  5
14334
330
1F
100
AcDbEntity
  8
0
100
AcDbLine
 10
384.9876269479304
 20
198.1267873018515
 30
0.0
 11
384.8012762586202
 21
198.2947866701248
 31
0.0
  0
LINE
  5
14335
330
1F
100
AcDbEntity
  8
0
100
AcDbLine
 10
383.1636286783097
 20
195.5809664895464
 30
0.0
 11
382.1426167823318
 21
195.0799266245477
 31
0.0
  0
LINE
  5
14336
330
1F
100
AcDbEntity
  8
0
100
AcDbLine
 10
388.2878103339265
 20
198.0955496153968
 30
0.0
 11
387.2710950988277
 21
197.5966182454112
 31
0.0
  0
LINE
  5
14337
330
1F
100
AcDbEntity
  8
0
100
AcDbLine
 10
386.032928524041
 20
197.5235834242335
 30
0.0
 11
383.1244419848936
 21
196.0963055356698
 31
0.0
  0
LINE
  5
14338
330
1F
100
AcDbEntity
  8
0
100
AcDbLine
 10
388.511024219253
 20
199.2742252455185
 30
0.0
 11
388.5088029584231
 21
199.2731386170437
 31
0.0
  0
LINE
  5
14339
330
1F
100
AcDbEntity
  8
0
100
AcDbLine
 10
398.3655027091471
 20
204.1101009014756
 30
0.0
 11
388.511024219253
 21
199.2742252455185
 31
0.0
  0
LINE
  5
1433A
330
1F
100
AcDbEntity
  8
0
100
AcDbLine
 10
396.6741725994707
 20
207.5566692940456
 30
0.0
 11
386.8196941095766
 21
202.7207936374794
 31
0.0
  0
LINE
  5
1433B
330
1F
100
AcDbEntity
  8
0
100
AcDbLine
 10
383.9159802658791
 20
201.8304269300473
 30
0.0
 11
381.0102793481028
 21
200.4045160260778
 31
0.0
  0
LINE
  5
1433C
330
1F
100
AcDbEntity
  8
0
100
AcDbLine
 10
380.6266335137948
 20
200.7508190777927
 30
0.0
 11
379.6056216178172
 21
200.2497792127936
 31
0.0
  0
LINE
  5
1433D
330
1F
100
AcDbEntity
  8
0
100
AcDbLine
 10
385.7508151688023
 20
203.2654022036424
 30
0.0
 11
384.7340999337035
 21
202.7664708336573
 31
0.0
  0
LINE
  5
1433E
330
1F
100
AcDbEntity
  8
0
100
AcDbLine
 10
383.7563252943493
 20
200.6359162634026
 30
0.0
 11
383.7751915470994
 21
200.385727471316
 31
0.0
  0
SPLINE
  5
1433F
330
1F
100
AcDbEntity
  8
0
100
AcDbSpline
210
0.0
220
0.0
230
1.0
 70
     8
 71
     3
 72
    13
 73
     9
 74
     7
 42
0.0000000001
 43
0.0000000001
 44
0.0000000001
 12
0.974858307658606
 22
-0.2228256717458716
 32
0.0
 13
1.0
 23
-0.0000000000000002
 33
0.0
 40
0.0
 40
0.0
 40
0.0
 40
0.0
 40
0.0139191782258942
 40
0.0547964514728006
 40
0.1193720385202073
 40
0.203733857704456
 40
0.300920610446966
 40
0.4034064356379556
 40
0.4034064356379556
 40
0.4034064356379556
 40
0.4034064356379556
 10
415.5013327338911
 20
237.8967541700486
 30
0.0
 10
415.5058558094009
 20
237.8957203199692
 30
0.0
 10
415.5236762999408
 20
237.891712513435
 30
0.0
 10
415.5626177071654
 20
237.8835210681424
 30
0.0
 10
415.6248808167183
 20
237.8722010152775
 30
0.0
 10
415.7061557237928
 20
237.860790927744
 30
0.0
 10
415.8005120608371
 20
237.8524436361334
 30
0.0
 10
415.8670871141106
 20
237.8504363653012
 30
0.0
 10
415.9012490558409
 20
237.8504363653012
 30
0.0
 11
415.5013327338911
 21
237.8967541700486
 31
0.0
 11
415.5149127487957
 21
237.8937002025183
 31
0.0
 11
415.5549154194256
 21
237.8852896252149
 31
0.0
 11
415.6184520843285
 21
237.8737527861531
 31
0.0
 11
415.7019983527383
 21
237.8620507533864
 31
0.0
 11
415.7988094518064
 21
237.8535140089329
 31
0.0
 11
415.9012490558409
 21
237.8504363653012
 31
0.0
  0
SPLINE
  5
14340
330
1F
100
AcDbEntity
  8
0
100
AcDbSpline
210
0.0
220
0.0
230
1.0
 70
     8
 71
     3
 72
    13
 73
     9
 74
     7
 42
0.0000000001
 43
0.0000000001
 44
0.0000000001
 12
1.0
 22
-0.0000000000000002
 32
0.0
 13
0.9748583040153969
 23
0.2228256876848449
 33
0.0
 40
0.0
 40
0.0
 40
0.0
 40
0.0
 40
0.1026551027151465
 40
0.1993770921474538
 40
0.283567595363258
 40
0.3483129307731504
 40
0.3894249690758173
 40
0.4034065423197252
 40
0.4034065423197252
 40
0.4034065423197252
 40
0.4034065423197252
 10
415.9012490558409
 20
237.8504363653012
 30
0.0
 10
415.9354674234126
 20
237.8504363653012
 30
0.0
 10
416.0019440769563
 20
237.8524440111487
 30
0.0
 10
416.0961451076931
 20
237.8607739391743
 30
0.0
 10
416.1772683512538
 20
237.8721451603035
 30
0.0
 10
416.2396103220134
 20
237.8834665124641
 30
0.0
 10
416.2787048318924
 20
237.8916864264145
 30
0.0
 10
416.2966220268638
 20
237.895715685491
 30
0.0
 10
416.3011653777905
 20
237.8967541700486
 30
0.0
 11
415.9012490558409
 21
237.8504363653012
 31
0.0
 11
416.0038577084938
 21
237.8535241661726
 31
0.0
 11
416.1002061424047
 21
237.8620166641948
 31
0.0
 11
416.1835852090248
 21
237.8736773709185
 31
0.0
 11
416.2472912431538
 21
237.8852315767713
 31
0.0
 11
416.2875244397637
 21
237.8936867280975
 31
0.0
 11
416.3011653777905
 21
237.8967541700486
 31
0.0
  0
SPLINE
  5
14341
330
1F
100
AcDbEntity
  8
0
100
AcDbSpline
210
0.0
220
0.0
230
1.0
 70
     8
 71
     3
 72
    13
 73
     9
 74
     7
 42
0.0000000001
 43
0.0000000001
 44
0.0000000001
 12
-1.0
 22
0.0000000000000002
 32
0.0
 13
-0.9874405585640337
 23
0.1579909595601882
 33
0.0
 40
0.0
 40
0.0
 40
0.0
 40
0.0
 40
0.1026749408288655
 40
0.1994874292593893
 40
0.2832925128719073
 40
0.347336220456504
 40
0.387835950081885
 40
0.4016146509925835
 40
0.4016146509925835
 40
0.4016146509925835
 40
0.4016146509925835
 10
415.9012492450316
 20
238.6143965398956
 30
0.0
 10
415.8670242647553
 20
238.6143965398956
 30
0.0
 10
415.8005199990712
 20
238.6157817756214
 30
0.0
 10
415.7062427706348
 20
238.6215475500687
 30
0.0
 10
415.6250572732353
 20
238.6294475639983
 30
0.0
 10
415.5627645519128
 20
238.6373277813827
 30
0.0
 10
415.5237409248586
 20
238.6430593454961
 30
0.0
 10
415.5058679499323
 20
238.6458716366607
 30
0.0
 10
415.5013327338911
 20
238.6465972733868
 30
0.0
 11
415.9012492450316
 21
238.6143965398956
 31
0.0
 11
415.7985964945053
 21
238.616531085185
 31
0.0
 11
415.7019639924579
 21
238.6224317177072
 31
0.0
 11
415.6185520035312
 21
238.6305392538678
 31
0.0
 11
415.5550140301675
 21
238.638571838882
 31
0.0
 11
415.5149439760069
 21
238.6444556182198
 31
0.0
 11
415.5013327338911
 21
238.6465972733868
 31
0.0
  0
SPLINE
  5
14342
330
1F
100
AcDbEntity
  8
0
100
AcDbSpline
210
0.0
220
0.0
230
1.0
 70
     8
 71
     3
 72
    14
 73
    10
 74
     8
 42
0.0000000001
 43
0.0000000001
 44
0.0000000001
 12
-0.9874406038327581
 22
-0.1579906766312433
 32
0.0
 13
-1.0
 23
0.0000000000000002
 33
0.0
 40
0.0
 40
0.0
 40
0.0
 40
0.0
 40
0.0101436920331318
 40
0.040344176338577
 40
0.0886398300287988
 40
0.1527156877029774
 40
0.2292392791953039
 40
0.3132939638597568
 40
0.4016194154645629
 40
0.4016194154645629
 40
0.4016194154645629
 40
0.4016194154645629
 10
416.3011653771558
 20
238.6465972733868
 30
0.0
 10
416.2978266126937
 20
238.6460630704642
 30
0.0
 10
416.2845434053763
 20
238.6439636841838
 30
0.0
 10
416.2553241964347
 20
238.6395729733842
 30
0.0
 10
416.2082248495657
 20
238.6332136522932
 30
0.0
 10
416.1456512349713
 20
238.6261454163618
 30
0.0
 10
416.0710240297309
 20
238.6198000445027
 30
0.0
 10
415.9881565151144
 20
238.6154259554521
 30
0.0
 10
415.9306910622332
 20
238.6143965398956
 30
0.0
 10
415.9012492450316
 20
238.6143965398956
 30
0.0
 11
416.3011653771558
 21
238.6465972733868
 31
0.0
 11
416.2911460471018
 21
238.6450137604148
 31
0.0
 11
416.2612807740412
 21
238.6405265878867
 31
0.0
 11
416.2134191031413
 21
238.6340666634259
 31
0.0
 11
416.1497476476876
 21
238.626879084064
 31
0.0
 11
416.0734986706684
 21
238.620401927403
 31
0.0
 11
415.9895605641513
 21
238.615976513483
 31
0.0
 11
415.9012492450316
 21
238.6143965398956
 31
0.0
  0
ARC
  5
14343
330
1F
100
AcDbEntity
  8
0
100
AcDbCircle
 10
419.683300415068
 20
233.9475804917483
 30
0.0
 40
0.1999581609748192
100
AcDbArc
 50
90.0
 51
135.0000000000002
  0
ARC
  5
14344
330
1F
100
AcDbEntity
  8
0
100
AcDbCircle
 10
419.683300415068
 20
238.3466600319246
 30
0.0
 40
0.1999581609748192
100
AcDbArc
 50
224.9999999999997
 51
270.0
  0
ARC
  5
14345
330
1F
100
AcDbEntity
  8
0
100
AcDbCircle
 10
436.1970023897064
 20
236.1471202618362
 30
0.0
 40
1.999581609113324
100
AcDbArc
 50
53.13010235419506
 51
90.0
  0
ARC
  5
14346
330
1F
100
AcDbEntity
  8
0
100
AcDbCircle
 10
436.1970023897064
 20
236.1471202618362
 30
0.0
 40
1.999581609113324
100
AcDbArc
 50
270.0
 51
306.8698976458049
  0
LINE
  5
14347
330
1F
100
AcDbEntity
  8
0
100
AcDbLine
 10
437.3967513549203
 20
234.5474549746728
 30
0.0
 11
437.3967513549203
 21
237.7467855496345
 31
0.0
  0
HATCH
  5
14348
330
1F
100
AcDbEntity
  8
hat
  6
Continuous
100
AcDbHatch
 10
0.0
 20
0.0
 30
0.0
210
0.0
220
0.0
230
1.0
  2
ANSI31
 70
     0
 71
     0
 91
        3
 92
        7
 72
     0
 73
     1
 93
        7
 10
410.3024205498159
 20
238.6465972733867
 10
410.0138058048338
 20
239.1464926758236
 10
408.3028389407026
 20
239.1464926758236
 10
408.3028389407026
 20
238.3966495724856
 10
409.1686831756477
 20
237.8967541700486
 10
415.5013327338911
 20
237.8967541700486
 10
415.5013327338911
 20
238.6465972733867
 97
        0
 92
        5
 93
        6
 72
     4
 94
        3
 73
     0
 74
     0
 95
       12
 96
        8
 40
0.0
 40
0.0
 40
0.0
 40
0.0
 40
0.8667783287653257
 40
1.340649951975424
 40
2.729965875370766
 40
3.666183633489711
 40
4.57006589395999
 40
4.57006589395999
 40
4.57006589395999
 40
4.57006589395999
 10
419.2520724167891
 20
236.1471202618364
 10
419.1113467139993
 20
236.4189568535955
 10
418.7515949227814
 20
236.8152963516977
 10
419.294265517966
 20
237.6516232988093
 10
418.5189104386688
 20
238.8988181015202
 10
417.3765037951801
 20
238.2842038215332
 10
416.8551416531404
 20
238.6948365634971
 10
416.5990414484181
 20
238.8965449746052
 72
     1
 10
416.5990414484179
 20
238.8965449746051
 11
416.3011653777905
 21
238.6465972733867
 72
     1
 10
416.3011653777905
 20
238.6465972733867
 11
416.3011653777905
 21
237.8967541700486
 72
     1
 10
416.3011653777905
 20
237.8967541700486
 11
417.9008306649546
 21
237.8967541700488
 72
     1
 10
417.9008306649546
 20
237.8967541700486
 11
418.910982272708
 21
236.1471202618364
 72
     1
 10
418.910982272708
 20
236.1471202618364
 11
419.2520724167891
 21
236.1471202618364
 97
        0
 92
        5
 93
       10
 72
     1
 10
417.9008306649542
 20
234.397486353624
 11
409.1686831756478
 21
234.397486353624
 72
     1
 10
409.1686831756478
 20
234.397486353624
 11
408.3028389407026
 21
233.8975909518217
 72
     1
 10
408.3028389407026
 20
233.8975909518216
 11
408.3028389407026
 21
233.1477478478492
 72
     1
 10
408.3028389407026
 20
233.1477478478492
 11
410.0138058048342
 21
233.1477478478492
 72
     1
 10
410.0138058048342
 20
233.1477478478492
 11
410.3024205498159
 21
233.6476432502862
 72
     1
 10
410.3024205498159
 20
233.6476432502862
 11
416.3011653777905
 21
233.6476432502862
 72
     1
 10
416.3011653777905
 20
233.6476432502862
 11
416.5732782853101
 21
233.4193134097484
 72
     4
 94
        3
 73
     0
 74
     0
 95
       12
 96
        8
 40
4.57006589395999
 40
4.57006589395999
 40
4.57006589395999
 40
4.57006589395999
 40
5.729646425676492
 40
6.925346559676959
 40
7.749069455349022
 40
8.511381511865307
 40
8.799592183603488
 40
8.799592183603488
 40
8.799592183603488
 40
8.799592183603488
 10
416.5732782853102
 20
233.4193134097484
 10
416.9899421619525
 20
233.4437182026011
 10
417.8103346579463
 20
233.5339394522029
 10
418.299641209078
 20
234.6251892511898
 10
419.1217219218327
 20
235.0623124186917
 10
419.4324005151781
 20
235.7209882068346
 10
419.2988648295501
 20
236.0567324381982
 10
419.2520724167891
 20
236.1471202618364
 72
     1
 10
419.2520724167891
 20
236.1471202618364
 11
418.9109822727081
 21
236.1471202618365
 72
     1
 10
418.9109822727081
 20
236.1471202618364
 11
417.9008306649542
 21
234.397486353624
 97
        0
 75
     0
 76
     1
 52
0.0
 41
5.0
 77
     0
 78
     1
 53
45.0
 43
-318.7338145549069
 44
136.8423761264948
 45
-0.4419417382415923
 46
0.4419417382415923
 79
     0
 47
0.0237642252193974
 98
        3
 10
412.2771053572173
 20
238.4222620245387
 10
416.9147203432185
 20
238.327204774787
 10
418.7935488363526
 20
235.3091481183122
1001
ACAD
1010
0.0
1020
0.0
1030
0.0
  0
LINE
  5
14349
330
1F
100
AcDbEntity
  8
0
100
AcDbLine
 10
410.3024205498159
 20
238.6465972733867
 30
0.0
 11
410.0138058048342
 21
239.1464926758236
 31
0.0
  0
LINE
  5
1434A
330
1F
100
AcDbEntity
  8
0
100
AcDbLine
 10
416.8969175190453
 20
233.1477478478492
 30
0.0
 11
416.3011653777905
 21
233.6476432502862
 31
0.0
  0
LINE
  5
1434B
330
1F
100
AcDbEntity
  8
0
100
AcDbLine
 10
409.1686831756478
 20
237.8967541700486
 30
0.0
 11
408.3028389407026
 21
238.3966495724855
 31
0.0
  0
LINE
  5
1434C
330
1F
100
AcDbEntity
  8
0
100
AcDbLine
 10
418.9109822727081
 20
236.1471202618363
 30
0.0
 11
417.9008306649542
 21
237.8967541700486
 31
0.0
  0
LINE
  5
1434D
330
1F
100
AcDbEntity
  8
0
100
AcDbLine
 10
410.0138058048342
 20
233.1477478478492
 30
0.0
 11
408.3028389407026
 21
233.1477478478492
 31
0.0
  0
LINE
  5
1434E
330
1F
100
AcDbEntity
  8
0
100
AcDbLine
 10
418.6006842283663
 20
233.1477478478492
 30
0.0
 11
416.8969175190453
 21
233.1477478478492
 31
0.0
  0
LINE
  5
1434F
330
1F
100
AcDbEntity
  8
0
100
AcDbLine
 10
416.3011653777905
 20
233.6476432502862
 30
0.0
 11
410.3024205498159
 21
233.6476432502862
 31
0.0
  0
LINE
  5
14350
330
1F
100
AcDbEntity
  8
0
100
AcDbLine
 10
436.1970023897064
 20
234.1475386527228
 30
0.0
 11
419.683300415068
 21
234.1475386527228
 31
0.0
  0
LINE
  5
14351
330
1F
100
AcDbEntity
  8
0
100
AcDbLine
 10
417.9008306649542
 20
234.3974863536241
 30
0.0
 11
409.1686831756478
 21
234.3974863536241
 31
0.0
  0
LINE
  5
14352
330
1F
100
AcDbEntity
  8
0
100
AcDbLine
 10
419.5419086436668
 20
238.2052682605234
 30
0.0
 11
418.6006842283663
 21
239.1464926758236
 31
0.0
  0
LINE
  5
14353
330
1F
100
AcDbEntity
  8
0
100
AcDbLine
 10
419.5419086436668
 20
234.0889722631494
 30
0.0
 11
418.6006842283663
 21
233.1477478478492
 31
0.0
  0
LINE
  5
14354
330
1F
100
AcDbEntity
  8
0
100
AcDbLine
 10
415.5013327338915
 20
237.8967541700486
 30
0.0
 11
409.1686831756478
 21
237.8967541700486
 31
0.0
  0
LINE
  5
14355
330
1F
100
AcDbEntity
  8
0
100
AcDbLine
 10
417.9008306649542
 20
237.8967541700486
 30
0.0
 11
416.3011653777905
 21
237.8967541700486
 31
0.0
  0
LINE
  5
14356
330
1F
100
AcDbEntity
  8
0
100
AcDbLine
 10
436.1970023897064
 20
238.1467018709493
 30
0.0
 11
419.683300415068
 21
238.1467018709493
 31
0.0
  0
LINE
  5
14357
330
1F
100
AcDbEntity
  8
0
100
AcDbLine
 10
415.5013327338915
 20
238.6465972733867
 30
0.0
 11
410.3024205498159
 21
238.6465972733867
 31
0.0
  0
LINE
  5
14358
330
1F
100
AcDbEntity
  8
0
100
AcDbLine
 10
418.9109822727081
 20
236.1471202618363
 30
0.0
 11
417.9008306649542
 21
234.3974863536241
 31
0.0
  0
LINE
  5
14359
330
1F
100
AcDbEntity
  8
0
100
AcDbLine
 10
410.0138058048342
 20
239.1464926758236
 30
0.0
 11
408.3028389407026
 21
239.1464926758236
 31
0.0
  0
LINE
  5
1435A
330
1F
100
AcDbEntity
  8
0
100
AcDbLine
 10
418.6006842283663
 20
239.1464926758236
 30
0.0
 11
416.8969175190453
 21
239.1464926758236
 31
0.0
  0
LINE
  5
1435B
330
1F
100
AcDbEntity
  8
0
100
AcDbLine
 10
409.1686831756478
 20
234.3974863536241
 30
0.0
 11
408.3028389407026
 21
233.8975909518217
 31
0.0
  0
LINE
  5
1435C
330
1F
100
AcDbEntity
  8
0
100
AcDbLine
 10
417.9008306649542
 20
237.8967541700486
 30
0.0
 11
417.9008306649542
 21
234.3974863536241
 31
0.0
  0
LINE
  5
1435D
330
1F
100
AcDbEntity
  8
0
100
AcDbLine
 10
416.8969175190453
 20
239.1464926758236
 30
0.0
 11
416.3011653777905
 21
238.6465972733867
 31
0.0
  0
LINE
  5
1435E
330
1F
100
AcDbEntity
  8
0
100
AcDbLine
 10
416.3011653777905
 20
237.8967541700486
 30
0.0
 11
416.3011653777905
 21
238.6465972733867
 31
0.0
  0
LINE
  5
1435F
330
1F
100
AcDbEntity
  8
0
100
AcDbLine
 10
415.5013327338915
 20
237.8967541700486
 30
0.0
 11
415.5013327338915
 21
238.6465972733867
 31
0.0
  0
LINE
  5
14360
330
1F
100
AcDbEntity
  8
0
100
AcDbLine
 10
410.3024205498159
 20
233.6476432502862
 30
0.0
 11
410.0138058048342
 21
233.1477478478492
 31
0.0
  0
LINE
  5
14361
330
1F
100
AcDbEntity
  8
0
100
AcDbLine
 10
437.3967513549203
 20
237.7130925989739
 30
0.0
 11
437.3053867437688
 21
237.8044572101259
 31
0.0
  0
LINE
  5
14362
330
1F
100
AcDbEntity
  8
0
100
AcDbLine
 10
409.1686831756478
 20
237.8967541700486
 30
0.0
 11
409.1686831756478
 21
234.3974863536241
 31
0.0
  0
LINE
  5
14363
330
1F
100
AcDbEntity
  8
0
100
AcDbLine
 10
408.3028389407026
 20
239.1464926758236
 30
0.0
 11
408.3028389407026
 21
233.1477478478492
 31
0.0
  0
LINE
  5
14364
330
1F
100
AcDbEntity
  8
CEN
 48
2.0
100
AcDbLine
 10
438.4366089913808
 20
236.1471202618364
 30
0.0
 11
407.18967648957
 21
236.1471202618364
 31
0.0
  0
DIMENSION
  5
14365
330
1F
100
AcDbEntity
  8
DIM
100
AcDbDimension
  2
*D2
 10
408.3028389407026
 20
231.2852860923183
 30
0.0
 11
413.1018348028286
 21
232.0852860923183
 31
0.0
 70
    32
 71
     5
 42
9.597991724251755
 73
     0
 74
     0
 75
     0
  3
01
100
AcDbAlignedDimension
 13
417.9008306649542
 23
234.3974863536241
 33
0.0
 14
408.3028389407026
 24
233.1471202606631
 34
0.0
100
AcDbRotatedDimension
  0
LINE
  5
14366
330
1F
100
AcDbEntity
  8
CEN
 48
2.0
100
AcDbLine
 10
415.9012492450316
 20
239.3443509074711
 30
0.0
 11
415.9012492450316
 21
236.9746862748844
 31
0.0
  0
LINE
  5
14367
330
1F
100
AcDbEntity
  8
0
100
AcDbLine
 10
419.683300415068
 20
234.1475386527227
 30
0.0
 11
419.683300415068
 21
238.1467018715845
 31
0.0
  0
LINE
  5
14368
330
1F
100
AcDbEntity
  8
0
100
AcDbLine
 10
419.5419086436668
 20
234.0889722631493
 30
0.0
 11
419.5419086436668
 21
238.2052682605229
 31
0.0
  0
LINE
  5
14369
330
1F
100
AcDbEntity
  8
0
100
AcDbLine
 10
418.6006842283663
 20
239.1464926758236
 30
0.0
 11
418.6006842283663
 21
238.4512252877017
 31
0.0
  0
LINE
  5
1436A
330
1F
100
AcDbEntity
  8
0
100
AcDbLine
 10
418.6006842283661
 20
234.7471036950313
 30
0.0
 11
418.6006842283663
 21
233.1477478478485
 31
0.0
  0
LINE
  5
1436B
330
1F
100
AcDbEntity
  8
0
100
AcDbLine
 10
416.8969175190453
 20
239.1464926758236
 30
0.0
 11
416.8969175190453
 21
238.6738446366982
 31
0.0
  0
LINE
  5
1436C
330
1F
100
AcDbEntity
  8
0
100
AcDbLine
 10
416.8969175190453
 20
233.4454487458267
 30
0.0
 11
416.8969175190453
 21
233.1477478478485
 31
0.0
  0
SPLINE
  5
1436D
330
1F
100
AcDbEntity
  8
DIM
  6
Continuous
100
AcDbSpline
210
0.0
220
0.0
230
1.0
 70
     8
 71
     3
 72
    16
 73
    12
 74
     0
 42
0.0000000001
 43
0.0000000001
 40
0.0
 40
0.0
 40
0.0
 40
0.0
 40
0.9038822604702774
 40
1.840100018589224
 40
3.229415941984564
 40
3.703287565194662
 40
4.858276565698169
 40
5.620588622214455
 40
6.444311517886516
 40
7.640011651886982
 40
8.799592183603518
 40
8.799592183603518
 40
8.799592183603518
 40
8.799592183603518
 10
416.5990414484181
 20
238.8965449746052
 30
0.0
 10
416.8551416531404
 20
238.6948365634971
 30
0.0
 10
417.3765037951801
 20
238.2842038215332
 30
0.0
 10
418.5189104386687
 20
238.8988181015202
 30
0.0
 10
419.2942655179662
 20
237.6516232988093
 30
0.0
 10
418.6943035631411
 20
236.7270028116962
 30
0.0
 10
419.5760793737467
 20
236.0256045770458
 30
0.0
 10
419.1217219218325
 20
235.0623124186917
 30
0.0
 10
418.299641209078
 20
234.6251892511898
 30
0.0
 10
417.8103346579463
 20
233.5339394522029
 30
0.0
 10
416.9899421619525
 20
233.4437182026011
 30
0.0
 10
416.5732782853099
 20
233.4193134097484
 30
0.0
  0
LINE
  5
1436E
330
1F
100
AcDbEntity
  8
0
100
AcDbLine
 10
436.1970023897064
 20
238.1467018715849
 30
0.0
 11
436.1970023897064
 21
234.147538652723
 31
0.0
  0
DIMENSION
  5
1436F
330
1F
100
AcDbEntity
  8
DIM
100
AcDbDimension
  2
*D3
 10
437.3967513549203
 20
228.9521134423667
 30
0.0
 11
422.8497951478113
 21
229.7521134423667
 31
0.0
 70
    32
 71
     5
 42
29.0939124142177
 73
     0
 74
     0
 75
     0
  3
01
100
AcDbAlignedDimension
 13
408.3028389407026
 23
232.7112074260004
 33
0.0
 14
437.3967513549203
 24
234.5474549743552
 34
0.0
100
AcDbRotatedDimension
  0
DIMENSION
  5
14370
330
1F
100
AcDbEntity
  8
DIM
100
AcDbDimension
  2
*D4
 10
404.0468305764949
 20
233.1477478478492
 30
0.0
 11
403.2468305764949
 21
236.1471202618365
 31
0.0
 70
    32
  1
%%C<>
 71
     5
 42
5.998744827974403
 73
     0
 74
     0
 75
     0
  3
01
100
AcDbAlignedDimension
 13
408.3028389407026
 23
239.1464926758236
 33
0.0
 14
408.3028389407026
 24
233.1477478478492
 34
0.0
 50
90.0
100
AcDbRotatedDimension
  0
DIMENSION
  5
14371
330
1F
100
AcDbEntity
  8
DIM
100
AcDbDimension
  2
*D5
 10
440.3132915707244
 20
234.1475386527228
 30
0.0
 11
440.3132915707244
 21
236.147120261836
 31
0.0
 70
   160
  1
%%C<>
 71
     5
 42
3.999163218226497
 73
     0
 74
     0
 75
     0
  3
01
100
AcDbAlignedDimension
 13
435.3101920632441
 23
238.1467018709493
 33
0.0
 14
435.3101920632441
 24
234.1475386527228
 34
0.0
 50
90.0
100
AcDbRotatedDimension
  0
DIMENSION
  5
14372
330
1F
100
AcDbEntity
  8
DIM
100
AcDbDimension
  2
*D6
 10
412.3700054311233
 20
233.6476432502862
 30
0.0
 11
412.3700054311232
 21
240.5632639400535
 31
0.0
 70
   160
  1
%%CD
 71
     5
 42
4.998954023100509
 73
     0
 74
     0
 75
     0
  3
01
100
AcDbAlignedDimension
 13
412.5826379256852
 23
238.6465972733867
 33
0.0
 14
412.5826379256852
 24
233.6476432502862
 34
0.0
 50
90.0
100
AcDbRotatedDimension
  0
DIMENSION
  5
14373
330
1F
100
AcDbEntity
  8
DIM
100
AcDbDimension
  2
*D7
 10
406.1479584067763
 20
234.3974863536241
 30
0.0
 11
405.3479584067763
 21
236.1471202618365
 31
0.0
 70
    32
  1
%%Cd
 71
     5
 42
3.499267816424633
 73
     0
 74
     0
 75
     0
  3
01
100
AcDbAlignedDimension
 13
409.1686831756478
 23
237.8967541700486
 33
0.0
 14
409.1686831756478
 24
234.3974863536241
 34
0.0
 50
90.0
100
AcDbRotatedDimension
  0
ENDSEC
  0
SECTION
  2
OBJECTS
  0
DICTIONARY
  5
C
330
0
100
AcDbDictionary
281
     1
  3
ACAD_COLOR
350
4FFE
  3
ACAD_GROUP
350
D
  3
ACAD_LAYOUT
350
1A
  3
ACAD_MATERIAL
350
4FE5
  3
ACAD_MLEADERSTYLE
350
5022
  3
ACAD_MLINESTYLE
350
17
  3
ACAD_PLOTSETTINGS
350
19
  3
ACAD_PLOTSTYLENAME
350
E
  3
ACAD_RENDER_PLOT_SETTINGS
350
6537
  3
ACAD_SCALELIST
350
5000
  3
ACAD_TABLESTYLE
350
4FE3
  3
ACAD_VISUALSTYLE
350
2A
  3
ACDB_RECOMPOSE_DATA
350
50EC
  3
AcDbVariableDictionary
350
5108
  3
ASE_INDEX_DICTIONARY
350
14143
  0
DICTIONARY
  5
50EE
330
8
100
AcDbDictionary
280
     1
281
     1
  0
DICTIONARY
  5
50B8
330
2
100
AcDbDictionary
280
     1
281
     1
  3
ACAD_LAYERFILTERS
360
146E2
  3
ACAD_LAYERSTATES
360
50B9
  3
ACLYDICTIONARY
360
146E1
  0
DICTIONARY
  5
50D0
330
10
100
AcDbDictionary
280
     1
281
     1
  3
ADSK_XREC_LAYER_RECONCILED
360
50D1
  0
DICTIONARY
  5
50D2
330
3B
100
AcDbDictionary
280
     1
281
     1
  3
ADSK_XREC_LAYER_RECONCILED
360
50D3
  0
DICTIONARY
  5
50AF
330
50AE
100
AcDbDictionary
280
     1
281
     1
  3
ADSK_XREC_LAYER_RECONCILED
360
50D4
  0
DICTIONARY
  5
67C0
330
1F
100
AcDbDictionary
280
     1
281
     1
  3
ACAD_SORTENTS
360
67C1
  0
DICTIONARY
  5
14CC3
330
13E17
100
AcDbDictionary
280
     1
281
     1
  0
DICTIONARY
  5
14D42
330
14C2E
100
AcDbDictionary
280
     1
281
     1
  3
ACAD_MTEXT_2008_RT
360
14D43
  0
DICTIONARY
  5
14D44
330
14C70
100
AcDbDictionary
280
     1
281
     1
  3
ACAD_MTEXT_2008_RT
360
14D45
  0
DICTIONARY
  5
14D46
330
14C71
100
AcDbDictionary
280
     1
281
     1
  3
ACAD_MTEXT_2008_RT
360
14D47
  0
DICTIONARY
  5
14D48
330
14C96
100
AcDbDictionary
280
     1
281
     1
  3
ACAD_MTEXT_2008_RT
360
14D49
  0
DICTIONARY
  5
14D4A
330
14C99
100
AcDbDictionary
280
     1
281
     1
  3
ACAD_MTEXT_2008_RT
360
14D4B
  0
DICTIONARY
  5
14D4C
330
14C9A
100
AcDbDictionary
280
     1
281
     1
  3
ACAD_MTEXT_2008_RT
360
14D4D
  0
DICTIONARY
  5
14D4E
330
14CA4
100
AcDbDictionary
280
     1
281
     1
  3
ACAD_MTEXT_2008_RT
360
14D4F
  0
DICTIONARY
  5
14D50
330
14CA5
100
AcDbDictionary
280
     1
281
     1
  3
ACAD_MTEXT_2008_RT
360
14D51
  0
DICTIONARY
  5
14D52
330
14CA6
100
AcDbDictionary
280
     1
281
     1
  3
ACAD_MTEXT_2008_RT
360
14D53
  0
DICTIONARY
  5
14D54
330
14CB4
100
AcDbDictionary
280
     1
281
     1
  3
ACAD_MTEXT_2008_RT
360
14D55
  0
DICTIONARY
  5
14D56
330
14CB5
100
AcDbDictionary
280
     1
281
     1
  3
ACAD_MTEXT_2008_RT
360
14D57
  0
DICTIONARY
  5
14D58
330
14CB6
100
AcDbDictionary
280
     1
281
     1
  3
ACAD_MTEXT_2008_RT
360
14D59
  0
DICTIONARY
  5
14D40
330
12C4B
100
AcDbDictionary
280
     1
281
     1
  3
ACAD_MTEXT_2008_RT
360
14D41
  0
DICTIONARY
  5
4FFE
102
{ACAD_REACTORS
330
C
102
}
330
C
100
AcDbDictionary
281
     1
  0
DICTIONARY
  5
D
102
{ACAD_REACTORS
330
C
102
}
330
C
100
AcDbDictionary
281
     1
  0
DICTIONARY
  5
1A
102
{ACAD_REACTORS
330
C
102
}
330
C
100
AcDbDictionary
281
     1
  3
Layout1
350
1E
  3
Layout2
350
26
  3
Model
350
22
  0
DICTIONARY
  5
4FE5
102
{ACAD_REACTORS
330
C
102
}
330
C
100
AcDbDictionary
281
     1
  3
ByBlock
350
4FEE
  3
ByLayer
350
4FE6
  3
Global
350
4FF6
  0
DICTIONARY
  5
5022
102
{ACAD_REACTORS
330
C
102
}
330
C
100
AcDbDictionary
281
     1
  3
Standard
350
5023
  0
DICTIONARY
  5
17
102
{ACAD_REACTORS
330
C
102
}
330
C
100
AcDbDictionary
281
     1
  3
Standard
350
18
  0
DICTIONARY
  5
19
102
{ACAD_REACTORS
330
C
102
}
330
C
100
AcDbDictionary
281
     1
  0
ACDBDICTIONARYWDFLT
  5
E
102
{ACAD_REACTORS
330
C
102
}
330
C
100
AcDbDictionary
281
     1
  3
Normal
350
F
100
AcDbDictionaryWithDefault
340
F
  0
DICTIONARY
  5
6537
102
{ACAD_REACTORS
330
C
102
}
330
C
100
AcDbDictionary
281
     1
  3
{1DC63513-1B1A-422F-9880-65CFD2B8D533}
350
6538
  0
DICTIONARY
  5
5000
102
{ACAD_REACTORS
330
C
102
}
330
C
100
AcDbDictionary
281
     1
  3
A0
350
5001
  3
A1
350
5002
  3
A2
350
5003
  3
A3
350
5004
  3
A4
350
5005
  3
A5
350
5006
  3
A6
350
5007
  3
A7
350
5008
  3
A8
350
5009
  3
A9
350
500A
  3
B0
350
500B
  3
B1
350
500C
  3
B2
350
500D
  3
B3
350
500E
  3
B4
350
500F
  3
B5
350
5010
  3
B6
350
5011
  3
B7
350
5012
  3
B8
350
5013
  3
B9
350
5014
  3
C0
350
5015
  3
C1
350
5016
  3
C2
350
5017
  3
C3
350
5018
  3
C4
350
5019
  3
C5
350
501A
  3
C6
350
501B
  3
C7
350
501C
  3
C8
350
501D
  3
C9
350
501E
  3
D0
350
501F
  3
D1
350
5020
  3
D2
350
5021
  0
DICTIONARY
  5
4FE3
102
{ACAD_REACTORS
330
C
102
}
330
C
100
AcDbDictionary
281
     1
  3
Standard
350
4FFF
  0
DICTIONARY
  5
2A
102
{ACAD_REACTORS
330
C
102
}
330
C
100
AcDbDictionary
281
     1
  3
2dWireframe
350
2F
  3
3D Hidden
350
31
  3
3dWireframe
350
30
  3
Basic
350
32
  3
Brighten
350
36
  3
ColorChange
350
3A
  3
Conceptual
350
34
  3
Dim
350
35
  3
Facepattern
350
39
  3
Flat
350
2B
  3
FlatWithEdges
350
2C
  3
Gouraud
350
2D
  3
GouraudWithEdges
350
2E
  3
Linepattern
350
38
  3
Realistic
350
33
  3
Thicken
350
37
  0
XRECORD
  5
50EC
102
{ACAD_REACTORS
330
C
102
}
330
C
100
AcDbXrecord
280
     1
 90
        1
330
4FFF
330
12C4B
330
14C2E
330
14C70
330
14C71
330
14C96
330
14C99
330
14C9A
330
14CA4
330
14CA5
330
14CA6
330
14CB4
330
14CB5
330
14CB6
  0
DICTIONARY
  5
5108
102
{ACAD_REACTORS
330
C
102
}
330
C
100
AcDbDictionary
281
     1
  3
CANNOSCALE
350
510B
  3
CMLEADERSTYLE
350
510A
  3
CTABLESTYLE
350
5109
  3
DIMASSOC
350
510E
  3
INDEXCTL
350
510D
  3
LIGHTINGUNITS
350
14B32
  3
MSLTSCALE
350
14B31
  3
SORTENTS
350
510C
  0
DICTIONARY
  5
14143
102
{ACAD_REACTORS
330
C
102
}
330
C
100
AcDbDictionary
281
     1
  3
ASEBlockHierarchyIndexRecord
350
14144
1001
DCO15
1040
1903428632.093
  0
DICTIONARY
  5
146E2
102
{ACAD_REACTORS
330
50B8
102
}
330
50B8
100
AcDbDictionary
281
     1
  0
DICTIONARY
  5
50B9
102
{ACAD_REACTORS
330
50B8
102
}
330
50B8
100
AcDbDictionary
281
     1
  0
DICTIONARY
  5
146E1
102
{ACAD_REACTORS
330
50B8
102
}
330
50B8
100
AcDbDictionary
281
     1
1001
ACAD
1000
<All
  0
XRECORD
  5
50D1
102
{ACAD_REACTORS
330
50D0
102
}
330
50D0
100
AcDbXrecord
280
     1
290
     1
  0
XRECORD
  5
50D3
102
{ACAD_REACTORS
330
50D2
102
}
330
50D2
100
AcDbXrecord
280
     1
290
     1
  0
XRECORD
  5
50D4
102
{ACAD_REACTORS
330
50AF
102
}
330
50AF
100
AcDbXrecord
280
     1
290
     1
  0
SORTENTSTABLE
  5
67C1
102
{ACAD_REACTORS
330
67C0
102
}
330
67C0
100
AcDbSortentsTable
330
1F
331
12C1D
  5
13053
331
3807
  5
3895
331
12C25
  5
1305B
331
12C52
  5
13086
331
12B29
  5
12BBE
331
12B1C
  5
12BB1
331
12B24
  5
12BB9
331
12C5A
  5
1308E
331
12C18
  5
1304E
331
12C20
  5
13056
331
12C28
  5
1305E
331
12C4D
  5
13081
331
2C65
  5
2EE7
331
4842
  5
4E94
331
12B34
  5
12BC9
331
12B17
  5
12BAC
331
12B1F
  5
12BB4
331
12B27
  5
12BBC
331
12C5D
  5
13091
331
12C38
  5
1306E
331
12C1B
  5
13051
331
12C23
  5
13059
331
12C50
  5
13084
331
3895
  5
3943
331
12C33
  5
13069
331
12B1A
  5
12BAF
331
12C17
  5
1304D
331
12B22
  5
12BB7
331
12C58
  5
1308C
331
12C1E
  5
13054
331
12C26
  5
1305C
331
12C4B
  5
1307F
331
35C8
  5
35D8
331
35D8
  5
3807
331
2F93
  5
2FDE
331
12B1D
  5
12BB2
331
12B25
  5
12BBA
331
12C5B
  5
1308F
331
12C19
  5
1304F
331
12C63
  5
13097
331
12C46
  5
1307C
331
13003
  5
13098
331
12C21
  5
13057
331
12C29
  5
1305F
331
13093
  5
12B2B
331
12C4E
  5
13082
331
3943
  5
4842
331
12C31
  5
13067
331
12C56
  5
1308A
331
28AE
  5
2A38
331
12C15
  5
1304B
331
12B18
  5
12BAD
331
12B20
  5
12BB5
331
12C1C
  5
13052
331
12C24
  5
1305A
331
12C51
  5
13085
331
2FDE
  5
35C8
331
12B28
  5
12BBD
331
12C34
  5
1306A
331
12B1B
  5
12BB0
331
12B23
  5
12BB8
331
12C59
  5
1308D
331
12C1F
  5
13055
331
12C27
  5
1305D
331
12B16
  5
12BAA
331
12B1E
  5
12BB3
331
12B26
  5
12BBB
331
12C5C
  5
13090
331
12C22
  5
13058
331
12C47
  5
1307D
331
12C4F
  5
13083
331
12C57
  5
1308B
331
12C32
  5
13068
331
2EE7
  5
2F93
331
12B19
  5
12BAE
331
12C16
  5
1304C
331
12B21
  5
12BB6
  0
XRECORD
  5
14D43
102
{ACAD_REACTORS
330
14D42
102
}
330
14D42
100
AcDbXrecord
280
     1
 40
1038.0
  1
\pxqc;YL YE
  0
XRECORD
  5
14D45
102
{ACAD_REACTORS
330
14D44
102
}
330
14D44
100
AcDbXrecord
280
     1
 40
3624820.0
  1
\pxqc;档案员{\H0.7x;\P\Fromans|c134;Filing Clerk\fFangSong_GB2312|b0|i0|c134|p49; }
  0
XRECORD
  5
14D47
102
{ACAD_REACTORS
330
14D46
102
}
330
14D46
100
AcDbXrecord
280
     1
 40
2054623.0
  1
\pxqc;日期{\Fromans|c134;/Date}
  0
XRECORD
  5
14D49
102
{ACAD_REACTORS
330
14D48
102
}
330
14D48
100
AcDbXrecord
280
     1
 40
1836818.0
  1
\pxsm0.7;{\fFangSong_GB2312|b0|i0|c134|p49;标准化}\PStand.
  0
XRECORD
  5
14D4B
102
{ACAD_REACTORS
330
14D4A
102
}
330
14D4A
100
AcDbXrecord
280
     1
 40
1476476.0
  1
\pxsm0.7;签名\P{\Fromans|c134;Signature} 
  0
XRECORD
  5
14D4D
102
{ACAD_REACTORS
330
14D4C
102
}
330
14D4C
100
AcDbXrecord
280
     1
 40
1354713.0
  1
\pxsm0.7,qc;处数\P{\Fromans|c134;Number }
  0
XRECORD
  5
14D4F
102
{ACAD_REACTORS
330
14D4E
102
}
330
14D4E
100
AcDbXrecord
280
     1
 40
1692934.0
  1
\pxsm0.7;标记\P{\Fromans|c134;Mark}
  0
XRECORD
  5
14D51
102
{ACAD_REACTORS
330
14D50
102
}
330
14D50
100
AcDbXrecord
280
     1
 40
1391581.0
  1
\pxsm0.7;审核\P{\Fromans|c134;Checked}
  0
XRECORD
  5
14D53
102
{ACAD_REACTORS
330
14D52
102
}
330
14D52
100
AcDbXrecord
280
     1
 40
1546703.0
  1
\pxsm0.7;绘图\P{\Fromans|c134;Drawn\Ftxt|c134; }
  0
XRECORD
  5
14D55
102
{ACAD_REACTORS
330
14D54
102
}
330
14D54
100
AcDbXrecord
280
     1
 40
1293614.0
  1
\pxsm0.7;批准\P{\Fromans|c134;Approved}
  0
XRECORD
  5
14D57
102
{ACAD_REACTORS
330
14D56
102
}
330
14D56
100
AcDbXrecord
280
     1
 40
1583427.0
  1
\pxsm0.7;工艺\P{\Fromans|c134;Process}
  0
XRECORD
  5
14D59
102
{ACAD_REACTORS
330
14D58
102
}
330
14D58
100
AcDbXrecord
280
     1
 40
1435325.0
  1
\pxsm0.7;日期\P{\Fromans|c134;Date}
  0
XRECORD
  5
14D41
102
{ACAD_REACTORS
330
14D40
102
}
330
14D40
100
AcDbXrecord
280
     1
 40
279707609.0
  1
\A1;\pxql;{\f仿宋_GB2312|b0|i0|c134|p49;技术参数}:\P\pq*;- {\f仿宋_GB2312|b0|i0|c134|p49;材料}: {\f仿宋_GB2312|b0|i0|c134|p49;铜合金}\P- {\f仿宋_GB2312|b0|i0|c134|p49;表面处理}: {\f仿宋_GB2312|b0|i0|c134|p49;镀银}\P\pql;- {\f仿宋_GB2312|b0|i0|c134|p49;额定电流}: 40A\P- {\f仿宋_GB231
  1
2|b0|i0|c134|p49;接触电阻}: ≤1mΩ\P- {\f仿宋_GB2312|b0|i0|c134|p49;线径范围}: 1.5mm{\H0.7x;\S2^ ;}(16 AWG)\P\pq*;- {\f仿宋_GB2312|b0|i0|c134|p49;可插拔次数}: {\fSimSun|b0|i0|c134|p2;≥}500\P\P\pql;Technical specification:\P- Material: copper alloy\P- Surface: hard-silve
  1
r plated\P- Rated current: 40A\P- Contact resistance: ≤1mΩ\P- Wire gauge: 1.5mm{\H0.7x;\S2^ ;}(16 AWG)\P- Mating cycles: {\fSimSun|b0|i0|c134|p2;≥}500
  0
LAYOUT
  5
1E
102
{ACAD_REACTORS
330
1A
102
}
330
1A
100
AcDbPlotSettings
  1

  2
none_device
  4

  6

 40
0.0
 41
0.0
 42
0.0
 43
0.0
 44
0.0
 45
0.0
 46
0.0
 47
0.0
 48
0.0
 49
0.0
140
0.0
141
0.0
142
1.0
143
1.0
 70
   688
 72
     0
 73
     0
 74
     5
  7

 75
    16
147
1.0
 76
     0
 77
     2
 78
   300
148
0.0
149
0.0
100
AcDbLayout
  1
Layout1
 70
     1
 71
     1
 10
0.0
 20
0.0
 11
12.0
 21
9.0
 12
0.0
 22
0.0
 32
0.0
 14
1.000000000000000E+20
 24
1.000000000000000E+20
 34
1.000000000000000E+20
 15
-1.000000000000000E+20
 25
-1.000000000000000E+20
 35
-1.000000000000000E+20
146
0.0
 13
0.0
 23
0.0
 33
0.0
 16
1.0
 26
0.0
 36
0.0
 17
0.0
 27
1.0
 37
0.0
 76
     0
330
1B
  0
LAYOUT
  5
26
102
{ACAD_REACTORS
330
1A
102
}
330
1A
100
AcDbPlotSettings
  1

  2
none_device
  4

  6

 40
0.0
 41
0.0
 42
0.0
 43
0.0
 44
0.0
 45
0.0
 46
0.0
 47
0.0
 48
0.0
 49
0.0
140
0.0
141
0.0
142
1.0
143
1.0
 70
   688
 72
     0
 73
     0
 74
     5
  7

 75
    16
147
1.0
 76
     0
 77
     2
 78
   300
148
0.0
149
0.0
100
AcDbLayout
  1
Layout2
 70
     1
 71
     2
 10
0.0
 20
0.0
 11
0.0
 21
0.0
 12
0.0
 22
0.0
 32
0.0
 14
0.0
 24
0.0
 34
0.0
 15
0.0
 25
0.0
 35
0.0
146
0.0
 13
0.0
 23
0.0
 33
0.0
 16
1.0
 26
0.0
 36
0.0
 17
0.0
 27
1.0
 37
0.0
 76
     0
330
23
  0
LAYOUT
  5
22
102
{ACAD_REACTORS
330
1A
102
}
330
1A
100
AcDbPlotSettings
  1

  2
Adobe PDF Converter.pc3
  4
A4
  6

 40
3.174999952316281
 41
3.174999952316281
 42
3.17498779296875
 43
3.175003051757812
 44
297.0318298339844
 45
209.9733276367186
 46
0.0000000000000076
 47
1.630241740247063
 48
246.9897427644609
 49
39.36804549891383
140
544.952097801264
141
244.7492402188181
142
1.0
143
1.025046328645055
 70
  3764
 72
     1
 73
     0
 74
     4
  7
monochrome.ctb
 75
     0
147
0.9755656618192436
 76
     1
 77
     2
 78
   300
148
-246.9897427644609
149
-39.36804549891383
100
AcDbLayout
  1
Model
 70
     1
 71
     0
 10
0.0
 20
0.0
 11
12.0
 21
9.0
 12
0.0
 22
0.0
 32
0.0
 14
1.000000000000000E+20
 24
1.000000000000000E+20
 34
1.000000000000000E+20
 15
-1.000000000000000E+20
 25
-1.000000000000000E+20
 35
-1.000000000000000E+20
146
0.0
 13
0.0
 23
0.0
 33
0.0
 16
1.0
 26
0.0
 36
0.0
 17
0.0
 27
1.0
 37
0.0
 76
     0
330
1F
331
29
1001
ACAD_PSEXT
1000
Adobe PDF Converter.pc3
1000
Adobe PDF Converter
1000
桌面\*.pdf
1000

1070
     0
  0
MATERIAL
  5
4FEE
102
{ACAD_XDICTIONARY
360
4FEF
102
}
102
{ACAD_REACTORS
330
4FE5
102
}
330
4FE5
100
AcDbMaterial
  1
ByBlock
 72
     0
 43
0.0208333333333333
 43
0.0
 43
0.0
 43
0.0
 43
0.0
 43
0.0208333333333333
 43
0.0
 43
0.0
 43
0.0
 43
0.0
 43
1.0
 43
0.0
 43
0.0
 43
0.0
 43
0.0
 43
1.0
 77
     0
 47
0.0208333333333333
 47
0.0
 47
0.0
 47
0.0
 47
0.0
 47
0.0208333333333333
 47
0.0
 47
0.0
 47
0.0
 47
0.0
 47
1.0
 47
0.0
 47
0.0
 47
0.0
 47
0.0
 47
1.0
171
     0
 49
0.0208333333333333
 49
0.0
 49
0.0
 49
0.0
 49
0.0
 49
0.0208333333333333
 49
0.0
 49
0.0
 49
0.0
 49
0.0
 49
1.0
 49
0.0
 49
0.0
 49
0.0
 49
0.0
 49
1.0
175
     0
142
0.0208333333333333
142
0.0
142
0.0
142
0.0
142
0.0
142
0.0208333333333333
142
0.0
142
0.0
142
0.0
142
0.0
142
1.0
142
0.0
142
0.0
142
0.0
142
0.0
142
1.0
179
     0
144
0.0208333333333333
144
0.0
144
0.0
144
0.0
144
0.0
144
0.0208333333333333
144
0.0
144
0.0
144
0.0
144
0.0
144
1.0
144
0.0
144
0.0
144
0.0
144
0.0
144
1.0
147
0.0208333333333333
147
0.0
147
0.0
147
0.0
147
0.0
147
0.0208333333333333
147
0.0
147
0.0
147
0.0
147
0.0
147
1.0
147
0.0
147
0.0
147
0.0
147
0.0
147
1.0
  0
MATERIAL
  5
4FE6
102
{ACAD_XDICTIONARY
360
4FE7
102
}
102
{ACAD_REACTORS
330
4FE5
102
}
330
4FE5
100
AcDbMaterial
  1
ByLayer
 72
     0
 43
0.0208333333333333
 43
0.0
 43
0.0
 43
0.0
 43
0.0
 43
0.0208333333333333
 43
0.0
 43
0.0
 43
0.0
 43
0.0
 43
1.0
 43
0.0
 43
0.0
 43
0.0
 43
0.0
 43
1.0
 77
     0
 47
0.0208333333333333
 47
0.0
 47
0.0
 47
0.0
 47
0.0
 47
0.0208333333333333
 47
0.0
 47
0.0
 47
0.0
 47
0.0
 47
1.0
 47
0.0
 47
0.0
 47
0.0
 47
0.0
 47
1.0
171
     0
 49
0.0208333333333333
 49
0.0
 49
0.0
 49
0.0
 49
0.0
 49
0.0208333333333333
 49
0.0
 49
0.0
 49
0.0
 49
0.0
 49
1.0
 49
0.0
 49
0.0
 49
0.0
 49
0.0
 49
1.0
175
     0
142
0.0208333333333333
142
0.0
142
0.0
142
0.0
142
0.0
142
0.0208333333333333
142
0.0
142
0.0
142
0.0
142
0.0
142
1.0
142
0.0
142
0.0
142
0.0
142
0.0
142
1.0
179
     0
144
0.0208333333333333
144
0.0
144
0.0
144
0.0
144
0.0
144
0.0208333333333333
144
0.0
144
0.0
144
0.0
144
0.0
144
1.0
144
0.0
144
0.0
144
0.0
144
0.0
144
1.0
147
0.0208333333333333
147
0.0
147
0.0
147
0.0
147
0.0
147
0.0208333333333333
147
0.0
147
0.0
147
0.0
147
0.0
147
1.0
147
0.0
147
0.0
147
0.0
147
0.0
147
1.0
  0
MATERIAL
  5
4FF6
102
{ACAD_XDICTIONARY
360
4FF7
102
}
102
{ACAD_REACTORS
330
4FE5
102
}
330
4FE5
100
AcDbMaterial
  1
Global
 72
     0
 43
0.0208333333333333
 43
0.0
 43
0.0
 43
0.0
 43
0.0
 43
0.0208333333333333
 43
0.0
 43
0.0
 43
0.0
 43
0.0
 43
1.0
 43
0.0
 43
0.0
 43
0.0
 43
0.0
 43
1.0
 77
     0
 47
0.0208333333333333
 47
0.0
 47
0.0
 47
0.0
 47
0.0
 47
0.0208333333333333
 47
0.0
 47
0.0
 47
0.0
 47
0.0
 47
1.0
 47
0.0
 47
0.0
 47
0.0
 47
0.0
 47
1.0
171
     0
 49
0.0208333333333333
 49
0.0
 49
0.0
 49
0.0
 49
0.0
 49
0.0208333333333333
 49
0.0
 49
0.0
 49
0.0
 49
0.0
 49
1.0
 49
0.0
 49
0.0
 49
0.0
 49
0.0
 49
1.0
175
     0
142
0.0208333333333333
142
0.0
142
0.0
142
0.0
142
0.0
142
0.0208333333333333
142
0.0
142
0.0
142
0.0
142
0.0
142
1.0
142
0.0
142
0.0
142
0.0
142
0.0
142
1.0
179
     0
144
0.0208333333333333
144
0.0
144
0.0
144
0.0
144
0.0
144
0.0208333333333333
144
0.0
144
0.0
144
0.0
144
0.0
144
1.0
144
0.0
144
0.0
144
0.0
144
0.0
144
1.0
147
0.0208333333333333
147
0.0
147
0.0
147
0.0
147
0.0
147
0.0208333333333333
147
0.0
147
0.0
147
0.0
147
0.0
147
1.0
147
0.0
147
0.0
147
0.0
147
0.0
147
1.0
  0
MLEADERSTYLE
  5
5023
102
{ACAD_REACTORS
330
5022
102
}
330
5022
100
AcDbMLeaderStyle
170
     2
171
     1
172
     0
 90
        2
 40
0.0
 41
0.0
173
     1
 91
-1056964608
340
14
 92
       -2
290
     1
 42
0.09
291
     1
 43
0.36
  3
Standard
 44
0.18
300

342
11
174
     1
178
     6
175
     1
176
     0
 93
-1056964608
 45
0.18
292
     0
297
     0
 46
0.18
 94
-1056964608
 47
1.0
 49
1.0
140
1.0
293
     1
141
0.0
294
     1
177
     0
142
1.0
295
     0
296
     0
143
0.125
1001
ACAD_MLEADERVER
1070
     2
  0
MLINESTYLE
  5
18
102
{ACAD_REACTORS
330
17
102
}
330
17
100
AcDbMlineStyle
  2
STANDARD
 70
     0
  3

 62
   256
 51
90.0
 52
90.0
 71
     2
 49
0.5
 62
   256
  6
BYLAYER
 49
-0.5
 62
   256
  6
BYLAYER
  0
ACDBPLACEHOLDER
  5
F
102
{ACAD_REACTORS
330
E
102
}
330
E
  0
MENTALRAYRENDERSETTINGS
  5
6538
102
{ACAD_REACTORS
330
6537
102
}
330
6537
100
AcDbRenderSettings
 90
        2
  1
中
290
     1
290
     1
290
     1
290
     1
  1

  1
渲染质量好于“低级”。包括纹理过滤并且强制双面处于激活状态。处理中等级反锯齿和 5 反射/折射的光线跟踪深度。
 90
        0
100
AcDbMentalRayRenderSettings
 90
        2
 90
        0
 90
        1
 70
     2
 40
3.0
 40
3.0
 40
0.0500000007450581
 40
0.0500000007450581
 40
0.0500000007450581
 40
0.0500000007450581
 70
     0
290
     0
290
     1
 90
        5
 90
        5
 90
        5
290
     0
 90
      500
290
     0
 40
1.0
 90
    10000
 90
        5
 90
        5
 90
        5
290
     0
 90
      200
290
     0
290
     0
290
     0
 40
0.1
 40
1.0
 40
1500.0
 70
     0
 70
     0
 40
10.0
 70
     0
 70
     0
290
     0
  1

 90
       32
 70
     0
 90
     1048
290
     0
 40
1.0
  0
SCALE
  5
5001
102
{ACAD_REACTORS
330
5000
102
}
330
5000
100
AcDbScale
 70
     0
300
1:1
140
1.0
141
1.0
290
     1
  0
SCALE
  5
5002
102
{ACAD_REACTORS
330
5000
102
}
330
5000
100
AcDbScale
 70
     0
300
1:2
140
1.0
141
2.0
290
     0
  0
SCALE
  5
5003
102
{ACAD_REACTORS
330
5000
102
}
330
5000
100
AcDbScale
 70
     0
300
1:4
140
1.0
141
4.0
290
     0
  0
SCALE
  5
5004
102
{ACAD_REACTORS
330
5000
102
}
330
5000
100
AcDbScale
 70
     0
300
1:5
140
1.0
141
5.0
290
     0
  0
SCALE
  5
5005
102
{ACAD_REACTORS
330
5000
102
}
330
5000
100
AcDbScale
 70
     0
300
1:8
140
1.0
141
8.0
290
     0
  0
SCALE
  5
5006
102
{ACAD_REACTORS
330
5000
102
}
330
5000
100
AcDbScale
 70
     0
300
1:10
140
1.0
141
10.0
290
     0
  0
SCALE
  5
5007
102
{ACAD_REACTORS
330
5000
102
}
330
5000
100
AcDbScale
 70
     0
300
1:16
140
1.0
141
16.0
290
     0
  0
SCALE
  5
5008
102
{ACAD_REACTORS
330
5000
102
}
330
5000
100
AcDbScale
 70
     0
300
1:20
140
1.0
141
20.0
290
     0
  0
SCALE
  5
5009
102
{ACAD_REACTORS
330
5000
102
}
330
5000
100
AcDbScale
 70
     0
300
1:30
140
1.0
141
30.0
290
     0
  0
SCALE
  5
500A
102
{ACAD_REACTORS
330
5000
102
}
330
5000
100
AcDbScale
 70
     0
300
1:40
140
1.0
141
40.0
290
     0
  0
SCALE
  5
500B
102
{ACAD_REACTORS
330
5000
102
}
330
5000
100
AcDbScale
 70
     0
300
1:50
140
1.0
141
50.0
290
     0
  0
SCALE
  5
500C
102
{ACAD_REACTORS
330
5000
102
}
330
5000
100
AcDbScale
 70
     0
300
1:100
140
1.0
141
100.0
290
     0
  0
SCALE
  5
500D
102
{ACAD_REACTORS
330
5000
102
}
330
5000
100
AcDbScale
 70
     0
300
2:1
140
2.0
141
1.0
290
     0
  0
SCALE
  5
500E
102
{ACAD_REACTORS
330
5000
102
}
330
5000
100
AcDbScale
 70
     0
300
4:1
140
4.0
141
1.0
290
     0
  0
SCALE
  5
500F
102
{ACAD_REACTORS
330
5000
102
}
330
5000
100
AcDbScale
 70
     0
300
8:1
140
8.0
141
1.0
290
     0
  0
SCALE
  5
5010
102
{ACAD_REACTORS
330
5000
102
}
330
5000
100
AcDbScale
 70
     0
300
10:1
140
10.0
141
1.0
290
     0
  0
SCALE
  5
5011
102
{ACAD_REACTORS
330
5000
102
}
330
5000
100
AcDbScale
 70
     0
300
100:1
140
100.0
141
1.0
290
     0
  0
SCALE
  5
5012
102
{ACAD_REACTORS
330
5000
102
}
330
5000
100
AcDbScale
 70
     0
300
1/128" = 1'-0"
140
0.0078125
141
12.0
290
     0
  0
SCALE
  5
5013
102
{ACAD_REACTORS
330
5000
102
}
330
5000
100
AcDbScale
 70
     0
300
1/64" = 1'-0"
140
0.015625
141
12.0
290
     0
  0
SCALE
  5
5014
102
{ACAD_REACTORS
330
5000
102
}
330
5000
100
AcDbScale
 70
     0
300
1/32" = 1'-0"
140
0.03125
141
12.0
290
     0
  0
SCALE
  5
5015
102
{ACAD_REACTORS
330
5000
102
}
330
5000
100
AcDbScale
 70
     0
300
1/16" = 1'-0"
140
0.0625
141
12.0
290
     0
  0
SCALE
  5
5016
102
{ACAD_REACTORS
330
5000
102
}
330
5000
100
AcDbScale
 70
     0
300
3/32" = 1'-0"
140
0.09375
141
12.0
290
     0
  0
SCALE
  5
5017
102
{ACAD_REACTORS
330
5000
102
}
330
5000
100
AcDbScale
 70
     0
300
1/8" = 1'-0"
140
0.125
141
12.0
290
     0
  0
SCALE
  5
5018
102
{ACAD_REACTORS
330
5000
102
}
330
5000
100
AcDbScale
 70
     0
300
3/16" = 1'-0"
140
0.1875
141
12.0
290
     0
  0
SCALE
  5
5019
102
{ACAD_REACTORS
330
5000
102
}
330
5000
100
AcDbScale
 70
     0
300
1/4" = 1'-0"
140
0.25
141
12.0
290
     0
  0
SCALE
  5
501A
102
{ACAD_REACTORS
330
5000
102
}
330
5000
100
AcDbScale
 70
     0
300
3/8" = 1'-0"
140
0.375
141
12.0
290
     0
  0
SCALE
  5
501B
102
{ACAD_REACTORS
330
5000
102
}
330
5000
100
AcDbScale
 70
     0
300
1/2" = 1'-0"
140
0.5
141
12.0
290
     0
  0
SCALE
  5
501C
102
{ACAD_REACTORS
330
5000
102
}
330
5000
100
AcDbScale
 70
     0
300
3/4" = 1'-0"
140
0.75
141
12.0
290
     0
  0
SCALE
  5
501D
102
{ACAD_REACTORS
330
5000
102
}
330
5000
100
AcDbScale
 70
     0
300
1" = 1'-0"
140
1.0
141
12.0
290
     0
  0
SCALE
  5
501E
102
{ACAD_REACTORS
330
5000
102
}
330
5000
100
AcDbScale
 70
     0
300
1-1/2" = 1'-0"
140
1.5
141
12.0
290
     0
  0
SCALE
  5
501F
102
{ACAD_REACTORS
330
5000
102
}
330
5000
100
AcDbScale
 70
     0
300
3" = 1'-0"
140
3.0
141
12.0
290
     0
  0
SCALE
  5
5020
102
{ACAD_REACTORS
330
5000
102
}
330
5000
100
AcDbScale
 70
     0
300
6" = 1'-0"
140
6.0
141
12.0
290
     0
  0
SCALE
  5
5021
102
{ACAD_REACTORS
330
5000
102
}
330
5000
100
AcDbScale
 70
     0
300
1'-0" = 1'-0"
140
12.0
141
12.0
290
     0
  0
TABLESTYLE
  5
4FFF
102
{ACAD_XDICTIONARY
360
50D6
102
}
102
{ACAD_REACTORS
330
4FE3
102
}
330
4FE3
100
AcDbTableStyle
  3
Standard
 70
     0
 71
     0
 40
0.06
 41
0.06
280
     0
281
     0
  7
Standard
140
0.18
170
     2
 62
     0
 63
     7
283
     0
 90
      512
 91
        0
  1

274
    -2
284
     1
 64
     0
275
    -2
285
     1
 65
     0
276
    -2
286
     1
 66
     0
277
    -2
287
     1
 67
     0
278
    -2
288
     1
 68
     0
279
    -2
289
     1
 69
     0
  7
Standard
140
0.25
170
     5
 62
     0
 63
     7
283
     0
 90
      512
 91
        0
  1

274
    -2
284
     1
 64
     0
275
    -2
285
     1
 65
     0
276
    -2
286
     1
 66
     0
277
    -2
287
     1
 67
     0
278
    -2
288
     1
 68
     0
279
    -2
289
     1
 69
     0
  7
Standard
140
0.18
170
     5
 62
     0
 63
     7
283
     0
 90
      512
 91
        0
  1

274
    -2
284
     1
 64
     0
275
    -2
285
     1
 65
     0
276
    -2
286
     1
 66
     0
277
    -2
287
     1
 67
     0
278
    -2
288
     1
 68
     0
279
    -2
289
     1
 69
     0
  0
VISUALSTYLE
  5
2F
102
{ACAD_REACTORS
330
2A
102
}
330
2A
100
AcDbVisualStyle
  2
2dWireframe
 70
     4
 71
     0
 72
     2
 73
     0
 90
        0
 40
-0.6
 41
-30.0
 62
     5
 63
     7
 74
     1
 91
        4
 64
     7
 65
   257
 75
     1
175
     1
 42
1.0
 92
        0
 66
   257
 43
1.0
 76
     1
 77
     6
 78
     2
 67
     7
 79
     5
170
     0
171
     0
290
     0
174
     0
 93
        1
 44
0.0
173
     0
291
     0
 45
0.0
1001
ACAD
1000
AcDbSavedByObjectVersion
1070
     0
1000
AcDbSavedByObjectVersion
1070
     0
1000
AcDbSavedByObjectVersion
1070
     0
1000
AcDbSavedByObjectVersion
1070
     0
1000
AcDbSavedByObjectVersion
1070
     0
1000
AcDbSavedByObjectVersion
1070
     0
1000
AcDbSavedByObjectVersion
1070
     0
1000
AcDbSavedByObjectVersion
1070
     0
1000
AcDbSavedByObjectVersion
1070
     0
1000
AcDbSavedByObjectVersion
1070
     0
1000
AcDbSavedByObjectVersion
1070
     0
1000
AcDbSavedByObjectVersion
1070
     0
1000
AcDbSavedByObjectVersion
1070
     0
1000
AcDbSavedByObjectVersion
1070
     0
1000
AcDbSavedByObjectVersion
1070
     0
1000
AcDbSavedByObjectVersion
1070
     0
1000
AcDbSavedByObjectVersion
1070
     0
1000
AcDbSavedByObjectVersion
1070
     0
1000
AcDbSavedByObjectVersion
1070
     0
1000
AcDbSavedByObjectVersion
1070
     0
1000
AcDbSavedByObjectVersion
1070
     0
1000
AcDbSavedByObjectVersion
1070
     0
1000
AcDbSavedByObjectVersion
1070
     0
1000
AcDbSavedByObjectVersion
1070
     0
1000
AcDbSavedByObjectVersion
1070
     0
1000
AcDbSavedByObjectVersion
1070
     0
1000
AcDbSavedByObjectVersion
1070
     0
1000
AcDbSavedByObjectVersion
1070
     0
1000
AcDbSavedByObjectVersion
1070
     0
1000
AcDbSavedByObjectVersion
1070
     0
1000
AcDbSavedByObjectVersion
1070
     0
1000
AcDbSavedByObjectVersion
1070
     0
1000
AcDbSavedByObjectVersion
1070
     0
1000
AcDbSavedByObjectVersion
1070
     0
1000
AcDbSavedByObjectVersion
1070
     0
1000
AcDbSavedByObjectVersion
1070
     0
1000
AcDbSavedByObjectVersion
1070
     0
1000
AcDbSavedByObjectVersion
1070
     0
1000
AcDbSavedByObjectVersion
1070
     0
1000
AcDbSavedByObjectVersion
1070
     0
1000
AcDbSavedByObjectVersion
1070
     0
1000
AcDbSavedByObjectVersion
1070
     0
1000
AcDbSavedByObjectVersion
1070
     0
1000
AcDbSavedByObjectVersion
1070
     0
1000
AcDbSavedByObjectVersion
1070
     0
1000
AcDbSavedByObjectVersion
1070
     0
1000
AcDbSavedByObjectVersion
1070
     0
1000
AcDbSavedByObjectVersion
1070
     0
1000
AcDbSavedByObjectVersion
1070
     0
1000
AcDbSavedByObjectVersion
1070
     0
1000
AcDbSavedByObjectVersion
1070
     0
1000
AcDbSavedByObjectVersion
1070
     0
  0
VISUALSTYLE
  5
31
102
{ACAD_REACTORS
330
2A
102
}
330
2A
100
AcDbVisualStyle
  2
3D Hidden
 70
     6
 71
     1
 72
     2
 73
     2
 90
        0
 40
-0.6
 41
-30.0
 62
     5
 63
     7
 74
     2
 91
        2
 64
     7
 65
   257
 75
     2
175
     1
 42
40.0
 92
        0
 66
   257
 43
1.0
 76
     1
 77
     6
 78
     2
 67
     7
 79
     3
170
     0
171
     0
290
     0
174
     0
 93
        1
 44
0.0
173
     0
291
     0
 45
0.0
1001
ACAD
1000
AcDbSavedByObjectVersion
1070
     0
1000
AcDbSavedByObjectVersion
1070
     0
1000
AcDbSavedByObjectVersion
1070
     0
1000
AcDbSavedByObjectVersion
1070
     0
1000
AcDbSavedByObjectVersion
1070
     0
1000
AcDbSavedByObjectVersion
1070
     0
1000
AcDbSavedByObjectVersion
1070
     0
1000
AcDbSavedByObjectVersion
1070
     0
1000
AcDbSavedByObjectVersion
1070
     0
1000
AcDbSavedByObjectVersion
1070
     0
1000
AcDbSavedByObjectVersion
1070
     0
1000
AcDbSavedByObjectVersion
1070
     0
1000
AcDbSavedByObjectVersion
1070
     0
1000
AcDbSavedByObjectVersion
1070
     0
1000
AcDbSavedByObjectVersion
1070
     0
1000
AcDbSavedByObjectVersion
1070
     0
1000
AcDbSavedByObjectVersion
1070
     0
1000
AcDbSavedByObjectVersion
1070
     0
1000
AcDbSavedByObjectVersion
1070
     0
1000
AcDbSavedByObjectVersion
1070
     0
1000
AcDbSavedByObjectVersion
1070
     0
1000
AcDbSavedByObjectVersion
1070
     0
1000
AcDbSavedByObjectVersion
1070
     0
1000
AcDbSavedByObjectVersion
1070
     0
1000
AcDbSavedByObjectVersion
1070
     0
1000
AcDbSavedByObjectVersion
1070
     0
1000
AcDbSavedByObjectVersion
1070
     0
1000
AcDbSavedByObjectVersion
1070
     0
1000
AcDbSavedByObjectVersion
1070
     0
1000
AcDbSavedByObjectVersion
1070
     0
1000
AcDbSavedByObjectVersion
1070
     0
1000
AcDbSavedByObjectVersion
1070
     0
1000
AcDbSavedByObjectVersion
1070
     0
1000
AcDbSavedByObjectVersion
1070
     0
1000
AcDbSavedByObjectVersion
1070
     0
1000
AcDbSavedByObjectVersion
1070
     0
1000
AcDbSavedByObjectVersion
1070
     0
1000
AcDbSavedByObjectVersion
1070
     0
1000
AcDbSavedByObjectVersion
1070
     0
1000
AcDbSavedByObjectVersion
1070
     0
1000
AcDbSavedByObjectVersion
1070
     0
1000
AcDbSavedByObjectVersion
1070
     0
1000
AcDbSavedByObjectVersion
1070
     0
1000
AcDbSavedByObjectVersion
1070
     0
1000
AcDbSavedByObjectVersion
1070
     0
1000
AcDbSavedByObjectVersion
1070
     0
1000
AcDbSavedByObjectVersion
1070
     0
1000
AcDbSavedByObjectVersion
1070
     0
1000
AcDbSavedByObjectVersion
1070
     0
1000
AcDbSavedByObjectVersion
1070
     0
1000
AcDbSavedByObjectVersion
1070
     0
1000
AcDbSavedByObjectVersion
1070
     0
  0
VISUALSTYLE
  5
30
102
{ACAD_REACTORS
330
2A
102
}
330
2A
100
AcDbVisualStyle
  2
3dWireframe
 70
     5
 71
     0
 72
     2
 73
     0
 90
        0
 40
-0.6
 41
-30.0
 62
     5
 63
     7
 74
     1
 91
        4
 64
     7
 65
   257
 75
     1
175
     1
 42
1.0
 92
        0
 66
   257
 43
1.0
 76
     1
 77
     6
 78
     2
 67
     7
 79
     5
170
     0
171
     0
290
     0
174
     0
 93
        1
 44
0.0
173
     0
291
     0
 45
0.0
1001
ACAD
1000
AcDbSavedByObjectVersion
1070
     0
1000
AcDbSavedByObjectVersion
1070
     0
1000
AcDbSavedByObjectVersion
1070
     0
1000
AcDbSavedByObjectVersion
1070
     0
1000
AcDbSavedByObjectVersion
1070
     0
1000
AcDbSavedByObjectVersion
1070
     0
1000
AcDbSavedByObjectVersion
1070
     0
1000
AcDbSavedByObjectVersion
1070
     0
1000
AcDbSavedByObjectVersion
1070
     0
1000
AcDbSavedByObjectVersion
1070
     0
1000
AcDbSavedByObjectVersion
1070
     0
1000
AcDbSavedByObjectVersion
1070
     0
1000
AcDbSavedByObjectVersion
1070
     0
1000
AcDbSavedByObjectVersion
1070
     0
1000
AcDbSavedByObjectVersion
1070
     0
1000
AcDbSavedByObjectVersion
1070
     0
1000
AcDbSavedByObjectVersion
1070
     0
1000
AcDbSavedByObjectVersion
1070
     0
1000
AcDbSavedByObjectVersion
1070
     0
1000
AcDbSavedByObjectVersion
1070
     0
1000
AcDbSavedByObjectVersion
1070
     0
1000
AcDbSavedByObjectVersion
1070
     0
1000
AcDbSavedByObjectVersion
1070
     0
1000
AcDbSavedByObjectVersion
1070
     0
1000
AcDbSavedByObjectVersion
1070
     0
1000
AcDbSavedByObjectVersion
1070
     0
1000
AcDbSavedByObjectVersion
1070
     0
1000
AcDbSavedByObjectVersion
1070
     0
1000
AcDbSavedByObjectVersion
1070
     0
1000
AcDbSavedByObjectVersion
1070
     0
1000
AcDbSavedByObjectVersion
1070
     0
1000
AcDbSavedByObjectVersion
1070
     0
1000
AcDbSavedByObjectVersion
1070
     0
1000
AcDbSavedByObjectVersion
1070
     0
1000
AcDbSavedByObjectVersion
1070
     0
1000
AcDbSavedByObjectVersion
1070
     0
1000
AcDbSavedByObjectVersion
1070
     0
1000
AcDbSavedByObjectVersion
1070
     0
1000
AcDbSavedByObjectVersion
1070
     0
1000
AcDbSavedByObjectVersion
1070
     0
1000
AcDbSavedByObjectVersion
1070
     0
1000
AcDbSavedByObjectVersion
1070
     0
1000
AcDbSavedByObjectVersion
1070
     0
1000
AcDbSavedByObjectVersion
1070
     0
1000
AcDbSavedByObjectVersion
1070
     0
1000
AcDbSavedByObjectVersion
1070
     0
1000
AcDbSavedByObjectVersion
1070
     0
1000
AcDbSavedByObjectVersion
1070
     0
1000
AcDbSavedByObjectVersion
1070
     0
1000
AcDbSavedByObjectVersion
1070
     0
1000
AcDbSavedByObjectVersion
1070
     0
1000
AcDbSavedByObjectVersion
1070
     0
  0
VISUALSTYLE
  5
32
102
{ACAD_REACTORS
330
2A
102
}
330
2A
100
AcDbVisualStyle
  2
Basic
 70
     7
 71
     1
 72
     0
 73
     1
 90
        0
 40
-0.6
 41
-30.0
 62
     5
 63
     7
 74
     0
 91
        4
 64
     7
 65
   257
 75
     1
175
     1
 42
1.0
 92
        8
 66
     7
 43
1.0
 76
     1
 77
     6
 78
     2
 67
     7
 79
     5
170
     0
171
     0
290
     0
174
     0
 93
        1
 44
0.0
173
     0
291
     1
 45
0.0
1001
ACAD
1000
AcDbSavedByObjectVersion
1070
     0
1000
AcDbSavedByObjectVersion
1070
     0
1000
AcDbSavedByObjectVersion
1070
     0
1000
AcDbSavedByObjectVersion
1070
     0
1000
AcDbSavedByObjectVersion
1070
     0
1000
AcDbSavedByObjectVersion
1070
     0
1000
AcDbSavedByObjectVersion
1070
     0
1000
AcDbSavedByObjectVersion
1070
     0
1000
AcDbSavedByObjectVersion
1070
     0
1000
AcDbSavedByObjectVersion
1070
     0
1000
AcDbSavedByObjectVersion
1070
     0
1000
AcDbSavedByObjectVersion
1070
     0
1000
AcDbSavedByObjectVersion
1070
     0
1000
AcDbSavedByObjectVersion
1070
     0
1000
AcDbSavedByObjectVersion
1070
     0
1000
AcDbSavedByObjectVersion
1070
     0
1000
AcDbSavedByObjectVersion
1070
     0
1000
AcDbSavedByObjectVersion
1070
     0
1000
AcDbSavedByObjectVersion
1070
     0
1000
AcDbSavedByObjectVersion
1070
     0
1000
AcDbSavedByObjectVersion
1070
     0
1000
AcDbSavedByObjectVersion
1070
     0
1000
AcDbSavedByObjectVersion
1070
     0
1000
AcDbSavedByObjectVersion
1070
     0
1000
AcDbSavedByObjectVersion
1070
     0
1000
AcDbSavedByObjectVersion
1070
     0
1000
AcDbSavedByObjectVersion
1070
     0
1000
AcDbSavedByObjectVersion
1070
     0
1000
AcDbSavedByObjectVersion
1070
     0
1000
AcDbSavedByObjectVersion
1070
     0
1000
AcDbSavedByObjectVersion
1070
     0
1000
AcDbSavedByObjectVersion
1070
     0
1000
AcDbSavedByObjectVersion
1070
     0
1000
AcDbSavedByObjectVersion
1070
     0
1000
AcDbSavedByObjectVersion
1070
     0
1000
AcDbSavedByObjectVersion
1070
     0
1000
AcDbSavedByObjectVersion
1070
     0
1000
AcDbSavedByObjectVersion
1070
     0
1000
AcDbSavedByObjectVersion
1070
     0
1000
AcDbSavedByObjectVersion
1070
     0
1000
AcDbSavedByObjectVersion
1070
     0
1000
AcDbSavedByObjectVersion
1070
     0
1000
AcDbSavedByObjectVersion
1070
     0
1000
AcDbSavedByObjectVersion
1070
     0
1000
AcDbSavedByObjectVersion
1070
     0
1000
AcDbSavedByObjectVersion
1070
     0
1000
AcDbSavedByObjectVersion
1070
     0
1000
AcDbSavedByObjectVersion
1070
     0
1000
AcDbSavedByObjectVersion
1070
     0
1000
AcDbSavedByObjectVersion
1070
     0
1000
AcDbSavedByObjectVersion
1070
     0
1000
AcDbSavedByObjectVersion
1070
     0
  0
VISUALSTYLE
  5
36
102
{ACAD_REACTORS
330
2A
102
}
330
2A
100
AcDbVisualStyle
  2
Brighten
 70
    12
 71
     2
 72
     2
 73
     0
 90
        0
 40
-0.6
 41
-30.0
 62
     5
 63
     7
 74
     1
 91
        4
 64
     7
 65
   257
 75
     1
175
     1
 42
1.0
 92
        8
 66
     7
 43
1.0
 76
     1
 77
     6
 78
     2
 67
     7
 79
     5
170
     0
171
     0
290
     0
174
     0
 93
        1
 44
50.0
173
     0
291
     1
 45
0.0
1001
ACAD
1000
AcDbSavedByObjectVersion
1070
     0
1000
AcDbSavedByObjectVersion
1070
     0
1000
AcDbSavedByObjectVersion
1070
     0
1000
AcDbSavedByObjectVersion
1070
     0
1000
AcDbSavedByObjectVersion
1070
     0
1000
AcDbSavedByObjectVersion
1070
     0
1000
AcDbSavedByObjectVersion
1070
     0
1000
AcDbSavedByObjectVersion
1070
     0
1000
AcDbSavedByObjectVersion
1070
     0
1000
AcDbSavedByObjectVersion
1070
     0
1000
AcDbSavedByObjectVersion
1070
     0
1000
AcDbSavedByObjectVersion
1070
     0
1000
AcDbSavedByObjectVersion
1070
     0
1000
AcDbSavedByObjectVersion
1070
     0
1000
AcDbSavedByObjectVersion
1070
     0
1000
AcDbSavedByObjectVersion
1070
     0
1000
AcDbSavedByObjectVersion
1070
     0
1000
AcDbSavedByObjectVersion
1070
     0
1000
AcDbSavedByObjectVersion
1070
     0
1000
AcDbSavedByObjectVersion
1070
     0
1000
AcDbSavedByObjectVersion
1070
     0
1000
AcDbSavedByObjectVersion
1070
     0
1000
AcDbSavedByObjectVersion
1070
     0
1000
AcDbSavedByObjectVersion
1070
     0
1000
AcDbSavedByObjectVersion
1070
     0
1000
AcDbSavedByObjectVersion
1070
     0
1000
AcDbSavedByObjectVersion
1070
     0
1000
AcDbSavedByObjectVersion
1070
     0
1000
AcDbSavedByObjectVersion
1070
     0
1000
AcDbSavedByObjectVersion
1070
     0
1000
AcDbSavedByObjectVersion
1070
     0
1000
AcDbSavedByObjectVersion
1070
     0
1000
AcDbSavedByObjectVersion
1070
     0
1000
AcDbSavedByObjectVersion
1070
     0
1000
AcDbSavedByObjectVersion
1070
     0
1000
AcDbSavedByObjectVersion
1070
     0
1000
AcDbSavedByObjectVersion
1070
     0
1000
AcDbSavedByObjectVersion
1070
     0
1000
AcDbSavedByObjectVersion
1070
     0
1000
AcDbSavedByObjectVersion
1070
     0
1000
AcDbSavedByObjectVersion
1070
     0
1000
AcDbSavedByObjectVersion
1070
     0
1000
AcDbSavedByObjectVersion
1070
     0
1000
AcDbSavedByObjectVersion
1070
     0
1000
AcDbSavedByObjectVersion
1070
     0
1000
AcDbSavedByObjectVersion
1070
     0
1000
AcDbSavedByObjectVersion
1070
     0
1000
AcDbSavedByObjectVersion
1070
     0
1000
AcDbSavedByObjectVersion
1070
     0
1000
AcDbSavedByObjectVersion
1070
     0
1000
AcDbSavedByObjectVersion
1070
     0
1000
AcDbSavedByObjectVersion
1070
     0
  0
VISUALSTYLE
  5
3A
102
{ACAD_REACTORS
330
2A
102
}
330
2A
100
AcDbVisualStyle
  2
ColorChange
 70
    16
 71
     2
 72
     2
 73
     3
 90
        0
 40
-0.6
 41
-30.0
 62
     5
 63
     8
 74
     1
 91
        4
 64
     7
 65
   257
 75
     1
175
     1
 42
1.0
 92
        8
 66
     8
 43
1.0
 76
     1
 77
     6
 78
     2
 67
     7
 79
     5
170
     0
171
     0
290
     0
174
     0
 93
        1
 44
0.0
173
     0
291
     1
 45
0.0
1001
ACAD
1000
AcDbSavedByObjectVersion
1070
     0
1000
AcDbSavedByObjectVersion
1070
     0
1000
AcDbSavedByObjectVersion
1070
     0
1000
AcDbSavedByObjectVersion
1070
     0
1000
AcDbSavedByObjectVersion
1070
     0
1000
AcDbSavedByObjectVersion
1070
     0
1000
AcDbSavedByObjectVersion
1070
     0
1000
AcDbSavedByObjectVersion
1070
     0
1000
AcDbSavedByObjectVersion
1070
     0
1000
AcDbSavedByObjectVersion
1070
     0
1000
AcDbSavedByObjectVersion
1070
     0
1000
AcDbSavedByObjectVersion
1070
     0
1000
AcDbSavedByObjectVersion
1070
     0
1000
AcDbSavedByObjectVersion
1070
     0
1000
AcDbSavedByObjectVersion
1070
     0
1000
AcDbSavedByObjectVersion
1070
     0
1000
AcDbSavedByObjectVersion
1070
     0
1000
AcDbSavedByObjectVersion
1070
     0
1000
AcDbSavedByObjectVersion
1070
     0
1000
AcDbSavedByObjectVersion
1070
     0
1000
AcDbSavedByObjectVersion
1070
     0
1000
AcDbSavedByObjectVersion
1070
     0
1000
AcDbSavedByObjectVersion
1070
     0
1000
AcDbSavedByObjectVersion
1070
     0
1000
AcDbSavedByObjectVersion
1070
     0
1000
AcDbSavedByObjectVersion
1070
     0
1000
AcDbSavedByObjectVersion
1070
     0
1000
AcDbSavedByObjectVersion
1070
     0
1000
AcDbSavedByObjectVersion
1070
     0
1000
AcDbSavedByObjectVersion
1070
     0
1000
AcDbSavedByObjectVersion
1070
     0
1000
AcDbSavedByObjectVersion
1070
     0
1000
AcDbSavedByObjectVersion
1070
     0
1000
AcDbSavedByObjectVersion
1070
     0
1000
AcDbSavedByObjectVersion
1070
     0
1000
AcDbSavedByObjectVersion
1070
     0
1000
AcDbSavedByObjectVersion
1070
     0
1000
AcDbSavedByObjectVersion
1070
     0
1000
AcDbSavedByObjectVersion
1070
     0
1000
AcDbSavedByObjectVersion
1070
     0
1000
AcDbSavedByObjectVersion
1070
     0
1000
AcDbSavedByObjectVersion
1070
     0
1000
AcDbSavedByObjectVersion
1070
     0
1000
AcDbSavedByObjectVersion
1070
     0
1000
AcDbSavedByObjectVersion
1070
     0
1000
AcDbSavedByObjectVersion
1070
     0
1000
AcDbSavedByObjectVersion
1070
     0
1000
AcDbSavedByObjectVersion
1070
     0
1000
AcDbSavedByObjectVersion
1070
     0
1000
AcDbSavedByObjectVersion
1070
     0
1000
AcDbSavedByObjectVersion
1070
     0
1000
AcDbSavedByObjectVersion
1070
     0
  0
VISUALSTYLE
  5
34
102
{ACAD_REACTORS
330
2A
102
}
330
2A
100
AcDbVisualStyle
  2
Conceptual
 70
     9
 71
     3
 72
     2
 73
     0
 90
        0
 40
-0.6
 41
-30.0
 62
     5
 63
     7
 74
     2
 91
        2
 64
     7
 65
   257
 75
     1
175
     1
 42
40.0
 92
        8
 66
     7
 43
1.0
 76
     1
 77
     6
 78
     2
 67
     7
 79
     3
170
     0
171
     0
290
     0
174
     0
 93
        1
 44
0.0
173
     0
291
     0
 45
0.0
1001
ACAD
1000
AcDbSavedByObjectVersion
1070
     0
1000
AcDbSavedByObjectVersion
1070
     0
1000
AcDbSavedByObjectVersion
1070
     0
1000
AcDbSavedByObjectVersion
1070
     0
1000
AcDbSavedByObjectVersion
1070
     0
1000
AcDbSavedByObjectVersion
1070
     0
1000
AcDbSavedByObjectVersion
1070
     0
1000
AcDbSavedByObjectVersion
1070
     0
1000
AcDbSavedByObjectVersion
1070
     0
1000
AcDbSavedByObjectVersion
1070
     0
1000
AcDbSavedByObjectVersion
1070
     0
1000
AcDbSavedByObjectVersion
1070
     0
1000
AcDbSavedByObjectVersion
1070
     0
1000
AcDbSavedByObjectVersion
1070
     0
1000
AcDbSavedByObjectVersion
1070
     0
1000
AcDbSavedByObjectVersion
1070
     0
1000
AcDbSavedByObjectVersion
1070
     0
1000
AcDbSavedByObjectVersion
1070
     0
1000
AcDbSavedByObjectVersion
1070
     0
1000
AcDbSavedByObjectVersion
1070
     0
1000
AcDbSavedByObjectVersion
1070
     0
1000
AcDbSavedByObjectVersion
1070
     0
1000
AcDbSavedByObjectVersion
1070
     0
1000
AcDbSavedByObjectVersion
1070
     0
1000
AcDbSavedByObjectVersion
1070
     0
1000
AcDbSavedByObjectVersion
1070
     0
1000
AcDbSavedByObjectVersion
1070
     0
1000
AcDbSavedByObjectVersion
1070
     0
1000
AcDbSavedByObjectVersion
1070
     0
1000
AcDbSavedByObjectVersion
1070
     0
1000
AcDbSavedByObjectVersion
1070
     0
1000
AcDbSavedByObjectVersion
1070
     0
1000
AcDbSavedByObjectVersion
1070
     0
1000
AcDbSavedByObjectVersion
1070
     0
1000
AcDbSavedByObjectVersion
1070
     0
1000
AcDbSavedByObjectVersion
1070
     0
1000
AcDbSavedByObjectVersion
1070
     0
1000
AcDbSavedByObjectVersion
1070
     0
1000
AcDbSavedByObjectVersion
1070
     0
1000
AcDbSavedByObjectVersion
1070
     0
1000
AcDbSavedByObjectVersion
1070
     0
1000
AcDbSavedByObjectVersion
1070
     0
1000
AcDbSavedByObjectVersion
1070
     0
1000
AcDbSavedByObjectVersion
1070
     0
1000
AcDbSavedByObjectVersion
1070
     0
1000
AcDbSavedByObjectVersion
1070
     0
1000
AcDbSavedByObjectVersion
1070
     0
1000
AcDbSavedByObjectVersion
1070
     0
1000
AcDbSavedByObjectVersion
1070
     0
1000
AcDbSavedByObjectVersion
1070
     0
1000
AcDbSavedByObjectVersion
1070
     0
1000
AcDbSavedByObjectVersion
1070
     0
  0
VISUALSTYLE
  5
35
102
{ACAD_REACTORS
330
2A
102
}
330
2A
100
AcDbVisualStyle
  2
Dim
 70
    11
 71
     2
 72
     2
 73
     0
 90
        0
 40
-0.6
 41
-30.0
 62
     5
 63
     7
 74
     1
 91
        4
 64
     7
 65
   257
 75
     1
175
     1
 42
1.0
 92
        8
 66
     7
 43
1.0
 76
     1
 77
     6
 78
     2
 67
     7
 79
     5
170
     0
171
     0
290
     0
174
     0
 93
        1
 44
-50.0
173
     0
291
     1
 45
0.0
1001
ACAD
1000
AcDbSavedByObjectVersion
1070
     0
1000
AcDbSavedByObjectVersion
1070
     0
1000
AcDbSavedByObjectVersion
1070
     0
1000
AcDbSavedByObjectVersion
1070
     0
1000
AcDbSavedByObjectVersion
1070
     0
1000
AcDbSavedByObjectVersion
1070
     0
1000
AcDbSavedByObjectVersion
1070
     0
1000
AcDbSavedByObjectVersion
1070
     0
1000
AcDbSavedByObjectVersion
1070
     0
1000
AcDbSavedByObjectVersion
1070
     0
1000
AcDbSavedByObjectVersion
1070
     0
1000
AcDbSavedByObjectVersion
1070
     0
1000
AcDbSavedByObjectVersion
1070
     0
1000
AcDbSavedByObjectVersion
1070
     0
1000
AcDbSavedByObjectVersion
1070
     0
1000
AcDbSavedByObjectVersion
1070
     0
1000
AcDbSavedByObjectVersion
1070
     0
1000
AcDbSavedByObjectVersion
1070
     0
1000
AcDbSavedByObjectVersion
1070
     0
1000
AcDbSavedByObjectVersion
1070
     0
1000
AcDbSavedByObjectVersion
1070
     0
1000
AcDbSavedByObjectVersion
1070
     0
1000
AcDbSavedByObjectVersion
1070
     0
1000
AcDbSavedByObjectVersion
1070
     0
1000
AcDbSavedByObjectVersion
1070
     0
1000
AcDbSavedByObjectVersion
1070
     0
1000
AcDbSavedByObjectVersion
1070
     0
1000
AcDbSavedByObjectVersion
1070
     0
1000
AcDbSavedByObjectVersion
1070
     0
1000
AcDbSavedByObjectVersion
1070
     0
1000
AcDbSavedByObjectVersion
1070
     0
1000
AcDbSavedByObjectVersion
1070
     0
1000
AcDbSavedByObjectVersion
1070
     0
1000
AcDbSavedByObjectVersion
1070
     0
1000
AcDbSavedByObjectVersion
1070
     0
1000
AcDbSavedByObjectVersion
1070
     0
1000
AcDbSavedByObjectVersion
1070
     0
1000
AcDbSavedByObjectVersion
1070
     0
1000
AcDbSavedByObjectVersion
1070
     0
1000
AcDbSavedByObjectVersion
1070
     0
1000
AcDbSavedByObjectVersion
1070
     0
1000
AcDbSavedByObjectVersion
1070
     0
1000
AcDbSavedByObjectVersion
1070
     0
1000
AcDbSavedByObjectVersion
1070
     0
1000
AcDbSavedByObjectVersion
1070
     0
1000
AcDbSavedByObjectVersion
1070
     0
1000
AcDbSavedByObjectVersion
1070
     0
1000
AcDbSavedByObjectVersion
1070
     0
1000
AcDbSavedByObjectVersion
1070
     0
1000
AcDbSavedByObjectVersion
1070
     0
1000
AcDbSavedByObjectVersion
1070
     0
1000
AcDbSavedByObjectVersion
1070
     0
  0
VISUALSTYLE
  5
39
102
{ACAD_REACTORS
330
2A
102
}
330
2A
100
AcDbVisualStyle
  2
Facepattern
 70
    15
 71
     2
 72
     2
 73
     0
 90
        0
 40
-0.6
 41
-30.0
 62
     5
 63
     7
 74
     1
 91
        4
 64
     7
 65
   257
 75
     1
175
     1
 42
1.0
 92
        8
 66
     7
 43
1.0
 76
     1
 77
     6
 78
     2
 67
     7
 79
     5
170
     0
171
     0
290
     0
174
     0
 93
        1
 44
0.0
173
     0
291
     1
 45
0.0
1001
ACAD
1000
AcDbSavedByObjectVersion
1070
     0
1000
AcDbSavedByObjectVersion
1070
     0
1000
AcDbSavedByObjectVersion
1070
     0
1000
AcDbSavedByObjectVersion
1070
     0
1000
AcDbSavedByObjectVersion
1070
     0
1000
AcDbSavedByObjectVersion
1070
     0
1000
AcDbSavedByObjectVersion
1070
     0
1000
AcDbSavedByObjectVersion
1070
     0
1000
AcDbSavedByObjectVersion
1070
     0
1000
AcDbSavedByObjectVersion
1070
     0
1000
AcDbSavedByObjectVersion
1070
     0
1000
AcDbSavedByObjectVersion
1070
     0
1000
AcDbSavedByObjectVersion
1070
     0
1000
AcDbSavedByObjectVersion
1070
     0
1000
AcDbSavedByObjectVersion
1070
     0
1000
AcDbSavedByObjectVersion
1070
     0
1000
AcDbSavedByObjectVersion
1070
     0
1000
AcDbSavedByObjectVersion
1070
     0
1000
AcDbSavedByObjectVersion
1070
     0
1000
AcDbSavedByObjectVersion
1070
     0
1000
AcDbSavedByObjectVersion
1070
     0
1000
AcDbSavedByObjectVersion
1070
     0
1000
AcDbSavedByObjectVersion
1070
     0
1000
AcDbSavedByObjectVersion
1070
     0
1000
AcDbSavedByObjectVersion
1070
     0
1000
AcDbSavedByObjectVersion
1070
     0
1000
AcDbSavedByObjectVersion
1070
     0
1000
AcDbSavedByObjectVersion
1070
     0
1000
AcDbSavedByObjectVersion
1070
     0
1000
AcDbSavedByObjectVersion
1070
     0
1000
AcDbSavedByObjectVersion
1070
     0
1000
AcDbSavedByObjectVersion
1070
     0
1000
AcDbSavedByObjectVersion
1070
     0
1000
AcDbSavedByObjectVersion
1070
     0
1000
AcDbSavedByObjectVersion
1070
     0
1000
AcDbSavedByObjectVersion
1070
     0
1000
AcDbSavedByObjectVersion
1070
     0
1000
AcDbSavedByObjectVersion
1070
     0
1000
AcDbSavedByObjectVersion
1070
     0
1000
AcDbSavedByObjectVersion
1070
     0
1000
AcDbSavedByObjectVersion
1070
     0
1000
AcDbSavedByObjectVersion
1070
     0
1000
AcDbSavedByObjectVersion
1070
     0
1000
AcDbSavedByObjectVersion
1070
     0
1000
AcDbSavedByObjectVersion
1070
     0
1000
AcDbSavedByObjectVersion
1070
     0
1000
AcDbSavedByObjectVersion
1070
     0
1000
AcDbSavedByObjectVersion
1070
     0
1000
AcDbSavedByObjectVersion
1070
     0
1000
AcDbSavedByObjectVersion
1070
     0
1000
AcDbSavedByObjectVersion
1070
     0
1000
AcDbSavedByObjectVersion
1070
     0
  0
VISUALSTYLE
  5
2B
102
{ACAD_REACTORS
330
2A
102
}
330
2A
100
AcDbVisualStyle
  2
Flat
 70
     0
 71
     2
 72
     1
 73
     1
 90
        2
 40
-0.6
 41
30.0
 62
     5
 63
     7
 74
     0
 91
        4
 64
     7
 65
   257
 75
     1
175
     1
 42
1.0
 92
        8
 66
     7
 43
1.0
 76
     1
 77
     6
 78
     2
 67
     7
 79
     5
170
     0
171
     0
290
     0
174
     0
 93
       13
 44
0.0
173
     0
291
     1
 45
0.0
1001
ACAD
1000
AcDbSavedByObjectVersion
1070
     0
1000
AcDbSavedByObjectVersion
1070
     0
1000
AcDbSavedByObjectVersion
1070
     0
1000
AcDbSavedByObjectVersion
1070
     0
1000
AcDbSavedByObjectVersion
1070
     0
1000
AcDbSavedByObjectVersion
1070
     0
1000
AcDbSavedByObjectVersion
1070
     0
1000
AcDbSavedByObjectVersion
1070
     0
1000
AcDbSavedByObjectVersion
1070
     0
1000
AcDbSavedByObjectVersion
1070
     0
1000
AcDbSavedByObjectVersion
1070
     0
1000
AcDbSavedByObjectVersion
1070
     0
1000
AcDbSavedByObjectVersion
1070
     0
1000
AcDbSavedByObjectVersion
1070
     0
1000
AcDbSavedByObjectVersion
1070
     0
1000
AcDbSavedByObjectVersion
1070
     0
1000
AcDbSavedByObjectVersion
1070
     0
1000
AcDbSavedByObjectVersion
1070
     0
1000
AcDbSavedByObjectVersion
1070
     0
1000
AcDbSavedByObjectVersion
1070
     0
1000
AcDbSavedByObjectVersion
1070
     0
1000
AcDbSavedByObjectVersion
1070
     0
1000
AcDbSavedByObjectVersion
1070
     0
1000
AcDbSavedByObjectVersion
1070
     0
1000
AcDbSavedByObjectVersion
1070
     0
1000
AcDbSavedByObjectVersion
1070
     0
1000
AcDbSavedByObjectVersion
1070
     0
1000
AcDbSavedByObjectVersion
1070
     0
1000
AcDbSavedByObjectVersion
1070
     0
1000
AcDbSavedByObjectVersion
1070
     0
1000
AcDbSavedByObjectVersion
1070
     0
1000
AcDbSavedByObjectVersion
1070
     0
1000
AcDbSavedByObjectVersion
1070
     0
1000
AcDbSavedByObjectVersion
1070
     0
1000
AcDbSavedByObjectVersion
1070
     0
1000
AcDbSavedByObjectVersion
1070
     0
1000
AcDbSavedByObjectVersion
1070
     0
1000
AcDbSavedByObjectVersion
1070
     0
1000
AcDbSavedByObjectVersion
1070
     0
1000
AcDbSavedByObjectVersion
1070
     0
1000
AcDbSavedByObjectVersion
1070
     0
1000
AcDbSavedByObjectVersion
1070
     0
1000
AcDbSavedByObjectVersion
1070
     0
1000
AcDbSavedByObjectVersion
1070
     0
1000
AcDbSavedByObjectVersion
1070
     0
1000
AcDbSavedByObjectVersion
1070
     0
1000
AcDbSavedByObjectVersion
1070
     0
1000
AcDbSavedByObjectVersion
1070
     0
1000
AcDbSavedByObjectVersion
1070
     0
1000
AcDbSavedByObjectVersion
1070
     0
1000
AcDbSavedByObjectVersion
1070
     0
1000
AcDbSavedByObjectVersion
1070
     0
  0
VISUALSTYLE
  5
2C
102
{ACAD_REACTORS
330
2A
102
}
330
2A
100
AcDbVisualStyle
  2
FlatWithEdges
 70
     1
 71
     2
 72
     1
 73
     1
 90
        2
 40
-0.6
 41
30.0
 62
     5
 63
     7
 74
     1
 91
        4
 64
     7
 65
   257
 75
     1
175
     1
 42
1.0
 92
        0
 66
   257
 43
1.0
 76
     1
 77
     6
 78
     2
 67
     7
 79
     5
170
     0
171
     0
290
     0
174
     0
 93
       13
 44
0.0
173
     0
291
     1
 45
0.0
1001
ACAD
1000
AcDbSavedByObjectVersion
1070
     0
1000
AcDbSavedByObjectVersion
1070
     0
1000
AcDbSavedByObjectVersion
1070
     0
1000
AcDbSavedByObjectVersion
1070
     0
1000
AcDbSavedByObjectVersion
1070
     0
1000
AcDbSavedByObjectVersion
1070
     0
1000
AcDbSavedByObjectVersion
1070
     0
1000
AcDbSavedByObjectVersion
1070
     0
1000
AcDbSavedByObjectVersion
1070
     0
1000
AcDbSavedByObjectVersion
1070
     0
1000
AcDbSavedByObjectVersion
1070
     0
1000
AcDbSavedByObjectVersion
1070
     0
1000
AcDbSavedByObjectVersion
1070
     0
1000
AcDbSavedByObjectVersion
1070
     0
1000
AcDbSavedByObjectVersion
1070
     0
1000
AcDbSavedByObjectVersion
1070
     0
1000
AcDbSavedByObjectVersion
1070
     0
1000
AcDbSavedByObjectVersion
1070
     0
1000
AcDbSavedByObjectVersion
1070
     0
1000
AcDbSavedByObjectVersion
1070
     0
1000
AcDbSavedByObjectVersion
1070
     0
1000
AcDbSavedByObjectVersion
1070
     0
1000
AcDbSavedByObjectVersion
1070
     0
1000
AcDbSavedByObjectVersion
1070
     0
1000
AcDbSavedByObjectVersion
1070
     0
1000
AcDbSavedByObjectVersion
1070
     0
1000
AcDbSavedByObjectVersion
1070
     0
1000
AcDbSavedByObjectVersion
1070
     0
1000
AcDbSavedByObjectVersion
1070
     0
1000
AcDbSavedByObjectVersion
1070
     0
1000
AcDbSavedByObjectVersion
1070
     0
1000
AcDbSavedByObjectVersion
1070
     0
1000
AcDbSavedByObjectVersion
1070
     0
1000
AcDbSavedByObjectVersion
1070
     0
1000
AcDbSavedByObjectVersion
1070
     0
1000
AcDbSavedByObjectVersion
1070
     0
1000
AcDbSavedByObjectVersion
1070
     0
1000
AcDbSavedByObjectVersion
1070
     0
1000
AcDbSavedByObjectVersion
1070
     0
1000
AcDbSavedByObjectVersion
1070
     0
1000
AcDbSavedByObjectVersion
1070
     0
1000
AcDbSavedByObjectVersion
1070
     0
1000
AcDbSavedByObjectVersion
1070
     0
1000
AcDbSavedByObjectVersion
1070
     0
1000
AcDbSavedByObjectVersion
1070
     0
1000
AcDbSavedByObjectVersion
1070
     0
1000
AcDbSavedByObjectVersion
1070
     0
1000
AcDbSavedByObjectVersion
1070
     0
1000
AcDbSavedByObjectVersion
1070
     0
1000
AcDbSavedByObjectVersion
1070
     0
1000
AcDbSavedByObjectVersion
1070
     0
1000
AcDbSavedByObjectVersion
1070
     0
  0
VISUALSTYLE
  5
2D
102
{ACAD_REACTORS
330
2A
102
}
330
2A
100
AcDbVisualStyle
  2
Gouraud
 70
     2
 71
     2
 72
     2
 73
     1
 90
        2
 40
-0.6
 41
30.0
 62
     5
 63
     7
 74
     0
 91
        4
 64
     7
 65
   257
 75
     1
175
     1
 42
1.0
 92
        0
 66
     7
 43
1.0
 76
     1
 77
     6
 78
     2
 67
     7
 79
     5
170
     0
171
     0
290
     0
174
     0
 93
       13
 44
0.0
173
     0
291
     1
 45
0.0
1001
ACAD
1000
AcDbSavedByObjectVersion
1070
     0
1000
AcDbSavedByObjectVersion
1070
     0
1000
AcDbSavedByObjectVersion
1070
     0
1000
AcDbSavedByObjectVersion
1070
     0
1000
AcDbSavedByObjectVersion
1070
     0
1000
AcDbSavedByObjectVersion
1070
     0
1000
AcDbSavedByObjectVersion
1070
     0
1000
AcDbSavedByObjectVersion
1070
     0
1000
AcDbSavedByObjectVersion
1070
     0
1000
AcDbSavedByObjectVersion
1070
     0
1000
AcDbSavedByObjectVersion
1070
     0
1000
AcDbSavedByObjectVersion
1070
     0
1000
AcDbSavedByObjectVersion
1070
     0
1000
AcDbSavedByObjectVersion
1070
     0
1000
AcDbSavedByObjectVersion
1070
     0
1000
AcDbSavedByObjectVersion
1070
     0
1000
AcDbSavedByObjectVersion
1070
     0
1000
AcDbSavedByObjectVersion
1070
     0
1000
AcDbSavedByObjectVersion
1070
     0
1000
AcDbSavedByObjectVersion
1070
     0
1000
AcDbSavedByObjectVersion
1070
     0
1000
AcDbSavedByObjectVersion
1070
     0
1000
AcDbSavedByObjectVersion
1070
     0
1000
AcDbSavedByObjectVersion
1070
     0
1000
AcDbSavedByObjectVersion
1070
     0
1000
AcDbSavedByObjectVersion
1070
     0
1000
AcDbSavedByObjectVersion
1070
     0
1000
AcDbSavedByObjectVersion
1070
     0
1000
AcDbSavedByObjectVersion
1070
     0
1000
AcDbSavedByObjectVersion
1070
     0
1000
AcDbSavedByObjectVersion
1070
     0
1000
AcDbSavedByObjectVersion
1070
     0
1000
AcDbSavedByObjectVersion
1070
     0
1000
AcDbSavedByObjectVersion
1070
     0
1000
AcDbSavedByObjectVersion
1070
     0
1000
AcDbSavedByObjectVersion
1070
     0
1000
AcDbSavedByObjectVersion
1070
     0
1000
AcDbSavedByObjectVersion
1070
     0
1000
AcDbSavedByObjectVersion
1070
     0
1000
AcDbSavedByObjectVersion
1070
     0
1000
AcDbSavedByObjectVersion
1070
     0
1000
AcDbSavedByObjectVersion
1070
     0
1000
AcDbSavedByObjectVersion
1070
     0
1000
AcDbSavedByObjectVersion
1070
     0
1000
AcDbSavedByObjectVersion
1070
     0
1000
AcDbSavedByObjectVersion
1070
     0
1000
AcDbSavedByObjectVersion
1070
     0
1000
AcDbSavedByObjectVersion
1070
     0
1000
AcDbSavedByObjectVersion
1070
     0
1000
AcDbSavedByObjectVersion
1070
     0
1000
AcDbSavedByObjectVersion
1070
     0
1000
AcDbSavedByObjectVersion
1070
     0
  0
VISUALSTYLE
  5
2E
102
{ACAD_REACTORS
330
2A
102
}
330
2A
100
AcDbVisualStyle
  2
GouraudWithEdges
 70
     3
 71
     2
 72
     2
 73
     1
 90
        2
 40
-0.6
 41
30.0
 62
     5
 63
     7
 74
     1
 91
        4
 64
     7
 65
   257
 75
     1
175
     1
 42
1.0
 92
        0
 66
   257
 43
1.0
 76
     1
 77
     6
 78
     2
 67
     7
 79
     5
170
     0
171
     0
290
     0
174
     0
 93
       13
 44
0.0
173
     0
291
     1
 45
0.0
1001
ACAD
1000
AcDbSavedByObjectVersion
1070
     0
1000
AcDbSavedByObjectVersion
1070
     0
1000
AcDbSavedByObjectVersion
1070
     0
1000
AcDbSavedByObjectVersion
1070
     0
1000
AcDbSavedByObjectVersion
1070
     0
1000
AcDbSavedByObjectVersion
1070
     0
1000
AcDbSavedByObjectVersion
1070
     0
1000
AcDbSavedByObjectVersion
1070
     0
1000
AcDbSavedByObjectVersion
1070
     0
1000
AcDbSavedByObjectVersion
1070
     0
1000
AcDbSavedByObjectVersion
1070
     0
1000
AcDbSavedByObjectVersion
1070
     0
1000
AcDbSavedByObjectVersion
1070
     0
1000
AcDbSavedByObjectVersion
1070
     0
1000
AcDbSavedByObjectVersion
1070
     0
1000
AcDbSavedByObjectVersion
1070
     0
1000
AcDbSavedByObjectVersion
1070
     0
1000
AcDbSavedByObjectVersion
1070
     0
1000
AcDbSavedByObjectVersion
1070
     0
1000
AcDbSavedByObjectVersion
1070
     0
1000
AcDbSavedByObjectVersion
1070
     0
1000
AcDbSavedByObjectVersion
1070
     0
1000
AcDbSavedByObjectVersion
1070
     0
1000
AcDbSavedByObjectVersion
1070
     0
1000
AcDbSavedByObjectVersion
1070
     0
1000
AcDbSavedByObjectVersion
1070
     0
1000
AcDbSavedByObjectVersion
1070
     0
1000
AcDbSavedByObjectVersion
1070
     0
1000
AcDbSavedByObjectVersion
1070
     0
1000
AcDbSavedByObjectVersion
1070
     0
1000
AcDbSavedByObjectVersion
1070
     0
1000
AcDbSavedByObjectVersion
1070
     0
1000
AcDbSavedByObjectVersion
1070
     0
1000
AcDbSavedByObjectVersion
1070
     0
1000
AcDbSavedByObjectVersion
1070
     0
1000
AcDbSavedByObjectVersion
1070
     0
1000
AcDbSavedByObjectVersion
1070
     0
1000
AcDbSavedByObjectVersion
1070
     0
1000
AcDbSavedByObjectVersion
1070
     0
1000
AcDbSavedByObjectVersion
1070
     0
1000
AcDbSavedByObjectVersion
1070
     0
1000
AcDbSavedByObjectVersion
1070
     0
1000
AcDbSavedByObjectVersion
1070
     0
1000
AcDbSavedByObjectVersion
1070
     0
1000
AcDbSavedByObjectVersion
1070
     0
1000
AcDbSavedByObjectVersion
1070
     0
1000
AcDbSavedByObjectVersion
1070
     0
1000
AcDbSavedByObjectVersion
1070
     0
1000
AcDbSavedByObjectVersion
1070
     0
1000
AcDbSavedByObjectVersion
1070
     0
1000
AcDbSavedByObjectVersion
1070
     0
1000
AcDbSavedByObjectVersion
1070
     0
  0
VISUALSTYLE
  5
38
102
{ACAD_REACTORS
330
2A
102
}
330
2A
100
AcDbVisualStyle
  2
Linepattern
 70
    14
 71
     2
 72
     2
 73
     0
 90
        0
 40
-0.6
 41
-30.0
 62
     5
 63
     7
 74
     1
 91
        4
 64
     7
 65
   257
 75
     7
175
     7
 42
1.0
 92
        8
 66
     7
 43
1.0
 76
     1
 77
     6
 78
     2
 67
     7
 79
     5
170
     0
171
     0
290
     0
174
     0
 93
        1
 44
0.0
173
     0
291
     1
 45
0.0
1001
ACAD
1000
AcDbSavedByObjectVersion
1070
     0
1000
AcDbSavedByObjectVersion
1070
     0
1000
AcDbSavedByObjectVersion
1070
     0
1000
AcDbSavedByObjectVersion
1070
     0
1000
AcDbSavedByObjectVersion
1070
     0
1000
AcDbSavedByObjectVersion
1070
     0
1000
AcDbSavedByObjectVersion
1070
     0
1000
AcDbSavedByObjectVersion
1070
     0
1000
AcDbSavedByObjectVersion
1070
     0
1000
AcDbSavedByObjectVersion
1070
     0
1000
AcDbSavedByObjectVersion
1070
     0
1000
AcDbSavedByObjectVersion
1070
     0
1000
AcDbSavedByObjectVersion
1070
     0
1000
AcDbSavedByObjectVersion
1070
     0
1000
AcDbSavedByObjectVersion
1070
     0
1000
AcDbSavedByObjectVersion
1070
     0
1000
AcDbSavedByObjectVersion
1070
     0
1000
AcDbSavedByObjectVersion
1070
     0
1000
AcDbSavedByObjectVersion
1070
     0
1000
AcDbSavedByObjectVersion
1070
     0
1000
AcDbSavedByObjectVersion
1070
     0
1000
AcDbSavedByObjectVersion
1070
     0
1000
AcDbSavedByObjectVersion
1070
     0
1000
AcDbSavedByObjectVersion
1070
     0
1000
AcDbSavedByObjectVersion
1070
     0
1000
AcDbSavedByObjectVersion
1070
     0
1000
AcDbSavedByObjectVersion
1070
     0
1000
AcDbSavedByObjectVersion
1070
     0
1000
AcDbSavedByObjectVersion
1070
     0
1000
AcDbSavedByObjectVersion
1070
     0
1000
AcDbSavedByObjectVersion
1070
     0
1000
AcDbSavedByObjectVersion
1070
     0
1000
AcDbSavedByObjectVersion
1070
     0
1000
AcDbSavedByObjectVersion
1070
     0
1000
AcDbSavedByObjectVersion
1070
     0
1000
AcDbSavedByObjectVersion
1070
     0
1000
AcDbSavedByObjectVersion
1070
     0
1000
AcDbSavedByObjectVersion
1070
     0
1000
AcDbSavedByObjectVersion
1070
     0
1000
AcDbSavedByObjectVersion
1070
     0
1000
AcDbSavedByObjectVersion
1070
     0
1000
AcDbSavedByObjectVersion
1070
     0
1000
AcDbSavedByObjectVersion
1070
     0
1000
AcDbSavedByObjectVersion
1070
     0
1000
AcDbSavedByObjectVersion
1070
     0
1000
AcDbSavedByObjectVersion
1070
     0
1000
AcDbSavedByObjectVersion
1070
     0
1000
AcDbSavedByObjectVersion
1070
     0
1000
AcDbSavedByObjectVersion
1070
     0
1000
AcDbSavedByObjectVersion
1070
     0
1000
AcDbSavedByObjectVersion
1070
     0
1000
AcDbSavedByObjectVersion
1070
     0
  0
VISUALSTYLE
  5
33
102
{ACAD_REACTORS
330
2A
102
}
330
2A
100
AcDbVisualStyle
  2
Realistic
 70
     8
 71
     2
 72
     2
 73
     0
 90
        0
 40
-0.6
 41
-30.0
 62
     5
 63
     7
 74
     1
 91
        0
 64
     7
 65
   257
 75
     1
175
     1
 42
1.0
 92
        8
 66
     8
 43
1.0
 76
     1
 77
     6
 78
     2
 67
     7
 79
     5
170
     0
171
     0
290
     0
174
     0
 93
       13
 44
0.0
173
     0
291
     0
 45
0.0
1001
ACAD
1000
AcDbSavedByObjectVersion
1070
     0
1000
AcDbSavedByObjectVersion
1070
     0
1000
AcDbSavedByObjectVersion
1070
     0
1000
AcDbSavedByObjectVersion
1070
     0
1000
AcDbSavedByObjectVersion
1070
     0
1000
AcDbSavedByObjectVersion
1070
     0
1000
AcDbSavedByObjectVersion
1070
     0
1000
AcDbSavedByObjectVersion
1070
     0
1000
AcDbSavedByObjectVersion
1070
     0
1000
AcDbSavedByObjectVersion
1070
     0
1000
AcDbSavedByObjectVersion
1070
     0
1000
AcDbSavedByObjectVersion
1070
     0
1000
AcDbSavedByObjectVersion
1070
     0
1000
AcDbSavedByObjectVersion
1070
     0
1000
AcDbSavedByObjectVersion
1070
     0
1000
AcDbSavedByObjectVersion
1070
     0
1000
AcDbSavedByObjectVersion
1070
     0
1000
AcDbSavedByObjectVersion
1070
     0
1000
AcDbSavedByObjectVersion
1070
     0
1000
AcDbSavedByObjectVersion
1070
     0
1000
AcDbSavedByObjectVersion
1070
     0
1000
AcDbSavedByObjectVersion
1070
     0
1000
AcDbSavedByObjectVersion
1070
     0
1000
AcDbSavedByObjectVersion
1070
     0
1000
AcDbSavedByObjectVersion
1070
     0
1000
AcDbSavedByObjectVersion
1070
     0
1000
AcDbSavedByObjectVersion
1070
     0
1000
AcDbSavedByObjectVersion
1070
     0
1000
AcDbSavedByObjectVersion
1070
     0
1000
AcDbSavedByObjectVersion
1070
     0
1000
AcDbSavedByObjectVersion
1070
     0
1000
AcDbSavedByObjectVersion
1070
     0
1000
AcDbSavedByObjectVersion
1070
     0
1000
AcDbSavedByObjectVersion
1070
     0
1000
AcDbSavedByObjectVersion
1070
     0
1000
AcDbSavedByObjectVersion
1070
     0
1000
AcDbSavedByObjectVersion
1070
     0
1000
AcDbSavedByObjectVersion
1070
     0
1000
AcDbSavedByObjectVersion
1070
     0
1000
AcDbSavedByObjectVersion
1070
     0
1000
AcDbSavedByObjectVersion
1070
     0
1000
AcDbSavedByObjectVersion
1070
     0
1000
AcDbSavedByObjectVersion
1070
     0
1000
AcDbSavedByObjectVersion
1070
     0
1000
AcDbSavedByObjectVersion
1070
     0
1000
AcDbSavedByObjectVersion
1070
     0
1000
AcDbSavedByObjectVersion
1070
     0
1000
AcDbSavedByObjectVersion
1070
     0
1000
AcDbSavedByObjectVersion
1070
     0
1000
AcDbSavedByObjectVersion
1070
     0
1000
AcDbSavedByObjectVersion
1070
     0
1000
AcDbSavedByObjectVersion
1070
     0
  0
VISUALSTYLE
  5
37
102
{ACAD_REACTORS
330
2A
102
}
330
2A
100
AcDbVisualStyle
  2
Thicken
 70
    13
 71
     2
 72
     2
 73
     0
 90
        0
 40
-0.6
 41
-30.0
 62
     5
 63
     7
 74
     1
 91
        4
 64
     7
 65
   257
 75
     1
175
     1
 42
1.0
 92
       12
 66
     7
 43
1.0
 76
     1
 77
     6
 78
     2
 67
     7
 79
     5
170
     0
171
     0
290
     0
174
     0
 93
        1
 44
0.0
173
     0
291
     1
 45
0.0
1001
ACAD
1000
AcDbSavedByObjectVersion
1070
     0
1000
AcDbSavedByObjectVersion
1070
     0
1000
AcDbSavedByObjectVersion
1070
     0
1000
AcDbSavedByObjectVersion
1070
     0
1000
AcDbSavedByObjectVersion
1070
     0
1000
AcDbSavedByObjectVersion
1070
     0
1000
AcDbSavedByObjectVersion
1070
     0
1000
AcDbSavedByObjectVersion
1070
     0
1000
AcDbSavedByObjectVersion
1070
     0
1000
AcDbSavedByObjectVersion
1070
     0
1000
AcDbSavedByObjectVersion
1070
     0
1000
AcDbSavedByObjectVersion
1070
     0
1000
AcDbSavedByObjectVersion
1070
     0
1000
AcDbSavedByObjectVersion
1070
     0
1000
AcDbSavedByObjectVersion
1070
     0
1000
AcDbSavedByObjectVersion
1070
     0
1000
AcDbSavedByObjectVersion
1070
     0
1000
AcDbSavedByObjectVersion
1070
     0
1000
AcDbSavedByObjectVersion
1070
     0
1000
AcDbSavedByObjectVersion
1070
     0
1000
AcDbSavedByObjectVersion
1070
     0
1000
AcDbSavedByObjectVersion
1070
     0
1000
AcDbSavedByObjectVersion
1070
     0
1000
AcDbSavedByObjectVersion
1070
     0
1000
AcDbSavedByObjectVersion
1070
     0
1000
AcDbSavedByObjectVersion
1070
     0
1000
AcDbSavedByObjectVersion
1070
     0
1000
AcDbSavedByObjectVersion
1070
     0
1000
AcDbSavedByObjectVersion
1070
     0
1000
AcDbSavedByObjectVersion
1070
     0
1000
AcDbSavedByObjectVersion
1070
     0
1000
AcDbSavedByObjectVersion
1070
     0
1000
AcDbSavedByObjectVersion
1070
     0
1000
AcDbSavedByObjectVersion
1070
     0
1000
AcDbSavedByObjectVersion
1070
     0
1000
AcDbSavedByObjectVersion
1070
     0
1000
AcDbSavedByObjectVersion
1070
     0
1000
AcDbSavedByObjectVersion
1070
     0
1000
AcDbSavedByObjectVersion
1070
     0
1000
AcDbSavedByObjectVersion
1070
     0
1000
AcDbSavedByObjectVersion
1070
     0
1000
AcDbSavedByObjectVersion
1070
     0
1000
AcDbSavedByObjectVersion
1070
     0
1000
AcDbSavedByObjectVersion
1070
     0
1000
AcDbSavedByObjectVersion
1070
     0
1000
AcDbSavedByObjectVersion
1070
     0
1000
AcDbSavedByObjectVersion
1070
     0
1000
AcDbSavedByObjectVersion
1070
     0
1000
AcDbSavedByObjectVersion
1070
     0
1000
AcDbSavedByObjectVersion
1070
     0
1000
AcDbSavedByObjectVersion
1070
     0
1000
AcDbSavedByObjectVersion
1070
     0
  0
DICTIONARYVAR
  5
510B
102
{ACAD_REACTORS
330
5108
102
}
330
5108
100
DictionaryVariables
280
     0
  1
1:1
  0
DICTIONARYVAR
  5
510A
102
{ACAD_REACTORS
330
5108
102
}
330
5108
100
DictionaryVariables
280
     0
  1
STANDARD
  0
DICTIONARYVAR
  5
5109
102
{ACAD_REACTORS
330
5108
102
}
330
5108
100
DictionaryVariables
280
     0
  1
STANDARD
  0
DICTIONARYVAR
  5
510E
102
{ACAD_REACTORS
330
5108
102
}
330
5108
100
DictionaryVariables
280
     0
  1
1
  0
DICTIONARYVAR
  5
510D
102
{ACAD_REACTORS
330
5108
102
}
330
5108
100
DictionaryVariables
280
     0
  1
0
  0
DICTIONARYVAR
  5
14B32
102
{ACAD_REACTORS
330
5108
102
}
330
5108
100
DictionaryVariables
280
     0
  1
0
  0
DICTIONARYVAR
  5
14B31
102
{ACAD_REACTORS
330
5108
102
}
330
5108
100
DictionaryVariables
280
     0
  1
0
  0
DICTIONARYVAR
  5
510C
102
{ACAD_REACTORS
330
5108
102
}
330
5108
100
DictionaryVariables
280
     0
  1
127
  0
XRECORD
  5
14144
102
{ACAD_REACTORS
330
14143
102
}
330
14143
100
AcDbXrecord
280
     1
330
13EBE
  0
DICTIONARY
  5
4FEF
330
4FEE
100
AcDbDictionary
280
     1
281
     1
  3
ACAD_XREC_ROUNDTRIP
360
7C2C
  3
BUMPTILE
360
4FF1
  3
DIFFUSETILE
360
4FF0
  3
OPACITYTILE
360
4FF4
  3
REFLECTIONTILE
360
4FF3
  3
REFRACTIONTILE
360
4FF5
  3
SPECULARTILE
360
4FF2
  0
DICTIONARY
  5
4FE7
330
4FE6
100
AcDbDictionary
280
     1
281
     1
  3
ACAD_XREC_ROUNDTRIP
360
7C2B
  3
BUMPTILE
360
4FE9
  3
DIFFUSETILE
360
4FE8
  3
OPACITYTILE
360
4FEC
  3
REFLECTIONTILE
360
4FEB
  3
REFRACTIONTILE
360
4FED
  3
SPECULARTILE
360
4FEA
  0
DICTIONARY
  5
4FF7
330
4FF6
100
AcDbDictionary
280
     1
281
     1
  3
ACAD_XREC_ROUNDTRIP
360
7C2D
  3
BUMPTILE
360
4FF9
  3
DIFFUSETILE
360
4FF8
  3
OPACITYTILE
360
4FFC
  3
REFLECTIONTILE
360
4FFB
  3
REFRACTIONTILE
360
4FFD
  3
SPECULARTILE
360
4FFA
  0
DICTIONARY
  5
50D6
330
4FFF
100
AcDbDictionary
280
     1
281
     1
  3
ACAD_ROUNDTRIP_2008_TABLESTYLE_CELLSTYLEMAP
360
14D3F
  0
XRECORD
  5
7C2C
102
{ACAD_REACTORS
330
4FEF
102
}
330
4FEF
100
AcDbXrecord
280
     1
102
MATERIAL
148
0.0
149
0.0
149
0.0
 93
        0
 94
      127
282
     0
 72
     0
 77
     0
171
     0
175
     0
179
     0
273
     0
  0
XRECORD
  5
4FF1
102
{ACAD_REACTORS
330
4FEF
102
}
330
4FEF
100
AcDbXrecord
280
     1
270
     1
271
     1
  0
XRECORD
  5
4FF0
102
{ACAD_REACTORS
330
4FEF
102
}
330
4FEF
100
AcDbXrecord
280
     1
270
     1
271
     1
  0
XRECORD
  5
4FF4
102
{ACAD_REACTORS
330
4FEF
102
}
330
4FEF
100
AcDbXrecord
280
     1
270
     1
271
     1
  0
XRECORD
  5
4FF3
102
{ACAD_REACTORS
330
4FEF
102
}
330
4FEF
100
AcDbXrecord
280
     1
270
     1
271
     1
  0
XRECORD
  5
4FF5
102
{ACAD_REACTORS
330
4FEF
102
}
330
4FEF
100
AcDbXrecord
280
     1
270
     1
271
     1
  0
XRECORD
  5
4FF2
102
{ACAD_REACTORS
330
4FEF
102
}
330
4FEF
100
AcDbXrecord
280
     1
270
     1
271
     1
  0
XRECORD
  5
7C2B
102
{ACAD_REACTORS
330
4FE7
102
}
330
4FE7
100
AcDbXrecord
280
     1
102
MATERIAL
148
0.0
149
0.0
149
0.0
 93
        0
 94
      127
282
     0
 72
     0
 77
     0
171
     0
175
     0
179
     0
273
     0
  0
XRECORD
  5
4FE9
102
{ACAD_REACTORS
330
4FE7
102
}
330
4FE7
100
AcDbXrecord
280
     1
270
     1
271
     1
  0
XRECORD
  5
4FE8
102
{ACAD_REACTORS
330
4FE7
102
}
330
4FE7
100
AcDbXrecord
280
     1
270
     1
271
     1
  0
XRECORD
  5
4FEC
102
{ACAD_REACTORS
330
4FE7
102
}
330
4FE7
100
AcDbXrecord
280
     1
270
     1
271
     1
  0
XRECORD
  5
4FEB
102
{ACAD_REACTORS
330
4FE7
102
}
330
4FE7
100
AcDbXrecord
280
     1
270
     1
271
     1
  0
XRECORD
  5
4FED
102
{ACAD_REACTORS
330
4FE7
102
}
330
4FE7
100
AcDbXrecord
280
     1
270
     1
271
     1
  0
XRECORD
  5
4FEA
102
{ACAD_REACTORS
330
4FE7
102
}
330
4FE7
100
AcDbXrecord
280
     1
270
     1
271
     1
  0
XRECORD
  5
7C2D
102
{ACAD_REACTORS
330
4FF7
102
}
330
4FF7
100
AcDbXrecord
280
     1
102
MATERIAL
148
0.0
149
0.0
149
0.0
 93
        0
 94
      127
282
     0
 72
     0
 77
     0
171
     0
175
     0
179
     0
273
     0
  0
XRECORD
  5
4FF9
102
{ACAD_REACTORS
330
4FF7
102
}
330
4FF7
100
AcDbXrecord
280
     1
270
     1
271
     1
  0
XRECORD
  5
4FF8
102
{ACAD_REACTORS
330
4FF7
102
}
330
4FF7
100
AcDbXrecord
280
     1
270
     1
271
     1
  0
XRECORD
  5
4FFC
102
{ACAD_REACTORS
330
4FF7
102
}
330
4FF7
100
AcDbXrecord
280
     1
270
     1
271
     1
  0
XRECORD
  5
4FFB
102
{ACAD_REACTORS
330
4FF7
102
}
330
4FF7
100
AcDbXrecord
280
     1
270
     1
271
     1
  0
XRECORD
  5
4FFD
102
{ACAD_REACTORS
330
4FF7
102
}
330
4FF7
100
AcDbXrecord
280
     1
270
     1
271
     1
  0
XRECORD
  5
4FFA
102
{ACAD_REACTORS
330
4FF7
102
}
330
4FF7
100
AcDbXrecord
280
     1
270
     1
271
     1
  0
CELLSTYLEMAP
  5
14D3F
102
{ACAD_REACTORS
330
50D6
102
}
330
50D6
100
AcDbCellStyleMap
 90
        3
300
CELLSTYLE
  1
TABLEFORMAT_BEGIN
 90
        5
170
     1
 91
        0
 92
    32768
 62
   257
 93
        1
300
CONTENTFORMAT
  1
CONTENTFORMAT_BEGIN
 90
        0
 91
        0
 92
      512
 93
        0
300

 40
0.0
140
1.0
 94
        5
 62
     0
340
11
144
0.25
309
CONTENTFORMAT_END
171
     1
301
MARGIN
  1
CELLMARGIN_BEGIN
 40
0.06
 40
0.06
 40
0.06
 40
0.06
 40
0.18
 40
0.18
309
CELLMARGIN_END
 94
        6
 95
        1
302
GRIDFORMAT
  1
GRIDFORMAT_BEGIN
 90
        0
 91
        1
 62
     0
 92
       -2
340
0
 93
        0
 40
0.045
309
GRIDFORMAT_END
 95
        2
302
GRIDFORMAT
  1
GRIDFORMAT_BEGIN
 90
        0
 91
        1
 62
     0
 92
       -2
340
0
 93
        0
 40
0.045
309
GRIDFORMAT_END
 95
        4
302
GRIDFORMAT
  1
GRIDFORMAT_BEGIN
 90
        0
 91
        1
 62
     0
 92
       -2
340
0
 93
        0
 40
0.045
309
GRIDFORMAT_END
 95
        8
302
GRIDFORMAT
  1
GRIDFORMAT_BEGIN
 90
        0
 91
        1
 62
     0
 92
       -2
340
0
 93
        0
 40
0.045
309
GRIDFORMAT_END
 95
       16
302
GRIDFORMAT
  1
GRIDFORMAT_BEGIN
 90
        0
 91
        1
 62
     0
 92
       -2
340
0
 93
        0
 40
0.045
309
GRIDFORMAT_END
 95
       32
302
GRIDFORMAT
  1
GRIDFORMAT_BEGIN
 90
        0
 91
        1
 62
     0
 92
       -2
340
0
 93
        0
 40
0.045
309
GRIDFORMAT_END
309
TABLEFORMAT_END
  1
CELLSTYLE_BEGIN
 90
        1
 91
        1
300
_TITLE
309
CELLSTYLE_END
300
CELLSTYLE
  1
TABLEFORMAT_BEGIN
 90
        5
170
     1
 91
        0
 92
        0
 62
   257
 93
        1
300
CONTENTFORMAT
  1
CONTENTFORMAT_BEGIN
 90
        0
 91
        0
 92
      512
 93
        0
300

 40
0.0
140
1.0
 94
        5
 62
     0
340
11
144
0.18
309
CONTENTFORMAT_END
171
     1
301
MARGIN
  1
CELLMARGIN_BEGIN
 40
0.06
 40
0.06
 40
0.06
 40
0.06
 40
0.18
 40
0.18
309
CELLMARGIN_END
 94
        6
 95
        1
302
GRIDFORMAT
  1
GRIDFORMAT_BEGIN
 90
        0
 91
        1
 62
     0
 92
       -2
340
0
 93
        0
 40
0.045
309
GRIDFORMAT_END
 95
        2
302
GRIDFORMAT
  1
GRIDFORMAT_BEGIN
 90
        0
 91
        1
 62
     0
 92
       -2
340
0
 93
        0
 40
0.045
309
GRIDFORMAT_END
 95
        4
302
GRIDFORMAT
  1
GRIDFORMAT_BEGIN
 90
        0
 91
        1
 62
     0
 92
       -2
340
0
 93
        0
 40
0.045
309
GRIDFORMAT_END
 95
        8
302
GRIDFORMAT
  1
GRIDFORMAT_BEGIN
 90
        0
 91
        1
 62
     0
 92
       -2
340
0
 93
        0
 40
0.045
309
GRIDFORMAT_END
 95
       16
302
GRIDFORMAT
  1
GRIDFORMAT_BEGIN
 90
        0
 91
        1
 62
     0
 92
       -2
340
0
 93
        0
 40
0.045
309
GRIDFORMAT_END
 95
       32
302
GRIDFORMAT
  1
GRIDFORMAT_BEGIN
 90
        0
 91
        1
 62
     0
 92
       -2
340
0
 93
        0
 40
0.045
309
GRIDFORMAT_END
309
TABLEFORMAT_END
  1
CELLSTYLE_BEGIN
 90
        2
 91
        1
300
_HEADER
309
CELLSTYLE_END
300
CELLSTYLE
  1
TABLEFORMAT_BEGIN
 90
        5
170
     1
 91
        0
 92
        0
 62
   257
 93
        1
300
CONTENTFORMAT
  1
CONTENTFORMAT_BEGIN
 90
        0
 91
        0
 92
      512
 93
        0
300

 40
0.0
140
1.0
 94
        2
 62
     0
340
11
144
0.18
309
CONTENTFORMAT_END
171
     1
301
MARGIN
  1
CELLMARGIN_BEGIN
 40
0.06
 40
0.06
 40
0.06
 40
0.06
 40
0.18
 40
0.18
309
CELLMARGIN_END
 94
        6
 95
        1
302
GRIDFORMAT
  1
GRIDFORMAT_BEGIN
 90
        0
 91
        1
 62
     0
 92
       -2
340
0
 93
        0
 40
0.045
309
GRIDFORMAT_END
 95
        2
302
GRIDFORMAT
  1
GRIDFORMAT_BEGIN
 90
        0
 91
        1
 62
     0
 92
       -2
340
0
 93
        0
 40
0.045
309
GRIDFORMAT_END
 95
        4
302
GRIDFORMAT
  1
GRIDFORMAT_BEGIN
 90
        0
 91
        1
 62
     0
 92
       -2
340
0
 93
        0
 40
0.045
309
GRIDFORMAT_END
 95
        8
302
GRIDFORMAT
  1
GRIDFORMAT_BEGIN
 90
        0
 91
        1
 62
     0
 92
       -2
340
0
 93
        0
 40
0.045
309
GRIDFORMAT_END
 95
       16
302
GRIDFORMAT
  1
GRIDFORMAT_BEGIN
 90
        0
 91
        1
 62
     0
 92
       -2
340
0
 93
        0
 40
0.045
309
GRIDFORMAT_END
 95
       32
302
GRIDFORMAT
  1
GRIDFORMAT_BEGIN
 90
        0
 91
        1
 62
     0
 92
       -2
340
0
 93
        0
 40
0.045
309
GRIDFORMAT_END
309
TABLEFORMAT_END
  1
CELLSTYLE_BEGIN
 90
        3
 91
        2
300
_DATA
309
CELLSTYLE_END
  0
ENDSEC
  0
EOF
