  0
SECTION
  2
HEADER
  9
$ACADVER
  1
AC1021
  9
$ACADMAINTVER
 70
    25
  9
$DWGCODEPAGE
  3
ANSI_936
  9
$LASTSAVEDBY
  1
zb.ye
  9
$INSBASE
 10
0.0
 20
0.0
 30
0.0
  9
$EXTMIN
 10
524.0847335903153
 20
184.162883099274
 30
-0.0000000349181948
  9
$EXTMAX
 10
672.6009924708192
 20
289.2151725156573
 30
0.0000000814935746
  9
$LIMMIN
 10
0.0
 20
0.0
  9
$LIMMAX
 10
12.0
 20
9.0
  9
$ORTHOMODE
 70
     1
  9
$REGENMODE
 70
     1
  9
$FILLMODE
 70
     1
  9
$QTEXTMODE
 70
     0
  9
$MIRRTEXT
 70
     1
  9
$LTSCALE
 40
1.0
  9
$ATTMODE
 70
     1
  9
$TEXTSIZE
 40
0.2
  9
$TRACEWID
 40
0.05
  9
$TEXTSTYLE
  7
Standard
  9
$CLAYER
  8
0
  9
$CELTYPE
  6
ByLayer
  9
$CECOLOR
 62
   256
  9
$CELTSCALE
 40
1.0
  9
$DISPSILH
 70
     0
  9
$DIMSCALE
 40
1.0
  9
$DIMASZ
 40
1.5
  9
$DIMEXO
 40
0.2
  9
$DIMDLI
 40
0.2
  9
$DIMRND
 40
0.0
  9
$DIMDLE
 40
0.0
  9
$DIMEXE
 40
0.5
  9
$DIMTP
 40
0.0
  9
$DIMTM
 40
0.0
  9
$DIMTXT
 40
2.0
  9
$DIMCEN
 40
0.0
  9
$DIMTSZ
 40
0.0
  9
$DIMTOL
 70
     0
  9
$DIMLIM
 70
     0
  9
$DIMTIH
 70
     0
  9
$DIMTOH
 70
     0
  9
$DIMSE1
 70
     0
  9
$DIMSE2
 70
     0
  9
$DIMTAD
 70
     1
  9
$DIMZIN
 70
     8
  9
$DIMBLK
  1

  9
$DIMASO
 70
     1
  9
$DIMSHO
 70
     1
  9
$DIMPOST
  1

  9
$DIMAPOST
  1

  9
$DIMALT
 70
     0
  9
$DIMALTD
 70
     2
  9
$DIMALTF
 40
25.4
  9
$DIMLFAC
 40
1.0
  9
$DIMTOFL
 70
     0
  9
$DIMTVP
 40
0.0
  9
$DIMTIX
 70
     0
  9
$DIMSOXD
 70
     0
  9
$DIMSAH
 70
     0
  9
$DIMBLK1
  1

  9
$DIMBLK2
  1

  9
$DIMSTYLE
  2
01
  9
$DIMCLRD
 70
     1
  9
$DIMCLRE
 70
     6
  9
$DIMCLRT
 70
     4
  9
$DIMTFAC
 40
1.0
  9
$DIMGAP
 40
0.5
  9
$DIMJUST
 70
     0
  9
$DIMSD1
 70
     0
  9
$DIMSD2
 70
     0
  9
$DIMTOLJ
 70
     1
  9
$DIMTZIN
 70
     0
  9
$DIMALTZ
 70
     0
  9
$DIMALTTZ
 70
     0
  9
$DIMUPT
 70
     0
  9
$DIMDEC
 70
     1
  9
$DIMTDEC
 70
     1
  9
$DIMALTU
 70
     2
  9
$DIMALTTD
 70
     2
  9
$DIMTXSTY
  7
Romans字体
  9
$DIMAUNIT
 70
     0
  9
$DIMADEC
 70
     2
  9
$DIMALTRND
 40
0.0
  9
$DIMAZIN
 70
     2
  9
$DIMDSEP
 70
    46
  9
$DIMATFIT
 70
     3
  9
$DIMFRAC
 70
     0
  9
$DIMLDRBLK
  1

  9
$DIMLUNIT
 70
     2
  9
$DIMLWD
 70
    -2
  9
$DIMLWE
 70
    -2
  9
$DIMTMOVE
 70
     0
  9
$DIMFXL
 40
1.0
  9
$DIMFXLON
 70
     0
  9
$DIMJOGANG
 40
0.7853981633974483
  9
$DIMTFILL
 70
     0
  9
$DIMTFILLCLR
 70
     0
  9
$DIMARCSYM
 70
     0
  9
$DIMLTYPE
  6

  9
$DIMLTEX1
  6

  9
$DIMLTEX2
  6

  9
$LUNITS
 70
     2
  9
$LUPREC
 70
     4
  9
$SKETCHINC
 40
0.1
  9
$FILLETRAD
 40
0.5
  9
$AUNITS
 70
     0
  9
$AUPREC
 70
     0
  9
$MENU
  1
.
  9
$ELEVATION
 40
0.0
  9
$PELEVATION
 40
0.0
  9
$THICKNESS
 40
0.0
  9
$LIMCHECK
 70
     0
  9
$CHAMFERA
 40
0.5
  9
$CHAMFERB
 40
0.5
  9
$CHAMFERC
 40
1.0
  9
$CHAMFERD
 40
0.0
  9
$SKPOLY
 70
     0
  9
$TDCREATE
 40
2456524.383632987
  9
$TDUCREATE
 40
2456524.050299653
  9
$TDUPDATE
 40
2460294.581305706
  9
$TDUUPDATE
 40
2460294.247972373
  9
$TDINDWG
 40
1.0824969213
  9
$TDUSRTIMER
 40
1.0824776505
  9
$USRTIMER
 70
     1
  9
$ANGBASE
 50
0.0
  9
$ANGDIR
 70
     0
  9
$PDMODE
 70
     0
  9
$PDSIZE
 40
0.0
  9
$PLINEWID
 40
0.0
  9
$SPLFRAME
 70
     0
  9
$SPLINETYPE
 70
     6
  9
$SPLINESEGS
 70
     8
  9
$HANDSEED
  5
1408A
  9
$SURFTAB1
 70
     6
  9
$SURFTAB2
 70
     6
  9
$SURFTYPE
 70
     6
  9
$SURFU
 70
     6
  9
$SURFV
 70
     6
  9
$UCSBASE
  2

  9
$UCSNAME
  2

  9
$UCSORG
 10
0.0
 20
0.0
 30
0.0
  9
$UCSXDIR
 10
1.0
 20
0.0
 30
0.0
  9
$UCSYDIR
 10
0.0
 20
1.0
 30
0.0
  9
$UCSORTHOREF
  2

  9
$UCSORTHOVIEW
 70
     0
  9
$UCSORGTOP
 10
0.0
 20
0.0
 30
0.0
  9
$UCSORGBOTTOM
 10
0.0
 20
0.0
 30
0.0
  9
$UCSORGLEFT
 10
0.0
 20
0.0
 30
0.0
  9
$UCSORGRIGHT
 10
0.0
 20
0.0
 30
0.0
  9
$UCSORGFRONT
 10
0.0
 20
0.0
 30
0.0
  9
$UCSORGBACK
 10
0.0
 20
0.0
 30
0.0
  9
$PUCSBASE
  2

  9
$PUCSNAME
  2

  9
$PUCSORG
 10
0.0
 20
0.0
 30
0.0
  9
$PUCSXDIR
 10
1.0
 20
0.0
 30
0.0
  9
$PUCSYDIR
 10
0.0
 20
1.0
 30
0.0
  9
$PUCSORTHOREF
  2

  9
$PUCSORTHOVIEW
 70
     0
  9
$PUCSORGTOP
 10
0.0
 20
0.0
 30
0.0
  9
$PUCSORGBOTTOM
 10
0.0
 20
0.0
 30
0.0
  9
$PUCSORGLEFT
 10
0.0
 20
0.0
 30
0.0
  9
$PUCSORGRIGHT
 10
0.0
 20
0.0
 30
0.0
  9
$PUCSORGFRONT
 10
0.0
 20
0.0
 30
0.0
  9
$PUCSORGBACK
 10
0.0
 20
0.0
 30
0.0
  9
$USERI1
 70
     0
  9
$USERI2
 70
     0
  9
$USERI3
 70
     0
  9
$USERI4
 70
     0
  9
$USERI5
 70
     0
  9
$USERR1
 40
0.0
  9
$USERR2
 40
0.0
  9
$USERR3
 40
0.0
  9
$USERR4
 40
0.0
  9
$USERR5
 40
0.0
  9
$WORLDVIEW
 70
     1
  9
$SHADEDGE
 70
     3
  9
$SHADEDIF
 70
    70
  9
$TILEMODE
 70
     1
  9
$MAXACTVP
 70
    64
  9
$PINSBASE
 10
0.0
 20
0.0
 30
0.0
  9
$PLIMCHECK
 70
     0
  9
$PEXTMIN
 10
1.000000000000000E+20
 20
1.000000000000000E+20
 30
1.000000000000000E+20
  9
$PEXTMAX
 10
-1.000000000000000E+20
 20
-1.000000000000000E+20
 30
-1.000000000000000E+20
  9
$PLIMMIN
 10
0.0
 20
0.0
  9
$PLIMMAX
 10
12.0
 20
9.0
  9
$UNITMODE
 70
     0
  9
$VISRETAIN
 70
     1
  9
$PLINEGEN
 70
     0
  9
$PSLTSCALE
 70
     1
  9
$TREEDEPTH
 70
  3020
  9
$CMLSTYLE
  2
Standard
  9
$CMLJUST
 70
     0
  9
$CMLSCALE
 40
1.0
  9
$PROXYGRAPHICS
 70
     1
  9
$MEASUREMENT
 70
     0
  9
$CELWEIGHT
370
    -1
  9
$ENDCAPS
280
     0
  9
$JOINSTYLE
280
     0
  9
$LWDISPLAY
290
     0
  9
$INSUNITS
 70
     4
  9
$HYPERLINKBASE
  1

  9
$STYLESHEET
  1
MONOCHROME.CTB
  9
$XEDIT
290
     1
  9
$CEPSNTYPE
380
     0
  9
$PSTYLEMODE
290
     1
  9
$FINGERPRINTGUID
  2
{4A02065B-8BB3-4A96-9036-502DC906C165}
  9
$VERSIONGUID
  2
{5D2A4B0E-2F84-420D-9166-A4789B5D5B36}
  9
$EXTNAMES
290
     1
  9
$PSVPSCALE
 40
0.0
  9
$OLESTARTUP
290
     0
  9
$SORTENTS
280
   127
  9
$INDEXCTL
280
     0
  9
$HIDETEXT
280
     0
  9
$XCLIPFRAME
290
     0
  9
$HALOGAP
280
     0
  9
$OBSCOLOR
 70
   257
  9
$OBSLTYPE
280
     0
  9
$INTERSECTIONDISPLAY
280
     0
  9
$INTERSECTIONCOLOR
 70
   257
  9
$DIMASSOC
280
     1
  9
$PROJECTNAME
  1

  9
$CAMERADISPLAY
290
     0
  9
$LENSLENGTH
 40
50.0
  9
$CAMERAHEIGHT
 40
0.0
  9
$STEPSPERSEC
 40
2.0
  9
$STEPSIZE
 40
6.0
  9
$3DDWFPREC
 40
2.0
  9
$PSOLWIDTH
 40
0.25
  9
$PSOLHEIGHT
 40
4.0
  9
$LOFTANG1
 40
1.570796326794896
  9
$LOFTANG2
 40
1.570796326794896
  9
$LOFTMAG1
 40
0.0
  9
$LOFTMAG2
 40
0.0
  9
$LOFTPARAM
 70
     7
  9
$LOFTNORMALS
280
     1
  9
$LATITUDE
 40
37.795
  9
$LONGITUDE
 40
-122.394
  9
$NORTHDIRECTION
 40
0.0
  9
$TIMEZONE
 70
 -8000
  9
$LIGHTGLYPHDISPLAY
280
     1
  9
$TILEMODELIGHTSYNCH
280
     1
  9
$CMATERIAL
347
4FE6
  9
$SOLIDHIST
280
     1
  9
$SHOWHIST
280
     1
  9
$DWFFRAME
280
     2
  9
$DGNFRAME
280
     0
  9
$REALWORLDSCALE
290
     1
  9
$INTERFERECOLOR
 62
     1
  9
$INTERFEREOBJVS
345
33
  9
$INTERFEREVPVS
346
30
  9
$CSHADOW
280
     0
  9
$SHADOWPLANELOCATION
 40
0.0
  0
ENDSEC
  0
SECTION
  2
CLASSES
  0
CLASS
  1
ACDBDICTIONARYWDFLT
  2
AcDbDictionaryWithDefault
  3
ObjectDBX Classes
 90
        0
 91
        1
280
     0
281
     0
  0
CLASS
  1
VISUALSTYLE
  2
AcDbVisualStyle
  3
ObjectDBX Classes
 90
     4095
 91
       16
280
     0
281
     0
  0
CLASS
  1
MATERIAL
  2
AcDbMaterial
  3
ObjectDBX Classes
 90
     1153
 91
        3
280
     0
281
     0
  0
CLASS
  1
TABLESTYLE
  2
AcDbTableStyle
  3
ObjectDBX Classes
 90
     4095
 91
        1
280
     0
281
     0
  0
CLASS
  1
SCALE
  2
AcDbScale
  3
ObjectDBX Classes
 90
     1153
 91
       33
280
     0
281
     0
  0
CLASS
  1
MLEADERSTYLE
  2
AcDbMLeaderStyle
  3
ACDB_MLEADERSTYLE_CLASS
 90
     4095
 91
        1
280
     0
281
     0
  0
CLASS
  1
CELLSTYLEMAP
  2
AcDbCellStyleMap
  3
ObjectDBX Classes
 90
     1152
 91
        2
280
     0
281
     0
  0
CLASS
  1
DICTIONARYVAR
  2
AcDbDictionaryVar
  3
ObjectDBX Classes
 90
        0
 91
        8
280
     0
281
     0
  0
CLASS
  1
SORTENTSTABLE
  2
AcDbSortentsTable
  3
ObjectDBX Classes
 90
        0
 91
        1
280
     0
281
     0
  0
CLASS
  1
ACAD_EVALUATION_GRAPH
  2
AcDbEvalGraph
  3
ObjectDBX Classes
 90
     1153
 91
        1
280
     0
281
     0
  0
CLASS
  1
ACAECUSTOBJ
  2
AcAeEditorObj
  3
AcAeEditorObj
 90
     1024
 91
        1
280
     0
281
     0
  0
CLASS
  1
ACDB_DYNAMICBLOCKPURGEPREVENTER_VERSION
  2
AcDbDynamicBlockPurgePreventer
  3
ObjectDBX Classes
 90
     1153
 91
        1
280
     0
281
     0
  0
CLASS
  1
MENTALRAYRENDERSETTINGS
  2
AcDbMentalRayRenderSettings
  3
SCENEOE
 90
     1024
 91
        1
280
     0
281
     0
  0
CLASS
  1
ACDB_BLOCKREPRESENTATION_DATA
  2
AcDbBlockRepresentationData
  3
ObjectDBX Classes
 90
     1153
 91
        0
280
     0
281
     0
  0
CLASS
  1
DIMASSOC
  2
AcDbDimAssoc
  3
"AcDbDimAssoc|Product Desc:     AcDim ARX App For Dimension|Company:          Autodesk, Inc.|WEB Address:      www.autodesk.com"
 90
        0
 91
        4
280
     0
281
     0
  0
ENDSEC
  0
SECTION
  2
TABLES
  0
TABLE
  2
VPORT
  5
8
102
{ACAD_XDICTIONARY
360
50EE
102
}
330
0
100
AcDbSymbolTable
 70
     1
  0
VPORT
  5
29
330
8
100
AcDbSymbolTableRecord
100
AcDbViewportTableRecord
  2
*Active
 70
     0
 10
0.0
 20
0.0
 11
1.0
 21
1.0
 12
493.3773661586587
 22
88.18679703886784
 13
0.0
 23
0.0
 14
0.5
 24
0.5
 15
0.5
 25
0.5
 16
0.0
 26
0.0
 36
1.0
 17
104.9654968719086
 27
148.5022307685978
 37
0.0
 40
106.1170085658736
 41
2.426395939086294
 42
50.0
 43
0.0
 44
0.0
 50
0.0
 51
0.0
 71
     0
 72
   100
 73
     1
 74
     3
 75
     0
 76
     0
 77
     0
 78
     0
281
     0
 65
     1
110
0.0
120
0.0
130
0.0
111
1.0
121
0.0
131
0.0
112
0.0
122
1.0
132
0.0
 79
     0
146
0.0
348
2F
 60
     3
 61
     5
292
     1
282
     1
141
0.0
142
0.0
 63
   250
421
  3355443
  0
ENDTAB
  0
TABLE
  2
LTYPE
  5
5
330
0
100
AcDbSymbolTable
 70
     2
  0
LTYPE
  5
14
330
5
100
AcDbSymbolTableRecord
100
AcDbLinetypeTableRecord
  2
ByBlock
 70
     0
  3

 72
    65
 73
     0
 40
0.0
  0
LTYPE
  5
15
330
5
100
AcDbSymbolTableRecord
100
AcDbLinetypeTableRecord
  2
ByLayer
 70
     0
  3

 72
    65
 73
     0
 40
0.0
  0
LTYPE
  5
16
330
5
100
AcDbSymbolTableRecord
100
AcDbLinetypeTableRecord
  2
Continuous
 70
     0
  3
Solid line
 72
    65
 73
     0
 40
0.0
  0
LTYPE
  5
67BA
330
5
100
AcDbSymbolTableRecord
100
AcDbLinetypeTableRecord
  2
CENTER
 70
     0
  3
Center ____ _ ____ _ ____ _ ____ _ ____ _ ____
 72
    65
 73
     4
 40
2.0
 49
1.25
 74
     0
 49
-0.25
 74
     0
 49
0.25
 74
     0
 49
-0.25
 74
     0
  0
ENDTAB
  0
TABLE
  2
LAYER
  5
2
102
{ACAD_XDICTIONARY
360
50B8
102
}
330
0
100
AcDbSymbolTable
 70
     9
  0
LAYER
  5
10
102
{ACAD_XDICTIONARY
360
50D0
102
}
330
2
100
AcDbSymbolTableRecord
100
AcDbLayerTableRecord
  2
0
 70
     0
 62
     7
  6
Continuous
370
    25
390
F
347
4FF6
  0
LAYER
  5
3B
102
{ACAD_XDICTIONARY
360
50D2
102
}
330
2
100
AcDbSymbolTableRecord
100
AcDbLayerTableRecord
  2
图层 1
 70
     0
 62
     7
  6
Continuous
370
    -3
390
F
347
4FF6
  0
LAYER
  5
50AE
102
{ACAD_XDICTIONARY
360
50AF
102
}
330
2
100
AcDbSymbolTableRecord
100
AcDbLayerTableRecord
  2
图框
 70
     0
 62
     7
  6
Continuous
370
    20
390
F
347
4FF6
  0
LAYER
  5
5141
330
2
100
AcDbSymbolTableRecord
100
AcDbLayerTableRecord
  2
Defpoints
 70
     0
 62
     7
  6
Continuous
290
     0
370
    -3
390
F
347
4FF6
  0
LAYER
  5
5144
330
2
100
AcDbSymbolTableRecord
100
AcDbLayerTableRecord
  2
DIM
 70
     0
 62
     3
  6
Continuous
370
    15
390
F
347
4FF6
1001
AcAecLayerStandard
1000

1000

  0
LAYER
  5
52F3
330
2
100
AcDbSymbolTableRecord
100
AcDbLayerTableRecord
  2
打标文字
 70
     0
 62
     3
  6
Continuous
370
    20
390
F
347
4FF6
  0
LAYER
  5
67B7
330
2
100
AcDbSymbolTableRecord
100
AcDbLayerTableRecord
  2
CEN
 70
     0
 62
     1
  6
CENTER
370
    15
390
F
347
4FF6
1001
AcAecLayerStandard
1000

1000

  0
LAYER
  5
11B6B
330
2
100
AcDbSymbolTableRecord
100
AcDbLayerTableRecord
  2
hat
 70
     0
 62
     6
  6
Continuous
370
    15
390
F
347
4FF6
1001
AcAecLayerStandard
1000

1000

  0
LAYER
  5
11B6D
330
2
100
AcDbSymbolTableRecord
100
AcDbLayerTableRecord
  2
文本
 70
     0
 62
     4
  6
Continuous
370
    25
390
11B6F
347
4FF6
  0
ENDTAB
  0
TABLE
  2
STYLE
  5
3
330
0
100
AcDbSymbolTable
 70
     4
  0
STYLE
  5
11
330
3
100
AcDbSymbolTableRecord
100
AcDbTextStyleTableRecord
  2
Standard
 70
     0
 40
0.0
 41
0.75
 50
0.0
 71
     0
 42
0.2
  3
SIMFANG.TTF
  4

1001
ACAD
1000
FangSong_GB2312
1071
    34353
  0
STYLE
  5
FD48
330
3
100
AcDbSymbolTableRecord
100
AcDbTextStyleTableRecord
  2
Romans字体
 70
     0
 40
0.0
 41
0.75
 50
0.0
 71
     0
 42
0.2
  3
romans.shx
  4

  0
STYLE
  5
11080
330
3
100
AcDbSymbolTableRecord
100
AcDbTextStyleTableRecord
  2
工程字
 70
     0
 40
0.0
 41
1.0
 50
0.0
 71
     0
 42
3.5
  3
gbenor.shx
  4
gbcbig.shx
  0
STYLE
  5
11081
330
3
100
AcDbSymbolTableRecord
100
AcDbTextStyleTableRecord
  2
Chinese
 70
     0
 40
0.0
 41
1.0
 50
0.0
 71
     0
 42
2.5
  3
PMingLiU.ttf
  4

1001
ACAD
1000
PMingLiU
1071
    34834
  0
ENDTAB
  0
TABLE
  2
VIEW
  5
6
330
0
100
AcDbSymbolTable
 70
     0
  0
ENDTAB
  0
TABLE
  2
UCS
  5
7
330
0
100
AcDbSymbolTable
 70
     0
  0
ENDTAB
  0
TABLE
  2
APPID
  5
9
330
0
100
AcDbSymbolTable
 70
    17
  0
APPID
  5
12
330
9
100
AcDbSymbolTableRecord
100
AcDbRegAppTableRecord
  2
ACAD
 70
     0
  0
APPID
  5
5024
330
9
100
AcDbSymbolTableRecord
100
AcDbRegAppTableRecord
  2
ACAD_MLEADERVER
 70
     0
  0
APPID
  5
50B5
330
9
100
AcDbSymbolTableRecord
100
AcDbRegAppTableRecord
  2
AcDbDynamicBlockGUID
 70
     0
  0
APPID
  5
50B6
330
9
100
AcDbSymbolTableRecord
100
AcDbRegAppTableRecord
  2
AcDbBlockRepETag
 70
     0
  0
APPID
  5
50B7
330
9
100
AcDbSymbolTableRecord
100
AcDbRegAppTableRecord
  2
ACAD_PSEXT
 70
     0
  0
APPID
  5
50CF
330
9
100
AcDbSymbolTableRecord
100
AcDbRegAppTableRecord
  2
AcadAnnoPO
 70
     0
  0
APPID
  5
5146
330
9
100
AcDbSymbolTableRecord
100
AcDbRegAppTableRecord
  2
AcAecLayerStandard
 70
     0
  0
APPID
  5
5147
330
9
100
AcDbSymbolTableRecord
100
AcDbRegAppTableRecord
  2
ACAD_DSTYLE_DIMJAG
 70
     0
  0
APPID
  5
5148
330
9
100
AcDbSymbolTableRecord
100
AcDbRegAppTableRecord
  2
ACAD_DSTYLE_DIMTALN
 70
     0
  0
APPID
  5
52AD
330
9
100
AcDbSymbolTableRecord
100
AcDbRegAppTableRecord
  2
ACAUTHENVIRON
 70
     0
  0
APPID
  5
52B0
330
9
100
AcDbSymbolTableRecord
100
AcDbRegAppTableRecord
  2
AcDbDynamicBlockTrueName
 70
     0
  0
APPID
  5
67C6
330
9
100
AcDbSymbolTableRecord
100
AcDbRegAppTableRecord
  2
ACAD_EXEMPT_FROM_CAD_STANDARDS
 70
     0
  0
APPID
  5
6838
330
9
100
AcDbSymbolTableRecord
100
AcDbRegAppTableRecord
  2
ACAD_NAV_VCDISPLAY
 70
     0
  0
APPID
  5
70A9
330
9
100
AcDbSymbolTableRecord
100
AcDbRegAppTableRecord
  2
DCO15
 70
     0
  0
APPID
  5
8725
330
9
100
AcDbSymbolTableRecord
100
AcDbRegAppTableRecord
  2
AcDbBlockRepBTag
 70
     0
  0
APPID
  5
FE64
330
9
100
AcDbSymbolTableRecord
100
AcDbRegAppTableRecord
  2
ACAD_DSTYLE_DIMRADIAL_EXTENSION
 70
     0
  0
APPID
  5
FF93
330
9
100
AcDbSymbolTableRecord
100
AcDbRegAppTableRecord
  2
ACAD_DSTYLE_DIMBREAK
 70
     0
  0
ENDTAB
  0
TABLE
  2
DIMSTYLE
  5
A
330
0
100
AcDbSymbolTable
 70
     2
100
AcDbDimStyleTable
 71
     2
340
5145
340
27
  0
DIMSTYLE
105
27
330
A
100
AcDbSymbolTableRecord
100
AcDbDimStyleTableRecord
  2
Standard
 70
     0
340
11
  0
DIMSTYLE
105
5145
102
{ACAD_REACTORS
330
13388
330
13244
330
1324A
330
13255
330
1320A
330
13234
102
}
330
A
100
AcDbSymbolTableRecord
100
AcDbDimStyleTableRecord
  2
01
 70
     0
 41
1.5
 42
0.2
 43
0.2
 44
0.5
 73
     0
 74
     0
 77
     1
 78
     8
 79
     2
140
2.0
141
0.0
147
0.5
176
     1
177
     6
178
     4
179
     2
271
     1
272
     1
340
FD48
1001
ACAD_DSTYLE_DIMJAG
1070
   388
1040
1.5
1001
ACAD_DSTYLE_DIMTALN
1070
   392
1070
     0
  0
ENDTAB
  0
TABLE
  2
BLOCK_RECORD
  5
1
330
0
100
AcDbSymbolTable
 70
     9
  0
BLOCK_RECORD
  5
1F
102
{ACAD_XDICTIONARY
360
67C0
102
}
330
1
100
AcDbSymbolTableRecord
100
AcDbBlockTableRecord
  2
*Model_Space
340
22
 70
     0
280
     1
281
     0
  0
BLOCK_RECORD
  5
1B
330
1
100
AcDbSymbolTableRecord
100
AcDbBlockTableRecord
  2
*Paper_Space
340
1E
 70
     0
280
     1
281
     0
  0
BLOCK_RECORD
  5
23
330
1
100
AcDbSymbolTableRecord
100
AcDbBlockTableRecord
  2
*Paper_Space0
340
26
 70
     0
280
     1
281
     0
  0
BLOCK_RECORD
  5
10FE8
102
{ACAD_XDICTIONARY
360
14069
102
}
330
1
100
AcDbSymbolTableRecord
100
AcDbBlockTableRecord
  2
A4图框-NEW
340
0
310
2800000020000000200000000100080000000000000400000000000000000000000000000000000000000000000080000080000000808000800000008000800080800000C0C0C000C0DCC000F0CAA6000020400000206000002080000020A0000020C0000020E00000400000004020000040400000406000004080000040A0
310
000040C0000040E00000600000006020000060400000606000006080000060A0000060C0000060E00000800000008020000080400000806000008080000080A0000080C0000080E00000A0000000A0200000A0400000A0600000A0800000A0A00000A0C00000A0E00000C0000000C0200000C0400000C0600000C0800000C0
310
A00000C0C00000C0E00000E0000000E0200000E0400000E0600000E0800000E0A00000E0C00000E0E00040000000400020004000400040006000400080004000A0004000C0004000E00040200000402020004020400040206000402080004020A0004020C0004020E000404000004040200040404000404060004040800040
310
40A0004040C0004040E00040600000406020004060400040606000406080004060A0004060C0004060E00040800000408020004080400040806000408080004080A0004080C0004080E00040A0000040A0200040A0400040A0600040A0800040A0A00040A0C00040A0E00040C0000040C0200040C0400040C0600040C08000
310
40C0A00040C0C00040C0E00040E0000040E0200040E0400040E0600040E0800040E0A00040E0C00040E0E00080000000800020008000400080006000800080008000A0008000C0008000E00080200000802020008020400080206000802080008020A0008020C0008020E00080400000804020008040400080406000804080
310
008040A0008040C0008040E00080600000806020008060400080606000806080008060A0008060C0008060E00080800000808020008080400080806000808080008080A0008080C0008080E00080A0000080A0200080A0400080A0600080A0800080A0A00080A0C00080A0E00080C0000080C0200080C0400080C0600080C0
310
800080C0A00080C0C00080C0E00080E0000080E0200080E0400080E0600080E0800080E0A00080E0C00080E0E000C0000000C0002000C0004000C0006000C0008000C000A000C000C000C000E000C0200000C0202000C0204000C0206000C0208000C020A000C020C000C020E000C0400000C0402000C0404000C0406000C0
310
408000C040A000C040C000C040E000C0600000C0602000C0604000C0606000C0608000C060A000C060C000C060E000C0800000C0802000C0804000C0806000C0808000C080A000C080C000C080E000C0A00000C0A02000C0A04000C0A06000C0A08000C0A0A000C0A0C000C0A0E000C0C00000C0C02000C0C04000C0C06000
310
C0C08000C0C0A000F0FBFF00A4A0A000808080000000FF0000FF000000FFFF00FF000000FF00FF00FFFF0000FFFFFF0000000000000000000000000000000000000000000000000000000000000000000000000000000000000000000000000000000000000000000000000000000000000000000000000000000000000000
310
000000000000000000000000000000000000000000000000000000000000000000000000000000000000000000000000000000000000000000000000000000000000000000000000000000000000000000000000000000000000000000000000000000000000000000000000000000000000F9F9F9F9F9F9F9F9F9F9F9F9F9
310
F9F9F9F9F9F9F9F9F9F9F9F9F9F9FF00000000F9FF000000000000000000FFFFFFFFFFFFFFFFFFFFFFFFF9FAFAFAFF00000000F9FF000000000000000000FFFFFFFFFFFFFFFFFFFFFFFFFFFFFFFFFF00000000F9FD000000000000000000FFFFFFFFFFFFFFFFFFFFFFFFFFFFFFFFFF00000000F9FF000000000000000000FF
310
FFFFFFFFFFFFFFFFFFFFFFFFFFFFFFFF00000000F9FD000000000000000000FFFFFFFFFFFFFFFFFFFFFFFFFFFFFFFFFF00000000F9FF00000000000000000000000000000000000000000000000000FF00000000F9FD00000000000000000000000000000000000000000000000000FF00000000F9FF000000000000000000
310
00000000000000000000000000000000FF00000000F9FD00000000000000000000000000000000000000000000000000FF00000000F9FF00000000000000000000000000000000000000000000000000FF00000000F9FD00000000000000000000000000000000000000000000000000FF00000000F9FD0000000000000000
310
0000000000000000000000000000000000FF00000000F9FF00000000000000000000000000000000000000000000000000FF00000000F9FD00000000000000000000000000000000000000000000000000FF00000000F9FF00000000000000000000000000000000000000000000000000FF00000000F9FD00000000000000
310
000000000000000000000000000000000000FF00000000F9FF00000000000000000000000000000000000000000000000000FF00000000F9FFFFFFFFFFFFFFFFFFFFFFFFFFFFFFFFFFFFFFFFFFFFFFFFFFFFFF00000000F9FFFFFFF9F9F9F9F9F9F9F9F9F9F9F9F9F9F9F9F9F9F9F9F9F9F9F9000000000000000000000000
310
00000000000000000000000000000000000000000000000000000000000000000000000000000000000000000000000000000000000000000000000000000000000000000000000000000000000000000000000000000000000000000000000000000000000000000000000000000000000000000000000000000000000000
310
0000000000000000000000000000000000000000000000000000000000000000000000000000000000000000000000000000000000000000
102
{BLKREFS
331
1382D
102
}
 70
     4
280
     1
281
     0
1001
AcDbDynamicBlockGUID
1000
{602FCBDB-1345-4265-9476-70E8B9093917}
1001
AcDbBlockRepETag
1070
     1
1071
      149
  0
BLOCK_RECORD
  5
133AE
330
1
100
AcDbSymbolTableRecord
100
AcDbBlockTableRecord
  2
*D2
340
0
 70
     0
280
     1
281
     0
  0
BLOCK_RECORD
  5
133BA
330
1
100
AcDbSymbolTableRecord
100
AcDbBlockTableRecord
  2
*D3
340
0
 70
     0
280
     1
281
     0
  0
BLOCK_RECORD
  5
133C6
330
1
100
AcDbSymbolTableRecord
100
AcDbBlockTableRecord
  2
*D4
340
0
 70
     0
280
     1
281
     0
  0
BLOCK_RECORD
  5
133D3
330
1
100
AcDbSymbolTableRecord
100
AcDbBlockTableRecord
  2
*D5
340
0
 70
     0
280
     1
281
     0
  0
BLOCK_RECORD
  5
133E9
330
1
100
AcDbSymbolTableRecord
100
AcDbBlockTableRecord
  2
*D6
340
0
 70
     0
280
     1
281
     0
  0
BLOCK_RECORD
  5
133FF
330
1
100
AcDbSymbolTableRecord
100
AcDbBlockTableRecord
  2
*D7
340
0
 70
     0
280
     1
281
     0
  0
ENDTAB
  0
ENDSEC
  0
SECTION
  2
BLOCKS
  0
BLOCK
  5
20
330
1F
100
AcDbEntity
  8
0
100
AcDbBlockBegin
  2
*Model_Space
 70
     0
 10
0.0
 20
0.0
 30
0.0
  3
*Model_Space
  1

  0
ENDBLK
  5
21
330
1F
100
AcDbEntity
  8
0
100
AcDbBlockEnd
  0
BLOCK
  5
1C
330
1B
100
AcDbEntity
 67
     1
  8
0
100
AcDbBlockBegin
  2
*Paper_Space
 70
     0
 10
0.0
 20
0.0
 30
0.0
  3
*Paper_Space
  1

  0
ENDBLK
  5
1D
330
1B
100
AcDbEntity
 67
     1
  8
0
100
AcDbBlockEnd
  0
BLOCK
  5
24
330
23
100
AcDbEntity
 67
     1
  8
0
100
AcDbBlockBegin
  2
*Paper_Space0
 70
     0
 10
0.0
 20
0.0
 30
0.0
  3
*Paper_Space0
  1

  0
ENDBLK
  5
25
330
23
100
AcDbEntity
 67
     1
  8
0
100
AcDbBlockEnd
  0
BLOCK
  5
10FEA
330
10FE8
100
AcDbEntity
  8
0
100
AcDbBlockBegin
  2
A4图框-NEW
 70
     0
 10
0.0
 20
0.0
 30
0.0
  3
A4图框-NEW
  1

  0
MTEXT
  5
13FD4
102
{ACAD_XDICTIONARY
360
14072
102
}
330
10FE8
100
AcDbEntity
  8
图框
 62
     3
100
AcDbMText
 10
967.6594956750133
 20
499.7664151964293
 30
0.0
 40
2.985513575034151
 41
15.50176341157864
 46
6.292658374511018
 71
     5
 72
     5
  1
BQ LUO
  7
Romans字体
 73
     1
 44
1.0
1001
AcDbBlockRepETag
1070
     1
1071
        0
1005
13FD4
1001
ACAD
1000
ACAD_MTEXT_DEFINED_HEIGHT_BEGIN
1070
    46
1040
6.292658374511018
1000
ACAD_MTEXT_DEFINED_HEIGHT_END
  0
MTEXT
  5
13FD5
330
10FE8
100
AcDbEntity
  8
图框
 62
     3
100
AcDbMText
 10
983.041569333247
 20
499.7664151964293
 30
0.0
 40
2.487927979195124
 41
15.26238390489051
 46
6.292658374511042
 71
     5
 72
     5
  1
{\W0.7;18.10.2010}
  7
Romans字体
 73
     1
 44
1.0
1001
AcDbBlockRepETag
1070
     1
1071
        1
1005
13FD5
1001
ACAD
1000
ACAD_MTEXT_DEFINED_HEIGHT_BEGIN
1070
    46
1040
6.292658374511042
1000
ACAD_MTEXT_DEFINED_HEIGHT_END
  0
MTEXT
  5
13FD6
330
10FE8
100
AcDbEntity
  8
图框
 62
     3
100
AcDbMText
 10
1012.477254728976
 20
487.1810984474071
 30
0.0
 40
2.985513575034151
 41
17.64876416884615
 46
6.292658374511455
 71
     5
 72
     5
  1
YY LIN
  7
Romans字体
 73
     1
 44
1.0
1001
AcDbBlockRepETag
1070
     1
1071
        2
1005
13FD6
1001
ACAD
1000
ACAD_MTEXT_DEFINED_HEIGHT_BEGIN
1070
    46
1040
6.292658374511455
1000
ACAD_MTEXT_DEFINED_HEIGHT_END
  0
MTEXT
  5
13FD7
330
10FE8
100
AcDbEntity
  8
图框
 62
     3
100
AcDbMText
 10
1028.977802139886
 20
487.1810984474071
 30
0.0
 40
2.487927979195124
 41
15.35233065297276
 46
6.292658374511495
 71
     5
 72
     5
  1
{\W0.7;18.10.2010}
  7
Romans字体
 73
     1
 44
1.0
1001
AcDbBlockRepETag
1070
     1
1071
        3
1005
13FD7
1001
ACAD
1000
ACAD_MTEXT_DEFINED_HEIGHT_BEGIN
1070
    46
1040
6.292658374511495
1000
ACAD_MTEXT_DEFINED_HEIGHT_END
  0
MTEXT
  5
13FD8
330
10FE8
100
AcDbEntity
  8
图框
 62
     3
100
AcDbMText
 10
1063.722665487208
 20
525.4145966538831
 30
0.0
 40
2.985513575034151
 41
32.4973914334545
 46
11.82914190181707
 71
     5
 72
     5
  1
-
  7
Romans字体
 73
     1
 44
1.0
1001
AcDbBlockRepETag
1070
     1
1071
        4
1005
13FD8
1001
ACAD
1000
ACAD_MTEXT_DEFINED_HEIGHT_BEGIN
1070
    46
1040
11.82914190181707
1000
ACAD_MTEXT_DEFINED_HEIGHT_END
  0
MTEXT
  5
13FD9
330
10FE8
100
AcDbEntity
  8
图框
 62
     3
100
AcDbMText
 10
1063.727338552349
 20
513.5854547520641
 30
0.0
 40
2.985513575034151
 41
32.48804530317308
 46
11.82914190182139
 71
     5
 72
     5
  1
-
  7
Romans字体
 73
     1
 44
1.0
1001
AcDbBlockRepETag
1070
     1
1071
        5
1005
13FD9
1001
ACAD
1000
ACAD_MTEXT_DEFINED_HEIGHT_BEGIN
1070
    46
1040
11.82914190182139
1000
ACAD_MTEXT_DEFINED_HEIGHT_END
  0
MTEXT
  5
13FDA
330
10FE8
100
AcDbEntity
  8
图框
 62
     3
100
AcDbMText
 10
1110.122306614152
 20
526.8006839312707
 30
0.0
 40
2.985513575034151
 41
33.61239199242139
 46
9.05696734704178
 71
     5
 72
     5
  1
-
  7
Romans字体
 73
     1
 44
1.0
1001
AcDbBlockRepETag
1070
     1
1071
        6
1005
13FDA
1001
ACAD
1000
ACAD_MTEXT_DEFINED_HEIGHT_BEGIN
1070
    46
1040
9.05696734704178
1000
ACAD_MTEXT_DEFINED_HEIGHT_END
  0
MTEXT
  5
13FDB
330
10FE8
100
AcDbEntity
  8
图框
 62
     3
100
AcDbMText
 10
1110.122306614152
 20
500.2775205517162
 30
0.0
 40
2.985513575034151
 41
33.61239199242139
 46
8.871557304763419
 71
     5
 72
     5
  1
-
  7
Romans字体
 73
     1
 44
1.0
1001
AcDbBlockRepETag
1070
     1
1071
        7
1005
13FDB
1001
ACAD
1000
ACAD_MTEXT_DEFINED_HEIGHT_BEGIN
1070
    46
1040
8.871557304763419
1000
ACAD_MTEXT_DEFINED_HEIGHT_END
  0
MTEXT
  5
13FDC
330
10FE8
100
AcDbEntity
  8
图框
 62
     3
100
AcDbMText
 10
967.6594956750133
 20
493.4737568219182
 30
0.0
 40
2.985513575034151
 41
15.50176341157864
 46
6.292658374510335
 71
     5
 72
     5
  1
P RAO
  7
Romans字体
 73
     1
 44
1.0
1001
AcDbBlockRepETag
1070
     1
1071
        8
1005
13FDC
1001
ACAD
1000
ACAD_MTEXT_DEFINED_HEIGHT_BEGIN
1070
    46
1040
6.292658374510335
1000
ACAD_MTEXT_DEFINED_HEIGHT_END
  0
MTEXT
  5
13FDD
330
10FE8
100
AcDbEntity
  8
图框
 62
     3
100
AcDbMText
 10
983.041569333247
 20
493.2441970450405
 30
0.0
 40
2.487927979195124
 41
15.26238390489051
 46
6.751777928266487
 71
     5
 72
     5
  1
{\W0.7;18.10.2010}
  7
Romans字体
 73
     1
 44
1.0
1001
AcDbBlockRepETag
1070
     1
1071
        9
1005
13FDD
1001
ACAD
1000
ACAD_MTEXT_DEFINED_HEIGHT_BEGIN
1070
    46
1040
6.751777928266487
1000
ACAD_MTEXT_DEFINED_HEIGHT_END
  0
MTEXT
  5
13FDE
330
10FE8
100
AcDbEntity
  8
图框
 62
     3
100
AcDbMText
 10
1012.477254728976
 20
499.7664151964291
 30
0.0
 40
2.985513575034151
 41
17.64876416884615
 46
6.292658374511397
 71
     5
 72
     5
  1
-
  7
Romans字体
 73
     1
 44
1.0
1001
AcDbBlockRepETag
1070
     1
1071
       10
1005
13FDE
1001
ACAD
1000
ACAD_MTEXT_DEFINED_HEIGHT_BEGIN
1070
    46
1040
6.292658374511397
1000
ACAD_MTEXT_DEFINED_HEIGHT_END
  0
MTEXT
  5
13FDF
330
10FE8
100
AcDbEntity
  8
图框
 62
     3
100
AcDbMText
 10
1028.977802139886
 20
499.7664151964289
 30
0.0
 40
2.487927979195124
 41
15.35233065297265
 46
6.292658374511382
 71
     5
 72
     5
  1
-
  7
Romans字体
 73
     1
 44
1.0
1001
AcDbBlockRepETag
1070
     1
1071
       11
1005
13FDF
1001
ACAD
1000
ACAD_MTEXT_DEFINED_HEIGHT_BEGIN
1070
    46
1040
6.292658374511382
1000
ACAD_MTEXT_DEFINED_HEIGHT_END
  0
MTEXT
  5
13FE0
330
10FE8
100
AcDbEntity
  8
图框
 62
     3
100
AcDbMText
 10
967.6594956750133
 20
487.1810984474071
 30
0.0
 40
2.985513575034151
 41
15.50176341157863
 46
6.292658374511478
 71
     5
 72
     5
  1
-
  7
Romans字体
 73
     1
 44
1.0
1001
AcDbBlockRepETag
1070
     1
1071
       12
1005
13FE0
1001
ACAD
1000
ACAD_MTEXT_DEFINED_HEIGHT_BEGIN
1070
    46
1040
6.292658374511478
1000
ACAD_MTEXT_DEFINED_HEIGHT_END
  0
MTEXT
  5
13FE1
330
10FE8
100
AcDbEntity
  8
图框
 62
     3
100
AcDbMText
 10
983.041569333247
 20
487.1810984474071
 30
0.0
 40
2.487927979195124
 41
15.26238390489062
 46
6.292658374511495
 71
     5
 72
     5
  1
-
  7
Romans字体
 73
     1
 44
1.0
1001
AcDbBlockRepETag
1070
     1
1071
       13
1005
13FE1
1001
ACAD
1000
ACAD_MTEXT_DEFINED_HEIGHT_BEGIN
1070
    46
1040
6.292658374511495
1000
ACAD_MTEXT_DEFINED_HEIGHT_END
  0
MTEXT
  5
13FE2
330
10FE8
100
AcDbEntity
  8
图框
 62
     3
100
AcDbMText
 10
1074.556686986741
 20
495.8417418993361
 30
0.0
 40
2.985513575034151
 41
10.82934843438978
 46
7.886094601210427
 71
     5
 72
     5
  1
-
  7
Romans字体
 73
     1
 44
1.0
1001
AcDbBlockRepETag
1070
     1
1071
       14
1005
13FE2
1001
ACAD
1000
ACAD_MTEXT_DEFINED_HEIGHT_BEGIN
1070
    46
1040
7.886094601210427
1000
ACAD_MTEXT_DEFINED_HEIGHT_END
  0
LINE
  5
13FE3
330
10FE8
100
AcDbEntity
  8
图框
370
    -3
100
AcDbLine
 10
1036.653967466372
 20
499.7847891999413
 30
0.0
 11
1079.971361203936
 21
499.7847891999413
 31
0.0
1001
AcDbBlockRepETag
1070
     1
1071
       15
1005
13FE3
  0
MTEXT
  5
13FE4
330
10FE8
100
AcDbEntity
  8
图框
 62
     1
370
    20
100
AcDbMText
 10
1108.26336443907
 20
491.5162596080882
 30
0.0
 40
2.699054613030988
 41
82.30831305643079
 46
0.0
 71
     5
 72
     5
  1
{\fSimHei|b0|i0|c134|p2;厦门唯恩电气有限公司}
 73
     1
 44
1.0
1001
AcDbBlockRepETag
1070
     1
1071
       16
1005
13FE4
  0
MTEXT
  5
13FE5
330
10FE8
100
AcDbEntity
  8
图框
 62
     3
370
    20
100
AcDbMText
 10
1108.435451459908
 20
487.298967726064
 30
0.0
 40
1.652482416141417
 41
68.08558693693567
 46
0.0
 71
     5
 72
     5
  1
{\fArial Narrow|b0|i0|c0|p34;XIAMEN WAIN ELECTRICAL CO.LTD}
  7
工程字
 73
     1
 44
1.0
1001
AcDbBlockRepETag
1070
     1
1071
       17
1005
13FE5
  0
MTEXT
  5
13FE6
330
10FE8
100
AcDbEntity
  8
图框
 62
     1
370
    20
100
AcDbMText
 10
1085.711816899387
 20
491.0944802995856
 30
0.0
 40
2.005930044038334
 41
5.047240019334847
 46
0.0
 71
     1
 72
     5
  1
{\fArial|b0|i0|c0|p34;A}
  7
Chinese
 73
     1
 44
1.0
1001
AcDbBlockRepETag
1070
     1
1071
       18
1005
13FE6
  0
MTEXT
  5
13FE7
330
10FE8
100
AcDbEntity
  8
图框
 62
     1
370
    20
100
AcDbMText
 10
1088.213485935716
 20
491.0944802995856
 30
0.0
 40
2.005930044038334
 41
5.047240019334847
 46
0.0
 71
     1
 72
     5
  1
{\fArial|b0|i0|c0|p34;I}
  7
Chinese
 73
     1
 44
1.0
1001
AcDbBlockRepETag
1070
     1
1071
       19
1005
13FE7
  0
MTEXT
  5
13FE8
330
10FE8
100
AcDbEntity
  8
图框
 62
     1
370
    20
100
AcDbMText
 10
1089.142375222864
 20
491.0822866326808
 30
0.0
 40
2.005930044038334
 41
5.047240019334847
 46
0.0
 71
     1
 72
     5
  1
{\fArial|b0|i0|c0|p34;N}
  7
Chinese
 73
     1
 44
1.0
1001
AcDbBlockRepETag
1070
     1
1071
       20
1005
13FE8
  0
MTEXT
  5
13FE9
330
10FE8
100
AcDbEntity
  8
图框
100
AcDbMText
 10
1069.142012769545
 20
487.9667319294409
 30
0.0
 40
2.252848170144607
 41
21.65869686878327
 46
7.863925338579296
 71
     5
 72
     5
  1
{\W0.5;\C1;All Dimensions in mm\POriginal Size DIN A 4}
  7
Romans字体
 73
     1
 44
1.0
1001
AcDbBlockRepETag
1070
     1
1071
       21
1005
13FE9
1001
ACAD
1000
ACAD_MTEXT_DEFINED_HEIGHT_BEGIN
1070
    46
1040
7.863925338579296
1000
ACAD_MTEXT_DEFINED_HEIGHT_END
  0
MTEXT
  5
13FEA
330
10FE8
100
AcDbEntity
  8
图框
  6
ByBlock
 62
     6
370
    18
100
AcDbMText
 10
1127.40434942308
 20
508.7896535755975
 30
0.0
 40
2.651776162684904
 41
2.557913877927211
 46
0.0
 71
     1
 72
     5
  1
A
  7
Romans字体
 11
0.0000000000000001
 21
1.0
 31
0.0
 73
     1
 44
1.0
1001
AcDbBlockRepETag
1070
     1
1071
       22
1005
13FEA
  0
MTEXT
  5
13FEB
330
10FE8
100
AcDbEntity
  8
图框
 62
     6
100
AcDbMText
 10
1127.40434942308
 20
556.3746573232886
 30
0.0
 40
2.651776162684904
 41
2.557913877927211
 46
0.0
 71
     1
 72
     5
  1
B
  7
Romans字体
 11
0.0000000000000001
 21
1.0
 31
0.0
 73
     1
 44
1.0
1001
AcDbBlockRepETag
1070
     1
1071
       23
1005
13FEB
  0
MTEXT
  5
13FEC
330
10FE8
100
AcDbEntity
  8
图框
 62
     6
100
AcDbMText
 10
1127.40434942308
 20
607.5539372630998
 30
0.0
 40
2.651776162684904
 41
2.557913877927211
 46
0.0
 71
     1
 72
     5
  1
C
  7
Romans字体
 11
0.0000000000000001
 21
1.0
 31
0.0
 73
     1
 44
1.0
1001
AcDbBlockRepETag
1070
     1
1071
       24
1005
13FEC
  0
MTEXT
  5
13FED
330
10FE8
100
AcDbEntity
  8
图框
 62
     6
100
AcDbMText
 10
1127.40434942308
 20
658.7332172029115
 30
0.0
 40
2.651776162684904
 41
2.557913877927211
 46
0.0
 71
     1
 72
     5
  1
D
  7
Romans字体
 11
0.0000000000000001
 21
1.0
 31
0.0
 73
     1
 44
1.0
1001
AcDbBlockRepETag
1070
     1
1071
       25
1005
13FED
  0
LINE
  5
13FEE
330
10FE8
100
AcDbEntity
  8
图框
 62
     6
100
AcDbLine
 10
1130.411601781241
 20
634.0726090796082
 30
0.0
 11
1126.928502610363
 21
634.0726090796082
 31
0.0
1001
AcDbBlockRepETag
1070
     1
1071
       26
1005
13FEE
  0
LINE
  5
13FEF
330
10FE8
100
AcDbEntity
  8
图框
 62
     6
100
AcDbLine
 10
1130.411601781241
 20
582.89332913979
 30
0.0
 11
1126.928502610363
 21
582.89332913979
 31
0.0
1001
AcDbBlockRepETag
1070
     1
1071
       27
1005
13FEF
  0
MTEXT
  5
13FF0
330
10FE8
100
AcDbEntity
  8
图框
 62
     6
100
AcDbMText
 10
1105.329704038389
 20
483.6164543011163
 30
0.0
 40
2.651776162684904
 41
2.557913877927211
 46
0.0
 71
     1
 72
     5
  1
6
  7
Romans字体
 73
     1
 44
1.0
1001
AcDbBlockRepETag
1070
     1
1071
       28
1005
13FF0
  0
LINE
  5
13FF1
330
10FE8
100
AcDbEntity
  8
图框
 62
     6
100
AcDbLine
 10
1081.088565155284
 20
484.0347692601515
 30
0.0
 11
1081.088565155284
 21
480.5347692601475
 31
0.0
1001
AcDbBlockRepETag
1070
     1
1071
       29
1005
13FF1
  0
MTEXT
  5
13FF2
330
10FE8
100
AcDbEntity
  8
图框
 62
     6
100
AcDbMText
 10
1055.900596365941
 20
483.520053108993
 30
0.0
 40
2.651776162684904
 41
2.557913877927211
 46
0.0
 71
     1
 72
     5
  1
5
  7
Romans字体
 73
     1
 44
1.0
1001
AcDbBlockRepETag
1070
     1
1071
       30
1005
13FF2
  0
LINE
  5
13FF3
330
10FE8
100
AcDbEntity
  8
图框
 62
     6
100
AcDbLine
 10
1031.553386436349
 20
484.0347692601515
 30
0.0
 11
1031.553386436349
 21
480.5347692601475
 31
0.0
1001
AcDbBlockRepETag
1070
     1
1071
       31
1005
13FF3
  0
MTEXT
  5
13FF4
330
10FE8
100
AcDbEntity
  8
图框
 62
     6
100
AcDbMText
 10
1006.383180575197
 20
483.5687958215896
 30
0.0
 40
2.651776162684904
 41
2.557913877927211
 46
0.0
 71
     1
 72
     5
  1
4
  7
Romans字体
 73
     1
 44
1.0
1001
AcDbBlockRepETag
1070
     1
1071
       32
1005
13FF4
  0
LINE
  5
13FF5
330
10FE8
100
AcDbEntity
  8
图框
 62
     6
100
AcDbLine
 10
982.0182077173887
 20
484.0347692601515
 30
0.0
 11
982.0182077173887
 21
480.5347692601475
 31
0.0
1001
AcDbBlockRepETag
1070
     1
1071
       33
1005
13FF5
  0
MTEXT
  5
13FF6
330
10FE8
100
AcDbEntity
  8
图框
 62
     6
100
AcDbMText
 10
956.8302389280352
 20
483.5989680297948
 30
0.0
 40
2.651776162684904
 41
2.557913877927211
 46
0.0
 71
     1
 72
     5
  1
3
  7
Romans字体
 73
     1
 44
1.0
1001
AcDbBlockRepETag
1070
     1
1071
       34
1005
13FF6
  0
LINE
  5
13FF7
330
10FE8
100
AcDbEntity
  8
图框
 62
     6
100
AcDbLine
 10
932.4830289984245
 20
484.0347692601515
 30
0.0
 11
932.4830289984245
 21
480.5347692601475
 31
0.0
1001
AcDbBlockRepETag
1070
     1
1071
       35
1005
13FF7
  0
MTEXT
  5
13FF8
330
10FE8
100
AcDbEntity
  8
图框
 62
     6
100
AcDbMText
 10
906.0252349826365
 20
483.6475250013156
 30
0.0
 40
2.651776162684904
 41
2.557913877927211
 46
0.0
 71
     1
 72
     5
  1
2
  7
Romans字体
 73
     1
 44
1.0
1001
AcDbBlockRepETag
1070
     1
1071
       36
1005
13FF8
  0
LINE
  5
13FF9
330
10FE8
100
AcDbEntity
  8
图框
 62
     6
100
AcDbLine
 10
882.9478502794648
 20
484.0347692601515
 30
0.0
 11
882.9478502794648
 21
480.5347692601475
 31
0.0
1001
AcDbBlockRepETag
1070
     1
1071
       37
1005
13FF9
  0
MTEXT
  5
13FFA
330
10FE8
100
AcDbEntity
  8
图框
 62
     6
100
AcDbMText
 10
857.7598814901191
 20
483.651829494754
 30
0.0
 40
2.651776162684904
 41
2.557913877927211
 46
0.0
 71
     1
 72
     5
  1
1
  7
Romans字体
 73
     1
 44
1.0
1001
AcDbBlockRepETag
1070
     1
1071
       38
1005
13FFA
  0
LINE
  5
13FFB
330
10FE8
100
AcDbEntity
  8
图框
370
    50
100
AcDbLine
 10
836.8548209370597
 20
484.0347692601515
 30
0.0
 11
1126.928502610363
 21
484.0347692601515
 31
0.0
1001
AcDbBlockRepETag
1070
     1
1071
       39
1005
13FFB
  0
LINE
  5
13FFC
330
10FE8
100
AcDbEntity
  8
图框
370
    50
100
AcDbLine
 10
836.9128518455362
 20
484.0178684310246
 30
0.0
 11
836.9128518455394
 21
675.0207195125422
 31
0.0
1001
AcDbBlockRepETag
1070
     1
1071
       40
1005
13FFC
  0
MTEXT
  5
13FFD
330
10FE8
100
AcDbEntity
  8
图框
 62
     6
100
AcDbMText
 10
833.8475685789031
 20
658.7332172029115
 30
0.0
 40
2.651776162684904
 41
2.557913877927211
 46
0.0
 71
     1
 72
     5
  1
D
  7
Romans字体
 11
0.0000000000000001
 21
1.0
 31
0.0
 73
     1
 44
1.0
1001
AcDbBlockRepETag
1070
     1
1071
       41
1005
13FFD
  0
LINE
  5
13FFE
330
10FE8
100
AcDbEntity
  8
图框
 62
     6
100
AcDbLine
 10
836.9128518455386
 20
634.0726090796082
 30
0.0
 11
833.4128518455365
 21
634.0726090796082
 31
0.0
1001
AcDbBlockRepETag
1070
     1
1071
       42
1005
13FFE
  0
MTEXT
  5
13FFF
330
10FE8
100
AcDbEntity
  8
图框
 62
     6
100
AcDbMText
 10
833.9039177480142
 20
607.5539372630998
 30
0.0
 40
2.651776162684904
 41
2.557913877927211
 46
0.0
 71
     1
 72
     5
  1
C
  7
Romans字体
 11
0.0000000000000001
 21
1.0
 31
0.0
 73
     1
 44
1.0
1001
AcDbBlockRepETag
1070
     1
1071
       43
1005
13FFF
  0
LINE
  5
14000
330
10FE8
100
AcDbEntity
  8
图框
 62
     6
100
AcDbLine
 10
836.9128518455378
 20
582.89332913979
 30
0.0
 11
833.4128518455365
 21
582.89332913979
 31
0.0
1001
AcDbBlockRepETag
1070
     1
1071
       44
1005
14000
  0
MTEXT
  5
14001
330
10FE8
100
AcDbEntity
  8
图框
 62
     6
100
AcDbMText
 10
833.9039177480142
 20
556.3746573232886
 30
0.0
 40
2.651776162684904
 41
2.557913877927211
 46
0.0
 71
     1
 72
     5
  1
B
  7
Romans字体
 11
0.0000000000000001
 21
1.0
 31
0.0
 73
     1
 44
1.0
1001
AcDbBlockRepETag
1070
     1
1071
       45
1005
14001
  0
LINE
  5
14002
330
10FE8
100
AcDbEntity
  8
图框
 62
     6
100
AcDbLine
 10
836.9128518455367
 20
531.714049199969
 30
0.0
 11
833.4128518455365
 21
531.714049199969
 31
0.0
1001
AcDbBlockRepETag
1070
     1
1071
       46
1005
14002
  0
MTEXT
  5
14003
330
10FE8
100
AcDbEntity
  8
图框
 62
     6
100
AcDbMText
 10
833.9039177480142
 20
508.7896535755975
 30
0.0
 40
2.651776162684904
 41
2.557913877927211
 46
0.0
 71
     1
 72
     5
  1
A
  7
Romans字体
 11
0.0000000000000001
 21
1.0
 31
0.0
 73
     1
 44
1.0
1001
AcDbBlockRepETag
1070
     1
1071
       47
1005
14003
  0
LINE
  5
14004
330
10FE8
100
AcDbEntity
  8
图框
370
    -3
100
AcDbLine
 10
836.9128518455394
 20
675.0207195125422
 30
0.0
 11
836.9128518455394
 21
684.5021384922564
 31
0.0
1001
AcDbBlockRepETag
1070
     1
1071
       48
1005
14004
  0
LINE
  5
14005
330
10FE8
100
AcDbEntity
  8
图框
370
    -3
100
AcDbLine
 10
842.6237321475781
 20
675.5347692601515
 30
0.0
 11
842.6237321475781
 21
685.0161882398658
 31
0.0
1001
AcDbBlockRepETag
1070
     1
1071
       49
1005
14005
  0
LINE
  5
14006
330
10FE8
100
AcDbEntity
  8
图框
370
    -3
100
AcDbLine
 10
848.3346124496179
 20
675.5347692601515
 30
0.0
 11
848.3346124496179
 21
685.0161882398658
 31
0.0
1001
AcDbBlockRepETag
1070
     1
1071
       50
1005
14006
  0
LINE
  5
14007
330
10FE8
100
AcDbEntity
  8
图框
370
    -3
100
AcDbLine
 10
854.0454927516588
 20
675.5347692601515
 30
0.0
 11
854.0454927516588
 21
685.0161882398658
 31
0.0
1001
AcDbBlockRepETag
1070
     1
1071
       51
1005
14007
  0
LINE
  5
14008
330
10FE8
100
AcDbEntity
  8
图框
370
    -3
100
AcDbLine
 10
861.5351874539182
 20
675.5347692601515
 30
0.0
 11
861.5351874539182
 21
686.7901958362482
 31
0.0
1001
AcDbBlockRepETag
1070
     1
1071
       52
1005
14008
  0
MTEXT
  5
14009
330
10FE8
100
AcDbEntity
  8
图框
 62
     6
100
AcDbMText
 10
1105.329704038389
 20
678.859919059449
 30
0.0
 40
2.651776162684904
 41
2.557913877927211
 46
0.0
 71
     1
 72
     5
  1
6
  7
Romans字体
 73
     1
 44
1.0
1001
AcDbBlockRepETag
1070
     1
1071
       53
1005
14009
  0
LINE
  5
1400A
330
10FE8
100
AcDbEntity
  8
图框
 62
     6
100
AcDbLine
 10
1081.088565155284
 20
679.0347692601516
 30
0.0
 11
1081.088565155284
 21
675.5347692601515
 31
0.0
1001
AcDbBlockRepETag
1070
     1
1071
       54
1005
1400A
  0
MTEXT
  5
1400B
330
10FE8
100
AcDbEntity
  8
图框
 62
     6
100
AcDbMText
 10
1055.900596365941
 20
678.859919059449
 30
0.0
 40
2.651776162684904
 41
2.557913877927211
 46
0.0
 71
     1
 72
     5
  1
5
  7
Romans字体
 73
     1
 44
1.0
1001
AcDbBlockRepETag
1070
     1
1071
       55
1005
1400B
  0
LINE
  5
1400C
330
10FE8
100
AcDbEntity
  8
图框
 62
     6
100
AcDbLine
 10
1031.553386436349
 20
679.0347692601516
 30
0.0
 11
1031.553386436349
 21
675.5347692601515
 31
0.0
1001
AcDbBlockRepETag
1070
     1
1071
       56
1005
1400C
  0
MTEXT
  5
1400D
330
10FE8
100
AcDbEntity
  8
图框
 62
     6
100
AcDbMText
 10
1006.36541764698
 20
678.7312083656147
 30
0.0
 40
2.651776162684904
 41
2.557913877927211
 46
0.0
 71
     1
 72
     5
  1
4
  7
Romans字体
 73
     1
 44
1.0
1001
AcDbBlockRepETag
1070
     1
1071
       57
1005
1400D
  0
LINE
  5
1400E
330
10FE8
100
AcDbEntity
  8
图框
 62
     6
100
AcDbLine
 10
982.0182077173887
 20
679.0347692601516
 30
0.0
 11
982.0182077173887
 21
675.5347692601515
 31
0.0
1001
AcDbBlockRepETag
1070
     1
1071
       58
1005
1400E
  0
MTEXT
  5
1400F
330
10FE8
100
AcDbEntity
  8
图框
 62
     6
100
AcDbMText
 10
956.8302389280352
 20
678.859919059449
 30
0.0
 40
2.651776162684904
 41
2.557913877927211
 46
0.0
 71
     1
 72
     5
  1
3
  7
Romans字体
 73
     1
 44
1.0
1001
AcDbBlockRepETag
1070
     1
1071
       59
1005
1400F
  0
LINE
  5
14010
330
10FE8
100
AcDbEntity
  8
图框
 62
     6
100
AcDbLine
 10
932.4830289984245
 20
679.0347692601516
 30
0.0
 11
932.4830289984245
 21
675.5347692601515
 31
0.0
1001
AcDbBlockRepETag
1070
     1
1071
       60
1005
14010
  0
MTEXT
  5
14011
330
10FE8
100
AcDbEntity
  8
图框
 62
     6
100
AcDbMText
 10
907.295060209082
 20
678.859919059449
 30
0.0
 40
2.651776162684904
 41
2.557913877927211
 46
0.0
 71
     1
 72
     5
  1
2
  7
Romans字体
 73
     1
 44
1.0
1001
AcDbBlockRepETag
1070
     1
1071
       61
1005
14011
  0
LINE
  5
14012
330
10FE8
100
AcDbEntity
  8
图框
 62
     6
100
AcDbLine
 10
882.9478502794648
 20
678.7962435131815
 30
0.0
 11
882.9478502794648
 21
675.5347692601515
 31
0.0
1001
AcDbBlockRepETag
1070
     1
1071
       62
1005
14012
  0
MTEXT
  5
14013
330
10FE8
100
AcDbEntity
  8
图框
 62
     6
100
AcDbMText
 10
862.6286629643733
 20
678.859919059449
 30
0.0
 40
2.651776162684904
 41
2.557913877927211
 46
0.0
 71
     1
 72
     5
  1
1
  7
Romans字体
 73
     1
 44
1.0
1001
AcDbBlockRepETag
1070
     1
1071
       63
1005
14013
  0
LINE
  5
14014
330
10FE8
100
AcDbEntity
  8
图框
370
    -3
100
AcDbLine
 10
836.9128518455394
 20
675.0207195125422
 30
0.0
 11
836.9128518455394
 21
686.7901958362482
 31
0.0
1001
AcDbBlockRepETag
1070
     1
1071
       64
1005
14014
  0
LINE
  5
14015
330
10FE8
100
AcDbEntity
  8
图框
370
    50
100
AcDbLine
 10
836.9128518455394
 20
675.5347692601515
 30
0.0
 11
1126.928502610363
 21
675.5347692601515
 31
0.0
1001
AcDbBlockRepETag
1070
     1
1071
       65
1005
14015
  0
LINE
  5
14016
330
10FE8
100
AcDbEntity
  8
图框
370
    -3
100
AcDbLine
 10
842.6237321475781
 20
675.5347692601515
 30
0.0
 11
842.6237321475781
 21
686.7901958362482
 31
0.0
1001
AcDbBlockRepETag
1070
     1
1071
       66
1005
14016
  0
LINE
  5
14017
330
10FE8
100
AcDbEntity
  8
图框
370
    -3
100
AcDbLine
 10
848.3346124496179
 20
675.5347692601515
 30
0.0
 11
848.3346124496179
 21
686.7901958362482
 31
0.0
1001
AcDbBlockRepETag
1070
     1
1071
       67
1005
14017
  0
MTEXT
  5
14018
102
{ACAD_XDICTIONARY
360
14074
102
}
330
10FE8
100
AcDbEntity
  8
图框
100
AcDbMText
 10
857.7903401027889
 20
686.7901958362482
 30
0.0
 40
1.958998408821398
 41
11.25542657609672
 46
7.489694702258906
 71
     4
 72
     5
  1
\pi2.6646;{\fSimSun|b0|i0|c134|p2;档案员\fFangSong_GB2312|b0|i0|c134|p49;\H0.7x;\P\pi1.4159;\Fromans|c134;Filing Clerk\fFangSong_GB2312|b0|i0|c134|p49; }
 11
-0.0000000000000002
 21
-1.0
 31
0.0
 73
     1
 44
1.0
1001
AcDbBlockRepETag
1070
     1
1071
       68
1005
14018
1001
ACAD
1000
ACAD_MTEXT_DEFINED_HEIGHT_BEGIN
1070
    46
1040
7.489694702258906
1000
ACAD_MTEXT_DEFINED_HEIGHT_END
  0
MTEXT
  5
14019
102
{ACAD_XDICTIONARY
360
14076
102
}
330
10FE8
100
AcDbEntity
  8
图框
100
AcDbMText
 10
845.479172298598
 20
686.7901958362482
 30
0.0
 40
1.958998408821398
 41
11.25542657609672
 46
5.710880302039671
 71
     4
 72
     5
  1
\pi0.63465;{\fSimSun|b0|i0|c134|p2;日期\Fromans|c134;/Date}
 11
-0.0000000000000002
 21
-1.0
 31
0.0
 73
     1
 44
1.0
1001
AcDbBlockRepETag
1070
     1
1071
       69
1005
14019
1001
ACAD
1000
ACAD_MTEXT_DEFINED_HEIGHT_BEGIN
1070
    46
1040
5.710880302039671
1000
ACAD_MTEXT_DEFINED_HEIGHT_END
  0
LINE
  5
1401A
330
10FE8
100
AcDbEntity
  8
图框
370
    -3
100
AcDbLine
 10
854.0454927516588
 20
675.5347692601515
 30
0.0
 11
854.0454927516588
 21
686.7901958362482
 31
0.0
1001
AcDbBlockRepETag
1070
     1
1071
       70
1005
1401A
  0
LINE
  5
1401B
330
10FE8
100
AcDbEntity
  8
图框
370
    -3
100
AcDbLine
 10
1036.653967466372
 20
531.3291676047914
 30
0.0
 11
1036.653967466372
 21
484.0126019753161
 31
0.0
1001
AcDbBlockRepETag
1070
     1
1071
       71
1005
1401B
  0
LINE
  5
1401C
330
10FE8
100
AcDbEntity
  8
图框
370
    -3
100
AcDbLine
 10
1047.483315900763
 20
507.6708838011533
 30
0.0
 11
1047.483315900763
 21
491.8986945987308
 31
0.0
1001
AcDbBlockRepETag
1070
     1
1071
       72
1005
1401C
  0
LINE
  5
1401D
330
10FE8
100
AcDbEntity
  8
图框
370
    -3
100
AcDbLine
 10
1058.312664335153
 20
507.6708838011533
 30
0.0
 11
1058.312664335153
 21
484.0347692601515
 31
0.0
1001
AcDbBlockRepETag
1070
     1
1071
       73
1005
1401D
  0
LINE
  5
1401E
330
10FE8
100
AcDbEntity
  8
图框
370
    25
100
AcDbLine
 10
1048.474135214456
 20
488.1095628329926
 30
0.0
 11
1054.946420288459
 21
488.1095628329926
 31
0.0
1001
AcDbBlockRepETag
1070
     1
1071
       74
1005
1401E
  0
LINE
  5
1401F
330
10FE8
100
AcDbEntity
  8
图框
370
    25
100
AcDbLine
 10
1054.232527365989
 20
487.0761716842634
 30
0.0
 11
1049.156490914508
 21
486.4576273751
 31
0.0
1001
AcDbBlockRepETag
1070
     1
1071
       75
1005
1401F
  0
LINE
  5
14020
330
10FE8
100
AcDbEntity
  8
图框
370
    25
100
AcDbLine
 10
1054.232527365989
 20
489.1429539817209
 30
0.0
 11
1049.156490914508
 21
489.7614982908846
 31
0.0
1001
AcDbBlockRepETag
1070
     1
1071
       76
1005
14020
  0
LINE
  5
14021
330
10FE8
100
AcDbEntity
  8
图框
370
    25
100
AcDbLine
 10
1049.156490914508
 20
489.7614982908846
 30
0.0
 11
1049.156490914508
 21
486.4576273751
 31
0.0
1001
AcDbBlockRepETag
1070
     1
1071
       77
1005
14021
  0
LINE
  5
14022
330
10FE8
100
AcDbEntity
  8
图框
370
    25
100
AcDbLine
 10
1054.232527365989
 20
489.1429539817209
 30
0.0
 11
1054.232527365989
 21
487.0761716842634
 31
0.0
1001
AcDbBlockRepETag
1070
     1
1071
       78
1005
14022
  0
CIRCLE
  5
14023
330
10FE8
100
AcDbEntity
  8
图框
370
    25
100
AcDbCircle
 10
1042.502700458579
 20
488.1095628329926
 30
0.0
 40
1.651935457891863
1001
AcDbBlockRepETag
1070
     1
1071
       79
1005
14023
  0
CIRCLE
  5
14024
330
10FE8
100
AcDbEntity
  8
图框
370
    25
100
AcDbCircle
 10
1042.502700458579
 20
488.1095628329926
 30
0.0
 40
1.033391148728775
1001
AcDbBlockRepETag
1070
     1
1071
       80
1005
14024
  0
LINE
  5
14025
330
10FE8
100
AcDbEntity
  8
图框
370
    25
100
AcDbLine
 10
1040.136872078216
 20
488.1095628329926
 30
0.0
 11
1044.868528838943
 21
488.1095628329926
 31
0.0
1001
AcDbBlockRepETag
1070
     1
1071
       81
1005
14025
  0
LINE
  5
14026
330
10FE8
100
AcDbEntity
  8
图框
370
    25
100
AcDbLine
 10
1042.502700458579
 20
490.475391213355
 30
0.0
 11
1042.502700458579
 21
485.743734452629
 31
0.0
1001
AcDbBlockRepETag
1070
     1
1071
       82
1005
14026
  0
LINE
  5
14027
330
10FE8
100
AcDbEntity
  8
图框
370
    -3
100
AcDbLine
 10
1069.142012769546
 20
507.6708838011533
 30
0.0
 11
1069.142012769546
 21
491.8986945987308
 31
0.0
1001
AcDbBlockRepETag
1070
     1
1071
       83
1005
14027
  0
MTEXT
  5
14028
330
10FE8
100
AcDbEntity
  8
图框
100
AcDbMText
 10
1086.643735910939
 20
526.8006839312707
 30
0.0
 40
2.154898249703542
 41
13.34474941400573
 46
9.056967347041775
 71
     5
 72
     5
  1
图号{\Ftxt|c134;\P\Fromans|c134;\W0.65;Drawing No.}
 73
     1
 44
1.0
1001
AcDbBlockRepETag
1070
     1
1071
       84
1005
14028
1001
ACAD
1000
ACAD_MTEXT_DEFINED_HEIGHT_BEGIN
1070
    46
1040
9.056967347041775
1000
ACAD_MTEXT_DEFINED_HEIGHT_END
  0
LINE
  5
14029
330
10FE8
100
AcDbEntity
  8
图框
370
    -3
100
AcDbLine
 10
1093.316110617942
 20
531.3291676047914
 30
0.0
 11
1093.316110617942
 21
495.8417418993347
 31
0.0
1001
AcDbBlockRepETag
1070
     1
1071
       85
1005
14029
  0
LINE
  5
1402A
330
10FE8
100
AcDbEntity
  8
图框
370
    -3
100
AcDbLine
 10
1047.473969770481
 20
531.3291676047914
 30
0.0
 11
1047.473969770481
 21
507.6708838011533
 31
0.0
1001
AcDbBlockRepETag
1070
     1
1071
       86
1005
1402A
  0
MTEXT
  5
1402B
330
10FE8
100
AcDbEntity
  8
图框
100
AcDbMText
 10
1063.72733855235
 20
503.7278365005473
 30
0.0
 40
2.252848170144607
 41
10.82934843439208
 46
7.886094601212128
 71
     5
 72
     5
  1
重量\P{\Fromans|c134;Weight}
 73
     1
 44
1.0
1001
AcDbBlockRepETag
1070
     1
1071
       87
1005
1402B
1001
ACAD
1000
ACAD_MTEXT_DEFINED_HEIGHT_BEGIN
1070
    46
1040
7.886094601212128
1000
ACAD_MTEXT_DEFINED_HEIGHT_END
  0
LINE
  5
1402C
330
10FE8
100
AcDbEntity
  8
图框
370
    -3
100
AcDbLine
 10
1036.653967466372
 20
519.5000257029746
 30
0.0
 11
1079.971361203936
 21
519.5000257029746
 31
0.0
1001
AcDbBlockRepETag
1070
     1
1071
       88
1005
1402C
  0
MTEXT
  5
1402D
330
10FE8
100
AcDbEntity
  8
图框
100
AcDbMText
 10
1074.556686986741
 20
503.7278365005473
 30
0.0
 40
2.252848170144607
 41
10.82934843438984
 46
7.886094601212141
 71
     5
 72
     5
  1
数量\P{\Fromans|c134;Qty.}
 73
     1
 44
1.0
1001
AcDbBlockRepETag
1070
     1
1071
       89
1005
1402D
1001
ACAD
1000
ACAD_MTEXT_DEFINED_HEIGHT_BEGIN
1070
    46
1040
7.886094601212141
1000
ACAD_MTEXT_DEFINED_HEIGHT_END
  0
LINE
  5
1402E
330
10FE8
100
AcDbEntity
  8
图框
370
    -3
100
AcDbLine
 10
1079.971361203936
 20
495.8417418993347
 30
0.0
 11
1126.928502610363
 21
495.8417418993342
 31
0.0
1001
AcDbBlockRepETag
1070
     1
1071
       90
1005
1402E
  0
LINE
  5
1402F
330
10FE8
100
AcDbEntity
  8
图框
370
    -3
100
AcDbLine
 10
1079.971361203936
 20
504.7132992040975
 30
0.0
 11
1126.928502610363
 21
504.7132992040975
 31
0.0
1001
AcDbBlockRepETag
1070
     1
1071
       91
1005
1402F
  0
MTEXT
  5
14030
330
10FE8
100
AcDbEntity
  8
图框
100
AcDbMText
 10
1052.893317052817
 20
503.7278365005473
 30
0.0
 40
2.252848170144607
 41
10.83869456467139
 46
7.886094601212101
 71
     5
 72
     5
  1
版本\P{\Fromans|c134;REV.}
 73
     1
 44
1.0
1001
AcDbBlockRepETag
1070
     1
1071
       92
1005
14030
1001
ACAD
1000
ACAD_MTEXT_DEFINED_HEIGHT_BEGIN
1070
    46
1040
7.886094601212101
1000
ACAD_MTEXT_DEFINED_HEIGHT_END
  0
MTEXT
  5
14031
330
10FE8
100
AcDbEntity
  8
图框
100
AcDbMText
 10
1042.068641683568
 20
503.7278365005473
 30
0.0
 40
2.252848170144607
 41
10.8293484343908
 46
7.886094601212136
 71
     5
 72
     5
  1
比例\P{\Fromans|c134;Scale}
 73
     1
 44
1.0
1001
AcDbBlockRepETag
1070
     1
1071
       93
1005
14031
1001
ACAD
1000
ACAD_MTEXT_DEFINED_HEIGHT_BEGIN
1070
    46
1040
7.886094601212136
1000
ACAD_MTEXT_DEFINED_HEIGHT_END
  0
LINE
  5
14032
330
10FE8
100
AcDbEntity
  8
图框
370
    -3
100
AcDbLine
 10
1036.653967466372
 20
507.6708838011533
 30
0.0
 11
1079.971361203936
 21
507.6708838011533
 31
0.0
1001
AcDbBlockRepETag
1070
     1
1071
       94
1005
14032
  0
LINE
  5
14033
330
10FE8
100
AcDbEntity
  8
图框
370
    -3
100
AcDbLine
 10
1036.653967466372
 20
491.8986945987308
 30
0.0
 11
1079.971361203936
 21
491.8986945987308
 31
0.0
1001
AcDbBlockRepETag
1070
     1
1071
       95
1005
14033
  0
LINE
  5
14034
330
10FE8
100
AcDbEntity
  8
图框
370
    -3
100
AcDbLine
 10
1079.971361203936
 20
531.3291676047914
 30
0.0
 11
1079.971361203936
 21
484.0125999975168
 31
0.0
1001
AcDbBlockRepETag
1070
     1
1071
       96
1005
14034
  0
MTEXT
  5
14035
330
10FE8
100
AcDbEntity
  8
图框
100
AcDbMText
 10
1042.063968618426
 20
525.4145966538832
 30
0.0
 40
2.252848170144607
 41
10.82000230410933
 46
11.82914190181708
 71
     5
 72
     5
  1
表面处理\P{\Fromans|c134;Finish}
 73
     1
 44
1.0
1001
AcDbBlockRepETag
1070
     1
1071
       97
1005
14035
1001
ACAD
1000
ACAD_MTEXT_DEFINED_HEIGHT_BEGIN
1070
    46
1040
11.82914190181708
1000
ACAD_MTEXT_DEFINED_HEIGHT_END
  0
MTEXT
  5
14036
330
10FE8
100
AcDbEntity
  8
图框
100
AcDbMText
 10
1042.063968618426
 20
513.5854547520639
 30
0.0
 40
2.252848170144607
 41
10.82000230410933
 46
11.8291419018212
 71
     5
 72
     5
  1
材料\P{\Fromans|c134;Material}
 73
     1
 44
1.0
1001
AcDbBlockRepETag
1070
     1
1071
       98
1005
14036
1001
ACAD
1000
ACAD_MTEXT_DEFINED_HEIGHT_BEGIN
1070
    46
1040
11.8291419018212
1000
ACAD_MTEXT_DEFINED_HEIGHT_END
  0
LINE
  5
14037
330
10FE8
100
AcDbEntity
  8
图框
370
    -3
100
AcDbLine
 10
1079.971361203936
 20
522.27220025775
 30
0.0
 11
1126.928502610363
 21
522.27220025775
 31
0.0
1001
AcDbBlockRepETag
1070
     1
1071
       99
1005
14037
  0
LINE
  5
14038
330
10FE8
100
AcDbEntity
  8
图框
370
    -3
100
AcDbLine
 10
1079.971361203936
 20
513.5854547520641
 30
0.0
 11
1126.928502610363
 21
513.5854547520639
 31
0.0
1001
AcDbBlockRepETag
1070
     1
1071
      100
1005
14038
  0
MTEXT
  5
14039
330
10FE8
100
AcDbEntity
  8
图框
100
AcDbMText
 10
1086.643735910939
 20
517.9288275049072
 30
0.0
 40
1.958998408821398
 41
13.34474941400573
 46
8.686745505685811
 71
     5
 72
     5
  1
产品代号\P{\Fromans|c134;Part Code}
 73
     1
 44
1.0
1001
AcDbBlockRepETag
1070
     1
1071
      101
1005
14039
1001
ACAD
1000
ACAD_MTEXT_DEFINED_HEIGHT_BEGIN
1070
    46
1040
8.686745505685811
1000
ACAD_MTEXT_DEFINED_HEIGHT_END
  0
LINE
  5
1403A
330
10FE8
100
AcDbEntity
  8
图框
370
    -3
100
AcDbLine
 10
946.9285026103634
 20
525.7982263931411
 30
0.0
 11
1036.653967466372
 21
525.7982263931411
 31
0.0
1001
AcDbBlockRepETag
1070
     1
1071
      102
1005
1403A
  0
LINE
  5
1403B
330
10FE8
100
AcDbEntity
  8
图框
370
    -3
100
AcDbLine
 10
946.9285026103634
 20
520.2672851814959
 30
0.0
 11
1036.653967466372
 21
520.2672851814959
 31
0.0
1001
AcDbBlockRepETag
1070
     1
1071
      103
1005
1403B
  0
LINE
  5
1403C
330
10FE8
100
AcDbEntity
  8
图框
370
    35
100
AcDbLine
 10
946.9285026103634
 20
531.3291676047914
 30
0.0
 11
1126.928502610363
 21
531.3291676047914
 31
0.0
1001
AcDbBlockRepETag
1070
     1
1071
      104
1005
1403C
  0
LINE
  5
1403D
330
10FE8
100
AcDbEntity
  8
图框
370
    -3
100
AcDbLine
 10
990.6727612856927
 20
509.2054027581959
 30
0.0
 11
990.6727612856927
 21
484.0347692601515
 31
0.0
1001
AcDbBlockRepETag
1070
     1
1071
      105
1005
1403D
  0
MTEXT
  5
1403E
102
{ACAD_XDICTIONARY
360
14078
102
}
330
10FE8
100
AcDbEntity
  8
图框
100
AcDbMText
 10
997.1628169651232
 20
499.816589978722
 30
0.0
 40
2.252848170144607
 41
12.98011135886052
 46
6.19230880992475
 71
     5
 72
     5
  1
{\fSimSun|b0|i0|c134|p2;标准化}\PStand.
  7
Romans字体
 73
     1
 44
1.0
1001
AcDbBlockRepETag
1070
     1
1071
      106
1005
1403E
1001
ACAD
1000
ACAD_MTEXT_DEFINED_HEIGHT_BEGIN
1070
    46
1040
6.19230880992475
1000
ACAD_MTEXT_DEFINED_HEIGHT_END
  0
LINE
  5
1403F
330
10FE8
100
AcDbEntity
  8
图框
370
    -3
100
AcDbLine
 10
975.4103773808022
 20
509.2054027581959
 30
0.0
 11
975.4103773808022
 21
484.0347692601515
 31
0.0
1001
AcDbBlockRepETag
1070
     1
1071
      107
1005
1403F
  0
MTEXT
  5
14040
330
10FE8
100
AcDbEntity
  8
图框
100
AcDbMText
 10
984.5089229802068
 20
511.9708733640202
 30
0.0
 40
2.448748011026752
 41
38.287899328693
 46
5.530941211648832
 71
     5
 72
     5
  1
  变更描述{\Fromans|c134;/Description}
 73
     1
 44
1.0
1001
AcDbBlockRepETag
1070
     1
1071
      108
1005
14040
1001
ACAD
1000
ACAD_MTEXT_DEFINED_HEIGHT_BEGIN
1070
    46
1040
5.530941211648832
1000
ACAD_MTEXT_DEFINED_HEIGHT_END
  0
MTEXT
  5
14041
102
{ACAD_XDICTIONARY
360
1407A
102
}
330
10FE8
100
AcDbEntity
  8
图框
100
AcDbMText
 10
1012.477254728976
 20
511.9708733640202
 30
0.0
 40
1.958998408821398
 41
17.64876416884548
 46
5.530941211648825
 71
     5
 72
     5
  1
{\fSimSun|b0|i0|c134|p2;签名\P\Fromans|c134;Signature} 
 73
     1
 44
1.0
1001
AcDbBlockRepETag
1070
     1
1071
      109
1005
14041
1001
ACAD
1000
ACAD_MTEXT_DEFINED_HEIGHT_BEGIN
1070
    46
1040
5.530941211648825
1000
ACAD_MTEXT_DEFINED_HEIGHT_END
  0
MTEXT
  5
14042
102
{ACAD_XDICTIONARY
360
1407C
102
}
330
10FE8
100
AcDbEntity
  8
图框
100
AcDbMText
 10
960.7558556394856
 20
511.9708733640202
 30
0.0
 40
1.958998408821398
 41
9.218235352749283
 46
5.530941211648841
 71
     5
 72
     5
  1
{\fSimSun|b0|i0|c134|p2;处数\P\Fromans|c134;Number }
 73
     1
 44
1.0
1001
AcDbBlockRepETag
1070
     1
1071
      110
1005
14042
1001
ACAD
1000
ACAD_MTEXT_DEFINED_HEIGHT_BEGIN
1070
    46
1040
5.530941211648841
1000
ACAD_MTEXT_DEFINED_HEIGHT_END
  0
LINE
  5
14043
330
10FE8
100
AcDbEntity
  8
图框
370
    -3
100
AcDbLine
 10
946.9285026103634
 20
514.7363439698449
 30
0.0
 11
1036.653967466372
 21
514.7363439698449
 31
0.0
1001
AcDbBlockRepETag
1070
     1
1071
      111
1005
14043
  0
LINE
  5
14044
330
10FE8
100
AcDbEntity
  8
图框
370
    -3
100
AcDbLine
 10
946.9285026103634
 20
509.2054027581959
 30
0.0
 11
1036.653967466372
 21
509.2054027581959
 31
0.0
1001
AcDbBlockRepETag
1070
     1
1071
      112
1005
14044
  0
LINE
  5
14045
330
10FE8
100
AcDbEntity
  8
图框
370
    -3
100
AcDbLine
 10
946.9285026103634
 20
502.9127443836848
 30
0.0
 11
1036.653967466372
 21
502.9127443836848
 31
0.0
1001
AcDbBlockRepETag
1070
     1
1071
      113
1005
14045
  0
LINE
  5
14046
330
10FE8
100
AcDbEntity
  8
图框
370
    -3
100
AcDbLine
 10
946.9285026103634
 20
496.620086009173
 30
0.0
 11
1036.653967466372
 21
496.620086009173
 31
0.0
1001
AcDbBlockRepETag
1070
     1
1071
      114
1005
14046
  0
LINE
  5
14047
330
10FE8
100
AcDbEntity
  8
图框
370
    35
380
     1
100
AcDbLine
 10
946.9285026103634
 20
531.3291676047914
 30
0.0
 11
946.9285026103634
 21
484.0347692601515
 31
0.0
1001
AcDbBlockRepETag
1070
     1
1071
      115
1005
14047
  0
LINE
  5
14048
330
10FE8
100
AcDbEntity
  8
图框
370
    -3
100
AcDbLine
 10
1021.301636813399
 20
531.3291676047914
 30
0.0
 11
1021.301636813399
 21
484.0347692601515
 31
0.0
1001
AcDbBlockRepETag
1070
     1
1071
      116
1005
14048
  0
LINE
  5
14049
330
10FE8
100
AcDbEntity
  8
图框
370
    -3
100
AcDbLine
 10
1003.652872644553
 20
531.3291676047914
 30
0.0
 11
1003.652872644553
 21
484.0347692601515
 31
0.0
1001
AcDbBlockRepETag
1070
     1
1071
      117
1005
14049
  0
LINE
  5
1404A
330
10FE8
100
AcDbEntity
  8
图框
370
    -3
100
AcDbLine
 10
965.3649733158603
 20
531.3291676047914
 30
0.0
 11
965.3649733158603
 21
509.2054027581959
 31
0.0
1001
AcDbBlockRepETag
1070
     1
1071
      118
1005
1404A
  0
LINE
  5
1404B
330
10FE8
100
AcDbEntity
  8
图框
370
    -3
100
AcDbLine
 10
956.1467379631109
 20
531.3291676047914
 30
0.0
 11
956.1467379631109
 21
509.2054027581959
 31
0.0
1001
AcDbBlockRepETag
1070
     1
1071
      119
1005
1404B
  0
MTEXT
  5
1404C
102
{ACAD_XDICTIONARY
360
1407E
102
}
330
10FE8
100
AcDbEntity
  8
图框
100
AcDbMText
 10
951.537620286737
 20
511.9708733640202
 30
0.0
 40
1.958998408821398
 41
9.218235352747692
 46
5.530941211648832
 71
     5
 72
     5
  1
{\fSimSun|b0|i0|c134|p2;标记\P\Fromans|c134;Mark}
 73
     1
 44
1.0
1001
AcDbBlockRepETag
1070
     1
1071
      120
1005
1404C
1001
ACAD
1000
ACAD_MTEXT_DEFINED_HEIGHT_BEGIN
1070
    46
1040
5.530941211648832
1000
ACAD_MTEXT_DEFINED_HEIGHT_END
  0
MTEXT
  5
1404D
102
{ACAD_XDICTIONARY
360
14080
102
}
330
10FE8
100
AcDbEntity
  8
图框
100
AcDbMText
 10
953.4185582897936
 20
493.4737568219182
 30
0.0
 40
2.252848170144607
 41
12.98011135886041
 46
6.292658374510382
 71
     5
 72
     5
  1
{\fSimSun|b0|i0|c134|p2;审核\P\Fromans|c134;Checked}
 73
     1
 44
1.0
1001
AcDbBlockRepETag
1070
     1
1071
      121
1005
1404D
1001
ACAD
1000
ACAD_MTEXT_DEFINED_HEIGHT_BEGIN
1070
    46
1040
6.292658374510382
1000
ACAD_MTEXT_DEFINED_HEIGHT_END
  0
MTEXT
  5
1404E
102
{ACAD_XDICTIONARY
360
14082
102
}
330
10FE8
100
AcDbEntity
  8
图框
100
AcDbMText
 10
953.4185582897936
 20
499.8775635376777
 30
0.0
 40
2.252848170144607
 41
12.98011135886041
 46
6.070361692014189
 71
     5
 72
     5
  1
{\fSimSun|b0|i0|c134|p2;绘图\P\Fromans|c134;Drawn\Ftxt|c134; }
 73
     1
 44
1.0
1001
AcDbBlockRepETag
1070
     1
1071
      122
1005
1404E
1001
ACAD
1000
ACAD_MTEXT_DEFINED_HEIGHT_BEGIN
1070
    46
1040
6.070361692014189
1000
ACAD_MTEXT_DEFINED_HEIGHT_END
  0
ARC
  5
1404F
330
10FE8
100
AcDbEntity
  8
图框
 62
     4
370
    35
100
AcDbCircle
 10
1086.900627017421
 20
490.0179944151195
 30
0.0
 40
4.063310408393665
100
AcDbArc
 50
18.95237904564806
 51
161.0476209543519
1001
AcDbBlockRepETag
1070
     1
1071
      123
1005
1404F
  0
ARC
  5
14050
330
10FE8
100
AcDbEntity
  8
图框
 62
     4
370
    35
100
AcDbCircle
 10
1086.900627017421
 20
490.0179944151195
 30
0.0
 40
4.063310408393665
100
AcDbArc
 50
198.952379045648
 51
341.0476209543519
1001
AcDbBlockRepETag
1070
     1
1071
      124
1005
14050
  0
LINE
  5
14051
330
10FE8
100
AcDbEntity
  8
图框
 62
     4
370
    35
100
AcDbLine
 10
1083.057593369548
 20
488.6983035966752
 30
0.0
 11
1090.74366066529
 21
488.6983035966752
 31
0.0
1001
AcDbBlockRepETag
1070
     1
1071
      125
1005
14051
  0
LINE
  5
14052
330
10FE8
100
AcDbEntity
  8
图框
 62
     4
370
    35
100
AcDbLine
 10
1083.057593369548
 20
491.3376852335652
 30
0.0
 11
1090.74366066529
 21
491.3376852335652
 31
0.0
1001
AcDbBlockRepETag
1070
     1
1071
      126
1005
14052
  0
MTEXT
  5
14053
330
10FE8
100
AcDbEntity
  8
图框
 62
     1
370
    20
100
AcDbMText
 10
1083.034582879669
 20
491.0506288081688
 30
0.0
 40
2.005930044038334
 41
5.047240019334847
 46
0.0
 71
     1
 72
     5
  1
{\fArial|b0|i0|c0|p34;W}
  7
Chinese
 73
     1
 44
1.0
1001
AcDbBlockRepETag
1070
     1
1071
      127
1005
14053
  0
LINE
  5
14054
330
10FE8
100
AcDbEntity
  8
图框
370
    -3
100
AcDbLine
 10
946.9285026103634
 20
490.327427634663
 30
0.0
 11
1036.653967466372
 21
490.327427634663
 31
0.0
1001
AcDbBlockRepETag
1070
     1
1071
      128
1005
14054
  0
LINE
  5
14055
330
10FE8
100
AcDbEntity
  8
图框
370
    -3
100
AcDbLine
 10
959.9086139692238
 20
509.2054027581959
 30
0.0
 11
959.9086139692238
 21
484.0347692601515
 31
0.0
1001
AcDbBlockRepETag
1070
     1
1071
      129
1005
14055
  0
MTEXT
  5
14056
330
10FE8
100
AcDbEntity
  8
图框
100
AcDbMText
 10
967.6594956750129
 20
506.0590735709403
 30
0.0
 40
2.252848170144607
 41
15.50176341157869
 46
6.292658374511246
 71
     5
 72
     5
  1
姓名{\Fromans|c134;/Name\Ftxt|c134; }
 73
     1
 44
1.0
1001
AcDbBlockRepETag
1070
     1
1071
      130
1005
14056
1001
ACAD
1000
ACAD_MTEXT_DEFINED_HEIGHT_BEGIN
1070
    46
1040
6.292658374511246
1000
ACAD_MTEXT_DEFINED_HEIGHT_END
  0
MTEXT
  5
14057
330
10FE8
100
AcDbEntity
  8
图框
100
AcDbMText
 10
983.0415693332477
 20
506.0590735709403
 30
0.0
 40
2.252848170144607
 41
15.26238390489042
 46
6.2926583745112
 71
     5
 72
     5
  1
日期{\Fromans|c134;/Date}
 73
     1
 44
1.0
1001
AcDbBlockRepETag
1070
     1
1071
      131
1005
14057
1001
ACAD
1000
ACAD_MTEXT_DEFINED_HEIGHT_BEGIN
1070
    46
1040
6.2926583745112
1000
ACAD_MTEXT_DEFINED_HEIGHT_END
  0
LINE
  5
14058
330
10FE8
100
AcDbEntity
  8
图框
370
    -3
100
AcDbLine
 10
946.9285026103634
 20
509.2054027581959
 30
0.0
 11
959.9086139692238
 21
502.9127443836848
 31
0.0
1001
AcDbBlockRepETag
1070
     1
1071
      132
1005
14058
  0
MTEXT
  5
14059
330
10FE8
100
AcDbEntity
  8
图框
100
AcDbMText
 10
1012.931405110086
 20
506.0185715840725
 30
0.0
 40
2.252848170144607
 41
16.93492221063566
 46
0.0
 71
     5
 72
     5
  1
姓名{\Fromans|c134;/Name}
 73
     1
 44
1.0
1001
AcDbBlockRepETag
1070
     1
1071
      133
1005
14059
  0
MTEXT
  5
1405A
330
10FE8
100
AcDbEntity
  8
图框
100
AcDbMText
 10
1028.977802139886
 20
506.0590735709403
 30
0.0
 40
2.252848170144607
 41
15.35233065297283
 46
6.292658374511256
 71
     5
 72
     5
  1
日期{\Fromans|c134;/Date}
 73
     1
 44
1.0
1001
AcDbBlockRepETag
1070
     1
1071
      134
1005
1405A
1001
ACAD
1000
ACAD_MTEXT_DEFINED_HEIGHT_BEGIN
1070
    46
1040
6.292658374511256
1000
ACAD_MTEXT_DEFINED_HEIGHT_END
  0
LINE
  5
1405B
330
10FE8
100
AcDbEntity
  8
图框
370
    -3
100
AcDbLine
 10
1003.652872644553
 20
502.9127443836848
 30
0.0
 11
990.6727612856927
 21
509.2054027581959
 31
0.0
1001
AcDbBlockRepETag
1070
     1
1071
      135
1005
1405B
  0
MTEXT
  5
1405C
102
{ACAD_XDICTIONARY
360
14084
102
}
330
10FE8
100
AcDbEntity
  8
图框
100
AcDbMText
 10
997.1628169651232
 20
487.1810984474071
 30
0.0
 40
2.252848170144607
 41
12.98011135886052
 46
6.292658374511517
 71
     5
 72
     5
  1
{\fSimSun|b0|i0|c134|p2;批准\P\Fromans|c134;Approved}
 73
     1
 44
1.0
1001
AcDbBlockRepETag
1070
     1
1071
      136
1005
1405C
1001
ACAD
1000
ACAD_MTEXT_DEFINED_HEIGHT_BEGIN
1070
    46
1040
6.292658374511517
1000
ACAD_MTEXT_DEFINED_HEIGHT_END
  0
MTEXT
  5
1405D
102
{ACAD_XDICTIONARY
360
14086
102
}
330
10FE8
100
AcDbEntity
  8
图框
100
AcDbMText
 10
953.4185582897936
 20
487.1810984474071
 30
0.0
 40
2.252848170144607
 41
12.98011135886041
 46
6.292658374511495
 71
     5
 72
     5
  1
{\fSimSun|b0|i0|c134|p2;工艺\P\Fromans|c134;Process}
 73
     1
 44
1.0
1001
AcDbBlockRepETag
1070
     1
1071
      137
1005
1405D
1001
ACAD
1000
ACAD_MTEXT_DEFINED_HEIGHT_BEGIN
1070
    46
1040
6.292658374511495
1000
ACAD_MTEXT_DEFINED_HEIGHT_END
  0
MTEXT
  5
1405E
102
{ACAD_XDICTIONARY
360
14088
102
}
330
10FE8
100
AcDbEntity
  8
图框
100
AcDbMText
 10
1028.977802139886
 20
511.9708733640202
 30
0.0
 40
1.958998408821398
 41
15.3523306529728
 46
5.530941211648912
 71
     5
 72
     5
  1
{\fSimSun|b0|i0|c134|p2;日期\P\Fromans|c134;Date}
 73
     1
 44
1.0
1001
AcDbBlockRepETag
1070
     1
1071
      138
1005
1405E
1001
ACAD
1000
ACAD_MTEXT_DEFINED_HEIGHT_BEGIN
1070
    46
1040
5.530941211648912
1000
ACAD_MTEXT_DEFINED_HEIGHT_END
  0
MTEXT
  5
1405F
330
10FE8
100
AcDbEntity
  8
图框
100
AcDbMText
 10
1086.643735910939
 20
509.1493769780809
 30
0.0
 40
2.154898249703542
 41
13.34474941400573
 46
8.87215554796615
 71
     5
 72
     5
  1
产品料号\P{\Fromans|c134;Part No.}
 73
     1
 44
1.0
1001
AcDbBlockRepETag
1070
     1
1071
      139
1005
1405F
1001
ACAD
1000
ACAD_MTEXT_DEFINED_HEIGHT_BEGIN
1070
    46
1040
8.87215554796615
1000
ACAD_MTEXT_DEFINED_HEIGHT_END
  0
MTEXT
  5
14060
330
10FE8
100
AcDbEntity
  8
图框
100
AcDbMText
 10
1086.643735910939
 20
500.2775205517163
 30
0.0
 40
1.958998408821398
 41
13.34474941400573
 46
8.871557304763321
 71
     5
 72
     5
  1
产品名称\P{\Fromans|c134;Part Name}
 73
     1
 44
1.0
1001
AcDbBlockRepETag
1070
     1
1071
      140
1005
14060
1001
ACAD
1000
ACAD_MTEXT_DEFINED_HEIGHT_BEGIN
1070
    46
1040
8.871557304763321
1000
ACAD_MTEXT_DEFINED_HEIGHT_END
  0
LINE
  5
14061
330
10FE8
100
AcDbEntity
  8
图框
 62
     1
370
    18
100
AcDbLine
 10
833.4128518455365
 20
690.5347692601515
 30
0.0
 11
833.4128518455365
 21
480.5347692601515
 31
0.0
1001
AcDbBlockRepETag
1070
     1
1071
      141
1005
14061
  0
LINE
  5
14062
330
10FE8
100
AcDbEntity
  8
图框
 62
     1
370
    18
100
AcDbLine
 10
833.4128518455365
 20
480.5347692601515
 30
0.0
 11
1130.411601781236
 21
480.5347692601515
 31
0.0
1001
AcDbBlockRepETag
1070
     1
1071
      142
1005
14062
  0
LINE
  5
14063
330
10FE8
100
AcDbEntity
  8
图框
 62
     1
370
    18
100
AcDbLine
 10
833.4128518455365
 20
690.5347692601515
 30
0.0
 11
1130.411601781236
 21
690.5347692601515
 31
0.0
1001
AcDbBlockRepETag
1070
     1
1071
      143
1005
14063
  0
LINE
  5
14064
330
10FE8
100
AcDbEntity
  8
图框
 62
     1
370
    18
100
AcDbLine
 10
1130.411601781236
 20
480.5347692601515
 30
0.0
 11
1130.411601781236
 21
690.5347692601515
 31
0.0
1001
AcDbBlockRepETag
1070
     1
1071
      144
1005
14064
  0
LINE
  5
14065
330
10FE8
100
AcDbEntity
  8
图框
370
    18
100
AcDbLine
 10
836.9128518455394
 20
686.7901958362482
 30
0.0
 11
861.5351874539182
 21
686.7901958362482
 31
0.0
1001
AcDbBlockRepETag
1070
     1
1071
      145
1005
14065
  0
LINE
  5
14066
330
10FE8
100
AcDbEntity
  8
图框
370
    50
100
AcDbLine
 10
1126.928502610363
 20
484.3410054693078
 30
0.0
 11
1126.928502610363
 21
675.5347692601515
 31
0.0
1001
AcDbBlockRepETag
1070
     1
1071
      146
1005
14066
  0
MTEXT
  5
14067
330
10FE8
100
AcDbEntity
  8
图框
 62
     3
100
AcDbMText
 10
1052.897990117958
 20
495.8417418993364
 30
0.0
 40
2.985513575034151
 41
10.82934843439114
 46
7.886094601211307
 71
     5
 72
     5
  1
V1.1
  7
Romans字体
 73
     1
 44
1.0
1001
AcDbBlockRepETag
1070
     1
1071
      147
1005
14067
1001
ACAD
1000
ACAD_MTEXT_DEFINED_HEIGHT_BEGIN
1070
    46
1040
7.886094601211307
1000
ACAD_MTEXT_DEFINED_HEIGHT_END
  0
LINE
  5
14068
330
10FE8
100
AcDbEntity
  8
图框
 62
     6
100
AcDbLine
 10
1126.911601781236
 20
531.714049199969
 30
0.0
 11
1130.411601781236
 21
531.714049199969
 31
0.0
1001
AcDbBlockRepETag
1070
     1
1071
      148
1005
14068
  0
ENDBLK
  5
1107F
330
10FE8
100
AcDbEntity
  8
0
100
AcDbBlockEnd
  0
BLOCK
  5
133AF
330
133AE
100
AcDbEntity
  8
0
100
AcDbBlockBegin
  2
*D2
 70
     1
 10
0.0
 20
0.0
 30
0.0
  3
*D2
  1

  0
LINE
  5
13440
330
133AE
100
AcDbEntity
  8
DIM
 62
     6
370
    -2
100
AcDbLine
 10
574.5966911673167
 20
232.8902699192759
 30
0.0
 11
574.5966911673167
 21
227.1200607055134
 31
0.0
  0
LINE
  5
13441
330
133AE
100
AcDbEntity
  8
DIM
 62
     6
370
    -2
100
AcDbLine
 10
582.09669116729
 20
234.4683592052255
 30
0.0
 11
582.09669116729
 21
227.1200607055134
 31
0.0
  0
LINE
  5
13442
330
133AE
100
AcDbEntity
  8
DIM
 62
     1
370
    -2
100
AcDbLine
 10
576.0966911673167
 20
227.6200607055134
 30
0.0
 11
580.59669116729
 21
227.6200607055134
 31
0.0
  0
SOLID
  5
13443
330
133AE
100
AcDbEntity
  8
DIM
 62
     1
100
AcDbTrace
 10
576.0966911673167
 20
227.8700607055134
 30
0.0
 11
576.0966911673167
 21
227.3700607055134
 31
0.0
 12
574.5966911673167
 22
227.6200607055134
 32
0.0
 13
574.5966911673167
 23
227.6200607055134
 33
0.0
  0
SOLID
  5
13444
330
133AE
100
AcDbEntity
  8
DIM
 62
     1
100
AcDbTrace
 10
580.59669116729
 20
227.8700607055134
 30
0.0
 11
580.59669116729
 21
227.3700607055134
 31
0.0
 12
582.09669116729
 22
227.6200607055134
 32
0.0
 13
582.09669116729
 23
227.6200607055134
 33
0.0
  0
MTEXT
  5
13445
330
133AE
100
AcDbEntity
  8
DIM
 62
     4
100
AcDbMText
 10
578.3466911673031
 20
229.1200607055134
 30
0.0
 40
2.0
 41
0.0
 46
0.0
 71
     5
 72
     1
  1
\A1;7.5
  7
Romans字体
 73
     1
 44
1.0
  0
POINT
  5
13446
330
133AE
100
AcDbEntity
  8
Defpoints
 62
     0
100
AcDbPoint
 10
574.5966911673167
 20
233.0902699192759
 30
0.0
  0
POINT
  5
13447
330
133AE
100
AcDbEntity
  8
Defpoints
 62
     0
100
AcDbPoint
 10
582.09669116729
 20
234.6683592052254
 30
0.0
  0
POINT
  5
13448
330
133AE
100
AcDbEntity
  8
Defpoints
 62
     0
100
AcDbPoint
 10
582.09669116729
 20
227.6200607055134
 30
0.0
  0
ENDBLK
  5
133B0
330
133AE
100
AcDbEntity
  8
0
100
AcDbBlockEnd
  0
BLOCK
  5
133BB
330
133BA
100
AcDbEntity
  8
0
100
AcDbBlockBegin
  2
*D3
 70
     1
 10
0.0
 20
0.0
 30
0.0
  3
*D3
  1

  0
LINE
  5
13424
330
133BA
100
AcDbEntity
  8
DIM
 62
     6
370
    -2
100
AcDbLine
 10
574.3966911673167
 20
238.0433592046944
 30
0.0
 11
568.9083635926757
 21
238.0433592046944
 31
0.0
  0
LINE
  5
13425
330
133BA
100
AcDbEntity
  8
DIM
 62
     6
370
    -2
100
AcDbLine
 10
574.3966911673167
 20
233.5433592042041
 30
0.0
 11
568.9083635926757
 21
233.5433592042041
 31
0.0
  0
LINE
  5
13426
330
133BA
100
AcDbEntity
  8
DIM
 62
     1
370
    -2
100
AcDbLine
 10
569.4083635926757
 20
236.5433592046944
 30
0.0
 11
569.4083635926757
 21
235.0433592042041
 31
0.0
  0
SOLID
  5
13427
330
133BA
100
AcDbEntity
  8
DIM
 62
     1
100
AcDbTrace
 10
569.1583635926757
 20
236.5433592046944
 30
0.0
 11
569.6583635926757
 21
236.5433592046944
 31
0.0
 12
569.4083635926757
 22
238.0433592046944
 32
0.0
 13
569.4083635926757
 23
238.0433592046944
 33
0.0
  0
SOLID
  5
13428
330
133BA
100
AcDbEntity
  8
DIM
 62
     1
100
AcDbTrace
 10
569.1583635926757
 20
235.0433592042041
 30
0.0
 11
569.6583635926757
 21
235.0433592042041
 31
0.0
 12
569.4083635926757
 22
233.5433592042041
 32
0.0
 13
569.4083635926757
 23
233.5433592042041
 33
0.0
  0
MTEXT
  5
13429
330
133BA
100
AcDbEntity
  8
DIM
 62
     4
100
AcDbMText
 10
567.9083635926757
 20
235.7933592044494
 30
0.0
 40
2.0
 41
0.0
 46
0.0
 71
     5
 72
     1
  1
\A1;%%C4.5
  7
Romans字体
 11
0.0000000000000001
 21
1.0
 31
0.0
 73
     1
 44
1.0
  0
POINT
  5
1342A
330
133BA
100
AcDbEntity
  8
Defpoints
 62
     0
100
AcDbPoint
 10
574.5966911673167
 20
238.0433592046944
 30
0.0
  0
POINT
  5
1342B
330
133BA
100
AcDbEntity
  8
Defpoints
 62
     0
100
AcDbPoint
 10
574.5966911673167
 20
233.5433592042041
 30
0.0
  0
POINT
  5
1342C
330
133BA
100
AcDbEntity
  8
Defpoints
 62
     0
100
AcDbPoint
 10
569.4083635926757
 20
233.5433592042041
 30
0.0
  0
ENDBLK
  5
133BC
330
133BA
100
AcDbEntity
  8
0
100
AcDbBlockEnd
  0
BLOCK
  5
133C7
330
133C6
100
AcDbEntity
  8
0
100
AcDbBlockBegin
  2
*D4
 70
     1
 10
0.0
 20
0.0
 30
0.0
  3
*D4
  1

  0
LINE
  5
13453
330
133C6
100
AcDbEntity
  8
DIM
 62
     6
370
    -2
100
AcDbLine
 10
575.652428001502
 20
236.918359205095
 30
0.0
 11
572.3619517653816
 21
236.918359205095
 31
0.0
  0
LINE
  5
13454
330
133C6
100
AcDbEntity
  8
DIM
 62
     6
370
    -2
100
AcDbLine
 10
575.6524280015524
 20
234.668359205095
 30
0.0
 11
572.3619517653816
 21
234.668359205095
 31
0.0
  0
LINE
  5
13455
330
133C6
100
AcDbEntity
  8
DIM
 62
     1
370
    -2
100
AcDbLine
 10
572.8619517653817
 20
238.418359205095
 30
0.0
 11
572.8619517653817
 21
239.918359205095
 31
0.0
  0
LINE
  5
13456
330
133C6
100
AcDbEntity
  8
DIM
 62
     1
370
    -2
100
AcDbLine
 10
572.8619517653817
 20
233.168359205095
 30
0.0
 11
572.8619517653817
 21
231.668359205095
 31
0.0
  0
SOLID
  5
13457
330
133C6
100
AcDbEntity
  8
DIM
 62
     1
100
AcDbTrace
 10
572.6119517653817
 20
238.418359205095
 30
0.0
 11
573.1119517653817
 21
238.418359205095
 31
0.0
 12
572.8619517653817
 22
236.918359205095
 32
0.0
 13
572.8619517653817
 23
236.918359205095
 33
0.0
  0
SOLID
  5
13458
330
133C6
100
AcDbEntity
  8
DIM
 62
     1
100
AcDbTrace
 10
572.6119517653817
 20
233.168359205095
 30
0.0
 11
573.1119517653817
 21
233.168359205095
 31
0.0
 12
572.8619517653817
 22
234.668359205095
 32
0.0
 13
572.8619517653817
 23
234.668359205095
 33
0.0
  0
MTEXT
  5
13459
330
133C6
100
AcDbEntity
  8
DIM
 62
     4
100
AcDbMText
 10
571.3619517653817
 20
235.7933592050951
 30
0.0
 40
2.0
 41
0.0
 46
0.0
 71
     5
 72
     1
  1
\A1;%%Cd
  7
Romans字体
 11
0.0000000000000001
 21
1.0
 31
0.0
 73
     1
 44
1.0
  0
POINT
  5
1345A
330
133C6
100
AcDbEntity
  8
Defpoints
 62
     0
100
AcDbPoint
 10
575.8524280015016
 20
236.918359205095
 30
0.0
  0
POINT
  5
1345B
330
133C6
100
AcDbEntity
  8
Defpoints
 62
     0
100
AcDbPoint
 10
575.8524280015523
 20
234.668359205095
 30
0.0
  0
POINT
  5
1345C
330
133C6
100
AcDbEntity
  8
Defpoints
 62
     0
100
AcDbPoint
 10
572.8619517653817
 20
234.668359205095
 30
0.0
  0
ENDBLK
  5
133C8
330
133C6
100
AcDbEntity
  8
0
100
AcDbBlockEnd
  0
BLOCK
  5
133D4
330
133D3
100
AcDbEntity
  8
0
100
AcDbBlockBegin
  2
*D5
 70
     1
 10
0.0
 20
0.0
 30
0.0
  3
*D5
  1

  0
LINE
  5
13436
330
133D3
100
AcDbEntity
  8
DIM
 62
     6
370
    -2
100
AcDbLine
 10
598.5466911678567
 20
237.043359205714
 30
0.0
 11
605.0181953679135
 21
237.043359205714
 31
0.0
  0
LINE
  5
13437
330
133D3
100
AcDbEntity
  8
DIM
 62
     6
370
    -2
100
AcDbLine
 10
598.5466911678567
 20
234.543359204454
 30
0.0
 11
605.0181953679135
 21
234.543359204454
 31
0.0
  0
LINE
  5
13438
330
133D3
100
AcDbEntity
  8
DIM
 62
     1
370
    -2
100
AcDbLine
 10
604.5181953679133
 20
238.5433592057141
 30
0.0
 11
604.5181953679133
 21
240.043359205714
 31
0.0
  0
LINE
  5
13439
330
133D3
100
AcDbEntity
  8
DIM
 62
     1
370
    -2
100
AcDbLine
 10
604.5181953679133
 20
233.0433592044541
 30
0.0
 11
604.5181953679133
 21
225.9719306330254
 31
0.0
  0
SOLID
  5
1343A
330
133D3
100
AcDbEntity
  8
DIM
 62
     1
100
AcDbTrace
 10
604.2681953679133
 20
238.5433592057141
 30
0.0
 11
604.7681953679133
 21
238.5433592057141
 31
0.0
 12
604.5181953679133
 22
237.043359205714
 32
0.0
 13
604.5181953679133
 23
237.043359205714
 33
0.0
  0
SOLID
  5
1343B
330
133D3
100
AcDbEntity
  8
DIM
 62
     1
100
AcDbTrace
 10
604.2681953679133
 20
233.0433592044541
 30
0.0
 11
604.7681953679133
 21
233.0433592044541
 31
0.0
 12
604.5181953679133
 22
234.543359204454
 32
0.0
 13
604.5181953679133
 23
234.543359204454
 33
0.0
  0
MTEXT
  5
1343C
330
133D3
100
AcDbEntity
  8
DIM
 62
     4
100
AcDbMText
 10
603.0181953679133
 20
228.7576449187399
 30
0.0
 40
2.0
 41
0.0
 46
0.0
 71
     5
 72
     1
  1
\A1;{\Fromand,hztxt|c134;%%C}2.5
  7
Romans字体
 11
0.0000000000000001
 21
1.0
 31
0.0
 73
     1
 44
1.0
  0
POINT
  5
1343D
330
133D3
100
AcDbEntity
  8
Defpoints
 62
     0
100
AcDbPoint
 10
598.3466911678568
 20
237.043359205714
 30
0.0
  0
POINT
  5
1343E
330
133D3
100
AcDbEntity
  8
Defpoints
 62
     0
100
AcDbPoint
 10
598.3466911678568
 20
234.543359204454
 30
0.0
  0
POINT
  5
1343F
330
133D3
100
AcDbEntity
  8
Defpoints
 62
     0
100
AcDbPoint
 10
604.5181953679133
 20
234.543359204454
 30
0.0
  0
ENDBLK
  5
133D5
330
133D3
100
AcDbEntity
  8
0
100
AcDbBlockEnd
  0
BLOCK
  5
133EA
330
133E9
100
AcDbEntity
  8
0
100
AcDbBlockBegin
  2
*D6
 70
     1
 10
0.0
 20
0.0
 30
0.0
  3
*D6
  1

  0
LINE
  5
13449
330
133E9
100
AcDbEntity
  8
DIM
 62
     6
370
    -2
100
AcDbLine
 10
578.3763173034997
 20
234.0433592051557
 30
0.0
 11
577.6138007527666
 21
234.0433592051557
 31
0.0
  0
LINE
  5
1344A
330
133E9
100
AcDbEntity
  8
DIM
 62
     6
370
    -2
100
AcDbLine
 10
578.90131730308
 20
237.5433592051672
 30
0.0
 11
577.6138007527666
 21
237.5433592051672
 31
0.0
  0
LINE
  5
1344B
330
133E9
100
AcDbEntity
  8
DIM
 62
     1
370
    -2
100
AcDbLine
 10
578.1138007527665
 20
232.5433592051556
 30
0.0
 11
578.1138007527665
 21
231.0433592051559
 31
0.0
  0
LINE
  5
1344C
330
133E9
100
AcDbEntity
  8
DIM
 62
     1
370
    -2
100
AcDbLine
 10
578.1138007527665
 20
239.0433592051672
 30
0.0
 11
578.1138007527665
 21
243.9719306337387
 31
0.0
  0
SOLID
  5
1344D
330
133E9
100
AcDbEntity
  8
DIM
 62
     1
100
AcDbTrace
 10
577.8638007527661
 20
232.5433592051556
 30
0.0
 11
578.3638007527662
 21
232.5433592051556
 31
0.0
 12
578.1138007527665
 22
234.0433592051557
 32
0.0
 13
578.1138007527665
 23
234.0433592051557
 33
0.0
  0
SOLID
  5
1344E
330
133E9
100
AcDbEntity
  8
DIM
 62
     1
100
AcDbTrace
 10
577.8638007527661
 20
239.0433592051672
 30
0.0
 11
578.3638007527662
 21
239.0433592051672
 31
0.0
 12
578.1138007527665
 22
237.5433592051672
 32
0.0
 13
578.1138007527665
 23
237.5433592051672
 33
0.0
  0
MTEXT
  5
1344F
330
133E9
100
AcDbEntity
  8
DIM
 62
     4
100
AcDbMText
 10
576.6138007527662
 20
242.2576449194531
 30
0.0
 40
2.0
 41
0.0
 46
0.0
 71
     5
 72
     1
  1
\A1;%%CD
  7
Romans字体
 11
0.0000000000000001
 21
1.0
 31
0.0
 73
     1
 44
1.0
  0
POINT
  5
13450
330
133E9
100
AcDbEntity
  8
Defpoints
 62
     0
100
AcDbPoint
 10
578.5763173034998
 20
234.0433592051557
 30
0.0
  0
POINT
  5
13451
330
133E9
100
AcDbEntity
  8
Defpoints
 62
     0
100
AcDbPoint
 10
579.1013173030802
 20
237.5433592051672
 30
0.0
  0
POINT
  5
13452
330
133E9
100
AcDbEntity
  8
Defpoints
 62
     0
100
AcDbPoint
 10
578.1138007527665
 20
237.5433592051672
 30
0.0
  0
ENDBLK
  5
133EB
330
133E9
100
AcDbEntity
  8
0
100
AcDbBlockEnd
  0
BLOCK
  5
13400
330
133FF
100
AcDbEntity
  8
0
100
AcDbBlockBegin
  2
*D7
 70
     1
 10
0.0
 20
0.0
 30
0.0
  3
*D7
  1

  0
LINE
  5
1342D
330
133FF
100
AcDbEntity
  8
DIM
 62
     6
370
    -2
100
AcDbLine
 10
599.5966911684868
 20
235.5933592050841
 30
0.0
 11
599.5966911684868
 21
224.2055344826908
 31
0.0
  0
LINE
  5
1342E
330
133FF
100
AcDbEntity
  8
DIM
 62
     6
370
    -2
100
AcDbLine
 10
574.5966911673167
 20
233.3433592042041
 30
0.0
 11
574.5966911673167
 21
224.2055344826908
 31
0.0
  0
LINE
  5
1342F
330
133FF
100
AcDbEntity
  8
DIM
 62
     1
370
    -2
100
AcDbLine
 10
598.0966911684868
 20
224.7055344826909
 30
0.0
 11
576.0966911673167
 21
224.7055344826909
 31
0.0
  0
SOLID
  5
13430
330
133FF
100
AcDbEntity
  8
DIM
 62
     1
100
AcDbTrace
 10
598.0966911684868
 20
224.9555344826909
 30
0.0
 11
598.0966911684868
 21
224.4555344826909
 31
0.0
 12
599.5966911684868
 22
224.7055344826909
 32
0.0
 13
599.5966911684868
 23
224.7055344826909
 33
0.0
  0
SOLID
  5
13431
330
133FF
100
AcDbEntity
  8
DIM
 62
     1
100
AcDbTrace
 10
576.0966911673167
 20
224.9555344826909
 30
0.0
 11
576.0966911673167
 21
224.4555344826909
 31
0.0
 12
574.5966911673167
 22
224.7055344826909
 32
0.0
 13
574.5966911673167
 23
224.7055344826909
 33
0.0
  0
MTEXT
  5
13432
330
133FF
100
AcDbEntity
  8
DIM
 62
     4
100
AcDbMText
 10
587.0966911679015
 20
226.2055344826908
 30
0.0
 40
2.0
 41
0.0
 46
0.0
 71
     5
 72
     1
  1
\A1;25
  7
Romans字体
 73
     1
 44
1.0
  0
POINT
  5
13433
330
133FF
100
AcDbEntity
  8
Defpoints
 62
     0
100
AcDbPoint
 10
599.5966911684868
 20
235.793359205084
 30
0.0
  0
POINT
  5
13434
330
133FF
100
AcDbEntity
  8
Defpoints
 62
     0
100
AcDbPoint
 10
574.5966911673167
 20
233.5433592042041
 30
0.0
  0
POINT
  5
13435
330
133FF
100
AcDbEntity
  8
Defpoints
 62
     0
100
AcDbPoint
 10
574.5966911673167
 20
224.7055344826909
 30
0.0
  0
ENDBLK
  5
13401
330
133FF
100
AcDbEntity
  8
0
100
AcDbBlockEnd
  0
ENDSEC
  0
SECTION
  2
ENTITIES
  0
HATCH
  5
28AE
330
1F
100
AcDbEntity
  8
图层 1
 62
     7
100
AcDbHatch
 10
0.0
 20
0.0
 30
0.0
210
0.0
220
0.0
230
1.0
  2
SOLID
 70
     1
 71
     0
 91
        1
 92
        1
 93
        2
 72
     4
 94
        3
 73
     0
 74
     0
 95
       17
 96
       13
 40
0.0
 40
0.0
 40
0.0
 40
0.0
 40
0.3527780104152769
 40
0.3527780104152769
 40
0.3527780104152769
 40
0.7055560208305538
 40
0.7055560208305538
 40
0.7055560208305538
 40
1.058334031245828
 40
1.058334031245828
 40
1.058334031245828
 40
1.411112041661104
 40
1.411112041661104
 40
1.411112041661104
 40
1.411112041661104
 10
11.07013262565829
 20
29.50312817963231
 10
11.07013262565829
 20
29.50312817963231
 10
10.9431807732774
 20
29.50312817963231
 10
10.9431807732774
 20
29.50312817963231
 10
10.9431807732774
 20
29.50312817963231
 10
10.85843136843155
 20
29.22786486877117
 10
10.85843136843155
 20
29.22786486877117
 10
10.85843136843155
 20
29.22786486877117
 10
10.90080607085448
 20
29.2068497724476
 10
10.90080607085448
 20
29.2068497724476
 10
10.94455881238059
 20
29.31571486159919
 10
11.00346998404173
 20
29.40907701083995
 10
11.07013262565829
 20
29.50312817963231
 72
     1
 10
11.07013262565829
 20
29.50312817963231
 11
11.07013262565829
 21
29.50312817963231
 97
        0
 75
     0
 76
     1
 98
        0
450
        0
451
        0
460
0.0
461
0.0
452
        0
462
0.0
453
        0
470

  0
HATCH
  5
2C65
330
1F
100
AcDbEntity
  8
图层 1
 62
     7
100
AcDbHatch
 10
0.0
 20
0.0
 30
0.0
210
0.0
220
0.0
230
1.0
  2
SOLID
 70
     1
 71
     0
 91
        1
 92
        1
 93
        2
 72
     4
 94
        3
 73
     0
 74
     0
 95
       47
 96
       43
 40
0.0
 40
0.0
 40
0.0
 40
0.0
 40
0.3527780104152769
 40
0.3527780104152769
 40
0.3527780104152769
 40
0.7055560208305538
 40
0.7055560208305538
 40
0.7055560208305538
 40
1.058334031245828
 40
1.058334031245828
 40
1.058334031245828
 40
1.411112041661104
 40
1.411112041661104
 40
1.411112041661104
 40
1.763890052076384
 40
1.763890052076384
 40
1.763890052076384
 40
2.116668062491659
 40
2.116668062491659
 40
2.116668062491659
 40
2.469446072906936
 40
2.469446072906936
 40
2.469446072906936
 40
2.822224083322215
 40
2.822224083322215
 40
2.822224083322215
 40
3.175002093737492
 40
3.175002093737492
 40
3.175002093737492
 40
3.527780104152768
 40
3.527780104152768
 40
3.527780104152768
 40
3.880558114568044
 40
3.880558114568044
 40
3.880558114568044
 40
4.233336124983321
 40
4.233336124983321
 40
4.233336124983321
 40
4.586114135398599
 40
4.586114135398599
 40
4.586114135398599
 40
4.938892145813873
 40
4.938892145813873
 40
4.938892145813873
 40
4.938892145813873
 10
162.8986914070121
 20
257.4895347631509
 10
162.8986914070121
 20
257.4895347631509
 10
162.9200510131114
 20
257.4471600607279
 10
162.9200510131114
 20
257.4471600607279
 10
162.9200510131114
 20
257.4471600607279
 10
162.9200510131114
 20
257.404785358305
 10
162.9200510131114
 20
257.404785358305
 10
162.9200510131114
 20
257.404785358305
 10
162.8986914070121
 20
257.36258291077
 10
162.8986914070121
 20
257.36258291077
 10
162.8986914070121
 20
257.36258291077
 10
162.8986914070121
 20
257.320208208347
 10
162.8986914070121
 20
257.320208208347
 10
162.8986914070121
 20
257.320208208347
 10
162.8563167045891
 20
257.2990208571356
 10
162.8563167045891
 20
257.2990208571356
 10
162.8563167045891
 20
257.2990208571356
 10
162.8139420021662
 20
257.2563016449369
 10
162.8139420021662
 20
257.2563016449369
 10
162.8139420021662
 20
257.2563016449369
 10
162.7295371070961
 20
257.2563016449369
 10
162.7295371070961
 20
257.2563016449369
 10
162.7295371070961
 20
257.2563016449369
 10
162.6658027985738
 20
257.2778335059241
 10
162.6658027985738
 20
257.2778335059241
 10
162.6658027985738
 20
257.2778335059241
 10
162.6237726059267
 20
257.2990208571356
 10
162.6237726059267
 20
257.2990208571356
 10
162.6237726059267
 20
257.2990208571356
 10
162.5813979035038
 20
257.3413955595585
 10
162.5813979035038
 20
257.3413955595585
 10
162.5813979035038
 20
257.3413955595585
 10
162.5813979035038
 20
257.4895347631509
 10
162.5813979035038
 20
257.4895347631509
 10
162.5813979035038
 20
257.4895347631509
 10
162.6447877022503
 20
257.5525800521216
 10
162.6447877022503
 20
257.5525800521216
 10
162.6447877022503
 20
257.5525800521216
 10
162.7081775009967
 20
257.5525800521216
 10
162.7081775009967
 20
257.5525800521216
 10
162.8749202324821
 20
257.5424170137356
 10
162.7918933765152
 20
257.5939212252171
 10
162.8986914070121
 20
257.4895347631509
 72
     1
 10
162.8986914070121
 20
257.4895347631509
 11
162.8986914070121
 21
257.4895347631509
 97
        0
 75
     0
 76
     1
 98
        0
450
        0
451
        0
460
0.0
461
0.0
452
        0
462
0.0
453
        0
470

  0
HATCH
  5
2EE7
330
1F
100
AcDbEntity
  8
图层 1
 62
     7
100
AcDbHatch
 10
0.0
 20
0.0
 30
0.0
210
0.0
220
0.0
230
1.0
  2
SOLID
 70
     1
 71
     0
 91
        1
 92
        1
 93
        2
 72
     4
 94
        3
 73
     0
 74
     0
 95
       56
 96
       52
 40
0.0
 40
0.0
 40
0.0
 40
0.0
 40
0.3527780104152769
 40
0.3527780104152769
 40
0.3527780104152769
 40
0.7055560208305538
 40
0.7055560208305538
 40
0.7055560208305538
 40
1.058334031245828
 40
1.058334031245828
 40
1.058334031245828
 40
1.411112041661104
 40
1.411112041661104
 40
1.411112041661104
 40
1.763890052076384
 40
1.763890052076384
 40
1.763890052076384
 40
2.116668062491659
 40
2.116668062491659
 40
2.116668062491659
 40
2.469446072906936
 40
2.469446072906936
 40
2.469446072906936
 40
2.822224083322215
 40
2.822224083322215
 40
2.822224083322215
 40
3.175002093737492
 40
3.175002093737492
 40
3.175002093737492
 40
3.527780104152768
 40
3.527780104152768
 40
3.527780104152768
 40
3.880558114568044
 40
3.880558114568044
 40
3.880558114568044
 40
4.233336124983321
 40
4.233336124983321
 40
4.233336124983321
 40
4.586114135398599
 40
4.586114135398599
 40
4.586114135398599
 40
4.938892145813873
 40
4.938892145813873
 40
4.938892145813873
 40
5.291670156229153
 40
5.291670156229153
 40
5.291670156229153
 40
5.64444816664443
 40
5.64444816664443
 40
5.64444816664443
 40
5.997226177059705
 40
5.997226177059705
 40
5.997226177059705
 40
5.997226177059705
 10
185.4837187788815
 20
241.4451977396596
 10
185.4837187788815
 20
241.4451977396596
 10
185.4837187788815
 20
241.4028230372367
 10
185.4837187788815
 20
241.4028230372367
 10
185.4837187788815
 20
241.4028230372367
 10
185.5047338752051
 20
241.3604483348137
 10
185.5047338752051
 20
241.3604483348137
 10
185.4520238795082
 20
241.2782827532863
 10
185.4671823096433
 20
241.1897437409066
 10
185.335579575289
 20
241.2119646214456
 10
185.335579575289
 20
241.2119646214456
 10
185.2932048728662
 20
241.2119646214456
 10
185.2932048728662
 20
241.2119646214456
 10
185.2932048728662
 20
241.2119646214456
 10
185.2294705643439
 20
241.2334964824328
 10
185.2294705643439
 20
241.2334964824328
 10
185.2294705643439
 20
241.2334964824328
 10
185.1660807655974
 20
241.2543393238685
 10
185.1660807655974
 20
241.2543393238685
 10
185.1660807655974
 20
241.2543393238685
 10
185.1450656692739
 20
241.2758711848558
 10
185.1450656692739
 20
241.2758711848558
 10
185.1450656692739
 20
241.2758711848558
 10
185.1450656692739
 20
241.2967140262914
 10
185.1450656692739
 20
241.2967140262914
 10
185.1450656692739
 20
241.2967140262914
 10
185.1237060631745
 20
241.3604483348137
 10
185.1237060631745
 20
241.3604483348137
 10
185.1237060631745
 20
241.3604483348137
 10
185.1237060631745
 20
241.4028230372367
 10
185.1237060631745
 20
241.4028230372367
 10
185.1237060631745
 20
241.4028230372367
 10
185.1660807655974
 20
241.4875724420825
 10
185.1660807655974
 20
241.4875724420825
 10
185.1660807655974
 20
241.4875724420825
 10
185.2084554680203
 20
241.5085875384061
 10
185.2084554680203
 20
241.5085875384061
 10
185.2084554680203
 20
241.5085875384061
 10
185.2718452667668
 20
241.5297748896175
 10
185.2718452667668
 20
241.5297748896175
 10
185.2718452667668
 20
241.5297748896175
 10
185.3565946716127
 20
241.5297748896175
 10
185.3565946716127
 20
241.5297748896175
 10
185.3565946716127
 20
241.5297748896175
 10
185.4199844703592
 20
241.5085875384061
 10
185.4199844703592
 20
241.5085875384061
 10
185.4199844703592
 20
241.5085875384061
 10
185.4623591727821
 20
241.4875724420825
 10
185.4623591727821
 20
241.4875724420825
 10
185.4623591727821
 20
241.4875724420825
 10
185.4837187788815
 20
241.4451977396596
 10
185.4837187788815
 20
241.4451977396596
 72
     1
 10
185.4837187788815
 20
241.4451977396596
 11
185.4837187788815
 21
241.4451977396596
 97
        0
 75
     0
 76
     1
 98
        0
450
        0
451
        0
460
0.0
461
0.0
452
        0
462
0.0
453
        0
470

  0
HATCH
  5
2F93
330
1F
100
AcDbEntity
  8
图层 1
 62
     7
100
AcDbHatch
 10
0.0
 20
0.0
 30
0.0
210
0.0
220
0.0
230
1.0
  2
SOLID
 70
     1
 71
     0
 91
        1
 92
        1
 93
        2
 72
     4
 94
        3
 73
     0
 74
     0
 95
       38
 96
       34
 40
0.0
 40
0.0
 40
0.0
 40
0.0
 40
0.3527780104152769
 40
0.3527780104152769
 40
0.3527780104152769
 40
0.7055560208305538
 40
0.7055560208305538
 40
0.7055560208305538
 40
1.058334031245828
 40
1.058334031245828
 40
1.058334031245828
 40
1.411112041661104
 40
1.411112041661104
 40
1.411112041661104
 40
1.763890052076384
 40
1.763890052076384
 40
1.763890052076384
 40
2.116668062491659
 40
2.116668062491659
 40
2.116668062491659
 40
2.469446072906936
 40
2.469446072906936
 40
2.469446072906936
 40
2.822224083322215
 40
2.822224083322215
 40
2.822224083322215
 40
3.175002093737492
 40
3.175002093737492
 40
3.175002093737492
 40
3.527780104152768
 40
3.527780104152768
 40
3.527780104152768
 40
3.880558114568044
 40
3.880558114568044
 40
3.880558114568044
 40
3.880558114568044
 10
185.907121293335
 20
220.1937677098971
 10
185.9005756075949
 20
220.0449394867532
 10
185.9329595265197
 20
220.1136691870245
 10
185.864746590912
 20
219.9817219428946
 10
185.864746590912
 20
219.9817219428946
 10
185.822371888489
 20
219.9605345916831
 10
185.822371888489
 20
219.9605345916831
 10
185.822371888489
 20
219.9605345916831
 10
185.6528730787974
 20
219.9605345916831
 10
185.6528730787974
 20
219.9605345916831
 10
185.6528730787974
 20
219.9605345916831
 10
185.5894832800509
 20
220.002909294106
 10
185.5894832800509
 20
220.002909294106
 10
185.5894832800509
 20
220.002909294106
 10
185.5681236739515
 20
220.0240966453175
 10
185.5681236739515
 20
220.0240966453175
 10
185.5681236739515
 20
220.0240966453175
 10
185.5681236739515
 20
220.045283996529
 10
185.5681236739515
 20
220.045283996529
 10
185.5681236739515
 20
220.045283996529
 10
185.547108577628
 20
220.0876586989519
 10
185.547108577628
 20
220.0876586989519
 10
185.547108577628
 20
220.0876586989519
 10
185.547108577628
 20
220.1513930074742
 10
185.547108577628
 20
220.1513930074742
 10
185.547108577628
 20
220.1513930074742
 10
185.5894832800509
 20
220.23614241232
 10
185.5894832800509
 20
220.23614241232
 10
185.5894832800509
 20
220.23614241232
 10
185.6318579824738
 20
220.2573297635315
 10
185.6318579824738
 20
220.2573297635315
 10
185.7055830744942
 20
220.2566407439799
 10
185.8416644359337
 20
220.3310548555519
 10
185.907121293335
 20
220.1937677098971
 72
     1
 10
185.907121293335
 20
220.1937677098971
 11
185.907121293335
 21
220.1937677098971
 97
        0
 75
     0
 76
     1
 98
        0
450
        0
451
        0
460
0.0
461
0.0
452
        0
462
0.0
453
        0
470

  0
HATCH
  5
2FDE
330
1F
100
AcDbEntity
  8
图层 1
 62
     7
100
AcDbHatch
 10
0.0
 20
0.0
 30
0.0
210
0.0
220
0.0
230
1.0
  2
SOLID
 70
     1
 71
     0
 91
        1
 92
        1
 93
        2
 72
     4
 94
        3
 73
     0
 74
     0
 95
       50
 96
       46
 40
0.0
 40
0.0
 40
0.0
 40
0.0
 40
0.3527780104152769
 40
0.3527780104152769
 40
0.3527780104152769
 40
0.7055560208305538
 40
0.7055560208305538
 40
0.7055560208305538
 40
1.058334031245828
 40
1.058334031245828
 40
1.058334031245828
 40
1.411112041661104
 40
1.411112041661104
 40
1.411112041661104
 40
1.763890052076384
 40
1.763890052076384
 40
1.763890052076384
 40
2.116668062491659
 40
2.116668062491659
 40
2.116668062491659
 40
2.469446072906936
 40
2.469446072906936
 40
2.469446072906936
 40
2.822224083322215
 40
2.822224083322215
 40
2.822224083322215
 40
3.175002093737492
 40
3.175002093737492
 40
3.175002093737492
 40
3.527780104152768
 40
3.527780104152768
 40
3.527780104152768
 40
3.880558114568044
 40
3.880558114568044
 40
3.880558114568044
 40
4.233336124983321
 40
4.233336124983321
 40
4.233336124983321
 40
4.586114135398599
 40
4.586114135398599
 40
4.586114135398599
 40
4.938892145813873
 40
4.938892145813873
 40
4.938892145813873
 40
5.291670156229153
 40
5.291670156229153
 40
5.291670156229153
 40
5.291670156229153
 10
180.9117295442905
 20
208.9327766684477
 10
180.9117295442905
 20
208.9327766684477
 10
180.9117295442905
 20
208.7637946234197
 10
180.9117295442905
 20
208.7637946234197
 10
181.2273004989198
 20
208.6749111012643
 10
181.3833634273555
 20
208.6776671794706
 10
181.6948002646751
 20
208.5097186637701
 10
181.9542161258496
 20
208.4294478860095
 10
182.1388733656765
 20
208.2134402565853
 10
182.3297317814676
 20
208.02292635057
 10
182.3297317814676
 20
208.02292635057
 10
182.435496282637
 20
208.065301052993
 10
182.435496282637
 20
208.065301052993
 10
182.288390608372
 20
208.2733849575739
 10
182.3752070718726
 20
208.2134402565853
 10
182.1605774815516
 20
208.3824223016133
 10
182.1605774815516
 20
208.3824223016133
 10
182.1182027791287
 20
208.4247970040363
 10
182.1182027791287
 20
208.4247970040363
 10
182.1182027791287
 20
208.4247970040363
 10
182.0968431730294
 20
208.467516216235
 10
182.0968431730294
 20
208.467516216235
 10
182.0968431730294
 20
208.467516216235
 10
182.0544684706064
 20
208.4883590576707
 10
182.0544684706064
 20
208.4883590576707
 10
182.0544684706064
 20
208.4883590576707
 10
181.9910786718599
 20
208.5305615052057
 10
181.9910786718599
 20
208.5305615052057
 10
181.9910786718599
 20
208.5305615052057
 10
181.948703969437
 20
208.552093366193
 10
181.948703969437
 20
208.552093366193
 10
181.948703969437
 20
208.552093366193
 10
181.9063292670141
 20
208.5729362076286
 10
181.9063292670141
 20
208.5729362076286
 10
181.9063292670141
 20
208.5729362076286
 10
181.8639545645911
 20
208.6156554198274
 10
181.8639545645911
 20
208.6156554198274
 10
181.8639545645911
 20
208.6156554198274
 10
181.821924371944
 20
208.6368427710388
 10
181.821924371944
 20
208.6368427710388
 10
181.6637943848536
 20
208.6742220817127
 10
181.5452830219797
 20
208.8092699138248
 10
181.3771622513911
 20
208.8061693258427
 10
181.2803550043924
 20
208.8573290275484
 10
181.0126709085988
 20
208.8971199066528
 10
180.9117295442905
 20
208.9327766684477
 72
     1
 10
180.9117295442905
 20
208.9327766684477
 11
180.9117295442905
 21
208.9327766684477
 97
        0
 75
     0
 76
     1
 98
        0
450
        0
451
        0
460
0.0
461
0.0
452
        0
462
0.0
453
        0
470

  0
HATCH
  5
35C8
330
1F
100
AcDbEntity
  8
图层 1
 62
     7
100
AcDbHatch
 10
0.0
 20
0.0
 30
0.0
210
0.0
220
0.0
230
1.0
  2
SOLID
 70
     1
 71
     0
 91
        1
 92
        1
 93
        2
 72
     4
 94
        3
 73
     0
 74
     0
 95
       38
 96
       34
 40
0.0
 40
0.0
 40
0.0
 40
0.0
 40
0.3527780104152769
 40
0.3527780104152769
 40
0.3527780104152769
 40
0.7055560208305538
 40
0.7055560208305538
 40
0.7055560208305538
 40
1.058334031245828
 40
1.058334031245828
 40
1.058334031245828
 40
1.411112041661104
 40
1.411112041661104
 40
1.411112041661104
 40
1.763890052076384
 40
1.763890052076384
 40
1.763890052076384
 40
2.116668062491659
 40
2.116668062491659
 40
2.116668062491659
 40
2.469446072906936
 40
2.469446072906936
 40
2.469446072906936
 40
2.822224083322215
 40
2.822224083322215
 40
2.822224083322215
 40
3.175002093737492
 40
3.175002093737492
 40
3.175002093737492
 40
3.527780104152768
 40
3.527780104152768
 40
3.527780104152768
 40
3.880558114568044
 40
3.880558114568044
 40
3.880558114568044
 40
3.880558114568044
 10
189.145513185819
 20
166.8326485368285
 10
189.207869455238
 20
166.740492171803
 10
189.1317327947871
 20
166.6833035490209
 10
189.103138483396
 20
166.6209472796017
 10
189.103138483396
 20
166.6209472796017
 10
189.0607637809731
 20
166.5997599283903
 10
189.0607637809731
 20
166.5997599283903
 10
189.0607637809731
 20
166.5997599283903
 10
188.9973739822266
 20
166.5785725771788
 10
188.9973739822266
 20
166.5785725771788
 10
188.9973739822266
 20
166.5785725771788
 10
188.9549992798037
 20
166.5997599283903
 10
188.9549992798037
 20
166.5997599283903
 10
188.9549992798037
 20
166.5997599283903
 10
188.8916094810572
 20
166.5997599283903
 10
188.8916094810572
 20
166.5997599283903
 10
188.8916094810572
 20
166.5997599283903
 10
188.8492347786343
 20
166.6209472796017
 10
188.8492347786343
 20
166.6209472796017
 10
188.8492347786343
 20
166.6209472796017
 10
188.8278751725349
 20
166.6633219820247
 10
188.8278751725349
 20
166.6633219820247
 10
188.8278751725349
 20
166.6633219820247
 10
188.8068600762114
 20
166.6845093332361
 10
188.8068600762114
 20
166.6845093332361
 10
188.8068600762114
 20
166.6845093332361
 10
188.8068600762114
 20
166.8326485368285
 10
188.8068600762114
 20
166.8326485368285
 10
188.8068600762114
 20
166.8326485368285
 10
188.8702498749578
 20
166.896038335575
 10
188.8702498749578
 20
166.896038335575
 10
189.0228677056355
 20
166.8819134347673
 10
189.0686875058164
 20
166.9411691162043
 10
189.145513185819
 20
166.8326485368285
 72
     1
 10
189.145513185819
 20
166.8326485368285
 11
189.145513185819
 21
166.8326485368285
 97
        0
 75
     0
 76
     1
 98
        0
450
        0
451
        0
460
0.0
461
0.0
452
        0
462
0.0
453
        0
470

  0
HATCH
  5
35D8
330
1F
100
AcDbEntity
  8
图层 1
 62
     7
100
AcDbHatch
 10
0.0
 20
0.0
 30
0.0
210
0.0
220
0.0
230
1.0
  2
SOLID
 70
     1
 71
     0
 91
        1
 92
        1
 93
        2
 72
     4
 94
        3
 73
     0
 74
     0
 95
       68
 96
       64
 40
0.0
 40
0.0
 40
0.0
 40
0.0
 40
0.3527780104152769
 40
0.3527780104152769
 40
0.3527780104152769
 40
0.7055560208305538
 40
0.7055560208305538
 40
0.7055560208305538
 40
1.058334031245828
 40
1.058334031245828
 40
1.058334031245828
 40
1.411112041661104
 40
1.411112041661104
 40
1.411112041661104
 40
1.763890052076384
 40
1.763890052076384
 40
1.763890052076384
 40
2.116668062491659
 40
2.116668062491659
 40
2.116668062491659
 40
2.469446072906936
 40
2.469446072906936
 40
2.469446072906936
 40
2.822224083322215
 40
2.822224083322215
 40
2.822224083322215
 40
3.175002093737492
 40
3.175002093737492
 40
3.175002093737492
 40
3.527780104152768
 40
3.527780104152768
 40
3.527780104152768
 40
3.880558114568044
 40
3.880558114568044
 40
3.880558114568044
 40
4.233336124983321
 40
4.233336124983321
 40
4.233336124983321
 40
4.586114135398599
 40
4.586114135398599
 40
4.586114135398599
 40
4.938892145813873
 40
4.938892145813873
 40
4.938892145813873
 40
5.291670156229153
 40
5.291670156229153
 40
5.291670156229153
 40
5.64444816664443
 40
5.64444816664443
 40
5.64444816664443
 40
5.997226177059705
 40
5.997226177059705
 40
5.997226177059705
 40
6.350004187474984
 40
6.350004187474984
 40
6.350004187474984
 40
6.702782197890257
 40
6.702782197890257
 40
6.702782197890257
 40
7.055560208305537
 40
7.055560208305537
 40
7.055560208305537
 40
7.408338218720808
 40
7.408338218720808
 40
7.408338218720808
 40
7.408338218720808
 10
174.7732543591544
 20
135.4846705078077
 10
174.7732543591544
 20
135.4846705078077
 10
174.7732543591544
 20
135.3789060066383
 10
174.7732543591544
 20
135.3789060066383
 10
174.7732543591544
 20
135.3789060066383
 10
174.8156290615773
 20
135.3789060066383
 10
174.8156290615773
 20
135.3789060066383
 10
174.8156290615773
 20
135.3789060066383
 10
174.8580037640002
 20
135.3578909103147
 10
174.8580037640002
 20
135.3578909103147
 10
174.8580037640002
 20
135.3578909103147
 10
174.9213935627468
 20
135.3578909103147
 10
174.9213935627468
 20
135.3578909103147
 10
174.9213935627468
 20
135.3578909103147
 10
174.9637682651697
 20
135.3365313042154
 10
174.9637682651697
 20
135.3365313042154
 10
174.9637682651697
 20
135.3365313042154
 10
174.9847833614933
 20
135.3365313042154
 10
174.9847833614933
 20
135.3365313042154
 10
174.9847833614933
 20
135.3365313042154
 10
175.0271580639162
 20
135.3155162078918
 10
175.0271580639162
 20
135.3155162078918
 10
175.0271580639162
 20
135.3155162078918
 10
175.0485176700155
 20
135.2941566017924
 10
175.0485176700155
 20
135.2941566017924
 10
175.0485176700155
 20
135.2941566017924
 10
175.0695327663391
 20
135.2941566017924
 10
175.0695327663391
 20
135.2941566017924
 10
175.0695327663391
 20
135.2941566017924
 10
175.0908923724385
 20
135.2731415054689
 10
175.0908923724385
 20
135.2731415054689
 10
175.0908923724385
 20
135.2731415054689
 10
175.1332670748614
 20
135.2731415054689
 10
175.1332670748614
 20
135.2731415054689
 10
175.1332670748614
 20
135.2731415054689
 10
175.154282171185
 20
135.2517818993695
 10
175.154282171185
 20
135.2517818993695
 10
175.154282171185
 20
135.2517818993695
 10
175.154282171185
 20
135.3578909103147
 10
175.154282171185
 20
135.3578909103147
 10
175.154282171185
 20
135.3578909103147
 10
175.1332670748614
 20
135.3789060066383
 10
175.1332670748614
 20
135.3789060066383
 10
175.1332670748614
 20
135.3789060066383
 10
175.0908923724385
 20
135.3789060066383
 10
175.0908923724385
 20
135.3789060066383
 10
175.0908923724385
 20
135.3789060066383
 10
175.0908923724385
 20
135.3999211029619
 10
175.0908923724385
 20
135.3999211029619
 10
175.0908923724385
 20
135.3999211029619
 10
175.0695327663391
 20
135.3999211029619
 10
175.0695327663391
 20
135.3999211029619
 10
175.0695327663391
 20
135.3999211029619
 10
175.0271580639162
 20
135.4212807090612
 10
175.0271580639162
 20
135.4212807090612
 10
175.0271580639162
 20
135.4212807090612
 10
175.0061429675926
 20
135.4212807090612
 10
175.0061429675926
 20
135.4212807090612
 10
175.0061429675926
 20
135.4212807090612
 10
174.9637682651697
 20
135.4422958053848
 10
174.9637682651697
 20
135.4422958053848
 10
174.8996894468716
 20
135.4498750204523
 10
174.8394002361073
 20
135.4860485469109
 10
174.7732543591544
 20
135.4846705078077
 72
     1
 10
174.7732543591544
 20
135.4846705078077
 11
174.7732543591544
 21
135.4846705078077
 97
        0
 75
     0
 76
     1
 98
        0
450
        0
451
        0
460
0.0
461
0.0
452
        0
462
0.0
453
        0
470

  0
HATCH
  5
3807
330
1F
100
AcDbEntity
  8
图层 1
 62
     7
100
AcDbHatch
 10
0.0
 20
0.0
 30
0.0
210
0.0
220
0.0
230
1.0
  2
SOLID
 70
     1
 71
     0
 91
        1
 92
        1
 93
        2
 72
     4
 94
        3
 73
     0
 74
     0
 95
       29
 96
       25
 40
0.0
 40
0.0
 40
0.0
 40
0.0
 40
0.3527780104152769
 40
0.3527780104152769
 40
0.3527780104152769
 40
0.7055560208305538
 40
0.7055560208305538
 40
0.7055560208305538
 40
1.058334031245828
 40
1.058334031245828
 40
1.058334031245828
 40
1.411112041661104
 40
1.411112041661104
 40
1.411112041661104
 40
1.763890052076384
 40
1.763890052076384
 40
1.763890052076384
 40
2.116668062491659
 40
2.116668062491659
 40
2.116668062491659
 40
2.469446072906936
 40
2.469446072906936
 40
2.469446072906936
 40
2.822224083322215
 40
2.822224083322215
 40
2.822224083322215
 40
2.822224083322215
 10
175.4929352807925
 20
164.0174869039101
 10
175.4929352807925
 20
164.0174869039101
 10
175.5139503771161
 20
163.9751122014871
 10
175.5139503771161
 20
163.9751122014871
 10
175.5139503771161
 20
163.9751122014871
 10
175.5139503771161
 20
163.9327374990642
 10
175.5139503771161
 20
163.9327374990642
 10
175.5139503771161
 20
163.9327374990642
 10
175.4929352807925
 20
163.8903627966413
 10
175.4929352807925
 20
163.8903627966413
 10
175.4929352807925
 20
163.8903627966413
 10
175.471920184469
 20
163.8691754454298
 10
175.471920184469
 20
163.8691754454298
 10
175.471920184469
 20
163.8691754454298
 10
175.4505605783696
 20
163.8269729978948
 10
175.4505605783696
 20
163.8269729978948
 10
175.3571984291289
 20
163.7715069239916
 10
175.272449024283
 20
163.8195660377152
 10
175.1966568736079
 20
163.8691754454298
 10
175.208370205985
 20
163.9930267098286
 10
175.1563492298397
 20
164.0216210212197
 10
175.2600466723544
 20
164.0596893514451
 10
175.3330827448232
 20
164.1094710140476
 10
175.4357466580104
 20
164.0753645462439
 10
175.4929352807925
 20
164.0174869039101
 72
     1
 10
175.4929352807925
 20
164.0174869039101
 11
175.4929352807925
 21
164.0174869039101
 97
        0
 75
     0
 76
     1
 98
        0
450
        0
451
        0
460
0.0
461
0.0
452
        0
462
0.0
453
        0
470

  0
HATCH
  5
3895
330
1F
100
AcDbEntity
  8
图层 1
 62
     7
100
AcDbHatch
 10
0.0
 20
0.0
 30
0.0
210
0.0
220
0.0
230
1.0
  2
SOLID
 70
     1
 71
     0
 91
        1
 92
        1
 93
        2
 72
     4
 94
        3
 73
     0
 74
     0
 95
       11
 96
        7
 40
0.0
 40
0.0
 40
0.0
 40
0.0
 40
0.3527780104152769
 40
0.3527780104152769
 40
0.3527780104152769
 40
0.7055560208305538
 40
0.7055560208305538
 40
0.7055560208305538
 40
0.7055560208305538
 10
174.9213935627468
 20
174.5369206529582
 10
174.9213935627468
 20
174.5369206529582
 10
174.9213935627468
 20
174.3043765542958
 10
174.9213935627468
 20
174.3043765542958
 10
174.9213935627468
 20
174.3043765542958
 10
174.9213935627468
 20
174.5369206529582
 10
174.9213935627468
 20
174.5369206529582
 72
     1
 10
174.9213935627468
 20
174.5369206529582
 11
174.9213935627468
 21
174.5369206529582
 97
        0
 75
     0
 76
     1
 98
        0
450
        0
451
        0
460
0.0
461
0.0
452
        0
462
0.0
453
        0
470

  0
HATCH
  5
3943
330
1F
100
AcDbEntity
  8
图层 1
 62
     7
100
AcDbHatch
 10
0.0
 20
0.0
 30
0.0
210
0.0
220
0.0
230
1.0
  2
SOLID
 70
     1
 71
     0
 91
        1
 92
        1
 93
        2
 72
     4
 94
        3
 73
     0
 74
     0
 95
      131
 96
      127
 40
0.0
 40
0.0
 40
0.0
 40
0.0
 40
0.3527780104152769
 40
0.3527780104152769
 40
0.3527780104152769
 40
0.7055560208305538
 40
0.7055560208305538
 40
0.7055560208305538
 40
1.058334031245828
 40
1.058334031245828
 40
1.058334031245828
 40
1.411112041661104
 40
1.411112041661104
 40
1.411112041661104
 40
1.763890052076384
 40
1.763890052076384
 40
1.763890052076384
 40
2.116668062491659
 40
2.116668062491659
 40
2.116668062491659
 40
2.469446072906936
 40
2.469446072906936
 40
2.469446072906936
 40
2.822224083322215
 40
2.822224083322215
 40
2.822224083322215
 40
3.175002093737492
 40
3.175002093737492
 40
3.175002093737492
 40
3.527780104152768
 40
3.527780104152768
 40
3.527780104152768
 40
3.880558114568044
 40
3.880558114568044
 40
3.880558114568044
 40
4.233336124983321
 40
4.233336124983321
 40
4.233336124983321
 40
4.586114135398599
 40
4.586114135398599
 40
4.586114135398599
 40
4.938892145813873
 40
4.938892145813873
 40
4.938892145813873
 40
5.291670156229153
 40
5.291670156229153
 40
5.291670156229153
 40
5.64444816664443
 40
5.64444816664443
 40
5.64444816664443
 40
5.997226177059705
 40
5.997226177059705
 40
5.997226177059705
 40
6.350004187474984
 40
6.350004187474984
 40
6.350004187474984
 40
6.702782197890257
 40
6.702782197890257
 40
6.702782197890257
 40
7.055560208305537
 40
7.055560208305537
 40
7.055560208305537
 40
7.408338218720808
 40
7.408338218720808
 40
7.408338218720808
 40
7.76111622913609
 40
7.76111622913609
 40
7.76111622913609
 40
8.113894239551369
 40
8.113894239551369
 40
8.113894239551369
 40
8.466672249966642
 40
8.466672249966642
 40
8.466672249966642
 40
8.819450260381922
 40
8.819450260381922
 40
8.819450260381922
 40
9.172228270797198
 40
9.172228270797198
 40
9.172228270797198
 40
9.525006281212476
 40
9.525006281212476
 40
9.525006281212476
 40
9.877784291627751
 40
9.877784291627751
 40
9.877784291627751
 40
10.23056230204303
 40
10.23056230204303
 40
10.23056230204303
 40
10.58334031245831
 40
10.58334031245831
 40
10.58334031245831
 40
10.93611832287358
 40
10.93611832287358
 40
10.93611832287358
 40
11.28889633328886
 40
11.28889633328886
 40
11.28889633328886
 40
11.64167434370414
 40
11.64167434370414
 40
11.64167434370414
 40
11.99445235411941
 40
11.99445235411941
 40
11.99445235411941
 40
12.34723036453469
 40
12.34723036453469
 40
12.34723036453469
 40
12.70000837494997
 40
12.70000837494997
 40
12.70000837494997
 40
13.05278638536524
 40
13.05278638536524
 40
13.05278638536524
 40
13.40556439578052
 40
13.40556439578052
 40
13.40556439578052
 40
13.7583424061958
 40
13.7583424061958
 40
13.7583424061958
 40
14.11112041661107
 40
14.11112041661107
 40
14.11112041661107
 40
14.46389842702635
 40
14.46389842702635
 40
14.46389842702635
 40
14.81667643744163
 40
14.81667643744163
 40
14.81667643744163
 40
14.81667643744163
 10
173.3972823146245
 20
126.8274843518258
 10
173.3972823146245
 20
126.8274843518258
 10
173.3972823146245
 20
126.7217198506564
 10
173.3972823146245
 20
126.7217198506564
 10
173.3972823146245
 20
126.7217198506564
 10
173.4186419207238
 20
126.7217198506564
 10
173.4186419207238
 20
126.7217198506564
 10
173.4186419207238
 20
126.7217198506564
 10
173.4820317194703
 20
126.7007047543328
 10
173.4820317194703
 20
126.7007047543328
 10
173.4820317194703
 20
126.7007047543328
 10
173.5244064218933
 20
126.6793451482334
 10
173.5244064218933
 20
126.6793451482334
 10
173.5244064218933
 20
126.6793451482334
 10
173.5877962206398
 20
126.6793451482334
 10
173.5877962206398
 20
126.6793451482334
 10
173.5877962206398
 20
126.6793451482334
 10
173.6301709230627
 20
126.6583300519099
 10
173.6301709230627
 20
126.6583300519099
 10
173.7955356154449
 20
126.5911506456296
 10
173.759706598762
 20
126.6380039751379
 10
173.9478089363468
 20
126.5525655507404
 10
173.9478089363468
 20
126.5525655507404
 10
173.9688240326703
 20
126.4464565397952
 10
173.9688240326703
 20
126.4464565397952
 10
173.9688240326703
 20
126.4464565397952
 10
174.0325583411926
 20
126.5101908483175
 10
174.0325583411926
 20
126.5101908483175
 10
174.0325583411926
 20
126.5101908483175
 10
174.0749330436156
 20
126.5101908483175
 10
174.0749330436156
 20
126.5101908483175
 10
174.0749330436156
 20
126.5101908483175
 10
174.1593379386856
 20
126.4678161458946
 10
174.1593379386856
 20
126.4678161458946
 10
174.1593379386856
 20
126.4678161458946
 10
174.180697544785
 20
126.4464565397952
 10
174.180697544785
 20
126.4464565397952
 10
174.2464989119621
 20
126.3982251711837
 10
174.3298702777047
 20
126.3716979184474
 10
174.3922265471239
 20
126.3196769423022
 10
174.608234176548
 20
126.2059887162895
 10
174.7749769080334
 20
126.0278771622029
 10
174.9637682651697
 20
125.8749148217494
 10
174.9637682651697
 20
125.8749148217494
 10
175.0061429675926
 20
125.9172895241723
 10
175.0061429675926
 20
125.9172895241723
 10
174.961356696739
 20
125.9631093243532
 10
174.782211613325
 20
126.1246844092016
 10
174.7308796567315
 20
126.1501781326105
 10
174.7308796567315
 20
126.1501781326105
 10
174.6885049543085
 20
126.1925528350335
 10
174.6885049543085
 20
126.1925528350335
 10
174.6885049543085
 20
126.1925528350335
 10
174.667489857985
 20
126.2349275374564
 10
174.667489857985
 20
126.2349275374564
 10
174.667489857985
 20
126.2349275374564
 10
174.625115155562
 20
126.2559426337799
 10
174.625115155562
 20
126.2559426337799
 10
174.625115155562
 20
126.2559426337799
 10
174.5827404531391
 20
126.2983173362029
 10
174.5827404531391
 20
126.2983173362029
 10
174.5827404531391
 20
126.2983173362029
 10
174.5403657507162
 20
126.3196769423022
 10
174.5403657507162
 20
126.3196769423022
 10
174.5403657507162
 20
126.3196769423022
 10
174.4979910482932
 20
126.3620516447252
 10
174.4979910482932
 20
126.3620516447252
 10
174.4735308542117
 20
126.3875453681341
 10
174.3247026310678
 20
126.4695386947736
 10
174.2864620459544
 20
126.4888312422181
 10
174.2864620459544
 20
126.4888312422181
 10
174.2654469496308
 20
126.5101908483175
 10
174.2654469496308
 20
126.5101908483175
 10
174.2654469496308
 20
126.5101908483175
 10
174.2230722472079
 20
126.5312059446411
 10
174.2230722472079
 20
126.5312059446411
 10
174.2230722472079
 20
126.5312059446411
 10
174.2017126411085
 20
126.5525655507404
 10
174.2017126411085
 20
126.5525655507404
 10
174.2017126411085
 20
126.5525655507404
 10
174.1383228423621
 20
126.573580647064
 10
174.1383228423621
 20
126.573580647064
 10
174.1383228423621
 20
126.573580647064
 10
174.1169632362627
 20
126.5945957433876
 10
174.1169632362627
 20
126.5945957433876
 10
174.1169632362627
 20
126.5945957433876
 10
174.0959481399391
 20
126.7007047543328
 10
174.0959481399391
 20
126.7007047543328
 10
174.0959481399391
 20
126.7007047543328
 10
174.0325583411926
 20
126.6369704458105
 10
174.0325583411926
 20
126.6369704458105
 10
174.0325583411926
 20
126.6369704458105
 10
173.9901836387697
 20
126.6369704458105
 10
173.9901836387697
 20
126.6369704458105
 10
173.9901836387697
 20
126.6369704458105
 10
173.9054342339239
 20
126.6793451482334
 10
173.9054342339239
 20
126.6793451482334
 10
173.9054342339239
 20
126.6793451482334
 10
173.8420444351773
 20
126.7007047543328
 10
173.8420444351773
 20
126.7007047543328
 10
173.8420444351773
 20
126.7007047543328
 10
173.7996697327544
 20
126.7217198506564
 10
173.7996697327544
 20
126.7217198506564
 10
173.7996697327544
 20
126.7217198506564
 10
173.7572950303315
 20
126.7217198506564
 10
173.7572950303315
 20
126.7217198506564
 10
173.7572950303315
 20
126.7217198506564
 10
173.6725456254856
 20
126.7640945530793
 10
173.6725456254856
 20
126.7640945530793
 10
173.6725456254856
 20
126.7640945530793
 10
173.6515305291621
 20
126.7640945530793
 10
173.6515305291621
 20
126.7640945530793
 10
173.6515305291621
 20
126.7640945530793
 10
173.5667811243162
 20
126.7851096494029
 10
173.5667811243162
 20
126.7851096494029
 10
173.5667811243162
 20
126.7851096494029
 10
173.5033913255697
 20
126.8064692555022
 10
173.5033913255697
 20
126.8064692555022
 10
173.5033913255697
 20
126.8064692555022
 10
173.4396570170474
 20
126.8064692555022
 10
173.4396570170474
 20
126.8064692555022
 10
173.4396570170474
 20
126.8064692555022
 10
173.4186419207238
 20
126.8274843518258
 10
173.4186419207238
 20
126.8274843518258
 10
173.4186419207238
 20
126.8274843518258
 10
173.3972823146245
 20
126.8274843518258
 10
173.3972823146245
 20
126.8274843518258
 72
     1
 10
173.3972823146245
 20
126.8274843518258
 11
173.3972823146245
 21
126.8274843518258
 97
        0
 75
     0
 76
     1
 98
        0
450
        0
451
        0
460
0.0
461
0.0
452
        0
462
0.0
453
        0
470

  0
HATCH
  5
4842
330
1F
100
AcDbEntity
  8
图层 1
 62
     7
100
AcDbHatch
 10
0.0
 20
0.0
 30
0.0
210
0.0
220
0.0
230
1.0
  2
SOLID
 70
     1
 71
     0
 91
        1
 92
        1
 93
        2
 72
     4
 94
        3
 73
     0
 74
     0
 95
       47
 96
       43
 40
0.0
 40
0.0
 40
0.0
 40
0.0
 40
0.3527780104152769
 40
0.3527780104152769
 40
0.3527780104152769
 40
0.7055560208305538
 40
0.7055560208305538
 40
0.7055560208305538
 40
1.058334031245828
 40
1.058334031245828
 40
1.058334031245828
 40
1.411112041661104
 40
1.411112041661104
 40
1.411112041661104
 40
1.763890052076384
 40
1.763890052076384
 40
1.763890052076384
 40
2.116668062491659
 40
2.116668062491659
 40
2.116668062491659
 40
2.469446072906936
 40
2.469446072906936
 40
2.469446072906936
 40
2.822224083322215
 40
2.822224083322215
 40
2.822224083322215
 40
3.175002093737492
 40
3.175002093737492
 40
3.175002093737492
 40
3.527780104152768
 40
3.527780104152768
 40
3.527780104152768
 40
3.880558114568044
 40
3.880558114568044
 40
3.880558114568044
 40
4.233336124983321
 40
4.233336124983321
 40
4.233336124983321
 40
4.586114135398599
 40
4.586114135398599
 40
4.586114135398599
 40
4.938892145813873
 40
4.938892145813873
 40
4.938892145813873
 40
4.938892145813873
 10
180.1920486226523
 20
255.6479577566324
 10
180.1920486226523
 20
255.6479577566324
 10
180.2130637189759
 20
255.6055830542095
 10
180.2130637189759
 20
255.6055830542095
 10
180.2130637189759
 20
255.6055830542095
 10
180.2130637189759
 20
255.5210059042515
 10
180.2130637189759
 20
255.5210059042515
 10
180.2130637189759
 20
255.5210059042515
 10
180.1920486226523
 20
255.4786312018286
 10
180.1920486226523
 20
255.4786312018286
 10
180.1920486226523
 20
255.4786312018286
 10
180.1496739202294
 20
255.4359119896299
 10
180.1496739202294
 20
255.4359119896299
 10
180.1496739202294
 20
255.4359119896299
 10
180.1283143141301
 20
255.4147246384184
 10
180.1283143141301
 20
255.4147246384184
 10
180.1283143141301
 20
255.4147246384184
 10
180.0225498129606
 20
255.4147246384184
 10
180.0225498129606
 20
255.4147246384184
 10
180.0225498129606
 20
255.4147246384184
 10
179.9591600142141
 20
255.4359119896299
 10
179.9591600142141
 20
255.4359119896299
 10
179.9591600142141
 20
255.4359119896299
 10
179.9167853117912
 20
255.4570993408414
 10
179.9167853117912
 20
255.4570993408414
 10
179.9167853117912
 20
255.4570993408414
 10
179.8957702154676
 20
255.4786312018286
 10
179.8957702154676
 20
255.4786312018286
 10
179.8957702154676
 20
255.4786312018286
 10
179.8744106093683
 20
255.4994740432643
 10
179.8744106093683
 20
255.4994740432643
 10
179.8744106093683
 20
255.4994740432643
 10
179.8744106093683
 20
255.6479577566324
 10
179.8744106093683
 20
255.6479577566324
 10
179.9608825630931
 20
255.7323626517025
 10
180.045631967939
 20
255.7085914771726
 10
180.1496739202294
 20
255.7115198102668
 10
180.1496739202294
 20
255.7115198102668
 10
180.170689016553
 20
255.6688005980681
 10
180.170689016553
 20
255.6688005980681
 10
180.170689016553
 20
255.6688005980681
 10
180.1920486226523
 20
255.6479577566324
 10
180.1920486226523
 20
255.6479577566324
 72
     1
 10
180.1920486226523
 20
255.6479577566324
 11
180.1920486226523
 21
255.6479577566324
 97
        0
 75
     0
 76
     1
 98
        0
450
        0
451
        0
460
0.0
461
0.0
452
        0
462
0.0
453
        0
470

  0
MTEXT
  5
11ED6
330
1F
100
AcDbEntity
  8
图框
100
AcDbMText
 10
530.401515362461
 20
274.9422285325828
 30
0.0
 40
1.200004709114095
 41
9.110347256148227
 46
2.7044443736324
 71
     5
 72
     5
  1
{\C4;CEGM-0.37}
  7
Romans字体
 73
     1
 44
1.0
1001
ACAD
1000
ACAD_MTEXT_DEFINED_HEIGHT_BEGIN
1070
    46
1040
2.7044443736324
1000
ACAD_MTEXT_DEFINED_HEIGHT_END
  0
MTEXT
  5
11EDB
330
1F
100
AcDbEntity
  8
图框
100
AcDbMText
 10
530.401515362461
 20
272.2377841589514
 30
0.0
 40
1.200004709114095
 41
9.110347256148321
 46
2.704444373630384
 71
     5
 72
     5
  1
{\C4;CEGM-0.50}
  7
Romans字体
 73
     1
 44
1.0
1001
ACAD
1000
ACAD_MTEXT_DEFINED_HEIGHT_BEGIN
1070
    46
1040
2.704444373630384
1000
ACAD_MTEXT_DEFINED_HEIGHT_END
  0
MTEXT
  5
11EE1
330
1F
100
AcDbEntity
  8
图框
100
AcDbMText
 10
530.4015153620663
 20
261.411202471661
 30
0.0
 40
1.200004709114095
 41
9.110347256937489
 46
2.7103138354722
 71
     5
 72
     5
  1
{\C4;CEGM-2.5}
  7
Romans字体
 73
     1
 44
1.0
1001
ACAD
1000
ACAD_MTEXT_DEFINED_HEIGHT_BEGIN
1070
    46
1040
2.7103138354722
1000
ACAD_MTEXT_DEFINED_HEIGHT_END
  0
MTEXT
  5
11FD8
330
1F
100
AcDbEntity
  8
图框
100
AcDbMText
 10
530.4015153613995
 20
269.5333397853212
 30
0.0
 40
1.19999583169232
 41
9.110347255603928
 46
2.704444373630491
 71
     5
 72
     5
  1
{\C4;CEGM-0.75}
  7
Romans字体
 73
     1
 44
1.0
1001
ACAD
1000
ACAD_MTEXT_DEFINED_HEIGHT_BEGIN
1070
    46
1040
2.704444373630491
1000
ACAD_MTEXT_DEFINED_HEIGHT_END
  0
MTEXT
  5
11FD9
330
1F
100
AcDbEntity
  8
图框
100
AcDbMText
 10
530.4015153613995
 20
266.8288954116907
 30
0.0
 40
1.19999583169232
 41
9.110347258271113
 46
2.704444373630491
 71
     5
 72
     5
  1
{\C4;CEGM-1.0}
  7
Romans字体
 73
     1
 44
1.0
1001
ACAD
1000
ACAD_MTEXT_DEFINED_HEIGHT_BEGIN
1070
    46
1040
2.704444373630491
1000
ACAD_MTEXT_DEFINED_HEIGHT_END
  0
MTEXT
  5
11FDA
330
1F
100
AcDbEntity
  8
图框
100
AcDbMText
 10
530.4015153620667
 20
264.1215163071363
 30
0.0
 40
1.19999583169232
 41
9.110347256937654
 46
2.710313835478121
 71
     5
 72
     5
  1
{\C4;CEGM-1.5}
  7
Romans字体
 73
     1
 44
1.0
1001
ACAD
1000
ACAD_MTEXT_DEFINED_HEIGHT_BEGIN
1070
    46
1040
2.710313835478121
1000
ACAD_MTEXT_DEFINED_HEIGHT_END
  0
MTEXT
  5
11FF2
330
1F
100
AcDbEntity
  8
图框
100
AcDbMText
 10
530.4015153624608
 20
258.7038333706078
 30
0.0
 40
1.19999583169232
 41
9.110347256148527
 46
2.704424366633923
 71
     5
 72
     5
  1
{\C4;CEGM-3.0}
  7
Romans字体
 73
     1
 44
1.0
1001
ACAD
1000
ACAD_MTEXT_DEFINED_HEIGHT_BEGIN
1070
    46
1040
2.704424366633923
1000
ACAD_MTEXT_DEFINED_HEIGHT_END
  0
MTEXT
  5
11FF3
330
1F
100
AcDbEntity
  8
图框
100
AcDbMText
 10
530.4015153624608
 20
255.996554366252
 30
0.0
 40
1.19999583169232
 41
9.110347256148527
 46
2.710133642077454
 71
     5
 72
     5
  1
{\C4;CEGM-4.0}
  7
Romans字体
 73
     1
 44
1.0
1001
ACAD
1000
ACAD_MTEXT_DEFINED_HEIGHT_BEGIN
1070
    46
1040
2.710133642077454
1000
ACAD_MTEXT_DEFINED_HEIGHT_END
  0
MTEXT
  5
127C8
330
1F
100
AcDbEntity
  8
图框
100
AcDbMText
 10
541.0235229887184
 20
274.9422285325829
 30
0.0
 40
1.200004709114095
 41
12.13366799636653
 46
2.704444373632686
 71
     5
 72
     5
  1
{\C4;1010192100301}
  7
Romans字体
 73
     1
 44
1.0
1001
ACAD
1000
ACAD_MTEXT_DEFINED_HEIGHT_BEGIN
1070
    46
1040
2.704444373632686
1000
ACAD_MTEXT_DEFINED_HEIGHT_END
  0
MTEXT
  5
127C9
330
1F
100
AcDbEntity
  8
图框
100
AcDbMText
 10
541.0235229887184
 20
272.2377841589499
 30
0.0
 40
1.200004709114095
 41
12.13366799636653
 46
2.704444373632686
 71
     5
 72
     5
  1
{\C4;1010192100401}
  7
Romans字体
 73
     1
 44
1.0
1001
ACAD
1000
ACAD_MTEXT_DEFINED_HEIGHT_BEGIN
1070
    46
1040
2.704444373632686
1000
ACAD_MTEXT_DEFINED_HEIGHT_END
  0
MTEXT
  5
127CA
330
1F
100
AcDbEntity
  8
图框
100
AcDbMText
 10
541.0235229887184
 20
269.5333397853195
 30
0.0
 40
1.200004709114095
 41
12.13366799636653
 46
2.704444373632686
 71
     5
 72
     5
  1
{\C4;1010192100601}
  7
Romans字体
 73
     1
 44
1.0
1001
ACAD
1000
ACAD_MTEXT_DEFINED_HEIGHT_BEGIN
1070
    46
1040
2.704444373632686
1000
ACAD_MTEXT_DEFINED_HEIGHT_END
  0
MTEXT
  5
127CC
330
1F
100
AcDbEntity
  8
图框
100
AcDbMText
 10
541.0235229887184
 20
266.8288954116891
 30
0.0
 40
1.200004709114095
 41
12.13366799636653
 46
2.704444373632686
 71
     5
 72
     5
  1
{\C4;1010192100801}
  7
Romans字体
 73
     1
 44
1.0
1001
ACAD
1000
ACAD_MTEXT_DEFINED_HEIGHT_BEGIN
1070
    46
1040
2.704444373632686
1000
ACAD_MTEXT_DEFINED_HEIGHT_END
  0
MTEXT
  5
127CD
330
1F
100
AcDbEntity
  8
图框
100
AcDbMText
 10
541.0235229887184
 20
264.1244510380587
 30
0.0
 40
1.200004709114095
 41
12.13366799636653
 46
2.704444373632686
 71
     5
 72
     5
  1
{\C4;1010192100901}
  7
Romans字体
 73
     1
 44
1.0
1001
ACAD
1000
ACAD_MTEXT_DEFINED_HEIGHT_BEGIN
1070
    46
1040
2.704444373632686
1000
ACAD_MTEXT_DEFINED_HEIGHT_END
  0
MTEXT
  5
127CE
330
1F
100
AcDbEntity
  8
图框
100
AcDbMText
 10
541.0235229887188
 20
261.4141372025809
 30
0.0
 40
1.200004709114095
 41
12.13366799636653
 46
2.704444373632686
 71
     5
 72
     5
  1
{\C4;1010192101001}
  7
Romans字体
 73
     1
 44
1.0
1001
ACAD
1000
ACAD_MTEXT_DEFINED_HEIGHT_BEGIN
1070
    46
1040
2.704444373632686
1000
ACAD_MTEXT_DEFINED_HEIGHT_END
  0
MTEXT
  5
127CF
330
1F
100
AcDbEntity
  8
图框
100
AcDbMText
 10
541.0235229887188
 20
258.7096928289507
 30
0.0
 40
1.200004709114095
 41
12.13366799636653
 46
2.704444373632686
 71
     5
 72
     5
  1
{\C4;1010192101101}
  7
Romans字体
 73
     1
 44
1.0
1001
ACAD
1000
ACAD_MTEXT_DEFINED_HEIGHT_BEGIN
1070
    46
1040
2.704444373632686
1000
ACAD_MTEXT_DEFINED_HEIGHT_END
  0
MTEXT
  5
127D0
330
1F
100
AcDbEntity
  8
图框
100
AcDbMText
 10
541.0235229887189
 20
255.9993990004745
 30
0.0
 40
1.200004709114095
 41
12.13366799636653
 46
2.704444373632686
 71
     5
 72
     5
  1
{\C4;1010192101201}
  7
Romans字体
 73
     1
 44
1.0
1001
ACAD
1000
ACAD_MTEXT_DEFINED_HEIGHT_BEGIN
1070
    46
1040
2.704444373632686
1000
ACAD_MTEXT_DEFINED_HEIGHT_END
  0
LINE
  5
131D8
330
1F
100
AcDbEntity
  8
0
100
AcDbLine
 10
543.9422650223483
 20
201.0654734387359
 30
0.0
 11
543.1288257239373
 21
199.3850077910277
 31
0.0
  0
LINE
  5
131D9
330
1F
100
AcDbEntity
  8
0
100
AcDbLine
 10
538.6948495206731
 20
197.1765761590714
 30
0.0
 11
538.1843794321642
 21
196.9912203243678
 31
0.0
  0
LINE
  5
131DA
330
1F
100
AcDbEntity
  8
0
100
AcDbLine
 10
538.1843800485913
 20
196.9911909016583
 30
0.0
 11
538.1776811239554
 21
196.991080178791
 31
0.0
  0
LINE
  5
131DB
330
1F
100
AcDbEntity
  8
0
100
AcDbLine
 10
540.8478144197036
 20
196.174574420502
 30
0.0
 11
541.0065529034368
 21
195.6203522813294
 31
0.0
  0
LINE
  5
131DC
330
1F
100
AcDbEntity
  8
0
100
AcDbLine
 10
537.9640050214841
 20
196.9084602051641
 30
0.0
 11
537.6383556637007
 21
196.2363937206791
 31
0.0
  0
LINE
  5
131DD
330
1F
100
AcDbEntity
  8
0
100
AcDbLine
 10
546.063666282611
 20
211.8630820592132
 30
0.0
 11
541.6948718857295
 21
202.8468803725165
 31
0.0
  0
LINE
  5
131DE
330
1F
100
AcDbEntity
  8
0
100
AcDbLine
 10
541.3376719864657
 20
202.9004168119713
 30
0.0
 11
541.2316820166013
 21
202.8870798641777
 31
0.0
  0
LINE
  5
131DF
330
1F
100
AcDbEntity
  8
0
100
AcDbLine
 10
540.8658828480954
 20
202.7579622204164
 30
0.0
 11
540.7305529336197
 21
202.7409549266184
 31
0.0
  0
LINE
  5
131E0
330
1F
100
AcDbEntity
  8
0
100
AcDbLine
 10
541.2317623121382
 20
202.8871068445858
 30
0.0
 11
540.7305529336197
 21
202.7409549266184
 31
0.0
  0
LINE
  5
131E1
330
1F
100
AcDbEntity
  8
0
100
AcDbLine
 10
543.7412829630286
 20
201.6711203183113
 30
0.0
 11
543.9371836171805
 21
201.1871842103611
 31
0.0
  0
LINE
  5
131E2
330
1F
100
AcDbEntity
  8
0
100
AcDbLine
 10
547.7915122388301
 20
211.0258554762962
 30
0.0
 11
543.4226568643914
 21
202.0095279427998
 31
0.0
  0
LINE
  5
131E3
330
1F
100
AcDbEntity
  8
0
100
AcDbLine
 10
541.0741277422878
 20
195.401452355523
 30
0.0
 11
540.7484783864553
 21
194.7293858729884
 31
0.0
  0
LWPOLYLINE
  5
131E4
330
1F
100
AcDbEntity
  8
0
100
AcDbPolyline
 90
       17
 70
     0
 43
0.0
 10
547.7915122388301
 20
211.0258554762963
 10
547.8634470734312
 20
211.2305291678776
 10
547.8875865038618
 20
211.4421681256506
 10
547.8695211414866
 20
211.6298449578348
 10
547.8244429771343
 20
211.7868916196918
 10
547.7616128160185
 20
211.9198682948002
 10
547.6901487291677
 20
212.0276523203899
 10
547.6144814064261
 20
212.1151245520082
 10
547.5399740149586
 20
212.1837825788574
 10
547.4688881785684
 20
212.2373089038294
 10
547.4022742351287
 20
212.2788992178847
 10
547.3360400715139
 20
212.3132425798301
 10
547.268777104023
 20
212.3417930426988
 10
547.1981334607439
 20
212.3655582509063
 10
547.1179872536707
 20
212.3853984173524
 10
547.0252146524651
 20
212.3994919518981
 10
546.9158840433898
 20
212.4043974060243
  0
LWPOLYLINE
  5
131E5
330
1F
100
AcDbEntity
  8
0
100
AcDbPolyline
 90
        7
 70
     0
 43
0.0
 10
546.9158840433898
 20
212.4043974060243
 10
546.7673613763925
 20
212.3910029861181
 10
546.6049684640132
 20
212.3486345844743
 10
546.4383216184812
 20
212.2704331594096
 10
546.2885411701428
 20
212.1608607956537
 10
546.1619994677484
 20
212.0236684488147
 10
546.0636662826116
 20
211.8630820592133
  0
SPLINE
  5
131E6
330
1F
100
AcDbEntity
  8
0
100
AcDbSpline
210
0.0
220
0.0
230
1.0
 70
     8
 71
     3
 72
    21
 73
    17
 74
    15
 42
0.0000000001
 43
0.0000000001
 44
0.0000000001
 12
0.9999256644601539
 22
0.0121928484744085
 32
0.0
 13
0.37368477419145
 23
-0.9275557608777409
 33
0.0
 40
0.0
 40
0.0
 40
0.0
 40
0.0
 40
0.1462832640890072
 40
0.334026265917998
 40
0.5605622174828098
 40
0.8177362816516492
 40
1.094526656246774
 40
1.379450383381436
 40
1.663165296984059
 40
1.93746353832242
 40
2.194707741443308
 40
2.427914270270431
 40
2.630528634115019
 40
2.797030657884871
 40
2.923343988505143
 40
2.950943531880638
 40
2.950943531880638
 40
2.950943531880638
 40
2.950943531880638
 10
538.0070291732613
 20
196.2262094602241
 30
0.0
 10
538.0557866366092
 20
196.2268039967819
 30
0.0
 10
538.1671870297775
 20
196.2173593379048
 30
0.0
 10
538.3507578220052
 20
196.1816045408877
 30
0.0
 10
538.5667516021763
 20
196.1222149299521
 30
0.0
 10
538.8067674288506
 20
196.0402683504575
 30
0.0
 10
539.060442082289
 20
195.9392043078265
 30
0.0
 10
539.3173569576057
 20
195.8231793476427
 30
0.0
 10
539.5683152050073
 20
195.6966188506255
 30
0.0
 10
539.8054814395909
 20
195.5637596310548
 30
0.0
 10
540.0218087915829
 20
195.4287021852453
 30
0.0
 10
540.2108575756482
 20
195.29567459083
 30
0.0
 10
540.3666376041533
 20
195.1686366518394
 30
0.0
 10
540.4843986727388
 20
195.0524619902794
 30
0.0
 10
540.5477679253554
 20
194.9652291865865
 30
0.0
 10
540.569809529159
 20
194.9188049535253
 30
0.0
 10
540.5732473722038
 20
194.9102715817068
 30
0.0
 11
538.0070291732613
 21
196.2262094602241
 31
0.0
 11
538.1529734721973
 21
196.2162568243615
 31
0.0
 11
538.337561001787
 21
196.1819803213929
 31
0.0
 11
538.556250993058
 21
196.1228768099131
 31
0.0
 11
538.7998551997776
 21
196.0404420493468
 31
0.0
 11
539.0571188687796
 21
195.9383229224403
 31
0.0
 11
539.3168437163397
 21
195.821171166823
 31
0.0
 11
539.5701364821534
 21
195.6933551780463
 31
0.0
 11
539.8093051358848
 21
195.5590500021458
 31
0.0
 11
540.0272454440012
 21
195.4223876366701
 31
0.0
 11
540.2174377627881
 21
195.2874351748102
 31
0.0
 11
540.3736488005713
 21
195.1583976139574
 31
0.0
 11
540.4901715855392
 21
195.0394633274678
 31
0.0
 11
540.5616345156125
 21
194.9353090807098
 31
0.0
 11
540.5732473722038
 21
194.9102715817068
 31
0.0
  0
SPLINE
  5
131E7
330
1F
100
AcDbEntity
  8
0
100
AcDbSpline
210
0.0
220
0.0
230
1.0
 70
     8
 71
     3
 72
    19
 73
    15
 74
    13
 42
0.0000000001
 43
0.0000000001
 44
0.0000000001
 12
0.9999256634178744
 22
0.0121929339506097
 32
0.0
 13
0.3551913703474101
 23
-0.9347936084669862
 33
0.0
 40
0.0
 40
0.0
 40
0.0
 40
0.0
 40
0.1664325013646851
 40
0.3781656374938731
 40
0.6281094131566054
 40
0.9066276474912848
 40
1.20246789075175
 40
1.503464136355738
 40
1.797185410556193
 40
2.071575443914627
 40
2.315605749557385
 40
2.519998309624142
 40
2.678238137894644
 40
2.761586212886214
 40
2.761586212886214
 40
2.761586212886214
 40
2.761586212886214
 10
541.3376719864657
 20
202.9004168119715
 30
0.0
 10
541.3931453629128
 20
202.9010932454703
 30
0.0
 10
541.5192036276454
 20
202.8880408858669
 30
0.0
 10
541.7238868251597
 20
202.8433002473137
 30
0.0
 10
541.9602556283938
 20
202.7717112848719
 30
0.0
 10
542.218016536417
 20
202.6761852864224
 30
0.0
 10
542.4860850089755
 20
202.5606426194573
 30
0.0
 10
542.7528033717323
 20
202.4300578711437
 30
0.0
 10
543.0065712609261
 20
202.2900834267494
 30
0.0
 10
543.2365427817956
 20
202.1469003993428
 30
0.0
 10
543.4325487827737
 20
202.0066394459519
 30
0.0
 10
543.5876573990181
 20
201.8759510973075
 30
0.0
 10
543.6873528772003
 20
201.7655758446681
 30
0.0
 10
543.7322642824475
 20
201.6973769570512
 30
0.0
 10
543.7421324547715
 20
201.6714058744578
 30
0.0
 11
541.3376719864657
 21
202.9004168119715
 31
0.0
 11
541.5035559249131
 21
202.8869150907602
 31
0.0
 11
541.7108001055972
 21
202.8435472396755
 31
0.0
 11
541.950346959071
 21
202.7722086387407
 31
0.0
 11
542.2117271427562
 21
202.6760171295853
 31
0.0
 11
542.4835170862259
 21
202.5591767420425
 31
0.0
 11
542.7538382643331
 21
202.4267939616879
 31
0.0
 11
543.010876344272
 21
202.2846545499145
 31
0.0
 11
543.2433975294593
 21
202.1389706838019
 31
0.0
 11
543.4412395284505
 21
201.9961094451566
 31
0.0
 11
543.5957556968165
 21
201.8623145561505
 31
0.0
 11
543.7001929364766
 21
201.7434334970063
 31
0.0
 11
543.7421324547715
 21
201.6714058744578
 31
0.0
  0
SPLINE
  5
131E8
330
1F
100
AcDbEntity
  8
0
100
AcDbSpline
210
0.0
220
0.0
230
1.0
 70
     8
 71
     3
 72
     9
 73
     5
 74
     3
 42
0.0000000001
 43
0.0000000001
 44
0.0000000001
 12
0.956623549446682
 22
0.2913269377246665
 32
0.0
 13
0.9999256613236681
 23
0.012193105692364
 33
0.0
 40
0.0
 40
0.0
 40
0.0
 40
0.0
 40
0.0093949579383238
 40
0.1191912203943705
 40
0.1191912203943705
 40
0.1191912203943705
 40
0.1191912203943705
 10
537.8889653468034
 20
196.2106831432968
 30
0.0
 10
537.8919611594733
 20
196.2115954780722
 30
0.0
 10
537.930178954727
 20
196.2224838809843
 30
0.0
 10
537.9704331398122
 20
196.2257632077465
 30
0.0
 10
538.0070291732613
 20
196.2262094602241
 30
0.0
 11
537.8889653468034
 21
196.2106831432968
 31
0.0
 11
537.8979986610003
 21
196.2132647066376
 31
0.0
 11
538.0070291732613
 21
196.2262094602241
 31
0.0
  0
SPLINE
  5
131E9
330
1F
100
AcDbEntity
  8
0
100
AcDbSpline
210
0.0
220
0.0
230
1.0
 70
     8
 71
     3
 72
    20
 73
    16
 74
    14
 42
0.0000000001
 43
0.0000000001
 44
0.0000000001
 12
-0.4114360454886266
 22
-0.9114386323130487
 32
0.0
 13
0.9999256634150441
 23
0.0121929341827179
 33
0.0
 40
0.0
 40
0.0
 40
0.0
 40
0.0
 40
0.0829641327672616
 40
0.2156998274209329
 40
0.4055876213806024
 40
0.6508586940107654
 40
0.9436950591491699
 40
1.272963100170978
 40
1.625428629516589
 40
1.986624124934339
 40
2.341632415875822
 40
2.675854296441816
 40
2.975786827610881
 40
3.229866590966469
 40
3.429585593413713
 40
3.429585593413713
 40
3.429585593413713
 40
3.429585593413713
 10
537.6385221557026
 20
196.2363622458115
 30
0.0
 10
537.6271440108015
 20
196.2111566739114
 30
0.0
 10
537.6278245506134
 20
196.1332733556986
 30
0.0
 10
537.7010189728699
 20
196.0162702034434
 30
0.0
 10
537.8281829279845
 20
195.876131915128
 30
0.0
 10
538.014228933579
 20
195.7191457163596
 30
0.0
 10
538.2494656819731
 20
195.5508886933148
 30
0.0
 10
538.5254220248754
 20
195.3790510504775
 30
0.0
 10
538.8299463224803
 20
195.2110870920145
 30
0.0
 10
539.1500075664544
 20
195.0543838910967
 30
0.0
 10
539.4716899399885
 20
194.9157330829757
 30
0.0
 10
539.7810029786082
 20
194.8011017892401
 30
0.0
 10
540.0646455540757
 20
194.7151950564054
 30
0.0
 10
540.3102653890086
 20
194.6615062856061
 30
0.0
 10
540.4615353073416
 20
194.6458434543266
 30
0.0
 10
540.5281033593478
 20
194.6466551745439
 30
0.0
 11
537.6385221557026
 21
196.2363622458115
 31
0.0
 11
537.6333255390593
 21
196.1535610229867
 31
0.0
 11
537.6930782189438
 21
196.0350351528915
 31
0.0
 11
537.8184029061456
 21
195.8923778815288
 31
0.0
 11
538.0038223085746
 21
195.7318240143315
 31
0.0
 11
538.2412327061945
 21
195.5603905291268
 31
0.0
 11
538.52025812959
 21
195.3855698897924
 31
0.0
 11
538.8287038262966
 21
195.2150025964444
 31
0.0
 11
539.1530892404149
 21
195.0561432592389
 31
0.0
 11
539.4792371710183
 21
194.9159347930169
 31
0.0
 11
539.7928933910501
 21
194.8005049828099
 31
0.0
 11
540.0803496156088
 21
194.7148986616885
 31
0.0
 11
540.3290426324303
 21
194.662857240387
 31
0.0
 11
540.5281033593478
 21
194.6466551745439
 31
0.0
  0
SPLINE
  5
131EA
330
1F
100
AcDbEntity
  8
0
100
AcDbSpline
210
0.0
220
0.0
230
1.0
 70
     8
 71
     3
 72
    10
 73
     6
 74
     4
 42
0.0000000001
 43
0.0000000001
 44
0.0000000001
 12
-0.9998571019693759
 22
-0.016904899922834
 32
0.0
 13
-0.4110129041068448
 23
-0.9116295259904967
 33
0.0
 40
0.0
 40
0.0
 40
0.0
 40
0.0
 40
0.1355502760876511
 40
0.2301538529292579
 40
0.2373760149303225
 40
0.2373760149303225
 40
0.2373760149303225
 40
0.2373760149303225
 10
538.1776808898687
 20
196.9910940796215
 30
0.0
 10
538.1325039211287
 20
196.9903302583376
 30
0.0
 10
538.0562542044754
 20
196.9844816811994
 30
0.0
 10
537.9804749166456
 20
196.940997562968
 30
0.0
 10
537.9651446395627
 20
196.9105871527512
 30
0.0
 10
537.9641551723034
 20
196.9083925073773
 30
0.0
 11
538.1776808898687
 21
196.9910940796215
 31
0.0
 11
538.0436515184667
 21
196.9708455006831
 31
0.0
 11
537.9674056980045
 21
196.9148418256852
 31
0.0
 11
537.9641551723034
 21
196.9083925073773
 31
0.0
  0
SPLINE
  5
131EB
330
1F
100
AcDbEntity
  8
0
100
AcDbSpline
210
0.0
220
0.0
230
1.0
 70
     8
 71
     3
 72
     9
 73
     5
 74
     3
 42
0.0000000001
 43
0.0000000001
 44
0.0000000001
 12
0.3795996573556231
 22
-0.9251508526372839
 32
0.0
 13
-0.400986328427014
 23
-0.9160840378560379
 33
0.0
 40
0.0
 40
0.0
 40
0.0
 40
0.0
 40
0.0563409179440363
 40
0.1246332072183024
 40
0.1246332072183024
 40
0.1246332072183024
 40
0.1246332072183024
 10
543.9383167962808
 20
201.1876491664236
 30
0.0
 10
543.9454457939963
 20
201.1702745503321
 30
0.0
 10
543.9565944191212
 20
201.1297455300861
 30
0.0
 10
543.9513931137939
 20
201.0863272641068
 30
0.0
 10
543.9422650223487
 20
201.0654734387359
 30
0.0
 11
543.9383167962808
 21
201.1876491664236
 31
0.0
 11
543.9521841994625
 21
201.1330415280955
 31
0.0
 11
543.9422650223487
 21
201.0654734387359
 31
0.0
  0
SPLINE
  5
131EC
330
1F
100
AcDbEntity
  8
0
100
AcDbSpline
210
0.0
220
0.0
230
1.0
 70
     8
 71
     3
 72
    12
 73
     8
 74
     0
 42
0.0000000001
 43
0.0000000001
 40
0.0
 40
0.0
 40
0.0
 40
0.0
 40
0.0889856640041622
 40
0.2465144142572709
 40
0.4722187728986916
 40
0.7672091182016353
 40
0.9939334795552907
 40
0.9939334795552907
 40
0.9939334795552907
 40
0.9939334795552907
 10
539.8178036797004
 20
200.9894493722224
 30
0.0
 10
539.8086592876826
 20
200.9685849640389
 30
0.0
 10
539.8006561661161
 20
200.9023943719594
 30
0.0
 10
539.858577728147
 20
200.7908373985766
 30
0.0
 10
539.9683625668583
 20
200.6572837624843
 30
0.0
 10
540.1104439153591
 20
200.5277387737832
 30
0.0
 10
540.2152104037378
 20
200.444829888538
 30
0.0
 10
540.261556068294
 20
200.4099034666277
 30
0.0
  0
SPLINE
  5
131ED
330
1F
100
AcDbEntity
  8
0
100
AcDbSpline
210
0.0
220
0.0
230
1.0
 70
     8
 71
     3
 72
    10
 73
     6
 74
     0
 42
0.0000000001
 43
0.0000000001
 40
0.5054477850608489
 40
0.5054477850608489
 40
0.5054477850608489
 40
0.5054477850608489
 40
0.5788698856249633
 40
0.9029706754363131
 40
1.160304674357875
 40
1.160304674357875
 40
1.160304674357875
 40
1.160304674357875
 10
542.3983454334893
 20
199.3745190932751
 30
0.0
 10
542.4165291947713
 20
199.3697505516742
 30
0.0
 10
542.5151716355115
 20
199.3446755626806
 30
0.0
 10
542.6794111425756
 20
199.3104631687517
 30
0.0
 10
542.828292991064
 20
199.2961111027695
 30
0.0
 10
542.8941655976784
 20
199.2969143428717
 30
0.0
  0
SPLINE
  5
131EE
330
1F
100
AcDbEntity
  8
0
100
AcDbSpline
210
0.0
220
0.0
230
1.0
 70
     8
 71
     3
 72
    10
 73
     6
 74
     4
 42
0.0000000001
 43
0.0000000001
 44
0.0000000001
 12
-0.9582549145839381
 22
-0.2859152298771951
 32
0.0
 13
-0.400986330957278
 23
-0.9160840367484963
 33
0.0
 40
0.0
 40
0.0
 40
0.0
 40
0.0
 40
0.007438068014001
 40
0.1051893514701563
 40
0.1241161151352178
 40
0.1241161151352178
 40
0.1241161151352178
 40
0.1241161151352178
 10
540.7305424075341
 20
202.7409902053894
 30
0.0
 10
540.7281665524577
 20
202.7402813197474
 30
0.0
 10
540.6948054434052
 20
202.7299208994166
 30
0.0
 10
540.6532977479346
 20
202.7098154607194
 30
0.0
 10
540.6344366071039
 20
202.6753488329088
 30
0.0
 10
540.631906815931
 20
202.6695693308885
 30
0.0
 11
540.7305424075341
 21
202.7409902053894
 31
0.0
 11
540.7234394575746
 21
202.7387827277217
 31
0.0
 11
540.6410861239636
 21
202.6861211491232
 31
0.0
 11
540.631906815931
 21
202.6695693308885
 31
0.0
  0
SPLINE
  5
131EF
330
1F
100
AcDbEntity
  8
0
100
AcDbSpline
210
0.0
220
0.0
230
1.0
 70
     8
 71
     3
 72
    10
 73
     6
 74
     4
 42
0.0000000001
 43
0.0000000001
 44
0.0000000001
 12
-0.4014161361486602
 22
-0.9158957831759463
 32
0.0
 13
-0.9999256634349974
 23
-0.0121929325463704
 33
0.0
 40
0.0
 40
0.0
 40
0.0
 40
0.0
 40
0.0188764956692346
 40
0.1166277791261409
 40
0.2603565947575723
 40
0.2603565947575723
 40
0.2603565947575723
 40
0.2603565947575723
 10
543.1281213735656
 20
199.3852609847305
 30
0.0
 10
543.1255955969137
 20
199.3794980171356
 30
0.0
 10
543.1066465472575
 20
199.3450330942594
 30
0.0
 10
543.0217899397282
 20
199.3033629196389
 30
0.0
 10
542.9420716414533
 20
199.2974985014563
 30
0.0
 10
542.8941655976784
 20
199.2969143428717
 30
0.0
 11
543.1281213735656
 21
199.3852609847305
 31
0.0
 11
543.11896232181
 21
199.3687554141651
 31
0.0
 11
543.0366089881982
 21
199.3160938355666
 31
0.0
 11
542.8941655976784
 21
199.2969143428717
 31
0.0
  0
SPLINE
  5
131F0
330
1F
100
AcDbEntity
  8
0
100
AcDbSpline
210
0.0
220
0.0
230
1.0
 70
     8
 71
     3
 72
    10
 73
     6
 74
     4
 42
0.0000000001
 43
0.0000000001
 44
0.0000000001
 12
0.610726956110227
 22
-0.7918412625522473
 32
0.0
 13
-0.4110129020184428
 23
-0.9116295269320636
 33
0.0
 40
0.0
 40
0.0
 40
0.0
 40
0.0
 40
0.0217405048762807
 40
0.1544762004081075
 40
0.2374031610800735
 40
0.2374031610800735
 40
0.2374031610800735
 40
0.2374031610800735
 10
541.0063164547151
 20
195.6201699163196
 30
0.0
 10
541.0107422921709
 20
195.6144315733763
 30
0.0
 10
541.0417339311646
 20
195.5734166654813
 30
0.0
 10
541.0846730731459
 20
195.5044849322941
 30
0.0
 10
541.0853389417216
 20
195.4267196066685
 30
0.0
 10
541.0739775914678
 20
195.4015200513594
 30
0.0
 11
541.0063164547151
 21
195.6201699163196
 31
0.0
 11
541.0194051870446
 21
195.6028109233107
 31
0.0
 11
541.0791578688796
 21
195.4842850532154
 31
0.0
 11
541.0739775914678
 21
195.4015200513594
 31
0.0
  0
SPLINE
  5
131F1
330
1F
100
AcDbEntity
  8
0
100
AcDbSpline
210
0.0
220
0.0
230
1.0
 70
     8
 71
     3
 72
    10
 73
     6
 74
     4
 42
0.0000000001
 43
0.0000000001
 44
0.0000000001
 12
-0.4114360484606885
 22
-0.9114386309714188
 32
0.0
 13
-0.9999256633886194
 23
-0.0121929363497685
 33
0.0
 40
0.0
 40
0.0
 40
0.0
 40
0.0
 40
0.0071824624599941
 40
0.1017860393011259
 40
0.2439776513321226
 40
0.2439776513321226
 40
0.2439776513321226
 40
0.2439776513321226
 10
540.7483118944543
 20
194.7294173478559
 30
0.0
 10
540.74732685313
 20
194.727235223272
 30
0.0
 10
540.7319951432767
 20
194.6968412964254
 30
0.0
 10
540.6541354293418
 20
194.6521397561526
 30
0.0
 10
540.5754970400106
 20
194.6472330856355
 30
0.0
 10
540.5281033593478
 20
194.6466551745439
 30
0.0
 11
540.7483118944543
 21
194.7294173478559
 31
0.0
 11
540.7450777099344
 21
194.7230042505168
 31
0.0
 11
540.6688318894728
 21
194.6670005755189
 31
0.0
 11
540.5281033593478
 21
194.6466551745439
 31
0.0
  0
SPLINE
  5
131F2
330
1F
100
AcDbEntity
  8
0
100
AcDbSpline
210
0.0
220
0.0
230
1.0
 70
     8
 71
     3
 72
    20
 73
    16
 74
    14
 42
0.0000000001
 43
0.0000000001
 44
0.0000000001
 12
0.9999256634143661
 22
0.0121929342383116
 32
0.0
 13
0.3795996591407818
 23
-0.9251508519048135
 33
0.0
 40
0.0
 40
0.0
 40
0.0
 40
0.0
 40
0.1976325092271068
 40
0.4465419158018965
 40
0.7395673770280117
 40
1.066894294431991
 40
1.416970471404364
 40
1.777177472337467
 40
2.134437435477629
 40
2.475805304370412
 40
2.789064600499729
 40
3.063352955858779
 40
3.289905541051397
 40
3.463246487282226
 40
3.528791036210569
 40
3.528791036210569
 40
3.528791036210569
 40
3.528791036210569
 10
540.8658828480944
 20
202.7579622204164
 30
0.0
 10
540.9317554540614
 20
202.7587654604792
 30
0.0
 10
541.0806366012444
 20
202.7444136318885
 30
0.0
 10
541.3221577137344
 20
202.6941023319714
 30
0.0
 10
541.6006663376343
 20
202.6132090554019
 30
0.0
 10
541.9055139907361
 20
202.504597685614
 30
0.0
 10
542.2251787450322
 20
202.3721768515787
 30
0.0
 10
542.547420145841
 20
202.2209382359149
 30
0.0
 10
542.8599403716375
 20
202.0566473719756
 30
0.0
 10
543.1507936893845
 20
201.8855862314769
 30
0.0
 10
543.4090824859907
 20
201.7144467570966
 30
0.0
 10
543.6248610216266
 20
201.5495658413117
 30
0.0
 10
543.7915556332236
 20
201.3980729863132
 30
0.0
 10
543.8900557154632
 20
201.2772579784964
 30
0.0
 10
543.9300232334702
 20
201.2078620315165
 30
0.0
 10
543.9383167962808
 20
201.1876491664236
 30
0.0
 11
540.8658828480944
 21
202.7579622204164
 31
0.0
 11
541.062942274793
 21
202.7429225710649
 31
0.0
 11
541.3070448553601
 21
202.6942417448403
 31
0.0
 11
541.5888098660226
 21
202.6137905192864
 31
0.0
 11
541.8974092326476
 21
202.5046605885807
 31
0.0
 11
542.2209836544332
 21
202.3710457568825
 31
0.0
 11
542.5470983506206
 21
202.2180807659474
 31
0.0
 11
542.863220914717
 21
202.0516439739449
 31
0.0
 11
543.1572029336096
 21
201.8781314542807
 31
0.0
 11
543.4177468455807
 21
201.7042111951209
 31
0.0
 11
543.6348400906015
 21
201.5365668547693
 31
0.0
 11
543.8001398976487
 21
201.3816409123077
 31
0.0
 11
543.9072938894467
 21
201.2453870841708
 31
0.0
 11
543.9383167962808
 21
201.1876491664236
 31
0.0
  0
SPLINE
  5
131F3
330
1F
100
AcDbEntity
  8
0
100
AcDbSpline
210
0.0
220
0.0
230
1.0
 70
     8
 71
     3
 72
    11
 73
     7
 74
     5
 42
0.0000000001
 43
0.0000000001
 44
0.0000000001
 12
0.3736847752213957
 22
-0.9275557604628064
 32
0.0
 13
-0.9999256613984222
 23
-0.0121930995619666
 33
0.0
 40
0.0
 40
0.0
 40
0.0
 40
0.0
 40
0.0606280240437207
 40
0.1273834243523657
 40
0.2060457849689954
 40
0.3158420474249895
 40
0.3158420474249895
 40
0.3158420474249895
 40
0.3158420474249895
 10
540.5732473722038
 20
194.9102715817068
 30
0.0
 10
540.5807992953827
 20
194.8915262907244
 30
0.0
 10
540.5915141601381
 20
194.8487032846071
 30
0.0
 10
540.5624377055273
 20
194.7789627312622
 30
0.0
 10
540.478701762484
 20
194.7447750778538
 30
0.0
 10
540.4164009103469
 20
194.7400163856965
 30
0.0
 10
540.3798048768951
 20
194.7395701334433
 30
0.0
 11
540.5732473722038
 21
194.9102715817068
 31
0.0
 11
540.5844995075047
 21
194.8506968660078
 31
0.0
 11
540.5583878933016
 21
194.7892601744133
 31
0.0
 11
540.4888353891561
 21
194.7525148870303
 31
0.0
 11
540.3798048768951
 21
194.7395701334433
 31
0.0
  0
SPLINE
  5
131F4
330
1F
100
AcDbEntity
  8
0
100
AcDbSpline
210
0.0
220
0.0
230
1.0
 70
     8
 71
     3
 72
    10
 73
     6
 74
     4
 42
0.0000000001
 43
0.0000000001
 44
0.0000000001
 12
-0.9999256634349974
 22
-0.0121929325463704
 32
0.0
 13
-0.4014161361486602
 23
-0.9158957831759463
 33
0.0
 40
0.0
 40
0.0
 40
0.0
 40
0.0
 40
0.1437288156315631
 40
0.2414800980373063
 40
0.2603565937063033
 40
0.2603565937063033
 40
0.2603565937063033
 40
0.2603565937063033
 10
540.0517594555878
 20
201.0777960121299
 30
0.0
 10
540.0038534118128
 20
201.0772118535453
 30
0.0
 10
539.9241351144874
 20
201.0713474344804
 30
0.0
 10
539.8392785057628
 20
201.0296772624918
 30
0.0
 10
539.8203294563522
 20
200.9952123398172
 30
0.0
 10
539.8178036797004
 20
200.9894493722224
 30
0.0
 11
540.0517594555878
 21
201.0777960121299
 31
0.0
 11
539.909316065068
 21
201.0586165194349
 31
0.0
 11
539.8269627314562
 21
201.0059549427874
 31
0.0
 11
539.8178036797004
 21
200.9894493722224
 31
0.0
  0
SPLINE
  5
131F5
330
1F
100
AcDbEntity
  8
0
100
AcDbSpline
210
0.0
220
0.0
230
1.0
 70
     8
 71
     3
 72
     9
 73
     5
 74
     3
 42
0.0000000001
 43
0.0000000001
 44
0.0000000001
 12
-0.9999256633843135
 22
-0.0121929367029037
 32
0.0
 13
-0.4926331604757236
 23
-0.8702370764336004
 33
0.0
 40
0.0
 40
0.0
 40
0.0
 40
0.0
 40
0.088348597486456
 40
0.1352299313948171
 40
0.1352299313948171
 40
0.1352299313948171
 40
0.1352299313948171
 10
546.1860968523597
 20
211.9090435583494
 30
0.0
 10
546.1566495090428
 20
211.9086844820638
 30
0.0
 10
546.1091968613289
 20
211.907217010059
 30
0.0
 10
546.0719474056595
 20
211.8763514958189
 30
0.0
 10
546.0642489724294
 20
211.8627522041657
 30
0.0
 11
546.1860968523597
 21
211.9090435583494
 31
0.0
 11
546.0990008717133
 21
211.8942190909705
 31
0.0
 11
546.0642489724294
 21
211.8627522041657
 31
0.0
  0
SPLINE
  5
131F6
330
1F
100
AcDbEntity
  8
0
100
AcDbSpline
210
0.0
220
0.0
230
1.0
 70
     8
 71
     3
 72
    23
 73
    19
 74
    17
 42
0.0000000001
 43
0.0000000001
 44
0.0000000001
 12
-0.9999256644602708
 22
-0.0121928484648233
 32
0.0
 13
0.9566235486271676
 23
0.2913269404156868
 33
0.0
 40
0.0
 40
0.0
 40
0.0
 40
0.0
 40
0.1462832640895685
 40
0.3340262659191545
 40
0.560562217482943
 40
0.8177362816520142
 40
1.094526656247223
 40
1.379450383381895
 40
1.66316529698419
 40
1.937463538323248
 40
2.194707741443974
 40
2.427914270270415
 40
2.630528634115465
 40
2.79703065788529
 40
2.923343988505796
 40
3.010991205980399
 40
3.077746606288369
 40
3.147242882394541
 40
3.147242882394541
 40
3.147242882394541
 40
3.147242882394541
 10
540.3798048768951
 20
194.7395701334433
 30
0.0
 10
540.3310474135471
 20
194.738975596886
 30
0.0
 10
540.2196470205047
 20
194.7484202554718
 30
0.0
 10
540.0360762275211
 20
194.7841750542278
 30
0.0
 10
539.8200824510006
 20
194.8435646567675
 30
0.0
 10
539.5800666080011
 20
194.9255112738137
 30
0.0
 10
539.3263920221584
 20
195.0265751609545
 30
0.0
 10
539.0694768842622
 20
195.1426007251523
 30
0.0
 10
538.8185196070829
 20
195.2691589903526
 30
0.0
 10
538.581349943426
 20
195.4020260978807
 30
0.0
 10
538.3650341720974
 20
195.5370569044752
 30
0.0
 10
538.1759482279525
 20
195.6701699789177
 30
0.0
 10
538.0202801612868
 20
195.7969503699972
 30
0.0
 10
537.9022083679561
 20
195.9138397974933
 30
0.0
 10
537.8277382506987
 20
196.0156380039959
 30
0.0
 10
537.7917259158208
 20
196.1076380815306
 30
0.0
 10
537.8228044831387
 20
196.1837070265278
 30
0.0
 10
537.8668047553817
 20
196.2039344308007
 30
0.0
 10
537.8889653468034
 20
196.2106831432968
 30
0.0
 11
540.3798048768951
 21
194.7395701334433
 31
0.0
 11
540.2338605779585
 21
194.7495227693058
 31
0.0
 11
540.0492730483684
 21
194.7837992722746
 31
0.0
 11
539.8305830570985
 21
194.8429027837547
 31
0.0
 11
539.5869788503785
 21
194.9253375443207
 31
0.0
 11
539.3297151813765
 21
195.0274566712274
 31
0.0
 11
539.0699903338163
 21
195.1446084268445
 31
0.0
 11
538.8166975680031
 21
195.2724244156216
 31
0.0
 11
538.5775289142708
 21
195.4067295915217
 31
0.0
 11
538.3595886061546
 21
195.5433919569974
 31
0.0
 11
538.1693962873685
 21
195.6783444188573
 31
0.0
 11
538.0131852495849
 21
195.8073819797104
 31
0.0
 11
537.8966624646166
 21
195.9263162661995
 31
0.0
 11
537.8251995345433
 21
196.0304705129578
 31
0.0
 11
537.8023345426512
 21
196.11508272766
 31
0.0
 11
537.8284461568538
 21
196.176519419254
 31
0.0
 11
537.8889653468034
 21
196.2106831432968
 31
0.0
  0
SPLINE
  5
131F7
330
1F
100
AcDbEntity
  8
0
100
AcDbSpline
210
0.0
220
0.0
230
1.0
 70
     8
 71
     3
 72
    19
 73
    15
 74
    13
 42
0.0000000001
 43
0.0000000001
 44
0.0000000001
 12
0.9999256634135294
 22
0.0121929343069467
 32
0.0
 13
-0.4926331677632292
 23
-0.8702370723082108
 33
0.0
 40
0.0
 40
0.0
 40
0.0
 40
0.0
 40
0.1307568683356716
 40
0.3008784158517241
 40
0.5024326459007887
 40
0.724849546313104
 40
0.9560432507991619
 40
1.183322386394437
 40
1.394263741954626
 40
1.577599628948633
 40
1.724216889497366
 40
1.828741883089948
 40
1.89447110022322
 40
1.904849707916891
 40
1.904849707916891
 40
1.904849707916891
 40
1.904849707916891
 10
546.1860968523597
 20
211.9090435583494
 30
0.0
 10
546.2296792351318
 20
211.9095749949847
 30
0.0
 10
546.3299106157844
 20
211.8974581137314
 30
0.0
 10
546.4927637548362
 20
211.8579954711536
 30
0.0
 10
546.6809452397001
 20
211.79559809721
 30
0.0
 10
546.8835202770382
 20
211.7137231866344
 30
0.0
 10
547.0889170284329
 20
211.6168525339817
 30
0.0
 10
547.2852532057268
 20
211.5106450419447
 30
0.0
 10
547.4613750580072
 20
211.4010070583017
 30
0.0
 10
547.6071172042488
 20
211.2951877199077
 30
0.0
 10
547.7155941133067
 20
211.1969658643801
 30
0.0
 10
547.781056979163
 20
211.1166901727399
 30
0.0
 10
547.8030923254761
 20
211.0527412541571
 30
0.0
 10
547.7926338311411
 20
211.0291959477352
 30
0.0
 10
547.7909295490128
 20
211.0261853313439
 30
0.0
 11
546.1860968523597
 21
211.9090435583494
 31
0.0
 11
546.3162856754868
 21
211.8968686271494
 31
0.0
 11
546.4820012414389
 21
211.8584018605781
 31
0.0
 11
546.6736127636456
 21
211.7958788071637
 31
0.0
 11
546.8799844770074
 21
211.7129330808532
 31
0.0
 11
547.0891228068124
 21
211.6143851838672
 31
0.0
 11
547.2888733941532
 21
211.5059623618512
 31
0.0
 11
547.4676274594436
 21
211.3939657564217
 31
0.0
 11
547.6149964686826
 21
211.2849042023534
 31
0.0
 11
547.7224158695911
 21
211.1851159595626
 31
0.0
 11
547.7836428373282
 21
211.100400360602
 31
0.0
 11
547.7951190830467
 21
211.0356807672074
 31
0.0
 11
547.7909295490128
 21
211.0261853313439
 31
0.0
  0
SPLINE
  5
131F8
330
1F
100
AcDbEntity
  8
0
100
AcDbSpline
210
0.0
220
0.0
230
1.0
 70
     8
 71
     3
 72
    20
 73
    16
 74
    14
 42
0.0000000001
 43
0.0000000001
 44
0.0000000001
 12
0.9999256634150441
 22
0.0121929341827179
 32
0.0
 13
-0.4114360454886266
 23
-0.9114386323130487
 33
0.0
 40
0.0
 40
0.0
 40
0.0
 40
0.0
 40
0.1997190024473407
 40
0.4537987658025883
 40
0.7537312969714362
 40
1.087953177536826
 40
1.44296146847898
 40
1.804156963896818
 40
2.156622493242528
 40
2.485890534264442
 40
2.778726899402462
 40
3.023997972032796
 40
3.213885765991578
 40
3.34662146064576
 40
3.429585593413433
 40
3.429585593413433
 40
3.429585593413433
 40
3.429585593413433
 10
537.8587306908086
 20
196.3191244191238
 30
0.0
 10
537.9252987428149
 20
196.3199361393411
 30
0.0
 10
538.0765686611477
 20
196.3042733080621
 30
0.0
 10
538.3221884960804
 20
196.2505845372617
 30
0.0
 10
538.6058310715475
 20
196.1646778044273
 30
0.0
 10
538.9151441101673
 20
196.0500465106921
 30
0.0
 10
539.2368264837013
 20
195.9113957025711
 30
0.0
 10
539.5568877276757
 20
195.7546925016529
 30
0.0
 10
539.8614120252808
 20
195.5867285431902
 30
0.0
 10
540.137368368183
 20
195.4148909003528
 30
0.0
 10
540.3726051165768
 20
195.2466338773074
 30
0.0
 10
540.5586511221713
 20
195.0896476785398
 30
0.0
 10
540.6858150772854
 20
194.9495093902237
 30
0.0
 10
540.7590094995426
 20
194.8325062379694
 30
0.0
 10
540.7596900393554
 20
194.7546229197562
 30
0.0
 10
540.7483118944543
 20
194.7294173478559
 30
0.0
 11
537.8587306908086
 21
196.3191244191238
 31
0.0
 11
538.0577914177263
 21
196.3029223532809
 31
0.0
 11
538.3064844345473
 21
196.2508809319789
 31
0.0
 11
538.5939406591058
 21
196.1652746108575
 31
0.0
 11
538.9075968791371
 21
196.049844800651
 31
0.0
 11
539.2337448097412
 21
195.9096363344289
 31
0.0
 11
539.5581302238595
 21
195.7507769972232
 31
0.0
 11
539.8665759205662
 21
195.5802097038752
 31
0.0
 11
540.1456013439617
 21
195.4053890645406
 31
0.0
 11
540.3830117415812
 21
195.2339555793359
 31
0.0
 11
540.5684311440104
 21
195.0734017121386
 31
0.0
 11
540.6937558312114
 21
194.9307444407764
 31
0.0
 11
540.7535085110969
 21
194.8122185706812
 31
0.0
 11
540.7483118944543
 21
194.7294173478559
 31
0.0
  0
SPLINE
  5
131F9
330
1F
100
AcDbEntity
  8
0
100
AcDbSpline
210
0.0
220
0.0
230
1.0
 70
     8
 71
     3
 72
    18
 73
    14
 74
    12
 42
0.0000000001
 43
0.0000000001
 44
0.0000000001
 12
0.999925663415844
 22
0.0121929341171191
 32
0.0
 13
0.6107269533955173
 23
-0.7918412646460336
 33
0.0
 40
0.0
 40
0.0
 40
0.0
 40
0.0
 40
0.1997190024477939
 40
0.4537987638930499
 40
0.7537312969317992
 40
1.087953177497656
 40
1.442961468439244
 40
1.804156963857556
 40
2.15662249225911
 40
2.485890532663856
 40
2.77872689938291
 40
3.023997970736533
 40
3.192213808800168
 40
3.192213808800168
 40
3.192213808800168
 40
3.192213808800168
 10
538.1843800485913
 20
196.9911909016581
 30
0.0
 10
538.2509481005977
 20
196.992002621871
 30
0.0
 10
538.4022180186735
 20
196.9763397887681
 30
0.0
 10
538.6478378513819
 20
196.9226510292501
 30
0.0
 10
538.9314804365496
 20
196.8367442404872
 30
0.0
 10
539.2407934347452
 20
196.7221131946979
 30
0.0
 10
539.5624759743555
 20
196.583461378118
 30
0.0
 10
539.8825365860223
 20
196.4267620161208
 30
0.0
 10
540.1870631435509
 20
196.2587843286979
 30
0.0
 10
540.4630119151322
 20
196.0869927078782
 30
0.0
 10
540.6982722476633
 20
195.9185922663776
 30
0.0
 10
540.8787144760118
 20
195.7666766147158
 30
0.0
 10
540.9720718059507
 20
195.6645699969682
 30
0.0
 10
541.0063164547151
 20
195.6201699163196
 30
0.0
 11
538.1843800485913
 21
196.9911909016581
 31
0.0
 11
538.3834407755093
 21
196.9749888358152
 31
0.0
 11
538.632133790379
 21
196.9229474145134
 31
0.0
 11
538.9195900168886
 21
196.8373410933921
 31
0.0
 11
539.2332462369203
 21
196.7219112831852
 31
0.0
 11
539.5593941675238
 21
196.5817028169632
 31
0.0
 11
539.8837795816428
 21
196.4228434797578
 31
0.0
 11
540.192225278349
 21
196.25227618836
 31
0.0
 11
540.4712506997944
 21
196.0774555470752
 31
0.0
 11
540.708661099364
 21
195.9060220618706
 31
0.0
 11
540.8940805017935
 21
195.7454681966239
 31
0.0
 11
541.0063164547151
 21
195.6201699163196
 31
0.0
  0
SPLINE
  5
131FA
330
1F
100
AcDbEntity
  8
0
100
AcDbSpline
210
0.0
220
0.0
230
1.0
 70
     8
 71
     3
 72
    10
 73
     6
 74
     4
 42
0.0000000001
 43
0.0000000001
 44
0.0000000001
 12
-0.9999256633886194
 22
-0.0121929363497685
 32
0.0
 13
-0.4114360484606885
 23
-0.9114386309714188
 33
0.0
 40
0.0
 40
0.0
 40
0.0
 40
0.0
 40
0.1421916120308407
 40
0.2367951888724307
 40
0.2439776513319142
 40
0.2439776513319142
 40
0.2439776513319142
 40
0.2439776513319142
 10
537.8587306908086
 20
196.3191244191238
 30
0.0
 10
537.8113370101459
 20
196.3185465080321
 30
0.0
 10
537.7326986208173
 20
196.313639837513
 30
0.0
 10
537.6548389068761
 20
196.2689382972437
 30
0.0
 10
537.6395071970267
 20
196.2385443703952
 30
0.0
 10
537.6385221557026
 20
196.2363622458115
 30
0.0
 11
537.8587306908086
 21
196.3191244191238
 31
0.0
 11
537.7180021606839
 21
196.2987790181483
 31
0.0
 11
537.6417563402217
 21
196.2427753431504
 31
0.0
 11
537.6385221557026
 21
196.2363622458115
 31
0.0
  0
SPLINE
  5
131FB
330
1F
100
AcDbEntity
  8
0
100
AcDbSpline
210
0.0
220
0.0
230
1.0
 70
     8
 71
     3
 72
    21
 73
    17
 74
    15
 42
0.0000000001
 43
0.0000000001
 44
0.0000000001
 12
0.999925663413863
 22
0.0121929342795779
 32
0.0
 13
-0.4014161346043978
 23
-0.9158957838527614
 33
0.0
 40
0.0
 40
0.0
 40
0.0
 40
0.0
 40
0.1976325092269254
 40
0.4465419158014811
 40
0.7395673751519718
 40
1.066894292555932
 40
1.416970471331841
 40
1.777177472264307
 40
2.134437435404154
 40
2.475805304297154
 40
2.789064598804496
 40
3.063352952970403
 40
3.289905539587131
 40
3.463246487351382
 40
3.584228567545238
 40
3.652569555286091
 40
3.652569555286091
 40
3.652569555286091
 40
3.652569555286091
 10
540.0517594555878
 20
201.0777960121299
 30
0.0
 10
540.1176320615548
 20
201.0785992521954
 30
0.0
 10
540.2665132089929
 20
201.0642474225893
 30
0.0
 10
540.5080343193809
 20
201.0139361286899
 30
0.0
 10
540.7865429496556
 20
200.9330428248754
 30
0.0
 10
541.0913905711827
 20
200.8244315714228
 30
0.0
 10
541.4110554557795
 20
200.6920102607726
 30
0.0
 10
541.7332963562241
 20
200.5407734942006
 30
0.0
 10
542.0458184183668
 20
200.3764758478698
 30
0.0
 10
542.3366653663909
 20
200.2054382326265
 30
0.0
 10
542.5949749645731
 20
200.0342219247744
 30
0.0
 10
542.8106901074941
 20
199.8695751352447
 30
0.0
 10
542.977562180869
 20
199.7174268885027
 30
0.0
 10
543.0873473730111
 20
199.5838729083239
 30
0.0
 10
543.1452688772289
 20
199.472315990194
 30
0.0
 10
543.1372657652769
 20
199.4061253922425
 30
0.0
 10
543.1281213735656
 20
199.3852609847305
 30
0.0
 11
540.0517594555878
 21
201.0777960121299
 31
0.0
 11
540.2488188822863
 21
201.0627563627778
 31
0.0
 11
540.4929214628531
 21
201.0140755365533
 31
0.0
 11
540.7746864715651
 21
200.9336243109996
 31
0.0
 11
541.0832858381901
 21
200.8244943802939
 31
0.0
 11
541.406860261927
 21
200.6908795485959
 31
0.0
 11
541.7329749581137
 21
200.5379145576606
 31
0.0
 11
542.0490975222096
 21
200.3714777656581
 31
0.0
 11
542.3430795411023
 21
200.1979652459935
 31
0.0
 11
542.6036234511236
 21
200.0240449868343
 31
0.0
 11
542.8207166961433
 21
199.8564006484334
 31
0.0
 11
542.9860165051421
 21
199.7014747059716
 31
0.0
 11
543.09317049694
 21
199.5652208758838
 31
0.0
 11
543.1380608050051
 21
199.4528753198086
 31
0.0
 11
543.1281213735656
 21
199.3852609847305
 31
0.0
  0
LINE
  5
131FC
330
1F
100
AcDbEntity
  8
0
100
AcDbLine
 10
542.4918195440333
 20
199.5674284768463
 30
0.0
 11
540.8478144197036
 21
196.174574420502
 31
0.0
  0
LINE
  5
131FD
330
1F
100
AcDbEntity
  8
0
100
AcDbLine
 10
540.3550580976349
 20
200.6028704681635
 30
0.0
 11
538.6948495206731
 21
197.1765761590714
 31
0.0
  0
ARC
  5
131FE
330
1F
100
AcDbEntity
  8
0
100
AcDbCircle
 10
539.8674985470768
 20
196.8743109091127
 30
0.0
 40
3.868272023179656
100
AcDbArc
 50
47.98977559965589
 51
80.30149526875888
  0
ARC
  5
131FF
330
1F
100
AcDbEntity
  8
0
100
AcDbCircle
 10
537.4830900027218
 20
191.7589125268293
 30
0.0
 40
5.551525948914012
100
AcDbArc
 50
52.69268098438264
 51
77.39226235053087
  0
ARC
  5
13200
330
1F
100
AcDbEntity
  8
0
100
AcDbCircle
 10
542.3535918675104
 20
199.6344066034481
 30
0.0
 40
0.1536
100
AcDbArc
 50
334.1475232371812
 51
47.98977559969078
  0
ARC
  5
13201
330
1F
100
AcDbEntity
  8
0
100
AcDbCircle
 10
540.4932857741439
 20
200.5358923415316
 30
0.0
 40
0.1536
100
AcDbArc
 50
80.30149526875888
 51
154.1475232247488
  0
SPLINE
  5
13202
330
1F
100
AcDbEntity
  8
0
  6
Continuous
 62
     7
370
    25
100
AcDbSpline
210
0.0
220
0.0
230
1.0
 70
     8
 71
     3
 72
    17
 73
    13
 74
    11
 42
0.0000000001
 43
0.0000000001
 44
0.0000000001
 12
-0.8474111911896812
 22
0.5309371648759253
 32
0.0
 13
0.9999260326804325
 23
0.0121626135337099
 33
0.0
 40
0.0
 40
0.0
 40
0.0
 40
0.0
 40
0.102817915589429
 40
0.2138520716781544
 40
0.3277910293725197
 40
0.4417048362769894
 40
0.5520004755557772
 40
0.6550121140812202
 40
0.7505876796823107
 40
0.8440333054172088
 40
0.9387999621490209
 40
1.029291490310843
 40
1.029291490310843
 40
1.029291490310843
 40
1.029291490310843
 10
541.2757081658153
 20
199.2887865566583
 30
0.0
 10
541.2466651483736
 20
199.3069831741921
 30
0.0
 10
541.1911776721167
 20
199.3530439958828
 30
0.0
 10
541.1247201280087
 20
199.44087599583
 30
0.0
 10
541.0780948651762
 20
199.5449103929846
 30
0.0
 10
541.0582262525159
 20
199.6571910205974
 30
0.0
 10
541.0698532935148
 20
199.7672706359632
 30
0.0
 10
541.1111684070642
 20
199.863262141833
 30
0.0
 10
541.174103213056
 20
199.9390733367633
 30
0.0
 10
541.2519796906974
 20
199.994488408513
 30
0.0
 10
541.3392887941146
 20
200.0287407431475
 30
0.0
 10
541.4011663793083
 20
200.0371165272942
 30
0.0
 10
541.4313279908903
 20
200.0374833984559
 30
0.0
 11
541.2757081658153
 21
199.2887865566583
 31
0.0
 11
541.1961135464759
 21
199.3538728097258
 31
0.0
 11
541.1288798475879
 21
199.4422369062366
 31
0.0
 11
541.0825826030103
 21
199.5463457494009
 31
0.0
 11
541.0634707774759
 21
199.6586448746344
 31
0.0
 11
541.0757139214513
 21
199.7682588950402
 31
0.0
 11
541.1165312619273
 21
199.8628387152354
 31
0.0
 11
541.1774092255694
 21
199.9365174929313
 31
0.0
 11
541.2534196391881
 21
199.9908728237692
 31
0.0
 11
541.3416334104852
 21
200.0255001219842
 31
0.0
 11
541.4313279908903
 21
200.0374833984559
 31
0.0
  0
SPLINE
  5
13203
330
1F
100
AcDbEntity
  8
0
  6
Continuous
 62
     7
370
    25
100
AcDbSpline
210
0.0
220
0.0
230
1.0
 70
     8
 71
     3
 72
     8
 73
     4
 74
     2
 42
0.0000000001
 43
0.0000000001
 44
0.0000000001
 12
0.7643608278628531
 22
0.6447887443409771
 32
0.0
 13
0.7291284637508995
 23
0.6843768576948328
 33
0.0
 40
0.0
 40
0.0
 40
0.0
 40
0.0
 40
0.0127065682648128
 40
0.0127065682648128
 40
0.0127065682648128
 40
0.0127065682648128
 10
541.2912900039408
 20
199.2807052944786
 30
0.0
 10
541.2945274716202
 20
199.2834363118774
 30
0.0
 10
541.2976911348168
 20
199.286256968389
 30
0.0
 10
541.3007793750164
 20
199.2891556621427
 30
0.0
 11
541.2912900039408
 21
199.2807052944786
 31
0.0
 11
541.3007793750164
 21
199.2891556621427
 31
0.0
  0
SPLINE
  5
13204
330
1F
100
AcDbEntity
  8
0
  6
Continuous
 62
     7
370
    25
100
AcDbSpline
210
0.0
220
0.0
230
1.0
 70
     8
 71
     3
 72
    17
 73
    13
 74
    11
 42
0.0000000001
 43
0.0000000001
 44
0.0000000001
 12
0.7291284902630572
 22
0.6843768294490361
 32
0.0
 13
-0.8474111924685566
 23
0.5309371628347549
 33
0.0
 40
0.0
 40
0.0
 40
0.0
 40
0.0
 40
0.0696670207300454
 40
0.1440173072800687
 40
0.2270136042826063
 40
0.3156353008705145
 40
0.400247790015773
 40
0.4782937500592382
 40
0.5533923497084499
 40
0.6282183597934652
 40
0.7043974421255878
 40
0.7830441155571575
 40
0.7830441155571575
 40
0.7830441155571575
 40
0.7830441155571575
 10
541.3007793750164
 20
199.2891556621427
 30
0.0
 10
541.3177114448984
 20
199.3050484937308
 30
0.0
 10
541.3480345181881
 20
199.342836003814
 30
0.0
 10
541.3861591991548
 20
199.4082800386536
 30
0.0
 10
541.4216155616768
 20
199.4822949913636
 30
0.0
 10
541.4529310938381
 20
199.5618608502979
 30
0.0
 10
541.4754840366992
 20
199.6427449548365
 30
0.0
 10
541.4858430052174
 20
199.7216530573998
 30
0.0
 10
541.4819198672782
 20
199.7980663388203
 30
0.0
 10
541.4606324679883
 20
199.8712488762205
 30
0.0
 10
541.419058852289
 20
199.936842357169
 30
0.0
 10
541.3788871850619
 20
199.9706743907554
 30
0.0
 10
541.3566718279565
 20
199.9845932046415
 30
0.0
 11
541.3007793750164
 21
199.2891556621427
 31
0.0
 11
541.3456124081858
 21
199.3424800741341
 31
0.0
 11
541.3838713899155
 21
199.4062312735509
 31
0.0
 11
541.4199242797685
 21
199.4809880421366
 31
0.0
 11
541.4519492816102
 21
199.5636209917582
 31
0.0
 11
541.4740407076833
 21
199.645298664432
 31
0.0
 11
541.4835540154588
 21
199.7227626486716
 31
0.0
 11
541.4790208853096
 21
199.7977243082072
 31
0.0
 11
541.4575385378085
 21
199.8694002492968
 31
0.0
 11
541.4165656278036
 21
199.9336223111657
 31
0.0
 11
541.3566718279565
 21
199.9845932046415
 31
0.0
  0
SPLINE
  5
13205
330
1F
100
AcDbEntity
  8
0
  6
Continuous
 62
     7
370
    25
100
AcDbSpline
210
0.0
220
0.0
230
1.0
 70
     8
 71
     3
 72
    10
 73
     6
 74
     4
 42
0.0000000001
 43
0.0000000001
 44
0.0000000001
 12
-0.9999145175592413
 22
-0.013075074541643
 32
0.0
 13
-0.8474111885854107
 23
0.5309371690325153
 33
0.0
 40
0.0
 40
0.0
 40
0.0
 40
0.0
 40
0.0057953038793205
 40
0.0884480376077244
 40
0.1745545600762381
 40
0.1745545600762381
 40
0.1745545600762381
 40
0.1745545600762381
 10
541.4410275504841
 20
199.2388270248901
 30
0.0
 10
541.4390959476565
 20
199.23880176688
 30
0.0
 10
541.4096142901364
 20
199.2387514297717
 30
0.0
 10
541.351297652914
 20
199.2488817739672
 30
0.0
 10
541.3000307093319
 20
199.2735475055667
 30
0.0
 10
541.2757081658153
 20
199.2887865566583
 30
0.0
 11
541.4410275504841
 21
199.2388270248901
 31
0.0
 11
541.4352322545578
 21
199.2388174238369
 31
0.0
 11
541.3536781200066
 21
199.2522486386138
 31
0.0
 11
541.2757081658153
 21
199.2887865566583
 31
0.0
  0
SPLINE
  5
13206
330
1F
100
AcDbEntity
  8
0
  6
Continuous
 62
     7
370
    25
100
AcDbSpline
210
0.0
220
0.0
230
1.0
 70
     8
 71
     3
 72
     8
 73
     4
 74
     2
 42
0.0000000001
 43
0.0000000001
 44
0.0000000001
 12
-0.8474111953547641
 22
0.5309371582281748
 32
0.0
 13
-0.9383748938965737
 23
0.3456190945312398
 33
0.0
 40
0.0
 40
0.0
 40
0.0
 40
0.0
 40
0.0625728290066702
 40
0.0625728290066702
 40
0.0625728290066702
 40
0.0625728290066702
 10
541.3566718279565
 20
199.9845932046415
 30
0.0
 10
541.3389968560146
 20
199.9956672846465
 30
0.0
 10
541.3199921608117
 20
200.0047902540027
 30
0.0
 10
541.3004199035517
 20
200.0119990421705
 30
0.0
 11
541.3566718279565
 21
199.9845932046415
 31
0.0
 11
541.3004199035517
 21
200.0119990421705
 31
0.0
  0
SPLINE
  5
13207
330
1F
100
AcDbEntity
  8
0
  6
Continuous
 62
     7
370
    25
100
AcDbSpline
210
0.0
220
0.0
230
1.0
 70
     8
 71
     3
 72
    10
 73
     6
 74
     4
 42
0.0000000001
 43
0.0000000001
 44
0.0000000001
 12
0.9999260326762072
 22
0.0121626138810892
 32
0.0
 13
0.8474111908074243
 23
-0.5309371654860329
 33
0.0
 40
0.0
 40
0.0
 40
0.0
 40
0.0
 40
0.0062251516377181
 40
0.1013404380578962
 40
0.1917130843204174
 40
0.1917130843204174
 40
0.1917130843204174
 40
0.1917130843204174
 10
541.4313279908903
 20
200.0374833984559
 30
0.0
 10
541.4334028879503
 20
200.0375086364945
 30
0.0
 10
541.4671788878636
 20
200.0376346789969
 30
0.0
 10
541.5313864417353
 20
200.0289831397224
 30
0.0
 10
541.5888559016625
 20
200.0037297640419
 30
0.0
 10
541.6143834989244
 20
199.9877356984939
 30
0.0
 11
541.4313279908903
 21
200.0374833984559
 31
0.0
 11
541.437553100073
 21
200.037506389251
 31
0.0
 11
541.5317512745806
 21
200.0243298331672
 31
0.0
 11
541.6143834989244
 21
199.9877356984939
 31
0.0
  0
SPLINE
  5
13208
330
1F
100
AcDbEntity
  8
0
  6
Continuous
 62
     7
370
    25
100
AcDbSpline
210
0.0
220
0.0
230
1.0
 70
     8
 71
     3
 72
    11
 73
     7
 74
     5
 42
0.0000000001
 43
0.0000000001
 44
0.0000000001
 12
0.9139583593343104
 22
-0.4058079809502713
 32
0.0
 13
0.9812985592242005
 23
-0.1924919158419602
 33
0.0
 40
0.0
 40
0.0
 40
0.0
 40
0.0
 40
0.0660967357403906
 40
0.1965374646930163
 40
0.3068134890916343
 40
0.3078641914626379
 40
0.3078641914626379
 40
0.3078641914626379
 40
0.3078641914626379
 10
541.1761961707261
 20
199.9345443876393
 30
0.0
 10
541.1963327254443
 20
199.9256035266799
 30
0.0
 10
541.256636754018
 20
199.8999771117634
 30
0.0
 10
541.3527082492907
 20
199.8646707078427
 30
0.0
 10
541.4306687046932
 20
199.8435113387482
 30
0.0
 10
541.4670788112121
 20
199.836343551991
 30
0.0
 10
541.4674224954531
 20
199.8362761347536
 30
0.0
 11
541.1761961707261
 21
199.9345443876393
 31
0.0
 11
541.2370338611679
 21
199.9087073232308
 31
0.0
 11
541.3596821057143
 21
199.864297956208
 31
0.0
 11
541.4663915791424
 21
199.8364790806399
 31
0.0
 11
541.4674224954531
 21
199.8362761347536
 31
0.0
  0
SPLINE
  5
13209
330
1F
100
AcDbEntity
  8
0
  6
Continuous
 62
     7
370
    25
100
AcDbSpline
210
0.0
220
0.0
230
1.0
 70
     8
 71
     3
 72
    17
 73
    13
 74
    11
 42
0.0000000001
 43
0.0000000001
 44
0.0000000001
 12
0.8474111913805582
 22
-0.530937164571273
 32
0.0
 13
-0.9999145175536394
 23
-0.0130750749700659
 33
0.0
 40
0.0
 40
0.0
 40
0.0
 40
0.0
 40
0.0990508461848109
 40
0.2022133041162508
 40
0.3100890511959771
 40
0.4230309799418791
 40
0.5358879764740811
 40
0.6395388305921987
 40
0.7299024423218703
 40
0.8116066799458261
 40
0.8897306485669361
 40
0.9632055012551253
 40
0.9632055012551253
 40
0.9632055012551253
 40
0.9632055012551253
 10
541.6143834989244
 20
199.9877356984939
 30
0.0
 10
541.6423624307819
 20
199.9702057733533
 30
0.0
 10
541.6940613290131
 20
199.9248158468747
 30
0.0
 10
541.7467152257227
 20
199.8339747644092
 30
0.0
 10
541.7719133348144
 20
199.7275932275572
 30
0.0
 10
541.7702216923603
 20
199.6154177683136
 30
0.0
 10
541.7454040456968
 20
199.5076769575094
 30
0.0
 10
541.7033999752893
 20
199.4137030865395
 30
0.0
 10
541.6497546277078
 20
199.3382828417709
 30
0.0
 10
541.5869395672308
 20
199.2821839749193
 30
0.0
 10
541.516287815607
 20
199.247159497357
 30
0.0
 10
541.4655170744435
 20
199.2391472546258
 30
0.0
 10
541.4410275504841
 20
199.2388270248901
 30
0.0
 11
541.6143834989244
 21
199.9877356984939
 31
0.0
 11
541.6888442121983
 21
199.9224159288321
 31
0.0
 11
541.7412741082686
 21
199.8335700019445
 31
0.0
 11
541.7671532641426
 21
199.7288444267527
 31
0.0
 11
541.7662520711026
 21
199.6159060934909
 31
0.0
 11
541.7410898141922
 21
199.5058899015306
 31
0.0
 11
541.6983868303215
 21
199.4114443895782
 31
0.0
 11
541.6453884712288
 21
199.3382545251275
 31
0.0
 11
541.583878600519
 21
199.2844761070494
 31
0.0
 11
541.5135887995118
 21
199.2503777442225
 31
0.0
 11
541.4410275504841
 21
199.2388270248901
 31
0.0
  0
DIMENSION
  5
1320A
330
1F
100
AcDbEntity
  8
DIM
100
AcDbDimension
  2
*D3
 10
569.4083635926757
 20
233.5433592042041
 30
0.0
 11
569.4083635926757
 21
235.7933592044494
 31
0.0
 70
   160
  1
%%C<>
 71
     5
 42
4.500000000490302
 73
     0
 74
     0
 75
     0
  3
01
100
AcDbAlignedDimension
 13
574.5966911673167
 23
238.0433592046944
 33
0.0
 14
574.5966911673167
 24
233.5433592042041
 34
0.0
 50
270.0
100
AcDbRotatedDimension
  0
LINE
  5
1320B
330
1F
100
AcDbEntity
  8
hat
100
AcDbLine
 10
574.6820663387969
 20
237.5940678259946
 30
0.0
 11
575.1313577179161
 21
238.0433592051133
 31
0.0
1001
ACAD
1010
0.0
1020
0.0
1030
0.0
  0
LINE
  5
1320C
330
1F
100
AcDbEntity
  8
hat
100
AcDbLine
 10
575.2513917636584
 20
237.2653676387489
 30
0.0
 11
576.0293833300178
 21
238.0433592051084
 31
0.0
1001
ACAD
1010
0.0
1020
0.0
1030
0.0
  0
LINE
  5
1320D
330
1F
100
AcDbEntity
  8
hat
100
AcDbLine
 10
575.8207171885199
 20
236.9366674515033
 30
0.0
 11
576.5405952776935
 21
237.6565455406769
 31
0.0
1001
ACAD
1010
0.0
1020
0.0
1030
0.0
  0
LINE
  5
1320E
330
1F
100
AcDbEntity
  8
hat
100
AcDbLine
 10
576.7004345542375
 20
236.918359205114
 30
0.0
 11
577.3254345542516
 21
237.5433592051278
 31
0.0
1001
ACAD
1010
0.0
1020
0.0
1030
0.0
  0
LINE
  5
1320F
330
1F
100
AcDbEntity
  8
hat
100
AcDbLine
 10
574.5966911673165
 20
233.9165902060862
 30
0.0
 11
574.660027300819
 21
233.9799263395884
 31
0.0
1001
ACAD
1010
0.0
1020
0.0
1030
0.0
  0
LINE
  5
13210
330
1F
100
AcDbEntity
  8
hat
100
AcDbLine
 10
577.5984601663642
 20
236.918359205134
 30
0.0
 11
578.2234601663779
 21
237.5433592051477
 31
0.0
1001
ACAD
1010
0.0
1020
0.0
1030
0.0
  0
LINE
  5
13211
330
1F
100
AcDbEntity
  8
hat
100
AcDbLine
 10
575.1214857775415
 20
233.543359204204
 30
0.0
 11
576.2464857784414
 21
234.668359205104
 31
0.0
1001
ACAD
1010
0.0
1020
0.0
1030
0.0
  0
LINE
  5
13212
330
1F
100
AcDbEntity
  8
hat
100
AcDbLine
 10
578.4964857784915
 20
236.9183592051541
 30
0.0
 11
579.1214857785051
 21
237.5433592051678
 31
0.0
1001
ACAD
1010
0.0
1020
0.0
1030
0.0
  0
LINE
  5
13213
330
1F
100
AcDbEntity
  8
hat
100
AcDbLine
 10
576.0195113896485
 20
233.543359204204
 30
0.0
 11
577.1445113905683
 21
234.6683592051238
 31
0.0
1001
ACAD
1010
0.0
1020
0.0
1030
0.0
  0
LINE
  5
13214
330
1F
100
AcDbEntity
  8
hat
100
AcDbLine
 10
579.3945113906183
 20
236.918359205174
 30
0.0
 11
580.0195113906323
 21
237.543359205188
 31
0.0
1001
ACAD
1010
0.0
1020
0.0
1030
0.0
  0
LINE
  5
13215
330
1F
100
AcDbEntity
  8
hat
100
AcDbLine
 10
577.4175370026812
 20
234.0433592051299
 30
0.0
 11
578.0425370026952
 21
234.6683592051439
 31
0.0
1001
ACAD
1010
0.0
1020
0.0
1030
0.0
  0
LINE
  5
13216
330
1F
100
AcDbEntity
  8
hat
100
AcDbLine
 10
580.2925370027452
 20
236.918359205194
 30
0.0
 11
580.9175370027586
 21
237.5433592052078
 31
0.0
1001
ACAD
1010
0.0
1020
0.0
1030
0.0
  0
LINE
  5
13217
330
1F
100
AcDbEntity
  8
hat
100
AcDbLine
 10
578.3155626148077
 20
234.04335920515
 30
0.0
 11
578.9405626148218
 21
234.6683592051639
 31
0.0
1001
ACAD
1010
0.0
1020
0.0
1030
0.0
  0
LINE
  5
13218
330
1F
100
AcDbEntity
  8
hat
100
AcDbLine
 10
581.1905626148723
 20
236.9183592052142
 30
0.0
 11
582.3155626147316
 21
238.0433592050738
 31
0.0
1001
ACAD
1010
0.0
1020
0.0
1030
0.0
  0
LINE
  5
13219
330
1F
100
AcDbEntity
  8
hat
100
AcDbLine
 10
579.2135882269349
 20
234.04335920517
 30
0.0
 11
579.838588226949
 21
234.668359205184
 31
0.0
1001
ACAD
1010
0.0
1020
0.0
1030
0.0
  0
LINE
  5
1321A
330
1F
100
AcDbEntity
  8
hat
100
AcDbLine
 10
582.0885882269991
 20
236.9183592052341
 30
0.0
 11
583.2135882268337
 21
238.0433592050692
 31
0.0
1001
ACAD
1010
0.0
1020
0.0
1030
0.0
  0
LINE
  5
1321B
330
1F
100
AcDbEntity
  8
hat
100
AcDbLine
 10
580.1116138390621
 20
234.04335920519
 30
0.0
 11
580.5466911679834
 21
234.4784365341115
 31
0.0
1001
ACAD
1010
0.0
1020
0.0
1030
0.0
  0
LINE
  5
1321C
330
1F
100
AcDbEntity
  8
hat
100
AcDbLine
 10
582.3604968479752
 20
236.2922422141034
 30
0.0
 11
583.6150243262925
 21
237.5467696924205
 31
0.0
1001
ACAD
1010
0.0
1020
0.0
1030
0.0
  0
LINE
  5
1321D
330
1F
100
AcDbEntity
  8
hat
100
AcDbLine
 10
581.4466911680108
 20
234.4804109220319
 30
0.0
 11
581.6346394512005
 21
234.6683592052215
 31
0.0
1001
ACAD
1010
0.0
1020
0.0
1030
0.0
  0
LINE
  5
1321E
330
1F
100
AcDbEntity
  8
hat
100
AcDbLine
 10
582.759639451228
 20
235.793359205249
 30
0.0
 11
583.4759889408764
 21
236.5097086948973
 31
0.0
1001
ACAD
1010
0.0
1020
0.0
1030
0.0
  0
LINE
  5
1321F
330
1F
100
AcDbEntity
  8
hat
100
AcDbLine
 10
582.4331197139947
 20
235.4668394680162
 30
0.0
 11
582.759639451228
 21
235.793359205249
 31
0.0
1001
ACAD
1010
0.0
1020
0.0
1030
0.0
  0
LINE
  5
13220
330
1F
100
AcDbEntity
  8
hat
100
AcDbLine
 10
581.5966911673004
 20
233.7323853092148
 30
0.0
 11
583.5038223072315
 21
235.6395164491455
 31
0.0
1001
ACAD
1010
0.0
1020
0.0
1030
0.0
  0
LINE
  5
13221
330
1F
100
AcDbEntity
  8
hat
100
AcDbLine
 10
582.3056906755962
 20
233.5433592054039
 30
0.0
 11
583.6067465227412
 21
234.8444150525487
 31
0.0
1001
ACAD
1010
0.0
1020
0.0
1030
0.0
  0
LINE
  5
13222
330
1F
100
AcDbEntity
  8
hat
100
AcDbLine
 10
583.2037162877486
 20
233.5433592054489
 30
0.0
 11
583.526751043051
 21
233.8663939607514
 31
0.0
1001
ACAD
1010
0.0
1020
0.0
1030
0.0
  0
LINE
  5
13223
330
1F
100
AcDbEntity
  8
0
100
AcDbLine
 10
574.5966911673167
 20
238.0433592046944
 30
0.0
 11
574.5966911673167
 21
233.5433592042041
 31
0.0
  0
LINE
  5
13224
330
1F
100
AcDbEntity
  8
0
100
AcDbLine
 10
584.5008363559814
 20
237.0433592044444
 30
0.0
 11
598.3466911678568
 21
237.0433592044443
 31
0.0
  0
LINE
  5
13225
330
1F
100
AcDbEntity
  8
0
100
AcDbLine
 10
584.5008363553505
 20
234.5433592044543
 30
0.0
 11
598.3466911678568
 21
234.5433592044543
 31
0.0
  0
LINE
  5
13226
330
1F
100
AcDbEntity
  8
0
100
AcDbLine
 10
598.3466911678568
 20
234.5433592044543
 30
0.0
 11
598.3466911678568
 21
237.0433592044443
 31
0.0
  0
ARC
  5
13227
102
{ACAD_REACTORS
330
13236
330
13246
102
}
330
1F
100
AcDbEntity
  8
0
100
AcDbCircle
 10
598.3466911678568
 20
235.793359205084
 30
0.0
 40
1.250000000629998
100
AcDbArc
 50
270.0
 51
90.0
  0
LINE
  5
13228
330
1F
100
AcDbEntity
  8
0
100
AcDbLine
 10
574.5966911673167
 20
233.5433592042041
 30
0.0
 11
576.317268304206
 21
233.5433592042041
 31
0.0
  0
LINE
  5
13229
330
1F
100
AcDbEntity
  8
0
100
AcDbLine
 10
583.796691167315
 20
238.0433592050642
 30
0.0
 11
583.7966911672793
 21
233.5433592050687
 31
0.0
  0
LINE
  5
1322A
330
1F
100
AcDbEntity
  8
0
100
AcDbLine
 10
584.0966911673127
 20
237.743359204738
 30
0.0
 11
584.0966911672815
 21
233.8433592050841
 31
0.0
  0
LINE
  5
1322B
330
1F
100
AcDbEntity
  8
0
100
AcDbLine
 10
574.5966911673167
 20
238.0433592051162
 30
0.0
 11
576.3172683046255
 21
238.0433592051068
 31
0.0
  0
LINE
  5
1322C
330
1F
100
AcDbEntity
  8
0
100
AcDbLine
 10
581.5966911672002
 20
238.0433592050777
 30
0.0
 11
582.0970519587972
 21
238.0433592050748
 31
0.0
  0
LINE
  5
1322D
330
1F
100
AcDbEntity
  8
0
100
AcDbLine
 10
581.5966911671994
 20
238.0433592050777
 30
0.0
 11
583.7966911673187
 21
238.0433592050654
 31
0.0
  0
LINE
  5
1322E
330
1F
100
AcDbEntity
  8
0
100
AcDbLine
 10
583.4980621759116
 20
233.5433592050869
 30
0.0
 11
583.7966911672862
 21
233.5433592050859
 31
0.0
  0
LINE
  5
1322F
330
1F
100
AcDbEntity
  8
CEN
 48
2.0
100
AcDbLine
 10
600.3886555427316
 20
235.7933592056418
 30
0.0
 11
573.9108827497865
 21
235.7933592050518
 31
0.0
  0
LINE
  5
13230
330
1F
100
AcDbEntity
  8
0
100
AcDbLine
 10
581.596691167302
 20
234.043359205223
 30
0.0
 11
581.4466911680113
 21
234.0433592052198
 31
0.0
  0
LINE
  5
13231
102
{ACAD_REACTORS
330
13257
102
}
330
1F
100
AcDbEntity
  8
0
100
AcDbLine
 10
580.5466911679839
 20
234.0433592051997
 30
0.0
 11
576.6059434390155
 21
234.0433592051118
 31
0.0
  0
LINE
  5
13232
102
{ACAD_REACTORS
330
1338A
102
}
330
1F
100
AcDbEntity
  8
0
100
AcDbLine
 10
580.5466911679648
 20
234.6683592051997
 30
0.0
 11
575.8524280015517
 21
234.668359205095
 31
0.0
  0
LINE
  5
13233
330
1F
100
AcDbEntity
  8
0
100
AcDbLine
 10
581.596691167302
 20
234.043359205223
 30
0.0
 11
581.5966911673001
 21
233.543359205094
 31
0.0
  0
DIMENSION
  5
13234
102
{ACAD_XDICTIONARY
360
13235
102
}
102
{ACAD_REACTORS
330
13236
102
}
330
1F
100
AcDbEntity
  8
DIM
100
AcDbDimension
  2
*D7
 10
574.5966911673167
 20
224.7055344826909
 30
0.0
 11
587.0966911679015
 21
226.2055344826908
 31
0.0
 70
    32
 71
     5
 42
25.00000000117007
 73
     0
 74
     0
 75
     0
  3
01
100
AcDbAlignedDimension
 13
599.5966911684868
 23
235.793359205084
 33
0.0
 14
574.5966911673167
 24
233.5433592042041
 34
0.0
100
AcDbRotatedDimension
1001
ACAD
1000
DSTYLE
1002
{
1070
    49
1040
0.2
1070
    50
1040
1.570796326794893
1002
}
  0
LINE
  5
13237
330
1F
100
AcDbEntity
  8
0
100
AcDbLine
 10
584.0966911672815
 20
233.8433592050841
 30
0.0
 11
584.5008363553505
 21
234.5433592044544
 31
0.0
  0
LINE
  5
13238
330
1F
100
AcDbEntity
  8
0
100
AcDbLine
 10
584.0966911672815
 20
233.8433592050839
 30
0.0
 11
583.7966911672793
 21
233.5433592050859
 31
0.0
  0
LINE
  5
13239
330
1F
100
AcDbEntity
  8
0
100
AcDbLine
 10
584.0966911671419
 20
237.7433592050334
 30
0.0
 11
584.5008363552614
 21
237.0433592056918
 31
0.0
  0
LINE
  5
1323A
330
1F
100
AcDbEntity
  8
0
100
AcDbLine
 10
584.0966911671419
 20
237.7433592050334
 30
0.0
 11
583.796691167118
 21
238.0433592050099
 31
0.0
  0
LINE
  5
1323B
330
1F
100
AcDbEntity
  8
0
100
AcDbLine
 10
584.5008363553505
 20
234.5433592044543
 30
0.0
 11
584.5008363552614
 21
237.0433592056918
 31
0.0
  0
LINE
  5
1323C
330
1F
100
AcDbEntity
  8
0
100
AcDbLine
 10
576.6059434390149
 20
234.0433592051118
 30
0.0
 11
576.317268304206
 21
233.5433592042041
 31
0.0
  0
SPLINE
  5
1323D
330
1F
100
AcDbEntity
  8
DIM
100
AcDbSpline
210
0.0
220
0.0
230
1.0
 70
     8
 71
     3
 72
    12
 73
     8
 74
     0
 42
0.0000000001
 43
0.0000000001
 40
0.1097508009489301
 40
0.1097508009489301
 40
0.1097508009489301
 40
0.1097508009489301
 40
0.9731890825994163
 40
2.296172464069607
 40
3.498731519394207
 40
4.260257059811703
 40
5.056556298535228
 40
5.056556298535228
 40
5.056556298535228
 40
5.056556298535228
 10
583.5106202620352
 20
238.0433592050682
 30
0.0
 10
583.6447951247305
 20
237.7501986517212
 30
0.0
 10
583.5945059632837
 20
237.2044353698335
 30
0.0
 10
583.3543778745295
 20
236.0746622320225
 30
0.0
 10
583.6707471026191
 20
234.9519270242399
 30
0.0
 10
583.5352964450883
 20
234.3344602733207
 30
0.0
 10
583.4789557274221
 20
233.8109547835724
 30
0.0
 10
583.6466911672927
 20
233.5433592050864
 30
0.0
  0
LINE
  5
1323E
330
1F
100
AcDbEntity
  8
0
100
AcDbLine
 10
582.0966911664599
 20
235.7933592052343
 30
0.0
 11
582.0966911664599
 21
234.6683592052254
 31
0.0
  0
LINE
  5
1323F
330
1F
100
AcDbEntity
  8
CEN
 48
0.03
100
AcDbLine
 10
580.9900328840376
 20
235.0386933773537
 30
0.0
 11
580.9900328840376
 21
233.895858722754
 31
0.0
  0
LINE
  5
13240
330
1F
100
AcDbEntity
  8
0
100
AcDbLine
 10
580.5466911679834
 20
234.6683592051997
 30
0.0
 11
580.5466911679839
 21
234.0433592051997
 31
0.0
  0
LINE
  5
13241
330
1F
100
AcDbEntity
  8
0
100
AcDbLine
 10
581.4466911680104
 20
234.6683592052198
 30
0.0
 11
581.4466911680108
 21
234.0433592052197
 31
0.0
  0
ARC
  5
13242
330
1F
100
AcDbEntity
  8
0
100
AcDbCircle
 10
580.9966911680152
 20
233.6355253108387
 30
0.0
 40
1.126608118817876
100
AcDbArc
 50
66.45751010221984
 51
113.5424899034358
  0
ARC
  5
13243
330
1F
100
AcDbEntity
  8
0
100
AcDbCircle
 10
580.9966911680271
 20
233.0105253108145
 30
0.0
 40
1.126608118817876
100
AcDbArc
 50
66.45751010221984
 51
113.5424899034358
  0
DIMENSION
  5
13244
102
{ACAD_XDICTIONARY
360
13245
102
}
102
{ACAD_REACTORS
330
13246
102
}
330
1F
100
AcDbEntity
  8
DIM
100
AcDbDimension
  2
*D5
 10
604.5181953679133
 20
234.543359204454
 30
0.0
 11
603.0181953679133
 21
228.7576449187399
 31
0.0
 70
    32
  1
{\Fromand,hztxt|c134;%%C}<>
 71
     5
 42
2.500000001259989
 73
     0
 74
     0
 75
     0
  3
01
100
AcDbAlignedDimension
 13
598.3466911678568
 23
237.043359205714
 33
0.0
 14
598.3466911678568
 24
234.543359204454
 34
0.0
 50
90.0
100
AcDbRotatedDimension
1001
ACAD
1000
DSTYLE
1002
{
1070
    49
1040
0.18
1070
    50
1040
1.570796326794893
1002
}
  0
LINE
  5
13247
330
1F
100
AcDbEntity
  8
0
100
AcDbLine
 10
575.8524280015515
 20
234.668359205095
 30
0.0
 11
574.5966911664121
 21
233.9433592053413
 31
0.0
  0
LINE
  5
13248
330
1F
100
AcDbEntity
  8
0
100
AcDbLine
 10
582.0966911664952
 20
234.6683592052254
 30
0.0
 11
581.4466911680197
 21
234.6683592052198
 31
0.0
  0
LINE
  5
13249
330
1F
100
AcDbEntity
  8
0
100
AcDbLine
 10
582.0966911664599
 20
234.6683592052254
 30
0.0
 11
582.5706942616156
 21
235.7933592052448
 31
0.0
  0
DIMENSION
  5
1324A
330
1F
100
AcDbEntity
  8
DIM
100
AcDbDimension
  2
*D2
 10
582.09669116729
 20
227.6200607055134
 30
0.0
 11
578.3466911673031
 21
229.1200607055134
 31
0.0
 70
    32
 71
     5
 42
7.49999999997328
 73
     0
 74
     0
 75
     0
  3
01
100
AcDbAlignedDimension
 13
574.5966911673167
 23
233.0902699192759
 33
0.0
 14
582.09669116729
 24
234.6683592052254
 34
0.0
100
AcDbRotatedDimension
  0
LINE
  5
1324B
330
1F
100
AcDbEntity
  8
0
100
AcDbLine
 10
575.8524280015515
 20
234.668359205095
 30
0.0
 11
575.8524280015262
 21
235.793359205095
 31
0.0
  0
LINE
  5
1324C
102
{ACAD_REACTORS
330
1338A
102
}
330
1F
100
AcDbEntity
  8
0
100
AcDbLine
 10
582.0966911664099
 20
236.9183592052343
 30
0.0
 11
575.8524280015016
 21
236.918359205095
 31
0.0
  0
LINE
  5
1324D
330
1F
100
AcDbEntity
  8
0
100
AcDbLine
 10
582.0966911664599
 20
235.7933592052343
 30
0.0
 11
582.0966911664099
 21
236.918359205243
 31
0.0
  0
LINE
  5
1324E
330
1F
100
AcDbEntity
  8
0
100
AcDbLine
 10
575.8524280015015
 20
236.918359205095
 30
0.0
 11
574.5966911663296
 21
237.6433592047928
 31
0.0
  0
LINE
  5
1324F
330
1F
100
AcDbEntity
  8
0
100
AcDbLine
 10
575.8524280015015
 20
236.918359205095
 30
0.0
 11
575.8524280015262
 21
235.793359205095
 31
0.0
  0
LINE
  5
13250
330
1F
100
AcDbEntity
  8
0
100
AcDbLine
 10
582.0966911664092
 20
236.9183592052432
 30
0.0
 11
582.5706942616155
 21
235.7933592052449
 31
0.0
  0
LINE
  5
13251
330
1F
100
AcDbEntity
  8
0
100
AcDbLine
 10
540.6329477930198
 20
202.6736064142273
 30
0.0
 11
539.8195084946088
 21
200.9931407665193
 31
0.0
  0
LINE
  5
13252
102
{ACAD_REACTORS
330
13257
102
}
330
1F
100
AcDbEntity
  8
0
100
AcDbLine
 10
581.5966911672233
 20
237.5433592052227
 30
0.0
 11
576.6059434389377
 21
237.5433592051117
 31
0.0
  0
LINE
  5
13253
330
1F
100
AcDbEntity
  8
0
100
AcDbLine
 10
576.6059434389375
 20
237.5433592051117
 30
0.0
 11
576.3172683041059
 21
238.0433592060067
 31
0.0
  0
LINE
  5
13254
330
1F
100
AcDbEntity
  8
0
100
AcDbLine
 10
581.5966911672237
 20
237.5433592052232
 30
0.0
 11
581.5966911671994
 21
238.043359205352
 31
0.0
  0
DIMENSION
  5
13255
102
{ACAD_XDICTIONARY
360
13256
102
}
102
{ACAD_REACTORS
330
13257
102
}
330
1F
100
AcDbEntity
  8
DIM
100
AcDbDimension
  2
*D6
 10
578.1138007527665
 20
237.5433592051672
 30
0.0
 11
578.1138007527665
 21
242.2576449194531
 31
0.0
 70
   160
  1
%%CD
 71
     5
 42
3.500000000011481
 73
     0
 74
     0
 75
     0
  3
01
100
AcDbAlignedDimension
 13
578.5763173034998
 23
234.0433592051557
 33
0.0
 14
579.1013173030802
 24
237.5433592051672
 34
0.0
 50
90.0
100
AcDbRotatedDimension
1001
ACAD
1000
DSTYLE
1002
{
1070
    49
1040
0.18
1070
    50
1040
1.570796326794893
1002
}
  0
LINE
  5
13258
330
1F
100
AcDbEntity
  8
图框
370
    -3
100
AcDbLine
 10
547.0903569855677
 20
278.9988950930298
 30
0.0
 11
568.6288113283352
 21
278.9988950930298
 31
0.0
  0
LINE
  5
13259
330
1F
100
AcDbEntity
  8
图框
370
    -3
100
AcDbLine
 10
525.8463417343866
 20
276.2944507193992
 30
0.0
 11
611.0804174473749
 21
276.2944507194015
 31
0.0
  0
LINE
  5
1325A
330
1F
100
AcDbEntity
  8
图框
370
    -3
100
AcDbLine
 10
525.8463417343866
 20
273.5900063457672
 30
0.0
 11
611.0804174473749
 21
273.5900063457672
 31
0.0
  0
MTEXT
  5
1325B
330
1F
100
AcDbEntity
  8
图框
100
AcDbMText
 10
561.769363548101
 20
280.3511172799149
 30
0.0
 40
1.200004709114095
 41
13.71936813429339
 46
2.704444373770122
 71
     5
 72
     5
  1
{\f仿宋_GB2312|b0|i0|c134|p49;\C4;线径\Fromans|c134;/Wire Gauge}
  7
Romans字体
 73
     1
 44
1.0
1001
ACAD
1000
ACAD_MTEXT_DEFINED_HEIGHT_BEGIN
1070
    46
1040
2.704444373770122
1000
ACAD_MTEXT_DEFINED_HEIGHT_END
  0
LINE
  5
1325C
330
1F
100
AcDbEntity
  8
图框
370
    -3
100
AcDbLine
 10
525.8463417343866
 20
270.885561972137
 30
0.0
 11
611.0804174473749
 21
270.8855619721366
 31
0.0
  0
MTEXT
  5
1325D
330
1F
100
AcDbEntity
  8
图框
100
AcDbMText
 10
565.6789066503375
 20
277.6466028382964
 30
0.0
 40
1.200004709114095
 41
5.899809355995848
 46
2.704304237791748
 71
     5
 72
     5
  1
{\C4;AWG}
  7
Romans字体
 73
     1
 44
1.0
1001
ACAD
1000
ACAD_MTEXT_DEFINED_HEIGHT_BEGIN
1070
    46
1040
2.704304237791748
1000
ACAD_MTEXT_DEFINED_HEIGHT_END
  0
MTEXT
  5
1325E
330
1F
100
AcDbEntity
  8
图框
100
AcDbMText
 10
558.8193407259798
 20
277.646672906215
 30
0.0
 40
1.200004709114095
 41
7.819322492718732
 46
2.704444373629514
 71
     5
 72
     5
  1
\A1;{\C4;mm\H0.7x;\S2^  ;}
  7
Romans字体
 73
     1
 44
1.0
1001
ACAD
1000
ACAD_MTEXT_DEFINED_HEIGHT_BEGIN
1070
    46
1040
2.704444373629514
1000
ACAD_MTEXT_DEFINED_HEIGHT_END
  0
MTEXT
  5
1325F
330
1F
100
AcDbEntity
  8
图框
100
AcDbMText
 10
558.819340726647
 20
274.9422285325835
 30
0.0
 40
1.200004709114095
 41
7.819322494052451
 46
2.704444373633005
 71
     5
 72
     5
  1
{\C4;0.14-0.37}
  7
Romans字体
 73
     1
 44
1.0
1001
ACAD
1000
ACAD_MTEXT_DEFINED_HEIGHT_BEGIN
1070
    46
1040
2.704444373633005
1000
ACAD_MTEXT_DEFINED_HEIGHT_END
  0
MTEXT
  5
13260
330
1F
100
AcDbEntity
  8
图框
100
AcDbMText
 10
558.819340726647
 20
272.2377841589519
 30
0.0
 40
1.200004709114095
 41
7.819322494052451
 46
2.704444373630458
 71
     5
 72
     5
  1
{\C4;0.5}
  7
Romans字体
 73
     1
 44
1.0
1001
ACAD
1000
ACAD_MTEXT_DEFINED_HEIGHT_BEGIN
1070
    46
1040
2.704444373630458
1000
ACAD_MTEXT_DEFINED_HEIGHT_END
  0
MTEXT
  5
13261
330
1F
100
AcDbEntity
  8
图框
100
AcDbMText
 10
565.6789066510042
 20
274.9422285325837
 30
0.0
 40
1.200004709114095
 41
5.899809357329709
 46
2.704444373633271
 71
     5
 72
     5
  1
{\C4;26-22}
  7
Romans字体
 73
     1
 44
1.0
1001
ACAD
1000
ACAD_MTEXT_DEFINED_HEIGHT_BEGIN
1070
    46
1040
2.704444373633271
1000
ACAD_MTEXT_DEFINED_HEIGHT_END
  0
MTEXT
  5
13262
330
1F
100
AcDbEntity
  8
图框
100
AcDbMText
 10
565.6789066516712
 20
272.2377841589519
 30
0.0
 40
1.200004709114095
 41
5.899809355996247
 46
2.704444373630328
 71
     5
 72
     5
  1
{\C4;20}
  7
Romans字体
 73
     1
 44
1.0
1001
ACAD
1000
ACAD_MTEXT_DEFINED_HEIGHT_BEGIN
1070
    46
1040
2.704444373630328
1000
ACAD_MTEXT_DEFINED_HEIGHT_END
  0
MTEXT
  5
13263
330
1F
100
AcDbEntity
  8
图框
100
AcDbMText
 10
541.023522987385
 20
278.9988150216122
 30
0.0
 40
1.200004709114095
 41
12.13366799636653
 46
5.408728604425681
 71
     5
 72
     5
  1
{\f仿宋_GB2312|b0|i0|c134|p49;\C4;产品料号\Fromans|c134;\PPart NO.}
  7
Romans字体
 73
     1
 44
1.0
1001
ACAD
1000
ACAD_MTEXT_DEFINED_HEIGHT_BEGIN
1070
    46
1040
5.408728604425681
1000
ACAD_MTEXT_DEFINED_HEIGHT_END
  0
MTEXT
  5
13264
330
1F
100
AcDbEntity
  8
图框
100
AcDbMText
 10
571.0617150540647
 20
278.9988150216129
 30
0.0
 40
1.200004709114095
 41
4.86580745145943
 46
5.408728604424871
 71
     5
 72
     5
  1
{\C4;d}
  7
Romans字体
 73
     1
 44
1.0
1001
ACAD
1000
ACAD_MTEXT_DEFINED_HEIGHT_BEGIN
1070
    46
1040
5.408728604424871
1000
ACAD_MTEXT_DEFINED_HEIGHT_END
  0
MTEXT
  5
13266
330
1F
100
AcDbEntity
  8
图框
100
AcDbMText
 10
571.0617150540647
 20
274.9422285325837
 30
0.0
 40
1.200004709114095
 41
4.865807451458961
 46
2.704444373633339
 71
     5
 72
     5
  1
{\C4;0.90}
  7
Romans字体
 73
     1
 44
1.0
1001
ACAD
1000
ACAD_MTEXT_DEFINED_HEIGHT_BEGIN
1070
    46
1040
2.704444373633339
1000
ACAD_MTEXT_DEFINED_HEIGHT_END
  0
MTEXT
  5
13267
330
1F
100
AcDbEntity
  8
图框
100
AcDbMText
 10
571.0617150540647
 20
272.2377841589517
 30
0.0
 40
1.200004709114095
 41
4.865807451458945
 46
2.704444373630395
 71
     5
 72
     5
  1
{\C4;1.15}
  7
Romans字体
 73
     1
 44
1.0
1001
ACAD
1000
ACAD_MTEXT_DEFINED_HEIGHT_BEGIN
1070
    46
1040
2.704444373630395
1000
ACAD_MTEXT_DEFINED_HEIGHT_END
  0
LINE
  5
13268
330
1F
100
AcDbEntity
  8
图框
370
    35
100
AcDbLine
 10
525.8463417343866
 20
262.7663593893972
 30
0.0
 11
611.0804174473749
 21
262.7663593893995
 31
0.0
  0
MTEXT
  5
1326A
330
1F
100
AcDbEntity
  8
图框
100
AcDbMText
 10
575.9275225048573
 20
278.9988150216129
 30
0.0
 40
1.200004709114095
 41
4.865807450125148
 46
5.408728604424871
 71
     5
 72
     5
  1
{\C4;D}
  7
Romans字体
 73
     1
 44
1.0
1001
ACAD
1000
ACAD_MTEXT_DEFINED_HEIGHT_BEGIN
1070
    46
1040
5.408728604424871
1000
ACAD_MTEXT_DEFINED_HEIGHT_END
  0
MTEXT
  5
1326B
330
1F
100
AcDbEntity
  8
图框
100
AcDbMText
 10
575.9275225048573
 20
272.2377841589517
 30
0.0
 40
1.200004709114095
 41
4.865807450125021
 46
2.704444373630395
 71
     5
 72
     5
  1
{\C4;2.6}
  7
Romans字体
 73
     1
 44
1.0
1001
ACAD
1000
ACAD_MTEXT_DEFINED_HEIGHT_BEGIN
1070
    46
1040
2.704444373630395
1000
ACAD_MTEXT_DEFINED_HEIGHT_END
  0
MTEXT
  5
1326C
330
1F
100
AcDbEntity
  8
图框
100
AcDbMText
 10
575.9275225048573
 20
261.411202471662
 30
0.0
 40
1.200004709114095
 41
4.865807450125076
 46
2.710313835473184
 71
     5
 72
     5
  1
{\C4;3.5}
  7
Romans字体
 73
     1
 44
1.0
1001
ACAD
1000
ACAD_MTEXT_DEFINED_HEIGHT_BEGIN
1070
    46
1040
2.710313835473184
1000
ACAD_MTEXT_DEFINED_HEIGHT_END
  0
LINE
  5
1326E
330
1F
100
AcDbEntity
  8
图框
370
    -3
100
AcDbLine
 10
525.8463417343866
 20
260.0560455539254
 30
0.0
 11
611.0804174473749
 21
260.0560455539255
 31
0.0
  0
MTEXT
  5
1326F
330
1F
100
AcDbEntity
  8
图框
100
AcDbMText
 10
605.1115968921467
 20
278.9988150216133
 30
0.0
 40
1.200004709114095
 41
11.93764111045651
 46
5.408728604424148
 71
     5
 72
     5
  1
{\f仿宋_GB2312|b0|i0|c134|p49;\C4;标识图\Fromans|c134;\PIdentification No.}
  7
Romans字体
 73
     1
 44
1.0
1001
ACAD
1000
ACAD_MTEXT_DEFINED_HEIGHT_BEGIN
1070
    46
1040
5.408728604424148
1000
ACAD_MTEXT_DEFINED_HEIGHT_END
  0
MTEXT
  5
13270
330
1F
100
AcDbEntity
  8
图框
100
AcDbMText
 10
605.1115968921465
 20
274.9422285325842
 30
0.0
 40
1.200004709114095
 41
11.93764111045679
 46
2.70444437363395
 71
     5
 72
     5
  1
{\C4;No.1}
  7
Romans字体
 73
     1
 44
1.0
1001
ACAD
1000
ACAD_MTEXT_DEFINED_HEIGHT_BEGIN
1070
    46
1040
2.70444437363395
1000
ACAD_MTEXT_DEFINED_HEIGHT_END
  0
MTEXT
  5
13271
330
1F
100
AcDbEntity
  8
图框
100
AcDbMText
 10
605.1115968921465
 20
272.2377841589519
 30
0.0
 40
1.200004709114095
 41
11.93764111045679
 46
2.704444373630574
 71
     5
 72
     5
  1
{\C4;No.1}
  7
Romans字体
 73
     1
 44
1.0
1001
ACAD
1000
ACAD_MTEXT_DEFINED_HEIGHT_BEGIN
1070
    46
1040
2.704444373630574
1000
ACAD_MTEXT_DEFINED_HEIGHT_END
  0
MTEXT
  5
13272
330
1F
100
AcDbEntity
  8
图框
100
AcDbMText
 10
605.1115968921465
 20
261.4112024716625
 30
0.0
 40
1.200004709114095
 41
11.93764111045645
 46
2.710313835473673
 71
     5
 72
     5
  1
{\C4;No.5}
  7
Romans字体
 73
     1
 44
1.0
1001
ACAD
1000
ACAD_MTEXT_DEFINED_HEIGHT_BEGIN
1070
    46
1040
2.710313835473673
1000
ACAD_MTEXT_DEFINED_HEIGHT_END
  0
MTEXT
  5
13273
330
1F
100
AcDbEntity
  8
图框
100
AcDbMText
 10
565.6789066516712
 20
261.411202471662
 30
0.0
 40
1.200004709114095
 41
5.899809355997454
 46
2.710313835473137
 71
     5
 72
     5
  1
{\C4;14}
  7
Romans字体
 73
     1
 44
1.0
1001
ACAD
1000
ACAD_MTEXT_DEFINED_HEIGHT_BEGIN
1070
    46
1040
2.710313835473137
1000
ACAD_MTEXT_DEFINED_HEIGHT_END
  0
MTEXT
  5
13274
330
1F
100
AcDbEntity
  8
图框
100
AcDbMText
 10
558.8193407266468
 20
261.4112024716616
 30
0.0
 40
1.200004709114095
 41
7.819322494052181
 46
2.710313835472669
 71
     5
 72
     5
  1
{\C4;2.5}
  7
Romans字体
 73
     1
 44
1.0
1001
ACAD
1000
ACAD_MTEXT_DEFINED_HEIGHT_BEGIN
1070
    46
1040
2.710313835472669
1000
ACAD_MTEXT_DEFINED_HEIGHT_END
  0
MTEXT
  5
13275
330
1F
100
AcDbEntity
  8
图框
100
AcDbMText
 10
571.0617150540656
 20
261.411202471662
 30
0.0
 40
1.200004709114095
 41
4.865807451457888
 46
2.710313835473069
 71
     5
 72
     5
  1
{\C4;2.25}
  7
Romans字体
 73
     1
 44
1.0
1001
ACAD
1000
ACAD_MTEXT_DEFINED_HEIGHT_BEGIN
1070
    46
1040
2.710313835473069
1000
ACAD_MTEXT_DEFINED_HEIGHT_END
  0
MTEXT
  5
13276
330
1F
100
AcDbEntity
  8
图框
100
AcDbMText
 10
575.9275225048573
 20
274.9422285325838
 30
0.0
 40
1.200004709114095
 41
4.865807450125195
 46
2.70444437363364
 71
     5
 72
     5
  1
{\C4;1.8}
  7
Romans字体
 73
     1
 44
1.0
1001
ACAD
1000
ACAD_MTEXT_DEFINED_HEIGHT_BEGIN
1070
    46
1040
2.70444437363364
1000
ACAD_MTEXT_DEFINED_HEIGHT_END
  0
MTEXT
  5
13277
330
1F
100
AcDbEntity
  8
图框
100
AcDbMText
 10
594.5803040287055
 20
278.9988150216133
 30
0.0
 40
1.200004709114095
 41
9.124944616424542
 46
5.408728604424235
 71
     5
 72
     5
  1
{\f仿宋_GB2312|b0|i0|c134|p49;\C4;标识\Fromans|c134;\PIdentification}
  7
Romans字体
 73
     1
 44
1.0
1001
ACAD
1000
ACAD_MTEXT_DEFINED_HEIGHT_BEGIN
1070
    46
1040
5.408728604424235
1000
ACAD_MTEXT_DEFINED_HEIGHT_END
  0
MTEXT
  5
13278
330
1F
100
AcDbEntity
  8
图框
100
AcDbMText
 10
594.5803040293728
 20
274.9422285325839
 30
0.0
 40
1.200004709114095
 41
9.124944615091004
 46
2.704444373633752
 71
     5
 72
     5
  1
{\C4;no groove}
  7
Romans字体
 73
     1
 44
1.0
1001
ACAD
1000
ACAD_MTEXT_DEFINED_HEIGHT_BEGIN
1070
    46
1040
2.704444373633752
1000
ACAD_MTEXT_DEFINED_HEIGHT_END
  0
MTEXT
  5
13279
330
1F
100
AcDbEntity
  8
图框
100
AcDbMText
 10
594.5803040300395
 20
272.237784158952
 30
0.0
 40
1.200004709114095
 41
9.124944613757117
 46
2.704444373630574
 71
     5
 72
     5
  1
{\C4;no groove}
  7
Romans字体
 73
     1
 44
1.0
1001
ACAD
1000
ACAD_MTEXT_DEFINED_HEIGHT_BEGIN
1070
    46
1040
2.704444373630574
1000
ACAD_MTEXT_DEFINED_HEIGHT_END
  0
MTEXT
  5
1327A
330
1F
100
AcDbEntity
  8
图框
100
AcDbMText
 10
594.5803040290391
 20
261.4112024716622
 30
0.0
 40
1.200004709114095
 41
9.124944614424226
 46
2.710313835473451
 71
     5
 72
     5
  1
{\C4;3 groove}
  7
Romans字体
 73
     1
 44
1.0
1001
ACAD
1000
ACAD_MTEXT_DEFINED_HEIGHT_BEGIN
1070
    46
1040
2.710313835473451
1000
ACAD_MTEXT_DEFINED_HEIGHT_END
  0
LINE
  5
1327B
330
1F
100
AcDbEntity
  8
0
100
AcDbLine
 10
656.2031046886918
 20
268.4042355374742
 30
0.0
 11
656.203104688693
 21
268.6131154709713
 31
0.0
  0
LINE
  5
1327C
330
1F
100
AcDbEntity
  8
0
100
AcDbLine
 10
656.2031046886934
 20
268.7175554377904
 30
0.0
 11
656.2031046886946
 21
268.9264353713579
 31
0.0
  0
LINE
  5
1327D
330
1F
100
AcDbEntity
  8
0
100
AcDbLine
 10
658.5530039405218
 20
268.4042355374657
 30
0.0
 11
658.5530039405226
 21
268.6131154709627
 31
0.0
  0
LINE
  5
1327E
330
1F
100
AcDbEntity
  8
0
100
AcDbLine
 10
658.5530039405234
 20
268.7175554377816
 30
0.0
 11
658.5530039405242
 21
268.9264353713493
 31
0.0
  0
LINE
  5
1327F
330
1F
100
AcDbEntity
  8
0
100
AcDbLine
 10
656.2031046886913
 20
268.2997955706556
 30
0.0
 11
658.5530039405214
 21
268.2997955706467
 31
0.0
  0
LINE
  5
13280
330
1F
100
AcDbEntity
  8
0
100
AcDbLine
 10
656.307544654776
 20
268.2997955706567
 30
0.0
 11
656.307544654776
 21
268.4042355374048
 31
0.0
  0
LINE
  5
13281
330
1F
100
AcDbEntity
  8
0
100
AcDbLine
 10
658.448563974383
 20
268.2997955707177
 30
0.0
 11
658.4485639743769
 21
268.4042355374661
 31
0.0
  0
LINE
  5
13282
330
1F
100
AcDbEntity
  8
0
100
AcDbLine
 10
656.203104688685
 20
268.4042355374742
 30
0.0
 11
658.5530039405155
 21
268.4042355374657
 31
0.0
  0
LINE
  5
13283
330
1F
100
AcDbEntity
  8
0
100
AcDbLine
 10
656.2031046886859
 20
268.6131154709713
 30
0.0
 11
658.5530039405161
 21
268.6131154709627
 31
0.0
  0
LINE
  5
13284
330
1F
100
AcDbEntity
  8
0
100
AcDbLine
 10
656.2031046886866
 20
268.7175554377904
 30
0.0
 11
658.5530039405163
 21
268.7175554377816
 31
0.0
  0
LINE
  5
13285
330
1F
100
AcDbEntity
  8
0
100
AcDbLine
 10
656.3075446547767
 20
268.6131154709723
 30
0.0
 11
656.3075446547767
 21
268.7175554377209
 31
0.0
  0
LINE
  5
13286
330
1F
100
AcDbEntity
  8
0
100
AcDbLine
 10
656.2031046886877
 20
268.9264353713584
 30
0.0
 11
658.5530039405179
 21
268.9264353713493
 31
0.0
  0
LINE
  5
13287
330
1F
100
AcDbEntity
  8
0
100
AcDbLine
 10
656.2031046886877
 20
269.0308753381773
 30
0.0
 11
658.5530039405186
 21
269.0308753381684
 31
0.0
  0
LINE
  5
13288
330
1F
100
AcDbEntity
  8
0
100
AcDbLine
 10
656.3075446547785
 20
268.9264353713588
 30
0.0
 11
656.3075446547785
 21
269.0308753381074
 31
0.0
  0
LINE
  5
13289
330
1F
100
AcDbEntity
  8
0
100
AcDbLine
 10
658.4485639743392
 20
268.9264353714212
 30
0.0
 11
658.448563974334
 21
269.0308753381698
 31
0.0
  0
LINE
  5
1328A
330
1F
100
AcDbEntity
  8
0
100
AcDbLine
 10
658.4485639743839
 20
268.6131154710337
 30
0.0
 11
658.4485639743783
 21
268.7175554377816
 31
0.0
  0
LINE
  5
1328B
330
1F
100
AcDbEntity
  8
0
100
AcDbLine
 10
620.2932182856135
 20
264.38329681759
 30
0.0
 11
622.6442382190469
 21
264.38329681759
 31
0.0
  0
LINE
  5
1328C
330
1F
100
AcDbEntity
  8
0
100
AcDbLine
 10
620.8156671597833
 20
269.5577063197313
 30
0.0
 11
620.8156671597833
 21
276.7914575763094
 31
0.0
  0
LINE
  5
1328D
330
1F
100
AcDbEntity
  8
0
100
AcDbLine
 10
622.121789344877
 20
269.5577063194017
 30
0.0
 11
622.121789344877
 21
276.7914575763094
 31
0.0
  0
LINE
  5
1328E
330
1F
100
AcDbEntity
  8
0
100
AcDbLine
 10
622.121789344877
 20
276.7914575763094
 30
0.0
 11
620.8156671597833
 21
276.7914575763094
 31
0.0
  0
ARC
  5
1328F
330
1F
100
AcDbEntity
  8
0
100
AcDbCircle
 10
621.4687282519985
 20
276.7914575763094
 30
0.0
 40
0.6530610928784773
100
AcDbArc
 50
0.0
 51
180.0
  0
LINE
  5
13290
330
1F
100
AcDbEntity
  8
0
100
AcDbLine
 10
622.6442382190469
 20
264.38329681759
 30
0.0
 11
622.644238219046
 21
265.5370416087898
 31
0.0
  0
LINE
  5
13291
330
1F
100
AcDbEntity
  8
0
100
AcDbLine
 10
620.2932182856135
 20
264.38329681759
 30
0.0
 11
620.2932182856135
 21
265.5370416087898
 31
0.0
  0
LINE
  5
13292
330
1F
100
AcDbEntity
  8
0
100
AcDbLine
 10
620.5544427227612
 20
265.6894190026886
 30
0.0
 11
620.5544427227612
 21
268.0404389358653
 31
0.0
  0
LINE
  5
13293
330
1F
100
AcDbEntity
  8
0
100
AcDbLine
 10
622.3830137818995
 20
265.6894190024814
 30
0.0
 11
622.3830137818995
 21
268.0404389358585
 31
0.0
  0
LINE
  5
13294
330
1F
100
AcDbEntity
  8
0
100
AcDbLine
 10
620.2932182854204
 20
269.189826458752
 30
0.0
 11
622.6442382185955
 21
269.1898264587333
 31
0.0
  0
LINE
  5
13295
330
1F
100
AcDbEntity
  8
0
100
AcDbLine
 10
620.4499529478023
 20
269.3465611209624
 30
0.0
 11
622.4875035563756
 21
269.3465611209464
 31
0.0
  0
LINE
  5
13296
330
1F
100
AcDbEntity
  8
0
100
AcDbLine
 10
620.2932182854133
 20
268.0404389358657
 30
0.0
 11
620.2932182854198
 21
269.189826458754
 31
0.0
  0
LINE
  5
13297
330
1F
100
AcDbEntity
  8
0
100
AcDbLine
 10
622.6442382185823
 20
268.0404389358567
 30
0.0
 11
622.6442382185862
 21
269.1898264587369
 31
0.0
  0
LINE
  5
13298
330
1F
100
AcDbEntity
  8
0
100
AcDbLine
 10
620.2932182854133
 20
268.0404389358662
 30
0.0
 11
622.6442382185823
 21
268.0404389358575
 31
0.0
  0
LINE
  5
13299
330
1F
100
AcDbEntity
  8
0
100
AcDbLine
 10
622.6442382190469
 20
265.5370416087898
 30
0.0
 11
620.2932182856135
 21
265.5370416087898
 31
0.0
  0
LINE
  5
1329A
330
1F
100
AcDbEntity
  8
0
100
AcDbLine
 10
620.5544427227612
 20
265.6894190026886
 30
0.0
 11
622.3830137818995
 21
265.6894190024814
 31
0.0
  0
LINE
  5
1329B
330
1F
100
AcDbEntity
  8
0
100
AcDbLine
 10
622.4875035563756
 20
269.3465611209464
 30
0.0
 11
622.121789344877
 21
269.5577063194017
 31
0.0
  0
LINE
  5
1329C
330
1F
100
AcDbEntity
  8
0
100
AcDbLine
 10
622.487503556376
 20
269.3465611209464
 30
0.0
 11
622.6442382185862
 21
269.1898264587333
 31
0.0
  0
LINE
  5
1329D
330
1F
100
AcDbEntity
  8
0
100
AcDbLine
 10
620.4499529476478
 20
269.3465611208736
 30
0.0
 11
620.8156671591317
 21
269.557706319355
 31
0.0
  0
LINE
  5
1329E
330
1F
100
AcDbEntity
  8
0
100
AcDbLine
 10
620.4499529476478
 20
269.3465611208736
 30
0.0
 11
620.2932182854482
 21
269.1898264586492
 31
0.0
  0
LINE
  5
1329F
330
1F
100
AcDbEntity
  8
0
100
AcDbLine
 10
622.121789344877
 20
269.5577063194017
 30
0.0
 11
620.8156671591317
 21
269.557706319355
 31
0.0
  0
LINE
  5
132A0
330
1F
100
AcDbEntity
  8
0
100
AcDbLine
 10
620.5557931986527
 20
265.6886393053775
 30
0.0
 11
620.2932182856135
 21
265.5370416087898
 31
0.0
  0
LINE
  5
132A1
330
1F
100
AcDbEntity
  8
0
100
AcDbLine
 10
622.3816633056326
 20
265.6886393054431
 30
0.0
 11
622.6442382186831
 21
265.5370416088743
 31
0.0
  0
CIRCLE
  5
132A2
330
1F
100
AcDbEntity
  8
0
100
AcDbCircle
 10
621.4687469421832
 20
267.7269696114426
 30
0.0
 40
0.2351019933177603
  0
LINE
  5
132A3
330
1F
100
AcDbEntity
  8
0
100
AcDbLine
 10
628.9936095856305
 20
264.38329681759
 30
0.0
 11
631.3446295190645
 21
264.38329681759
 31
0.0
  0
LINE
  5
132A4
330
1F
100
AcDbEntity
  8
0
100
AcDbLine
 10
629.5160584598009
 20
269.5577063197313
 30
0.0
 11
629.5160584598009
 21
276.7914575763094
 31
0.0
  0
LINE
  5
132A5
330
1F
100
AcDbEntity
  8
0
100
AcDbLine
 10
630.8221806448941
 20
269.5577063194017
 30
0.0
 11
630.8221806448941
 21
276.7914575763094
 31
0.0
  0
LINE
  5
132A6
330
1F
100
AcDbEntity
  8
0
100
AcDbLine
 10
630.8221806448941
 20
276.7914575763094
 30
0.0
 11
629.5160584598009
 21
276.7914575763094
 31
0.0
  0
ARC
  5
132A7
330
1F
100
AcDbEntity
  8
0
100
AcDbCircle
 10
630.1691195520152
 20
276.7914575763094
 30
0.0
 40
0.6530610928784773
100
AcDbArc
 50
0.0
 51
180.0
  0
LINE
  5
132A8
330
1F
100
AcDbEntity
  8
0
100
AcDbLine
 10
631.3446295190645
 20
264.38329681759
 30
0.0
 11
631.3446295190645
 21
264.7490110294177
 31
0.0
  0
LINE
  5
132A9
330
1F
100
AcDbEntity
  8
0
100
AcDbLine
 10
631.3446295190645
 20
264.8535008042255
 30
0.0
 11
631.3446295190645
 21
265.5370416087898
 31
0.0
  0
LINE
  5
132AA
330
1F
100
AcDbEntity
  8
0
100
AcDbLine
 10
628.9936095856305
 20
264.38329681759
 30
0.0
 11
628.9936095856305
 21
264.7490110294177
 31
0.0
  0
LINE
  5
132AB
330
1F
100
AcDbEntity
  8
0
100
AcDbLine
 10
628.9936095856302
 20
264.8535008042255
 30
0.0
 11
628.9936095856311
 21
265.5370416087898
 31
0.0
  0
LINE
  5
132AC
330
1F
100
AcDbEntity
  8
0
100
AcDbLine
 10
629.2548340227782
 20
265.6894190026886
 30
0.0
 11
629.2548340227782
 21
268.0404389358653
 31
0.0
  0
LINE
  5
132AD
330
1F
100
AcDbEntity
  8
0
100
AcDbLine
 10
631.0834050819162
 20
265.6894190024814
 30
0.0
 11
631.0834050819162
 21
268.0404389358585
 31
0.0
  0
LINE
  5
132AE
330
1F
100
AcDbEntity
  8
0
100
AcDbLine
 10
628.9936095854374
 20
269.189826458752
 30
0.0
 11
631.344629518613
 21
269.1898264587333
 31
0.0
  0
LINE
  5
132AF
330
1F
100
AcDbEntity
  8
0
100
AcDbLine
 10
629.1503442478195
 20
269.3465611209624
 30
0.0
 11
631.1878948563927
 21
269.3465611209464
 31
0.0
  0
LINE
  5
132B0
330
1F
100
AcDbEntity
  8
0
100
AcDbLine
 10
628.99360958543
 20
268.0404389358657
 30
0.0
 11
628.9936095854367
 21
269.189826458754
 31
0.0
  0
LINE
  5
132B1
330
1F
100
AcDbEntity
  8
0
100
AcDbLine
 10
631.344629518599
 20
268.0404389358567
 30
0.0
 11
631.3446295186036
 21
269.1898264587369
 31
0.0
  0
LINE
  5
132B2
330
1F
100
AcDbEntity
  8
0
100
AcDbLine
 10
628.99360958543
 20
268.0404389358662
 30
0.0
 11
631.344629518599
 21
268.0404389358575
 31
0.0
  0
LINE
  5
132B3
330
1F
100
AcDbEntity
  8
0
100
AcDbLine
 10
631.3446295190645
 20
265.5370416087898
 30
0.0
 11
628.9936095856311
 21
265.5370416087898
 31
0.0
  0
LINE
  5
132B4
330
1F
100
AcDbEntity
  8
0
100
AcDbLine
 10
629.2548340227782
 20
265.6894190026886
 30
0.0
 11
631.0834050819162
 21
265.6894190024814
 31
0.0
  0
LINE
  5
132B5
330
1F
100
AcDbEntity
  8
0
100
AcDbLine
 10
631.1878948563927
 20
269.3465611209464
 30
0.0
 11
630.8221806448941
 21
269.5577063194017
 31
0.0
  0
LINE
  5
132B6
330
1F
100
AcDbEntity
  8
0
100
AcDbLine
 10
631.1878948563927
 20
269.3465611209464
 30
0.0
 11
631.3446295186036
 21
269.1898264587333
 31
0.0
  0
LINE
  5
132B7
330
1F
100
AcDbEntity
  8
0
100
AcDbLine
 10
629.1503442476652
 20
269.3465611208736
 30
0.0
 11
629.5160584591489
 21
269.557706319355
 31
0.0
  0
LINE
  5
132B8
330
1F
100
AcDbEntity
  8
0
100
AcDbLine
 10
629.1503442476652
 20
269.3465611208736
 30
0.0
 11
628.9936095854657
 21
269.1898264586492
 31
0.0
  0
LINE
  5
132B9
330
1F
100
AcDbEntity
  8
0
100
AcDbLine
 10
630.8221806448941
 20
269.5577063194017
 30
0.0
 11
629.5160584591489
 21
269.557706319355
 31
0.0
  0
LINE
  5
132BA
330
1F
100
AcDbEntity
  8
0
100
AcDbLine
 10
629.2561844986699
 20
265.6886393053775
 30
0.0
 11
628.9936095856311
 21
265.5370416087898
 31
0.0
  0
LINE
  5
132BB
330
1F
100
AcDbEntity
  8
0
100
AcDbLine
 10
631.0820546056502
 20
265.6886393054431
 30
0.0
 11
631.3446295187
 21
265.5370416088743
 31
0.0
  0
CIRCLE
  5
132BC
330
1F
100
AcDbEntity
  8
0
100
AcDbCircle
 10
630.1691382422005
 20
267.7269696114426
 30
0.0
 40
0.2351019933177603
  0
LINE
  5
132BD
330
1F
100
AcDbEntity
  8
0
100
AcDbLine
 10
628.9936095850505
 20
264.7490110294177
 30
0.0
 11
631.3446295184839
 21
264.7490110294177
 31
0.0
  0
LINE
  5
132BE
330
1F
100
AcDbEntity
  8
0
100
AcDbLine
 10
628.9936095850505
 20
264.8535008042253
 30
0.0
 11
631.3446295184839
 21
264.8535008042253
 31
0.0
  0
LINE
  5
132BF
330
1F
100
AcDbEntity
  8
0
100
AcDbLine
 10
631.2401397436766
 20
264.7490110294177
 30
0.0
 11
631.2401397436766
 21
264.8535008042253
 31
0.0
  0
LINE
  5
132C0
330
1F
100
AcDbEntity
  8
0
100
AcDbLine
 10
629.0980993598584
 20
264.7490110294177
 30
0.0
 11
629.0980993598584
 21
264.8535008042253
 31
0.0
  0
LINE
  5
132C1
330
1F
100
AcDbEntity
  8
0
100
AcDbLine
 10
638.1635819926322
 20
264.38329681759
 30
0.0
 11
640.5146019260662
 21
264.38329681759
 31
0.0
  0
LINE
  5
132C2
330
1F
100
AcDbEntity
  8
0
100
AcDbLine
 10
638.6860308668024
 20
269.5577063197313
 30
0.0
 11
638.6860308668024
 21
276.7914575763094
 31
0.0
  0
LINE
  5
132C3
330
1F
100
AcDbEntity
  8
0
100
AcDbLine
 10
639.9921530518961
 20
269.5577063194017
 30
0.0
 11
639.9921530518961
 21
276.7914575763094
 31
0.0
  0
LINE
  5
132C4
330
1F
100
AcDbEntity
  8
0
100
AcDbLine
 10
639.9921530518961
 20
276.7914575763094
 30
0.0
 11
638.6860308668024
 21
276.7914575763094
 31
0.0
  0
ARC
  5
132C5
330
1F
100
AcDbEntity
  8
0
100
AcDbCircle
 10
639.3390919590176
 20
276.7914575763094
 30
0.0
 40
0.6530610928784773
100
AcDbArc
 50
0.0
 51
180.0
  0
LINE
  5
132C6
330
1F
100
AcDbEntity
  8
0
100
AcDbLine
 10
640.5146019260662
 20
264.38329681759
 30
0.0
 11
640.5146019260662
 21
265.5370416087898
 31
0.0
  0
LINE
  5
132C7
330
1F
100
AcDbEntity
  8
0
100
AcDbLine
 10
638.1635819926322
 20
264.38329681759
 30
0.0
 11
638.1635819926322
 21
265.5370416087898
 31
0.0
  0
LINE
  5
132C8
330
1F
100
AcDbEntity
  8
0
100
AcDbLine
 10
638.4248064297801
 20
265.6894190026886
 30
0.0
 11
638.4248064297802
 21
268.0404389358653
 31
0.0
  0
LINE
  5
132C9
330
1F
100
AcDbEntity
  8
0
100
AcDbLine
 10
640.2533774889182
 20
265.6894190024814
 30
0.0
 11
640.2533774889185
 21
268.0404389358585
 31
0.0
  0
LINE
  5
132CA
330
1F
100
AcDbEntity
  8
0
100
AcDbLine
 10
638.1635819924395
 20
269.189826458752
 30
0.0
 11
640.5146019256142
 21
269.1898264587333
 31
0.0
  0
LINE
  5
132CB
330
1F
100
AcDbEntity
  8
0
100
AcDbLine
 10
638.3203166548216
 20
269.3465611209624
 30
0.0
 11
640.3578672633947
 21
269.3465611209464
 31
0.0
  0
LINE
  5
132CC
330
1F
100
AcDbEntity
  8
0
100
AcDbLine
 10
638.1635819924325
 20
268.0404389358657
 30
0.0
 11
638.1635819924347
 21
268.5628878099013
 31
0.0
  0
LINE
  5
132CD
330
1F
100
AcDbEntity
  8
0
100
AcDbLine
 10
638.1635819924355
 20
268.6673775847093
 30
0.0
 11
638.1635819924387
 21
269.189826458754
 31
0.0
  0
LINE
  5
132CE
330
1F
100
AcDbEntity
  8
0
100
AcDbLine
 10
640.5146019256009
 20
268.0404389358567
 30
0.0
 11
640.5146019256027
 21
268.5628878099013
 31
0.0
  0
LINE
  5
132CF
330
1F
100
AcDbEntity
  8
0
100
AcDbLine
 10
640.5146019256034
 20
268.6673775847093
 30
0.0
 11
640.5146019256052
 21
269.1898264587369
 31
0.0
  0
LINE
  5
132D0
330
1F
100
AcDbEntity
  8
0
100
AcDbLine
 10
638.1635819924325
 20
268.0404389358662
 30
0.0
 11
640.5146019256009
 21
268.0404389358575
 31
0.0
  0
LINE
  5
132D1
330
1F
100
AcDbEntity
  8
0
100
AcDbLine
 10
640.5146019260662
 20
265.5370416087898
 30
0.0
 11
638.1635819926325
 21
265.5370416087898
 31
0.0
  0
LINE
  5
132D2
330
1F
100
AcDbEntity
  8
0
100
AcDbLine
 10
638.4248064297801
 20
265.6894190026886
 30
0.0
 11
640.2533774889182
 21
265.6894190024814
 31
0.0
  0
LINE
  5
132D3
330
1F
100
AcDbEntity
  8
0
100
AcDbLine
 10
640.3578672633947
 20
269.3465611209464
 30
0.0
 11
639.9921530518961
 21
269.5577063194017
 31
0.0
  0
LINE
  5
132D4
330
1F
100
AcDbEntity
  8
0
100
AcDbLine
 10
640.3578672633947
 20
269.3465611209464
 30
0.0
 11
640.5146019256052
 21
269.1898264587333
 31
0.0
  0
LINE
  5
132D5
330
1F
100
AcDbEntity
  8
0
100
AcDbLine
 10
638.3203166546669
 20
269.3465611208736
 30
0.0
 11
638.6860308661503
 21
269.557706319355
 31
0.0
  0
LINE
  5
132D6
330
1F
100
AcDbEntity
  8
0
100
AcDbLine
 10
638.3203166546669
 20
269.3465611208736
 30
0.0
 11
638.1635819924674
 21
269.1898264586492
 31
0.0
  0
LINE
  5
132D7
330
1F
100
AcDbEntity
  8
0
100
AcDbLine
 10
639.9921530518961
 20
269.5577063194017
 30
0.0
 11
638.6860308661503
 21
269.557706319355
 31
0.0
  0
LINE
  5
132D8
330
1F
100
AcDbEntity
  8
0
100
AcDbLine
 10
638.4261569056714
 20
265.6886393053775
 30
0.0
 11
638.1635819926325
 21
265.5370416087898
 31
0.0
  0
LINE
  5
132D9
330
1F
100
AcDbEntity
  8
0
100
AcDbLine
 10
640.2520270126522
 20
265.6886393054431
 30
0.0
 11
640.5146019257017
 21
265.5370416088743
 31
0.0
  0
CIRCLE
  5
132DA
330
1F
100
AcDbEntity
  8
0
100
AcDbCircle
 10
639.3391106492023
 20
267.7269696114426
 30
0.0
 40
0.2351019933177603
  0
LINE
  5
132DB
330
1F
100
AcDbEntity
  8
0
100
AcDbLine
 10
638.1635819926317
 20
268.5628878099013
 30
0.0
 11
640.5146019254016
 21
268.5628878099013
 31
0.0
  0
LINE
  5
132DC
330
1F
100
AcDbEntity
  8
0
100
AcDbLine
 10
640.4101121510656
 20
268.5628878099014
 30
0.0
 11
640.4101121510656
 21
268.6673775847093
 31
0.0
  0
LINE
  5
132DD
330
1F
100
AcDbEntity
  8
0
100
AcDbLine
 10
640.5146019258734
 20
268.5628878099013
 30
0.0
 11
638.1635819924397
 21
268.5628878099013
 31
0.0
  0
LINE
  5
132DE
330
1F
100
AcDbEntity
  8
0
100
AcDbLine
 10
640.5146019258734
 20
268.6673775847093
 30
0.0
 11
638.1635819924397
 21
268.6673775847093
 31
0.0
  0
LINE
  5
132DF
330
1F
100
AcDbEntity
  8
0
100
AcDbLine
 10
638.2680717662439
 20
268.562887809814
 30
0.0
 11
638.2680717662357
 21
268.6673775846219
 31
0.0
  0
LINE
  5
132E0
330
1F
100
AcDbEntity
  8
0
100
AcDbLine
 10
647.4595210975008
 20
264.38329681759
 30
0.0
 11
649.8105410309342
 21
264.38329681759
 31
0.0
  0
LINE
  5
132E1
330
1F
100
AcDbEntity
  8
0
100
AcDbLine
 10
647.9819699716706
 20
269.5577063197313
 30
0.0
 11
647.9819699716706
 21
276.7914575763094
 31
0.0
  0
LINE
  5
132E2
330
1F
100
AcDbEntity
  8
0
100
AcDbLine
 10
649.2880921567647
 20
269.5577063194017
 30
0.0
 11
649.2880921567647
 21
276.7914575763094
 31
0.0
  0
LINE
  5
132E3
330
1F
100
AcDbEntity
  8
0
100
AcDbLine
 10
649.2880921567647
 20
276.7914575763094
 30
0.0
 11
647.9819699716706
 21
276.7914575763094
 31
0.0
  0
ARC
  5
132E4
330
1F
100
AcDbEntity
  8
0
100
AcDbCircle
 10
648.6350310638861
 20
276.7914575763094
 30
0.0
 40
0.6530610928784773
100
AcDbArc
 50
0.0
 51
180.0
  0
LINE
  5
132E5
330
1F
100
AcDbEntity
  8
0
100
AcDbLine
 10
649.8105410309342
 20
264.38329681759
 30
0.0
 11
649.8105410309342
 21
265.5370416087898
 31
0.0
  0
LINE
  5
132E6
330
1F
100
AcDbEntity
  8
0
100
AcDbLine
 10
647.4595210975008
 20
264.38329681759
 30
0.0
 11
647.4595210975008
 21
265.5370416087898
 31
0.0
  0
LINE
  5
132E7
330
1F
100
AcDbEntity
  8
0
100
AcDbLine
 10
647.7207455346484
 20
265.6894190026886
 30
0.0
 11
647.7207455346489
 21
268.0404389358653
 31
0.0
  0
LINE
  5
132E8
330
1F
100
AcDbEntity
  8
0
100
AcDbLine
 10
649.5493165937864
 20
265.6894190024814
 30
0.0
 11
649.5493165937871
 21
268.0404389358585
 31
0.0
  0
LINE
  5
132E9
330
1F
100
AcDbEntity
  8
0
100
AcDbLine
 10
647.4595210973075
 20
269.189826458752
 30
0.0
 11
649.8105410304829
 21
269.1898264587333
 31
0.0
  0
LINE
  5
132EA
330
1F
100
AcDbEntity
  8
0
100
AcDbLine
 10
647.6162557596904
 20
269.3465611209624
 30
0.0
 11
649.6538063682634
 21
269.3465611209464
 31
0.0
  0
LINE
  5
132EB
330
1F
100
AcDbEntity
  8
0
100
AcDbLine
 10
647.4595210973006
 20
268.0404389358657
 30
0.0
 11
647.459521097303
 21
268.4053326533677
 31
0.0
  0
LINE
  5
132EC
330
1F
100
AcDbEntity
  8
0
100
AcDbLine
 10
647.459521097303
 20
268.5098224281755
 30
0.0
 11
647.4595210973052
 21
268.8224712585943
 31
0.0
  0
LINE
  5
132ED
330
1F
100
AcDbEntity
  8
0
100
AcDbLine
 10
647.4595210973054
 20
268.9269610334022
 30
0.0
 11
647.459521097307
 21
269.189826458754
 31
0.0
  0
LINE
  5
132EE
330
1F
100
AcDbEntity
  8
0
100
AcDbLine
 10
649.8105410304694
 20
268.0404389358567
 30
0.0
 11
649.8105410304709
 21
268.4053326533677
 31
0.0
  0
LINE
  5
132EF
330
1F
100
AcDbEntity
  8
0
100
AcDbLine
 10
649.8105410304715
 20
268.5098224281755
 30
0.0
 11
649.8105410304724
 21
268.8224712585943
 31
0.0
  0
LINE
  5
132F0
330
1F
100
AcDbEntity
  8
0
100
AcDbLine
 10
649.8105410304732
 20
268.9269610334022
 30
0.0
 11
649.810541030474
 21
269.1898264587369
 31
0.0
  0
LINE
  5
132F1
330
1F
100
AcDbEntity
  8
0
100
AcDbLine
 10
647.4595210973006
 20
268.0404389358662
 30
0.0
 11
649.8105410304694
 21
268.0404389358575
 31
0.0
  0
LINE
  5
132F2
330
1F
100
AcDbEntity
  8
0
100
AcDbLine
 10
649.8105410309342
 20
265.5370416087898
 30
0.0
 11
647.4595210975008
 21
265.5370416087898
 31
0.0
  0
LINE
  5
132F3
330
1F
100
AcDbEntity
  8
0
100
AcDbLine
 10
647.7207455346484
 20
265.6894190026886
 30
0.0
 11
649.5493165937864
 21
265.6894190024814
 31
0.0
  0
LINE
  5
132F4
330
1F
100
AcDbEntity
  8
0
100
AcDbLine
 10
649.6538063682634
 20
269.3465611209464
 30
0.0
 11
649.2880921567647
 21
269.5577063194017
 31
0.0
  0
LINE
  5
132F5
330
1F
100
AcDbEntity
  8
0
100
AcDbLine
 10
649.6538063682634
 20
269.3465611209464
 30
0.0
 11
649.810541030474
 21
269.1898264587333
 31
0.0
  0
LINE
  5
132F6
330
1F
100
AcDbEntity
  8
0
100
AcDbLine
 10
647.6162557595355
 20
269.3465611208736
 30
0.0
 11
647.9819699710193
 21
269.557706319355
 31
0.0
  0
LINE
  5
132F7
330
1F
100
AcDbEntity
  8
0
100
AcDbLine
 10
647.6162557595355
 20
269.3465611208736
 30
0.0
 11
647.4595210973363
 21
269.1898264586492
 31
0.0
  0
LINE
  5
132F8
330
1F
100
AcDbEntity
  8
0
100
AcDbLine
 10
649.2880921567647
 20
269.5577063194017
 30
0.0
 11
647.9819699710193
 21
269.557706319355
 31
0.0
  0
LINE
  5
132F9
330
1F
100
AcDbEntity
  8
0
100
AcDbLine
 10
647.7220960105402
 20
265.6886393053775
 30
0.0
 11
647.4595210975008
 21
265.5370416087898
 31
0.0
  0
LINE
  5
132FA
330
1F
100
AcDbEntity
  8
0
100
AcDbLine
 10
649.5479661175209
 20
265.6886393054431
 30
0.0
 11
649.8105410305702
 21
265.5370416088743
 31
0.0
  0
CIRCLE
  5
132FB
330
1F
100
AcDbEntity
  8
0
100
AcDbCircle
 10
648.6350497540708
 20
267.7269696114426
 30
0.0
 40
0.2351019933177603
  0
LINE
  5
132FC
330
1F
100
AcDbEntity
  8
0
100
AcDbLine
 10
647.459521096723
 20
268.5106429221802
 30
0.0
 11
647.4595210967247
 21
268.8224712585943
 31
0.0
  0
LINE
  5
132FD
330
1F
100
AcDbEntity
  8
0
100
AcDbLine
 10
649.8105410298911
 20
268.5106429221802
 30
0.0
 11
649.8105410298923
 21
268.8224712585943
 31
0.0
  0
LINE
  5
132FE
330
1F
100
AcDbEntity
  8
0
100
AcDbLine
 10
649.8105410296897
 20
268.8224712585943
 30
0.0
 11
649.8105410296897
 21
268.5098224281755
 31
0.0
  0
LINE
  5
132FF
330
1F
100
AcDbEntity
  8
0
100
AcDbLine
 10
647.4595210969201
 20
268.8224712585943
 30
0.0
 11
647.4595210969201
 21
268.5098224281755
 31
0.0
  0
LINE
  5
13300
330
1F
100
AcDbEntity
  8
0
100
AcDbLine
 10
649.8105410301612
 20
268.9269610334022
 30
0.0
 11
647.4595210969197
 21
268.9269610334022
 31
0.0
  0
LINE
  5
13301
330
1F
100
AcDbEntity
  8
0
100
AcDbLine
 10
649.8105410301612
 20
268.5098224281755
 30
0.0
 11
647.4595210969197
 21
268.5098224281755
 31
0.0
  0
LINE
  5
13302
330
1F
100
AcDbEntity
  8
0
100
AcDbLine
 10
649.706051255353
 20
268.8224712585943
 30
0.0
 11
649.706051255353
 21
268.9269610334022
 31
0.0
  0
LINE
  5
13303
330
1F
100
AcDbEntity
  8
0
100
AcDbLine
 10
649.8105410301612
 20
268.8224712585943
 30
0.0
 11
647.4595210967285
 21
268.8224712585943
 31
0.0
  0
LINE
  5
13304
330
1F
100
AcDbEntity
  8
0
100
AcDbLine
 10
647.5640108708724
 20
268.8224712585955
 30
0.0
 11
647.5640108708724
 21
268.9269610334032
 31
0.0
  0
LINE
  5
13305
330
1F
100
AcDbEntity
  8
0
100
AcDbLine
 10
649.706051255353
 20
268.4053326533677
 30
0.0
 11
649.706051255353
 21
268.5098224281755
 31
0.0
  0
LINE
  5
13306
330
1F
100
AcDbEntity
  8
0
100
AcDbLine
 10
649.8105410301612
 20
268.4053326533677
 30
0.0
 11
647.4595210967285
 21
268.4053326533677
 31
0.0
  0
LINE
  5
13307
330
1F
100
AcDbEntity
  8
0
100
AcDbLine
 10
647.5640108708724
 20
268.4053326533686
 30
0.0
 11
647.5640108708724
 21
268.5098224281766
 31
0.0
  0
LINE
  5
13308
330
1F
100
AcDbEntity
  8
0
100
AcDbLine
 10
656.2031046894642
 20
264.38329681759
 30
0.0
 11
658.5530039415596
 21
264.38329681759
 31
0.0
  0
LINE
  5
13309
330
1F
100
AcDbEntity
  8
0
100
AcDbLine
 10
656.7253045233374
 20
269.5552397884679
 30
0.0
 11
656.7253045233374
 21
276.7855428692456
 31
0.0
  0
LINE
  5
1330A
330
1F
100
AcDbEntity
  8
0
100
AcDbLine
 10
658.0308041076872
 20
269.5552397881384
 30
0.0
 11
658.0308041076872
 21
276.7855428692456
 31
0.0
  0
LINE
  5
1330B
330
1F
100
AcDbEntity
  8
0
100
AcDbLine
 10
658.0308041076872
 20
276.7855428692456
 30
0.0
 11
656.7253045233374
 21
276.7855428692456
 31
0.0
  0
ARC
  5
1330C
330
1F
100
AcDbEntity
  8
0
100
AcDbCircle
 10
657.3780543151805
 20
276.7855428692456
 30
0.0
 40
0.6527497925065371
100
AcDbArc
 50
0.0
 51
180.0
  0
LINE
  5
1330D
330
1F
100
AcDbEntity
  8
0
100
AcDbLine
 10
658.5530039415596
 20
264.38329681759
 30
0.0
 11
658.5530039415596
 21
265.5364916431182
 31
0.0
  0
LINE
  5
1330E
330
1F
100
AcDbEntity
  8
0
100
AcDbLine
 10
656.2031046894649
 20
264.38329681759
 30
0.0
 11
656.2031046894649
 21
265.5364916431182
 31
0.0
  0
LINE
  5
1330F
330
1F
100
AcDbEntity
  8
0
100
AcDbLine
 10
656.4642046064632
 20
265.688796401945
 30
0.0
 11
656.464204606464
 21
268.0386956537832
 31
0.0
  0
LINE
  5
13310
330
1F
100
AcDbEntity
  8
0
100
AcDbLine
 10
658.2919040245607
 20
265.688796401738
 30
0.0
 11
658.2919040245614
 21
268.0386956537765
 31
0.0
  0
LINE
  5
13311
330
1F
100
AcDbEntity
  8
0
100
AcDbLine
 10
656.203104689272
 20
269.1875352880158
 30
0.0
 11
658.553003941108
 21
269.1875352879971
 31
0.0
  0
LINE
  5
13312
330
1F
100
AcDbEntity
  8
0
100
AcDbLine
 10
656.3597646395643
 20
269.3441952381371
 30
0.0
 11
658.396343990978
 21
269.3441952381209
 31
0.0
  0
LINE
  5
13313
330
1F
100
AcDbEntity
  8
0
100
AcDbLine
 10
656.2031046892647
 20
268.0386956537837
 30
0.0
 11
656.2031046892656
 21
268.2997955706556
 31
0.0
  0
LINE
  5
13314
330
1F
100
AcDbEntity
  8
0
100
AcDbLine
 10
656.2031046892667
 20
268.4042355374742
 30
0.0
 11
656.2031046892679
 21
268.6131154709713
 31
0.0
  0
LINE
  5
13315
330
1F
100
AcDbEntity
  8
0
100
AcDbLine
 10
656.2031046892679
 20
268.7175554377904
 30
0.0
 11
656.2031046892696
 21
268.9264353713584
 31
0.0
  0
LINE
  5
13316
330
1F
100
AcDbEntity
  8
0
100
AcDbLine
 10
656.2031046892703
 20
269.0308753381773
 30
0.0
 11
656.2031046892707
 21
269.1875352880177
 31
0.0
  0
LINE
  5
13317
330
1F
100
AcDbEntity
  8
0
100
AcDbLine
 10
658.5530039410951
 20
268.0386956537748
 30
0.0
 11
658.5530039410959
 21
268.2997955706467
 31
0.0
  0
LINE
  5
13318
330
1F
100
AcDbEntity
  8
0
100
AcDbLine
 10
658.5530039410961
 20
268.4042355374657
 30
0.0
 11
658.5530039410969
 21
268.6131154709627
 31
0.0
  0
LINE
  5
13319
330
1F
100
AcDbEntity
  8
0
100
AcDbLine
 10
658.5530039410972
 20
268.7175554377816
 30
0.0
 11
658.5530039410983
 21
268.9264353713493
 31
0.0
  0
LINE
  5
1331A
330
1F
100
AcDbEntity
  8
0
100
AcDbLine
 10
658.5530039410988
 20
269.0308753381684
 30
0.0
 11
658.5530039410993
 21
269.1875352880004
 31
0.0
  0
LINE
  5
1331B
330
1F
100
AcDbEntity
  8
0
100
AcDbLine
 10
656.2031046892647
 20
268.0386956537841
 30
0.0
 11
658.5530039410951
 21
268.0386956537755
 31
0.0
  0
LINE
  5
1331C
330
1F
100
AcDbEntity
  8
0
100
AcDbLine
 10
658.5530039415596
 20
265.5364916431182
 30
0.0
 11
656.2031046894649
 21
265.5364916431182
 31
0.0
  0
LINE
  5
1331D
330
1F
100
AcDbEntity
  8
0
100
AcDbLine
 10
656.4642046064632
 20
265.688796401945
 30
0.0
 11
658.2919040245607
 21
265.688796401738
 31
0.0
  0
LINE
  5
1331E
330
1F
100
AcDbEntity
  8
0
100
AcDbLine
 10
658.396343990978
 20
269.3441952381209
 30
0.0
 11
658.0308041076872
 21
269.5552397881384
 31
0.0
  0
LINE
  5
1331F
330
1F
100
AcDbEntity
  8
0
100
AcDbLine
 10
658.396343990978
 20
269.3441952381209
 30
0.0
 11
658.5530039410993
 21
269.1875352879971
 31
0.0
  0
LINE
  5
13320
330
1F
100
AcDbEntity
  8
0
100
AcDbLine
 10
656.3597646394103
 20
269.3441952380482
 30
0.0
 11
656.7253045226857
 21
269.5552397880917
 31
0.0
  0
LINE
  5
13321
330
1F
100
AcDbEntity
  8
0
100
AcDbLine
 10
656.3597646394103
 20
269.3441952380482
 30
0.0
 11
656.2031046892997
 21
269.1875352879129
 31
0.0
  0
LINE
  5
13322
330
1F
100
AcDbEntity
  8
0
100
AcDbLine
 10
658.0308041076872
 20
269.5552397881384
 30
0.0
 11
656.7253045226857
 21
269.5552397880917
 31
0.0
  0
LINE
  5
13323
330
1F
100
AcDbEntity
  8
0
100
AcDbLine
 10
656.4655544386122
 20
265.6880170762993
 30
0.0
 11
656.2031046894649
 21
265.5364916431182
 31
0.0
  0
LINE
  5
13324
330
1F
100
AcDbEntity
  8
0
100
AcDbLine
 10
658.2905541920372
 20
265.6880170763648
 30
0.0
 11
658.5530039411954
 21
265.536491643203
 31
0.0
  0
CIRCLE
  5
13325
330
1F
100
AcDbEntity
  8
0
100
AcDbCircle
 10
657.3780729964562
 20
267.7253757535394
 30
0.0
 40
0.2349899251839184
  0
LINE
  5
13326
330
1F
100
AcDbEntity
  8
0
100
AcDbLine
 10
665.3802882430858
 20
264.38329681759
 30
0.0
 11
667.7313081765197
 21
264.38329681759
 31
0.0
  0
LINE
  5
13327
330
1F
100
AcDbEntity
  8
0
100
AcDbLine
 10
665.9027371172558
 20
269.5577063197313
 30
0.0
 11
665.9027371172562
 21
276.7914575763094
 31
0.0
  0
LINE
  5
13328
330
1F
100
AcDbEntity
  8
0
100
AcDbLine
 10
667.2088593023496
 20
269.5577063194017
 30
0.0
 11
667.2088593023496
 21
276.7914575763094
 31
0.0
  0
LINE
  5
13329
330
1F
100
AcDbEntity
  8
0
100
AcDbLine
 10
667.2088593023496
 20
276.7914575763094
 30
0.0
 11
665.9027371172562
 21
276.7914575763094
 31
0.0
  0
ARC
  5
1332A
330
1F
100
AcDbEntity
  8
0
100
AcDbCircle
 10
666.5557982094711
 20
276.7914575763094
 30
0.0
 40
0.6530610928784773
100
AcDbArc
 50
0.0
 51
180.0
  0
LINE
  5
1332B
330
1F
100
AcDbEntity
  8
0
100
AcDbLine
 10
667.7313081765182
 20
264.38329681759
 30
0.0
 11
667.7313081765197
 21
265.5370416087898
 31
0.0
  0
LINE
  5
1332C
330
1F
100
AcDbEntity
  8
0
100
AcDbLine
 10
665.3802882430858
 20
264.38329681759
 30
0.0
 11
665.3802882430858
 21
265.5370416087898
 31
0.0
  0
LINE
  5
1332D
330
1F
100
AcDbEntity
  8
0
100
AcDbLine
 10
665.6415126802341
 20
265.6894190026886
 30
0.0
 11
665.6415126802341
 21
268.0404389358653
 31
0.0
  0
LINE
  5
1332E
330
1F
100
AcDbEntity
  8
0
100
AcDbLine
 10
667.4700837393721
 20
265.6894190024814
 30
0.0
 11
667.4700837393721
 21
268.0404389358585
 31
0.0
  0
LINE
  5
1332F
330
1F
100
AcDbEntity
  8
0
100
AcDbLine
 10
665.3802882428927
 20
269.189826458752
 30
0.0
 11
667.7313081760677
 21
269.1898264587333
 31
0.0
  0
LINE
  5
13330
330
1F
100
AcDbEntity
  8
0
100
AcDbLine
 10
665.5370229052747
 20
269.3465611209624
 30
0.0
 11
667.5745735138479
 21
269.3465611209464
 31
0.0
  0
LINE
  5
13331
330
1F
100
AcDbEntity
  8
0
100
AcDbLine
 10
665.3802882428854
 20
268.0404389358657
 30
0.0
 11
665.3802882428871
 21
268.4061531479094
 31
0.0
  0
LINE
  5
13332
330
1F
100
AcDbEntity
  8
0
100
AcDbLine
 10
665.3802882428906
 20
268.9286020219488
 30
0.0
 11
665.3802882428919
 21
269.189826458754
 31
0.0
  0
LINE
  5
13333
330
1F
100
AcDbEntity
  8
0
100
AcDbLine
 10
667.7313081760549
 20
268.0404389358567
 30
0.0
 11
667.7313081760562
 21
268.4061531479007
 31
0.0
  0
LINE
  5
13334
330
1F
100
AcDbEntity
  8
0
100
AcDbLine
 10
667.7313081760577
 20
268.9286020219402
 30
0.0
 11
667.7313081760591
 21
269.1898264587369
 31
0.0
  0
LINE
  5
13335
330
1F
100
AcDbEntity
  8
0
100
AcDbLine
 10
665.3802882428854
 20
268.0404389358662
 30
0.0
 11
667.7313081760549
 21
268.0404389358575
 31
0.0
  0
LINE
  5
13336
330
1F
100
AcDbEntity
  8
0
100
AcDbLine
 10
667.7313081765197
 20
265.5370416087898
 30
0.0
 11
665.3802882430858
 21
265.5370416087898
 31
0.0
  0
LINE
  5
13337
330
1F
100
AcDbEntity
  8
0
100
AcDbLine
 10
665.6415126802341
 20
265.6894190026886
 30
0.0
 11
667.4700837393721
 21
265.6894190024814
 31
0.0
  0
LINE
  5
13338
330
1F
100
AcDbEntity
  8
0
100
AcDbLine
 10
667.5745735138479
 20
269.3465611209464
 30
0.0
 11
667.2088593023496
 21
269.5577063194017
 31
0.0
  0
LINE
  5
13339
330
1F
100
AcDbEntity
  8
0
100
AcDbLine
 10
667.5745735138479
 20
269.3465611209464
 30
0.0
 11
667.7313081760591
 21
269.1898264587333
 31
0.0
  0
LINE
  5
1333A
330
1F
100
AcDbEntity
  8
0
100
AcDbLine
 10
665.5370229051205
 20
269.3465611208736
 30
0.0
 11
665.902737116604
 21
269.557706319355
 31
0.0
  0
LINE
  5
1333B
330
1F
100
AcDbEntity
  8
0
100
AcDbLine
 10
665.5370229051205
 20
269.3465611208736
 30
0.0
 11
665.3802882429212
 21
269.1898264586492
 31
0.0
  0
LINE
  5
1333C
330
1F
100
AcDbEntity
  8
0
100
AcDbLine
 10
667.2088593023496
 20
269.5577063194017
 30
0.0
 11
665.902737116604
 21
269.557706319355
 31
0.0
  0
LINE
  5
1333D
330
1F
100
AcDbEntity
  8
0
100
AcDbLine
 10
665.6428631561253
 20
265.6886393053775
 30
0.0
 11
665.3802882430858
 21
265.5370416087898
 31
0.0
  0
LINE
  5
1333E
330
1F
100
AcDbEntity
  8
0
100
AcDbLine
 10
667.4687332631057
 20
265.6886393054431
 30
0.0
 11
667.7313081761557
 21
265.5370416088743
 31
0.0
  0
CIRCLE
  5
1333F
330
1F
100
AcDbEntity
  8
0
100
AcDbCircle
 10
666.5558168996557
 20
267.7269696114426
 30
0.0
 40
0.2351019933177603
  0
LINE
  5
13340
330
1F
100
AcDbEntity
  8
0
100
AcDbLine
 10
665.5109004607501
 20
268.406153147909
 30
0.0
 11
665.5109004607536
 21
268.9286020219482
 31
0.0
  0
LINE
  5
13341
330
1F
100
AcDbEntity
  8
0
100
AcDbLine
 10
667.6006959569003
 20
268.4061531479011
 30
0.0
 11
667.6006959569016
 21
268.9286020219407
 31
0.0
  0
LINE
  5
13342
330
1F
100
AcDbEntity
  8
0
100
AcDbLine
 10
665.3802882422406
 20
268.4061531479094
 30
0.0
 11
667.7313081754093
 21
268.4061531479006
 31
0.0
  0
LINE
  5
13343
330
1F
100
AcDbEntity
  8
0
100
AcDbLine
 10
665.3802882422426
 20
268.9286020219488
 30
0.0
 11
667.7313081754107
 21
268.9286020219402
 31
0.0
  0
MTEXT
  5
13344
330
1F
100
AcDbEntity
  8
文本
100
AcDbMText
 10
613.8465804684344
 20
280.5665301209522
 30
0.0
 40
1.177278524477582
 41
5.532326046938671
 46
2.273298405747158
 71
     5
 72
     5
  1
No.
  7
Romans字体
 73
     1
 44
1.0
1001
ACAD
1000
ACAD_MTEXT_DEFINED_HEIGHT_BEGIN
1070
    46
1040
2.273298405747158
1000
ACAD_MTEXT_DEFINED_HEIGHT_END
  0
LINE
  5
13345
330
1F
100
AcDbEntity
  8
图框
 62
     1
100
AcDbLine
 10
611.0804174473749
 20
279.4298809180787
 30
0.0
 11
670.8541671167989
 21
279.4298809180787
 31
0.0
  0
MTEXT
  5
13346
330
1F
100
AcDbEntity
  8
图框
100
AcDbMText
 10
613.8465804696393
 20
270.8017320775998
 30
0.0
 40
1.200004709114095
 41
5.532326044529081
 46
17.25629768095771
 71
     5
 72
     5
  1
{\f仿宋_GB2312|b0|i0|c134|p49;\C4;标示图\Fromans|c134;\PMarked\PGraph}
  7
Romans字体
 73
     1
 44
1.0
1001
ACAD
1000
ACAD_MTEXT_DEFINED_HEIGHT_BEGIN
1070
    46
1040
17.25629768095771
1000
ACAD_MTEXT_DEFINED_HEIGHT_END
  0
LINE
  5
13347
330
1F
100
AcDbEntity
  8
图框
 62
     1
100
AcDbLine
 10
625.6529807627197
 20
281.7033394666371
 30
0.0
 11
625.6529807627197
 21
262.173583237121
 31
0.0
  0
LINE
  5
13348
330
1F
100
AcDbEntity
  8
图框
 62
     1
100
AcDbLine
 10
634.6932180335357
 20
281.7033394666371
 30
0.0
 11
634.6932180335357
 21
262.173583237121
 31
0.0
  0
LINE
  5
13349
330
1F
100
AcDbEntity
  8
图框
 62
     1
100
AcDbLine
 10
643.7334553043516
 20
281.7033394666371
 30
0.0
 11
643.7334553043516
 21
262.173583237121
 31
0.0
  0
LINE
  5
1334A
330
1F
100
AcDbEntity
  8
图框
 62
     1
100
AcDbLine
 10
652.7736925751668
 20
281.7033394666371
 30
0.0
 11
652.7736925751668
 21
262.173583237121
 31
0.0
  0
LINE
  5
1334B
330
1F
100
AcDbEntity
  8
图框
 62
     1
100
AcDbLine
 10
661.8139298459825
 20
281.7033394666371
 30
0.0
 11
661.8139298459825
 21
262.173583237121
 31
0.0
  0
MTEXT
  5
1334C
330
1F
100
AcDbEntity
  8
文本
100
AcDbMText
 10
621.1328621273119
 20
280.8389569619255
 30
0.0
 40
1.177278524477582
 41
9.040237270815783
 46
1.728444723799678
 71
     5
 72
     5
  1
No.1
  7
Romans字体
 73
     1
 44
1.0
1001
ACAD
1000
ACAD_MTEXT_DEFINED_HEIGHT_BEGIN
1070
    46
1040
1.728444723799678
1000
ACAD_MTEXT_DEFINED_HEIGHT_END
  0
LINE
  5
1334D
330
1F
100
AcDbEntity
  8
图框
 62
     1
100
AcDbLine
 10
611.0804174473749
 20
262.173583237121
 30
0.0
 11
670.8541671167977
 21
262.173583237121
 31
0.0
  0
MTEXT
  5
1334E
330
1F
100
AcDbEntity
  8
文本
100
AcDbMText
 10
630.173099398128
 20
280.5665301209519
 30
0.0
 40
1.177278524477582
 41
9.040237270815904
 46
2.273298405746809
 71
     5
 72
     5
  1
No.2
  7
Romans字体
 73
     1
 44
1.0
1001
ACAD
1000
ACAD_MTEXT_DEFINED_HEIGHT_BEGIN
1070
    46
1040
2.273298405746809
1000
ACAD_MTEXT_DEFINED_HEIGHT_END
  0
MTEXT
  5
1334F
330
1F
100
AcDbEntity
  8
文本
100
AcDbMText
 10
639.2133366689438
 20
280.5665301209519
 30
0.0
 40
1.177278524477582
 41
9.040237270815904
 46
2.273298405746809
 71
     5
 72
     5
  1
No.3
  7
Romans字体
 73
     1
 44
1.0
1001
ACAD
1000
ACAD_MTEXT_DEFINED_HEIGHT_BEGIN
1070
    46
1040
2.273298405746809
1000
ACAD_MTEXT_DEFINED_HEIGHT_END
  0
MTEXT
  5
13350
330
1F
100
AcDbEntity
  8
文本
100
AcDbMText
 10
648.2535739397592
 20
280.5665301209519
 30
0.0
 40
1.177278524477582
 41
9.040237270815564
 46
2.273298405746754
 71
     5
 72
     5
  1
No.4
  7
Romans字体
 73
     1
 44
1.0
1001
ACAD
1000
ACAD_MTEXT_DEFINED_HEIGHT_BEGIN
1070
    46
1040
2.273298405746754
1000
ACAD_MTEXT_DEFINED_HEIGHT_END
  0
MTEXT
  5
13351
330
1F
100
AcDbEntity
  8
文本
100
AcDbMText
 10
657.2938112105751
 20
280.5665301209519
 30
0.0
 40
1.177278524477582
 41
9.040237270815904
 46
2.273298405746865
 71
     5
 72
     5
  1
No.5
  7
Romans字体
 73
     1
 44
1.0
1001
ACAD
1000
ACAD_MTEXT_DEFINED_HEIGHT_BEGIN
1070
    46
1040
2.273298405746865
1000
ACAD_MTEXT_DEFINED_HEIGHT_END
  0
MTEXT
  5
13352
330
1F
100
AcDbEntity
  8
文本
100
AcDbMText
 10
666.3340484813907
 20
280.5665301209519
 30
0.0
 40
1.177278524477582
 41
9.040237270815904
 46
2.273298405746865
 71
     5
 72
     5
  1
No.6
  7
Romans字体
 73
     1
 44
1.0
1001
ACAD
1000
ACAD_MTEXT_DEFINED_HEIGHT_BEGIN
1070
    46
1040
2.273298405746865
1000
ACAD_MTEXT_DEFINED_HEIGHT_END
  0
LINE
  5
13353
330
1F
100
AcDbEntity
  8
0
100
AcDbLine
 10
581.5966911671987
 20
238.0433592050777
 30
0.0
 11
582.0970519587972
 21
238.0433592050761
 31
0.0
  0
LINE
  5
13354
330
1F
100
AcDbEntity
  8
0
100
AcDbLine
 10
581.5966911673004
 20
233.5433592053687
 30
0.0
 11
582.0970519588977
 21
233.5433592053937
 31
0.0
  0
LINE
  5
13355
330
1F
100
AcDbEntity
  8
0
100
AcDbLine
 10
583.4980621759113
 20
233.5433592054638
 30
0.0
 11
583.7966911674192
 21
233.5433592054788
 31
0.0
  0
LINE
  5
13356
330
1F
100
AcDbEntity
  8
0
100
AcDbLine
 10
581.5966911672989
 20
233.5433592053687
 30
0.0
 11
583.4980621759116
 21
233.5433592050869
 31
0.0
  0
LINE
  5
13357
330
1F
100
AcDbEntity
  8
图框
370
    35
380
     1
100
AcDbLine
 10
573.4946187797942
 20
281.7033394667998
 30
0.0
 11
573.4946187797942
 21
254.6414875452144
 31
0.0
  0
LINE
  5
13358
330
1F
100
AcDbEntity
  8
图框
370
    -3
100
AcDbLine
 10
568.6288113296682
 20
281.7033394667998
 30
0.0
 11
568.628811329671
 21
254.6414875452142
 31
0.0
  0
LINE
  5
13359
330
1F
100
AcDbEntity
  8
图框
370
    -3
100
AcDbLine
 10
562.7290019736733
 20
278.9989151001667
 30
0.0
 11
562.7290019736724
 21
254.641487545214
 31
0.0
  0
LINE
  5
1335A
330
1F
100
AcDbEntity
  8
图框
370
    -3
100
AcDbLine
 10
534.9566889905352
 20
254.6414875452132
 30
0.0
 11
534.9566889905352
 21
278.9989151001652
 31
0.0
  0
LINE
  5
1335B
330
1F
100
AcDbEntity
  8
图框
370
    -3
100
AcDbLine
 10
547.0903569869017
 20
254.6414875452136
 30
0.0
 11
547.0903569869017
 21
281.7033394667995
 31
0.0
  0
MTEXT
  5
1335C
330
1F
100
AcDbEntity
  8
图框
100
AcDbMText
 10
558.8193407273138
 20
269.5333397853215
 30
0.0
 40
1.19999583169232
 41
7.819322492718757
 46
2.704444373630559
 71
     5
 72
     5
  1
{\C4;0.75}
  7
Romans字体
 73
     1
 44
1.0
1001
ACAD
1000
ACAD_MTEXT_DEFINED_HEIGHT_BEGIN
1070
    46
1040
2.704444373630559
1000
ACAD_MTEXT_DEFINED_HEIGHT_END
  0
MTEXT
  5
1335D
330
1F
100
AcDbEntity
  8
图框
100
AcDbMText
 10
565.6789066516712
 20
269.5333397853215
 30
0.0
 40
1.19999583169232
 41
5.899809355996548
 46
2.704444373630423
 71
     5
 72
     5
  1
{\C4;18}
  7
Romans字体
 73
     1
 44
1.0
1001
ACAD
1000
ACAD_MTEXT_DEFINED_HEIGHT_BEGIN
1070
    46
1040
2.704444373630423
1000
ACAD_MTEXT_DEFINED_HEIGHT_END
  0
MTEXT
  5
1335E
330
1F
100
AcDbEntity
  8
图框
100
AcDbMText
 10
571.0617150547317
 20
269.5333397853215
 30
0.0
 40
1.19999583169232
 41
4.865807450125251
 46
2.704444373630491
 71
     5
 72
     5
  1
{\C4;1.30}
  7
Romans字体
 73
     1
 44
1.0
1001
ACAD
1000
ACAD_MTEXT_DEFINED_HEIGHT_BEGIN
1070
    46
1040
2.704444373630491
1000
ACAD_MTEXT_DEFINED_HEIGHT_END
  0
MTEXT
  5
13362
330
1F
100
AcDbEntity
  8
图框
100
AcDbMText
 10
558.8193407273138
 20
266.8245433654415
 30
0.0
 40
1.19999583169232
 41
7.819322492718757
 46
2.695740281131214
 71
     5
 72
     5
  1
{\C4;1.0}
  7
Romans字体
 73
     1
 44
1.0
1001
ACAD
1000
ACAD_MTEXT_DEFINED_HEIGHT_BEGIN
1070
    46
1040
2.695740281131214
1000
ACAD_MTEXT_DEFINED_HEIGHT_END
  0
MTEXT
  5
13363
330
1F
100
AcDbEntity
  8
图框
100
AcDbMText
 10
558.8193407266468
 20
264.1215163071371
 30
0.0
 40
1.19999583169232
 41
7.819322494052218
 46
2.710313835477585
 71
     5
 72
     5
  1
{\C4;1.5}
  7
Romans字体
 73
     1
 44
1.0
1001
ACAD
1000
ACAD_MTEXT_DEFINED_HEIGHT_BEGIN
1070
    46
1040
2.710313835477585
1000
ACAD_MTEXT_DEFINED_HEIGHT_END
  0
MTEXT
  5
13364
330
1F
100
AcDbEntity
  8
图框
100
AcDbMText
 10
565.6789066510047
 20
266.8244632939542
 30
0.0
 40
1.19999583169232
 41
5.899809354663361
 46
2.695580138156738
 71
     5
 72
     5
  1
{\C4;18}
  7
Romans字体
 73
     1
 44
1.0
1001
ACAD
1000
ACAD_MTEXT_DEFINED_HEIGHT_BEGIN
1070
    46
1040
2.695580138156738
1000
ACAD_MTEXT_DEFINED_HEIGHT_END
  0
MTEXT
  5
13365
330
1F
100
AcDbEntity
  8
图框
100
AcDbMText
 10
565.6789066516712
 20
264.121516307137
 30
0.0
 40
1.19999583169232
 41
5.899809355997221
 46
2.710313835477518
 71
     5
 72
     5
  1
{\C4;16}
  7
Romans字体
 73
     1
 44
1.0
1001
ACAD
1000
ACAD_MTEXT_DEFINED_HEIGHT_BEGIN
1070
    46
1040
2.710313835477518
1000
ACAD_MTEXT_DEFINED_HEIGHT_END
  0
MTEXT
  5
13366
330
1F
100
AcDbEntity
  8
图框
100
AcDbMText
 10
575.9275225048573
 20
269.5333397853214
 30
0.0
 40
1.19999583169232
 41
4.865807450125076
 46
2.704444373630188
 71
     5
 72
     5
  1
{\C4;2.6}
  7
Romans字体
 73
     1
 44
1.0
1001
ACAD
1000
ACAD_MTEXT_DEFINED_HEIGHT_BEGIN
1070
    46
1040
2.704444373630188
1000
ACAD_MTEXT_DEFINED_HEIGHT_END
  0
MTEXT
  5
13367
330
1F
100
AcDbEntity
  8
图框
100
AcDbMText
 10
571.0617150540655
 20
266.8288954116909
 30
0.0
 40
1.19999583169232
 41
4.865807451458461
 46
2.704444373630491
 71
     5
 72
     5
  1
{\C4;1.45}
  7
Romans字体
 73
     1
 44
1.0
1001
ACAD
1000
ACAD_MTEXT_DEFINED_HEIGHT_BEGIN
1070
    46
1040
2.704444373630491
1000
ACAD_MTEXT_DEFINED_HEIGHT_END
  0
MTEXT
  5
13368
330
1F
100
AcDbEntity
  8
图框
100
AcDbMText
 10
571.0617150540656
 20
264.1215163071371
 30
0.0
 40
1.19999583169232
 41
4.865807451458196
 46
2.710313835477184
 71
     5
 72
     5
  1
{\C4;1.75}
  7
Romans字体
 73
     1
 44
1.0
1001
ACAD
1000
ACAD_MTEXT_DEFINED_HEIGHT_BEGIN
1070
    46
1040
2.710313835477184
1000
ACAD_MTEXT_DEFINED_HEIGHT_END
  0
MTEXT
  5
13369
330
1F
100
AcDbEntity
  8
图框
100
AcDbMText
 10
575.9275225048573
 20
266.828895411691
 30
0.0
 40
1.19999583169232
 41
4.865807450125188
 46
2.704444373630594
 71
     5
 72
     5
  1
{\C4;2.6}
  7
Romans字体
 73
     1
 44
1.0
1001
ACAD
1000
ACAD_MTEXT_DEFINED_HEIGHT_BEGIN
1070
    46
1040
2.704444373630594
1000
ACAD_MTEXT_DEFINED_HEIGHT_END
  0
MTEXT
  5
1336A
330
1F
100
AcDbEntity
  8
图框
100
AcDbMText
 10
575.927522504857
 20
264.1215163071373
 30
0.0
 40
1.19999583169232
 41
4.865807450125188
 46
2.71031383547714
 71
     5
 72
     5
  1
{\C4;3.0}
  7
Romans字体
 73
     1
 44
1.0
1001
ACAD
1000
ACAD_MTEXT_DEFINED_HEIGHT_BEGIN
1070
    46
1040
2.71031383547714
1000
ACAD_MTEXT_DEFINED_HEIGHT_END
  0
MTEXT
  5
1336B
330
1F
100
AcDbEntity
  8
图框
100
AcDbMText
 10
605.1115968921465
 20
269.5333397853215
 30
0.0
 40
1.19999583169232
 41
11.93764111045662
 46
2.704444373630626
 71
     5
 72
     5
  1
{\C4;No.2}
  7
Romans字体
 73
     1
 44
1.0
1001
ACAD
1000
ACAD_MTEXT_DEFINED_HEIGHT_BEGIN
1070
    46
1040
2.704444373630626
1000
ACAD_MTEXT_DEFINED_HEIGHT_END
  0
MTEXT
  5
1336C
330
1F
100
AcDbEntity
  8
图框
100
AcDbMText
 10
605.1115968921465
 20
266.8244632939545
 30
0.0
 40
1.19999583169232
 41
11.93764111045663
 46
2.695580138157247
 71
     5
 72
     5
  1
{\C4;No.3}
  7
Romans字体
 73
     1
 44
1.0
1001
ACAD
1000
ACAD_MTEXT_DEFINED_HEIGHT_BEGIN
1070
    46
1040
2.695580138157247
1000
ACAD_MTEXT_DEFINED_HEIGHT_END
  0
MTEXT
  5
1336D
330
1F
100
AcDbEntity
  8
图框
100
AcDbMText
 10
605.1115968921465
 20
264.1215163071375
 30
0.0
 40
1.19999583169232
 41
11.93764111045673
 46
2.710313835476715
 71
     5
 72
     5
  1
{\C4;No.4}
  7
Romans字体
 73
     1
 44
1.0
1001
ACAD
1000
ACAD_MTEXT_DEFINED_HEIGHT_BEGIN
1070
    46
1040
2.710313835476715
1000
ACAD_MTEXT_DEFINED_HEIGHT_END
  0
MTEXT
  5
1336E
330
1F
100
AcDbEntity
  8
图框
100
AcDbMText
 10
594.5803040293726
 20
269.5289076675849
 30
0.0
 40
1.200004709114095
 41
9.124944615090775
 46
2.713308609103588
 71
     5
 72
     5
  1
{\C4;1 groove}
  7
Romans字体
 73
     1
 44
1.0
1001
ACAD
1000
ACAD_MTEXT_DEFINED_HEIGHT_BEGIN
1070
    46
1040
2.713308609103588
1000
ACAD_MTEXT_DEFINED_HEIGHT_END
  0
MTEXT
  5
1336F
330
1F
100
AcDbEntity
  8
图框
100
AcDbMText
 10
594.5803040293728
 20
266.8244632939544
 30
0.0
 40
1.200004709114095
 41
9.124944615091004
 46
2.695580138157307
 71
     5
 72
     5
  1
{\C4;1 groove}
  7
Romans字体
 73
     1
 44
1.0
1001
ACAD
1000
ACAD_MTEXT_DEFINED_HEIGHT_BEGIN
1070
    46
1040
2.695580138157307
1000
ACAD_MTEXT_DEFINED_HEIGHT_END
  0
MTEXT
  5
13370
330
1F
100
AcDbEntity
  8
图框
100
AcDbMText
 10
594.5803040293728
 20
264.1215163071375
 30
0.0
 40
1.200004709114095
 41
9.124944615091004
 46
2.710313835476464
 71
     5
 72
     5
  1
{\C4;2 groove}
  7
Romans字体
 73
     1
 44
1.0
1001
ACAD
1000
ACAD_MTEXT_DEFINED_HEIGHT_BEGIN
1070
    46
1040
2.710313835476464
1000
ACAD_MTEXT_DEFINED_HEIGHT_END
  0
LINE
  5
13371
330
1F
100
AcDbEntity
  8
图框
370
    -3
100
AcDbLine
 10
568.6288113283352
 20
281.7031793238253
 30
0.0
 11
568.6288113283374
 21
254.6413274022397
 31
0.0
  0
LINE
  5
13372
330
1F
100
AcDbEntity
  8
图框
370
    -3
100
AcDbLine
 10
562.7290019723393
 20
278.998754957192
 30
0.0
 11
562.7290019723391
 21
254.6413274022394
 31
0.0
  0
LINE
  5
13373
330
1F
100
AcDbEntity
  8
图框
370
    -3
100
AcDbLine
 10
534.9566889892015
 20
254.6413274022387
 30
0.0
 11
534.9566889892015
 21
281.7031793238252
 31
0.0
  0
LINE
  5
13374
330
1F
100
AcDbEntity
  8
图框
370
    -3
100
AcDbLine
 10
547.0903569855677
 20
254.6413274022391
 30
0.0
 11
547.0903569855677
 21
281.7031793238252
 31
0.0
  0
LINE
  5
13377
330
1F
100
AcDbEntity
  8
图框
370
    35
100
AcDbLine
 10
525.8463417343866
 20
257.3516211872907
 30
0.0
 11
611.0804174473749
 21
257.351621187293
 31
0.0
  0
LINE
  5
13378
330
1F
100
AcDbEntity
  8
图框
370
    35
380
     1
100
AcDbLine
 10
590.0178317218274
 20
281.7031793238257
 30
0.0
 11
590.0178317218274
 21
254.6413274022402
 31
0.0
  0
MTEXT
  5
13379
330
1F
100
AcDbEntity
  8
图框
100
AcDbMText
 10
605.1115968921465
 20
258.7038333706092
 30
0.0
 40
1.19999583169232
 41
11.9376411104566
 46
2.704424366632986
 71
     5
 72
     5
  1
{\C4;No.6}
  7
Romans字体
 73
     1
 44
1.0
1001
ACAD
1000
ACAD_MTEXT_DEFINED_HEIGHT_BEGIN
1070
    46
1040
2.704424366632986
1000
ACAD_MTEXT_DEFINED_HEIGHT_END
  0
MTEXT
  5
1337A
330
1F
100
AcDbEntity
  8
图框
100
AcDbMText
 10
605.1115968921467
 20
255.9965543662539
 30
0.0
 40
1.19999583169232
 41
11.93764111045665
 46
2.710133642078213
 71
     5
 72
     5
  1
{\C4;No.1}
  7
Romans字体
 73
     1
 44
1.0
1001
ACAD
1000
ACAD_MTEXT_DEFINED_HEIGHT_BEGIN
1070
    46
1040
2.710133642078213
1000
ACAD_MTEXT_DEFINED_HEIGHT_END
  0
MTEXT
  5
1337B
330
1F
100
AcDbEntity
  8
图框
100
AcDbMText
 10
565.6789066516718
 20
258.7038333706086
 30
0.0
 40
1.19999583169232
 41
5.899809355997754
 46
2.704424366633519
 71
     5
 72
     5
  1
{\C4;12}
  7
Romans字体
 73
     1
 44
1.0
1001
ACAD
1000
ACAD_MTEXT_DEFINED_HEIGHT_BEGIN
1070
    46
1040
2.704424366633519
1000
ACAD_MTEXT_DEFINED_HEIGHT_END
  0
MTEXT
  5
1337C
330
1F
100
AcDbEntity
  8
图框
100
AcDbMText
 10
565.6789066516718
 20
255.996554366253
 30
0.0
 40
1.19999583169232
 41
5.899809355998018
 46
2.710133642077916
 71
     5
 72
     5
  1
{\C4;12}
  7
Romans字体
 73
     1
 44
1.0
1001
ACAD
1000
ACAD_MTEXT_DEFINED_HEIGHT_BEGIN
1070
    46
1040
2.710133642077916
1000
ACAD_MTEXT_DEFINED_HEIGHT_END
  0
MTEXT
  5
1337D
330
1F
100
AcDbEntity
  8
图框
100
AcDbMText
 10
558.8193407266468
 20
258.7038333706086
 30
0.0
 40
1.19999583169232
 41
7.819322494052077
 46
2.704424366633519
 71
     5
 72
     5
  1
{\C4;3.0}
  7
Romans字体
 73
     1
 44
1.0
1001
ACAD
1000
ACAD_MTEXT_DEFINED_HEIGHT_BEGIN
1070
    46
1040
2.704424366633519
1000
ACAD_MTEXT_DEFINED_HEIGHT_END
  0
MTEXT
  5
1337E
330
1F
100
AcDbEntity
  8
图框
100
AcDbMText
 10
558.8193407266468
 20
255.9965543662528
 30
0.0
 40
1.19999583169232
 41
7.819322494052077
 46
2.710133642077654
 71
     5
 72
     5
  1
{\C4;4.0}
  7
Romans字体
 73
     1
 44
1.0
1001
ACAD
1000
ACAD_MTEXT_DEFINED_HEIGHT_BEGIN
1070
    46
1040
2.710133642077654
1000
ACAD_MTEXT_DEFINED_HEIGHT_END
  0
MTEXT
  5
1337F
330
1F
100
AcDbEntity
  8
图框
100
AcDbMText
 10
571.0617150533985
 20
258.7038333706088
 30
0.0
 40
1.19999583169232
 41
4.865807450124131
 46
2.704424366633253
 71
     5
 72
     5
  1
{\C4;2.55}
  7
Romans字体
 73
     1
 44
1.0
1001
ACAD
1000
ACAD_MTEXT_DEFINED_HEIGHT_BEGIN
1070
    46
1040
2.704424366633253
1000
ACAD_MTEXT_DEFINED_HEIGHT_END
  0
MTEXT
  5
13380
330
1F
100
AcDbEntity
  8
图框
100
AcDbMText
 10
571.0617150533986
 20
255.9964742947658
 30
0.0
 40
1.19999583169232
 41
4.865807450123996
 46
2.710293785052129
 71
     5
 72
     5
  1
{\C4;2.85}
  7
Romans字体
 73
     1
 44
1.0
1001
ACAD
1000
ACAD_MTEXT_DEFINED_HEIGHT_BEGIN
1070
    46
1040
2.710293785052129
1000
ACAD_MTEXT_DEFINED_HEIGHT_END
  0
MTEXT
  5
13381
330
1F
100
AcDbEntity
  8
图框
100
AcDbMText
 10
575.9275225048573
 20
258.7038333706088
 30
0.0
 40
1.19999583169232
 41
4.86580745012518
 46
2.704424366632995
 71
     5
 72
     5
  1
{\C4;3.7}
  7
Romans字体
 73
     1
 44
1.0
1001
ACAD
1000
ACAD_MTEXT_DEFINED_HEIGHT_BEGIN
1070
    46
1040
2.704424366632995
1000
ACAD_MTEXT_DEFINED_HEIGHT_END
  0
MTEXT
  5
13382
330
1F
100
AcDbEntity
  8
图框
100
AcDbMText
 10
575.9275225048573
 20
255.9965543662534
 30
0.0
 40
1.19999583169232
 41
4.86580745012518
 46
2.710133642077511
 71
     5
 72
     5
  1
{\C4;3.9}
  7
Romans字体
 73
     1
 44
1.0
1001
ACAD
1000
ACAD_MTEXT_DEFINED_HEIGHT_BEGIN
1070
    46
1040
2.710133642077511
1000
ACAD_MTEXT_DEFINED_HEIGHT_END
  0
LINE
  5
13383
330
1F
100
AcDbEntity
  8
图框
370
    35
380
     1
100
AcDbLine
 10
599.1427763369182
 20
281.7031793238259
 30
0.0
 11
599.1427763369182
 21
254.6413274022403
 31
0.0
  0
MTEXT
  5
13384
330
1F
100
AcDbEntity
  8
图框
100
AcDbMText
 10
594.5803040293726
 20
258.703833370609
 30
0.0
 40
1.200004709114095
 41
9.124944614424226
 46
2.704424366632895
 71
     5
 72
     5
  1
{\C4;wide groove}
  7
Romans字体
 73
     1
 44
1.0
1001
ACAD
1000
ACAD_MTEXT_DEFINED_HEIGHT_BEGIN
1070
    46
1040
2.704424366632895
1000
ACAD_MTEXT_DEFINED_HEIGHT_END
  0
MTEXT
  5
13385
330
1F
100
AcDbEntity
  8
图框
100
AcDbMText
 10
594.5803040293728
 20
255.9964742947664
 30
0.0
 40
1.200004709114095
 41
9.124944615091056
 46
2.710293785052181
 71
     5
 72
     5
  1
{\C4;no groove}
  7
Romans字体
 73
     1
 44
1.0
1001
ACAD
1000
ACAD_MTEXT_DEFINED_HEIGHT_BEGIN
1070
    46
1040
2.710293785052181
1000
ACAD_MTEXT_DEFINED_HEIGHT_END
  0
LINE
  5
13386
330
1F
100
AcDbEntity
  8
图框
370
    -3
100
AcDbLine
 10
525.8463417343866
 20
268.1811175985065
 30
0.0
 11
611.0804174473749
 21
268.1811175985061
 31
0.0
  0
LINE
  5
13387
330
1F
100
AcDbEntity
  8
图框
370
    -3
100
AcDbLine
 10
525.8463417343866
 20
265.476673224876
 30
0.0
 11
611.0804174473749
 21
265.4766732248756
 31
0.0
  0
DIMENSION
  5
13388
102
{ACAD_XDICTIONARY
360
13389
102
}
102
{ACAD_REACTORS
330
1338A
102
}
330
1F
100
AcDbEntity
  8
DIM
100
AcDbDimension
  2
*D4
 10
572.8619517653817
 20
234.668359205095
 30
0.0
 11
572.8619517653817
 21
235.7933592050951
 31
0.0
 70
   160
  1
%%Cd
 71
     5
 42
2.25
 73
     0
 74
     0
 75
     0
  3
01
100
AcDbAlignedDimension
 13
575.8524280015016
 23
236.918359205095
 33
0.0
 14
575.8524280015523
 24
234.668359205095
 34
0.0
 50
90.0
100
AcDbRotatedDimension
1001
ACAD
1000
DSTYLE
1002
{
1070
    49
1040
0.18
1070
    50
1040
1.570796326794893
1002
}
  0
MTEXT
  5
1338B
102
{ACAD_XDICTIONARY
360
14070
102
}
330
1F
100
AcDbEntity
  8
打标文字
 62
     3
100
AcDbMText
 10
627.7267580950581
 20
251.0865129765912
 30
0.0
 40
1.5
 41
43.12740902174065
 46
53.91180554791946
 71
     1
 72
     5
  3
\A1;{\f仿宋_GB2312|b0|i0|c134|p49;技术参数}:\P- {\f仿宋_GB2312|b0|i0|c134|p49;材料}: {\f仿宋_GB2312|b0|i0|c134|p49;铜合金}\P- {\f仿宋_GB2312|b0|i0|c134|p49;表面处理}: {\f仿宋_GB2312|b0|i0|c134|p49;镀金}\P- {\f仿宋_GB2312|b0|i0|c134|p49;额定电流}: 16A\P- {\f仿宋_GB2312|b0|i0|c134|p49
  3
;接触电阻}: ≤1mΩ\P- {\f仿宋_GB2312|b0|i0|c134|p49;线径范围}: 0.75mm{\H0.7x;\S2^ ;}(18 AWG)\P- {\f仿宋_GB2312|b0|i0|c134|p49;可插拔次数}: {\f仿宋_GB2312|b0|i0|c134|p49;≥}500\P\PTechnical specification:\P- Material: copper alloy\P- Surface: hard-gold plated\P- Rated curre
  1
nt: 16A\P- Contact resistance: ≤1mΩ\P- Wire gauge: 0.75mm{\H0.7x;\S2^ ;}(18 AWG)\P- Mating cycles: {\f仿宋_GB2312|b0|i0|c134|p49;≥}500
  7
Romans字体
 73
     1
 44
1.0
1001
ACAD
1000
ACAD_MTEXT_DEFINED_HEIGHT_BEGIN
1070
    46
1040
53.91180554791946
1000
ACAD_MTEXT_DEFINED_HEIGHT_END
  0
LINE
  5
1338C
330
1F
100
AcDbEntity
  8
图框
370
    35
100
AcDbLine
 10
525.8463417343866
 20
254.6414875452129
 30
0.0
 11
611.0804174473749
 21
254.6414875452152
 31
0.0
  0
MTEXT
  5
1338D
330
1F
100
AcDbEntity
  8
图框
100
AcDbMText
 10
530.4015153617945
 20
278.9989050965973
 30
0.0
 40
1.200004709114095
 41
9.110347254814612
 46
5.408548454455798
 71
     5
 72
     5
  1
{\f仿宋_GB2312|b0|i0|c134|p49;\C4;产品代号\fFangSong_GB2312|b0|i0|c134|p49;\P\Fromans|c134;Part code}
  7
Romans字体
 73
     1
 44
1.0
1001
ACAD
1000
ACAD_MTEXT_DEFINED_HEIGHT_BEGIN
1070
    46
1040
5.408548454455798
1000
ACAD_MTEXT_DEFINED_HEIGHT_END
  0
MTEXT
  5
13397
330
1F
100
AcDbEntity
  8
图框
100
AcDbMText
 10
551.0000182332611
 20
280.3510372084275
 30
0.0
 40
1.200004709114095
 41
7.819322492718882
 46
2.704284230795455
 71
     5
 72
     5
  1
{\f仿宋_GB2312|b0|i0|c134|p49;\C4;重量\Fromans|c134;/Weight}
  7
Romans字体
 73
     1
 44
1.0
1001
ACAD
1000
ACAD_MTEXT_DEFINED_HEIGHT_BEGIN
1070
    46
1040
2.704284230795455
1000
ACAD_MTEXT_DEFINED_HEIGHT_END
  0
MTEXT
  5
13398
330
1F
100
AcDbEntity
  8
图框
100
AcDbMText
 10
551.0000182332611
 20
277.6466729062148
 30
0.0
 40
1.200004709114095
 41
7.819322492718762
 46
2.704444373629943
 71
     5
 72
     5
  1
{\C4;g}
  7
Romans字体
 73
     1
 44
1.0
1001
ACAD
1000
ACAD_MTEXT_DEFINED_HEIGHT_BEGIN
1070
    46
1040
2.704444373629943
1000
ACAD_MTEXT_DEFINED_HEIGHT_END
  0
LINE
  5
13399
330
1F
100
AcDbEntity
  8
图框
370
    -3
100
AcDbLine
 10
554.9096794796205
 20
281.7031793238252
 30
0.0
 11
554.9096794796198
 21
254.6413274022394
 31
0.0
  0
LINE
  5
133A1
330
1F
100
AcDbEntity
  8
图框
370
    35
380
     1
100
AcDbLine
 10
611.0804174473749
 20
281.7031793238259
 30
0.0
 11
611.0804174473749
 21
254.6413274022403
 31
0.0
  0
LINE
  5
133A2
330
1F
100
AcDbEntity
  8
图框
 62
     1
100
AcDbLine
 10
616.6127434919038
 20
281.7033394666373
 30
0.0
 11
616.6127434919038
 21
262.173583237121
 31
0.0
  0
MTEXT
  5
133A4
330
1F
100
AcDbEntity
  8
图框
100
AcDbMText
 10
584.1891289758732
 20
278.9988150216129
 30
0.0
 40
1.200004709114095
 41
11.65740549190757
 46
5.408728604424518
 71
     5
 72
     5
  1
{\f仿宋_GB2312|b0|i0|c134|p49;\C4;剥线长度\Fromans|c134;\PStripping length}
  7
Romans字体
 73
     1
 44
1.0
1001
ACAD
1000
ACAD_MTEXT_DEFINED_HEIGHT_BEGIN
1070
    46
1040
5.408728604424518
1000
ACAD_MTEXT_DEFINED_HEIGHT_END
  0
LINE
  5
133A5
330
1F
100
AcDbEntity
  8
图框
370
    35
380
     1
100
AcDbLine
 10
578.3604262299196
 20
281.7031793238253
 30
0.0
 11
578.3604262299196
 21
254.6413274022398
 31
0.0
  0
MTEXT
  5
133A6
330
1F
100
AcDbEntity
  8
图框
100
AcDbMText
 10
584.1891289758732
 20
274.9422285325839
 30
0.0
 40
1.200004709114095
 41
11.65740549190751
 46
2.70444437363364
 71
     5
 72
     5
  1
{\C4;7.5mm}
  7
Romans字体
 73
     1
 44
1.0
1001
ACAD
1000
ACAD_MTEXT_DEFINED_HEIGHT_BEGIN
1070
    46
1040
2.70444437363364
1000
ACAD_MTEXT_DEFINED_HEIGHT_END
  0
MTEXT
  5
133A7
330
1F
100
AcDbEntity
  8
图框
100
AcDbMText
 10
584.1891289758732
 20
272.2377841589503
 30
0.0
 40
1.200004709114095
 41
11.65740549190751
 46
2.704444373633473
 71
     5
 72
     5
  1
{\C4;7.5mm}
  7
Romans字体
 73
     1
 44
1.0
1001
ACAD
1000
ACAD_MTEXT_DEFINED_HEIGHT_BEGIN
1070
    46
1040
2.704444373633473
1000
ACAD_MTEXT_DEFINED_HEIGHT_END
  0
MTEXT
  5
133A8
330
1F
100
AcDbEntity
  8
图框
100
AcDbMText
 10
584.1891289758732
 20
269.5333397853198
 30
0.0
 40
1.200004709114095
 41
11.65740549190751
 46
2.704444373633473
 71
     5
 72
     5
  1
{\C4;7.5mm}
  7
Romans字体
 73
     1
 44
1.0
1001
ACAD
1000
ACAD_MTEXT_DEFINED_HEIGHT_BEGIN
1070
    46
1040
2.704444373633473
1000
ACAD_MTEXT_DEFINED_HEIGHT_END
  0
MTEXT
  5
133A9
330
1F
100
AcDbEntity
  8
图框
100
AcDbMText
 10
584.1891289758732
 20
266.8288954116894
 30
0.0
 40
1.200004709114095
 41
11.65740549190751
 46
2.704444373633358
 71
     5
 72
     5
  1
{\C4;7.5mm}
  7
Romans字体
 73
     1
 44
1.0
1001
ACAD
1000
ACAD_MTEXT_DEFINED_HEIGHT_BEGIN
1070
    46
1040
2.704444373633358
1000
ACAD_MTEXT_DEFINED_HEIGHT_END
  0
MTEXT
  5
133AA
330
1F
100
AcDbEntity
  8
图框
100
AcDbMText
 10
584.1891289758732
 20
264.1215163071374
 30
0.0
 40
1.200004709114095
 41
11.65740549190757
 46
2.71031383547689
 71
     5
 72
     5
  1
{\C4;7.5mm}
  7
Romans字体
 73
     1
 44
1.0
1001
ACAD
1000
ACAD_MTEXT_DEFINED_HEIGHT_BEGIN
1070
    46
1040
2.71031383547689
1000
ACAD_MTEXT_DEFINED_HEIGHT_END
  0
MTEXT
  5
133AB
330
1F
100
AcDbEntity
  8
图框
100
AcDbMText
 10
584.1891289758732
 20
261.4112024716622
 30
0.0
 40
1.200004709114095
 41
11.65740549190757
 46
2.710313835473252
 71
     5
 72
     5
  1
{\C4;7.5mm}
  7
Romans字体
 73
     1
 44
1.0
1001
ACAD
1000
ACAD_MTEXT_DEFINED_HEIGHT_BEGIN
1070
    46
1040
2.710313835473252
1000
ACAD_MTEXT_DEFINED_HEIGHT_END
  0
MTEXT
  5
133AC
330
1F
100
AcDbEntity
  8
图框
100
AcDbMText
 10
584.1891289758732
 20
258.7038233671087
 30
0.0
 40
1.200004709114095
 41
11.65740549190757
 46
2.704444373633585
 71
     5
 72
     5
  1
{\C4;7.5mm}
  7
Romans字体
 73
     1
 44
1.0
1001
ACAD
1000
ACAD_MTEXT_DEFINED_HEIGHT_BEGIN
1070
    46
1040
2.704444373633585
1000
ACAD_MTEXT_DEFINED_HEIGHT_END
  0
MTEXT
  5
133AD
330
1F
100
AcDbEntity
  8
图框
100
AcDbMText
 10
584.1891289758732
 20
255.9993990004754
 30
0.0
 40
1.200004709114095
 41
11.65740549190757
 46
2.704444373633358
 71
     5
 72
     5
  1
{\C4;7.5mm}
  7
Romans字体
 73
     1
 44
1.0
1001
ACAD
1000
ACAD_MTEXT_DEFINED_HEIGHT_BEGIN
1070
    46
1040
2.704444373633358
1000
ACAD_MTEXT_DEFINED_HEIGHT_END
  0
MTEXT
  5
1341C
330
1F
100
AcDbEntity
  8
图框
100
AcDbMText
 10
551.0000182319273
 20
274.9420683896084
 30
0.0
 40
1.200004709114095
 41
7.819322492718905
 46
2.704444373633061
 71
     5
 72
     5
  1
{\C4;1.37}
  7
Romans字体
 73
     1
 44
1.0
1001
ACAD
1000
ACAD_MTEXT_DEFINED_HEIGHT_BEGIN
1070
    46
1040
2.704444373633061
1000
ACAD_MTEXT_DEFINED_HEIGHT_END
  0
MTEXT
  5
1341D
330
1F
100
AcDbEntity
  8
图框
100
AcDbMText
 10
551.0000182319271
 20
272.2376240159753
 30
0.0
 40
1.200004709114095
 41
7.819322492718905
 46
2.704444373633061
 71
     5
 72
     5
  1
{\C4;1.52}
  7
Romans字体
 73
     1
 44
1.0
1001
ACAD
1000
ACAD_MTEXT_DEFINED_HEIGHT_BEGIN
1070
    46
1040
2.704444373633061
1000
ACAD_MTEXT_DEFINED_HEIGHT_END
  0
MTEXT
  5
1341E
330
1F
100
AcDbEntity
  8
图框
100
AcDbMText
 10
551.0000182319273
 20
269.5331796423451
 30
0.0
 40
1.200004709114095
 41
7.819322492718905
 46
2.704444373633061
 71
     5
 72
     5
  1
{\C4;1.54}
  7
Romans字体
 73
     1
 44
1.0
1001
ACAD
1000
ACAD_MTEXT_DEFINED_HEIGHT_BEGIN
1070
    46
1040
2.704444373633061
1000
ACAD_MTEXT_DEFINED_HEIGHT_END
  0
MTEXT
  5
1341F
330
1F
100
AcDbEntity
  8
图框
100
AcDbMText
 10
551.0000182319273
 20
266.8287352687146
 30
0.0
 40
1.200004709114095
 41
7.819322492718905
 46
2.704444373633061
 71
     5
 72
     5
  1
{\C4;1.54}
  7
Romans字体
 73
     1
 44
1.0
1001
ACAD
1000
ACAD_MTEXT_DEFINED_HEIGHT_BEGIN
1070
    46
1040
2.704444373633061
1000
ACAD_MTEXT_DEFINED_HEIGHT_END
  0
MTEXT
  5
13420
330
1F
100
AcDbEntity
  8
图框
100
AcDbMText
 10
551.0000182319271
 20
264.1242908950842
 30
0.0
 40
1.200004709114095
 41
7.819322492718905
 46
2.704444373633061
 71
     5
 72
     5
  1
{\C4;1.58}
  7
Romans字体
 73
     1
 44
1.0
1001
ACAD
1000
ACAD_MTEXT_DEFINED_HEIGHT_BEGIN
1070
    46
1040
2.704444373633061
1000
ACAD_MTEXT_DEFINED_HEIGHT_END
  0
MTEXT
  5
13421
330
1F
100
AcDbEntity
  8
图框
100
AcDbMText
 10
551.0000182319275
 20
261.4139770596066
 30
0.0
 40
1.200004709114095
 41
7.819322492718905
 46
2.704444373633061
 71
     5
 72
     5
  1
{\C4;1.62}
  7
Romans字体
 73
     1
 44
1.0
1001
ACAD
1000
ACAD_MTEXT_DEFINED_HEIGHT_BEGIN
1070
    46
1040
2.704444373633061
1000
ACAD_MTEXT_DEFINED_HEIGHT_END
  0
MTEXT
  5
13422
330
1F
100
AcDbEntity
  8
图框
100
AcDbMText
 10
551.0000182319279
 20
258.7095526929729
 30
0.0
 40
1.200004709114095
 41
7.819322492718905
 46
2.704444373633061
 71
     5
 72
     5
  1
{\C4;1.54}
  7
Romans字体
 73
     1
 44
1.0
1001
ACAD
1000
ACAD_MTEXT_DEFINED_HEIGHT_BEGIN
1070
    46
1040
2.704444373633061
1000
ACAD_MTEXT_DEFINED_HEIGHT_END
  0
MTEXT
  5
13423
330
1F
100
AcDbEntity
  8
图框
100
AcDbMText
 10
551.0000182319279
 20
255.9994190508952
 30
0.0
 40
1.200004709114095
 41
7.819322492718905
 46
2.704444373633061
 71
     5
 72
     5
  1
{\C4;1.55}
  7
Romans字体
 73
     1
 44
1.0
1001
ACAD
1000
ACAD_MTEXT_DEFINED_HEIGHT_BEGIN
1070
    46
1040
2.704444373633061
1000
ACAD_MTEXT_DEFINED_HEIGHT_END
  0
MTEXT
  5
13829
330
1F
100
AcDbEntity
  8
图框
 62
     3
100
AcDbMText
 10
662.4510690885681
 20
202.9002082983837
 30
0.0
 40
1.492756789270166
 41
16.80619601594785
 46
4.343372757943781
 71
     5
 72
     5
  1
CEGM-0.75
  7
Romans字体
 73
     1
 44
1.0
1001
ACAD
1000
ACAD_MTEXT_DEFINED_HEIGHT_BEGIN
1070
    46
1040
4.343372757943781
1000
ACAD_MTEXT_DEFINED_HEIGHT_END
  0
MTEXT
  5
1382A
330
1F
100
AcDbEntity
  8
图框
 62
     3
100
AcDbMText
 10
662.4510690885681
 20
198.5104830298153
 30
0.0
 40
1.492756789270166
 41
16.80619601594785
 46
4.436077779192771
 71
     5
 72
     5
  1
{\C4;1010192100601}
  7
Romans字体
 73
     1
 44
1.0
1001
ACAD
1000
ACAD_MTEXT_DEFINED_HEIGHT_BEGIN
1070
    46
1040
4.436077779192771
1000
ACAD_MTEXT_DEFINED_HEIGHT_END
  0
MTEXT
  5
1382B
330
1F
100
AcDbEntity
  8
图框
 62
     3
100
AcDbMText
 10
628.4242365833147
 20
191.8566654826286
 30
0.0
 40
1.492756789270166
 41
5.414674223554219
 46
3.943047305235955
 71
     5
 72
     5
  1
2:1 
  7
Romans字体
 73
     1
 44
1.0
1001
ACAD
1000
ACAD_MTEXT_DEFINED_HEIGHT_BEGIN
1070
    46
1040
3.943047305235955
1000
ACAD_MTEXT_DEFINED_HEIGHT_END
  0
MTEXT
  5
1382C
330
1F
100
AcDbEntity
  8
图框
 62
     3
100
AcDbMText
 10
639.267957636568
 20
191.6556459454125
 30
0.0
 40
1.492756789270166
 41
5.414674223555065
 46
3.943047305235904
 71
     5
 72
     5
  1
1.54g 
  7
Romans字体
 73
     1
 44
1.0
1001
ACAD
1000
ACAD_MTEXT_DEFINED_HEIGHT_BEGIN
1070
    46
1040
3.943047305235904
1000
ACAD_MTEXT_DEFINED_HEIGHT_END
  0
INSERT
  5
1382D
330
1F
100
AcDbEntity
  8
DIM
100
AcDbBlockReference
  2
A4图框-NEW
 10
107.3899151296293
 20
-56.0642057581971
 30
0.0
 41
0.5000000005871926
 42
0.5000000005871926
 43
0.5000000005871991
  0
ENDSEC
  0
SECTION
  2
OBJECTS
  0
DICTIONARY
  5
C
330
0
100
AcDbDictionary
281
     1
  3
ACAD_COLOR
350
4FFE
  3
ACAD_GROUP
350
D
  3
ACAD_LAYOUT
350
1A
  3
ACAD_MATERIAL
350
4FE5
  3
ACAD_MLEADERSTYLE
350
5022
  3
ACAD_MLINESTYLE
350
17
  3
ACAD_PLOTSETTINGS
350
19
  3
ACAD_PLOTSTYLENAME
350
E
  3
ACAD_RENDER_PLOT_SETTINGS
350
6537
  3
ACAD_SCALELIST
350
5000
  3
ACAD_TABLESTYLE
350
4FE3
  3
ACAD_VISUALSTYLE
350
2A
  3
ACDB_RECOMPOSE_DATA
350
50EC
  3
AcDbVariableDictionary
350
5108
  3
ASE_INDEX_DICTIONARY
350
13AB8
  0
DICTIONARY
  5
50EE
330
8
100
AcDbDictionary
280
     1
281
     1
  0
DICTIONARY
  5
50B8
330
2
100
AcDbDictionary
280
     1
281
     1
  3
ACAD_LAYERFILTERS
360
67BE
  3
ACAD_LAYERSTATES
360
50B9
  3
ACLYDICTIONARY
360
67BD
  0
DICTIONARY
  5
50D0
330
10
100
AcDbDictionary
280
     1
281
     1
  3
ADSK_XREC_LAYER_RECONCILED
360
50D1
  0
DICTIONARY
  5
50D2
330
3B
100
AcDbDictionary
280
     1
281
     1
  3
ADSK_XREC_LAYER_RECONCILED
360
50D3
  0
DICTIONARY
  5
50AF
330
50AE
100
AcDbDictionary
280
     1
281
     1
  3
ADSK_XREC_LAYER_RECONCILED
360
50D4
  0
DICTIONARY
  5
67C0
330
1F
100
AcDbDictionary
280
     1
281
     1
  3
ACAD_SORTENTS
360
67C1
  0
DICTIONARY
  5
14069
330
10FE8
100
AcDbDictionary
280
     1
281
     1
  0
DICTIONARY
  5
14072
330
13FD4
100
AcDbDictionary
280
     1
281
     1
  3
ACAD_MTEXT_2008_RT
360
14073
  0
DICTIONARY
  5
14074
330
14018
100
AcDbDictionary
280
     1
281
     1
  3
ACAD_MTEXT_2008_RT
360
14075
  0
DICTIONARY
  5
14076
330
14019
100
AcDbDictionary
280
     1
281
     1
  3
ACAD_MTEXT_2008_RT
360
14077
  0
DICTIONARY
  5
14078
330
1403E
100
AcDbDictionary
280
     1
281
     1
  3
ACAD_MTEXT_2008_RT
360
14079
  0
DICTIONARY
  5
1407A
330
14041
100
AcDbDictionary
280
     1
281
     1
  3
ACAD_MTEXT_2008_RT
360
1407B
  0
DICTIONARY
  5
1407C
330
14042
100
AcDbDictionary
280
     1
281
     1
  3
ACAD_MTEXT_2008_RT
360
1407D
  0
DICTIONARY
  5
1407E
330
1404C
100
AcDbDictionary
280
     1
281
     1
  3
ACAD_MTEXT_2008_RT
360
1407F
  0
DICTIONARY
  5
14080
330
1404D
100
AcDbDictionary
280
     1
281
     1
  3
ACAD_MTEXT_2008_RT
360
14081
  0
DICTIONARY
  5
14082
330
1404E
100
AcDbDictionary
280
     1
281
     1
  3
ACAD_MTEXT_2008_RT
360
14083
  0
DICTIONARY
  5
14084
330
1405C
100
AcDbDictionary
280
     1
281
     1
  3
ACAD_MTEXT_2008_RT
360
14085
  0
DICTIONARY
  5
14086
330
1405D
100
AcDbDictionary
280
     1
281
     1
  3
ACAD_MTEXT_2008_RT
360
14087
  0
DICTIONARY
  5
14088
330
1405E
100
AcDbDictionary
280
     1
281
     1
  3
ACAD_MTEXT_2008_RT
360
14089
  0
DICTIONARY
  5
13235
330
13234
100
AcDbDictionary
280
     1
281
     1
  3
ACAD_DIMASSOC
360
13236
  0
DICTIONARY
  5
13245
330
13244
100
AcDbDictionary
280
     1
281
     1
  3
ACAD_DIMASSOC
360
13246
  0
DICTIONARY
  5
13256
330
13255
100
AcDbDictionary
280
     1
281
     1
  3
ACAD_DIMASSOC
360
13257
  0
DICTIONARY
  5
13389
330
13388
100
AcDbDictionary
280
     1
281
     1
  3
ACAD_DIMASSOC
360
1338A
  0
DICTIONARY
  5
14070
330
1338B
100
AcDbDictionary
280
     1
281
     1
  3
ACAD_MTEXT_2008_RT
360
14071
  0
DICTIONARY
  5
4FFE
102
{ACAD_REACTORS
330
C
102
}
330
C
100
AcDbDictionary
281
     1
  0
DICTIONARY
  5
D
102
{ACAD_REACTORS
330
C
102
}
330
C
100
AcDbDictionary
281
     1
  0
DICTIONARY
  5
1A
102
{ACAD_REACTORS
330
C
102
}
330
C
100
AcDbDictionary
281
     1
  3
Layout1
350
1E
  3
Layout2
350
26
  3
Model
350
22
  0
DICTIONARY
  5
4FE5
102
{ACAD_REACTORS
330
C
102
}
330
C
100
AcDbDictionary
281
     1
  3
ByBlock
350
4FEE
  3
ByLayer
350
4FE6
  3
Global
350
4FF6
  0
DICTIONARY
  5
5022
102
{ACAD_REACTORS
330
C
102
}
330
C
100
AcDbDictionary
281
     1
  3
Standard
350
5023
  0
DICTIONARY
  5
17
102
{ACAD_REACTORS
330
C
102
}
330
C
100
AcDbDictionary
281
     1
  3
Standard
350
18
  0
DICTIONARY
  5
19
102
{ACAD_REACTORS
330
C
102
}
330
C
100
AcDbDictionary
281
     1
  0
ACDBDICTIONARYWDFLT
  5
E
102
{ACAD_REACTORS
330
C
102
}
330
C
100
AcDbDictionary
281
     1
  3
Normal
350
F
  3
Style 1
350
11B6F
100
AcDbDictionaryWithDefault
340
F
  0
DICTIONARY
  5
6537
102
{ACAD_REACTORS
330
C
102
}
330
C
100
AcDbDictionary
281
     1
  3
{1DC63513-1B1A-422F-9880-65CFD2B8D533}
350
6538
  0
DICTIONARY
  5
5000
102
{ACAD_REACTORS
330
C
102
}
330
C
100
AcDbDictionary
281
     1
  3
A0
350
5001
  3
A1
350
5002
  3
A2
350
5003
  3
A3
350
5004
  3
A4
350
5005
  3
A5
350
5006
  3
A6
350
5007
  3
A7
350
5008
  3
A8
350
5009
  3
A9
350
500A
  3
B0
350
500B
  3
B1
350
500C
  3
B2
350
500D
  3
B3
350
500E
  3
B4
350
500F
  3
B5
350
5010
  3
B6
350
5011
  3
B7
350
5012
  3
B8
350
5013
  3
B9
350
5014
  3
C0
350
5015
  3
C1
350
5016
  3
C2
350
5017
  3
C3
350
5018
  3
C4
350
5019
  3
C5
350
501A
  3
C6
350
501B
  3
C7
350
501C
  3
C8
350
501D
  3
C9
350
501E
  3
D0
350
501F
  3
D1
350
5020
  3
D2
350
5021
  0
DICTIONARY
  5
4FE3
102
{ACAD_REACTORS
330
C
102
}
330
C
100
AcDbDictionary
281
     1
  3
Standard
350
4FFF
  0
DICTIONARY
  5
2A
102
{ACAD_REACTORS
330
C
102
}
330
C
100
AcDbDictionary
281
     1
  3
2dWireframe
350
2F
  3
3D Hidden
350
31
  3
3dWireframe
350
30
  3
Basic
350
32
  3
Brighten
350
36
  3
ColorChange
350
3A
  3
Conceptual
350
34
  3
Dim
350
35
  3
Facepattern
350
39
  3
Flat
350
2B
  3
FlatWithEdges
350
2C
  3
Gouraud
350
2D
  3
GouraudWithEdges
350
2E
  3
Linepattern
350
38
  3
Realistic
350
33
  3
Thicken
350
37
  0
XRECORD
  5
50EC
102
{ACAD_REACTORS
330
C
102
}
330
C
100
AcDbXrecord
280
     1
 90
        1
330
4FFF
330
1338B
330
13FD4
330
14018
330
14019
330
1403E
330
14041
330
14042
330
1404C
330
1404D
330
1404E
330
1405C
330
1405D
330
1405E
  0
DICTIONARY
  5
5108
102
{ACAD_REACTORS
330
C
102
}
330
C
100
AcDbDictionary
281
     1
  3
CANNOSCALE
350
510B
  3
CMLEADERSTYLE
350
510A
  3
CTABLESTYLE
350
5109
  3
DIMASSOC
350
510E
  3
INDEXCTL
350
510D
  3
LIGHTINGUNITS
350
1406E
  3
MSLTSCALE
350
1406D
  3
SORTENTS
350
510C
  0
DICTIONARY
  5
13AB8
102
{ACAD_REACTORS
330
C
102
}
330
C
100
AcDbDictionary
281
     1
  3
ASEBlockHierarchyIndexRecord
350
13AB9
1001
DCO15
1040
1903428683.781
  0
DICTIONARY
  5
67BE
102
{ACAD_REACTORS
330
50B8
102
}
330
50B8
100
AcDbDictionary
281
     1
  0
DICTIONARY
  5
50B9
102
{ACAD_REACTORS
330
50B8
102
}
330
50B8
100
AcDbDictionary
281
     1
  0
DICTIONARY
  5
67BD
102
{ACAD_REACTORS
330
50B8
102
}
330
50B8
100
AcDbDictionary
281
     1
1001
ACAD
1000
<All
  0
XRECORD
  5
50D1
102
{ACAD_REACTORS
330
50D0
102
}
330
50D0
100
AcDbXrecord
280
     1
290
     1
  0
XRECORD
  5
50D3
102
{ACAD_REACTORS
330
50D2
102
}
330
50D2
100
AcDbXrecord
280
     1
290
     1
  0
XRECORD
  5
50D4
102
{ACAD_REACTORS
330
50AF
102
}
330
50AF
100
AcDbXrecord
280
     1
290
     1
  0
SORTENTSTABLE
  5
67C1
102
{ACAD_REACTORS
330
67C0
102
}
330
67C0
100
AcDbSortentsTable
330
1F
331
35C8
  5
35D8
331
2FDE
  5
35C8
331
28AE
  5
2A38
331
2EE7
  5
2F93
331
3943
  5
4842
331
2C65
  5
2EE7
331
3895
  5
3943
331
35D8
  5
3807
331
4842
  5
4E94
331
3807
  5
3895
331
2F93
  5
2FDE
  0
XRECORD
  5
14073
102
{ACAD_REACTORS
330
14072
102
}
330
14072
100
AcDbXrecord
280
     1
 40
1527.0
  1
\pxqc;BQ LUO
  0
XRECORD
  5
14075
102
{ACAD_REACTORS
330
14074
102
}
330
14074
100
AcDbXrecord
280
     1
 40
3624820.0
  1
\pxqc;档案员{\H0.7x;\P\Fromans|c134;Filing Clerk\fFangSong_GB2312|b0|i0|c134|p49; }
  0
XRECORD
  5
14077
102
{ACAD_REACTORS
330
14076
102
}
330
14076
100
AcDbXrecord
280
     1
 40
2054623.0
  1
\pxqc;日期{\Fromans|c134;/Date}
  0
XRECORD
  5
14079
102
{ACAD_REACTORS
330
14078
102
}
330
14078
100
AcDbXrecord
280
     1
 40
1836818.0
  1
\pxsm0.7;{\fFangSong_GB2312|b0|i0|c134|p49;标准化}\PStand.
  0
XRECORD
  5
1407B
102
{ACAD_REACTORS
330
1407A
102
}
330
1407A
100
AcDbXrecord
280
     1
 40
1476476.0
  1
\pxsm0.7;签名\P{\Fromans|c134;Signature} 
  0
XRECORD
  5
1407D
102
{ACAD_REACTORS
330
1407C
102
}
330
1407C
100
AcDbXrecord
280
     1
 40
1354713.0
  1
\pxsm0.7,qc;处数\P{\Fromans|c134;Number }
  0
XRECORD
  5
1407F
102
{ACAD_REACTORS
330
1407E
102
}
330
1407E
100
AcDbXrecord
280
     1
 40
1692934.0
  1
\pxsm0.7;标记\P{\Fromans|c134;Mark}
  0
XRECORD
  5
14081
102
{ACAD_REACTORS
330
14080
102
}
330
14080
100
AcDbXrecord
280
     1
 40
1391581.0
  1
\pxsm0.7;审核\P{\Fromans|c134;Checked}
  0
XRECORD
  5
14083
102
{ACAD_REACTORS
330
14082
102
}
330
14082
100
AcDbXrecord
280
     1
 40
1546703.0
  1
\pxsm0.7;绘图\P{\Fromans|c134;Drawn\Ftxt|c134; }
  0
XRECORD
  5
14085
102
{ACAD_REACTORS
330
14084
102
}
330
14084
100
AcDbXrecord
280
     1
 40
1293614.0
  1
\pxsm0.7;批准\P{\Fromans|c134;Approved}
  0
XRECORD
  5
14087
102
{ACAD_REACTORS
330
14086
102
}
330
14086
100
AcDbXrecord
280
     1
 40
1583427.0
  1
\pxsm0.7;工艺\P{\Fromans|c134;Process}
  0
XRECORD
  5
14089
102
{ACAD_REACTORS
330
14088
102
}
330
14088
100
AcDbXrecord
280
     1
 40
1435325.0
  1
\pxsm0.7;日期\P{\Fromans|c134;Date}
  0
DIMASSOC
  5
13236
102
{ACAD_REACTORS
330
13235
102
}
330
13235
100
AcDbDimAssoc
330
13234
 90
        1
 70
     0
 71
     0
  1
AcDbOsnapPointRef
 72
     2
331
13227
 73
     2
 91
        0
 40
1.570796326794893
 10
0.0
 20
0.0
 30
0.0
 75
     0
  0
DIMASSOC
  5
13246
102
{ACAD_REACTORS
330
13245
102
}
330
13245
100
AcDbDimAssoc
330
13244
 90
        3
 70
     0
 71
     0
  1
AcDbOsnapPointRef
 72
     1
331
13227
 73
     2
 91
        0
 40
7.853981633974481
 10
0.0
 20
0.0
 30
2.000000000000000E+50
 75
     0
  1
AcDbOsnapPointRef
 72
    13
331
13227
 73
     2
 91
        0
 40
4.712388980384687
 10
0.0
 20
0.0
 30
2.000000000000000E+50
 75
     0
  0
DIMASSOC
  5
13257
102
{ACAD_REACTORS
330
13256
102
}
330
13256
100
AcDbDimAssoc
330
13255
 90
        3
 70
     0
 71
     0
  1
AcDbOsnapPointRef
 72
     2
331
13231
 73
     2
 91
        0
 40
0.4999999999999424
 10
0.0
 20
0.0
 30
0.0
 75
     0
  1
AcDbOsnapPointRef
 72
     2
331
13252
 73
     2
 91
        0
 40
0.5000000000000455
 10
0.0
 20
0.0
 30
0.0
 75
     0
  0
DIMASSOC
  5
1338A
102
{ACAD_REACTORS
330
13389
102
}
330
13389
100
AcDbDimAssoc
330
13388
 90
        3
 70
     0
 71
     0
  1
AcDbOsnapPointRef
 72
     1
331
1324C
 73
     2
 91
        0
 40
1.0
 10
0.0
 20
0.0
 30
2.000000000000000E+50
 75
     0
  1
AcDbOsnapPointRef
 72
     8
331
13232
 73
     2
 91
        0
 40
0.9999999999999516
 10
0.0
 20
0.0
 30
0.0
 75
     1
  1
AcDbOsnapPointRef
 72
     1
331
1324C
 73
     2
 91
        0
 40
1.0
 10
0.0
 20
0.0
 30
2.000000000000000E+50
 75
     0
  0
XRECORD
  5
14071
102
{ACAD_REACTORS
330
14070
102
}
330
14070
100
AcDbXrecord
280
     1
 40
322413856.0
  1
\A1;\pxql;{\f仿宋_GB2312|b0|i0|c134|p49;技术参数}:\P\pq*;- {\f仿宋_GB2312|b0|i0|c134|p49;材料}: {\f仿宋_GB2312|b0|i0|c134|p49;铜合金}\P- {\f仿宋_GB2312|b0|i0|c134|p49;表面处理}: {\f仿宋_GB2312|b0|i0|c134|p49;镀金}\P\pql;- {\f仿宋_GB2312|b0|i0|c134|p49;额定电流}: 16A\P- {\f仿宋_GB231
  1
2|b0|i0|c134|p49;接触电阻}: ≤1mΩ\P- {\f仿宋_GB2312|b0|i0|c134|p49;线径范围}: 0.75mm{\H0.7x;\S2^ ;}(18 AWG)\P\pq*;- {\f仿宋_GB2312|b0|i0|c134|p49;可插拔次数}: {\f仿宋_GB2312|b0|i0|c134|p49;≥}500\P\P\pql;Technical specification:\P- Material: copper alloy\P- Surface: hard-
  1
gold plated\P- Rated current: 16A\P- Contact resistance: ≤1mΩ\P- Wire gauge: 0.75mm{\H0.7x;\S2^ ;}(18 AWG)\P- Mating cycles: {\f仿宋_GB2312|b0|i0|c134|p49;≥}500
  0
LAYOUT
  5
1E
102
{ACAD_REACTORS
330
1A
102
}
330
1A
100
AcDbPlotSettings
  1

  2
none_device
  4

  6

 40
0.0
 41
0.0
 42
0.0
 43
0.0
 44
0.0
 45
0.0
 46
0.0
 47
0.0
 48
0.0
 49
0.0
140
0.0
141
0.0
142
1.0
143
1.0
 70
   688
 72
     0
 73
     0
 74
     5
  7

 75
    16
147
1.0
 76
     0
 77
     2
 78
   300
148
0.0
149
0.0
100
AcDbLayout
  1
Layout1
 70
     1
 71
     1
 10
0.0
 20
0.0
 11
12.0
 21
9.0
 12
0.0
 22
0.0
 32
0.0
 14
1.000000000000000E+20
 24
1.000000000000000E+20
 34
1.000000000000000E+20
 15
-1.000000000000000E+20
 25
-1.000000000000000E+20
 35
-1.000000000000000E+20
146
0.0
 13
0.0
 23
0.0
 33
0.0
 16
1.0
 26
0.0
 36
0.0
 17
0.0
 27
1.0
 37
0.0
 76
     0
330
1B
  0
LAYOUT
  5
26
102
{ACAD_REACTORS
330
1A
102
}
330
1A
100
AcDbPlotSettings
  1

  2
none_device
  4

  6

 40
0.0
 41
0.0
 42
0.0
 43
0.0
 44
0.0
 45
0.0
 46
0.0
 47
0.0
 48
0.0
 49
0.0
140
0.0
141
0.0
142
1.0
143
1.0
 70
   688
 72
     0
 73
     0
 74
     5
  7

 75
    16
147
1.0
 76
     0
 77
     2
 78
   300
148
0.0
149
0.0
100
AcDbLayout
  1
Layout2
 70
     1
 71
     2
 10
0.0
 20
0.0
 11
0.0
 21
0.0
 12
0.0
 22
0.0
 32
0.0
 14
0.0
 24
0.0
 34
0.0
 15
0.0
 25
0.0
 35
0.0
146
0.0
 13
0.0
 23
0.0
 33
0.0
 16
1.0
 26
0.0
 36
0.0
 17
0.0
 27
1.0
 37
0.0
 76
     0
330
23
  0
LAYOUT
  5
22
102
{ACAD_REACTORS
330
1A
102
}
330
1A
100
AcDbPlotSettings
  1

  2
Adobe PDF Converter.pc3
  4
A4
  6

 40
3.174999952316281
 41
3.174999952316281
 42
3.17498779296875
 43
3.175003051757812
 44
297.0318298339844
 45
209.9733276367186
 46
0.0000000000000076
 47
1.630241740247063
 48
246.9897427644609
 49
39.36804549891383
140
544.952097801264
141
244.7492402188181
142
1.0
143
1.025046328645055
 70
  3764
 72
     1
 73
     0
 74
     4
  7
monochrome.ctb
 75
     0
147
0.9755656618192436
 76
     1
 77
     2
 78
   300
148
-246.9897427644609
149
-39.36804549891383
100
AcDbLayout
  1
Model
 70
     1
 71
     0
 10
0.0
 20
0.0
 11
12.0
 21
9.0
 12
0.0
 22
0.0
 32
0.0
 14
1.000000000000000E+20
 24
1.000000000000000E+20
 34
1.000000000000000E+20
 15
-1.000000000000000E+20
 25
-1.000000000000000E+20
 35
-1.000000000000000E+20
146
0.0
 13
0.0
 23
0.0
 33
0.0
 16
1.0
 26
0.0
 36
0.0
 17
0.0
 27
1.0
 37
0.0
 76
     0
330
1F
331
29
1001
ACAD_PSEXT
1000
Adobe PDF Converter.pc3
1000
Adobe PDF Converter
1000
桌面\*.pdf
1000

1070
     0
  0
MATERIAL
  5
4FEE
102
{ACAD_XDICTIONARY
360
4FEF
102
}
102
{ACAD_REACTORS
330
4FE5
102
}
330
4FE5
100
AcDbMaterial
  1
ByBlock
 72
     0
 43
0.0208333333333333
 43
0.0
 43
0.0
 43
0.0
 43
0.0
 43
0.0208333333333333
 43
0.0
 43
0.0
 43
0.0
 43
0.0
 43
1.0
 43
0.0
 43
0.0
 43
0.0
 43
0.0
 43
1.0
 77
     0
 47
0.0208333333333333
 47
0.0
 47
0.0
 47
0.0
 47
0.0
 47
0.0208333333333333
 47
0.0
 47
0.0
 47
0.0
 47
0.0
 47
1.0
 47
0.0
 47
0.0
 47
0.0
 47
0.0
 47
1.0
171
     0
 49
0.0208333333333333
 49
0.0
 49
0.0
 49
0.0
 49
0.0
 49
0.0208333333333333
 49
0.0
 49
0.0
 49
0.0
 49
0.0
 49
1.0
 49
0.0
 49
0.0
 49
0.0
 49
0.0
 49
1.0
175
     0
142
0.0208333333333333
142
0.0
142
0.0
142
0.0
142
0.0
142
0.0208333333333333
142
0.0
142
0.0
142
0.0
142
0.0
142
1.0
142
0.0
142
0.0
142
0.0
142
0.0
142
1.0
179
     0
144
0.0208333333333333
144
0.0
144
0.0
144
0.0
144
0.0
144
0.0208333333333333
144
0.0
144
0.0
144
0.0
144
0.0
144
1.0
144
0.0
144
0.0
144
0.0
144
0.0
144
1.0
147
0.0208333333333333
147
0.0
147
0.0
147
0.0
147
0.0
147
0.0208333333333333
147
0.0
147
0.0
147
0.0
147
0.0
147
1.0
147
0.0
147
0.0
147
0.0
147
0.0
147
1.0
  0
MATERIAL
  5
4FE6
102
{ACAD_XDICTIONARY
360
4FE7
102
}
102
{ACAD_REACTORS
330
4FE5
102
}
330
4FE5
100
AcDbMaterial
  1
ByLayer
 72
     0
 43
0.0208333333333333
 43
0.0
 43
0.0
 43
0.0
 43
0.0
 43
0.0208333333333333
 43
0.0
 43
0.0
 43
0.0
 43
0.0
 43
1.0
 43
0.0
 43
0.0
 43
0.0
 43
0.0
 43
1.0
 77
     0
 47
0.0208333333333333
 47
0.0
 47
0.0
 47
0.0
 47
0.0
 47
0.0208333333333333
 47
0.0
 47
0.0
 47
0.0
 47
0.0
 47
1.0
 47
0.0
 47
0.0
 47
0.0
 47
0.0
 47
1.0
171
     0
 49
0.0208333333333333
 49
0.0
 49
0.0
 49
0.0
 49
0.0
 49
0.0208333333333333
 49
0.0
 49
0.0
 49
0.0
 49
0.0
 49
1.0
 49
0.0
 49
0.0
 49
0.0
 49
0.0
 49
1.0
175
     0
142
0.0208333333333333
142
0.0
142
0.0
142
0.0
142
0.0
142
0.0208333333333333
142
0.0
142
0.0
142
0.0
142
0.0
142
1.0
142
0.0
142
0.0
142
0.0
142
0.0
142
1.0
179
     0
144
0.0208333333333333
144
0.0
144
0.0
144
0.0
144
0.0
144
0.0208333333333333
144
0.0
144
0.0
144
0.0
144
0.0
144
1.0
144
0.0
144
0.0
144
0.0
144
0.0
144
1.0
147
0.0208333333333333
147
0.0
147
0.0
147
0.0
147
0.0
147
0.0208333333333333
147
0.0
147
0.0
147
0.0
147
0.0
147
1.0
147
0.0
147
0.0
147
0.0
147
0.0
147
1.0
  0
MATERIAL
  5
4FF6
102
{ACAD_XDICTIONARY
360
4FF7
102
}
102
{ACAD_REACTORS
330
4FE5
102
}
330
4FE5
100
AcDbMaterial
  1
Global
 72
     0
 43
0.0208333333333333
 43
0.0
 43
0.0
 43
0.0
 43
0.0
 43
0.0208333333333333
 43
0.0
 43
0.0
 43
0.0
 43
0.0
 43
1.0
 43
0.0
 43
0.0
 43
0.0
 43
0.0
 43
1.0
 77
     0
 47
0.0208333333333333
 47
0.0
 47
0.0
 47
0.0
 47
0.0
 47
0.0208333333333333
 47
0.0
 47
0.0
 47
0.0
 47
0.0
 47
1.0
 47
0.0
 47
0.0
 47
0.0
 47
0.0
 47
1.0
171
     0
 49
0.0208333333333333
 49
0.0
 49
0.0
 49
0.0
 49
0.0
 49
0.0208333333333333
 49
0.0
 49
0.0
 49
0.0
 49
0.0
 49
1.0
 49
0.0
 49
0.0
 49
0.0
 49
0.0
 49
1.0
175
     0
142
0.0208333333333333
142
0.0
142
0.0
142
0.0
142
0.0
142
0.0208333333333333
142
0.0
142
0.0
142
0.0
142
0.0
142
1.0
142
0.0
142
0.0
142
0.0
142
0.0
142
1.0
179
     0
144
0.0208333333333333
144
0.0
144
0.0
144
0.0
144
0.0
144
0.0208333333333333
144
0.0
144
0.0
144
0.0
144
0.0
144
1.0
144
0.0
144
0.0
144
0.0
144
0.0
144
1.0
147
0.0208333333333333
147
0.0
147
0.0
147
0.0
147
0.0
147
0.0208333333333333
147
0.0
147
0.0
147
0.0
147
0.0
147
1.0
147
0.0
147
0.0
147
0.0
147
0.0
147
1.0
  0
MLEADERSTYLE
  5
5023
102
{ACAD_REACTORS
330
5022
102
}
330
5022
100
AcDbMLeaderStyle
170
     2
171
     1
172
     0
 90
        2
 40
0.0
 41
0.0
173
     1
 91
-1056964608
340
14
 92
       -2
290
     1
 42
0.09
291
     1
 43
0.36
  3
Standard
 44
0.18
300

342
11
174
     1
178
     6
175
     1
176
     0
 93
-1056964608
 45
0.18
292
     0
297
     0
 46
0.18
 94
-1056964608
 47
1.0
 49
1.0
140
1.0
293
     1
141
0.0
294
     1
177
     0
142
1.0
295
     0
296
     0
143
0.125
1001
ACAD_MLEADERVER
1070
     2
  0
MLINESTYLE
  5
18
102
{ACAD_REACTORS
330
17
102
}
330
17
100
AcDbMlineStyle
  2
STANDARD
 70
     0
  3

 62
   256
 51
90.0
 52
90.0
 71
     2
 49
0.5
 62
   256
  6
BYLAYER
 49
-0.5
 62
   256
  6
BYLAYER
  0
ACDBPLACEHOLDER
  5
F
102
{ACAD_REACTORS
330
E
102
}
330
E
  0
ACDBPLACEHOLDER
  5
11B6F
102
{ACAD_REACTORS
330
E
102
}
330
E
  0
MENTALRAYRENDERSETTINGS
  5
6538
102
{ACAD_REACTORS
330
6537
102
}
330
6537
100
AcDbRenderSettings
 90
        2
  1
中
290
     1
290
     1
290
     1
290
     1
  1

  1
渲染质量好于“低级”。包括纹理过滤并且强制双面处于激活状态。处理中等级反锯齿和 5 反射/折射的光线跟踪深度。
 90
        0
100
AcDbMentalRayRenderSettings
 90
        2
 90
        0
 90
        1
 70
     2
 40
3.0
 40
3.0
 40
0.0500000007450581
 40
0.0500000007450581
 40
0.0500000007450581
 40
0.0500000007450581
 70
     0
290
     0
290
     1
 90
        5
 90
        5
 90
        5
290
     0
 90
      500
290
     0
 40
1.0
 90
    10000
 90
        5
 90
        5
 90
        5
290
     0
 90
      200
290
     0
290
     0
290
     0
 40
0.1
 40
1.0
 40
1500.0
 70
     0
 70
     0
 40
10.0
 70
     0
 70
     0
290
     0
  1

 90
       32
 70
     0
 90
     1048
290
     0
 40
1.0
  0
SCALE
  5
5001
102
{ACAD_REACTORS
330
5000
102
}
330
5000
100
AcDbScale
 70
     0
300
1:1
140
1.0
141
1.0
290
     1
  0
SCALE
  5
5002
102
{ACAD_REACTORS
330
5000
102
}
330
5000
100
AcDbScale
 70
     0
300
1:2
140
1.0
141
2.0
290
     0
  0
SCALE
  5
5003
102
{ACAD_REACTORS
330
5000
102
}
330
5000
100
AcDbScale
 70
     0
300
1:4
140
1.0
141
4.0
290
     0
  0
SCALE
  5
5004
102
{ACAD_REACTORS
330
5000
102
}
330
5000
100
AcDbScale
 70
     0
300
1:5
140
1.0
141
5.0
290
     0
  0
SCALE
  5
5005
102
{ACAD_REACTORS
330
5000
102
}
330
5000
100
AcDbScale
 70
     0
300
1:8
140
1.0
141
8.0
290
     0
  0
SCALE
  5
5006
102
{ACAD_REACTORS
330
5000
102
}
330
5000
100
AcDbScale
 70
     0
300
1:10
140
1.0
141
10.0
290
     0
  0
SCALE
  5
5007
102
{ACAD_REACTORS
330
5000
102
}
330
5000
100
AcDbScale
 70
     0
300
1:16
140
1.0
141
16.0
290
     0
  0
SCALE
  5
5008
102
{ACAD_REACTORS
330
5000
102
}
330
5000
100
AcDbScale
 70
     0
300
1:20
140
1.0
141
20.0
290
     0
  0
SCALE
  5
5009
102
{ACAD_REACTORS
330
5000
102
}
330
5000
100
AcDbScale
 70
     0
300
1:30
140
1.0
141
30.0
290
     0
  0
SCALE
  5
500A
102
{ACAD_REACTORS
330
5000
102
}
330
5000
100
AcDbScale
 70
     0
300
1:40
140
1.0
141
40.0
290
     0
  0
SCALE
  5
500B
102
{ACAD_REACTORS
330
5000
102
}
330
5000
100
AcDbScale
 70
     0
300
1:50
140
1.0
141
50.0
290
     0
  0
SCALE
  5
500C
102
{ACAD_REACTORS
330
5000
102
}
330
5000
100
AcDbScale
 70
     0
300
1:100
140
1.0
141
100.0
290
     0
  0
SCALE
  5
500D
102
{ACAD_REACTORS
330
5000
102
}
330
5000
100
AcDbScale
 70
     0
300
2:1
140
2.0
141
1.0
290
     0
  0
SCALE
  5
500E
102
{ACAD_REACTORS
330
5000
102
}
330
5000
100
AcDbScale
 70
     0
300
4:1
140
4.0
141
1.0
290
     0
  0
SCALE
  5
500F
102
{ACAD_REACTORS
330
5000
102
}
330
5000
100
AcDbScale
 70
     0
300
8:1
140
8.0
141
1.0
290
     0
  0
SCALE
  5
5010
102
{ACAD_REACTORS
330
5000
102
}
330
5000
100
AcDbScale
 70
     0
300
10:1
140
10.0
141
1.0
290
     0
  0
SCALE
  5
5011
102
{ACAD_REACTORS
330
5000
102
}
330
5000
100
AcDbScale
 70
     0
300
100:1
140
100.0
141
1.0
290
     0
  0
SCALE
  5
5012
102
{ACAD_REACTORS
330
5000
102
}
330
5000
100
AcDbScale
 70
     0
300
1/128" = 1'-0"
140
0.0078125
141
12.0
290
     0
  0
SCALE
  5
5013
102
{ACAD_REACTORS
330
5000
102
}
330
5000
100
AcDbScale
 70
     0
300
1/64" = 1'-0"
140
0.015625
141
12.0
290
     0
  0
SCALE
  5
5014
102
{ACAD_REACTORS
330
5000
102
}
330
5000
100
AcDbScale
 70
     0
300
1/32" = 1'-0"
140
0.03125
141
12.0
290
     0
  0
SCALE
  5
5015
102
{ACAD_REACTORS
330
5000
102
}
330
5000
100
AcDbScale
 70
     0
300
1/16" = 1'-0"
140
0.0625
141
12.0
290
     0
  0
SCALE
  5
5016
102
{ACAD_REACTORS
330
5000
102
}
330
5000
100
AcDbScale
 70
     0
300
3/32" = 1'-0"
140
0.09375
141
12.0
290
     0
  0
SCALE
  5
5017
102
{ACAD_REACTORS
330
5000
102
}
330
5000
100
AcDbScale
 70
     0
300
1/8" = 1'-0"
140
0.125
141
12.0
290
     0
  0
SCALE
  5
5018
102
{ACAD_REACTORS
330
5000
102
}
330
5000
100
AcDbScale
 70
     0
300
3/16" = 1'-0"
140
0.1875
141
12.0
290
     0
  0
SCALE
  5
5019
102
{ACAD_REACTORS
330
5000
102
}
330
5000
100
AcDbScale
 70
     0
300
1/4" = 1'-0"
140
0.25
141
12.0
290
     0
  0
SCALE
  5
501A
102
{ACAD_REACTORS
330
5000
102
}
330
5000
100
AcDbScale
 70
     0
300
3/8" = 1'-0"
140
0.375
141
12.0
290
     0
  0
SCALE
  5
501B
102
{ACAD_REACTORS
330
5000
102
}
330
5000
100
AcDbScale
 70
     0
300
1/2" = 1'-0"
140
0.5
141
12.0
290
     0
  0
SCALE
  5
501C
102
{ACAD_REACTORS
330
5000
102
}
330
5000
100
AcDbScale
 70
     0
300
3/4" = 1'-0"
140
0.75
141
12.0
290
     0
  0
SCALE
  5
501D
102
{ACAD_REACTORS
330
5000
102
}
330
5000
100
AcDbScale
 70
     0
300
1" = 1'-0"
140
1.0
141
12.0
290
     0
  0
SCALE
  5
501E
102
{ACAD_REACTORS
330
5000
102
}
330
5000
100
AcDbScale
 70
     0
300
1-1/2" = 1'-0"
140
1.5
141
12.0
290
     0
  0
SCALE
  5
501F
102
{ACAD_REACTORS
330
5000
102
}
330
5000
100
AcDbScale
 70
     0
300
3" = 1'-0"
140
3.0
141
12.0
290
     0
  0
SCALE
  5
5020
102
{ACAD_REACTORS
330
5000
102
}
330
5000
100
AcDbScale
 70
     0
300
6" = 1'-0"
140
6.0
141
12.0
290
     0
  0
SCALE
  5
5021
102
{ACAD_REACTORS
330
5000
102
}
330
5000
100
AcDbScale
 70
     0
300
1'-0" = 1'-0"
140
12.0
141
12.0
290
     0
  0
TABLESTYLE
  5
4FFF
102
{ACAD_XDICTIONARY
360
50D6
102
}
102
{ACAD_REACTORS
330
4FE3
102
}
330
4FE3
100
AcDbTableStyle
  3
Standard
 70
     0
 71
     0
 40
0.06
 41
0.06
280
     0
281
     0
  7
Standard
140
0.18
170
     2
 62
     0
 63
     7
283
     0
 90
      512
 91
        0
  1

274
    -2
284
     1
 64
     0
275
    -2
285
     1
 65
     0
276
    -2
286
     1
 66
     0
277
    -2
287
     1
 67
     0
278
    -2
288
     1
 68
     0
279
    -2
289
     1
 69
     0
  7
Standard
140
0.25
170
     5
 62
     0
 63
     7
283
     0
 90
      512
 91
        0
  1

274
    -2
284
     1
 64
     0
275
    -2
285
     1
 65
     0
276
    -2
286
     1
 66
     0
277
    -2
287
     1
 67
     0
278
    -2
288
     1
 68
     0
279
    -2
289
     1
 69
     0
  7
Standard
140
0.18
170
     5
 62
     0
 63
     7
283
     0
 90
      512
 91
        0
  1

274
    -2
284
     1
 64
     0
275
    -2
285
     1
 65
     0
276
    -2
286
     1
 66
     0
277
    -2
287
     1
 67
     0
278
    -2
288
     1
 68
     0
279
    -2
289
     1
 69
     0
  0
VISUALSTYLE
  5
2F
102
{ACAD_REACTORS
330
2A
102
}
330
2A
100
AcDbVisualStyle
  2
2dWireframe
 70
     4
 71
     0
 72
     2
 73
     0
 90
        0
 40
-0.6
 41
-30.0
 62
     5
 63
     7
 74
     1
 91
        4
 64
     7
 65
   257
 75
     1
175
     1
 42
1.0
 92
        0
 66
   257
 43
1.0
 76
     1
 77
     6
 78
     2
 67
     7
 79
     5
170
     0
171
     0
290
     0
174
     0
 93
        1
 44
0.0
173
     0
291
     0
 45
0.0
1001
ACAD
1000
AcDbSavedByObjectVersion
1070
     0
1000
AcDbSavedByObjectVersion
1070
     0
1000
AcDbSavedByObjectVersion
1070
     0
1000
AcDbSavedByObjectVersion
1070
     0
1000
AcDbSavedByObjectVersion
1070
     0
1000
AcDbSavedByObjectVersion
1070
     0
1000
AcDbSavedByObjectVersion
1070
     0
1000
AcDbSavedByObjectVersion
1070
     0
1000
AcDbSavedByObjectVersion
1070
     0
1000
AcDbSavedByObjectVersion
1070
     0
1000
AcDbSavedByObjectVersion
1070
     0
1000
AcDbSavedByObjectVersion
1070
     0
1000
AcDbSavedByObjectVersion
1070
     0
1000
AcDbSavedByObjectVersion
1070
     0
1000
AcDbSavedByObjectVersion
1070
     0
1000
AcDbSavedByObjectVersion
1070
     0
1000
AcDbSavedByObjectVersion
1070
     0
1000
AcDbSavedByObjectVersion
1070
     0
1000
AcDbSavedByObjectVersion
1070
     0
1000
AcDbSavedByObjectVersion
1070
     0
1000
AcDbSavedByObjectVersion
1070
     0
1000
AcDbSavedByObjectVersion
1070
     0
1000
AcDbSavedByObjectVersion
1070
     0
1000
AcDbSavedByObjectVersion
1070
     0
1000
AcDbSavedByObjectVersion
1070
     0
1000
AcDbSavedByObjectVersion
1070
     0
1000
AcDbSavedByObjectVersion
1070
     0
1000
AcDbSavedByObjectVersion
1070
     0
1000
AcDbSavedByObjectVersion
1070
     0
1000
AcDbSavedByObjectVersion
1070
     0
1000
AcDbSavedByObjectVersion
1070
     0
1000
AcDbSavedByObjectVersion
1070
     0
1000
AcDbSavedByObjectVersion
1070
     0
1000
AcDbSavedByObjectVersion
1070
     0
1000
AcDbSavedByObjectVersion
1070
     0
1000
AcDbSavedByObjectVersion
1070
     0
1000
AcDbSavedByObjectVersion
1070
     0
1000
AcDbSavedByObjectVersion
1070
     0
1000
AcDbSavedByObjectVersion
1070
     0
1000
AcDbSavedByObjectVersion
1070
     0
1000
AcDbSavedByObjectVersion
1070
     0
1000
AcDbSavedByObjectVersion
1070
     0
1000
AcDbSavedByObjectVersion
1070
     0
1000
AcDbSavedByObjectVersion
1070
     0
1000
AcDbSavedByObjectVersion
1070
     0
1000
AcDbSavedByObjectVersion
1070
     0
1000
AcDbSavedByObjectVersion
1070
     0
1000
AcDbSavedByObjectVersion
1070
     0
  0
VISUALSTYLE
  5
31
102
{ACAD_REACTORS
330
2A
102
}
330
2A
100
AcDbVisualStyle
  2
3D Hidden
 70
     6
 71
     1
 72
     2
 73
     2
 90
        0
 40
-0.6
 41
-30.0
 62
     5
 63
     7
 74
     2
 91
        2
 64
     7
 65
   257
 75
     2
175
     1
 42
40.0
 92
        0
 66
   257
 43
1.0
 76
     1
 77
     6
 78
     2
 67
     7
 79
     3
170
     0
171
     0
290
     0
174
     0
 93
        1
 44
0.0
173
     0
291
     0
 45
0.0
1001
ACAD
1000
AcDbSavedByObjectVersion
1070
     0
1000
AcDbSavedByObjectVersion
1070
     0
1000
AcDbSavedByObjectVersion
1070
     0
1000
AcDbSavedByObjectVersion
1070
     0
1000
AcDbSavedByObjectVersion
1070
     0
1000
AcDbSavedByObjectVersion
1070
     0
1000
AcDbSavedByObjectVersion
1070
     0
1000
AcDbSavedByObjectVersion
1070
     0
1000
AcDbSavedByObjectVersion
1070
     0
1000
AcDbSavedByObjectVersion
1070
     0
1000
AcDbSavedByObjectVersion
1070
     0
1000
AcDbSavedByObjectVersion
1070
     0
1000
AcDbSavedByObjectVersion
1070
     0
1000
AcDbSavedByObjectVersion
1070
     0
1000
AcDbSavedByObjectVersion
1070
     0
1000
AcDbSavedByObjectVersion
1070
     0
1000
AcDbSavedByObjectVersion
1070
     0
1000
AcDbSavedByObjectVersion
1070
     0
1000
AcDbSavedByObjectVersion
1070
     0
1000
AcDbSavedByObjectVersion
1070
     0
1000
AcDbSavedByObjectVersion
1070
     0
1000
AcDbSavedByObjectVersion
1070
     0
1000
AcDbSavedByObjectVersion
1070
     0
1000
AcDbSavedByObjectVersion
1070
     0
1000
AcDbSavedByObjectVersion
1070
     0
1000
AcDbSavedByObjectVersion
1070
     0
1000
AcDbSavedByObjectVersion
1070
     0
1000
AcDbSavedByObjectVersion
1070
     0
1000
AcDbSavedByObjectVersion
1070
     0
1000
AcDbSavedByObjectVersion
1070
     0
1000
AcDbSavedByObjectVersion
1070
     0
1000
AcDbSavedByObjectVersion
1070
     0
1000
AcDbSavedByObjectVersion
1070
     0
1000
AcDbSavedByObjectVersion
1070
     0
1000
AcDbSavedByObjectVersion
1070
     0
1000
AcDbSavedByObjectVersion
1070
     0
1000
AcDbSavedByObjectVersion
1070
     0
1000
AcDbSavedByObjectVersion
1070
     0
1000
AcDbSavedByObjectVersion
1070
     0
1000
AcDbSavedByObjectVersion
1070
     0
1000
AcDbSavedByObjectVersion
1070
     0
1000
AcDbSavedByObjectVersion
1070
     0
1000
AcDbSavedByObjectVersion
1070
     0
1000
AcDbSavedByObjectVersion
1070
     0
1000
AcDbSavedByObjectVersion
1070
     0
1000
AcDbSavedByObjectVersion
1070
     0
1000
AcDbSavedByObjectVersion
1070
     0
1000
AcDbSavedByObjectVersion
1070
     0
  0
VISUALSTYLE
  5
30
102
{ACAD_REACTORS
330
2A
102
}
330
2A
100
AcDbVisualStyle
  2
3dWireframe
 70
     5
 71
     0
 72
     2
 73
     0
 90
        0
 40
-0.6
 41
-30.0
 62
     5
 63
     7
 74
     1
 91
        4
 64
     7
 65
   257
 75
     1
175
     1
 42
1.0
 92
        0
 66
   257
 43
1.0
 76
     1
 77
     6
 78
     2
 67
     7
 79
     5
170
     0
171
     0
290
     0
174
     0
 93
        1
 44
0.0
173
     0
291
     0
 45
0.0
1001
ACAD
1000
AcDbSavedByObjectVersion
1070
     0
1000
AcDbSavedByObjectVersion
1070
     0
1000
AcDbSavedByObjectVersion
1070
     0
1000
AcDbSavedByObjectVersion
1070
     0
1000
AcDbSavedByObjectVersion
1070
     0
1000
AcDbSavedByObjectVersion
1070
     0
1000
AcDbSavedByObjectVersion
1070
     0
1000
AcDbSavedByObjectVersion
1070
     0
1000
AcDbSavedByObjectVersion
1070
     0
1000
AcDbSavedByObjectVersion
1070
     0
1000
AcDbSavedByObjectVersion
1070
     0
1000
AcDbSavedByObjectVersion
1070
     0
1000
AcDbSavedByObjectVersion
1070
     0
1000
AcDbSavedByObjectVersion
1070
     0
1000
AcDbSavedByObjectVersion
1070
     0
1000
AcDbSavedByObjectVersion
1070
     0
1000
AcDbSavedByObjectVersion
1070
     0
1000
AcDbSavedByObjectVersion
1070
     0
1000
AcDbSavedByObjectVersion
1070
     0
1000
AcDbSavedByObjectVersion
1070
     0
1000
AcDbSavedByObjectVersion
1070
     0
1000
AcDbSavedByObjectVersion
1070
     0
1000
AcDbSavedByObjectVersion
1070
     0
1000
AcDbSavedByObjectVersion
1070
     0
1000
AcDbSavedByObjectVersion
1070
     0
1000
AcDbSavedByObjectVersion
1070
     0
1000
AcDbSavedByObjectVersion
1070
     0
1000
AcDbSavedByObjectVersion
1070
     0
1000
AcDbSavedByObjectVersion
1070
     0
1000
AcDbSavedByObjectVersion
1070
     0
1000
AcDbSavedByObjectVersion
1070
     0
1000
AcDbSavedByObjectVersion
1070
     0
1000
AcDbSavedByObjectVersion
1070
     0
1000
AcDbSavedByObjectVersion
1070
     0
1000
AcDbSavedByObjectVersion
1070
     0
1000
AcDbSavedByObjectVersion
1070
     0
1000
AcDbSavedByObjectVersion
1070
     0
1000
AcDbSavedByObjectVersion
1070
     0
1000
AcDbSavedByObjectVersion
1070
     0
1000
AcDbSavedByObjectVersion
1070
     0
1000
AcDbSavedByObjectVersion
1070
     0
1000
AcDbSavedByObjectVersion
1070
     0
1000
AcDbSavedByObjectVersion
1070
     0
1000
AcDbSavedByObjectVersion
1070
     0
1000
AcDbSavedByObjectVersion
1070
     0
1000
AcDbSavedByObjectVersion
1070
     0
1000
AcDbSavedByObjectVersion
1070
     0
1000
AcDbSavedByObjectVersion
1070
     0
  0
VISUALSTYLE
  5
32
102
{ACAD_REACTORS
330
2A
102
}
330
2A
100
AcDbVisualStyle
  2
Basic
 70
     7
 71
     1
 72
     0
 73
     1
 90
        0
 40
-0.6
 41
-30.0
 62
     5
 63
     7
 74
     0
 91
        4
 64
     7
 65
   257
 75
     1
175
     1
 42
1.0
 92
        8
 66
     7
 43
1.0
 76
     1
 77
     6
 78
     2
 67
     7
 79
     5
170
     0
171
     0
290
     0
174
     0
 93
        1
 44
0.0
173
     0
291
     1
 45
0.0
1001
ACAD
1000
AcDbSavedByObjectVersion
1070
     0
1000
AcDbSavedByObjectVersion
1070
     0
1000
AcDbSavedByObjectVersion
1070
     0
1000
AcDbSavedByObjectVersion
1070
     0
1000
AcDbSavedByObjectVersion
1070
     0
1000
AcDbSavedByObjectVersion
1070
     0
1000
AcDbSavedByObjectVersion
1070
     0
1000
AcDbSavedByObjectVersion
1070
     0
1000
AcDbSavedByObjectVersion
1070
     0
1000
AcDbSavedByObjectVersion
1070
     0
1000
AcDbSavedByObjectVersion
1070
     0
1000
AcDbSavedByObjectVersion
1070
     0
1000
AcDbSavedByObjectVersion
1070
     0
1000
AcDbSavedByObjectVersion
1070
     0
1000
AcDbSavedByObjectVersion
1070
     0
1000
AcDbSavedByObjectVersion
1070
     0
1000
AcDbSavedByObjectVersion
1070
     0
1000
AcDbSavedByObjectVersion
1070
     0
1000
AcDbSavedByObjectVersion
1070
     0
1000
AcDbSavedByObjectVersion
1070
     0
1000
AcDbSavedByObjectVersion
1070
     0
1000
AcDbSavedByObjectVersion
1070
     0
1000
AcDbSavedByObjectVersion
1070
     0
1000
AcDbSavedByObjectVersion
1070
     0
1000
AcDbSavedByObjectVersion
1070
     0
1000
AcDbSavedByObjectVersion
1070
     0
1000
AcDbSavedByObjectVersion
1070
     0
1000
AcDbSavedByObjectVersion
1070
     0
1000
AcDbSavedByObjectVersion
1070
     0
1000
AcDbSavedByObjectVersion
1070
     0
1000
AcDbSavedByObjectVersion
1070
     0
1000
AcDbSavedByObjectVersion
1070
     0
1000
AcDbSavedByObjectVersion
1070
     0
1000
AcDbSavedByObjectVersion
1070
     0
1000
AcDbSavedByObjectVersion
1070
     0
1000
AcDbSavedByObjectVersion
1070
     0
1000
AcDbSavedByObjectVersion
1070
     0
1000
AcDbSavedByObjectVersion
1070
     0
1000
AcDbSavedByObjectVersion
1070
     0
1000
AcDbSavedByObjectVersion
1070
     0
1000
AcDbSavedByObjectVersion
1070
     0
1000
AcDbSavedByObjectVersion
1070
     0
1000
AcDbSavedByObjectVersion
1070
     0
1000
AcDbSavedByObjectVersion
1070
     0
1000
AcDbSavedByObjectVersion
1070
     0
1000
AcDbSavedByObjectVersion
1070
     0
1000
AcDbSavedByObjectVersion
1070
     0
1000
AcDbSavedByObjectVersion
1070
     0
  0
VISUALSTYLE
  5
36
102
{ACAD_REACTORS
330
2A
102
}
330
2A
100
AcDbVisualStyle
  2
Brighten
 70
    12
 71
     2
 72
     2
 73
     0
 90
        0
 40
-0.6
 41
-30.0
 62
     5
 63
     7
 74
     1
 91
        4
 64
     7
 65
   257
 75
     1
175
     1
 42
1.0
 92
        8
 66
     7
 43
1.0
 76
     1
 77
     6
 78
     2
 67
     7
 79
     5
170
     0
171
     0
290
     0
174
     0
 93
        1
 44
50.0
173
     0
291
     1
 45
0.0
1001
ACAD
1000
AcDbSavedByObjectVersion
1070
     0
1000
AcDbSavedByObjectVersion
1070
     0
1000
AcDbSavedByObjectVersion
1070
     0
1000
AcDbSavedByObjectVersion
1070
     0
1000
AcDbSavedByObjectVersion
1070
     0
1000
AcDbSavedByObjectVersion
1070
     0
1000
AcDbSavedByObjectVersion
1070
     0
1000
AcDbSavedByObjectVersion
1070
     0
1000
AcDbSavedByObjectVersion
1070
     0
1000
AcDbSavedByObjectVersion
1070
     0
1000
AcDbSavedByObjectVersion
1070
     0
1000
AcDbSavedByObjectVersion
1070
     0
1000
AcDbSavedByObjectVersion
1070
     0
1000
AcDbSavedByObjectVersion
1070
     0
1000
AcDbSavedByObjectVersion
1070
     0
1000
AcDbSavedByObjectVersion
1070
     0
1000
AcDbSavedByObjectVersion
1070
     0
1000
AcDbSavedByObjectVersion
1070
     0
1000
AcDbSavedByObjectVersion
1070
     0
1000
AcDbSavedByObjectVersion
1070
     0
1000
AcDbSavedByObjectVersion
1070
     0
1000
AcDbSavedByObjectVersion
1070
     0
1000
AcDbSavedByObjectVersion
1070
     0
1000
AcDbSavedByObjectVersion
1070
     0
1000
AcDbSavedByObjectVersion
1070
     0
1000
AcDbSavedByObjectVersion
1070
     0
1000
AcDbSavedByObjectVersion
1070
     0
1000
AcDbSavedByObjectVersion
1070
     0
1000
AcDbSavedByObjectVersion
1070
     0
1000
AcDbSavedByObjectVersion
1070
     0
1000
AcDbSavedByObjectVersion
1070
     0
1000
AcDbSavedByObjectVersion
1070
     0
1000
AcDbSavedByObjectVersion
1070
     0
1000
AcDbSavedByObjectVersion
1070
     0
1000
AcDbSavedByObjectVersion
1070
     0
1000
AcDbSavedByObjectVersion
1070
     0
1000
AcDbSavedByObjectVersion
1070
     0
1000
AcDbSavedByObjectVersion
1070
     0
1000
AcDbSavedByObjectVersion
1070
     0
1000
AcDbSavedByObjectVersion
1070
     0
1000
AcDbSavedByObjectVersion
1070
     0
1000
AcDbSavedByObjectVersion
1070
     0
1000
AcDbSavedByObjectVersion
1070
     0
1000
AcDbSavedByObjectVersion
1070
     0
1000
AcDbSavedByObjectVersion
1070
     0
1000
AcDbSavedByObjectVersion
1070
     0
1000
AcDbSavedByObjectVersion
1070
     0
1000
AcDbSavedByObjectVersion
1070
     0
  0
VISUALSTYLE
  5
3A
102
{ACAD_REACTORS
330
2A
102
}
330
2A
100
AcDbVisualStyle
  2
ColorChange
 70
    16
 71
     2
 72
     2
 73
     3
 90
        0
 40
-0.6
 41
-30.0
 62
     5
 63
     8
 74
     1
 91
        4
 64
     7
 65
   257
 75
     1
175
     1
 42
1.0
 92
        8
 66
     8
 43
1.0
 76
     1
 77
     6
 78
     2
 67
     7
 79
     5
170
     0
171
     0
290
     0
174
     0
 93
        1
 44
0.0
173
     0
291
     1
 45
0.0
1001
ACAD
1000
AcDbSavedByObjectVersion
1070
     0
1000
AcDbSavedByObjectVersion
1070
     0
1000
AcDbSavedByObjectVersion
1070
     0
1000
AcDbSavedByObjectVersion
1070
     0
1000
AcDbSavedByObjectVersion
1070
     0
1000
AcDbSavedByObjectVersion
1070
     0
1000
AcDbSavedByObjectVersion
1070
     0
1000
AcDbSavedByObjectVersion
1070
     0
1000
AcDbSavedByObjectVersion
1070
     0
1000
AcDbSavedByObjectVersion
1070
     0
1000
AcDbSavedByObjectVersion
1070
     0
1000
AcDbSavedByObjectVersion
1070
     0
1000
AcDbSavedByObjectVersion
1070
     0
1000
AcDbSavedByObjectVersion
1070
     0
1000
AcDbSavedByObjectVersion
1070
     0
1000
AcDbSavedByObjectVersion
1070
     0
1000
AcDbSavedByObjectVersion
1070
     0
1000
AcDbSavedByObjectVersion
1070
     0
1000
AcDbSavedByObjectVersion
1070
     0
1000
AcDbSavedByObjectVersion
1070
     0
1000
AcDbSavedByObjectVersion
1070
     0
1000
AcDbSavedByObjectVersion
1070
     0
1000
AcDbSavedByObjectVersion
1070
     0
1000
AcDbSavedByObjectVersion
1070
     0
1000
AcDbSavedByObjectVersion
1070
     0
1000
AcDbSavedByObjectVersion
1070
     0
1000
AcDbSavedByObjectVersion
1070
     0
1000
AcDbSavedByObjectVersion
1070
     0
1000
AcDbSavedByObjectVersion
1070
     0
1000
AcDbSavedByObjectVersion
1070
     0
1000
AcDbSavedByObjectVersion
1070
     0
1000
AcDbSavedByObjectVersion
1070
     0
1000
AcDbSavedByObjectVersion
1070
     0
1000
AcDbSavedByObjectVersion
1070
     0
1000
AcDbSavedByObjectVersion
1070
     0
1000
AcDbSavedByObjectVersion
1070
     0
1000
AcDbSavedByObjectVersion
1070
     0
1000
AcDbSavedByObjectVersion
1070
     0
1000
AcDbSavedByObjectVersion
1070
     0
1000
AcDbSavedByObjectVersion
1070
     0
1000
AcDbSavedByObjectVersion
1070
     0
1000
AcDbSavedByObjectVersion
1070
     0
1000
AcDbSavedByObjectVersion
1070
     0
1000
AcDbSavedByObjectVersion
1070
     0
1000
AcDbSavedByObjectVersion
1070
     0
1000
AcDbSavedByObjectVersion
1070
     0
1000
AcDbSavedByObjectVersion
1070
     0
1000
AcDbSavedByObjectVersion
1070
     0
  0
VISUALSTYLE
  5
34
102
{ACAD_REACTORS
330
2A
102
}
330
2A
100
AcDbVisualStyle
  2
Conceptual
 70
     9
 71
     3
 72
     2
 73
     0
 90
        0
 40
-0.6
 41
-30.0
 62
     5
 63
     7
 74
     2
 91
        2
 64
     7
 65
   257
 75
     1
175
     1
 42
40.0
 92
        8
 66
     7
 43
1.0
 76
     1
 77
     6
 78
     2
 67
     7
 79
     3
170
     0
171
     0
290
     0
174
     0
 93
        1
 44
0.0
173
     0
291
     0
 45
0.0
1001
ACAD
1000
AcDbSavedByObjectVersion
1070
     0
1000
AcDbSavedByObjectVersion
1070
     0
1000
AcDbSavedByObjectVersion
1070
     0
1000
AcDbSavedByObjectVersion
1070
     0
1000
AcDbSavedByObjectVersion
1070
     0
1000
AcDbSavedByObjectVersion
1070
     0
1000
AcDbSavedByObjectVersion
1070
     0
1000
AcDbSavedByObjectVersion
1070
     0
1000
AcDbSavedByObjectVersion
1070
     0
1000
AcDbSavedByObjectVersion
1070
     0
1000
AcDbSavedByObjectVersion
1070
     0
1000
AcDbSavedByObjectVersion
1070
     0
1000
AcDbSavedByObjectVersion
1070
     0
1000
AcDbSavedByObjectVersion
1070
     0
1000
AcDbSavedByObjectVersion
1070
     0
1000
AcDbSavedByObjectVersion
1070
     0
1000
AcDbSavedByObjectVersion
1070
     0
1000
AcDbSavedByObjectVersion
1070
     0
1000
AcDbSavedByObjectVersion
1070
     0
1000
AcDbSavedByObjectVersion
1070
     0
1000
AcDbSavedByObjectVersion
1070
     0
1000
AcDbSavedByObjectVersion
1070
     0
1000
AcDbSavedByObjectVersion
1070
     0
1000
AcDbSavedByObjectVersion
1070
     0
1000
AcDbSavedByObjectVersion
1070
     0
1000
AcDbSavedByObjectVersion
1070
     0
1000
AcDbSavedByObjectVersion
1070
     0
1000
AcDbSavedByObjectVersion
1070
     0
1000
AcDbSavedByObjectVersion
1070
     0
1000
AcDbSavedByObjectVersion
1070
     0
1000
AcDbSavedByObjectVersion
1070
     0
1000
AcDbSavedByObjectVersion
1070
     0
1000
AcDbSavedByObjectVersion
1070
     0
1000
AcDbSavedByObjectVersion
1070
     0
1000
AcDbSavedByObjectVersion
1070
     0
1000
AcDbSavedByObjectVersion
1070
     0
1000
AcDbSavedByObjectVersion
1070
     0
1000
AcDbSavedByObjectVersion
1070
     0
1000
AcDbSavedByObjectVersion
1070
     0
1000
AcDbSavedByObjectVersion
1070
     0
1000
AcDbSavedByObjectVersion
1070
     0
1000
AcDbSavedByObjectVersion
1070
     0
1000
AcDbSavedByObjectVersion
1070
     0
1000
AcDbSavedByObjectVersion
1070
     0
1000
AcDbSavedByObjectVersion
1070
     0
1000
AcDbSavedByObjectVersion
1070
     0
1000
AcDbSavedByObjectVersion
1070
     0
1000
AcDbSavedByObjectVersion
1070
     0
  0
VISUALSTYLE
  5
35
102
{ACAD_REACTORS
330
2A
102
}
330
2A
100
AcDbVisualStyle
  2
Dim
 70
    11
 71
     2
 72
     2
 73
     0
 90
        0
 40
-0.6
 41
-30.0
 62
     5
 63
     7
 74
     1
 91
        4
 64
     7
 65
   257
 75
     1
175
     1
 42
1.0
 92
        8
 66
     7
 43
1.0
 76
     1
 77
     6
 78
     2
 67
     7
 79
     5
170
     0
171
     0
290
     0
174
     0
 93
        1
 44
-50.0
173
     0
291
     1
 45
0.0
1001
ACAD
1000
AcDbSavedByObjectVersion
1070
     0
1000
AcDbSavedByObjectVersion
1070
     0
1000
AcDbSavedByObjectVersion
1070
     0
1000
AcDbSavedByObjectVersion
1070
     0
1000
AcDbSavedByObjectVersion
1070
     0
1000
AcDbSavedByObjectVersion
1070
     0
1000
AcDbSavedByObjectVersion
1070
     0
1000
AcDbSavedByObjectVersion
1070
     0
1000
AcDbSavedByObjectVersion
1070
     0
1000
AcDbSavedByObjectVersion
1070
     0
1000
AcDbSavedByObjectVersion
1070
     0
1000
AcDbSavedByObjectVersion
1070
     0
1000
AcDbSavedByObjectVersion
1070
     0
1000
AcDbSavedByObjectVersion
1070
     0
1000
AcDbSavedByObjectVersion
1070
     0
1000
AcDbSavedByObjectVersion
1070
     0
1000
AcDbSavedByObjectVersion
1070
     0
1000
AcDbSavedByObjectVersion
1070
     0
1000
AcDbSavedByObjectVersion
1070
     0
1000
AcDbSavedByObjectVersion
1070
     0
1000
AcDbSavedByObjectVersion
1070
     0
1000
AcDbSavedByObjectVersion
1070
     0
1000
AcDbSavedByObjectVersion
1070
     0
1000
AcDbSavedByObjectVersion
1070
     0
1000
AcDbSavedByObjectVersion
1070
     0
1000
AcDbSavedByObjectVersion
1070
     0
1000
AcDbSavedByObjectVersion
1070
     0
1000
AcDbSavedByObjectVersion
1070
     0
1000
AcDbSavedByObjectVersion
1070
     0
1000
AcDbSavedByObjectVersion
1070
     0
1000
AcDbSavedByObjectVersion
1070
     0
1000
AcDbSavedByObjectVersion
1070
     0
1000
AcDbSavedByObjectVersion
1070
     0
1000
AcDbSavedByObjectVersion
1070
     0
1000
AcDbSavedByObjectVersion
1070
     0
1000
AcDbSavedByObjectVersion
1070
     0
1000
AcDbSavedByObjectVersion
1070
     0
1000
AcDbSavedByObjectVersion
1070
     0
1000
AcDbSavedByObjectVersion
1070
     0
1000
AcDbSavedByObjectVersion
1070
     0
1000
AcDbSavedByObjectVersion
1070
     0
1000
AcDbSavedByObjectVersion
1070
     0
1000
AcDbSavedByObjectVersion
1070
     0
1000
AcDbSavedByObjectVersion
1070
     0
1000
AcDbSavedByObjectVersion
1070
     0
1000
AcDbSavedByObjectVersion
1070
     0
1000
AcDbSavedByObjectVersion
1070
     0
1000
AcDbSavedByObjectVersion
1070
     0
  0
VISUALSTYLE
  5
39
102
{ACAD_REACTORS
330
2A
102
}
330
2A
100
AcDbVisualStyle
  2
Facepattern
 70
    15
 71
     2
 72
     2
 73
     0
 90
        0
 40
-0.6
 41
-30.0
 62
     5
 63
     7
 74
     1
 91
        4
 64
     7
 65
   257
 75
     1
175
     1
 42
1.0
 92
        8
 66
     7
 43
1.0
 76
     1
 77
     6
 78
     2
 67
     7
 79
     5
170
     0
171
     0
290
     0
174
     0
 93
        1
 44
0.0
173
     0
291
     1
 45
0.0
1001
ACAD
1000
AcDbSavedByObjectVersion
1070
     0
1000
AcDbSavedByObjectVersion
1070
     0
1000
AcDbSavedByObjectVersion
1070
     0
1000
AcDbSavedByObjectVersion
1070
     0
1000
AcDbSavedByObjectVersion
1070
     0
1000
AcDbSavedByObjectVersion
1070
     0
1000
AcDbSavedByObjectVersion
1070
     0
1000
AcDbSavedByObjectVersion
1070
     0
1000
AcDbSavedByObjectVersion
1070
     0
1000
AcDbSavedByObjectVersion
1070
     0
1000
AcDbSavedByObjectVersion
1070
     0
1000
AcDbSavedByObjectVersion
1070
     0
1000
AcDbSavedByObjectVersion
1070
     0
1000
AcDbSavedByObjectVersion
1070
     0
1000
AcDbSavedByObjectVersion
1070
     0
1000
AcDbSavedByObjectVersion
1070
     0
1000
AcDbSavedByObjectVersion
1070
     0
1000
AcDbSavedByObjectVersion
1070
     0
1000
AcDbSavedByObjectVersion
1070
     0
1000
AcDbSavedByObjectVersion
1070
     0
1000
AcDbSavedByObjectVersion
1070
     0
1000
AcDbSavedByObjectVersion
1070
     0
1000
AcDbSavedByObjectVersion
1070
     0
1000
AcDbSavedByObjectVersion
1070
     0
1000
AcDbSavedByObjectVersion
1070
     0
1000
AcDbSavedByObjectVersion
1070
     0
1000
AcDbSavedByObjectVersion
1070
     0
1000
AcDbSavedByObjectVersion
1070
     0
1000
AcDbSavedByObjectVersion
1070
     0
1000
AcDbSavedByObjectVersion
1070
     0
1000
AcDbSavedByObjectVersion
1070
     0
1000
AcDbSavedByObjectVersion
1070
     0
1000
AcDbSavedByObjectVersion
1070
     0
1000
AcDbSavedByObjectVersion
1070
     0
1000
AcDbSavedByObjectVersion
1070
     0
1000
AcDbSavedByObjectVersion
1070
     0
1000
AcDbSavedByObjectVersion
1070
     0
1000
AcDbSavedByObjectVersion
1070
     0
1000
AcDbSavedByObjectVersion
1070
     0
1000
AcDbSavedByObjectVersion
1070
     0
1000
AcDbSavedByObjectVersion
1070
     0
1000
AcDbSavedByObjectVersion
1070
     0
1000
AcDbSavedByObjectVersion
1070
     0
1000
AcDbSavedByObjectVersion
1070
     0
1000
AcDbSavedByObjectVersion
1070
     0
1000
AcDbSavedByObjectVersion
1070
     0
1000
AcDbSavedByObjectVersion
1070
     0
1000
AcDbSavedByObjectVersion
1070
     0
  0
VISUALSTYLE
  5
2B
102
{ACAD_REACTORS
330
2A
102
}
330
2A
100
AcDbVisualStyle
  2
Flat
 70
     0
 71
     2
 72
     1
 73
     1
 90
        2
 40
-0.6
 41
30.0
 62
     5
 63
     7
 74
     0
 91
        4
 64
     7
 65
   257
 75
     1
175
     1
 42
1.0
 92
        8
 66
     7
 43
1.0
 76
     1
 77
     6
 78
     2
 67
     7
 79
     5
170
     0
171
     0
290
     0
174
     0
 93
       13
 44
0.0
173
     0
291
     1
 45
0.0
1001
ACAD
1000
AcDbSavedByObjectVersion
1070
     0
1000
AcDbSavedByObjectVersion
1070
     0
1000
AcDbSavedByObjectVersion
1070
     0
1000
AcDbSavedByObjectVersion
1070
     0
1000
AcDbSavedByObjectVersion
1070
     0
1000
AcDbSavedByObjectVersion
1070
     0
1000
AcDbSavedByObjectVersion
1070
     0
1000
AcDbSavedByObjectVersion
1070
     0
1000
AcDbSavedByObjectVersion
1070
     0
1000
AcDbSavedByObjectVersion
1070
     0
1000
AcDbSavedByObjectVersion
1070
     0
1000
AcDbSavedByObjectVersion
1070
     0
1000
AcDbSavedByObjectVersion
1070
     0
1000
AcDbSavedByObjectVersion
1070
     0
1000
AcDbSavedByObjectVersion
1070
     0
1000
AcDbSavedByObjectVersion
1070
     0
1000
AcDbSavedByObjectVersion
1070
     0
1000
AcDbSavedByObjectVersion
1070
     0
1000
AcDbSavedByObjectVersion
1070
     0
1000
AcDbSavedByObjectVersion
1070
     0
1000
AcDbSavedByObjectVersion
1070
     0
1000
AcDbSavedByObjectVersion
1070
     0
1000
AcDbSavedByObjectVersion
1070
     0
1000
AcDbSavedByObjectVersion
1070
     0
1000
AcDbSavedByObjectVersion
1070
     0
1000
AcDbSavedByObjectVersion
1070
     0
1000
AcDbSavedByObjectVersion
1070
     0
1000
AcDbSavedByObjectVersion
1070
     0
1000
AcDbSavedByObjectVersion
1070
     0
1000
AcDbSavedByObjectVersion
1070
     0
1000
AcDbSavedByObjectVersion
1070
     0
1000
AcDbSavedByObjectVersion
1070
     0
1000
AcDbSavedByObjectVersion
1070
     0
1000
AcDbSavedByObjectVersion
1070
     0
1000
AcDbSavedByObjectVersion
1070
     0
1000
AcDbSavedByObjectVersion
1070
     0
1000
AcDbSavedByObjectVersion
1070
     0
1000
AcDbSavedByObjectVersion
1070
     0
1000
AcDbSavedByObjectVersion
1070
     0
1000
AcDbSavedByObjectVersion
1070
     0
1000
AcDbSavedByObjectVersion
1070
     0
1000
AcDbSavedByObjectVersion
1070
     0
1000
AcDbSavedByObjectVersion
1070
     0
1000
AcDbSavedByObjectVersion
1070
     0
1000
AcDbSavedByObjectVersion
1070
     0
1000
AcDbSavedByObjectVersion
1070
     0
1000
AcDbSavedByObjectVersion
1070
     0
1000
AcDbSavedByObjectVersion
1070
     0
  0
VISUALSTYLE
  5
2C
102
{ACAD_REACTORS
330
2A
102
}
330
2A
100
AcDbVisualStyle
  2
FlatWithEdges
 70
     1
 71
     2
 72
     1
 73
     1
 90
        2
 40
-0.6
 41
30.0
 62
     5
 63
     7
 74
     1
 91
        4
 64
     7
 65
   257
 75
     1
175
     1
 42
1.0
 92
        0
 66
   257
 43
1.0
 76
     1
 77
     6
 78
     2
 67
     7
 79
     5
170
     0
171
     0
290
     0
174
     0
 93
       13
 44
0.0
173
     0
291
     1
 45
0.0
1001
ACAD
1000
AcDbSavedByObjectVersion
1070
     0
1000
AcDbSavedByObjectVersion
1070
     0
1000
AcDbSavedByObjectVersion
1070
     0
1000
AcDbSavedByObjectVersion
1070
     0
1000
AcDbSavedByObjectVersion
1070
     0
1000
AcDbSavedByObjectVersion
1070
     0
1000
AcDbSavedByObjectVersion
1070
     0
1000
AcDbSavedByObjectVersion
1070
     0
1000
AcDbSavedByObjectVersion
1070
     0
1000
AcDbSavedByObjectVersion
1070
     0
1000
AcDbSavedByObjectVersion
1070
     0
1000
AcDbSavedByObjectVersion
1070
     0
1000
AcDbSavedByObjectVersion
1070
     0
1000
AcDbSavedByObjectVersion
1070
     0
1000
AcDbSavedByObjectVersion
1070
     0
1000
AcDbSavedByObjectVersion
1070
     0
1000
AcDbSavedByObjectVersion
1070
     0
1000
AcDbSavedByObjectVersion
1070
     0
1000
AcDbSavedByObjectVersion
1070
     0
1000
AcDbSavedByObjectVersion
1070
     0
1000
AcDbSavedByObjectVersion
1070
     0
1000
AcDbSavedByObjectVersion
1070
     0
1000
AcDbSavedByObjectVersion
1070
     0
1000
AcDbSavedByObjectVersion
1070
     0
1000
AcDbSavedByObjectVersion
1070
     0
1000
AcDbSavedByObjectVersion
1070
     0
1000
AcDbSavedByObjectVersion
1070
     0
1000
AcDbSavedByObjectVersion
1070
     0
1000
AcDbSavedByObjectVersion
1070
     0
1000
AcDbSavedByObjectVersion
1070
     0
1000
AcDbSavedByObjectVersion
1070
     0
1000
AcDbSavedByObjectVersion
1070
     0
1000
AcDbSavedByObjectVersion
1070
     0
1000
AcDbSavedByObjectVersion
1070
     0
1000
AcDbSavedByObjectVersion
1070
     0
1000
AcDbSavedByObjectVersion
1070
     0
1000
AcDbSavedByObjectVersion
1070
     0
1000
AcDbSavedByObjectVersion
1070
     0
1000
AcDbSavedByObjectVersion
1070
     0
1000
AcDbSavedByObjectVersion
1070
     0
1000
AcDbSavedByObjectVersion
1070
     0
1000
AcDbSavedByObjectVersion
1070
     0
1000
AcDbSavedByObjectVersion
1070
     0
1000
AcDbSavedByObjectVersion
1070
     0
1000
AcDbSavedByObjectVersion
1070
     0
1000
AcDbSavedByObjectVersion
1070
     0
1000
AcDbSavedByObjectVersion
1070
     0
1000
AcDbSavedByObjectVersion
1070
     0
  0
VISUALSTYLE
  5
2D
102
{ACAD_REACTORS
330
2A
102
}
330
2A
100
AcDbVisualStyle
  2
Gouraud
 70
     2
 71
     2
 72
     2
 73
     1
 90
        2
 40
-0.6
 41
30.0
 62
     5
 63
     7
 74
     0
 91
        4
 64
     7
 65
   257
 75
     1
175
     1
 42
1.0
 92
        0
 66
     7
 43
1.0
 76
     1
 77
     6
 78
     2
 67
     7
 79
     5
170
     0
171
     0
290
     0
174
     0
 93
       13
 44
0.0
173
     0
291
     1
 45
0.0
1001
ACAD
1000
AcDbSavedByObjectVersion
1070
     0
1000
AcDbSavedByObjectVersion
1070
     0
1000
AcDbSavedByObjectVersion
1070
     0
1000
AcDbSavedByObjectVersion
1070
     0
1000
AcDbSavedByObjectVersion
1070
     0
1000
AcDbSavedByObjectVersion
1070
     0
1000
AcDbSavedByObjectVersion
1070
     0
1000
AcDbSavedByObjectVersion
1070
     0
1000
AcDbSavedByObjectVersion
1070
     0
1000
AcDbSavedByObjectVersion
1070
     0
1000
AcDbSavedByObjectVersion
1070
     0
1000
AcDbSavedByObjectVersion
1070
     0
1000
AcDbSavedByObjectVersion
1070
     0
1000
AcDbSavedByObjectVersion
1070
     0
1000
AcDbSavedByObjectVersion
1070
     0
1000
AcDbSavedByObjectVersion
1070
     0
1000
AcDbSavedByObjectVersion
1070
     0
1000
AcDbSavedByObjectVersion
1070
     0
1000
AcDbSavedByObjectVersion
1070
     0
1000
AcDbSavedByObjectVersion
1070
     0
1000
AcDbSavedByObjectVersion
1070
     0
1000
AcDbSavedByObjectVersion
1070
     0
1000
AcDbSavedByObjectVersion
1070
     0
1000
AcDbSavedByObjectVersion
1070
     0
1000
AcDbSavedByObjectVersion
1070
     0
1000
AcDbSavedByObjectVersion
1070
     0
1000
AcDbSavedByObjectVersion
1070
     0
1000
AcDbSavedByObjectVersion
1070
     0
1000
AcDbSavedByObjectVersion
1070
     0
1000
AcDbSavedByObjectVersion
1070
     0
1000
AcDbSavedByObjectVersion
1070
     0
1000
AcDbSavedByObjectVersion
1070
     0
1000
AcDbSavedByObjectVersion
1070
     0
1000
AcDbSavedByObjectVersion
1070
     0
1000
AcDbSavedByObjectVersion
1070
     0
1000
AcDbSavedByObjectVersion
1070
     0
1000
AcDbSavedByObjectVersion
1070
     0
1000
AcDbSavedByObjectVersion
1070
     0
1000
AcDbSavedByObjectVersion
1070
     0
1000
AcDbSavedByObjectVersion
1070
     0
1000
AcDbSavedByObjectVersion
1070
     0
1000
AcDbSavedByObjectVersion
1070
     0
1000
AcDbSavedByObjectVersion
1070
     0
1000
AcDbSavedByObjectVersion
1070
     0
1000
AcDbSavedByObjectVersion
1070
     0
1000
AcDbSavedByObjectVersion
1070
     0
1000
AcDbSavedByObjectVersion
1070
     0
1000
AcDbSavedByObjectVersion
1070
     0
  0
VISUALSTYLE
  5
2E
102
{ACAD_REACTORS
330
2A
102
}
330
2A
100
AcDbVisualStyle
  2
GouraudWithEdges
 70
     3
 71
     2
 72
     2
 73
     1
 90
        2
 40
-0.6
 41
30.0
 62
     5
 63
     7
 74
     1
 91
        4
 64
     7
 65
   257
 75
     1
175
     1
 42
1.0
 92
        0
 66
   257
 43
1.0
 76
     1
 77
     6
 78
     2
 67
     7
 79
     5
170
     0
171
     0
290
     0
174
     0
 93
       13
 44
0.0
173
     0
291
     1
 45
0.0
1001
ACAD
1000
AcDbSavedByObjectVersion
1070
     0
1000
AcDbSavedByObjectVersion
1070
     0
1000
AcDbSavedByObjectVersion
1070
     0
1000
AcDbSavedByObjectVersion
1070
     0
1000
AcDbSavedByObjectVersion
1070
     0
1000
AcDbSavedByObjectVersion
1070
     0
1000
AcDbSavedByObjectVersion
1070
     0
1000
AcDbSavedByObjectVersion
1070
     0
1000
AcDbSavedByObjectVersion
1070
     0
1000
AcDbSavedByObjectVersion
1070
     0
1000
AcDbSavedByObjectVersion
1070
     0
1000
AcDbSavedByObjectVersion
1070
     0
1000
AcDbSavedByObjectVersion
1070
     0
1000
AcDbSavedByObjectVersion
1070
     0
1000
AcDbSavedByObjectVersion
1070
     0
1000
AcDbSavedByObjectVersion
1070
     0
1000
AcDbSavedByObjectVersion
1070
     0
1000
AcDbSavedByObjectVersion
1070
     0
1000
AcDbSavedByObjectVersion
1070
     0
1000
AcDbSavedByObjectVersion
1070
     0
1000
AcDbSavedByObjectVersion
1070
     0
1000
AcDbSavedByObjectVersion
1070
     0
1000
AcDbSavedByObjectVersion
1070
     0
1000
AcDbSavedByObjectVersion
1070
     0
1000
AcDbSavedByObjectVersion
1070
     0
1000
AcDbSavedByObjectVersion
1070
     0
1000
AcDbSavedByObjectVersion
1070
     0
1000
AcDbSavedByObjectVersion
1070
     0
1000
AcDbSavedByObjectVersion
1070
     0
1000
AcDbSavedByObjectVersion
1070
     0
1000
AcDbSavedByObjectVersion
1070
     0
1000
AcDbSavedByObjectVersion
1070
     0
1000
AcDbSavedByObjectVersion
1070
     0
1000
AcDbSavedByObjectVersion
1070
     0
1000
AcDbSavedByObjectVersion
1070
     0
1000
AcDbSavedByObjectVersion
1070
     0
1000
AcDbSavedByObjectVersion
1070
     0
1000
AcDbSavedByObjectVersion
1070
     0
1000
AcDbSavedByObjectVersion
1070
     0
1000
AcDbSavedByObjectVersion
1070
     0
1000
AcDbSavedByObjectVersion
1070
     0
1000
AcDbSavedByObjectVersion
1070
     0
1000
AcDbSavedByObjectVersion
1070
     0
1000
AcDbSavedByObjectVersion
1070
     0
1000
AcDbSavedByObjectVersion
1070
     0
1000
AcDbSavedByObjectVersion
1070
     0
1000
AcDbSavedByObjectVersion
1070
     0
1000
AcDbSavedByObjectVersion
1070
     0
  0
VISUALSTYLE
  5
38
102
{ACAD_REACTORS
330
2A
102
}
330
2A
100
AcDbVisualStyle
  2
Linepattern
 70
    14
 71
     2
 72
     2
 73
     0
 90
        0
 40
-0.6
 41
-30.0
 62
     5
 63
     7
 74
     1
 91
        4
 64
     7
 65
   257
 75
     7
175
     7
 42
1.0
 92
        8
 66
     7
 43
1.0
 76
     1
 77
     6
 78
     2
 67
     7
 79
     5
170
     0
171
     0
290
     0
174
     0
 93
        1
 44
0.0
173
     0
291
     1
 45
0.0
1001
ACAD
1000
AcDbSavedByObjectVersion
1070
     0
1000
AcDbSavedByObjectVersion
1070
     0
1000
AcDbSavedByObjectVersion
1070
     0
1000
AcDbSavedByObjectVersion
1070
     0
1000
AcDbSavedByObjectVersion
1070
     0
1000
AcDbSavedByObjectVersion
1070
     0
1000
AcDbSavedByObjectVersion
1070
     0
1000
AcDbSavedByObjectVersion
1070
     0
1000
AcDbSavedByObjectVersion
1070
     0
1000
AcDbSavedByObjectVersion
1070
     0
1000
AcDbSavedByObjectVersion
1070
     0
1000
AcDbSavedByObjectVersion
1070
     0
1000
AcDbSavedByObjectVersion
1070
     0
1000
AcDbSavedByObjectVersion
1070
     0
1000
AcDbSavedByObjectVersion
1070
     0
1000
AcDbSavedByObjectVersion
1070
     0
1000
AcDbSavedByObjectVersion
1070
     0
1000
AcDbSavedByObjectVersion
1070
     0
1000
AcDbSavedByObjectVersion
1070
     0
1000
AcDbSavedByObjectVersion
1070
     0
1000
AcDbSavedByObjectVersion
1070
     0
1000
AcDbSavedByObjectVersion
1070
     0
1000
AcDbSavedByObjectVersion
1070
     0
1000
AcDbSavedByObjectVersion
1070
     0
1000
AcDbSavedByObjectVersion
1070
     0
1000
AcDbSavedByObjectVersion
1070
     0
1000
AcDbSavedByObjectVersion
1070
     0
1000
AcDbSavedByObjectVersion
1070
     0
1000
AcDbSavedByObjectVersion
1070
     0
1000
AcDbSavedByObjectVersion
1070
     0
1000
AcDbSavedByObjectVersion
1070
     0
1000
AcDbSavedByObjectVersion
1070
     0
1000
AcDbSavedByObjectVersion
1070
     0
1000
AcDbSavedByObjectVersion
1070
     0
1000
AcDbSavedByObjectVersion
1070
     0
1000
AcDbSavedByObjectVersion
1070
     0
1000
AcDbSavedByObjectVersion
1070
     0
1000
AcDbSavedByObjectVersion
1070
     0
1000
AcDbSavedByObjectVersion
1070
     0
1000
AcDbSavedByObjectVersion
1070
     0
1000
AcDbSavedByObjectVersion
1070
     0
1000
AcDbSavedByObjectVersion
1070
     0
1000
AcDbSavedByObjectVersion
1070
     0
1000
AcDbSavedByObjectVersion
1070
     0
1000
AcDbSavedByObjectVersion
1070
     0
1000
AcDbSavedByObjectVersion
1070
     0
1000
AcDbSavedByObjectVersion
1070
     0
1000
AcDbSavedByObjectVersion
1070
     0
  0
VISUALSTYLE
  5
33
102
{ACAD_REACTORS
330
2A
102
}
330
2A
100
AcDbVisualStyle
  2
Realistic
 70
     8
 71
     2
 72
     2
 73
     0
 90
        0
 40
-0.6
 41
-30.0
 62
     5
 63
     7
 74
     1
 91
        0
 64
     7
 65
   257
 75
     1
175
     1
 42
1.0
 92
        8
 66
     8
 43
1.0
 76
     1
 77
     6
 78
     2
 67
     7
 79
     5
170
     0
171
     0
290
     0
174
     0
 93
       13
 44
0.0
173
     0
291
     0
 45
0.0
1001
ACAD
1000
AcDbSavedByObjectVersion
1070
     0
1000
AcDbSavedByObjectVersion
1070
     0
1000
AcDbSavedByObjectVersion
1070
     0
1000
AcDbSavedByObjectVersion
1070
     0
1000
AcDbSavedByObjectVersion
1070
     0
1000
AcDbSavedByObjectVersion
1070
     0
1000
AcDbSavedByObjectVersion
1070
     0
1000
AcDbSavedByObjectVersion
1070
     0
1000
AcDbSavedByObjectVersion
1070
     0
1000
AcDbSavedByObjectVersion
1070
     0
1000
AcDbSavedByObjectVersion
1070
     0
1000
AcDbSavedByObjectVersion
1070
     0
1000
AcDbSavedByObjectVersion
1070
     0
1000
AcDbSavedByObjectVersion
1070
     0
1000
AcDbSavedByObjectVersion
1070
     0
1000
AcDbSavedByObjectVersion
1070
     0
1000
AcDbSavedByObjectVersion
1070
     0
1000
AcDbSavedByObjectVersion
1070
     0
1000
AcDbSavedByObjectVersion
1070
     0
1000
AcDbSavedByObjectVersion
1070
     0
1000
AcDbSavedByObjectVersion
1070
     0
1000
AcDbSavedByObjectVersion
1070
     0
1000
AcDbSavedByObjectVersion
1070
     0
1000
AcDbSavedByObjectVersion
1070
     0
1000
AcDbSavedByObjectVersion
1070
     0
1000
AcDbSavedByObjectVersion
1070
     0
1000
AcDbSavedByObjectVersion
1070
     0
1000
AcDbSavedByObjectVersion
1070
     0
1000
AcDbSavedByObjectVersion
1070
     0
1000
AcDbSavedByObjectVersion
1070
     0
1000
AcDbSavedByObjectVersion
1070
     0
1000
AcDbSavedByObjectVersion
1070
     0
1000
AcDbSavedByObjectVersion
1070
     0
1000
AcDbSavedByObjectVersion
1070
     0
1000
AcDbSavedByObjectVersion
1070
     0
1000
AcDbSavedByObjectVersion
1070
     0
1000
AcDbSavedByObjectVersion
1070
     0
1000
AcDbSavedByObjectVersion
1070
     0
1000
AcDbSavedByObjectVersion
1070
     0
1000
AcDbSavedByObjectVersion
1070
     0
1000
AcDbSavedByObjectVersion
1070
     0
1000
AcDbSavedByObjectVersion
1070
     0
1000
AcDbSavedByObjectVersion
1070
     0
1000
AcDbSavedByObjectVersion
1070
     0
1000
AcDbSavedByObjectVersion
1070
     0
1000
AcDbSavedByObjectVersion
1070
     0
1000
AcDbSavedByObjectVersion
1070
     0
1000
AcDbSavedByObjectVersion
1070
     0
  0
VISUALSTYLE
  5
37
102
{ACAD_REACTORS
330
2A
102
}
330
2A
100
AcDbVisualStyle
  2
Thicken
 70
    13
 71
     2
 72
     2
 73
     0
 90
        0
 40
-0.6
 41
-30.0
 62
     5
 63
     7
 74
     1
 91
        4
 64
     7
 65
   257
 75
     1
175
     1
 42
1.0
 92
       12
 66
     7
 43
1.0
 76
     1
 77
     6
 78
     2
 67
     7
 79
     5
170
     0
171
     0
290
     0
174
     0
 93
        1
 44
0.0
173
     0
291
     1
 45
0.0
1001
ACAD
1000
AcDbSavedByObjectVersion
1070
     0
1000
AcDbSavedByObjectVersion
1070
     0
1000
AcDbSavedByObjectVersion
1070
     0
1000
AcDbSavedByObjectVersion
1070
     0
1000
AcDbSavedByObjectVersion
1070
     0
1000
AcDbSavedByObjectVersion
1070
     0
1000
AcDbSavedByObjectVersion
1070
     0
1000
AcDbSavedByObjectVersion
1070
     0
1000
AcDbSavedByObjectVersion
1070
     0
1000
AcDbSavedByObjectVersion
1070
     0
1000
AcDbSavedByObjectVersion
1070
     0
1000
AcDbSavedByObjectVersion
1070
     0
1000
AcDbSavedByObjectVersion
1070
     0
1000
AcDbSavedByObjectVersion
1070
     0
1000
AcDbSavedByObjectVersion
1070
     0
1000
AcDbSavedByObjectVersion
1070
     0
1000
AcDbSavedByObjectVersion
1070
     0
1000
AcDbSavedByObjectVersion
1070
     0
1000
AcDbSavedByObjectVersion
1070
     0
1000
AcDbSavedByObjectVersion
1070
     0
1000
AcDbSavedByObjectVersion
1070
     0
1000
AcDbSavedByObjectVersion
1070
     0
1000
AcDbSavedByObjectVersion
1070
     0
1000
AcDbSavedByObjectVersion
1070
     0
1000
AcDbSavedByObjectVersion
1070
     0
1000
AcDbSavedByObjectVersion
1070
     0
1000
AcDbSavedByObjectVersion
1070
     0
1000
AcDbSavedByObjectVersion
1070
     0
1000
AcDbSavedByObjectVersion
1070
     0
1000
AcDbSavedByObjectVersion
1070
     0
1000
AcDbSavedByObjectVersion
1070
     0
1000
AcDbSavedByObjectVersion
1070
     0
1000
AcDbSavedByObjectVersion
1070
     0
1000
AcDbSavedByObjectVersion
1070
     0
1000
AcDbSavedByObjectVersion
1070
     0
1000
AcDbSavedByObjectVersion
1070
     0
1000
AcDbSavedByObjectVersion
1070
     0
1000
AcDbSavedByObjectVersion
1070
     0
1000
AcDbSavedByObjectVersion
1070
     0
1000
AcDbSavedByObjectVersion
1070
     0
1000
AcDbSavedByObjectVersion
1070
     0
1000
AcDbSavedByObjectVersion
1070
     0
1000
AcDbSavedByObjectVersion
1070
     0
1000
AcDbSavedByObjectVersion
1070
     0
1000
AcDbSavedByObjectVersion
1070
     0
1000
AcDbSavedByObjectVersion
1070
     0
1000
AcDbSavedByObjectVersion
1070
     0
1000
AcDbSavedByObjectVersion
1070
     0
  0
DICTIONARYVAR
  5
510B
102
{ACAD_REACTORS
330
5108
102
}
330
5108
100
DictionaryVariables
280
     0
  1
1:1
  0
DICTIONARYVAR
  5
510A
102
{ACAD_REACTORS
330
5108
102
}
330
5108
100
DictionaryVariables
280
     0
  1
STANDARD
  0
DICTIONARYVAR
  5
5109
102
{ACAD_REACTORS
330
5108
102
}
330
5108
100
DictionaryVariables
280
     0
  1
STANDARD
  0
DICTIONARYVAR
  5
510E
102
{ACAD_REACTORS
330
5108
102
}
330
5108
100
DictionaryVariables
280
     0
  1
1
  0
DICTIONARYVAR
  5
510D
102
{ACAD_REACTORS
330
5108
102
}
330
5108
100
DictionaryVariables
280
     0
  1
0
  0
DICTIONARYVAR
  5
1406E
102
{ACAD_REACTORS
330
5108
102
}
330
5108
100
DictionaryVariables
280
     0
  1
0
  0
DICTIONARYVAR
  5
1406D
102
{ACAD_REACTORS
330
5108
102
}
330
5108
100
DictionaryVariables
280
     0
  1
0
  0
DICTIONARYVAR
  5
510C
102
{ACAD_REACTORS
330
5108
102
}
330
5108
100
DictionaryVariables
280
     0
  1
127
  0
XRECORD
  5
13AB9
102
{ACAD_REACTORS
330
13AB8
102
}
330
13AB8
100
AcDbXrecord
280
     1
330
1382D
  0
DICTIONARY
  5
4FEF
330
4FEE
100
AcDbDictionary
280
     1
281
     1
  3
ACAD_XREC_ROUNDTRIP
360
7C2C
  3
BUMPTILE
360
4FF1
  3
DIFFUSETILE
360
4FF0
  3
OPACITYTILE
360
4FF4
  3
REFLECTIONTILE
360
4FF3
  3
REFRACTIONTILE
360
4FF5
  3
SPECULARTILE
360
4FF2
  0
DICTIONARY
  5
4FE7
330
4FE6
100
AcDbDictionary
280
     1
281
     1
  3
ACAD_XREC_ROUNDTRIP
360
7C2B
  3
BUMPTILE
360
4FE9
  3
DIFFUSETILE
360
4FE8
  3
OPACITYTILE
360
4FEC
  3
REFLECTIONTILE
360
4FEB
  3
REFRACTIONTILE
360
4FED
  3
SPECULARTILE
360
4FEA
  0
DICTIONARY
  5
4FF7
330
4FF6
100
AcDbDictionary
280
     1
281
     1
  3
ACAD_XREC_ROUNDTRIP
360
7C2D
  3
BUMPTILE
360
4FF9
  3
DIFFUSETILE
360
4FF8
  3
OPACITYTILE
360
4FFC
  3
REFLECTIONTILE
360
4FFB
  3
REFRACTIONTILE
360
4FFD
  3
SPECULARTILE
360
4FFA
  0
DICTIONARY
  5
50D6
330
4FFF
100
AcDbDictionary
280
     1
281
     1
  3
ACAD_ROUNDTRIP_2008_TABLESTYLE_CELLSTYLEMAP
360
1406F
  0
XRECORD
  5
7C2C
102
{ACAD_REACTORS
330
4FEF
102
}
330
4FEF
100
AcDbXrecord
280
     1
102
MATERIAL
148
0.0
149
0.0
149
0.0
 93
        0
 94
      127
282
     0
 72
     0
 77
     0
171
     0
175
     0
179
     0
273
     0
  0
XRECORD
  5
4FF1
102
{ACAD_REACTORS
330
4FEF
102
}
330
4FEF
100
AcDbXrecord
280
     1
270
     1
271
     1
  0
XRECORD
  5
4FF0
102
{ACAD_REACTORS
330
4FEF
102
}
330
4FEF
100
AcDbXrecord
280
     1
270
     1
271
     1
  0
XRECORD
  5
4FF4
102
{ACAD_REACTORS
330
4FEF
102
}
330
4FEF
100
AcDbXrecord
280
     1
270
     1
271
     1
  0
XRECORD
  5
4FF3
102
{ACAD_REACTORS
330
4FEF
102
}
330
4FEF
100
AcDbXrecord
280
     1
270
     1
271
     1
  0
XRECORD
  5
4FF5
102
{ACAD_REACTORS
330
4FEF
102
}
330
4FEF
100
AcDbXrecord
280
     1
270
     1
271
     1
  0
XRECORD
  5
4FF2
102
{ACAD_REACTORS
330
4FEF
102
}
330
4FEF
100
AcDbXrecord
280
     1
270
     1
271
     1
  0
XRECORD
  5
7C2B
102
{ACAD_REACTORS
330
4FE7
102
}
330
4FE7
100
AcDbXrecord
280
     1
102
MATERIAL
148
0.0
149
0.0
149
0.0
 93
        0
 94
      127
282
     0
 72
     0
 77
     0
171
     0
175
     0
179
     0
273
     0
  0
XRECORD
  5
4FE9
102
{ACAD_REACTORS
330
4FE7
102
}
330
4FE7
100
AcDbXrecord
280
     1
270
     1
271
     1
  0
XRECORD
  5
4FE8
102
{ACAD_REACTORS
330
4FE7
102
}
330
4FE7
100
AcDbXrecord
280
     1
270
     1
271
     1
  0
XRECORD
  5
4FEC
102
{ACAD_REACTORS
330
4FE7
102
}
330
4FE7
100
AcDbXrecord
280
     1
270
     1
271
     1
  0
XRECORD
  5
4FEB
102
{ACAD_REACTORS
330
4FE7
102
}
330
4FE7
100
AcDbXrecord
280
     1
270
     1
271
     1
  0
XRECORD
  5
4FED
102
{ACAD_REACTORS
330
4FE7
102
}
330
4FE7
100
AcDbXrecord
280
     1
270
     1
271
     1
  0
XRECORD
  5
4FEA
102
{ACAD_REACTORS
330
4FE7
102
}
330
4FE7
100
AcDbXrecord
280
     1
270
     1
271
     1
  0
XRECORD
  5
7C2D
102
{ACAD_REACTORS
330
4FF7
102
}
330
4FF7
100
AcDbXrecord
280
     1
102
MATERIAL
148
0.0
149
0.0
149
0.0
 93
        0
 94
      127
282
     0
 72
     0
 77
     0
171
     0
175
     0
179
     0
273
     0
  0
XRECORD
  5
4FF9
102
{ACAD_REACTORS
330
4FF7
102
}
330
4FF7
100
AcDbXrecord
280
     1
270
     1
271
     1
  0
XRECORD
  5
4FF8
102
{ACAD_REACTORS
330
4FF7
102
}
330
4FF7
100
AcDbXrecord
280
     1
270
     1
271
     1
  0
XRECORD
  5
4FFC
102
{ACAD_REACTORS
330
4FF7
102
}
330
4FF7
100
AcDbXrecord
280
     1
270
     1
271
     1
  0
XRECORD
  5
4FFB
102
{ACAD_REACTORS
330
4FF7
102
}
330
4FF7
100
AcDbXrecord
280
     1
270
     1
271
     1
  0
XRECORD
  5
4FFD
102
{ACAD_REACTORS
330
4FF7
102
}
330
4FF7
100
AcDbXrecord
280
     1
270
     1
271
     1
  0
XRECORD
  5
4FFA
102
{ACAD_REACTORS
330
4FF7
102
}
330
4FF7
100
AcDbXrecord
280
     1
270
     1
271
     1
  0
CELLSTYLEMAP
  5
1406F
102
{ACAD_REACTORS
330
50D6
102
}
330
50D6
100
AcDbCellStyleMap
 90
        3
300
CELLSTYLE
  1
TABLEFORMAT_BEGIN
 90
        5
170
     1
 91
        0
 92
    32768
 62
   257
 93
        1
300
CONTENTFORMAT
  1
CONTENTFORMAT_BEGIN
 90
        0
 91
        0
 92
      512
 93
        0
300

 40
0.0
140
1.0
 94
        5
 62
     0
340
11
144
0.25
309
CONTENTFORMAT_END
171
     1
301
MARGIN
  1
CELLMARGIN_BEGIN
 40
0.06
 40
0.06
 40
0.06
 40
0.06
 40
0.18
 40
0.18
309
CELLMARGIN_END
 94
        6
 95
        1
302
GRIDFORMAT
  1
GRIDFORMAT_BEGIN
 90
        0
 91
        1
 62
     0
 92
       -2
340
0
 93
        0
 40
0.045
309
GRIDFORMAT_END
 95
        2
302
GRIDFORMAT
  1
GRIDFORMAT_BEGIN
 90
        0
 91
        1
 62
     0
 92
       -2
340
0
 93
        0
 40
0.045
309
GRIDFORMAT_END
 95
        4
302
GRIDFORMAT
  1
GRIDFORMAT_BEGIN
 90
        0
 91
        1
 62
     0
 92
       -2
340
0
 93
        0
 40
0.045
309
GRIDFORMAT_END
 95
        8
302
GRIDFORMAT
  1
GRIDFORMAT_BEGIN
 90
        0
 91
        1
 62
     0
 92
       -2
340
0
 93
        0
 40
0.045
309
GRIDFORMAT_END
 95
       16
302
GRIDFORMAT
  1
GRIDFORMAT_BEGIN
 90
        0
 91
        1
 62
     0
 92
       -2
340
0
 93
        0
 40
0.045
309
GRIDFORMAT_END
 95
       32
302
GRIDFORMAT
  1
GRIDFORMAT_BEGIN
 90
        0
 91
        1
 62
     0
 92
       -2
340
0
 93
        0
 40
0.045
309
GRIDFORMAT_END
309
TABLEFORMAT_END
  1
CELLSTYLE_BEGIN
 90
        1
 91
        1
300
_TITLE
309
CELLSTYLE_END
300
CELLSTYLE
  1
TABLEFORMAT_BEGIN
 90
        5
170
     1
 91
        0
 92
        0
 62
   257
 93
        1
300
CONTENTFORMAT
  1
CONTENTFORMAT_BEGIN
 90
        0
 91
        0
 92
      512
 93
        0
300

 40
0.0
140
1.0
 94
        5
 62
     0
340
11
144
0.18
309
CONTENTFORMAT_END
171
     1
301
MARGIN
  1
CELLMARGIN_BEGIN
 40
0.06
 40
0.06
 40
0.06
 40
0.06
 40
0.18
 40
0.18
309
CELLMARGIN_END
 94
        6
 95
        1
302
GRIDFORMAT
  1
GRIDFORMAT_BEGIN
 90
        0
 91
        1
 62
     0
 92
       -2
340
0
 93
        0
 40
0.045
309
GRIDFORMAT_END
 95
        2
302
GRIDFORMAT
  1
GRIDFORMAT_BEGIN
 90
        0
 91
        1
 62
     0
 92
       -2
340
0
 93
        0
 40
0.045
309
GRIDFORMAT_END
 95
        4
302
GRIDFORMAT
  1
GRIDFORMAT_BEGIN
 90
        0
 91
        1
 62
     0
 92
       -2
340
0
 93
        0
 40
0.045
309
GRIDFORMAT_END
 95
        8
302
GRIDFORMAT
  1
GRIDFORMAT_BEGIN
 90
        0
 91
        1
 62
     0
 92
       -2
340
0
 93
        0
 40
0.045
309
GRIDFORMAT_END
 95
       16
302
GRIDFORMAT
  1
GRIDFORMAT_BEGIN
 90
        0
 91
        1
 62
     0
 92
       -2
340
0
 93
        0
 40
0.045
309
GRIDFORMAT_END
 95
       32
302
GRIDFORMAT
  1
GRIDFORMAT_BEGIN
 90
        0
 91
        1
 62
     0
 92
       -2
340
0
 93
        0
 40
0.045
309
GRIDFORMAT_END
309
TABLEFORMAT_END
  1
CELLSTYLE_BEGIN
 90
        2
 91
        1
300
_HEADER
309
CELLSTYLE_END
300
CELLSTYLE
  1
TABLEFORMAT_BEGIN
 90
        5
170
     1
 91
        0
 92
        0
 62
   257
 93
        1
300
CONTENTFORMAT
  1
CONTENTFORMAT_BEGIN
 90
        0
 91
        0
 92
      512
 93
        0
300

 40
0.0
140
1.0
 94
        2
 62
     0
340
11
144
0.18
309
CONTENTFORMAT_END
171
     1
301
MARGIN
  1
CELLMARGIN_BEGIN
 40
0.06
 40
0.06
 40
0.06
 40
0.06
 40
0.18
 40
0.18
309
CELLMARGIN_END
 94
        6
 95
        1
302
GRIDFORMAT
  1
GRIDFORMAT_BEGIN
 90
        0
 91
        1
 62
     0
 92
       -2
340
0
 93
        0
 40
0.045
309
GRIDFORMAT_END
 95
        2
302
GRIDFORMAT
  1
GRIDFORMAT_BEGIN
 90
        0
 91
        1
 62
     0
 92
       -2
340
0
 93
        0
 40
0.045
309
GRIDFORMAT_END
 95
        4
302
GRIDFORMAT
  1
GRIDFORMAT_BEGIN
 90
        0
 91
        1
 62
     0
 92
       -2
340
0
 93
        0
 40
0.045
309
GRIDFORMAT_END
 95
        8
302
GRIDFORMAT
  1
GRIDFORMAT_BEGIN
 90
        0
 91
        1
 62
     0
 92
       -2
340
0
 93
        0
 40
0.045
309
GRIDFORMAT_END
 95
       16
302
GRIDFORMAT
  1
GRIDFORMAT_BEGIN
 90
        0
 91
        1
 62
     0
 92
       -2
340
0
 93
        0
 40
0.045
309
GRIDFORMAT_END
 95
       32
302
GRIDFORMAT
  1
GRIDFORMAT_BEGIN
 90
        0
 91
        1
 62
     0
 92
       -2
340
0
 93
        0
 40
0.045
309
GRIDFORMAT_END
309
TABLEFORMAT_END
  1
CELLSTYLE_BEGIN
 90
        3
 91
        2
300
_DATA
309
CELLSTYLE_END
  0
ENDSEC
  0
EOF
