  0
SECTION
  2
HEADER
  9
$ACADVER
  1
AC1021
  9
$ACADMAINTVER
 70
    25
  9
$DWGCODEPAGE
  3
ANSI_936
  9
$LASTSAVEDBY
  1
zb.ye
  9
$INSBASE
 10
0.0
 20
0.0
 30
0.0
  9
$EXTMIN
 10
707.9436876663485
 20
184.1908379415444
 30
-0.0000000349181948
  9
$EXTMAX
 10
856.5428541868058
 20
289.2208325011736
 30
0.0000000814935747
  9
$LIMMIN
 10
0.0
 20
0.0
  9
$LIMMAX
 10
12.0
 20
9.0
  9
$ORTHOMODE
 70
     0
  9
$REGENMODE
 70
     1
  9
$FILLMODE
 70
     1
  9
$QTEXTMODE
 70
     0
  9
$MIRRTEXT
 70
     1
  9
$LTSCALE
 40
1.0
  9
$ATTMODE
 70
     1
  9
$TEXTSIZE
 40
0.2
  9
$TRACEWID
 40
0.05
  9
$TEXTSTYLE
  7
Standard
  9
$CLAYER
  8
0
  9
$CELTYPE
  6
ByLayer
  9
$CECOLOR
 62
   256
  9
$CELTSCALE
 40
1.0
  9
$DISPSILH
 70
     0
  9
$DIMSCALE
 40
1.0
  9
$DIMASZ
 40
1.5
  9
$DIMEXO
 40
0.2
  9
$DIMDLI
 40
0.2
  9
$DIMRND
 40
0.0
  9
$DIMDLE
 40
0.0
  9
$DIMEXE
 40
0.5
  9
$DIMTP
 40
0.0
  9
$DIMTM
 40
0.0
  9
$DIMTXT
 40
2.0
  9
$DIMCEN
 40
0.0
  9
$DIMTSZ
 40
0.0
  9
$DIMTOL
 70
     0
  9
$DIMLIM
 70
     0
  9
$DIMTIH
 70
     0
  9
$DIMTOH
 70
     0
  9
$DIMSE1
 70
     0
  9
$DIMSE2
 70
     0
  9
$DIMTAD
 70
     1
  9
$DIMZIN
 70
     8
  9
$DIMBLK
  1

  9
$DIMASO
 70
     1
  9
$DIMSHO
 70
     1
  9
$DIMPOST
  1

  9
$DIMAPOST
  1

  9
$DIMALT
 70
     0
  9
$DIMALTD
 70
     2
  9
$DIMALTF
 40
25.4
  9
$DIMLFAC
 40
1.0
  9
$DIMTOFL
 70
     0
  9
$DIMTVP
 40
0.0
  9
$DIMTIX
 70
     0
  9
$DIMSOXD
 70
     0
  9
$DIMSAH
 70
     0
  9
$DIMBLK1
  1

  9
$DIMBLK2
  1

  9
$DIMSTYLE
  2
01
  9
$DIMCLRD
 70
     1
  9
$DIMCLRE
 70
     6
  9
$DIMCLRT
 70
     4
  9
$DIMTFAC
 40
1.0
  9
$DIMGAP
 40
0.5
  9
$DIMJUST
 70
     0
  9
$DIMSD1
 70
     0
  9
$DIMSD2
 70
     0
  9
$DIMTOLJ
 70
     1
  9
$DIMTZIN
 70
     0
  9
$DIMALTZ
 70
     0
  9
$DIMALTTZ
 70
     0
  9
$DIMUPT
 70
     0
  9
$DIMDEC
 70
     1
  9
$DIMTDEC
 70
     1
  9
$DIMALTU
 70
     2
  9
$DIMALTTD
 70
     2
  9
$DIMTXSTY
  7
Romans字体
  9
$DIMAUNIT
 70
     0
  9
$DIMADEC
 70
     2
  9
$DIMALTRND
 40
0.0
  9
$DIMAZIN
 70
     2
  9
$DIMDSEP
 70
    46
  9
$DIMATFIT
 70
     3
  9
$DIMFRAC
 70
     0
  9
$DIMLDRBLK
  1

  9
$DIMLUNIT
 70
     2
  9
$DIMLWD
 70
    -2
  9
$DIMLWE
 70
    -2
  9
$DIMTMOVE
 70
     0
  9
$DIMFXL
 40
1.0
  9
$DIMFXLON
 70
     0
  9
$DIMJOGANG
 40
0.7853981633974483
  9
$DIMTFILL
 70
     0
  9
$DIMTFILLCLR
 70
     0
  9
$DIMARCSYM
 70
     0
  9
$DIMLTYPE
  6

  9
$DIMLTEX1
  6

  9
$DIMLTEX2
  6

  9
$LUNITS
 70
     2
  9
$LUPREC
 70
     4
  9
$SKETCHINC
 40
0.1
  9
$FILLETRAD
 40
0.5
  9
$AUNITS
 70
     0
  9
$AUPREC
 70
     0
  9
$MENU
  1
.
  9
$ELEVATION
 40
0.0
  9
$PELEVATION
 40
0.0
  9
$THICKNESS
 40
0.0
  9
$LIMCHECK
 70
     0
  9
$CHAMFERA
 40
0.5
  9
$CHAMFERB
 40
0.5
  9
$CHAMFERC
 40
1.0
  9
$CHAMFERD
 40
0.0
  9
$SKPOLY
 70
     0
  9
$TDCREATE
 40
2456524.383632987
  9
$TDUCREATE
 40
2456524.050299653
  9
$TDUPDATE
 40
2460292.694551447
  9
$TDUUPDATE
 40
2460292.361218114
  9
$TDINDWG
 40
1.1688520255
  9
$TDUSRTIMER
 40
1.1688324769
  9
$USRTIMER
 70
     1
  9
$ANGBASE
 50
0.0
  9
$ANGDIR
 70
     0
  9
$PDMODE
 70
     0
  9
$PDSIZE
 40
0.0
  9
$PLINEWID
 40
0.0
  9
$SPLFRAME
 70
     0
  9
$SPLINETYPE
 70
     6
  9
$SPLINESEGS
 70
     8
  9
$HANDSEED
  5
3F2
  9
$SURFTAB1
 70
     6
  9
$SURFTAB2
 70
     6
  9
$SURFTYPE
 70
     6
  9
$SURFU
 70
     6
  9
$SURFV
 70
     6
  9
$UCSBASE
  2

  9
$UCSNAME
  2

  9
$UCSORG
 10
0.0
 20
0.0
 30
0.0
  9
$UCSXDIR
 10
1.0
 20
0.0
 30
0.0
  9
$UCSYDIR
 10
0.0
 20
1.0
 30
0.0
  9
$UCSORTHOREF
  2

  9
$UCSORTHOVIEW
 70
     0
  9
$UCSORGTOP
 10
0.0
 20
0.0
 30
0.0
  9
$UCSORGBOTTOM
 10
0.0
 20
0.0
 30
0.0
  9
$UCSORGLEFT
 10
0.0
 20
0.0
 30
0.0
  9
$UCSORGRIGHT
 10
0.0
 20
0.0
 30
0.0
  9
$UCSORGFRONT
 10
0.0
 20
0.0
 30
0.0
  9
$UCSORGBACK
 10
0.0
 20
0.0
 30
0.0
  9
$PUCSBASE
  2

  9
$PUCSNAME
  2

  9
$PUCSORG
 10
0.0
 20
0.0
 30
0.0
  9
$PUCSXDIR
 10
1.0
 20
0.0
 30
0.0
  9
$PUCSYDIR
 10
0.0
 20
1.0
 30
0.0
  9
$PUCSORTHOREF
  2

  9
$PUCSORTHOVIEW
 70
     0
  9
$PUCSORGTOP
 10
0.0
 20
0.0
 30
0.0
  9
$PUCSORGBOTTOM
 10
0.0
 20
0.0
 30
0.0
  9
$PUCSORGLEFT
 10
0.0
 20
0.0
 30
0.0
  9
$PUCSORGRIGHT
 10
0.0
 20
0.0
 30
0.0
  9
$PUCSORGFRONT
 10
0.0
 20
0.0
 30
0.0
  9
$PUCSORGBACK
 10
0.0
 20
0.0
 30
0.0
  9
$USERI1
 70
     0
  9
$USERI2
 70
     0
  9
$USERI3
 70
     0
  9
$USERI4
 70
     0
  9
$USERI5
 70
     0
  9
$USERR1
 40
0.0
  9
$USERR2
 40
0.0
  9
$USERR3
 40
0.0
  9
$USERR4
 40
0.0
  9
$USERR5
 40
2.5
  9
$WORLDVIEW
 70
     1
  9
$SHADEDGE
 70
     3
  9
$SHADEDIF
 70
    70
  9
$TILEMODE
 70
     1
  9
$MAXACTVP
 70
    64
  9
$PINSBASE
 10
0.0
 20
0.0
 30
0.0
  9
$PLIMCHECK
 70
     0
  9
$PEXTMIN
 10
1.000000000000000E+20
 20
1.000000000000000E+20
 30
1.000000000000000E+20
  9
$PEXTMAX
 10
-1.000000000000000E+20
 20
-1.000000000000000E+20
 30
-1.000000000000000E+20
  9
$PLIMMIN
 10
0.0
 20
0.0
  9
$PLIMMAX
 10
12.0
 20
9.0
  9
$UNITMODE
 70
     0
  9
$VISRETAIN
 70
     1
  9
$PLINEGEN
 70
     0
  9
$PSLTSCALE
 70
     1
  9
$TREEDEPTH
 70
  3020
  9
$CMLSTYLE
  2
Standard
  9
$CMLJUST
 70
     0
  9
$CMLSCALE
 40
1.0
  9
$PROXYGRAPHICS
 70
     1
  9
$MEASUREMENT
 70
     0
  9
$CELWEIGHT
370
    -1
  9
$ENDCAPS
280
     0
  9
$JOINSTYLE
280
     0
  9
$LWDISPLAY
290
     0
  9
$INSUNITS
 70
     4
  9
$HYPERLINKBASE
  1

  9
$STYLESHEET
  1
YANXIU.CTB
  9
$XEDIT
290
     1
  9
$CEPSNTYPE
380
     0
  9
$PSTYLEMODE
290
     1
  9
$FINGERPRINTGUID
  2
{75713A69-18D0-46A2-B5B6-C7FEBD6FB8F1}
  9
$VERSIONGUID
  2
{33864322-CB50-4DAA-A222-4332ACD4113B}
  9
$EXTNAMES
290
     1
  9
$PSVPSCALE
 40
0.0
  9
$OLESTARTUP
290
     0
  9
$SORTENTS
280
   127
  9
$INDEXCTL
280
     0
  9
$HIDETEXT
280
     1
  9
$XCLIPFRAME
290
     0
  9
$HALOGAP
280
     0
  9
$OBSCOLOR
 70
   257
  9
$OBSLTYPE
280
     0
  9
$INTERSECTIONDISPLAY
280
     0
  9
$INTERSECTIONCOLOR
 70
   257
  9
$DIMASSOC
280
     1
  9
$PROJECTNAME
  1

  9
$CAMERADISPLAY
290
     0
  9
$LENSLENGTH
 40
50.0
  9
$CAMERAHEIGHT
 40
0.0
  9
$STEPSPERSEC
 40
2.0
  9
$STEPSIZE
 40
6.0
  9
$3DDWFPREC
 40
2.0
  9
$PSOLWIDTH
 40
0.25
  9
$PSOLHEIGHT
 40
4.0
  9
$LOFTANG1
 40
1.570796326794896
  9
$LOFTANG2
 40
1.570796326794896
  9
$LOFTMAG1
 40
0.0
  9
$LOFTMAG2
 40
0.0
  9
$LOFTPARAM
 70
     7
  9
$LOFTNORMALS
280
     1
  9
$LATITUDE
 40
37.795
  9
$LONGITUDE
 40
-122.394
  9
$NORTHDIRECTION
 40
0.0
  9
$TIMEZONE
 70
 -8000
  9
$LIGHTGLYPHDISPLAY
280
     1
  9
$TILEMODELIGHTSYNCH
280
     1
  9
$CMATERIAL
347
17
  9
$SOLIDHIST
280
     1
  9
$SHOWHIST
280
     1
  9
$DWFFRAME
280
     2
  9
$DGNFRAME
280
     0
  9
$REALWORLDSCALE
290
     1
  9
$INTERFERECOLOR
 62
     1
  9
$INTERFEREOBJVS
345
55
  9
$INTERFEREVPVS
346
56
  9
$CSHADOW
280
     0
  9
$SHADOWPLANELOCATION
 40
0.0
  0
ENDSEC
  0
SECTION
  2
CLASSES
  0
CLASS
  1
ACDBDICTIONARYWDFLT
  2
AcDbDictionaryWithDefault
  3
ObjectDBX Classes
 90
        0
 91
        1
280
     0
281
     0
  0
CLASS
  1
VISUALSTYLE
  2
AcDbVisualStyle
  3
ObjectDBX Classes
 90
     4095
 91
       16
280
     0
281
     0
  0
CLASS
  1
MATERIAL
  2
AcDbMaterial
  3
ObjectDBX Classes
 90
     1153
 91
        3
280
     0
281
     0
  0
CLASS
  1
TABLESTYLE
  2
AcDbTableStyle
  3
ObjectDBX Classes
 90
     4095
 91
        1
280
     0
281
     0
  0
CLASS
  1
SCALE
  2
AcDbScale
  3
ObjectDBX Classes
 90
     1153
 91
       33
280
     0
281
     0
  0
CLASS
  1
MLEADERSTYLE
  2
AcDbMLeaderStyle
  3
ACDB_MLEADERSTYLE_CLASS
 90
     4095
 91
        1
280
     0
281
     0
  0
CLASS
  1
CELLSTYLEMAP
  2
AcDbCellStyleMap
  3
ObjectDBX Classes
 90
     1152
 91
        2
280
     0
281
     0
  0
CLASS
  1
DICTIONARYVAR
  2
AcDbDictionaryVar
  3
ObjectDBX Classes
 90
        0
 91
        5
280
     0
281
     0
  0
CLASS
  1
SORTENTSTABLE
  2
AcDbSortentsTable
  3
ObjectDBX Classes
 90
        0
 91
        1
280
     0
281
     0
  0
CLASS
  1
ACAD_EVALUATION_GRAPH
  2
AcDbEvalGraph
  3
ObjectDBX Classes
 90
     1153
 91
        0
280
     0
281
     0
  0
CLASS
  1
ACAECUSTOBJ
  2
AcAeEditorObj
  3
AcAeEditorObj
 90
     1024
 91
        0
280
     1
281
     0
  0
CLASS
  1
ACDB_DYNAMICBLOCKPURGEPREVENTER_VERSION
  2
AcDbDynamicBlockPurgePreventer
  3
ObjectDBX Classes
 90
     1153
 91
        0
280
     0
281
     0
  0
CLASS
  1
MENTALRAYRENDERSETTINGS
  2
AcDbMentalRayRenderSettings
  3
SCENEOE
 90
     1024
 91
        0
280
     0
281
     0
  0
CLASS
  1
ACDB_BLOCKREPRESENTATION_DATA
  2
AcDbBlockRepresentationData
  3
ObjectDBX Classes
 90
     1153
 91
        0
280
     0
281
     0
  0
CLASS
  1
DIMASSOC
  2
AcDbDimAssoc
  3
"AcDbDimAssoc|Product Desc:     AcDim ARX App For Dimension|Company:          Autodesk, Inc.|WEB Address:      www.autodesk.com"
 90
        0
 91
        1
280
     0
281
     0
  0
CLASS
  1
VLO-VL
  2
vlo_VL
  3
VL|AutoLISP based application
 90
      129
 91
        1
280
     1
281
     0
  0
CLASS
  1
ACDB_MTEXTOBJECTCONTEXTDATA_CLASS
  2
AcDbMTextObjectContextData
  3
ObjectDBX Classes
 90
     1153
 91
        1
280
     0
281
     0
  0
ENDSEC
  0
SECTION
  2
TABLES
  0
TABLE
  2
VPORT
  5
36
102
{ACAD_XDICTIONARY
360
3A
102
}
330
0
100
AcDbSymbolTable
 70
     1
  0
VPORT
  5
37
330
36
100
AcDbSymbolTableRecord
100
AcDbViewportTableRecord
  2
*Active
 70
     0
 10
0.0
 20
0.0
 11
1.0
 21
1.0
 12
677.2777740546686
 22
88.20360445276117
 13
0.0
 23
0.0
 14
0.5
 24
0.5
 15
0.5
 25
0.5
 16
0.0
 26
0.0
 36
1.0
 17
104.9654968719086
 27
148.5022307685978
 37
0.0
 40
106.0944877477336
 41
2.426395939086294
 42
50.0
 43
0.0
 44
0.0
 50
0.0
 51
0.0
 71
     0
 72
   100
 73
     1
 74
     3
 75
     0
 76
     0
 77
     0
 78
     0
281
     0
 65
     1
110
0.0
120
0.0
130
0.0
111
1.0
121
0.0
131
0.0
112
0.0
122
1.0
132
0.0
 79
     0
146
0.0
348
38
 60
     3
 61
     5
292
     1
282
     1
141
0.0
142
0.0
 63
   250
421
  3355443
  0
ENDTAB
  0
TABLE
  2
LTYPE
  5
31
330
0
100
AcDbSymbolTable
 70
     2
  0
LTYPE
  5
32
330
31
100
AcDbSymbolTableRecord
100
AcDbLinetypeTableRecord
  2
ByBlock
 70
     0
  3

 72
    65
 73
     0
 40
0.0
  0
LTYPE
  5
33
330
31
100
AcDbSymbolTableRecord
100
AcDbLinetypeTableRecord
  2
ByLayer
 70
     0
  3

 72
    65
 73
     0
 40
0.0
  0
LTYPE
  5
16
330
31
100
AcDbSymbolTableRecord
100
AcDbLinetypeTableRecord
  2
Continuous
 70
     0
  3
Solid line
 72
    65
 73
     0
 40
0.0
  0
LTYPE
  5
1C3
330
31
100
AcDbSymbolTableRecord
100
AcDbLinetypeTableRecord
  2
CENTER
 70
     0
  3
Center ____ _ ____ _ ____ _ ____ _ ____ _ ____
 72
    65
 73
     4
 40
2.0
 49
1.25
 74
     0
 49
-0.25
 74
     0
 49
0.25
 74
     0
 49
-0.25
 74
     0
  0
ENDTAB
  0
TABLE
  2
LAYER
  5
28
102
{ACAD_XDICTIONARY
360
29
102
}
330
0
100
AcDbSymbolTable
 70
    11
  0
LAYER
  5
6
102
{ACAD_XDICTIONARY
360
7
102
}
330
28
100
AcDbSymbolTableRecord
100
AcDbLayerTableRecord
  2
0
 70
     0
 62
     7
  6
Continuous
370
    25
390
9
347
C
  0
LAYER
  5
79
102
{ACAD_XDICTIONARY
360
7A
102
}
330
28
100
AcDbSymbolTableRecord
100
AcDbLayerTableRecord
  2
图框
 70
     0
 62
     7
  6
Continuous
370
    20
390
9
347
C
  0
LAYER
  5
1DF
330
28
100
AcDbSymbolTableRecord
100
AcDbLayerTableRecord
  2
Defpoints
 70
     0
 62
     7
  6
Continuous
290
     0
370
    -3
390
9
347
C
  0
LAYER
  5
146
330
28
100
AcDbSymbolTableRecord
100
AcDbLayerTableRecord
  2
打标文字
 70
     0
 62
     3
  6
Continuous
370
    20
390
9
347
C
  0
LAYER
  5
170
330
28
100
AcDbSymbolTableRecord
100
AcDbLayerTableRecord
  2
hatch
 70
     0
 62
    56
  6
Continuous
370
     5
390
9
347
C
  0
LAYER
  5
1C2
330
28
100
AcDbSymbolTableRecord
100
AcDbLayerTableRecord
  2
cen
 70
     0
 62
     1
  6
CENTER
370
     5
390
9
347
C
1001
AcAecLayerStandard
1000

1000

  0
LAYER
  5
207
330
28
100
AcDbSymbolTableRecord
100
AcDbLayerTableRecord
  2
TG_SOLIDLINE
 70
     0
 62
     7
  6
Continuous
370
    -3
390
9
347
C
  0
LAYER
  5
249
330
28
100
AcDbSymbolTableRecord
100
AcDbLayerTableRecord
  2
TG_HATCH
 70
     0
 62
     7
  6
Continuous
370
    -3
390
9
347
C
  0
LAYER
  5
251
330
28
100
AcDbSymbolTableRecord
100
AcDbLayerTableRecord
  2
CDSF_SOLIDLINE
 70
     0
 62
     7
  6
Continuous
370
    -3
390
9
347
C
  0
LAYER
  5
254
330
28
100
AcDbSymbolTableRecord
100
AcDbLayerTableRecord
  2
SD______SUS301-06_____SOLIDLINE
 70
     0
 62
     7
  6
Continuous
370
    -3
390
9
347
C
  0
LAYER
  5
3EA
102
{ACAD_XDICTIONARY
360
3EC
102
}
330
28
100
AcDbSymbolTableRecord
100
AcDbLayerTableRecord
  2
图框 @ 1
 70
     0
 62
     7
  6
Continuous
370
    20
390
9
347
C
1001
AcadAnnotativeDecomposition
1000
AnnotativeData
1002
{
1070
     1
1070
     1
1002
}
  0
ENDTAB
  0
TABLE
  2
STYLE
  5
2E
330
0
100
AcDbSymbolTable
 70
     4
  0
STYLE
  5
2F
330
2E
100
AcDbSymbolTableRecord
100
AcDbTextStyleTableRecord
  2
Standard
 70
     0
 40
0.0
 41
0.75
 50
0.0
 71
     0
 42
0.2
  3
仿宋_GB2312.ttf
  4

1001
ACAD
1000
FangSong_GB2312
1071
    34353
  0
STYLE
  5
3E
330
2E
100
AcDbSymbolTableRecord
100
AcDbTextStyleTableRecord
  2
Romans字体
 70
     0
 40
0.0
 41
0.75
 50
0.0
 71
     0
 42
0.2
  3
romans.shx
  4

  0
STYLE
  5
8D
330
2E
100
AcDbSymbolTableRecord
100
AcDbTextStyleTableRecord
  2
工程字
 70
     0
 40
0.0
 41
1.0
 50
0.0
 71
     0
 42
3.5
  3
gbenor.shx
  4
gbcbig.shx
  0
STYLE
  5
8F
330
2E
100
AcDbSymbolTableRecord
100
AcDbTextStyleTableRecord
  2
Chinese
 70
     0
 40
0.0
 41
1.0
 50
0.0
 71
     0
 42
2.5
  3
PMingLiU.ttf
  4

1001
ACAD
1000
PMingLiU
1071
    34834
  0
ENDTAB
  0
TABLE
  2
VIEW
  5
34
330
0
100
AcDbSymbolTable
 70
     0
  0
ENDTAB
  0
TABLE
  2
UCS
  5
35
330
0
100
AcDbSymbolTable
 70
     0
  0
ENDTAB
  0
TABLE
  2
APPID
  5
3B
330
0
100
AcDbSymbolTable
 70
     9
  0
APPID
  5
2D
330
3B
100
AcDbSymbolTableRecord
100
AcDbRegAppTableRecord
  2
ACAD
 70
     0
  0
APPID
  5
81
330
3B
100
AcDbSymbolTableRecord
100
AcDbRegAppTableRecord
  2
AcDbBlockRepETag
 70
     0
  0
APPID
  5
23
330
3B
100
AcDbSymbolTableRecord
100
AcDbRegAppTableRecord
  2
ACAD_PSEXT
 70
     0
  0
APPID
  5
1C4
330
3B
100
AcDbSymbolTableRecord
100
AcDbRegAppTableRecord
  2
AcAecLayerStandard
 70
     0
  0
APPID
  5
3F
330
3B
100
AcDbSymbolTableRecord
100
AcDbRegAppTableRecord
  2
ACAD_DSTYLE_DIMJAG
 70
     0
  0
APPID
  5
40
330
3B
100
AcDbSymbolTableRecord
100
AcDbRegAppTableRecord
  2
ACAD_DSTYLE_DIMTALN
 70
     0
  0
APPID
  5
344
330
3B
100
AcDbSymbolTableRecord
100
AcDbRegAppTableRecord
  2
ACAD_MLEADERVER
 70
     0
  0
APPID
  5
3CD
330
3B
100
AcDbSymbolTableRecord
100
AcDbRegAppTableRecord
  2
AcadAnnotative
 70
     0
  0
APPID
  5
3EB
330
3B
100
AcDbSymbolTableRecord
100
AcDbRegAppTableRecord
  2
AcadAnnotativeDecomposition
 70
     0
  0
ENDTAB
  0
TABLE
  2
DIMSTYLE
  5
3C
330
0
100
AcDbSymbolTable
 70
     2
100
AcDbDimStyleTable
 71
     2
340
3D
340
41
  0
DIMSTYLE
105
41
330
3C
100
AcDbSymbolTableRecord
100
AcDbDimStyleTableRecord
  2
Standard
 70
     0
340
2F
  0
DIMSTYLE
105
3D
102
{ACAD_REACTORS
330
1D4
330
1E7
330
1F5
330
2DE
330
2EC
102
}
330
3C
100
AcDbSymbolTableRecord
100
AcDbDimStyleTableRecord
  2
01
 70
     0
 41
1.5
 42
0.2
 43
0.2
 44
0.5
 73
     0
 74
     0
 77
     1
 78
     8
 79
     2
140
2.0
141
0.0
147
0.5
176
     1
177
     6
178
     4
179
     2
271
     1
272
     1
340
3E
1001
ACAD_DSTYLE_DIMJAG
1070
   388
1040
1.5
1001
ACAD_DSTYLE_DIMTALN
1070
   392
1070
     0
  0
ENDTAB
  0
TABLE
  2
BLOCK_RECORD
  5
1
330
0
100
AcDbSymbolTable
 70
     7
  0
BLOCK_RECORD
  5
2
102
{ACAD_XDICTIONARY
360
3
102
}
330
1
100
AcDbSymbolTableRecord
100
AcDbBlockTableRecord
  2
*Model_Space
340
21
 70
     0
280
     1
281
     0
  0
BLOCK_RECORD
  5
24
330
1
100
AcDbSymbolTableRecord
100
AcDbBlockTableRecord
  2
*Paper_Space
340
27
 70
     0
280
     1
281
     0
  0
BLOCK_RECORD
  5
246
330
1
100
AcDbSymbolTableRecord
100
AcDbBlockTableRecord
  2
HATCHING_BL0
340
0
102
{BLKREFS
331
245
102
}
 70
     0
280
     1
281
     0
  0
BLOCK_RECORD
  5
1D5
330
1
100
AcDbSymbolTableRecord
100
AcDbBlockTableRecord
  2
*D1
340
0
 70
     0
280
     1
281
     0
  0
BLOCK_RECORD
  5
1E8
330
1
100
AcDbSymbolTableRecord
100
AcDbBlockTableRecord
  2
*D2
340
0
 70
     0
280
     1
281
     0
  0
BLOCK_RECORD
  5
2DF
330
1
100
AcDbSymbolTableRecord
100
AcDbBlockTableRecord
  2
*D3
340
0
 70
     0
280
     1
281
     0
  0
BLOCK_RECORD
  5
2ED
330
1
100
AcDbSymbolTableRecord
100
AcDbBlockTableRecord
  2
*D4
340
0
 70
     0
280
     1
281
     0
  0
BLOCK_RECORD
  5
1F8
330
1
100
AcDbSymbolTableRecord
100
AcDbBlockTableRecord
  2
*D5
340
0
 70
     0
280
     1
281
     0
  0
BLOCK_RECORD
  5
353
330
1
100
AcDbSymbolTableRecord
100
AcDbBlockTableRecord
  2
*D6
340
0
 70
     0
280
     1
281
     0
  0
ENDTAB
  0
ENDSEC
  0
SECTION
  2
BLOCKS
  0
BLOCK
  5
5
330
2
100
AcDbEntity
  8
0
100
AcDbBlockBegin
  2
*Model_Space
 70
     0
 10
0.0
 20
0.0
 30
0.0
  3
*Model_Space
  1

  0
ENDBLK
  5
20
330
2
100
AcDbEntity
  8
0
100
AcDbBlockEnd
  0
BLOCK
  5
25
330
24
100
AcDbEntity
 67
     1
  8
0
100
AcDbBlockBegin
  2
*Paper_Space
 70
     0
 10
0.0
 20
0.0
 30
0.0
  3
*Paper_Space
  1

  0
ENDBLK
  5
26
330
24
100
AcDbEntity
 67
     1
  8
0
100
AcDbBlockEnd
  0
BLOCK
  5
247
330
246
100
AcDbEntity
  8
0
100
AcDbBlockBegin
  2
HATCHING_BL0
 70
     0
 10
185.4366133138
 20
182.5435755793
 30
0.0
  3
HATCHING_BL0
  1

  0
HATCH
  5
248
330
246
100
AcDbEntity
  8
TG_HATCH
  6
Continuous
 62
     2
100
AcDbHatch
 10
0.0
 20
0.0
 30
0.0
210
0.0
220
0.0
230
1.0
  2
XSEC0001
 70
     0
 71
     0
 91
        2
 92
        1
 93
       14
 72
     1
 10
180.9430522859
 20
183.7835755793
 11
181.4930522859
 21
183.7835755793
 72
     4
 94
        3
 73
     0
 74
     0
 95
       15
 96
       11
 40
0.0
 40
0.0
 40
0.0
 40
0.0
 40
0.125
 40
0.25
 40
0.375
 40
0.5
 40
0.625
 40
0.75
 40
0.875
 40
1.0
 40
1.0
 40
1.0
 40
1.0
 10
181.7930522859
 20
183.7835755793
 10
181.7813633822
 20
183.7777832067
 10
181.7576215565
 20
183.7673095552
 10
181.7203817667
 20
183.7554713813999
 10
181.6819682584999
 20
183.7481965121
 10
181.6429565019
 20
183.7458392488
 10
181.6040103851
 20
183.748461132
 10
181.5656724459
 20
183.7558694383
 10
181.528513552
 20
183.7676251968
 10
181.5047574501
 20
183.7779106004
 10
181.4930522859
 20
183.7835755793
 72
     1
 10
181.7930522859
 20
183.7835755793
 11
189.4430522859
 21
183.7835755793
 72
     4
 94
        3
 73
     0
 74
     0
 95
       10
 96
        6
 40
0.0
 40
0.0
 40
0.0
 40
0.0
 40
0.25
 40
0.5
 40
1.0
 40
1.0
 40
1.0
 40
1.0
 10
189.8989222345
 20
183.6847579448
 10
189.868949231
 20
183.7131247362
 10
189.7990669294
 20
183.7449040498
 10
189.6473340356
 20
183.7784051995
 10
189.5255884791
 20
183.7835755558
 10
189.4430522859
 20
183.7835755558
 72
     4
 94
        3
 73
     1
 74
     0
 95
        8
 96
        4
 40
0.0
 40
0.0
 40
0.0
 40
0.0
 40
1.0
 40
1.0
 40
1.0
 40
1.0
 10
189.9008945054
 20
183.5414167537
 42
1.0
 10
189.9432255699
 20
183.5837478182
 42
0.7982056843000001
 10
189.9424016981
 20
183.6436073144
 42
0.7982056843000001
 10
189.898921648
 20
183.6847573239
 42
1.0
 72
     1
 10
189.7430522859
 20
183.3835755793
 11
189.9008939829
 21
183.5414172762
 72
     1
 10
189.7430522859
 20
183.3835755793
 11
189.6723416078
 21
183.4542862574
 72
     1
 10
189.6723416078
 20
183.4542862574
 11
189.7825263228
 21
183.5644709723
 72
     4
 94
        3
 73
     1
 74
     0
 95
        8
 96
        4
 40
0.0
 40
0.0
 40
0.0
 40
0.0
 40
1.0
 40
1.0
 40
1.0
 40
1.0
 10
189.7629838426
 20
183.647259755
 42
1.0
 10
189.8023205249
 20
183.6341464645
 42
0.6838276681000001
 10
189.8118467041
 20
183.5937907345
 42
0.6838276681000001
 10
189.7825266373
 20
183.5644706608
 42
1.0
 72
     4
 94
        3
 73
     0
 74
     0
 95
       10
 96
        6
 40
0.0
 40
0.0
 40
0.0
 40
0.0
 40
0.3527910795
 40
0.7055821655
 40
1.0
 40
1.0
 40
1.0
 40
1.0
 10
189.4430522884
 20
183.6835755558
 10
189.4874271331
 20
183.6835755558
 10
189.5729997334
 20
183.6811174433
 10
189.6815434173
 20
183.6690374146
 10
189.7402142761
 20
183.6548621119
 10
189.7629872308
 20
183.6472699174
 72
     1
 10
181.8609751104
 20
183.6835755793
 11
189.4430522884
 21
183.6835755793
 72
     4
 94
        3
 73
     0
 74
     0
 95
       15
 96
       11
 40
0.0
 40
0.0
 40
0.0
 40
0.0
 40
0.125
 40
0.25
 40
0.375
 40
0.5
 40
0.625
 40
0.75
 40
0.875
 40
1.0
 40
1.0
 40
1.0
 40
1.0
 10
181.4248377039
 20
183.6835755793
 10
181.4416476558
 20
183.6748069061
 10
181.4758266101
 20
183.6589586403
 10
181.5293840358
 20
183.6408867606
 10
181.5849503664
 20
183.6295796717
 10
181.6415689939
 20
183.6253931064
 10
181.6985718107
 20
183.6288946077999
 10
181.7548342303
 20
183.6399737495
 10
181.8093193359
 20
183.6582303234
 10
181.8439499025
 20
183.6745171195
 10
181.8609751104
 20
183.6835755793
 72
     1
 10
180.9430522859
 20
183.6835755793
 11
181.4248377039
 21
183.6835755793
 72
     1
 10
180.9430522859
 20
183.7835755793
 11
180.9430522859
 21
183.6835755793
 97
        0
 92
        1
 93
       14
 72
     1
 10
180.9430522859
 20
181.3035755793
 11
181.4930522859
 21
181.3035755793
 72
     1
 10
180.9430522859
 20
181.4035755793
 11
180.9430522859
 21
181.3035755793
 72
     1
 10
180.9430522859
 20
181.4035755793
 11
181.4248375383
 21
181.4035755793
 72
     4
 94
        3
 73
     0
 74
     0
 95
       15
 96
       11
 40
0.0
 40
0.0
 40
0.0
 40
0.0
 40
0.125
 40
0.25
 40
0.375
 40
0.5
 40
0.625
 40
0.75
 40
0.875
 40
1.0
 40
1.0
 40
1.0
 40
1.0
 10
181.8609751896
 20
181.4035755793
 10
181.8439773631
 20
181.4126194808
 10
181.8094282751
 20
181.4288673488
 10
181.7552312962
 20
181.4470577823
 10
181.6992518183
 20
181.4581581168
 10
181.6423812871
 20
181.4617629423
 10
181.5856287074
 20
181.4576747484
 10
181.5297783677
 20
181.4463845801
 10
181.475932399
 20
181.428244092
 10
181.4416735975
 20
181.4123578352999
 10
181.4248375383
 20
181.4035755793
 72
     1
 10
181.8609751896
 20
181.4035755793
 11
189.4430522835
 21
181.4035755793
 72
     4
 94
        3
 73
     0
 74
     0
 95
       10
 96
        6
 40
0.0
 40
0.0
 40
0.0
 40
0.0
 40
0.2944178287
 40
0.6472089111
 40
1.0
 40
1.0
 40
1.0
 40
1.0
 10
189.7629872301
 20
181.4398812409
 10
189.7402142756
 20
181.4322890465
 10
189.681543417
 20
181.4181137438
 10
189.572999732
 20
181.4060337151
 10
189.48742713
 20
181.4035756027
 10
189.4430522835
 20
181.4035756027
 72
     4
 94
        3
 73
     1
 74
     0
 95
        8
 96
        4
 40
0.0
 40
0.0
 40
0.0
 40
0.0
 40
1.0
 40
1.0
 40
1.0
 40
1.0
 10
189.7825266388
 20
181.5226804993
 42
1.0
 10
189.8118467065998
 20
181.493360426
 42
0.6838276643000001
 10
189.8023205263
 20
181.4530046949
 42
0.6838276643000001
 10
189.762983842
 20
181.4398914033
 42
1.0
 72
     1
 10
189.6723416078
 20
181.6328649011
 11
189.7825263228
 21
181.5226801862
 72
     1
 10
189.7430522859
 20
181.7035755793
 11
189.6723416078
 21
181.6328649011
 72
     1
 10
189.7430522859
 20
181.7035755793
 11
189.9008939829
 21
181.5457338823
 72
     4
 94
        3
 73
     1
 74
     0
 95
        8
 96
        4
 40
0.0
 40
0.0
 40
0.0
 40
0.0
 40
1.0
 40
1.0
 40
1.0
 40
1.0
 10
189.898921648
 20
181.4023938346
 42
1.0
 10
189.9424016981
 20
181.4435438441
 42
0.7982056843000001
 10
189.9432255699
 20
181.5034033402
 42
0.7982056843000001
 10
189.9008945054
 20
181.5457344048
 42
1.0
 72
     4
 94
        3
 73
     0
 74
     0
 95
       10
 96
        6
 40
0.0
 40
0.0
 40
0.0
 40
0.0
 40
0.5
 40
0.75
 40
1.0
 40
1.0
 40
1.0
 40
1.0
 10
189.4430522859
 20
181.3035756027
 10
189.5255884791
 20
181.3035756027
 10
189.6473340356
 20
181.308745959
 10
189.7990669294
 20
181.3422471086999
 10
189.868949231
 20
181.3740264223
 10
189.8989222345
 20
181.4023932137
 72
     1
 10
181.7930522859
 20
181.3035755793
 11
189.443052286
 21
181.3035755793
 72
     4
 94
        3
 73
     0
 74
     0
 95
       15
 96
       11
 40
0.0
 40
0.0
 40
0.0
 40
0.0
 40
0.125
 40
0.25
 40
0.375
 40
0.5
 40
0.625
 40
0.75
 40
0.875
 40
1.0
 40
1.0
 40
1.0
 40
1.0
 10
181.4930522859
 20
181.3035755793
 10
181.5047517442
 20
181.3092377966
 10
181.5284922795
 20
181.3195165128
 10
181.5656021957
 20
181.3312616831
 10
181.6038936518
 20
181.3386732169
 10
181.6428178431
 20
181.341311362
 10
181.6818514674
 20
181.3389707811
 10
181.7203116463
 20
181.3316997599
 10
181.7576004296
 20
181.3198511766
 10
181.7813577169
 20
181.3093707593
 10
181.7930522859
 20
181.3035755793
 97
        0
 75
     0
 76
     0
 52
45.0
 41
0.6166576221
 77
     0
 78
     1
 53
45.0
 43
0.0
 44
0.0
 45
-0.4360427863
 46
0.4360427863
 79
     0
 98
        1
 10
0.0
 20
0.0
  0
ENDBLK
  5
24A
330
246
100
AcDbEntity
  8
0
  6
ByBlock
 62
     0
100
AcDbBlockEnd
  0
BLOCK
  5
1D6
330
1D5
100
AcDbEntity
  8
0
100
AcDbBlockBegin
  2
*D1
 70
     1
 10
0.0
 20
0.0
 30
0.0
  3
*D1
  1

  0
LINE
  5
1D7
330
1D5
100
AcDbEntity
  8
0
 62
     6
370
    -2
100
AcDbLine
 10
753.6143224996252
 20
233.4738478986719
 30
0.0
 11
743.0314436907535
 21
233.4738478986719
 31
0.0
  0
LINE
  5
1D8
330
1D5
100
AcDbEntity
  8
0
 62
     6
370
    -2
100
AcDbLine
 10
753.6143224996252
 20
229.9738478986719
 30
0.0
 11
743.0314436907535
 21
229.9738478986719
 31
0.0
  0
LINE
  5
1D9
330
1D5
100
AcDbEntity
  8
0
 62
     1
370
    -2
100
AcDbLine
 10
743.5314436907535
 20
228.4738478986719
 30
0.0
 11
743.5314436907535
 21
226.9738478986719
 31
0.0
  0
LINE
  5
1DA
330
1D5
100
AcDbEntity
  8
0
 62
     1
370
    -2
100
AcDbLine
 10
743.5314436907535
 20
234.9738478986719
 30
0.0
 11
743.5314436907535
 21
241.9738478986719
 31
0.0
  0
SOLID
  5
1DB
330
1D5
100
AcDbEntity
  8
0
 62
     1
100
AcDbTrace
 10
743.2814436907531
 20
228.4738478986719
 30
0.0
 11
743.781443690753
 21
228.4738478986719
 31
0.0
 12
743.5314436907535
 22
229.9738478986719
 32
0.0
 13
743.5314436907535
 23
229.9738478986719
 33
0.0
  0
SOLID
  5
1DC
330
1D5
100
AcDbEntity
  8
0
 62
     1
100
AcDbTrace
 10
743.2814436907531
 20
234.9738478986719
 30
0.0
 11
743.781443690753
 21
234.9738478986719
 31
0.0
 12
743.5314436907535
 22
233.4738478986719
 32
0.0
 13
743.5314436907535
 23
233.4738478986719
 33
0.0
  0
MTEXT
  5
1DD
330
1D5
100
AcDbEntity
  8
0
 62
     4
370
    20
100
AcDbMText
 10
742.0314436907531
 20
239.223847898672
 30
0.0
 40
2.0
 41
0.0
 46
0.0
 71
     5
 72
     1
  1
\A1;%%C3.5
  7
Romans字体
 11
0.0000000000000001
 21
1.0
 31
0.0
 73
     1
 44
1.0
  0
POINT
  5
1DE
330
1D5
100
AcDbEntity
  8
Defpoints
 62
     0
100
AcDbPoint
 10
753.8143224996255
 20
233.4738478986719
 30
0.0
  0
POINT
  5
1E0
330
1D5
100
AcDbEntity
  8
Defpoints
 62
     0
100
AcDbPoint
 10
753.8143224996255
 20
229.9738478986719
 30
0.0
  0
POINT
  5
1E1
330
1D5
100
AcDbEntity
  8
Defpoints
 62
     0
100
AcDbPoint
 10
743.5314436907535
 20
229.9738478986719
 30
0.0
  0
ENDBLK
  5
1E2
330
1D5
100
AcDbEntity
  8
0
100
AcDbBlockEnd
  0
BLOCK
  5
1E9
330
1E8
100
AcDbEntity
  8
0
100
AcDbBlockBegin
  2
*D2
 70
     1
 10
0.0
 20
0.0
 30
0.0
  3
*D2
  1

  0
LINE
  5
1EA
330
1E8
100
AcDbEntity
  8
0
 62
     6
370
    -2
100
AcDbLine
 10
775.0143224992053
 20
232.9638478751735
 30
0.0
 11
781.8499046113283
 21
232.9638478751735
 31
0.0
  0
LINE
  5
1EB
330
1E8
100
AcDbEntity
  8
0
 62
     6
370
    -2
100
AcDbLine
 10
775.0143224992982
 20
230.4838478986776
 30
0.0
 11
781.8499046113283
 21
230.4838478986776
 31
0.0
  0
LINE
  5
1EC
330
1E8
100
AcDbEntity
  8
0
 62
     1
370
    -2
100
AcDbLine
 10
781.3499046113284
 20
228.9838478986776
 30
0.0
 11
781.3499046113284
 21
227.4838478986776
 31
0.0
  0
LINE
  5
1ED
330
1E8
100
AcDbEntity
  8
0
 62
     1
370
    -2
100
AcDbLine
 10
781.3499046113284
 20
234.4638478751735
 30
0.0
 11
781.3499046113284
 21
241.4638478751735
 31
0.0
  0
SOLID
  5
1EE
330
1E8
100
AcDbEntity
  8
0
 62
     1
100
AcDbTrace
 10
781.0999046113282
 20
228.9838478986776
 30
0.0
 11
781.5999046113284
 21
228.9838478986776
 31
0.0
 12
781.3499046113284
 22
230.4838478986776
 32
0.0
 13
781.3499046113284
 23
230.4838478986776
 33
0.0
  0
SOLID
  5
1EF
330
1E8
100
AcDbEntity
  8
0
 62
     1
100
AcDbTrace
 10
781.0999046113282
 20
234.4638478751735
 30
0.0
 11
781.5999046113284
 21
234.4638478751735
 31
0.0
 12
781.3499046113284
 22
232.9638478751735
 32
0.0
 13
781.3499046113284
 23
232.9638478751735
 33
0.0
  0
MTEXT
  5
1F0
330
1E8
100
AcDbEntity
  8
0
 62
     4
370
    20
100
AcDbMText
 10
779.8499046113284
 20
238.7138478751736
 30
0.0
 40
2.0
 41
0.0
 46
0.0
 71
     5
 72
     1
  1
\A1;%%c2.5
  7
Romans字体
 11
0.0000000000000001
 21
1.0
 31
0.0
 73
     1
 44
1.0
  0
POINT
  5
1F1
330
1E8
100
AcDbEntity
  8
Defpoints
 62
     0
100
AcDbPoint
 10
774.8143224992053
 20
232.9638478751735
 30
0.0
  0
POINT
  5
1F2
330
1E8
100
AcDbEntity
  8
Defpoints
 62
     0
100
AcDbPoint
 10
774.8143224992981
 20
230.4838478986776
 30
0.0
  0
POINT
  5
1F3
330
1E8
100
AcDbEntity
  8
Defpoints
 62
     0
100
AcDbPoint
 10
781.3499046113284
 20
230.4838478986776
 30
0.0
  0
ENDBLK
  5
1F4
330
1E8
100
AcDbEntity
  8
0
100
AcDbBlockEnd
  0
BLOCK
  5
2E0
330
2DF
100
AcDbEntity
  8
0
100
AcDbBlockBegin
  2
*D3
 70
     1
 10
0.0
 20
0.0
 30
0.0
  3
*D3
  1

  0
LINE
  5
2E1
330
2DF
100
AcDbEntity
  8
0
 62
     6
370
    -2
100
AcDbLine
 10
755.4329758484132
 20
231.273847898673
 30
0.0
 11
748.8028678077451
 21
231.273847898673
 31
0.0
  0
LINE
  5
2E2
330
2DF
100
AcDbEntity
  8
0
 62
     6
370
    -2
100
AcDbLine
 10
755.4329758484122
 20
232.1738478986722
 30
0.0
 11
748.8028678077451
 21
232.1738478986722
 31
0.0
  0
LINE
  5
2E3
330
2DF
100
AcDbEntity
  8
0
 62
     1
370
    -2
100
AcDbLine
 10
749.3028678077451
 20
229.7738478986731
 30
0.0
 11
749.3028678077451
 21
228.273847898673
 31
0.0
  0
LINE
  5
2E4
330
2DF
100
AcDbEntity
  8
0
 62
     1
370
    -2
100
AcDbLine
 10
749.3028678077451
 20
233.6738478986722
 30
0.0
 11
749.3028678077451
 21
238.3881336129579
 31
0.0
  0
SOLID
  5
2E5
330
2DF
100
AcDbEntity
  8
0
 62
     1
100
AcDbTrace
 10
749.0528678077452
 20
229.7738478986731
 30
0.0
 11
749.5528678077452
 21
229.7738478986731
 31
0.0
 12
749.3028678077451
 22
231.273847898673
 32
0.0
 13
749.3028678077451
 23
231.273847898673
 33
0.0
  0
SOLID
  5
2E6
330
2DF
100
AcDbEntity
  8
0
 62
     1
100
AcDbTrace
 10
749.0528678077452
 20
233.6738478986722
 30
0.0
 11
749.5528678077452
 21
233.6738478986722
 31
0.0
 12
749.3028678077451
 22
232.1738478986722
 32
0.0
 13
749.3028678077451
 23
232.1738478986722
 33
0.0
  0
MTEXT
  5
2E7
330
2DF
100
AcDbEntity
  8
0
 62
     4
100
AcDbMText
 10
747.8028678077452
 20
236.7809907558152
 30
0.0
 40
2.0
 41
0.0
 46
0.0
 71
     5
 72
     1
  1
\A1;%%cd
  7
Romans字体
 11
0.0000000000000001
 21
1.0
 31
0.0
 73
     1
 44
1.0
  0
POINT
  5
2E8
330
2DF
100
AcDbEntity
  8
Defpoints
 62
     0
100
AcDbPoint
 10
755.6329758484134
 20
231.273847898673
 30
0.0
  0
POINT
  5
2E9
330
2DF
100
AcDbEntity
  8
Defpoints
 62
     0
100
AcDbPoint
 10
755.6329758484125
 20
232.1738478986722
 30
0.0
  0
POINT
  5
2EA
330
2DF
100
AcDbEntity
  8
Defpoints
 62
     0
100
AcDbPoint
 10
749.3028678077451
 20
232.1738478986722
 30
0.0
  0
ENDBLK
  5
2EB
330
2DF
100
AcDbEntity
  8
0
100
AcDbBlockEnd
  0
BLOCK
  5
2EE
330
2ED
100
AcDbEntity
  8
0
100
AcDbBlockBegin
  2
*D4
 70
     1
 10
0.0
 20
0.0
 30
0.0
  3
*D4
  1

  0
LINE
  5
2EF
330
2ED
100
AcDbEntity
  8
0
 62
     6
370
    -2
100
AcDbLine
 10
757.5941868696725
 20
233.0238478980522
 30
0.0
 11
757.26681937963
 21
233.0238478980522
 31
0.0
  0
LINE
  5
2F0
330
2ED
100
AcDbEntity
  8
0
 62
     6
370
    -2
100
AcDbLine
 10
757.5941868696725
 20
230.4238478986722
 30
0.0
 11
757.26681937963
 21
230.4238478986722
 31
0.0
  0
LINE
  5
2F1
330
2ED
100
AcDbEntity
  8
0
 62
     1
370
    -2
100
AcDbLine
 10
757.7668193796299
 20
234.5238478980522
 30
0.0
 11
757.7668193796299
 21
236.0238478980523
 31
0.0
  0
LINE
  5
2F2
330
2ED
100
AcDbEntity
  8
0
 62
     1
370
    -2
100
AcDbLine
 10
757.7668193796299
 20
228.9238478986721
 30
0.0
 11
757.7668193796299
 21
223.9952764701008
 31
0.0
  0
SOLID
  5
2F3
330
2ED
100
AcDbEntity
  8
0
 62
     1
100
AcDbTrace
 10
757.5168193796298
 20
234.5238478980522
 30
0.0
 11
758.0168193796298
 21
234.5238478980522
 31
0.0
 12
757.7668193796299
 22
233.0238478980522
 32
0.0
 13
757.7668193796299
 23
233.0238478980522
 33
0.0
  0
SOLID
  5
2F4
330
2ED
100
AcDbEntity
  8
0
 62
     1
100
AcDbTrace
 10
757.5168193796298
 20
228.9238478986721
 30
0.0
 11
758.0168193796298
 21
228.9238478986721
 31
0.0
 12
757.7668193796299
 22
230.4238478986722
 32
0.0
 13
757.7668193796299
 23
230.4238478986722
 33
0.0
  0
MTEXT
  5
2F5
330
2ED
100
AcDbEntity
  8
0
 62
     4
100
AcDbMText
 10
756.2668193796298
 20
225.7095621843866
 30
0.0
 40
2.0
 41
0.0
 46
0.0
 71
     5
 72
     1
  1
\A1;%%cD
  7
Romans字体
 11
0.0000000000000001
 21
1.0
 31
0.0
 73
     1
 44
1.0
  0
POINT
  5
2F6
330
2ED
100
AcDbEntity
  8
Defpoints
 62
     0
100
AcDbPoint
 10
757.7941868696727
 20
233.0238478980522
 30
0.0
  0
POINT
  5
2F7
330
2ED
100
AcDbEntity
  8
Defpoints
 62
     0
100
AcDbPoint
 10
757.7941868696727
 20
230.4238478986722
 30
0.0
  0
POINT
  5
2F8
330
2ED
100
AcDbEntity
  8
Defpoints
 62
     0
100
AcDbPoint
 10
757.7668193796299
 20
230.4238478986722
 30
0.0
  0
ENDBLK
  5
2F9
330
2ED
100
AcDbEntity
  8
0
100
AcDbBlockEnd
  0
BLOCK
  5
1F9
330
1F8
100
AcDbEntity
  8
0
100
AcDbBlockBegin
  2
*D5
 70
     1
 10
0.0
 20
0.0
 30
0.0
  3
*D5
  1

  0
LINE
  5
1FA
330
1F8
100
AcDbEntity
  8
0
 62
     6
370
    -2
100
AcDbLine
 10
775.3014539698132
 20
232.9392043886798
 30
0.0
 11
775.3014539698132
 21
239.0252115166679
 31
0.0
  0
LINE
  5
1FB
330
1F8
100
AcDbEntity
  8
0
 62
     6
370
    -2
100
AcDbLine
 10
753.8143224996255
 20
233.6738478986719
 30
0.0
 11
753.8143224996255
 21
239.0252115166679
 31
0.0
  0
LINE
  5
1FC
330
1F8
100
AcDbEntity
  8
0
 62
     1
370
    -2
100
AcDbLine
 10
773.8014539698132
 20
238.5252115166679
 30
0.0
 11
755.3143224996254
 21
238.5252115166679
 31
0.0
  0
SOLID
  5
1FD
330
1F8
100
AcDbEntity
  8
0
 62
     1
100
AcDbTrace
 10
773.8014539698132
 20
238.7752115166679
 30
0.0
 11
773.8014539698132
 21
238.2752115166679
 31
0.0
 12
775.3014539698132
 22
238.5252115166679
 32
0.0
 13
775.3014539698132
 23
238.5252115166679
 33
0.0
  0
SOLID
  5
1FE
330
1F8
100
AcDbEntity
  8
0
 62
     1
100
AcDbTrace
 10
755.3143224996254
 20
238.7752115166679
 30
0.0
 11
755.3143224996254
 21
238.2752115166679
 31
0.0
 12
753.8143224996255
 22
238.5252115166679
 32
0.0
 13
753.8143224996255
 23
238.5252115166679
 33
0.0
  0
MTEXT
  5
1FF
330
1F8
100
AcDbEntity
  8
0
 62
     4
370
    20
100
AcDbMText
 10
764.5578882347193
 20
240.0252115166679
 30
0.0
 40
2.0
 41
0.0
 46
0.0
 71
     5
 72
     1
  1
\A1;21.5%%P0.1
  7
Romans字体
 73
     1
 44
1.0
  0
POINT
  5
200
330
1F8
100
AcDbEntity
  8
Defpoints
 62
     0
100
AcDbPoint
 10
775.3014539698132
 20
232.7392043886798
 30
0.0
  0
POINT
  5
201
330
1F8
100
AcDbEntity
  8
Defpoints
 62
     0
100
AcDbPoint
 10
753.8143224996255
 20
233.4738478986719
 30
0.0
  0
POINT
  5
202
330
1F8
100
AcDbEntity
  8
Defpoints
 62
     0
100
AcDbPoint
 10
753.8143224996255
 20
238.5252115166679
 30
0.0
  0
ENDBLK
  5
203
330
1F8
100
AcDbEntity
  8
0
100
AcDbBlockEnd
  0
BLOCK
  5
354
330
353
100
AcDbEntity
  8
0
100
AcDbBlockBegin
  2
*D6
 70
     1
 10
0.0
 20
0.0
 30
0.0
  3
*D6
  1

  0
LINE
  5
356
330
353
100
AcDbEntity
  8
0
 62
     6
370
    -2
100
AcDbLine
 10
775.3014539698132
 20
232.9392043886798
 30
0.0
 11
775.3014539698132
 21
239.0252115166679
 31
0.0
  0
LINE
  5
357
330
353
100
AcDbEntity
  8
0
 62
     6
370
    -2
100
AcDbLine
 10
753.8143224996255
 20
233.6738478986719
 30
0.0
 11
753.8143224996255
 21
239.0252115166679
 31
0.0
  0
LINE
  5
358
330
353
100
AcDbEntity
  8
0
 62
     1
370
    -2
100
AcDbLine
 10
773.8014539698132
 20
238.5252115166679
 30
0.0
 11
755.3143224996254
 21
238.5252115166679
 31
0.0
  0
SOLID
  5
359
330
353
100
AcDbEntity
  8
0
 62
     1
100
AcDbTrace
 10
773.8014539698132
 20
238.7752115166679
 30
0.0
 11
773.8014539698132
 21
238.2752115166679
 31
0.0
 12
775.3014539698132
 22
238.5252115166679
 32
0.0
 13
775.3014539698132
 23
238.5252115166679
 33
0.0
  0
SOLID
  5
35A
330
353
100
AcDbEntity
  8
0
 62
     1
100
AcDbTrace
 10
755.3143224996254
 20
238.7752115166679
 30
0.0
 11
755.3143224996254
 21
238.2752115166679
 31
0.0
 12
753.8143224996255
 22
238.5252115166679
 32
0.0
 13
753.8143224996255
 23
238.5252115166679
 33
0.0
  0
MTEXT
  5
35B
330
353
100
AcDbEntity
  8
0
 62
     4
370
    20
100
AcDbMText
 10
764.5578882347193
 20
240.0252115166679
 30
0.0
 40
2.0
 41
0.0
 46
0.0
 71
     5
 72
     1
  1
\A1;21.5
  7
Romans字体
 73
     1
 44
1.0
  0
POINT
  5
35C
330
353
100
AcDbEntity
  8
Defpoints
 62
     0
100
AcDbPoint
 10
775.3014539698132
 20
232.7392043886798
 30
0.0
  0
POINT
  5
35D
330
353
100
AcDbEntity
  8
Defpoints
 62
     0
100
AcDbPoint
 10
753.8143224996255
 20
233.4738478986719
 30
0.0
  0
POINT
  5
35E
330
353
100
AcDbEntity
  8
Defpoints
 62
     0
100
AcDbPoint
 10
753.8143224996255
 20
238.5252115166679
 30
0.0
  0
ENDBLK
  5
355
330
353
100
AcDbEntity
  8
0
100
AcDbBlockEnd
  0
ENDSEC
  0
SECTION
  2
ENTITIES
  0
MTEXT
  5
78
330
2
100
AcDbEntity
  8
图框
 62
     3
100
AcDbMText
 10
846.3459257810933
 20
202.9002084462029
 30
0.0
 40
1.492756787517073
 41
16.80619599621068
 46
4.343372752842933
 71
     5
 72
     5
  1
CDGF-0.75C
  7
Romans字体
 73
     1
 44
1.0
1001
ACAD
1000
ACAD_MTEXT_DEFINED_HEIGHT_BEGIN
1070
    46
1040
4.343372752842933
1000
ACAD_MTEXT_DEFINED_HEIGHT_END
  0
MTEXT
  5
7C
330
2
100
AcDbEntity
  8
图框
 62
     3
100
AcDbMText
 10
846.3459257810933
 20
198.5104831827899
 30
0.0
 40
1.492756787517073
 41
16.80619599621068
 46
4.43607777398305
 71
     5
 72
     5
  1
{\C256;1010172200606}
  7
Romans字体
 73
     1
 44
1.0
1001
ACAD
1000
ACAD_MTEXT_DEFINED_HEIGHT_BEGIN
1070
    46
1040
4.43607777398305
1000
ACAD_MTEXT_DEFINED_HEIGHT_END
  0
MTEXT
  5
7D
330
2
100
AcDbEntity
  8
图框
 62
     3
100
AcDbMText
 10
812.3190933158006
 20
191.8566656434173
 30
0.0
 40
1.492756787517073
 41
5.414674217195233
 46
3.943047300605248
 71
     5
 72
     5
  1
2:1 
  7
Romans字体
 73
     1
 44
1.0
1001
ACAD
1000
ACAD_MTEXT_DEFINED_HEIGHT_BEGIN
1070
    46
1040
3.943047300605248
1000
ACAD_MTEXT_DEFINED_HEIGHT_END
  0
MTEXT
  5
7F
330
2
100
AcDbEntity
  8
图框
 62
     3
100
AcDbMText
 10
823.1230444053007
 20
191.615624845194
 30
0.0
 40
1.492756787517073
 41
5.414674217196083
 46
3.943047300605201
 71
     5
 72
     5
  1
0.66g 
  7
Romans字体
 73
     1
 44
1.0
1001
ACAD
1000
ACAD_MTEXT_DEFINED_HEIGHT_BEGIN
1070
    46
1040
3.943047300605201
1000
ACAD_MTEXT_DEFINED_HEIGHT_END
  0
MTEXT
  5
80
330
2
100
AcDbEntity
  8
图框
 62
     3
100
AcDbMText
 10
823.1461052176207
 20
206.6430930206909
 30
0.0
 40
1.492756787517073
 41
16.24869571672725
 46
5.914570950908535
 71
     5
 72
     5
  1
-
  7
Romans字体
 73
     1
 44
1.0
1001
AcDbBlockRepETag
1070
     1
1071
        4
1005
0
1001
ACAD
1000
ACAD_MTEXT_DEFINED_HEIGHT_BEGIN
1070
    46
1040
5.914570950908535
1000
ACAD_MTEXT_DEFINED_HEIGHT_END
  0
MTEXT
  5
82
330
2
100
AcDbEntity
  8
图框
 62
     3
100
AcDbMText
 10
823.1484417501912
 20
200.7285220697814
 30
0.0
 40
1.492756787517073
 41
16.24402265158654
 46
5.914570950910695
 71
     5
 72
     5
  1
-
  7
Romans字体
 73
     1
 44
1.0
1001
AcDbBlockRepETag
1070
     1
1071
        5
1005
0
1001
ACAD
1000
ACAD_MTEXT_DEFINED_HEIGHT_BEGIN
1070
    46
1040
5.914570950910695
1000
ACAD_MTEXT_DEFINED_HEIGHT_END
  0
MTEXT
  5
83
330
2
100
AcDbEntity
  8
图框
 62
     3
100
AcDbMText
 10
846.3459257810933
 20
207.3361366593847
 30
0.0
 40
1.492756787517073
 41
16.80619599621069
 46
4.52848367352089
 71
     5
 72
     5
  1
-
  7
Romans字体
 73
     1
 44
1.0
1001
AcDbBlockRepETag
1070
     1
1071
        6
1005
0
1001
ACAD
1000
ACAD_MTEXT_DEFINED_HEIGHT_BEGIN
1070
    46
1040
4.52848367352089
1000
ACAD_MTEXT_DEFINED_HEIGHT_END
  0
MTEXT
  5
84
330
2
100
AcDbEntity
  8
图框
 62
     3
100
AcDbMText
 10
846.3459257810933
 20
194.0745549696074
 30
0.0
 40
1.492756787517073
 41
16.80619599621069
 46
4.435778652381705
 71
     5
 72
     5
  1
-
  7
Romans字体
 73
     1
 44
1.0
1001
AcDbBlockRepETag
1070
     1
1071
        7
1005
0
1001
ACAD
1000
ACAD_MTEXT_DEFINED_HEIGHT_BEGIN
1070
    46
1040
4.435778652381705
1000
ACAD_MTEXT_DEFINED_HEIGHT_END
  0
MTEXT
  5
85
330
2
100
AcDbEntity
  8
图框
 62
     3
100
AcDbMText
 10
797.5233998385049
 20
193.8190022919639
 30
0.0
 40
1.492756787517073
 41
8.824382084423074
 46
3.146329187255698
 71
     5
 72
     5
  1
-
  7
Romans字体
 73
     1
 44
1.0
1001
AcDbBlockRepETag
1070
     1
1071
       10
1005
0
1001
ACAD
1000
ACAD_MTEXT_DEFINED_HEIGHT_BEGIN
1070
    46
1040
3.146329187255698
1000
ACAD_MTEXT_DEFINED_HEIGHT_END
  0
MTEXT
  5
86
330
2
100
AcDbEntity
  8
图框
 62
     3
100
AcDbMText
 10
805.7736735439602
 20
193.8190022919638
 30
0.0
 40
1.243963989597562
 41
7.676165326486325
 46
3.146329187255691
 71
     5
 72
     5
  1
-
  7
Romans字体
 73
     1
 44
1.0
1001
AcDbBlockRepETag
1070
     1
1071
       11
1005
0
1001
ACAD
1000
ACAD_MTEXT_DEFINED_HEIGHT_BEGIN
1070
    46
1040
3.146329187255691
1000
ACAD_MTEXT_DEFINED_HEIGHT_END
  0
MTEXT
  5
87
330
2
100
AcDbEntity
  8
图框
 62
     3
100
AcDbMText
 10
775.1145203115236
 20
187.5263439174528
 30
0.0
 40
1.492756787517073
 41
7.750881705789312
 46
3.146329187255739
 71
     5
 72
     5
  1
-
  7
Romans字体
 73
     1
 44
1.0
1001
AcDbBlockRepETag
1070
     1
1071
       12
1005
0
1001
ACAD
1000
ACAD_MTEXT_DEFINED_HEIGHT_BEGIN
1070
    46
1040
3.146329187255739
1000
ACAD_MTEXT_DEFINED_HEIGHT_END
  0
MTEXT
  5
88
330
2
100
AcDbEntity
  8
图框
 62
     3
100
AcDbMText
 10
782.8055571406405
 20
187.5263439174528
 30
0.0
 40
1.243963989597562
 41
7.631191952445306
 46
3.146329187255747
 71
     5
 72
     5
  1
-
  7
Romans字体
 73
     1
 44
1.0
1001
AcDbBlockRepETag
1070
     1
1071
       13
1005
0
1001
ACAD
1000
ACAD_MTEXT_DEFINED_HEIGHT_BEGIN
1070
    46
1040
3.146329187255747
1000
ACAD_MTEXT_DEFINED_HEIGHT_END
  0
MTEXT
  5
89
330
2
100
AcDbEntity
  8
图框
 62
     3
100
AcDbMText
 10
828.5631159673878
 20
191.8566656434174
 30
0.0
 40
1.492756787517073
 41
5.414674217194884
 46
3.943047300605213
 71
     5
 72
     5
  1
-
  7
Romans字体
 73
     1
 44
1.0
1001
AcDbBlockRepETag
1070
     1
1071
       14
1005
0
1001
ACAD
1000
ACAD_MTEXT_DEFINED_HEIGHT_BEGIN
1070
    46
1040
3.943047300605213
1000
ACAD_MTEXT_DEFINED_HEIGHT_END
  0
LINE
  5
8A
330
2
100
AcDbEntity
  8
图框
370
    -3
100
AcDbLine
 10
809.6117562072034
 20
193.82818929372
 30
0.0
 11
831.2704530759853
 21
193.82818929372
 31
0.0
1001
AcDbBlockRepETag
1070
     1
1071
       15
1005
0
  0
MTEXT
  5
8B
330
2
100
AcDbEntity
  8
图框
 62
     1
370
    20
100
AcDbMText
 10
845.4164546935517
 20
189.6939244977934
 30
0.0
 40
1.349527306515494
 41
41.15415652821538
 46
0.0
 71
     5
 72
     5
  1
{\fSimHei|b0|i0|c134|p2;厦门唯恩电气有限公司}
 73
     1
 44
1.0
1001
AcDbBlockRepETag
1070
     1
1071
       16
1005
0
  0
MTEXT
  5
8C
330
2
100
AcDbEntity
  8
图框
 62
     3
370
    20
100
AcDbMText
 10
845.5024982039711
 20
187.5852785567814
 30
0.0
 40
0.8262412080707084
 41
34.04279346846784
 46
0.0
 71
     5
 72
     5
  1
{\fArial Narrow|b0|i0|c0|p34;XIAMEN WAIN ELECTRICAL CO.LTD}
  7
工程字
 73
     1
 44
1.0
1001
AcDbBlockRepETag
1070
     1
1071
       17
1005
0
  0
MTEXT
  5
8E
330
2
100
AcDbEntity
  8
图框
 62
     1
370
    20
100
AcDbMText
 10
834.1406809237108
 20
189.4830348435421
 30
0.0
 40
1.002965022019167
 41
2.523620009667423
 46
0.0
 71
     1
 72
     5
  1
{\fArial|b0|i0|c0|p34;A}
  7
Chinese
 73
     1
 44
1.0
1001
AcDbBlockRepETag
1070
     1
1071
       18
1005
0
  0
MTEXT
  5
90
330
2
100
AcDbEntity
  8
图框
 62
     1
370
    20
100
AcDbMText
 10
835.391515441875
 20
189.4830348435421
 30
0.0
 40
1.002965022019167
 41
2.523620009667423
 46
0.0
 71
     1
 72
     5
  1
{\fArial|b0|i0|c0|p34;I}
  7
Chinese
 73
     1
 44
1.0
1001
AcDbBlockRepETag
1070
     1
1071
       19
1005
0
  0
MTEXT
  5
91
330
2
100
AcDbEntity
  8
图框
 62
     1
370
    20
100
AcDbMText
 10
835.8559600854491
 20
189.4769380100897
 30
0.0
 40
1.002965022019167
 41
2.523620009667423
 46
0.0
 71
     1
 72
     5
  1
{\fArial|b0|i0|c0|p34;N}
  7
Chinese
 73
     1
 44
1.0
1001
AcDbBlockRepETag
1070
     1
1071
       20
1005
0
  0
MTEXT
  5
92
330
2
100
AcDbEntity
  8
图框
100
AcDbMText
 10
825.8557788587898
 20
187.9191606584698
 30
0.0
 40
1.126424085072303
 41
10.82934843439163
 46
3.931962669289648
 71
     5
 72
     5
  1
{\W0.5;\C1;All Dimensions in mm\POriginal Size DIN A 4}
  7
Romans字体
 73
     1
 44
1.0
1001
AcDbBlockRepETag
1070
     1
1071
       21
1005
0
1001
ACAD
1000
ACAD_MTEXT_DEFINED_HEIGHT_BEGIN
1070
    46
1040
3.931962669289648
1000
ACAD_MTEXT_DEFINED_HEIGHT_END
  0
MTEXT
  5
93
330
2
100
AcDbEntity
  8
图框
  6
ByBlock
 62
     6
370
    18
100
AcDbMText
 10
854.9869471855569
 20
198.3306214815481
 30
0.0
 40
1.325888081342452
 41
1.278956938963605
 46
0.0
 71
     1
 72
     5
  1
A
  7
Romans字体
 11
0.0000000000000001
 21
1.0
 31
0.0
 73
     1
 44
1.0
1001
AcDbBlockRepETag
1070
     1
1071
       22
1005
0
  0
MTEXT
  5
94
330
2
100
AcDbEntity
  8
图框
 62
     6
100
AcDbMText
 10
854.9869471855569
 20
222.1231233553937
 30
0.0
 40
1.325888081342452
 41
1.278956938963605
 46
0.0
 71
     1
 72
     5
  1
B
  7
Romans字体
 11
0.0000000000000001
 21
1.0
 31
0.0
 73
     1
 44
1.0
1001
AcDbBlockRepETag
1070
     1
1071
       23
1005
0
  0
MTEXT
  5
95
330
2
100
AcDbEntity
  8
图框
 62
     6
100
AcDbMText
 10
854.9869471855569
 20
247.7127633252993
 30
0.0
 40
1.325888081342452
 41
1.278956938963605
 46
0.0
 71
     1
 72
     5
  1
C
  7
Romans字体
 11
0.0000000000000001
 21
1.0
 31
0.0
 73
     1
 44
1.0
1001
AcDbBlockRepETag
1070
     1
1071
       24
1005
0
  0
LINE
  5
96
330
2
100
AcDbEntity
  8
图框
 62
     6
100
AcDbLine
 10
856.4905733646376
 20
260.9720992335535
 30
0.0
 11
854.7490237791988
 21
260.9720992335535
 31
0.0
1001
AcDbBlockRepETag
1070
     1
1071
       26
1005
0
  0
LINE
  5
97
330
2
100
AcDbEntity
  8
图框
 62
     6
100
AcDbLine
 10
856.4905733646376
 20
235.3824592636445
 30
0.0
 11
854.7490237791988
 21
235.3824592636445
 31
0.0
1001
AcDbBlockRepETag
1070
     1
1071
       27
1005
0
  0
MTEXT
  5
98
330
2
100
AcDbEntity
  8
图框
 62
     6
100
AcDbMText
 10
843.9496244932115
 20
185.7440218443075
 30
0.0
 40
1.325888081342452
 41
1.278956938963605
 46
0.0
 71
     1
 72
     5
  1
6
  7
Romans字体
 73
     1
 44
1.0
1001
AcDbBlockRepETag
1070
     1
1071
       28
1005
0
  0
LINE
  5
99
330
2
100
AcDbEntity
  8
图框
 62
     6
100
AcDbLine
 10
831.8290550516591
 20
185.9531793238252
 30
0.0
 11
831.8290550516591
 21
184.2031793238232
 31
0.0
1001
AcDbBlockRepETag
1070
     1
1071
       29
1005
0
  0
MTEXT
  5
9A
330
2
100
AcDbEntity
  8
图框
 62
     6
100
AcDbMText
 10
819.2350706569877
 20
185.6958212482459
 30
0.0
 40
1.325888081342452
 41
1.278956938963605
 46
0.0
 71
     1
 72
     5
  1
5
  7
Romans字体
 73
     1
 44
1.0
1001
AcDbBlockRepETag
1070
     1
1071
       30
1005
0
  0
LINE
  5
9B
330
2
100
AcDbEntity
  8
图框
 62
     6
100
AcDbLine
 10
807.0614656921916
 20
185.9531793238252
 30
0.0
 11
807.0614656921916
 21
184.2031793238232
 31
0.0
1001
AcDbBlockRepETag
1070
     1
1071
       31
1005
0
  0
MTEXT
  5
9C
330
2
100
AcDbEntity
  8
图框
 62
     6
100
AcDbMText
 10
794.4763627616156
 20
185.7201926045442
 30
0.0
 40
1.325888081342452
 41
1.278956938963605
 46
0.0
 71
     1
 72
     5
  1
4
  7
Romans字体
 73
     1
 44
1.0
1001
AcDbBlockRepETag
1070
     1
1071
       32
1005
0
  0
LINE
  5
9D
330
2
100
AcDbEntity
  8
图框
 62
     6
100
AcDbLine
 10
782.2938763327116
 20
185.9531793238252
 30
0.0
 11
782.2938763327116
 21
184.2031793238232
 31
0.0
1001
AcDbBlockRepETag
1070
     1
1071
       33
1005
0
  0
MTEXT
  5
9E
330
2
100
AcDbEntity
  8
图框
 62
     6
100
AcDbMText
 10
769.6998919380346
 20
185.7352787086468
 30
0.0
 40
1.325888081342452
 41
1.278956938963605
 46
0.0
 71
     1
 72
     5
  1
3
  7
Romans字体
 73
     1
 44
1.0
1001
AcDbBlockRepETag
1070
     1
1071
       34
1005
0
  0
LINE
  5
9F
330
2
100
AcDbEntity
  8
图框
 62
     6
100
AcDbLine
 10
757.5262869732291
 20
185.9531793238252
 30
0.0
 11
757.5262869732291
 21
184.2031793238232
 31
0.0
1001
AcDbBlockRepETag
1070
     1
1071
       35
1005
0
  0
MTEXT
  5
A0
330
2
100
AcDbEntity
  8
图框
 62
     6
100
AcDbMText
 10
744.2973899653355
 20
185.7595571944072
 30
0.0
 40
1.325888081342452
 41
1.278956938963605
 46
0.0
 71
     1
 72
     5
  1
2
  7
Romans字体
 73
     1
 44
1.0
1001
AcDbBlockRepETag
1070
     1
1071
       36
1005
0
  0
LINE
  5
A1
330
2
100
AcDbEntity
  8
图框
 62
     6
100
AcDbLine
 10
732.7586976137497
 20
185.9531793238252
 30
0.0
 11
732.7586976137497
 21
184.2031793238232
 31
0.0
1001
AcDbBlockRepETag
1070
     1
1071
       37
1005
0
  0
MTEXT
  5
A2
330
2
100
AcDbEntity
  8
图框
 62
     6
100
AcDbMText
 10
720.1647132190767
 20
185.7617094411264
 30
0.0
 40
1.325888081342452
 41
1.278956938963605
 46
0.0
 71
     1
 72
     5
  1
1
  7
Romans字体
 73
     1
 44
1.0
1001
AcDbBlockRepETag
1070
     1
1071
       38
1005
0
  0
LINE
  5
A3
330
2
100
AcDbEntity
  8
图框
370
    50
100
AcDbLine
 10
709.712182942547
 20
185.9531793238252
 30
0.0
 11
854.7490237791988
 21
185.9531793238252
 31
0.0
1001
AcDbBlockRepETag
1070
     1
1071
       39
1005
0
  0
LINE
  5
A4
330
2
100
AcDbEntity
  8
图框
370
    50
100
AcDbLine
 10
709.7411983967853
 20
185.9447289092617
 30
0.0
 11
709.7411983967868
 21
281.4461544500204
 31
0.0
1001
AcDbBlockRepETag
1070
     1
1071
       40
1005
0
  0
MTEXT
  5
A5
330
2
100
AcDbEntity
  8
图框
 62
     6
100
AcDbMText
 10
708.236731348024
 20
247.7127633252993
 30
0.0
 40
1.325888081342452
 41
1.278956938963605
 46
0.0
 71
     1
 72
     5
  1
C
  7
Romans字体
 11
0.0000000000000001
 21
1.0
 31
0.0
 73
     1
 44
1.0
1001
AcDbBlockRepETag
1070
     1
1071
       43
1005
0
  0
LINE
  5
A6
330
2
100
AcDbEntity
  8
图框
 62
     6
100
AcDbLine
 10
709.7411983967861
 20
235.3824592636445
 30
0.0
 11
707.9911983967853
 21
235.3824592636445
 31
0.0
1001
AcDbBlockRepETag
1070
     1
1071
       44
1005
0
  0
MTEXT
  5
A7
330
2
100
AcDbEntity
  8
图框
 62
     6
100
AcDbMText
 10
708.236731348024
 20
222.1231233553937
 30
0.0
 40
1.325888081342452
 41
1.278956938963605
 46
0.0
 71
     1
 72
     5
  1
B
  7
Romans字体
 11
0.0000000000000001
 21
1.0
 31
0.0
 73
     1
 44
1.0
1001
AcDbBlockRepETag
1070
     1
1071
       45
1005
0
  0
LINE
  5
A8
330
2
100
AcDbEntity
  8
图框
 62
     6
100
AcDbLine
 10
709.7411983967857
 20
209.7928192937339
 30
0.0
 11
707.9911983967853
 21
209.7928192937339
 31
0.0
1001
AcDbBlockRepETag
1070
     1
1071
       46
1005
0
  0
MTEXT
  5
A9
330
2
100
AcDbEntity
  8
图框
 62
     6
100
AcDbMText
 10
708.236731348024
 20
198.3306214815481
 30
0.0
 40
1.325888081342452
 41
1.278956938963605
 46
0.0
 71
     1
 72
     5
  1
A
  7
Romans字体
 11
0.0000000000000001
 21
1.0
 31
0.0
 73
     1
 44
1.0
1001
AcDbBlockRepETag
1070
     1
1071
       47
1005
0
  0
LINE
  5
AA
330
2
100
AcDbEntity
  8
图框
370
    -3
100
AcDbLine
 10
709.7411983967868
 20
281.4461544500204
 30
0.0
 11
709.7411983967868
 21
286.1868639398776
 31
0.0
1001
AcDbBlockRepETag
1070
     1
1071
       48
1005
0
  0
LINE
  5
AB
330
2
100
AcDbEntity
  8
图框
370
    -3
100
AcDbLine
 10
712.5966385478062
 20
281.7031793238252
 30
0.0
 11
712.5966385478062
 21
286.4438888136823
 31
0.0
1001
AcDbBlockRepETag
1070
     1
1071
       49
1005
0
  0
LINE
  5
AC
330
2
100
AcDbEntity
  8
图框
370
    -3
100
AcDbLine
 10
715.452078698826
 20
281.7031793238252
 30
0.0
 11
715.452078698826
 21
286.4438888136823
 31
0.0
1001
AcDbBlockRepETag
1070
     1
1071
       50
1005
0
  0
LINE
  5
AD
330
2
100
AcDbEntity
  8
图框
370
    -3
100
AcDbLine
 10
718.3075188498468
 20
281.7031793238252
 30
0.0
 11
718.3075188498468
 21
286.4438888136823
 31
0.0
1001
AcDbBlockRepETag
1070
     1
1071
       51
1005
0
  0
LINE
  5
AE
330
2
100
AcDbEntity
  8
图框
370
    -3
100
AcDbLine
 10
722.0523662009759
 20
281.7031793238252
 30
0.0
 11
722.0523662009759
 21
287.3308926118735
 31
0.0
1001
AcDbBlockRepETag
1070
     1
1071
       52
1005
0
  0
MTEXT
  5
AF
330
2
100
AcDbEntity
  8
图框
 62
     6
100
AcDbMText
 10
843.9496244932115
 20
283.365754223474
 30
0.0
 40
1.325888081342452
 41
1.278956938963605
 46
0.0
 71
     1
 72
     5
  1
6
  7
Romans字体
 73
     1
 44
1.0
1001
AcDbBlockRepETag
1070
     1
1071
       53
1005
0
  0
LINE
  5
B0
330
2
100
AcDbEntity
  8
图框
 62
     6
100
AcDbLine
 10
831.8290550516591
 20
283.4531793238252
 30
0.0
 11
831.8290550516591
 21
281.7031793238252
 31
0.0
1001
AcDbBlockRepETag
1070
     1
1071
       54
1005
0
  0
MTEXT
  5
B1
330
2
100
AcDbEntity
  8
图框
 62
     6
100
AcDbMText
 10
819.2350706569877
 20
283.365754223474
 30
0.0
 40
1.325888081342452
 41
1.278956938963605
 46
0.0
 71
     1
 72
     5
  1
5
  7
Romans字体
 73
     1
 44
1.0
1001
AcDbBlockRepETag
1070
     1
1071
       55
1005
0
  0
LINE
  5
B2
330
2
100
AcDbEntity
  8
图框
 62
     6
100
AcDbLine
 10
807.0614656921916
 20
283.4531793238252
 30
0.0
 11
807.0614656921916
 21
281.7031793238252
 31
0.0
1001
AcDbBlockRepETag
1070
     1
1071
       56
1005
0
  0
MTEXT
  5
B3
330
2
100
AcDbEntity
  8
图框
 62
     6
100
AcDbMText
 10
769.6998919380346
 20
283.365754223474
 30
0.0
 40
1.325888081342452
 41
1.278956938963605
 46
0.0
 71
     1
 72
     5
  1
3
  7
Romans字体
 73
     1
 44
1.0
1001
AcDbBlockRepETag
1070
     1
1071
       59
1005
0
  0
LINE
  5
B4
330
2
100
AcDbEntity
  8
图框
 62
     6
100
AcDbLine
 10
757.5262869732291
 20
283.4531793238252
 30
0.0
 11
757.5262869732291
 21
281.7031793238252
 31
0.0
1001
AcDbBlockRepETag
1070
     1
1071
       60
1005
0
  0
MTEXT
  5
B5
330
2
100
AcDbEntity
  8
图框
 62
     6
100
AcDbMText
 10
744.9323025785576
 20
283.365754223474
 30
0.0
 40
1.325888081342452
 41
1.278956938963605
 46
0.0
 71
     1
 72
     5
  1
2
  7
Romans字体
 73
     1
 44
1.0
1001
AcDbBlockRepETag
1070
     1
1071
       61
1005
0
  0
LINE
  5
B6
330
2
100
AcDbEntity
  8
图框
 62
     6
100
AcDbLine
 10
732.7586976137497
 20
283.3339164503401
 30
0.0
 11
732.7586976137497
 21
281.7031793238252
 31
0.0
1001
AcDbBlockRepETag
1070
     1
1071
       62
1005
0
  0
MTEXT
  5
B7
330
2
100
AcDbEntity
  8
图框
 62
     6
100
AcDbMText
 10
722.5991039562037
 20
283.365754223474
 30
0.0
 40
1.325888081342452
 41
1.278956938963605
 46
0.0
 71
     1
 72
     5
  1
1
  7
Romans字体
 73
     1
 44
1.0
1001
AcDbBlockRepETag
1070
     1
1071
       63
1005
0
  0
LINE
  5
B8
330
2
100
AcDbEntity
  8
图框
370
    -3
100
AcDbLine
 10
709.7411983967868
 20
281.4461544500204
 30
0.0
 11
709.7411983967868
 21
287.3308926118735
 31
0.0
1001
AcDbBlockRepETag
1070
     1
1071
       64
1005
0
  0
LINE
  5
B9
330
2
100
AcDbEntity
  8
图框
370
    50
100
AcDbLine
 10
709.7411983967868
 20
281.7031793238252
 30
0.0
 11
854.7490237791988
 21
281.7031793238252
 31
0.0
1001
AcDbBlockRepETag
1070
     1
1071
       65
1005
0
  0
LINE
  5
BA
330
2
100
AcDbEntity
  8
图框
370
    -3
100
AcDbLine
 10
712.5966385478062
 20
281.7031793238252
 30
0.0
 11
712.5966385478062
 21
287.3308926118735
 31
0.0
1001
AcDbBlockRepETag
1070
     1
1071
       66
1005
0
  0
LINE
  5
BB
330
2
100
AcDbEntity
  8
图框
370
    -3
100
AcDbLine
 10
715.452078698826
 20
281.7031793238252
 30
0.0
 11
715.452078698826
 21
287.3308926118735
 31
0.0
1001
AcDbBlockRepETag
1070
     1
1071
       67
1005
0
  0
MTEXT
  5
BC
102
{ACAD_XDICTIONARY
360
3D4
102
}
330
2
100
AcDbEntity
  8
图框
100
AcDbMText
 10
720.1799425254116
 20
287.3308926118735
 30
0.0
 40
0.979499204410699
 41
5.62771328804836
 46
3.744847351129453
 71
     4
 72
     5
  1
\pi1.3323;{\fSimSun|b0|i0|c134|p2;档案员\fFangSong_GB2312|b0|i0|c134|p49;\H0.7x;\P\pi0.70793;\Fromans|c134;Filing Clerk\fFangSong_GB2312|b0|i0|c134|p49; }
 11
-0.0000000000000002
 21
-1.0
 31
0.0
 73
     1
 44
1.0
1001
AcDbBlockRepETag
1070
     1
1071
       68
1005
0
1001
ACAD
1000
ACAD_MTEXT_DEFINED_HEIGHT_BEGIN
1070
    46
1040
3.744847351129453
1000
ACAD_MTEXT_DEFINED_HEIGHT_END
  0
MTEXT
  5
BD
102
{ACAD_XDICTIONARY
360
3D6
102
}
330
2
100
AcDbEntity
  8
图框
100
AcDbMText
 10
714.0243586233161
 20
287.3308926118735
 30
0.0
 40
0.979499204410699
 41
5.62771328804836
 46
2.855440151019834
 71
     4
 72
     5
  1
\pi0.31733;{\fSimSun|b0|i0|c134|p2;日期\Fromans|c134;/Date}
 11
-0.0000000000000002
 21
-1.0
 31
0.0
 73
     1
 44
1.0
1001
AcDbBlockRepETag
1070
     1
1071
       69
1005
0
1001
ACAD
1000
ACAD_MTEXT_DEFINED_HEIGHT_BEGIN
1070
    46
1040
2.855440151019834
1000
ACAD_MTEXT_DEFINED_HEIGHT_END
  0
LINE
  5
BE
330
2
100
AcDbEntity
  8
图框
370
    -3
100
AcDbLine
 10
718.3075188498468
 20
281.7031793238252
 30
0.0
 11
718.3075188498468
 21
287.3308926118735
 31
0.0
1001
AcDbBlockRepETag
1070
     1
1071
       70
1005
0
  0
LINE
  5
BF
330
2
100
AcDbEntity
  8
图框
370
    -3
100
AcDbLine
 10
809.6117562072034
 20
209.6003784961451
 30
0.0
 11
809.6117562072034
 21
185.9420956814074
 31
0.0
1001
AcDbBlockRepETag
1070
     1
1071
       71
1005
0
  0
LINE
  5
C0
330
2
100
AcDbEntity
  8
图框
370
    -3
100
AcDbLine
 10
815.0264304243986
 20
197.7712365943259
 30
0.0
 11
815.0264304243986
 21
189.8851419931149
 31
0.0
1001
AcDbBlockRepETag
1070
     1
1071
       72
1005
0
  0
LINE
  5
C1
330
2
100
AcDbEntity
  8
图框
370
    -3
100
AcDbLine
 10
820.4411046415934
 20
197.7712365943259
 30
0.0
 11
820.4411046415934
 21
185.9531793238252
 31
0.0
1001
AcDbBlockRepETag
1070
     1
1071
       73
1005
0
  0
LINE
  5
C2
330
2
100
AcDbEntity
  8
图框
370
    25
100
AcDbLine
 10
815.5218400812451
 20
187.9905761102457
 30
0.0
 11
818.7579826182467
 21
187.9905761102457
 31
0.0
1001
AcDbBlockRepETag
1070
     1
1071
       74
1005
0
  0
LINE
  5
C3
330
2
100
AcDbEntity
  8
图框
370
    25
100
AcDbLine
 10
818.4010361570116
 20
187.473880535881
 30
0.0
 11
815.8630179312712
 21
187.1646083812991
 31
0.0
1001
AcDbBlockRepETag
1070
     1
1071
       75
1005
0
  0
LINE
  5
C4
330
2
100
AcDbEntity
  8
图框
370
    25
100
AcDbLine
 10
818.4010361570116
 20
188.5072716846098
 30
0.0
 11
815.8630179312712
 21
188.8165438391915
 31
0.0
1001
AcDbBlockRepETag
1070
     1
1071
       76
1005
0
  0
LINE
  5
C5
330
2
100
AcDbEntity
  8
图框
370
    25
100
AcDbLine
 10
815.8630179312712
 20
188.8165438391915
 30
0.0
 11
815.8630179312712
 21
187.1646083812991
 31
0.0
1001
AcDbBlockRepETag
1070
     1
1071
       77
1005
0
  0
LINE
  5
C6
330
2
100
AcDbEntity
  8
图框
370
    25
100
AcDbLine
 10
818.4010361570116
 20
188.5072716846098
 30
0.0
 11
818.4010361570116
 21
187.473880535881
 31
0.0
1001
AcDbBlockRepETag
1070
     1
1071
       78
1005
0
  0
CIRCLE
  5
C7
330
2
100
AcDbEntity
  8
图框
370
    25
100
AcDbCircle
 10
812.5361227033067
 20
187.9905761102457
 30
0.0
 40
0.8259677289459315
1001
AcDbBlockRepETag
1070
     1
1071
       79
1005
0
  0
CIRCLE
  5
C8
330
2
100
AcDbEntity
  8
图框
370
    25
100
AcDbCircle
 10
812.5361227033067
 20
187.9905761102457
 30
0.0
 40
0.5166955743643875
1001
AcDbBlockRepETag
1070
     1
1071
       80
1005
0
  0
LINE
  5
C9
330
2
100
AcDbEntity
  8
图框
370
    25
100
AcDbLine
 10
811.3532085131247
 20
187.9905761102457
 30
0.0
 11
813.7190368934886
 21
187.9905761102457
 31
0.0
1001
AcDbBlockRepETag
1070
     1
1071
       81
1005
0
  0
LINE
  5
CA
330
2
100
AcDbEntity
  8
图框
370
    25
100
AcDbLine
 10
812.5361227033067
 20
189.1734903004269
 30
0.0
 11
812.5361227033067
 21
186.8076619200639
 31
0.0
1001
AcDbBlockRepETag
1070
     1
1071
       82
1005
0
  0
LINE
  5
CB
330
2
100
AcDbEntity
  8
图框
370
    -3
100
AcDbLine
 10
825.8557788587902
 20
197.7712365943259
 30
0.0
 11
825.8557788587902
 21
189.8851419931149
 31
0.0
1001
AcDbBlockRepETag
1070
     1
1071
       83
1005
0
  0
MTEXT
  5
CC
330
2
100
AcDbEntity
  8
图框
100
AcDbMText
 10
834.6066404294866
 20
207.3361366593847
 30
0.0
 40
1.077449124851771
 41
6.672374707002862
 46
4.528483673520883
 71
     5
 72
     5
  1
图号{\Ftxt|c134;\P\Fromans|c134;\W0.65;Drawing No.}
 73
     1
 44
1.0
1001
AcDbBlockRepETag
1070
     1
1071
       84
1005
0
1001
ACAD
1000
ACAD_MTEXT_DEFINED_HEIGHT_BEGIN
1070
    46
1040
4.528483673520883
1000
ACAD_MTEXT_DEFINED_HEIGHT_END
  0
LINE
  5
CD
330
2
100
AcDbEntity
  8
图框
370
    -3
100
AcDbLine
 10
837.9428277829882
 20
209.6003784961451
 30
0.0
 11
837.9428277829882
 21
191.8566656434166
 31
0.0
1001
AcDbBlockRepETag
1070
     1
1071
       85
1005
0
  0
LINE
  5
CE
330
2
100
AcDbEntity
  8
图框
370
    -3
100
AcDbLine
 10
815.0217573592577
 20
209.6003784961451
 30
0.0
 11
815.0217573592577
 21
197.7712365943259
 31
0.0
1001
AcDbBlockRepETag
1070
     1
1071
       86
1005
0
  0
MTEXT
  5
CF
330
2
100
AcDbEntity
  8
图框
100
AcDbMText
 10
823.1484417501922
 20
195.799712944023
 30
0.0
 40
1.126424085072303
 41
5.414674217196036
 46
3.943047300606064
 71
     5
 72
     5
  1
重量\P{\Fromans|c134;Weight}
 73
     1
 44
1.0
1001
AcDbBlockRepETag
1070
     1
1071
       87
1005
0
1001
ACAD
1000
ACAD_MTEXT_DEFINED_HEIGHT_BEGIN
1070
    46
1040
3.943047300606064
1000
ACAD_MTEXT_DEFINED_HEIGHT_END
  0
LINE
  5
D0
330
2
100
AcDbEntity
  8
图框
370
    -3
100
AcDbLine
 10
809.6117562072034
 20
203.6858075452367
 30
0.0
 11
831.2704530759853
 21
203.6858075452367
 31
0.0
1001
AcDbBlockRepETag
1070
     1
1071
       88
1005
0
  0
MTEXT
  5
D1
330
2
100
AcDbEntity
  8
图框
100
AcDbMText
 10
828.5631159673878
 20
195.799712944023
 30
0.0
 40
1.126424085072303
 41
5.414674217194916
 46
3.943047300606068
 71
     5
 72
     5
  1
数量\P{\Fromans|c134;Qty.}
 73
     1
 44
1.0
1001
AcDbBlockRepETag
1070
     1
1071
       89
1005
0
1001
ACAD
1000
ACAD_MTEXT_DEFINED_HEIGHT_BEGIN
1070
    46
1040
3.943047300606068
1000
ACAD_MTEXT_DEFINED_HEIGHT_END
  0
LINE
  5
D2
330
2
100
AcDbEntity
  8
图框
370
    -3
100
AcDbLine
 10
831.2704530759853
 20
191.8566656434166
 30
0.0
 11
854.7490237791988
 21
191.8566656434164
 31
0.0
1001
AcDbBlockRepETag
1070
     1
1071
       90
1005
0
  0
LINE
  5
D3
330
2
100
AcDbEntity
  8
图框
370
    -3
100
AcDbLine
 10
831.2704530759853
 20
196.2924442957982
 30
0.0
 11
854.7490237791988
 21
196.2924442957982
 31
0.0
1001
AcDbBlockRepETag
1070
     1
1071
       91
1005
0
  0
MTEXT
  5
D4
330
2
100
AcDbEntity
  8
图框
100
AcDbMText
 10
817.7314310004257
 20
195.799712944023
 30
0.0
 40
1.126424085072303
 41
5.419347282335695
 46
3.943047300606048
 71
     5
 72
     5
  1
版本\P{\Fromans|c134;REV.}
 73
     1
 44
1.0
1001
AcDbBlockRepETag
1070
     1
1071
       92
1005
0
1001
ACAD
1000
ACAD_MTEXT_DEFINED_HEIGHT_BEGIN
1070
    46
1040
3.943047300606048
1000
ACAD_MTEXT_DEFINED_HEIGHT_END
  0
MTEXT
  5
D5
330
2
100
AcDbEntity
  8
图框
100
AcDbMText
 10
812.319093315801
 20
195.799712944023
 30
0.0
 40
1.126424085072303
 41
5.4146742171954
 46
3.943047300606068
 71
     5
 72
     5
  1
比例\P{\Fromans|c134;Scale}
 73
     1
 44
1.0
1001
AcDbBlockRepETag
1070
     1
1071
       93
1005
0
1001
ACAD
1000
ACAD_MTEXT_DEFINED_HEIGHT_BEGIN
1070
    46
1040
3.943047300606068
1000
ACAD_MTEXT_DEFINED_HEIGHT_END
  0
LINE
  5
D6
330
2
100
AcDbEntity
  8
图框
370
    -3
100
AcDbLine
 10
809.6117562072034
 20
197.7712365943259
 30
0.0
 11
831.2704530759853
 21
197.7712365943259
 31
0.0
1001
AcDbBlockRepETag
1070
     1
1071
       94
1005
0
  0
LINE
  5
D7
330
2
100
AcDbEntity
  8
图框
370
    -3
100
AcDbLine
 10
809.6117562072034
 20
189.8851419931149
 30
0.0
 11
831.2704530759853
 21
189.8851419931149
 31
0.0
1001
AcDbBlockRepETag
1070
     1
1071
       95
1005
0
  0
LINE
  5
D8
330
2
100
AcDbEntity
  8
图框
370
    -3
100
AcDbLine
 10
831.2704530759853
 20
209.6003784961451
 30
0.0
 11
831.2704530759853
 21
185.9420946925077
 31
0.0
1001
AcDbBlockRepETag
1070
     1
1071
       96
1005
0
  0
MTEXT
  5
D9
330
2
100
AcDbEntity
  8
图框
100
AcDbMText
 10
812.3167567832302
 20
206.643093020691
 30
0.0
 40
1.126424085072303
 41
5.410001152054665
 46
5.914570950908537
 71
     5
 72
     5
  1
表面处理\P{\Fromans|c134;Finish}
 73
     1
 44
1.0
1001
AcDbBlockRepETag
1070
     1
1071
       97
1005
0
1001
ACAD
1000
ACAD_MTEXT_DEFINED_HEIGHT_BEGIN
1070
    46
1040
5.914570950908537
1000
ACAD_MTEXT_DEFINED_HEIGHT_END
  0
MTEXT
  5
DA
330
2
100
AcDbEntity
  8
图框
100
AcDbMText
 10
812.3167567832302
 20
200.7285220697813
 30
0.0
 40
1.126424085072303
 41
5.410001152054665
 46
5.914570950910593
 71
     5
 72
     5
  1
材料\P{\Fromans|c134;Material}
 73
     1
 44
1.0
1001
AcDbBlockRepETag
1070
     1
1071
       98
1005
0
1001
ACAD
1000
ACAD_MTEXT_DEFINED_HEIGHT_BEGIN
1070
    46
1040
5.914570950910593
1000
ACAD_MTEXT_DEFINED_HEIGHT_END
  0
LINE
  5
DB
330
2
100
AcDbEntity
  8
图框
370
    -3
100
AcDbLine
 10
831.2704530759853
 20
205.0718948226244
 30
0.0
 11
854.7490237791988
 21
205.0718948226244
 31
0.0
1001
AcDbBlockRepETag
1070
     1
1071
       99
1005
0
  0
LINE
  5
DC
330
2
100
AcDbEntity
  8
图框
370
    -3
100
AcDbLine
 10
831.2704530759853
 20
200.7285220697814
 30
0.0
 11
854.7490237791988
 21
200.7285220697813
 31
0.0
1001
AcDbBlockRepETag
1070
     1
1071
      100
1005
0
  0
MTEXT
  5
DD
330
2
100
AcDbEntity
  8
图框
100
AcDbMText
 10
834.6066404294866
 20
202.900208446203
 30
0.0
 40
0.979499204410699
 41
6.672374707002862
 46
4.343372752842904
 71
     5
 72
     5
  1
产品代号\P{\Fromans|c134;Part Code}
 73
     1
 44
1.0
1001
AcDbBlockRepETag
1070
     1
1071
      101
1005
0
1001
ACAD
1000
ACAD_MTEXT_DEFINED_HEIGHT_BEGIN
1070
    46
1040
4.343372752842904
1000
ACAD_MTEXT_DEFINED_HEIGHT_END
  0
LINE
  5
DE
330
2
100
AcDbEntity
  8
图框
370
    -3
100
AcDbLine
 10
764.7490237791989
 20
206.83490789032
 30
0.0
 11
809.6117562072034
 21
206.83490789032
 31
0.0
1001
AcDbBlockRepETag
1070
     1
1071
      102
1005
0
  0
LINE
  5
DF
330
2
100
AcDbEntity
  8
图框
370
    -3
100
AcDbLine
 10
764.7490237791989
 20
204.0694372844974
 30
0.0
 11
809.6117562072034
 21
204.0694372844974
 31
0.0
1001
AcDbBlockRepETag
1070
     1
1071
      103
1005
0
  0
LINE
  5
E0
330
2
100
AcDbEntity
  8
图框
370
    35
100
AcDbLine
 10
764.7490237791989
 20
209.6003784961451
 30
0.0
 11
854.7490237791988
 21
209.6003784961451
 31
0.0
1001
AcDbBlockRepETag
1070
     1
1071
      104
1005
0
  0
LINE
  5
E1
330
2
100
AcDbEntity
  8
图框
370
    -3
100
AcDbLine
 10
786.6211531168635
 20
198.5384960728473
 30
0.0
 11
786.6211531168635
 21
185.9531793238252
 31
0.0
1001
AcDbBlockRepETag
1070
     1
1071
      105
1005
0
  0
MTEXT
  5
E2
102
{ACAD_XDICTIONARY
360
3D8
102
}
330
2
100
AcDbEntity
  8
图框
100
AcDbMText
 10
789.8661809565786
 20
193.8440896831103
 30
0.0
 40
1.126424085072303
 41
6.490055679430255
 46
3.096154404962375
 71
     5
 72
     5
  1
{\fSimSun|b0|i0|c134|p2;标准化}\PStand.
  7
Romans字体
 73
     1
 44
1.0
1001
AcDbBlockRepETag
1070
     1
1071
      106
1005
0
1001
ACAD
1000
ACAD_MTEXT_DEFINED_HEIGHT_BEGIN
1070
    46
1040
3.096154404962375
1000
ACAD_MTEXT_DEFINED_HEIGHT_END
  0
LINE
  5
E3
330
2
100
AcDbEntity
  8
图框
370
    -3
100
AcDbLine
 10
778.9899611644182
 20
198.5384960728473
 30
0.0
 11
778.9899611644182
 21
185.9531793238252
 31
0.0
1001
AcDbBlockRepETag
1070
     1
1071
      107
1005
0
  0
MTEXT
  5
E4
330
2
100
AcDbEntity
  8
图框
100
AcDbMText
 10
783.5392339641201
 20
199.9212313757595
 30
0.0
 40
1.224374005513376
 41
19.1439496643465
 46
2.765470605824416
 71
     5
 72
     5
  1
  变更描述{\Fromans|c134;/Description}
 73
     1
 44
1.0
1001
AcDbBlockRepETag
1070
     1
1071
      108
1005
0
1001
ACAD
1000
ACAD_MTEXT_DEFINED_HEIGHT_BEGIN
1070
    46
1040
2.765470605824416
1000
ACAD_MTEXT_DEFINED_HEIGHT_END
  0
MTEXT
  5
E5
102
{ACAD_XDICTIONARY
360
3DA
102
}
330
2
100
AcDbEntity
  8
图框
100
AcDbMText
 10
797.5178154986306
 20
199.9212313757595
 30
0.0
 40
0.979499204410699
 41
8.813213404673449
 46
2.765470605824412
 71
     5
 72
     5
  1
{\fSimSun|b0|i0|c134|p2;签名\P\Fromans|c134;Signature} 
 73
     1
 44
1.0
1001
AcDbBlockRepETag
1070
     1
1071
      109
1005
0
1001
ACAD
1000
ACAD_MTEXT_DEFINED_HEIGHT_BEGIN
1070
    46
1040
2.765470605824412
1000
ACAD_MTEXT_DEFINED_HEIGHT_END
  0
MTEXT
  5
E6
102
{ACAD_XDICTIONARY
360
3DC
102
}
330
2
100
AcDbEntity
  8
图框
100
AcDbMText
 10
771.6627002937597
 20
199.9212313757595
 30
0.0
 40
0.979499204410699
 41
4.609117676374641
 46
2.76547060582442
 71
     5
 72
     5
  1
{\fSimSun|b0|i0|c134|p2;处数\P\Fromans|c134;Number }
 73
     1
 44
1.0
1001
AcDbBlockRepETag
1070
     1
1071
      110
1005
0
1001
ACAD
1000
ACAD_MTEXT_DEFINED_HEIGHT_BEGIN
1070
    46
1040
2.76547060582442
1000
ACAD_MTEXT_DEFINED_HEIGHT_END
  0
LINE
  5
E7
330
2
100
AcDbEntity
  8
图框
370
    -3
100
AcDbLine
 10
764.7490237791989
 20
201.3039666786718
 30
0.0
 11
809.6117562072034
 21
201.3039666786718
 31
0.0
1001
AcDbBlockRepETag
1070
     1
1071
      111
1005
0
  0
LINE
  5
E8
330
2
100
AcDbEntity
  8
图框
370
    -3
100
AcDbLine
 10
764.7490237791989
 20
198.5384960728473
 30
0.0
 11
809.6117562072034
 21
198.5384960728473
 31
0.0
1001
AcDbBlockRepETag
1070
     1
1071
      112
1005
0
  0
LINE
  5
E9
330
2
100
AcDbEntity
  8
图框
370
    -3
100
AcDbLine
 10
764.7490237791989
 20
195.3921668855918
 30
0.0
 11
809.6117562072034
 21
195.3921668855918
 31
0.0
1001
AcDbBlockRepETag
1070
     1
1071
      113
1005
0
  0
LINE
  5
EA
330
2
100
AcDbEntity
  8
图框
370
    -3
100
AcDbLine
 10
764.7490237791989
 20
192.2458376983358
 30
0.0
 11
809.6117562072034
 21
192.2458376983358
 31
0.0
1001
AcDbBlockRepETag
1070
     1
1071
      114
1005
0
  0
LINE
  5
EB
330
2
100
AcDbEntity
  8
图框
370
    35
380
     1
100
AcDbLine
 10
764.7490237791989
 20
209.6003784961451
 30
0.0
 11
764.7490237791989
 21
185.9531793238252
 31
0.0
1001
AcDbBlockRepETag
1070
     1
1071
      115
1005
0
  0
LINE
  5
EC
330
2
100
AcDbEntity
  8
图框
370
    -3
100
AcDbLine
 10
801.9355908807167
 20
209.6003784961451
 30
0.0
 11
801.9355908807167
 21
185.9531793238252
 31
0.0
1001
AcDbBlockRepETag
1070
     1
1071
      116
1005
0
  0
LINE
  5
ED
330
2
100
AcDbEntity
  8
图框
370
    -3
100
AcDbLine
 10
793.1112087962937
 20
209.6003784961451
 30
0.0
 11
793.1112087962937
 21
185.9531793238252
 31
0.0
1001
AcDbBlockRepETag
1070
     1
1071
      117
1005
0
  0
LINE
  5
EE
330
2
100
AcDbEntity
  8
图框
370
    -3
100
AcDbLine
 10
773.9672591319473
 20
209.6003784961451
 30
0.0
 11
773.9672591319473
 21
198.5384960728473
 31
0.0
1001
AcDbBlockRepETag
1070
     1
1071
      118
1005
0
  0
LINE
  5
EF
330
2
100
AcDbEntity
  8
图框
370
    -3
100
AcDbLine
 10
769.3581414555722
 20
209.6003784961451
 30
0.0
 11
769.3581414555722
 21
198.5384960728473
 31
0.0
1001
AcDbBlockRepETag
1070
     1
1071
      119
1005
0
  0
MTEXT
  5
F0
102
{ACAD_XDICTIONARY
360
3DE
102
}
330
2
100
AcDbEntity
  8
图框
100
AcDbMText
 10
767.0535826173855
 20
199.9212313757595
 30
0.0
 40
0.979499204410699
 41
4.609117676373846
 46
2.765470605824416
 71
     5
 72
     5
  1
{\fSimSun|b0|i0|c134|p2;标记\P\Fromans|c134;Mark}
 73
     1
 44
1.0
1001
AcDbBlockRepETag
1070
     1
1071
      120
1005
0
1001
ACAD
1000
ACAD_MTEXT_DEFINED_HEIGHT_BEGIN
1070
    46
1040
2.765470605824416
1000
ACAD_MTEXT_DEFINED_HEIGHT_END
  0
MTEXT
  5
F1
102
{ACAD_XDICTIONARY
360
3E0
102
}
330
2
100
AcDbEntity
  8
图框
100
AcDbMText
 10
767.9940516189137
 20
190.6726731047084
 30
0.0
 40
1.126424085072303
 41
6.4900556794302
 46
3.146329187255191
 71
     5
 72
     5
  1
{\fSimSun|b0|i0|c134|p2;审核\P\Fromans|c134;Checked}
 73
     1
 44
1.0
1001
AcDbBlockRepETag
1070
     1
1071
      121
1005
0
1001
ACAD
1000
ACAD_MTEXT_DEFINED_HEIGHT_BEGIN
1070
    46
1040
3.146329187255191
1000
ACAD_MTEXT_DEFINED_HEIGHT_END
  0
MTEXT
  5
F2
102
{ACAD_XDICTIONARY
360
3E2
102
}
330
2
100
AcDbEntity
  8
图框
100
AcDbMText
 10
767.9940516189137
 20
193.8745764625882
 30
0.0
 40
1.126424085072303
 41
6.4900556794302
 46
3.035180846007091
 71
     5
 72
     5
  1
{\fSimSun|b0|i0|c134|p2;绘图\P\Fromans|c134;Drawn\Ftxt|c134; }
 73
     1
 44
1.0
1001
AcDbBlockRepETag
1070
     1
1071
      122
1005
0
1001
ACAD
1000
ACAD_MTEXT_DEFINED_HEIGHT_BEGIN
1070
    46
1040
3.035180846007091
1000
ACAD_MTEXT_DEFINED_HEIGHT_END
  0
ARC
  5
F3
330
2
100
AcDbEntity
  8
图框
 62
     4
370
    35
100
AcDbCircle
 10
834.7350859827272
 20
188.9447919013091
 30
0.0
 40
2.031655204196832
100
AcDbArc
 50
18.95237904564853
 51
161.0476209543514
1001
AcDbBlockRepETag
1070
     1
1071
      123
1005
0
  0
ARC
  5
F4
330
2
100
AcDbEntity
  8
图框
 62
     4
370
    35
100
AcDbCircle
 10
834.7350859827272
 20
188.9447919013091
 30
0.0
 40
2.031655204196832
100
AcDbArc
 50
198.9523790456485
 51
341.0476209543514
1001
AcDbBlockRepETag
1070
     1
1071
      124
1005
0
  0
LINE
  5
F5
330
2
100
AcDbEntity
  8
图框
 62
     4
370
    35
100
AcDbLine
 10
832.8135691587911
 20
188.2849464920869
 30
0.0
 11
836.6566028066621
 21
188.2849464920869
 31
0.0
1001
AcDbBlockRepETag
1070
     1
1071
      125
1005
0
  0
LINE
  5
F6
330
2
100
AcDbEntity
  8
图框
 62
     4
370
    35
100
AcDbLine
 10
832.8135691587911
 20
189.6046373105319
 30
0.0
 11
836.6566028066621
 21
189.6046373105319
 31
0.0
1001
AcDbBlockRepETag
1070
     1
1071
      126
1005
0
  0
MTEXT
  5
F7
330
2
100
AcDbEntity
  8
图框
 62
     1
370
    20
100
AcDbMText
 10
832.8020639138516
 20
189.4611090978337
 30
0.0
 40
1.002965022019167
 41
2.523620009667423
 46
0.0
 71
     1
 72
     5
  1
{\fArial|b0|i0|c0|p34;W}
  7
Chinese
 73
     1
 44
1.0
1001
AcDbBlockRepETag
1070
     1
1071
      127
1005
0
  0
LINE
  5
F8
330
2
100
AcDbEntity
  8
图框
370
    -3
100
AcDbLine
 10
764.7490237791989
 20
189.0995085110809
 30
0.0
 11
809.6117562072034
 21
189.0995085110809
 31
0.0
1001
AcDbBlockRepETag
1070
     1
1071
      128
1005
0
  0
LINE
  5
F9
330
2
100
AcDbEntity
  8
图框
370
    -3
100
AcDbLine
 10
771.2390794586291
 20
198.5384960728473
 30
0.0
 11
771.2390794586291
 21
185.9531793238252
 31
0.0
1001
AcDbBlockRepETag
1070
     1
1071
      129
1005
0
  0
MTEXT
  5
FA
330
2
100
AcDbEntity
  8
图框
100
AcDbMText
 10
775.1145203115236
 20
196.9653314792194
 30
0.0
 40
1.126424085072303
 41
7.750881705789343
 46
3.146329187255623
 71
     5
 72
     5
  1
姓名{\Fromans|c134;/Name\Ftxt|c134; }
 73
     1
 44
1.0
1001
AcDbBlockRepETag
1070
     1
1071
      130
1005
0
1001
ACAD
1000
ACAD_MTEXT_DEFINED_HEIGHT_BEGIN
1070
    46
1040
3.146329187255623
1000
ACAD_MTEXT_DEFINED_HEIGHT_END
  0
MTEXT
  5
FB
330
2
100
AcDbEntity
  8
图框
100
AcDbMText
 10
782.8055571406411
 20
196.9653314792194
 30
0.0
 40
1.126424085072303
 41
7.63119195244521
 46
3.1463291872556
 71
     5
 72
     5
  1
日期{\Fromans|c134;/Date}
 73
     1
 44
1.0
1001
AcDbBlockRepETag
1070
     1
1071
      131
1005
0
1001
ACAD
1000
ACAD_MTEXT_DEFINED_HEIGHT_BEGIN
1070
    46
1040
3.1463291872556
1000
ACAD_MTEXT_DEFINED_HEIGHT_END
  0
LINE
  5
FC
330
2
100
AcDbEntity
  8
图框
370
    -3
100
AcDbLine
 10
764.7490237791989
 20
198.5384960728473
 30
0.0
 11
771.2390794586291
 21
195.3921668855918
 31
0.0
1001
AcDbBlockRepETag
1070
     1
1071
      132
1005
0
  0
MTEXT
  5
FD
330
2
100
AcDbEntity
  8
图框
100
AcDbMText
 10
797.7504750290599
 20
196.9450804857856
 30
0.0
 40
1.126424085072303
 41
8.467461105317829
 46
0.0
 71
     5
 72
     5
  1
姓名{\Fromans|c134;/Name}
 73
     1
 44
1.0
1001
AcDbBlockRepETag
1070
     1
1071
      133
1005
0
  0
MTEXT
  5
FE
330
2
100
AcDbEntity
  8
图框
100
AcDbMText
 10
805.7736735439602
 20
196.9653314792194
 30
0.0
 40
1.126424085072303
 41
7.676165326486412
 46
3.146329187255628
 71
     5
 72
     5
  1
日期{\Fromans|c134;/Date}
 73
     1
 44
1.0
1001
AcDbBlockRepETag
1070
     1
1071
      134
1005
0
1001
ACAD
1000
ACAD_MTEXT_DEFINED_HEIGHT_BEGIN
1070
    46
1040
3.146329187255628
1000
ACAD_MTEXT_DEFINED_HEIGHT_END
  0
LINE
  5
FF
330
2
100
AcDbEntity
  8
图框
370
    -3
100
AcDbLine
 10
793.1112087962937
 20
195.3921668855918
 30
0.0
 11
786.6211531168635
 21
198.5384960728473
 31
0.0
1001
AcDbBlockRepETag
1070
     1
1071
      135
1005
0
  0
MTEXT
  5
100
102
{ACAD_XDICTIONARY
360
3E4
102
}
330
2
100
AcDbEntity
  8
图框
100
AcDbMText
 10
789.8661809565786
 20
187.5263439174528
 30
0.0
 40
1.126424085072303
 41
6.490055679430255
 46
3.146329187255758
 71
     5
 72
     5
  1
{\fSimSun|b0|i0|c134|p2;批准\P\Fromans|c134;Approved}
 73
     1
 44
1.0
1001
AcDbBlockRepETag
1070
     1
1071
      136
1005
0
1001
ACAD
1000
ACAD_MTEXT_DEFINED_HEIGHT_BEGIN
1070
    46
1040
3.146329187255758
1000
ACAD_MTEXT_DEFINED_HEIGHT_END
  0
MTEXT
  5
101
102
{ACAD_XDICTIONARY
360
3E6
102
}
330
2
100
AcDbEntity
  8
图框
100
AcDbMText
 10
767.9940516189137
 20
187.5263439174528
 30
0.0
 40
1.126424085072303
 41
6.4900556794302
 46
3.146329187255747
 71
     5
 72
     5
  1
{\fSimSun|b0|i0|c134|p2;工艺\P\Fromans|c134;Process}
 73
     1
 44
1.0
1001
AcDbBlockRepETag
1070
     1
1071
      137
1005
0
1001
ACAD
1000
ACAD_MTEXT_DEFINED_HEIGHT_BEGIN
1070
    46
1040
3.146329187255747
1000
ACAD_MTEXT_DEFINED_HEIGHT_END
  0
MTEXT
  5
102
102
{ACAD_XDICTIONARY
360
3E8
102
}
330
2
100
AcDbEntity
  8
图框
100
AcDbMText
 10
805.7736735439602
 20
199.8501929591326
 30
0.0
 40
0.979499204410699
 41
7.676165326486398
 46
2.623393772570334
 71
     5
 72
     5
  1
{\fSimSun|b0|i0|c134|p2;日期\P\Fromans|c134;Date}
 73
     1
 44
1.0
1001
AcDbBlockRepETag
1070
     1
1071
      138
1005
0
1001
ACAD
1000
ACAD_MTEXT_DEFINED_HEIGHT_BEGIN
1070
    46
1040
2.623393772570334
1000
ACAD_MTEXT_DEFINED_HEIGHT_END
  0
MTEXT
  5
103
330
2
100
AcDbEntity
  8
图框
100
AcDbMText
 10
834.6066404294866
 20
198.5104831827898
 30
0.0
 40
1.077449124851771
 41
6.672374707002862
 46
4.436077773983075
 71
     5
 72
     5
  1
产品料号\P{\Fromans|c134;Part No.}
 73
     1
 44
1.0
1001
AcDbBlockRepETag
1070
     1
1071
      139
1005
0
1001
ACAD
1000
ACAD_MTEXT_DEFINED_HEIGHT_BEGIN
1070
    46
1040
4.436077773983075
1000
ACAD_MTEXT_DEFINED_HEIGHT_END
  0
MTEXT
  5
104
330
2
100
AcDbEntity
  8
图框
100
AcDbMText
 10
834.6066404294866
 20
194.0745549696075
 30
0.0
 40
0.979499204410699
 41
6.672374707002862
 46
4.435778652381658
 71
     5
 72
     5
  1
产品名称\P{\Fromans|c134;Part Name}
 73
     1
 44
1.0
1001
AcDbBlockRepETag
1070
     1
1071
      140
1005
0
1001
ACAD
1000
ACAD_MTEXT_DEFINED_HEIGHT_BEGIN
1070
    46
1040
4.435778652381658
1000
ACAD_MTEXT_DEFINED_HEIGHT_END
  0
LINE
  5
105
330
2
100
AcDbEntity
  8
图框
 62
     1
370
    18
100
AcDbLine
 10
707.9911983967853
 20
289.2031793238252
 30
0.0
 11
707.9911983967853
 21
184.2031793238252
 31
0.0
1001
AcDbBlockRepETag
1070
     1
1071
      141
1005
0
  0
LINE
  5
106
330
2
100
AcDbEntity
  8
图框
 62
     1
370
    18
100
AcDbLine
 10
707.9911983967853
 20
184.2031793238252
 30
0.0
 11
856.4905733646353
 21
184.2031793238252
 31
0.0
1001
AcDbBlockRepETag
1070
     1
1071
      142
1005
0
  0
LINE
  5
107
330
2
100
AcDbEntity
  8
图框
 62
     1
370
    18
100
AcDbLine
 10
707.9911983967853
 20
289.2031793238252
 30
0.0
 11
856.4905733646353
 21
289.2031793238252
 31
0.0
1001
AcDbBlockRepETag
1070
     1
1071
      143
1005
0
  0
LINE
  5
108
330
2
100
AcDbEntity
  8
图框
 62
     1
370
    18
100
AcDbLine
 10
856.4905733646353
 20
184.2031793238252
 30
0.0
 11
856.4905733646353
 21
289.2031793238252
 31
0.0
1001
AcDbBlockRepETag
1070
     1
1071
      144
1005
0
  0
LINE
  5
109
330
2
100
AcDbEntity
  8
图框
370
    18
100
AcDbLine
 10
709.7411983967868
 20
287.3308926118735
 30
0.0
 11
722.0523662009759
 21
287.3308926118735
 31
0.0
1001
AcDbBlockRepETag
1070
     1
1071
      145
1005
0
  0
LINE
  5
10A
330
2
100
AcDbEntity
  8
图框
370
    50
100
AcDbLine
 10
854.7490237791988
 20
186.1062974284032
 30
0.0
 11
854.7490237791988
 21
281.7031793238252
 31
0.0
1001
AcDbBlockRepETag
1070
     1
1071
      146
1005
0
  0
MTEXT
  5
10B
330
2
100
AcDbEntity
  8
图框
 62
     3
100
AcDbMText
 10
817.7337675329962
 20
191.8566656434176
 30
0.0
 40
1.492756787517073
 41
5.414674217195567
 46
3.94304730060565
 71
     5
 72
     5
  1
V1.1
  7
Romans字体
 73
     1
 44
1.0
1001
AcDbBlockRepETag
1070
     1
1071
      147
1005
0
1001
ACAD
1000
ACAD_MTEXT_DEFINED_HEIGHT_BEGIN
1070
    46
1040
3.94304730060565
1000
ACAD_MTEXT_DEFINED_HEIGHT_END
  0
LINE
  5
10C
330
2
100
AcDbEntity
  8
图框
370
    -3
100
AcDbLine
 10
730.9852136479677
 20
278.9988950930298
 30
0.0
 11
752.5236679907351
 21
278.9988950930298
 31
0.0
  0
LINE
  5
10D
330
2
100
AcDbEntity
  8
图框
370
    -3
100
AcDbLine
 10
709.7411983967861
 20
276.2944507193992
 30
0.0
 11
774.2657262236712
 21
276.2944507194009
 31
0.0
  0
LINE
  5
10E
330
2
100
AcDbEntity
  8
图框
370
    -3
100
AcDbLine
 10
709.7411983967861
 20
273.5900063457672
 30
0.0
 11
774.2657262236712
 21
273.5900063457672
 31
0.0
  0
MTEXT
  5
10F
330
2
100
AcDbEntity
  8
图框
100
AcDbMText
 10
745.6642202105008
 20
280.3511172799149
 30
0.0
 40
1.200004709114095
 41
13.71936813429339
 46
2.704444373770122
 71
     5
 72
     5
  1
{\f仿宋_GB2312|b0|i0|c134|p49;\C4;线径\Fromans|c134;/Wire Gauge}
  7
Romans字体
 73
     1
 44
1.0
1001
ACAD
1000
ACAD_MTEXT_DEFINED_HEIGHT_BEGIN
1070
    46
1040
2.704444373770122
1000
ACAD_MTEXT_DEFINED_HEIGHT_END
  0
LINE
  5
110
330
2
100
AcDbEntity
  8
图框
370
    -3
100
AcDbLine
 10
709.7411983967861
 20
270.885561972137
 30
0.0
 11
774.2657262236712
 21
270.8855619721367
 31
0.0
  0
MTEXT
  5
111
330
2
100
AcDbEntity
  8
图框
100
AcDbMText
 10
749.5737633127374
 20
277.6466028382964
 30
0.0
 40
1.200004709114095
 41
5.899809355995848
 46
2.704304237791748
 71
     5
 72
     5
  1
{\C4;AWG}
  7
Romans字体
 73
     1
 44
1.0
1001
ACAD
1000
ACAD_MTEXT_DEFINED_HEIGHT_BEGIN
1070
    46
1040
2.704304237791748
1000
ACAD_MTEXT_DEFINED_HEIGHT_END
  0
MTEXT
  5
112
330
2
100
AcDbEntity
  8
图框
100
AcDbMText
 10
742.7141973883798
 20
277.646672906215
 30
0.0
 40
1.200004709114095
 41
7.819322492718732
 46
2.704444373629514
 71
     5
 72
     5
  1
\A1;{\C4;mm\H0.7x;\S2^  ;}
  7
Romans字体
 73
     1
 44
1.0
1001
ACAD
1000
ACAD_MTEXT_DEFINED_HEIGHT_BEGIN
1070
    46
1040
2.704444373629514
1000
ACAD_MTEXT_DEFINED_HEIGHT_END
  0
MTEXT
  5
113
330
2
100
AcDbEntity
  8
图框
100
AcDbMText
 10
742.7141973890468
 20
272.2319146971134
 30
0.0
 40
1.200004709114095
 41
7.819322494052451
 46
2.704444373630458
 71
     5
 72
     5
  1
{\C4;0.50}
  7
Romans字体
 73
     1
 44
1.0
1001
ACAD
1000
ACAD_MTEXT_DEFINED_HEIGHT_BEGIN
1070
    46
1040
2.704444373630458
1000
ACAD_MTEXT_DEFINED_HEIGHT_END
  0
MTEXT
  5
114
330
2
100
AcDbEntity
  8
图框
100
AcDbMText
 10
749.573763314071
 20
272.2319146971133
 30
0.0
 40
1.200004709114095
 41
5.899809355996247
 46
2.704444373630328
 71
     5
 72
     5
  1
{\C4;20}
  7
Romans字体
 73
     1
 44
1.0
1001
ACAD
1000
ACAD_MTEXT_DEFINED_HEIGHT_BEGIN
1070
    46
1040
2.704444373630328
1000
ACAD_MTEXT_DEFINED_HEIGHT_END
  0
MTEXT
  5
115
330
2
100
AcDbEntity
  8
图框
100
AcDbMText
 10
724.9183796497846
 20
278.9988150216122
 30
0.0
 40
1.200004709114095
 41
12.13366799636653
 46
5.408728604425681
 71
     5
 72
     5
  1
{\f仿宋_GB2312|b0|i0|c134|p49;\C4;产品料号\Fromans|c134;\PPart NO.}
  7
Romans字体
 73
     1
 44
1.0
1001
ACAD
1000
ACAD_MTEXT_DEFINED_HEIGHT_BEGIN
1070
    46
1040
5.408728604425681
1000
ACAD_MTEXT_DEFINED_HEIGHT_END
  0
MTEXT
  5
116
330
2
100
AcDbEntity
  8
图框
100
AcDbMText
 10
754.9565717164647
 20
278.9988150216129
 30
0.0
 40
1.200004709114095
 41
4.86580745145943
 46
5.408728604424871
 71
     5
 72
     5
  1
{\C4;d}
  7
Romans字体
 73
     1
 44
1.0
1001
ACAD
1000
ACAD_MTEXT_DEFINED_HEIGHT_BEGIN
1070
    46
1040
5.408728604424871
1000
ACAD_MTEXT_DEFINED_HEIGHT_END
  0
MTEXT
  5
117
330
2
100
AcDbEntity
  8
图框
100
AcDbMText
 10
754.9565717164645
 20
272.2319146971127
 30
0.0
 40
1.200004709114095
 41
4.865807451458945
 46
2.704444373630395
 71
     5
 72
     5
  1
{\C4;1.15}
  7
Romans字体
 73
     1
 44
1.0
1001
ACAD
1000
ACAD_MTEXT_DEFINED_HEIGHT_BEGIN
1070
    46
1040
2.704444373630395
1000
ACAD_MTEXT_DEFINED_HEIGHT_END
  0
LINE
  5
118
330
2
100
AcDbEntity
  8
图框
370
    35
100
AcDbLine
 10
709.7411983967861
 20
262.7663593893972
 30
0.0
 11
774.2657262236712
 21
262.7663593893989
 31
0.0
  0
MTEXT
  5
119
330
2
100
AcDbEntity
  8
图框
100
AcDbMText
 10
759.8223791672571
 20
278.9988150216129
 30
0.0
 40
1.200004709114095
 41
4.865807450125148
 46
5.408728604424871
 71
     5
 72
     5
  1
{\C4;D}
  7
Romans字体
 73
     1
 44
1.0
1001
ACAD
1000
ACAD_MTEXT_DEFINED_HEIGHT_BEGIN
1070
    46
1040
5.408728604424871
1000
ACAD_MTEXT_DEFINED_HEIGHT_END
  0
MTEXT
  5
11A
330
2
100
AcDbEntity
  8
图框
100
AcDbMText
 10
759.8223791672569
 20
272.2319146971127
 30
0.0
 40
1.200004709114095
 41
4.865807450125021
 46
2.704444373630395
 71
     5
 72
     5
  1
{\C4;2.6}
  7
Romans字体
 73
     1
 44
1.0
1001
ACAD
1000
ACAD_MTEXT_DEFINED_HEIGHT_BEGIN
1070
    46
1040
2.704444373630395
1000
ACAD_MTEXT_DEFINED_HEIGHT_END
  0
MTEXT
  5
11B
330
2
100
AcDbEntity
  8
图框
100
AcDbMText
 10
759.8223791672569
 20
261.405333009823
 30
0.0
 40
1.200004709114095
 41
4.865807450125076
 46
2.710313835473184
 71
     5
 72
     5
  1
{\C4;3.2}
  7
Romans字体
 73
     1
 44
1.0
1001
ACAD
1000
ACAD_MTEXT_DEFINED_HEIGHT_BEGIN
1070
    46
1040
2.710313835473184
1000
ACAD_MTEXT_DEFINED_HEIGHT_END
  0
LINE
  5
11C
330
2
100
AcDbEntity
  8
图框
370
    -3
100
AcDbLine
 10
709.7411983967861
 20
260.0560455539254
 30
0.0
 11
774.2657262236712
 21
260.0560455539254
 31
0.0
  0
MTEXT
  5
11D
330
2
100
AcDbEntity
  8
图框
100
AcDbMText
 10
749.573763314071
 20
261.4053330098233
 30
0.0
 40
1.200004709114095
 41
5.899809355997454
 46
2.710313835473137
 71
     5
 72
     5
  1
{\C4;14}
  7
Romans字体
 73
     1
 44
1.0
1001
ACAD
1000
ACAD_MTEXT_DEFINED_HEIGHT_BEGIN
1070
    46
1040
2.710313835473137
1000
ACAD_MTEXT_DEFINED_HEIGHT_END
  0
MTEXT
  5
11E
330
2
100
AcDbEntity
  8
图框
100
AcDbMText
 10
742.7141973890464
 20
261.4053330098232
 30
0.0
 40
1.200004709114095
 41
7.819322494052181
 46
2.710313835472669
 71
     5
 72
     5
  1
{\C4;2.5}
  7
Romans字体
 73
     1
 44
1.0
1001
ACAD
1000
ACAD_MTEXT_DEFINED_HEIGHT_BEGIN
1070
    46
1040
2.710313835472669
1000
ACAD_MTEXT_DEFINED_HEIGHT_END
  0
MTEXT
  5
11F
330
2
100
AcDbEntity
  8
图框
100
AcDbMText
 10
754.9565717164653
 20
261.405333009823
 30
0.0
 40
1.200004709114095
 41
4.865807451457888
 46
2.710313835473069
 71
     5
 72
     5
  1
{\C4;2.25}
  7
Romans字体
 73
     1
 44
1.0
1001
ACAD
1000
ACAD_MTEXT_DEFINED_HEIGHT_BEGIN
1070
    46
1040
2.710313835473069
1000
ACAD_MTEXT_DEFINED_HEIGHT_END
  0
LINE
  5
120
330
2
100
AcDbEntity
  8
图框
370
    35
380
     1
100
AcDbLine
 10
757.3894754421941
 20
281.7033394667998
 30
0.0
 11
757.3894754421941
 21
260.0560455539254
 31
0.0
  0
LINE
  5
121
330
2
100
AcDbEntity
  8
图框
370
    -3
100
AcDbLine
 10
752.5236679920682
 20
281.7033394667998
 30
0.0
 11
752.5236679920705
 21
260.0560455539254
 31
0.0
  0
LINE
  5
122
330
2
100
AcDbEntity
  8
图框
370
    -3
100
AcDbLine
 10
746.6238586360733
 20
278.9989151001667
 30
0.0
 11
746.6238586360726
 21
260.0560455539254
 31
0.0
  0
LINE
  5
123
330
2
100
AcDbEntity
  8
图框
370
    -3
100
AcDbLine
 10
718.851545652935
 20
260.0560455539254
 30
0.0
 11
718.851545652935
 21
278.9989151001652
 31
0.0
  0
LINE
  5
124
330
2
100
AcDbEntity
  8
图框
370
    -3
100
AcDbLine
 10
730.9852136493012
 20
260.0560455539254
 30
0.0
 11
730.9852136493016
 21
281.7033394667995
 31
0.0
  0
MTEXT
  5
125
330
2
100
AcDbEntity
  8
图框
100
AcDbMText
 10
742.7141973897136
 20
269.527470323483
 30
0.0
 40
1.19999583169232
 41
7.819322492718757
 46
2.704444373630559
 71
     5
 72
     5
  1
{\C4;0.75}
  7
Romans字体
 73
     1
 44
1.0
1001
ACAD
1000
ACAD_MTEXT_DEFINED_HEIGHT_BEGIN
1070
    46
1040
2.704444373630559
1000
ACAD_MTEXT_DEFINED_HEIGHT_END
  0
MTEXT
  5
126
330
2
100
AcDbEntity
  8
图框
100
AcDbMText
 10
749.573763314071
 20
269.5274703234829
 30
0.0
 40
1.19999583169232
 41
5.899809355996548
 46
2.704444373630423
 71
     5
 72
     5
  1
{\C4;18}
  7
Romans字体
 73
     1
 44
1.0
1001
ACAD
1000
ACAD_MTEXT_DEFINED_HEIGHT_BEGIN
1070
    46
1040
2.704444373630423
1000
ACAD_MTEXT_DEFINED_HEIGHT_END
  0
MTEXT
  5
127
330
2
100
AcDbEntity
  8
图框
100
AcDbMText
 10
754.9565717171315
 20
269.5274703234826
 30
0.0
 40
1.19999583169232
 41
4.865807450125251
 46
2.704444373630491
 71
     5
 72
     5
  1
{\C4;1.30}
  7
Romans字体
 73
     1
 44
1.0
1001
ACAD
1000
ACAD_MTEXT_DEFINED_HEIGHT_BEGIN
1070
    46
1040
2.704444373630491
1000
ACAD_MTEXT_DEFINED_HEIGHT_END
  0
MTEXT
  5
128
330
2
100
AcDbEntity
  8
图框
100
AcDbMText
 10
742.7141973897136
 20
266.8186739036031
 30
0.0
 40
1.19999583169232
 41
7.819322492718757
 46
2.695740281131214
 71
     5
 72
     5
  1
{\C4;1.0}
  7
Romans字体
 73
     1
 44
1.0
1001
ACAD
1000
ACAD_MTEXT_DEFINED_HEIGHT_BEGIN
1070
    46
1040
2.695740281131214
1000
ACAD_MTEXT_DEFINED_HEIGHT_END
  0
MTEXT
  5
129
330
2
100
AcDbEntity
  8
图框
100
AcDbMText
 10
742.7141973890464
 20
264.1156468452986
 30
0.0
 40
1.19999583169232
 41
7.819322494052218
 46
2.710313835477585
 71
     5
 72
     5
  1
{\C4;1.5}
  7
Romans字体
 73
     1
 44
1.0
1001
ACAD
1000
ACAD_MTEXT_DEFINED_HEIGHT_BEGIN
1070
    46
1040
2.710313835477585
1000
ACAD_MTEXT_DEFINED_HEIGHT_END
  0
MTEXT
  5
12A
330
2
100
AcDbEntity
  8
图框
100
AcDbMText
 10
749.5737633134045
 20
266.8185938321157
 30
0.0
 40
1.19999583169232
 41
5.899809354663361
 46
2.695580138156738
 71
     5
 72
     5
  1
{\C4;18}
  7
Romans字体
 73
     1
 44
1.0
1001
ACAD
1000
ACAD_MTEXT_DEFINED_HEIGHT_BEGIN
1070
    46
1040
2.695580138156738
1000
ACAD_MTEXT_DEFINED_HEIGHT_END
  0
MTEXT
  5
12B
330
2
100
AcDbEntity
  8
图框
100
AcDbMText
 10
749.573763314071
 20
264.1156468452983
 30
0.0
 40
1.19999583169232
 41
5.899809355997221
 46
2.710313835477518
 71
     5
 72
     5
  1
{\C4;16}
  7
Romans字体
 73
     1
 44
1.0
1001
ACAD
1000
ACAD_MTEXT_DEFINED_HEIGHT_BEGIN
1070
    46
1040
2.710313835477518
1000
ACAD_MTEXT_DEFINED_HEIGHT_END
  0
MTEXT
  5
12C
330
2
100
AcDbEntity
  8
图框
100
AcDbMText
 10
759.8223791672569
 20
269.5274703234825
 30
0.0
 40
1.19999583169232
 41
4.865807450125076
 46
2.704444373630188
 71
     5
 72
     5
  1
{\C4;2.6}
  7
Romans字体
 73
     1
 44
1.0
1001
ACAD
1000
ACAD_MTEXT_DEFINED_HEIGHT_BEGIN
1070
    46
1040
2.704444373630188
1000
ACAD_MTEXT_DEFINED_HEIGHT_END
  0
MTEXT
  5
12D
330
2
100
AcDbEntity
  8
图框
100
AcDbMText
 10
754.9565717164653
 20
266.823025949852
 30
0.0
 40
1.19999583169232
 41
4.865807451458461
 46
2.704444373630491
 71
     5
 72
     5
  1
{\C4;1.45}
  7
Romans字体
 73
     1
 44
1.0
1001
ACAD
1000
ACAD_MTEXT_DEFINED_HEIGHT_BEGIN
1070
    46
1040
2.704444373630491
1000
ACAD_MTEXT_DEFINED_HEIGHT_END
  0
MTEXT
  5
12E
330
2
100
AcDbEntity
  8
图框
100
AcDbMText
 10
754.9565717164653
 20
264.1156468452982
 30
0.0
 40
1.19999583169232
 41
4.865807451458196
 46
2.710313835477184
 71
     5
 72
     5
  1
{\C4;1.75}
  7
Romans字体
 73
     1
 44
1.0
1001
ACAD
1000
ACAD_MTEXT_DEFINED_HEIGHT_BEGIN
1070
    46
1040
2.710313835477184
1000
ACAD_MTEXT_DEFINED_HEIGHT_END
  0
MTEXT
  5
12F
330
2
100
AcDbEntity
  8
图框
100
AcDbMText
 10
759.8223791672569
 20
266.8230259498522
 30
0.0
 40
1.19999583169232
 41
4.865807450125188
 46
2.704444373630594
 71
     5
 72
     5
  1
{\C4;2.6}
  7
Romans字体
 73
     1
 44
1.0
1001
ACAD
1000
ACAD_MTEXT_DEFINED_HEIGHT_BEGIN
1070
    46
1040
2.704444373630594
1000
ACAD_MTEXT_DEFINED_HEIGHT_END
  0
MTEXT
  5
130
330
2
100
AcDbEntity
  8
图框
100
AcDbMText
 10
759.8223791672566
 20
264.1156468452984
 30
0.0
 40
1.19999583169232
 41
4.865807450125188
 46
2.71031383547714
 71
     5
 72
     5
  1
{\C4;3.0}
  7
Romans字体
 73
     1
 44
1.0
1001
ACAD
1000
ACAD_MTEXT_DEFINED_HEIGHT_BEGIN
1070
    46
1040
2.71031383547714
1000
ACAD_MTEXT_DEFINED_HEIGHT_END
  0
LINE
  5
131
330
2
100
AcDbEntity
  8
图框
370
    -3
100
AcDbLine
 10
752.5236679907351
 20
281.7031793238253
 30
0.0
 11
752.5236679907365
 21
260.0560455539254
 31
0.0
  0
LINE
  5
132
330
2
100
AcDbEntity
  8
图框
370
    -3
100
AcDbLine
 10
746.6238586347392
 20
278.998754957192
 30
0.0
 11
746.6238586347389
 21
260.0560455539254
 31
0.0
  0
LINE
  5
133
330
2
100
AcDbEntity
  8
图框
370
    -3
100
AcDbLine
 10
718.8515456516014
 20
260.0560455539254
 30
0.0
 11
718.8515456516014
 21
281.7031793238252
 31
0.0
  0
LINE
  5
134
330
2
100
AcDbEntity
  8
图框
370
    -3
100
AcDbLine
 10
730.9852136479677
 20
260.0560455539254
 30
0.0
 11
730.9852136479677
 21
281.7031793238252
 31
0.0
  0
LINE
  5
135
330
2
100
AcDbEntity
  8
图框
370
    -3
100
AcDbLine
 10
709.7411983967861
 20
268.1811175985065
 30
0.0
 11
774.2657262236712
 21
268.1811175985061
 31
0.0
  0
LINE
  5
136
330
2
100
AcDbEntity
  8
图框
370
    -3
100
AcDbLine
 10
709.7411983967861
 20
265.476673224876
 30
0.0
 11
774.2657262236712
 21
265.4766732248756
 31
0.0
  0
MTEXT
  5
137
102
{ACAD_XDICTIONARY
360
3CE
102
}
330
2
100
AcDbEntity
  8
图框 @ 1
100
AcDbMText
 10
714.2963720241941
 20
278.9989050965973
 30
0.0
 40
1.200004709114095
 41
9.110347254814612
 46
5.408548454455798
 71
     5
 72
     5
  1
{\f仿宋_GB2312|b0|i0|c134|p49;\C4;产品代号\fFangSong_GB2312|b0|i0|c134|p49;\P\Fromans|c134;Part Code}
  7
Romans字体
 73
     1
 44
1.0
1001
AcadAnnotative
1000
AnnotativeData
1002
{
1070
     1
1070
     0
1002
}
1001
ACAD
1000
ACAD_MTEXT_DEFINED_HEIGHT_BEGIN
1070
    46
1040
5.408548454455798
1000
ACAD_MTEXT_DEFINED_HEIGHT_END
  0
MTEXT
  5
138
330
2
100
AcDbEntity
  8
图框
100
AcDbMText
 10
734.894874895661
 20
280.3510372084275
 30
0.0
 40
1.200004709114095
 41
7.819322492718882
 46
2.704284230795455
 71
     5
 72
     5
  1
{\f仿宋_GB2312|b0|i0|c134|p49;\C4;重量\Fromans|c134;/Weight}
  7
Romans字体
 73
     1
 44
1.0
1001
ACAD
1000
ACAD_MTEXT_DEFINED_HEIGHT_BEGIN
1070
    46
1040
2.704284230795455
1000
ACAD_MTEXT_DEFINED_HEIGHT_END
  0
MTEXT
  5
139
330
2
100
AcDbEntity
  8
图框
100
AcDbMText
 10
734.894874895661
 20
277.6466729062148
 30
0.0
 40
1.200004709114095
 41
7.819322492718762
 46
2.704444373629943
 71
     5
 72
     5
  1
{\C4;g}
  7
Romans字体
 73
     1
 44
1.0
1001
ACAD
1000
ACAD_MTEXT_DEFINED_HEIGHT_BEGIN
1070
    46
1040
2.704444373629943
1000
ACAD_MTEXT_DEFINED_HEIGHT_END
  0
LINE
  5
13A
330
2
100
AcDbEntity
  8
图框
370
    -3
100
AcDbLine
 10
738.8045361420203
 20
281.7031793238252
 30
0.0
 11
738.8045361420198
 21
260.0560455539254
 31
0.0
  0
MTEXT
  5
13B
330
2
100
AcDbEntity
  8
图框
100
AcDbMText
 10
768.0839856382731
 20
278.9988150216129
 30
0.0
 40
1.200004709114095
 41
11.65740549190757
 46
5.408728604424518
 71
     5
 72
     5
  1
{\f仿宋_GB2312|b0|i0|c134|p49;\C4;剥线长度\Fromans|c134;\PStripping Length}
  7
Romans字体
 73
     1
 44
1.0
1001
ACAD
1000
ACAD_MTEXT_DEFINED_HEIGHT_BEGIN
1070
    46
1040
5.408728604424518
1000
ACAD_MTEXT_DEFINED_HEIGHT_END
  0
LINE
  5
13C
330
2
100
AcDbEntity
  8
图框
370
    35
380
     1
100
AcDbLine
 10
762.2552828923195
 20
281.7031793238253
 30
0.0
 11
762.2552828923195
 21
260.0560455539254
 31
0.0
  0
MTEXT
  5
13D
330
2
100
AcDbEntity
  8
图框
 62
     3
100
AcDbMText
 10
797.9677337179127
 20
187.6962421329428
 30
0.0
 40
1.492756787517073
 41
8.824382084423074
 46
3.146329187255727
 71
     5
 72
     5
  1
YY LUO
  7
Romans字体
 73
     1
 44
1.0
1001
AcDbBlockRepETag
1070
     1
1071
        2
1005
0
1001
ACAD
1000
ACAD_MTEXT_DEFINED_HEIGHT_BEGIN
1070
    46
1040
3.146329187255727
1000
ACAD_MTEXT_DEFINED_HEIGHT_END
  0
MTEXT
  5
13E
330
2
100
AcDbEntity
  8
图框
 62
     3
100
AcDbMText
 10
805.7357093352681
 20
187.6962421329433
 30
0.0
 40
1.243963989597562
 41
7.631191952445249
 46
3.146329187255521
 71
     5
 72
     5
  1
{\W0.7;30.01.2015}
  7
Romans字体
 73
     1
 44
1.0
1001
AcDbBlockRepETag
1070
     1
1071
        1
1005
0
1001
ACAD
1000
ACAD_MTEXT_DEFINED_HEIGHT_BEGIN
1070
    46
1040
3.146329187255521
1000
ACAD_MTEXT_DEFINED_HEIGHT_END
  0
MTEXT
  5
13F
102
{ACAD_XDICTIONARY
360
3EE
102
}
330
2
100
AcDbEntity
  8
图框
 62
     3
100
AcDbMText
 10
775.0035913751406
 20
193.903056836952
 30
0.0
 40
1.492756787517073
 41
7.75088170578932
 46
3.146329187255509
 71
     5
 72
     5
  1
TC CHEN
  7
Romans字体
 73
     1
 44
1.0
1001
AcDbBlockRepETag
1070
     1
1071
        0
1005
0
1001
ACAD
1000
ACAD_MTEXT_DEFINED_HEIGHT_BEGIN
1070
    46
1040
3.146329187255509
1000
ACAD_MTEXT_DEFINED_HEIGHT_END
  0
MTEXT
  5
140
330
2
100
AcDbEntity
  8
图框
 62
     3
100
AcDbMText
 10
782.6946282042572
 20
193.903056836952
 30
0.0
 40
1.243963989597562
 41
7.631191952445249
 46
3.146329187255521
 71
     5
 72
     5
  1
{\W0.7;30.01.2015}
  7
Romans字体
 73
     1
 44
1.0
1001
AcDbBlockRepETag
1070
     1
1071
        1
1005
0
1001
ACAD
1000
ACAD_MTEXT_DEFINED_HEIGHT_BEGIN
1070
    46
1040
3.146329187255521
1000
ACAD_MTEXT_DEFINED_HEIGHT_END
  0
MTEXT
  5
141
330
2
100
AcDbEntity
  8
图框
 62
     3
100
AcDbMText
 10
775.0035913751406
 20
190.7567276496964
 30
0.0
 40
1.492756787517073
 41
7.75088170578932
 46
3.146329187255166
 71
     5
 72
     5
  1
ZM LIN
  7
Romans字体
 73
     1
 44
1.0
1001
AcDbBlockRepETag
1070
     1
1071
        8
1005
0
1001
ACAD
1000
ACAD_MTEXT_DEFINED_HEIGHT_BEGIN
1070
    46
1040
3.146329187255166
1000
ACAD_MTEXT_DEFINED_HEIGHT_END
  0
MTEXT
  5
142
330
2
100
AcDbEntity
  8
图框
 62
     3
100
AcDbMText
 10
782.6946282042572
 20
190.756727649697
 30
0.0
 40
1.243963989597562
 41
7.631191952445249
 46
3.146329187255521
 71
     5
 72
     5
  1
{\W0.7;30.01.2015}
  7
Romans字体
 73
     1
 44
1.0
1001
AcDbBlockRepETag
1070
     1
1071
        1
1005
0
1001
ACAD
1000
ACAD_MTEXT_DEFINED_HEIGHT_BEGIN
1070
    46
1040
3.146329187255521
1000
ACAD_MTEXT_DEFINED_HEIGHT_END
  0
MTEXT
  5
143
330
2
100
AcDbEntity
  8
图框
100
AcDbMText
 10
768.083985638273
 20
274.9422285325877
 30
0.0
 40
1.200004709114095
 41
11.65740549190751
 46
2.70444437363364
 71
     5
 72
     5
  1
{\C4;8}
  7
Romans字体
 73
     1
 44
1.0
1001
ACAD
1000
ACAD_MTEXT_DEFINED_HEIGHT_BEGIN
1070
    46
1040
2.70444437363364
1000
ACAD_MTEXT_DEFINED_HEIGHT_END
  0
MTEXT
  5
144
330
2
100
AcDbEntity
  8
图框
100
AcDbMText
 10
768.0839856382731
 20
261.4082877477433
 30
0.0
 40
1.200004709114095
 41
11.65740549190751
 46
2.70444437363364
 71
     5
 72
     5
  1
{\C4;6}
  7
Romans字体
 73
     1
 44
1.0
1001
ACAD
1000
ACAD_MTEXT_DEFINED_HEIGHT_BEGIN
1070
    46
1040
2.70444437363364
1000
ACAD_MTEXT_DEFINED_HEIGHT_END
  0
MTEXT
  5
145
102
{ACAD_XDICTIONARY
360
3F0
102
}
330
2
100
AcDbEntity
  8
打标文字
 62
     3
100
AcDbMText
 10
810.3158122493802
 20
256.574695716213
 30
0.0
 40
1.5
 41
43.12740902174065
 46
53.91180554791946
 71
     1
 72
     5
  3
\A1;{\f仿宋_GB2312|b0|i0|c134|p49;技术参数}:\P- {\f仿宋_GB2312|b0|i0|c134|p49;材料}: {\f仿宋_GB2312|b0|i0|c134|p49;铜合金}\P- {\f仿宋_GB2312|b0|i0|c134|p49;表面处理}: {\f仿宋_GB2312|b0|i0|c134|p49;镀金}\P- {\f仿宋_GB2312|b0|i0|c134|p49;额定电流}: 10A\P- {\f仿宋_GB2312|b0|i0|c134|p49
  3
;接触电阻}: ≤3mΩ\P- {\f仿宋_GB2312|b0|i0|c134|p49;线径范围}: 0.75mm{\H0.7x;\S2^ ;}(18 AWG)\P- {\f仿宋_GB2312|b0|i0|c134|p49;可插拔次数}: {\f仿宋_GB2312|b0|i0|c134|p49;≥}500\P\PTechnical specification:\P- Material: copper alloy\P- Surface: hard-gold plated\P- Rated curre
  1
nt: 10A\P- Contact resistance: ≤3mΩ\P- Wire gauge: 0.75mm{\H0.7x;\S2^ ;}(18 AWG)\P- Mating cycles: {\f仿宋_GB2312|b0|i0|c134|p49;≥}500
  7
Romans字体
 73
     1
 44
1.0
1001
ACAD
1000
ACAD_MTEXT_DEFINED_HEIGHT_BEGIN
1070
    46
1040
53.91180554791946
1000
ACAD_MTEXT_DEFINED_HEIGHT_END
  0
MTEXT
  5
147
330
2
100
AcDbEntity
  8
图框
 62
     6
100
AcDbMText
 10
708.2291218031437
 20
273.3024032952052
 30
0.0
 40
1.325888081342452
 41
1.278956938963605
 46
0.0
 71
     1
 72
     5
  1
D
  7
Romans字体
 11
0.0000000000000001
 21
1.0
 31
0.0
 73
     1
 44
1.0
1001
AcDbBlockRepETag
1070
     1
1071
       25
1005
0
  0
LINE
  5
148
330
2
100
AcDbEntity
  8
图框
 62
     6
100
AcDbLine
 10
709.7327479822238
 20
260.9720992335535
 30
0.0
 11
707.9911983967853
 21
260.9720992335535
 31
0.0
1001
AcDbBlockRepETag
1070
     1
1071
       26
1005
0
  0
MTEXT
  5
149
330
2
100
AcDbEntity
  8
图框
100
AcDbMText
 10
714.3189397941236
 20
274.9379044541738
 30
0.0
 40
1.200004709114095
 41
9.110347256148227
 46
0.0
 71
     5
 72
     5
  1
CDGF-0.37C
  7
Romans字体
 73
     1
 44
1.0
  0
MTEXT
  5
14A
330
2
100
AcDbEntity
  8
图框
100
AcDbMText
 10
714.3189397954572
 20
272.2334600805436
 30
0.0
 40
1.200004709114095
 41
9.110347256148227
 46
0.0
 71
     5
 72
     5
  1
CDGF-0.50C
  7
Romans字体
 73
     1
 44
1.0
  0
MTEXT
  5
14B
330
2
100
AcDbEntity
  8
图框
100
AcDbMText
 10
714.3189397954572
 20
269.5290157069131
 30
0.0
 40
1.200004709114095
 41
9.110347256148227
 46
0.0
 71
     5
 72
     5
  1
CDGF-0.75C
  7
Romans字体
 73
     1
 44
1.0
  0
MTEXT
  5
14C
330
2
100
AcDbEntity
  8
图框
100
AcDbMText
 10
714.3189397941236
 20
266.8245713332826
 30
0.0
 40
1.200004709114095
 41
9.110347256148227
 46
0.0
 71
     5
 72
     5
  1
CDGF-1.0C
  7
Romans字体
 73
     1
 44
1.0
  0
MTEXT
  5
14D
330
2
100
AcDbEntity
  8
图框
100
AcDbMText
 10
714.3189397941236
 20
264.1142574978041
 30
0.0
 40
1.200004709114095
 41
9.110347256148227
 46
0.0
 71
     5
 72
     5
  1
CDGF-1.5C
  7
Romans字体
 73
     1
 44
1.0
  0
MTEXT
  5
14E
330
2
100
AcDbEntity
  8
图框
100
AcDbMText
 10
714.3189397954572
 20
261.4039436623321
 30
0.0
 40
1.200004709114095
 41
9.110347256148227
 46
0.0
 71
     5
 72
     5
  1
CDGF-2.5C
  7
Romans字体
 73
     1
 44
1.0
  0
MTEXT
  5
14F
330
2
100
AcDbEntity
  8
图框
100
AcDbMText
 10
725.0830431668703
 20
275.0565031980215
 30
0.0
 40
1.200004709114095
 41
9.110347256148227
 46
0.0
 71
     5
 72
     5
  1
1010172200306
  7
Romans字体
 73
     1
 44
1.0
  0
MTEXT
  5
150
330
2
100
AcDbEntity
  8
图框
100
AcDbMText
 10
725.0574327135263
 20
272.2210894172649
 30
0.0
 40
1.200004709114095
 41
9.110347256148227
 46
0.0
 71
     5
 72
     5
  1
1010172200406
  7
Romans字体
 73
     1
 44
1.0
  0
MTEXT
  5
151
330
2
100
AcDbEntity
  8
图框
100
AcDbMText
 10
725.0759089652382
 20
269.4733673668211
 30
0.0
 40
1.200004709114095
 41
9.110347256148227
 46
0.0
 71
     5
 72
     5
  1
1010172200606
  7
Romans字体
 73
     1
 44
1.0
  0
MTEXT
  5
152
330
2
100
AcDbEntity
  8
图框
100
AcDbMText
 10
725.0614708877548
 20
266.7909060451508
 30
0.0
 40
1.200004709114095
 41
9.110347256148227
 46
0.0
 71
     5
 72
     5
  1
1010172200806
  7
Romans字体
 73
     1
 44
1.0
  0
MTEXT
  5
153
330
2
100
AcDbEntity
  8
图框
100
AcDbMText
 10
725.0617021933869
 20
264.024647133118
 30
0.0
 40
1.200004709114095
 41
9.110347256148227
 46
0.0
 71
     5
 72
     5
  1
1010172200906
  7
Romans字体
 73
     1
 44
1.0
  0
MTEXT
  5
154
330
2
100
AcDbEntity
  8
图框
100
AcDbMText
 10
725.062600380189
 20
261.335543910443
 30
0.0
 40
1.200004709114095
 41
9.110347256148227
 46
0.0
 71
     5
 72
     5
  1
1010172201006
  7
Romans字体
 73
     1
 44
1.0
  0
MTEXT
  5
155
330
2
100
AcDbEntity
  8
图框
100
AcDbMText
 10
742.7141973890464
 20
274.9363590707464
 30
0.0
 40
1.200004709114095
 41
7.819322494052451
 46
2.704444373630458
 71
     5
 72
     5
  1
{\C4;0.37}
  7
Romans字体
 73
     1
 44
1.0
1001
ACAD
1000
ACAD_MTEXT_DEFINED_HEIGHT_BEGIN
1070
    46
1040
2.704444373630458
1000
ACAD_MTEXT_DEFINED_HEIGHT_END
  0
MTEXT
  5
156
330
2
100
AcDbEntity
  8
图框
100
AcDbMText
 10
749.573763314071
 20
274.9363590707465
 30
0.0
 40
1.200004709114095
 41
5.899809355996247
 46
2.704444373630328
 71
     5
 72
     5
  1
{\C4;22}
  7
Romans字体
 73
     1
 44
1.0
1001
ACAD
1000
ACAD_MTEXT_DEFINED_HEIGHT_BEGIN
1070
    46
1040
2.704444373630328
1000
ACAD_MTEXT_DEFINED_HEIGHT_END
  0
MTEXT
  5
157
330
2
100
AcDbEntity
  8
图框
100
AcDbMText
 10
754.9565717164645
 20
274.936359070746
 30
0.0
 40
1.200004709114095
 41
4.865807451458945
 46
2.704444373630395
 71
     5
 72
     5
  1
{\C4;0.90}
  7
Romans字体
 73
     1
 44
1.0
1001
ACAD
1000
ACAD_MTEXT_DEFINED_HEIGHT_BEGIN
1070
    46
1040
2.704444373630395
1000
ACAD_MTEXT_DEFINED_HEIGHT_END
  0
MTEXT
  5
158
330
2
100
AcDbEntity
  8
图框
100
AcDbMText
 10
759.8223791672569
 20
274.936359070746
 30
0.0
 40
1.200004709114095
 41
4.865807450125021
 46
2.704444373630395
 71
     5
 72
     5
  1
{\C4;2.6}
  7
Romans字体
 73
     1
 44
1.0
1001
ACAD
1000
ACAD_MTEXT_DEFINED_HEIGHT_BEGIN
1070
    46
1040
2.704444373630395
1000
ACAD_MTEXT_DEFINED_HEIGHT_END
  0
MTEXT
  5
159
330
2
100
AcDbEntity
  8
图框
100
AcDbMText
 10
768.083985638273
 20
272.2377841589572
 30
0.0
 40
1.200004709114095
 41
11.65740549190751
 46
2.70444437363364
 71
     5
 72
     5
  1
{\C4;8}
  7
Romans字体
 73
     1
 44
1.0
1001
ACAD
1000
ACAD_MTEXT_DEFINED_HEIGHT_BEGIN
1070
    46
1040
2.70444437363364
1000
ACAD_MTEXT_DEFINED_HEIGHT_END
  0
MTEXT
  5
15A
330
2
100
AcDbEntity
  8
图框
100
AcDbMText
 10
768.083985638273
 20
269.5333397853267
 30
0.0
 40
1.200004709114095
 41
11.65740549190751
 46
2.70444437363364
 71
     5
 72
     5
  1
{\C4;8}
  7
Romans字体
 73
     1
 44
1.0
1001
ACAD
1000
ACAD_MTEXT_DEFINED_HEIGHT_BEGIN
1070
    46
1040
2.70444437363364
1000
ACAD_MTEXT_DEFINED_HEIGHT_END
  0
MTEXT
  5
15B
330
2
100
AcDbEntity
  8
图框
100
AcDbMText
 10
768.083985638273
 20
266.8288954116962
 30
0.0
 40
1.200004709114095
 41
11.65740549190751
 46
2.70444437363364
 71
     5
 72
     5
  1
{\C4;8}
  7
Romans字体
 73
     1
 44
1.0
1001
ACAD
1000
ACAD_MTEXT_DEFINED_HEIGHT_BEGIN
1070
    46
1040
2.70444437363364
1000
ACAD_MTEXT_DEFINED_HEIGHT_END
  0
MTEXT
  5
15C
330
2
100
AcDbEntity
  8
图框
100
AcDbMText
 10
768.0839856382733
 20
264.1185815762193
 30
0.0
 40
1.200004709114095
 41
11.65740549190751
 46
2.70444437363364
 71
     5
 72
     5
  1
{\C4;8}
  7
Romans字体
 73
     1
 44
1.0
1001
ACAD
1000
ACAD_MTEXT_DEFINED_HEIGHT_BEGIN
1070
    46
1040
2.70444437363364
1000
ACAD_MTEXT_DEFINED_HEIGHT_END
  0
LINE
  5
15D
330
2
100
AcDbEntity
  8
图框
370
    35
380
     1
100
AcDbLine
 10
774.2657262236714
 20
281.7031793238253
 30
0.0
 11
774.2657262236714
 21
260.0560455539254
 31
0.0
  0
LINE
  5
15E
330
2
100
AcDbEntity
  8
图框
 62
     6
100
AcDbLine
 10
807.0614656921916
 20
283.4531793238252
 30
0.0
 11
807.0614656921916
 21
281.7031793238252
 31
0.0
1001
AcDbBlockRepETag
1070
     1
1071
       56
1005
0
  0
MTEXT
  5
15F
330
2
100
AcDbEntity
  8
图框
 62
     6
100
AcDbMText
 10
794.4674812975073
 20
283.3013988765568
 30
0.0
 40
1.325888081342452
 41
1.278956938963605
 46
0.0
 71
     1
 72
     5
  1
4
  7
Romans字体
 73
     1
 44
1.0
1001
AcDbBlockRepETag
1070
     1
1071
       57
1005
0
  0
LINE
  5
160
330
2
100
AcDbEntity
  8
图框
 62
     6
100
AcDbLine
 10
782.2938763327116
 20
283.4531793238252
 30
0.0
 11
782.2938763327116
 21
281.7031793238252
 31
0.0
1001
AcDbBlockRepETag
1070
     1
1071
       58
1005
0
  0
MTEXT
  5
161
330
2
100
AcDbEntity
  8
图框
100
AcDbMText
 10
734.8948748943269
 20
274.9420683896096
 30
0.0
 40
1.200004709114095
 41
7.819322492718905
 46
2.704444373633061
 71
     5
 72
     5
  1
{\C4;0.72}
  7
Romans字体
 73
     1
 44
1.0
1001
ACAD
1000
ACAD_MTEXT_DEFINED_HEIGHT_BEGIN
1070
    46
1040
2.704444373633061
1000
ACAD_MTEXT_DEFINED_HEIGHT_END
  0
MTEXT
  5
162
330
2
100
AcDbEntity
  8
图框
100
AcDbMText
 10
734.8948748943269
 20
269.5331796423488
 30
0.0
 40
1.200004709114095
 41
7.819322492718905
 46
2.704444373633061
 71
     5
 72
     5
  1
{\C4;0.66}
  7
Romans字体
 73
     1
 44
1.0
1001
ACAD
1000
ACAD_MTEXT_DEFINED_HEIGHT_BEGIN
1070
    46
1040
2.704444373633061
1000
ACAD_MTEXT_DEFINED_HEIGHT_END
  0
MTEXT
  5
163
330
2
100
AcDbEntity
  8
图框
100
AcDbMText
 10
734.8948748943263
 20
272.2316744827177
 30
0.0
 40
1.200004709114095
 41
7.819322492718905
 46
2.704444373633061
 71
     5
 72
     5
  1
{\C4;0.69}
  7
Romans字体
 73
     1
 44
1.0
1001
ACAD
1000
ACAD_MTEXT_DEFINED_HEIGHT_BEGIN
1070
    46
1040
2.704444373633061
1000
ACAD_MTEXT_DEFINED_HEIGHT_END
  0
MTEXT
  5
164
330
2
100
AcDbEntity
  8
图框
100
AcDbMText
 10
734.8948748943269
 20
266.8287352687183
 30
0.0
 40
1.200004709114095
 41
7.819322492718905
 46
2.704444373633061
 71
     5
 72
     5
  1
{\C4;0.66}
  7
Romans字体
 73
     1
 44
1.0
1001
ACAD
1000
ACAD_MTEXT_DEFINED_HEIGHT_BEGIN
1070
    46
1040
2.704444373633061
1000
ACAD_MTEXT_DEFINED_HEIGHT_END
  0
MTEXT
  5
165
330
2
100
AcDbEntity
  8
图框
100
AcDbMText
 10
734.8948748943271
 20
264.1184214332404
 30
0.0
 40
1.200004709114095
 41
7.819322492718905
 46
2.704444373633061
 71
     5
 72
     5
  1
{\C4;0.69}
  7
Romans字体
 73
     1
 44
1.0
1001
ACAD
1000
ACAD_MTEXT_DEFINED_HEIGHT_BEGIN
1070
    46
1040
2.704444373633061
1000
ACAD_MTEXT_DEFINED_HEIGHT_END
  0
MTEXT
  5
166
330
2
100
AcDbEntity
  8
图框
100
AcDbMText
 10
734.8948748943269
 20
261.4081075977679
 30
0.0
 40
1.200004709114095
 41
7.819322492718905
 46
2.704444373633061
 71
     5
 72
     5
  1
{\C4;0.67}
  7
Romans字体
 73
     1
 44
1.0
1001
ACAD
1000
ACAD_MTEXT_DEFINED_HEIGHT_BEGIN
1070
    46
1040
2.704444373633061
1000
ACAD_MTEXT_DEFINED_HEIGHT_END
  0
LINE
  5
167
330
2
100
AcDbEntity
  8
0
  6
Continuous
 62
     7
100
AcDbLine
 10
765.2143224991995
 20
230.8238478986727
 30
0.0
 11
763.4143224992002
 21
230.4262583153727
 31
0.0
  0
LINE
  5
168
330
2
100
AcDbEntity
  8
0
  6
Continuous
 62
     7
100
AcDbLine
 10
765.2143224991995
 20
230.8238478986727
 30
0.0
 11
765.2143224991995
 21
230.7214374819727
 31
0.0
  0
LINE
  5
169
330
2
100
AcDbEntity
  8
0
  6
Continuous
 62
     7
100
AcDbLine
 10
765.2143224991995
 20
230.7214374819727
 30
0.0
 11
763.4143224992002
 21
230.3238478986727
 31
0.0
  0
LINE
  5
16A
330
2
100
AcDbEntity
  8
0
  6
Continuous
 62
     7
100
AcDbLine
 10
763.4143224992002
 20
230.4262583153727
 30
0.0
 11
763.4143224992002
 21
230.3238478986727
 31
0.0
  0
LINE
  5
16B
330
2
100
AcDbEntity
  8
0
  6
Continuous
 62
     7
100
AcDbLine
 10
765.2143224991995
 20
232.7262583153729
 30
0.0
 11
765.2143224991995
 21
232.6238478986729
 31
0.0
  0
LINE
  5
16C
330
2
100
AcDbEntity
  8
0
  6
Continuous
 62
     7
100
AcDbLine
 10
765.2143224991995
 20
232.6238478986729
 30
0.0
 11
763.4143224992002
 21
233.0214374819729
 31
0.0
  0
LINE
  5
16D
330
2
100
AcDbEntity
  8
0
  6
Continuous
 62
     7
100
AcDbLine
 10
763.4143224992002
 20
233.1238478986729
 30
0.0
 11
763.4143224992002
 21
233.0214374819729
 31
0.0
  0
LINE
  5
16E
330
2
100
AcDbEntity
  8
0
  6
Continuous
 62
     7
100
AcDbLine
 10
765.2143224991995
 20
232.7262583153729
 30
0.0
 11
763.4143224992002
 21
233.1238478986729
 31
0.0
  0
HATCH
  5
16F
330
2
100
AcDbEntity
  8
hatch
  6
Continuous
 62
     2
100
AcDbHatch
 10
0.0
 20
0.0
 30
0.0
210
0.0
220
0.0
230
1.0
  2
ANSI31
 70
     0
 71
     0
 91
        2
 92
        1
 93
        4
 72
     1
 10
765.2143224991995
 20
230.8238478986727
 11
763.4143224991992
 21
230.4262583153727
 72
     1
 10
765.2143224991995
 20
230.8238478986727
 11
765.2143224991995
 21
230.7214374819727
 72
     1
 10
765.2143224991995
 20
230.7214374819727
 11
763.4143224991992
 21
230.3238478986727
 72
     1
 10
763.4143224992002
 20
230.4262583153727
 11
763.4143224992002
 21
230.3238478986727
 97
        0
 92
        1
 93
        4
 72
     1
 10
765.2143224991995
 20
232.7262583153729
 11
765.2143224991995
 21
232.6238478986729
 72
     1
 10
765.2143224991995
 20
232.6238478986729
 11
763.4143224991992
 21
233.0214374819729
 72
     1
 10
763.4143224992002
 20
233.1238478986729
 11
763.4143224992002
 21
233.0214374819729
 72
     1
 10
765.2143224991995
 20
232.7262583153729
 11
763.4143224991992
 21
233.1238478986729
 97
        0
 75
     0
 76
     1
 52
0.0
 41
0.5
 77
     0
 78
     1
 53
45.0
 43
-4512.191760049204
 44
2810.898703741779
 45
-0.0441941738241592
 46
0.0441941738241592
 79
     0
 98
        1
 10
126.9066074740002
 20
194.2604713293724
1001
ACAD
1010
0.0
1020
0.0
1030
0.0
  0
LINE
  5
171
330
2
100
AcDbEntity
  8
0
  6
Continuous
 62
     7
100
AcDbLine
 10
765.3143224991999
 20
230.8238478986727
 30
0.0
 11
765.3143224991999
 21
230.4988478986756
 31
0.0
  0
LINE
  5
172
330
2
100
AcDbEntity
  8
0
  6
Continuous
 62
     7
100
AcDbLine
 10
765.3143224991999
 20
230.8238478986727
 30
0.0
 11
763.3143224991997
 21
230.8238478986727
 31
0.0
  0
LINE
  5
173
330
2
100
AcDbEntity
  8
0
  6
Continuous
 62
     7
100
AcDbLine
 10
763.3143224991997
 20
230.8238478986727
 30
0.0
 11
763.3143224991997
 21
230.4738478986728
 31
0.0
  0
LINE
  5
174
330
2
100
AcDbEntity
  8
0
  6
Continuous
 62
     7
100
AcDbLine
 10
763.3143224991997
 20
230.4738478986728
 30
0.0
 11
760.3143224995964
 21
230.4738478986724
 31
0.0
  0
LINE
  5
175
330
2
100
AcDbEntity
  8
0
  6
Continuous
 62
     7
100
AcDbLine
 10
760.3143224995964
 20
230.4738478986724
 30
0.0
 11
760.3143224995964
 21
230.0238478986721
 31
0.0
  0
LINE
  5
176
330
2
100
AcDbEntity
  8
0
  6
Continuous
 62
     7
100
AcDbLine
 10
760.3143224995964
 20
230.0238478986721
 30
0.0
 11
758.8143224995964
 21
230.0238478986721
 31
0.0
  0
LINE
  5
177
330
2
100
AcDbEntity
  8
0
  6
Continuous
 62
     7
100
AcDbLine
 10
758.8143224995964
 20
230.4238478986722
 30
0.0
 11
758.8143224995964
 21
230.0238478986721
 31
0.0
  0
LINE
  5
178
330
2
100
AcDbEntity
  8
0
  6
Continuous
 62
     7
100
AcDbLine
 10
761.8143224995963
 20
231.2738478986721
 30
0.0
 11
755.6329758474966
 21
231.2738478986721
 31
0.0
  0
LINE
  5
179
330
2
100
AcDbEntity
  8
0
  6
Continuous
 62
     7
100
AcDbLine
 10
762.0741301206963
 20
231.7238478986723
 30
0.0
 11
761.8143224995963
 21
231.2738478986721
 31
0.0
  0
LINE
  5
17A
330
2
100
AcDbEntity
  8
0
  6
Continuous
 62
     7
100
AcDbLine
 10
762.0741301206963
 20
231.7238478986723
 30
0.0
 11
761.8143224995963
 21
232.1738478986722
 31
0.0
  0
LINE
  5
17B
330
2
100
AcDbEntity
  8
0
  6
Continuous
 62
     7
100
AcDbLine
 10
761.8143224995963
 20
232.1738478986722
 30
0.0
 11
761.7642975743962
 21
232.1738478986722
 31
0.0
  0
LINE
  5
17C
330
2
100
AcDbEntity
  8
0
  6
Continuous
 62
     7
100
AcDbLine
 10
761.7643224995962
 20
232.1738229734723
 30
0.0
 11
761.7643224995962
 21
232.9738478986723
 31
0.0
  0
LINE
  5
17D
330
2
100
AcDbEntity
  8
0
  6
Continuous
 62
     7
100
AcDbLine
 10
763.3143224991997
 20
232.9738478986728
 30
0.0
 11
761.7643224995962
 21
232.9738478986723
 31
0.0
  0
LINE
  5
17E
330
2
100
AcDbEntity
  8
0
  6
Continuous
 62
     7
100
AcDbLine
 10
763.3143224991997
 20
232.9738478986728
 30
0.0
 11
763.3143224991997
 21
232.6238478986729
 31
0.0
  0
LINE
  5
17F
330
2
100
AcDbEntity
  8
0
  6
Continuous
 62
     7
100
AcDbLine
 10
765.3143224991999
 20
232.6238478986729
 30
0.0
 11
763.3143224991997
 21
232.6238478986729
 31
0.0
  0
LINE
  5
180
330
2
100
AcDbEntity
  8
0
  6
Continuous
 62
     7
100
AcDbLine
 10
774.5667374220462
 20
232.4586614146728
 30
0.0
 11
774.6092425040467
 21
232.4989706542728
 31
0.0
  0
HATCH
  5
181
330
2
100
AcDbEntity
  8
0
 62
     6
370
     5
100
AcDbHatch
 10
0.0
 20
0.0
 30
0.0
210
0.0
220
0.0
230
1.0
  2
ANSI31
 70
     0
 71
     0
 91
        3
 92
        5
 93
       27
 72
     1
 10
767.1125536431471
 20
232.5965703111492
 11
767.1125536431471
 21
232.597711535036
 72
     1
 10
767.1125536431471
 20
232.597711535036
 11
774.4239731762962
 21
232.403848138319
 72
     4
 94
        3
 73
     1
 74
     0
 95
        8
 96
        4
 40
0.0
 40
0.0
 40
0.0
 40
0.0
 40
0.2499935192579083
 40
0.2499935192579083
 40
0.2499935192579083
 40
0.2499935192579083
 10
774.4238201240468
 20
232.4038472853726
 42
1.0
 10
774.4367351056998
 20
232.4035048426785
 42
0.9873137702232586
 10
774.4496863576321
 20
232.4044098848744
 42
0.9777990156745191
 10
774.4625481011642
 20
232.4065902028114
 42
0.9714557363537819
 72
     4
 94
        3
 73
     1
 74
     0
 95
        8
 96
        4
 40
0.2499935192579083
 40
0.2499935192579083
 40
0.2499935192579083
 40
0.2499935192579083
 40
0.4210989253689358
 40
0.4210989253689358
 40
0.4210989253689358
 40
0.4210989253689358
 10
774.4625481011642
 20
232.4065902028114
 42
0.9714557363537819
 10
774.4714484429857
 20
232.4080989854164
 42
0.9671141462698775
 10
774.4802396664381
 20
232.4102082447252
 42
0.9642582567411531
 10
774.4888801070027
 20
232.4129135601843
 42
0.9628880677676081
 72
     4
 94
        3
 73
     1
 74
     0
 95
        8
 96
        4
 40
0.4210989253689358
 40
0.4210989253689358
 40
0.4210989253689358
 40
0.4210989253689358
 40
0.5
 40
0.5
 40
0.5
 40
0.5
 10
774.4888801070027
 20
232.4129135601843
 42
0.9628880677676081
 10
774.4928727244921
 20
232.4141636457248
 42
0.9622562386225359
 10
774.4968248206958
 20
232.4155385618078
 42
0.9619403240499998
 10
774.5007324619182
 20
232.4170370767965
 42
0.9619403240499998
 72
     4
 94
        3
 73
     1
 74
     0
 95
        8
 96
        4
 40
0.5
 40
0.5
 40
0.5
 40
0.5
 40
0.5829202583494979
 40
0.5829202583494979
 40
0.5829202583494979
 40
0.5829202583494979
 10
774.5007324619182
 20
232.4170370767965
 42
0.9619403240499998
 10
774.5048391565512
 20
232.4186119254354
 42
0.9619403240499998
 10
774.5088909416169
 20
232.4203210523969
 42
0.9622892434491491
 10
774.51288347255
 20
232.422162453915
 42
0.962987082247448
 72
     4
 94
        3
 73
     1
 74
     0
 95
        8
 96
        4
 40
0.5829202583494979
 40
0.5829202583494979
 40
0.5829202583494979
 40
0.5829202583494979
 40
0.8034241185322832
 40
0.8034241185322832
 40
0.8034241185322832
 40
0.8034241185322832
 10
774.51288347255
 20
232.422162453915
 42
0.962987082247448
 10
774.5234724229264
 20
232.4270462004997
 42
0.9648427946134376
 10
774.533571344239
 20
232.4328241587704
 42
0.96916588798037
 10
774.5431101530928
 20
232.4394406227984
 42
0.9759563623482447
 72
     4
 94
        3
 73
     1
 74
     0
 95
        8
 96
        4
 40
0.8034241185322832
 40
0.8034241185322832
 40
0.8034241185322832
 40
0.8034241185322832
 40
1.0
 40
1.0
 40
1.0
 40
1.0
 10
774.5431101530928
 20
232.4394406227984
 42
0.9759563623482447
 10
774.5515026348238
 20
232.4452619527301
 42
0.982009968318419
 10
774.5593916194334
 20
232.4516844036061
 42
0.9900245142023374
 10
774.5667428033465
 20
232.4586557401726
 42
1.0
 72
     1
 10
774.5665123042952
 20
232.45844792667
 11
774.609242504106
 21
232.4989706543297
 72
     1
 10
774.609242504106
 20
232.4989706543297
 11
774.6125536431581
 21
232.6238478986392
 72
     1
 10
774.6125536431581
 20
232.6238478986392
 11
768.0125536431459
 21
232.8437164982483
 72
     1
 10
768.0125536431459
 20
232.8437164982483
 11
767.0790825521634
 21
232.8437164982488
 72
     2
 10
766.9943384259076
 20
232.9237831175623
 40
0.1165857215237087
 50
43.37432029589853
 51
149.0635430629964
 73
     0
 72
     1
 10
766.8943384259088
 20
232.8638478986718
 11
766.3143224996255
 21
232.8638478986713
 72
     1
 10
766.3143224996255
 20
232.8638478986713
 11
766.3143224996263
 21
232.9638478980391
 72
     1
 10
766.3143224996263
 20
232.9638478980391
 11
766.3143224996255
 21
232.9738478986728
 72
     1
 10
766.3143224996255
 20
232.9738478986728
 11
765.3143224992008
 21
232.9738478986728
 72
     1
 10
765.3143224992008
 20
232.9738478986728
 11
765.3143224991999
 21
232.6238478986729
 72
     1
 10
765.3143224991999
 20
232.6238478986729
 11
763.3143224991997
 21
232.6238478986729
 72
     1
 10
763.3143224991997
 20
232.6238478986729
 11
763.3143224991989
 21
232.9738478986723
 72
     1
 10
763.3143224991989
 20
232.9738478986723
 11
761.7643224995951
 21
232.9738478986728
 72
     1
 10
761.7643224995951
 20
232.9738478986728
 11
761.7643224995951
 21
232.174263654887
 72
     4
 94
        3
 73
     0
 74
     0
 95
        8
 96
        4
 40
0.9999085131528168
 40
0.9999085131528168
 40
0.9999085131528168
 40
0.9999085131528168
 40
0.999912311534549
 40
0.999912311534549
 40
0.999912311534549
 40
0.999912311534549
 10
761.7643374275663
 20
232.1738341830209
 10
761.7643374481839
 20
232.1738338044529
 10
761.7643374540947
 20
232.1738334188235
 10
761.7643374455
 20
232.173833026231
 72
     1
 10
761.7643369508258
 20
232.1738478986726
 11
761.8143224995963
 21
232.1738478986726
 72
     1
 10
761.8143224995963
 20
232.1738478986726
 11
762.0741301206951
 21
231.7238478986728
 72
     1
 10
762.0741301206951
 20
231.7238478986728
 11
766.6218059143474
 21
231.7238478986728
 72
     1
 10
766.6218059143474
 20
231.7238478986728
 11
767.1125536431471
 21
232.5965703111492
 97
        0
 92
        5
 93
       28
 72
     1
 10
766.6218059143474
 20
231.7238478986723
 11
766.2233156821411
 21
231.7238478986719
 72
     1
 10
766.2233156821411
 20
231.7238478986719
 11
762.0741301206963
 21
231.7238478986714
 72
     1
 10
762.0741301206963
 20
231.7238478986714
 11
761.8143224995963
 21
231.2738478986721
 72
     1
 10
761.8143224995963
 20
231.2738478986721
 11
755.6329758484134
 21
231.273847898673
 72
     1
 10
755.6329758484134
 20
231.273847898673
 11
753.8143224996255
 21
230.2238479005086
 72
     1
 10
753.8143224996255
 20
230.2238479005086
 11
753.8143224996255
 21
229.9738478986719
 72
     1
 10
753.8143224996255
 20
229.9738478986719
 11
754.8143225011389
 21
229.9738478986724
 72
     1
 10
754.8143225011389
 20
229.9738478986724
 11
754.8143225011389
 21
230.4238478986726
 72
     1
 10
754.8143225011389
 20
230.4238478986726
 11
758.8143224995964
 21
230.4238478986722
 72
     1
 10
758.8143224995964
 20
230.4238478986722
 11
758.8143224995964
 21
230.0238478986721
 72
     1
 10
758.8143224995964
 20
230.0238478986721
 11
760.3143224995964
 21
230.0238478986721
 72
     1
 10
760.3143224995964
 20
230.0238478986721
 11
760.3143224995964
 21
230.4738478986724
 72
     1
 10
760.3143224995964
 20
230.4738478986724
 11
763.3143224991997
 21
230.4738478986728
 72
     1
 10
763.3143224991997
 20
230.4738478986728
 11
763.3143224991997
 21
230.8238478986727
 72
     1
 10
763.3143224991997
 20
230.8238478986727
 11
765.3143224991999
 21
230.8238478986727
 72
     1
 10
765.3143224991999
 20
230.8238478986727
 11
765.3143224991999
 21
230.4738478986732
 72
     1
 10
765.3143224991999
 20
230.4738478986732
 11
766.3143224996263
 21
230.4738478986728
 72
     1
 10
766.3143224996263
 20
230.4738478986728
 11
766.3143224996263
 21
230.4838478993042
 72
     1
 10
766.3143224996263
 20
230.4838478993042
 11
766.3143224996263
 21
230.5838478986716
 72
     1
 10
766.3143224996263
 20
230.5838478986716
 11
766.8943384259018
 21
230.5838478986725
 72
     2
 10
766.9943384259021
 20
230.5239126797846
 40
0.1165857215237047
 50
210.9364569353938
 51
316.8031054706887
 73
     0
 72
     1
 10
767.0793300848444
 20
230.6037164915569
 11
768.0125536431356
 21
230.6037164915569
 72
     1
 10
768.0125536431356
 20
230.6037164915569
 11
774.6125536430926
 21
230.8238478986345
 72
     1
 10
774.6125536430926
 20
230.8238478986345
 11
774.609242504658
 21
230.9487251200576
 72
     1
 10
774.609242504658
 20
230.9487251200576
 11
774.5665505053318
 21
230.9892116217161
 72
     4
 94
        3
 73
     1
 74
     0
 95
        8
 96
        4
 40
0.0
 40
0.0
 40
0.0
 40
0.0
 40
1.0
 40
1.0
 40
1.0
 40
1.0
 10
774.4238187461466
 20
231.0438480665725
 42
1.0
 10
774.477551413447
 20
231.0452727965726
 42
0.9492537031999999
 10
774.5277391969464
 20
231.0260266080727
 42
0.9492537031999999
 10
774.5667415642473
 20
230.9890395191728
 42
1.0
 72
     1
 10
774.4239943258868
 20
231.0438482197433
 11
767.1125536431471
 21
230.8499842623187
 72
     1
 10
767.1125536431471
 20
230.8499842623187
 11
766.6218059143474
 21
231.7238478986723
 97
        0
 92
       23
 72
     0
 73
     1
 93
       11
 10
760.8643224995965
 20
232.9738478986728
 10
760.3143224995964
 20
232.9738478986723
 10
760.3143224995964
 20
233.4238478986722
 10
758.8143224995964
 20
233.4238478986722
 10
758.8143224995964
 20
233.0238478980522
 10
754.8143225011389
 20
233.0238478980522
 10
754.8143225011377
 20
233.4738478986719
 10
753.8143224996255
 20
233.4738478986723
 10
753.8143224996255
 20
233.2238478968343
 10
755.6329758484134
 20
232.1738478986717
 10
760.8643224995965
 20
232.1738478986722
 97
        0
 75
     0
 76
     1
 52
0.0
 41
3.0
 77
     0
 78
     1
 53
45.0
 43
-3784.448397715492
 44
2853.93878969206
 45
-0.2651650429449553
 46
0.2651650429449553
 79
     0
 47
0.015919102083401
 98
        3
 10
766.5158808134235
 20
232.3371392613371
 10
766.1474183879708
 20
231.4018058418896
 10
759.8767103965672
 20
232.5579607452205
1001
ACAD
1010
0.0
1020
0.0
1030
0.0
  0
SPLINE
  5
182
330
2
100
AcDbEntity
  8
0
  6
Continuous
 62
     7
100
AcDbSpline
210
0.0
220
0.0
230
1.0
 70
    12
 71
     3
 72
     8
 73
     4
 74
     0
 42
0.0000000001
 43
0.0000000001
 40
0.0
 40
0.0
 40
0.0
 40
0.0
 40
1.0
 40
1.0
 40
1.0
 40
1.0
 10
774.4238201240468
 20
232.4038472853726
 30
0.0
 41
1.0
 10
774.4775527306472
 20
232.4024225571729
 30
0.0
 41
0.9492537653999999
 10
774.5277404622465
 20
232.4216687119728
 30
0.0
 41
0.9492537653999999
 10
774.5667428033465
 20
232.4586557401726
 30
0.0
 41
1.0
  0
LINE
  5
183
330
2
100
AcDbEntity
  8
0
  6
Continuous
 62
     7
100
AcDbLine
 10
774.4238202541471
 20
232.4038521930729
 30
0.0
 11
767.2125536431474
 21
232.5977115350365
 31
0.0
  0
LINE
  5
184
330
2
100
AcDbEntity
  8
0
  6
Continuous
 62
     7
100
AcDbLine
 10
767.2125536431474
 20
230.8499842623182
 30
0.0
 11
774.4238188650466
 21
231.0438435673727
 31
0.0
  0
SPLINE
  5
185
330
2
100
AcDbEntity
  8
0
  6
Continuous
 62
     7
100
AcDbSpline
210
0.0
220
0.0
230
1.0
 70
    12
 71
     3
 72
     8
 73
     4
 74
     0
 42
0.0000000001
 43
0.0000000001
 40
0.0
 40
0.0
 40
0.0
 40
0.0
 40
1.0
 40
1.0
 40
1.0
 40
1.0
 10
774.5667415642473
 20
230.9890395191728
 30
0.0
 41
1.0
 10
774.5277391969464
 20
231.0260266080727
 30
0.0
 41
0.9492537031999999
 10
774.477551413447
 20
231.0452727965726
 30
0.0
 41
0.9492537031999999
 10
774.4238187461466
 20
231.0438480665725
 30
0.0
 41
1.0
  0
LINE
  5
186
330
2
100
AcDbEntity
  8
0
  6
Continuous
 62
     7
100
AcDbLine
 10
774.6092425047471
 20
230.9487251199725
 30
0.0
 11
774.5667370276468
 21
230.9890347352729
 31
0.0
  0
LINE
  5
187
330
2
100
AcDbEntity
  8
0
  6
Continuous
 62
     7
100
AcDbLine
 10
760.3143224995964
 20
233.4238478986722
 30
0.0
 11
760.3143224995964
 21
232.9738478986723
 31
0.0
  0
LINE
  5
188
330
2
100
AcDbEntity
  8
0
  6
Continuous
 62
     7
100
AcDbLine
 10
760.8643224995965
 20
232.9738478986723
 30
0.0
 11
760.3143224995964
 21
232.9738478986723
 31
0.0
  0
LINE
  5
189
330
2
100
AcDbEntity
  8
0
  6
Continuous
 62
     7
100
AcDbLine
 10
760.8643224995965
 20
232.1739666621724
 30
0.0
 11
760.8643224995965
 21
232.9738478986723
 31
0.0
  0
LINE
  5
18A
330
2
100
AcDbEntity
  8
0
  6
Continuous
 62
     7
100
AcDbLine
 10
758.8143224995964
 20
233.4238478986722
 30
0.0
 11
758.8143224995964
 21
233.0238478980522
 31
0.0
  0
LINE
  5
18B
330
2
100
AcDbEntity
  8
0
  6
Continuous
 62
     7
100
AcDbLine
 10
760.3143224995964
 20
233.4238478986722
 30
0.0
 11
758.8143224995964
 21
233.4238478986722
 31
0.0
  0
LINE
  5
18C
330
2
100
AcDbEntity
  8
0
  6
Continuous
 62
     7
100
AcDbLine
 10
758.8143224995964
 20
233.4238478986722
 30
0.0
 11
758.8143224995964
 21
233.0238478980522
 31
0.0
  0
LINE
  5
18D
330
2
100
AcDbEntity
  8
0
  6
Continuous
 62
     7
100
AcDbLine
 10
758.8143224995964
 20
230.4238478986722
 30
0.0
 11
758.8143224995964
 21
230.0238478986721
 31
0.0
  0
LINE
  5
18E
330
2
100
AcDbEntity
  8
0
  6
Continuous
 62
     7
100
AcDbLine
 10
760.3143224995964
 20
233.4238478986722
 30
0.0
 11
760.3143224995964
 21
232.9738478986723
 31
0.0
  0
LINE
  5
18F
330
2
100
AcDbEntity
  8
0
  6
Continuous
 62
     7
100
AcDbLine
 10
760.3143224995964
 20
230.4738478986724
 30
0.0
 11
760.3143224995964
 21
230.0238478986721
 31
0.0
  0
LINE
  5
190
330
2
100
AcDbEntity
  8
0
  6
Continuous
 62
     7
100
AcDbLine
 10
760.8643224995965
 20
232.1739666621724
 30
0.0
 11
760.8643224995965
 21
232.9738478986723
 31
0.0
  0
LINE
  5
191
330
2
100
AcDbEntity
  8
0
  6
Continuous
 62
     7
100
AcDbLine
 10
761.7643224995962
 20
232.1738229734723
 30
0.0
 11
761.7643224995962
 21
232.9738478986723
 31
0.0
  0
LINE
  5
192
330
2
100
AcDbEntity
  8
0
  6
Continuous
 62
     7
100
AcDbLine
 10
761.8143224995963
 20
231.2738478986721
 30
0.0
 11
761.8143224995963
 21
232.1738478986722
 31
0.0
  0
LINE
  5
193
330
2
100
AcDbEntity
  8
0
  6
Continuous
 62
     7
100
AcDbLine
 10
762.0741301206963
 20
231.7238478986723
 30
0.0
 11
761.8143224995963
 21
231.2738478986721
 31
0.0
  0
LINE
  5
194
330
2
100
AcDbEntity
  8
0
  6
Continuous
 62
     7
100
AcDbLine
 10
762.0741301206963
 20
231.7238478986723
 30
0.0
 11
761.8143224995963
 21
232.1738478986722
 31
0.0
  0
LINE
  5
195
330
2
100
AcDbEntity
  8
0
  6
Continuous
 62
     7
100
AcDbLine
 10
760.3143224995964
 20
230.0238478986721
 30
0.0
 11
758.8143224995964
 21
230.0238478986721
 31
0.0
  0
LINE
  5
196
330
2
100
AcDbEntity
  8
0
  6
Continuous
 62
     7
100
AcDbLine
 10
763.3143224991997
 20
232.9738478986728
 30
0.0
 11
763.3143224991997
 21
232.6238478986729
 31
0.0
  0
LINE
  5
197
330
2
100
AcDbEntity
  8
0
  6
Continuous
 62
     7
100
AcDbLine
 10
763.3143224991997
 20
230.8238478986727
 30
0.0
 11
763.3143224991997
 21
230.4738478986728
 31
0.0
  0
LINE
  5
198
330
2
100
AcDbEntity
  8
0
  6
Continuous
 62
     7
100
AcDbLine
 10
763.4143224992002
 20
233.1238478986729
 30
0.0
 11
763.4143224992002
 21
232.6238478986729
 31
0.0
  0
LINE
  5
199
330
2
100
AcDbEntity
  8
0
  6
Continuous
 62
     7
100
AcDbLine
 10
763.4143224992002
 20
230.3238478986727
 30
0.0
 11
763.4143224992002
 21
230.8238478986727
 31
0.0
  0
LINE
  5
19A
330
2
100
AcDbEntity
  8
0
  6
Continuous
 62
     7
100
AcDbLine
 10
765.2143224991995
 20
230.7214374819727
 30
0.0
 11
763.4143224992002
 21
230.3238478986727
 31
0.0
  0
LINE
  5
19B
330
2
100
AcDbEntity
  8
0
  6
Continuous
 62
     7
100
AcDbLine
 10
765.2143224991995
 20
230.8238478986727
 30
0.0
 11
763.4143224992002
 21
230.4262583153727
 31
0.0
  0
LINE
  5
19C
330
2
100
AcDbEntity
  8
0
  6
Continuous
 62
     7
100
AcDbLine
 10
768.6125536431473
 20
230.583847898672
 30
0.0
 11
774.6125536430917
 21
230.823847898635
 31
0.0
  0
LINE
  5
19D
330
2
100
AcDbEntity
  8
0
  6
Continuous
 62
     7
100
AcDbLine
 10
763.3143224991997
 20
230.4738478986728
 30
0.0
 11
760.3143224995964
 21
230.4738478986724
 31
0.0
  0
LINE
  5
19E
330
2
100
AcDbEntity
  8
0
  6
Continuous
 62
     7
100
AcDbLine
 10
765.3143224991999
 20
230.8238478986727
 30
0.0
 11
763.3143224991997
 21
230.8238478986727
 31
0.0
  0
LINE
  5
19F
330
2
100
AcDbEntity
  8
0
  6
Continuous
 62
     7
100
AcDbLine
 10
768.6125536431473
 20
231.5237776056728
 30
0.0
 11
774.4065767742466
 21
231.6933163997728
 31
0.0
  0
LINE
  5
1A0
330
2
100
AcDbEntity
  8
0
  6
Continuous
 62
     7
100
AcDbLine
 10
761.8143224995963
 20
231.2738478986721
 30
0.0
 11
755.6329758484125
 21
231.2738478986725
 31
0.0
  0
LINE
  5
1A1
330
2
100
AcDbEntity
  8
0
  6
Continuous
 62
     7
100
AcDbLine
 10
765.2143224991995
 20
232.7262583153729
 30
0.0
 11
765.2143224991995
 21
232.6238478986729
 31
0.0
  0
LINE
  5
1A2
330
2
100
AcDbEntity
  8
0
  6
Continuous
 62
     7
100
AcDbLine
 10
765.2143224991995
 20
230.8238478986727
 30
0.0
 11
765.2143224991995
 21
230.7214374819727
 31
0.0
  0
LINE
  5
1A3
330
2
100
AcDbEntity
  8
0
  6
Continuous
 62
     7
100
AcDbLine
 10
765.3143224991999
 20
232.9488478986723
 30
0.0
 11
765.3143224991999
 21
232.6238478986729
 31
0.0
  0
LINE
  5
1A4
330
2
100
AcDbEntity
  8
0
  6
Continuous
 62
     7
100
AcDbLine
 10
761.8143224995963
 20
232.1738478986722
 30
0.0
 11
761.7642975743962
 21
232.1738478986722
 31
0.0
  0
LINE
  5
1A5
330
2
100
AcDbEntity
  8
0
  6
Continuous
 62
     7
100
AcDbLine
 10
760.8642037360968
 20
232.1738478986722
 30
0.0
 11
755.6329758484125
 21
232.1738478986722
 31
0.0
  0
LINE
  5
1A6
330
2
100
AcDbEntity
  8
0
  6
Continuous
 62
     7
100
AcDbLine
 10
768.6125536431473
 20
231.9239181916727
 30
0.0
 11
774.4065784840468
 21
231.7543793970726
 31
0.0
  0
LINE
  5
1A7
330
2
100
AcDbEntity
  8
0
  6
Continuous
 62
     7
100
AcDbLine
 10
765.3143224991999
 20
232.6238478986729
 30
0.0
 11
763.3143224991997
 21
232.6238478986729
 31
0.0
  0
LINE
  5
1A8
330
2
100
AcDbEntity
  8
0
  6
Continuous
 62
     7
100
AcDbLine
 10
763.3143224991997
 20
232.9738478986728
 30
0.0
 11
761.7643224995962
 21
232.9738478986723
 31
0.0
  0
LINE
  5
1A9
330
2
100
AcDbEntity
  8
0
  6
Continuous
 62
     7
100
AcDbLine
 10
760.8643224995965
 20
232.9738478986723
 30
0.0
 11
760.3143224995964
 21
232.9738478986723
 31
0.0
  0
LINE
  5
1AA
330
2
100
AcDbEntity
  8
0
  6
Continuous
 62
     7
100
AcDbLine
 10
774.6125536431572
 20
232.6238478986388
 30
0.0
 11
768.6125536431473
 21
232.8638478986718
 31
0.0
  0
LINE
  5
1AB
330
2
100
AcDbEntity
  8
0
  6
Continuous
 62
     7
100
AcDbLine
 10
765.2143224991995
 20
232.6238478986729
 30
0.0
 11
763.4143224992002
 21
233.0214374819729
 31
0.0
  0
LINE
  5
1AC
330
2
100
AcDbEntity
  8
0
  6
Continuous
 62
     7
100
AcDbLine
 10
765.2143224991995
 20
232.7262583153729
 30
0.0
 11
763.4143224992002
 21
233.1238478986729
 31
0.0
  0
LINE
  5
1AD
330
2
100
AcDbEntity
  8
0
  6
Continuous
 62
     7
100
AcDbLine
 10
760.3143224995964
 20
233.4238478986722
 30
0.0
 11
758.8143224995964
 21
233.4238478986722
 31
0.0
  0
LINE
  5
1AE
330
2
100
AcDbEntity
  8
0
  6
Continuous
 62
     7
100
AcDbLine
 10
767.2131859465387
 20
232.5976947694166
 30
0.0
 11
766.7218059143476
 21
231.7238478986728
 31
0.0
  0
LINE
  5
1AF
330
2
100
AcDbEntity
  8
0
  6
Continuous
 62
     7
100
AcDbLine
 10
767.2125536431474
 20
230.8499842623182
 30
0.0
 11
766.7218059143476
 21
231.7238478986728
 31
0.0
  0
LINE
  5
1B0
330
2
100
AcDbEntity
  8
0
  6
Continuous
 62
     7
100
AcDbLine
 10
767.2125536431474
 20
230.8499842623182
 30
0.0
 11
767.2125536431474
 21
232.5977115350365
 31
0.0
  0
LINE
  5
1B1
330
2
100
AcDbEntity
  8
0
  6
Continuous
 62
     7
100
AcDbLine
 10
774.5667374220462
 20
232.4586614146728
 30
0.0
 11
774.6092425040467
 21
232.4989706542728
 31
0.0
  0
LINE
  5
1B2
330
2
100
AcDbEntity
  8
0
  6
Continuous
 62
     7
100
AcDbLine
 10
774.6092425047471
 20
230.9487251199725
 30
0.0
 11
774.5667370276468
 21
230.9890347352729
 31
0.0
  0
LINE
  5
1B3
330
2
100
AcDbEntity
  8
0
  6
Continuous
 62
     7
100
AcDbLine
 10
774.4065900130472
 20
231.6933162363725
 30
0.0
 11
774.4238188650466
 21
231.0438435673727
 31
0.0
  0
LINE
  5
1B4
330
2
100
AcDbEntity
  8
0
  6
Continuous
 62
     7
100
AcDbLine
 10
774.6125536430917
 20
230.823847898635
 30
0.0
 11
774.5898321393467
 21
231.6807731860726
 31
0.0
  0
LINE
  5
1B5
330
2
100
AcDbEntity
  8
0
  6
Continuous
 62
     7
100
AcDbLine
 10
774.4238202541471
 20
232.4038521930729
 30
0.0
 11
774.4065897496462
 21
231.7543795364727
 31
0.0
  0
LINE
  5
1B6
330
2
100
AcDbEntity
  8
0
  6
Continuous
 62
     7
100
AcDbLine
 10
774.5898321393467
 20
231.7669226112725
 30
0.0
 11
774.6125536431572
 21
232.6238478986388
 31
0.0
  0
ARC
  5
1B7
330
2
100
AcDbEntity
  8
0
  6
Continuous
 62
     7
100
AcDbCircle
 10
774.4291198856471
 20
230.8439193863728
 30
0.0
 40
0.1999989487
100
AcDbArc
 50
46.51915660848897
 51
91.51885058688128
  0
ARC
  5
1B8
330
2
100
AcDbEntity
  8
0
  6
Continuous
 62
     7
100
AcDbCircle
 10
774.4291212607468
 20
232.6037758708725
 30
0.0
 40
0.1999988533
100
AcDbArc
 50
268.4811495986962
 51
313.4808155214268
  0
SPLINE
  5
1B9
330
2
100
AcDbEntity
  8
0
  6
Continuous
 62
     7
100
AcDbSpline
210
0.0
220
0.0
230
1.0
 70
     8
 71
     3
 72
    11
 73
     7
 74
     0
 42
0.0000000001
 43
0.0000000001
 40
0.0
 40
0.0
 40
0.0
 40
0.0
 40
0.0797661967
 40
0.3004940368
 40
0.6225643518
 40
1.0
 40
1.0
 40
1.0
 40
1.0
 10
761.7643224995962
 20
232.9738478986723
 30
0.0
 10
761.7528203129968
 20
232.9697063863723
 30
0.0
 10
761.7093178679961
 20
232.9545646400724
 30
0.0
 10
761.6178884433963
 20
232.9270109124722
 30
0.0
 10
761.4795521272961
 20
232.8981439524723
 30
0.0
 10
761.3721731458963
 20
232.8900382775723
 30
0.0
 10
761.3143224995964
 20
232.8900382775723
 30
0.0
  0
SPLINE
  5
1BA
330
2
100
AcDbEntity
  8
0
  6
Continuous
 62
     7
100
AcDbSpline
210
0.0
220
0.0
230
1.0
 70
     8
 71
     3
 72
    11
 73
     7
 74
     0
 42
0.0000000001
 43
0.0000000001
 40
0.0
 40
0.0
 40
0.0
 40
0.0
 40
0.3774333031
 40
0.6995067272
 40
0.9202351720000001
 40
1.0
 40
1.0
 40
1.0
 40
1.0
 10
761.3143224995964
 20
232.8900382775723
 30
0.0
 10
761.2564722137967
 20
232.8900382775723
 30
0.0
 10
761.1490931336962
 20
232.8981440165721
 30
0.0
 10
761.0107565683963
 20
232.9270108414721
 30
0.0
 10
760.9193268409963
 20
232.9545648046723
 30
0.0
 10
760.875824495796
 20
232.9697064786723
 30
0.0
 10
760.8643224995965
 20
232.9738478986723
 30
0.0
  0
LINE
  5
1BB
330
2
100
AcDbEntity
  8
0
  6
Continuous
 62
     7
100
AcDbLine
 10
774.5898321393467
 20
231.7669226112725
 30
0.0
 11
774.548246040047
 21
231.7608199019728
 31
0.0
  0
SPLINE
  5
1BC
330
2
100
AcDbEntity
  8
0
  6
Continuous
 62
     7
100
AcDbSpline
210
0.0
220
0.0
230
1.0
 70
     8
 71
     3
 72
     9
 73
     5
 74
     0
 42
0.0000000001
 43
0.0000000001
 40
0.0
 40
0.0
 40
0.0
 40
0.0
 40
0.4601621258
 40
1.0
 40
1.0
 40
1.0
 40
1.0
 10
774.548246040047
 20
231.7608199019728
 30
0.0
 10
774.5267064828466
 20
231.7576587590729
 30
0.0
 10
774.4794457393473
 20
231.7539883990725
 30
0.0
 10
774.4321092538464
 20
231.7537022467727
 30
0.0
 10
774.4065784840468
 20
231.7543793970726
 30
0.0
  0
LINE
  5
1BD
330
2
100
AcDbEntity
  8
0
  6
Continuous
 62
     7
100
AcDbLine
 10
774.5482821408467
 20
231.6868720728725
 30
0.0
 11
774.5898321393467
 21
231.6807731860726
 31
0.0
  0
SPLINE
  5
1BE
330
2
100
AcDbEntity
  8
0
  6
Continuous
 62
     7
100
AcDbSpline
210
0.0
220
0.0
230
1.0
 70
     8
 71
     3
 72
     9
 73
     5
 74
     0
 42
0.0000000001
 43
0.0000000001
 40
0.0
 40
0.0
 40
0.0
 40
0.0
 40
0.539863612
 40
1.0
 40
1.0
 40
1.0
 40
1.0
 10
774.4065767742466
 20
231.6933163997728
 30
0.0
 10
774.4321156087469
 20
231.6939939521726
 30
0.0
 10
774.4794649597467
 20
231.6937093043725
 30
0.0
 10
774.5267379754467
 20
231.6900336667727
 30
0.0
 10
774.5482821408467
 20
231.6868720728725
 30
0.0
  0
SPLINE
  5
1BF
330
2
100
AcDbEntity
  8
0
  6
Continuous
 62
     7
100
AcDbSpline
210
0.0
220
0.0
230
1.0
 70
     8
 71
     3
 72
    27
 73
    23
 74
     0
 42
0.0000000001
 43
0.0000000001
 40
0.0
 40
0.0
 40
0.0
 40
0.0
 40
0.168232569
 40
0.3340472685
 40
0.4944531397
 40
0.5714933574000001
 40
0.6456175791
 40
0.7160918609
 40
0.7819100087999999
 40
0.8419809109999999
 40
0.8948358937
 40
0.9180371759999999
 40
0.9388025528
 40
0.9569022119999999
 40
0.9721047028
 40
0.9841806702999999
 40
0.9889862242999999
 40
0.9929467670999999
 40
0.9960452301
 40
0.99826458
 40
0.9995879358999999
 40
1.0
 40
1.0
 40
1.0
 40
1.0
 10
761.3143224995964
 20
231.7238478986723
 30
0.0
 10
761.3398095350966
 20
231.7488275364721
 30
0.0
 10
761.3897484614962
 20
231.7991052548723
 30
0.0
 10
761.4638015724966
 20
231.8733848755723
 30
0.0
 10
761.5243857546961
 20
231.9337779577722
 30
0.0
 10
761.5710928505957
 20
231.9805408987722
 30
0.0
 10
761.6043128453965
 20
232.0138117841725
 30
0.0
 10
761.6358508061964
 20
232.0453981210721
 30
0.0
 10
761.6652892561956
 20
232.0748680055721
 30
0.0
 10
761.6921009560964
 20
232.1016790040721
 30
0.0
 10
761.7125296727963
 20
232.1220878140725
 30
0.0
 10
761.727061893096
 20
232.1366020744722
 30
0.0
 10
761.7363770967966
 20
232.1459057956722
 30
0.0
 10
761.7444951123959
 20
232.1540101923724
 30
0.0
 10
761.7513048442957
 20
232.1608070413722
 30
0.0
 10
761.7561367432962
 20
232.1656159723725
 30
0.0
 10
761.7592546258963
 20
232.1687261876723
 30
0.0
 10
761.7610705275964
 20
232.1705215796723
 30
0.0
 10
761.7623758121961
 20
232.1718645951723
 30
0.0
 10
761.7635637605961
 20
232.1729755927722
 30
0.0
 10
761.7638087891963
 20
232.1733851171725
 30
0.0
 10
761.764397448096
 20
232.1738478986722
 30
0.0
 10
761.7643100369967
 20
232.1738478986722
 30
0.0
  0
SPLINE
  5
1C0
330
2
100
AcDbEntity
  8
0
  6
Continuous
 62
     7
100
AcDbSpline
210
0.0
220
0.0
230
1.0
 70
     8
 71
     3
 72
    26
 73
    22
 74
     0
 42
0.0000000001
 43
0.0000000001
 40
0.0
 40
0.0
 40
0.0
 40
0.0
 40
0.000397398
 40
0.0017251313
 40
0.0039644736
 40
0.0070928217
 40
0.0159248713
 40
0.0280367141
 40
0.0432288246
 40
0.0612914275
 40
0.0820144367
 40
0.1051863983
 40
0.1580116094
 40
0.2180452402
 40
0.2838609813
 40
0.3543125958
 40
0.4284192841
 40
0.5054577961
 40
0.6658375618
 40
0.8317224467
 40
1.0
 40
1.0
 40
1.0
 40
1.0
 10
760.8642631178963
 20
232.1738478986722
 30
0.0
 10
760.8641788109961
 20
232.1738478986722
 30
0.0
 10
760.8647395601964
 20
232.1733712612722
 30
0.0
 10
760.8650105521964
 20
232.1729841928722
 30
0.0
 10
760.8662075705957
 20
232.1718656053722
 30
0.0
 10
760.8682492872966
 20
232.1698330686722
 30
0.0
 10
760.8719816655963
 20
232.1662075244721
 30
0.0
 10
760.8773865142965
 20
232.1608348717723
 30
0.0
 10
760.8842090911966
 20
232.1540223571723
 30
0.0
 10
760.8922930476964
 20
232.1459202349724
 30
0.0
 10
760.9015776910962
 20
232.1366135323724
 30
0.0
 10
760.9160772236963
 20
232.1220960376722
 30
0.0
 10
760.9364813982962
 20
232.1016873990725
 30
0.0
 10
760.963283525796
 20
232.0748835374724
 30
0.0
 10
760.9927271850964
 20
232.0454325919723
 30
0.0
 10
761.0242771851962
 20
232.0138658668724
 30
0.0
 10
761.057509154696
 20
231.980614000472
 30
0.0
 10
761.1042375971964
 20
231.9338782755721
 30
0.0
 10
761.1648245895966
 20
231.8734652848725
 30
0.0
 10
761.2387824284959
 20
231.7990512880724
 30
0.0
 10
761.2888575581962
 20
231.7488678925724
 30
0.0
 10
761.3143224995964
 20
231.7238478986723
 30
0.0
  0
LINE
  5
1C1
330
2
100
AcDbEntity
  8
cen
  6
CENTER
 62
     1
 48
1.15951757333512
370
     5
100
AcDbLine
 10
775.5395970941344
 20
231.7238478986723
 30
0.0
 11
753.5946305011321
 21
231.7238478986719
 31
0.0
  0
LINE
  5
1C5
330
2
100
AcDbEntity
  8
0
  6
Continuous
 62
     7
100
AcDbLine
 10
766.3143224996263
 20
232.9488478986723
 30
0.0
 11
765.3143224991999
 21
232.9488478986723
 31
0.0
  0
LINE
  5
1C6
330
2
100
AcDbEntity
  8
0
370
    20
100
AcDbLine
 10
766.5143384259088
 20
232.8638478986722
 30
0.0
 11
766.3143224996255
 21
232.8638478986722
 31
0.0
  0
LINE
  5
1C7
330
2
100
AcDbEntity
  8
0
370
    20
100
AcDbLine
 10
766.5961077515911
 20
230.5838478986725
 30
0.0
 11
766.3143224996263
 21
230.5838478986725
 31
0.0
  0
LINE
  5
1C8
330
2
100
AcDbEntity
  8
0
  6
Continuous
 62
     7
100
AcDbLine
 10
754.8143225011389
 20
229.9738478986724
 30
0.0
 11
753.8143224996255
 21
229.9738478986719
 31
0.0
  0
LINE
  5
1C9
330
2
100
AcDbEntity
  8
0
  6
Continuous
 62
     7
100
AcDbLine
 10
754.8143225011377
 20
233.4738478986719
 30
0.0
 11
753.8143224996255
 21
233.4738478986719
 31
0.0
  0
LINE
  5
1CA
330
2
100
AcDbEntity
  8
0
  6
CENTER
 62
     1
 48
0.1625504660286628
370
     5
100
AcDbLine
 10
761.3143224995964
 20
232.0865560765096
 30
0.0
 11
761.3143224995964
 21
233.1999799172827
 31
0.0
  0
LINE
  5
1CB
330
2
100
AcDbEntity
  8
0
  6
Continuous
 62
     7
100
AcDbLine
 10
754.8143225011389
 20
233.0238478980522
 30
0.0
 11
758.8143224995964
 21
233.0238478980522
 31
0.0
  0
LINE
  5
1CC
330
2
100
AcDbEntity
  8
0
  6
Continuous
 62
     7
100
AcDbLine
 10
754.8143225011389
 20
230.4238478986722
 30
0.0
 11
758.8143224995964
 21
230.4238478986722
 31
0.0
  0
LINE
  5
1CD
330
2
100
AcDbEntity
  8
0
  6
Continuous
 62
     7
100
AcDbLine
 10
754.8143225011389
 20
230.4238478986722
 30
0.0
 11
754.8143225011389
 21
229.9738478986724
 31
0.0
  0
LINE
  5
1CE
330
2
100
AcDbEntity
  8
0
  6
Continuous
 62
     7
100
AcDbLine
 10
753.8143224996255
 20
230.2738478973583
 30
0.0
 11
753.8143224996255
 21
230.0238478969727
 31
0.0
  0
LINE
  5
1CF
102
{ACAD_REACTORS
330
1F7
102
}
330
2
100
AcDbEntity
  8
0
  6
Continuous
 62
     7
100
AcDbLine
 10
753.8143224996255
 20
229.9738478986719
 30
0.0
 11
753.8143224996255
 21
233.4738478986719
 31
0.0
  0
LINE
  5
1D0
330
2
100
AcDbEntity
  8
0
  6
Continuous
 62
     7
100
AcDbLine
 10
754.8143225011377
 20
233.4738478986719
 30
0.0
 11
754.8143225011389
 21
233.0238478980522
 31
0.0
  0
LINE
  5
1D1
330
2
100
AcDbEntity
  8
0
  6
Continuous
 62
     7
100
AcDbLine
 10
755.6329758484134
 20
231.2738478986721
 30
0.0
 11
755.6329758484125
 21
232.1738478986722
 31
0.0
  0
LINE
  5
1D2
330
2
100
AcDbEntity
  8
0
  6
Continuous
 62
     7
100
AcDbLine
 10
753.8143224996255
 20
233.2238478968343
 30
0.0
 11
755.6329758484125
 21
232.1738478986722
 31
0.0
  0
LINE
  5
1D3
330
2
100
AcDbEntity
  8
0
  6
Continuous
 62
     7
100
AcDbLine
 10
758.8143224995964
 20
233.0238478980522
 30
0.0
 11
754.8143225011389
 21
233.0238478980522
 31
0.0
  0
DIMENSION
  5
1D4
330
2
100
AcDbEntity
  8
0
370
    20
100
AcDbDimension
  2
*D1
 10
743.5314436907535
 20
229.9738478986719
 30
0.0
 11
743.5314436907535
 21
239.223847898672
 31
0.0
 70
   128
  1
%%C3.5
 71
     5
 42
3.5
 73
     0
 74
     0
 75
     0
  3
01
100
AcDbAlignedDimension
 13
753.8143224996255
 23
233.4738478986719
 33
0.0
 14
753.8143224996255
 24
229.9738478986719
 34
0.0
 50
90.0
100
AcDbRotatedDimension
1001
ACAD
1000
DSTYLE
1002
{
1070
    43
1040
0.450000000000273
1070
    47
1040
0.1
1070
    48
1040
0.1
1070
    71
1070
     1
1070
   272
1070
     3
1070
   345
1005
33
1002
}
  0
LINE
  5
1E3
330
2
100
AcDbEntity
  8
0
  6
Continuous
 62
     7
100
AcDbLine
 10
753.8143224996255
 20
230.2238479005095
 30
0.0
 11
755.6329758484125
 21
231.2738478986725
 31
0.0
  0
LINE
  5
1E4
330
2
100
AcDbEntity
  8
0
370
    20
100
AcDbLine
 10
768.6125536431473
 20
231.9239181916727
 30
0.0
 11
768.6125536431473
 21
231.5237776056728
 31
0.0
  0
LINE
  5
1E5
330
2
100
AcDbEntity
  8
0
  6
Continuous
 62
     7
370
    -3
100
AcDbLine
 10
766.3143224991991
 20
232.9497754763624
 30
0.0
 11
766.3143224991991
 21
231.7238478986723
 31
0.0
  0
LINE
  5
1E6
330
2
100
AcDbEntity
  8
0
  6
Continuous
 62
     7
370
    -3
100
AcDbLine
 10
766.3143224991999
 20
230.5837862341045
 30
0.0
 11
766.3143224991999
 21
230.4997754763622
 31
0.0
  0
DIMENSION
  5
1E7
330
2
100
AcDbEntity
  8
0
370
    20
100
AcDbDimension
  2
*D2
 10
781.3499046113284
 20
230.4838478986776
 30
0.0
 11
781.3499046113284
 21
238.7138478751736
 31
0.0
 70
   128
  1
%%c2.5
 71
     5
 42
2.479999976495944
 73
     0
 74
     0
 75
     0
  3
01
100
AcDbAlignedDimension
 13
774.8143224992053
 23
232.9638478751735
 33
0.0
 14
774.8143224992981
 24
230.4838478986776
 34
0.0
 50
90.0
100
AcDbRotatedDimension
1001
ACAD
1000
DSTYLE
1002
{
1070
   283
1070
     1
1070
   272
1070
     3
1070
   146
1040
1.0
1070
   147
1040
0.5
1070
    48
1040
0.05
1070
    72
1070
     0
1070
    71
1070
     1
1070
    47
1040
0.05
1070
    43
1040
0.450000000000273
1070
   345
1005
33
1002
}
  0
DIMENSION
  5
1F5
102
{ACAD_XDICTIONARY
360
1F6
102
}
102
{ACAD_REACTORS
330
1F7
102
}
330
2
100
AcDbEntity
  8
0
370
    20
100
AcDbDimension
  2
*D6
 10
753.8143224996255
 20
238.5252115166679
 30
0.0
 11
764.5578882347193
 21
240.0252115166679
 31
0.0
 70
    32
  1
21.5
 71
     5
 42
21.48713147018771
 73
     0
 74
     0
 75
     0
  3
01
100
AcDbAlignedDimension
 13
775.3014539698132
 23
232.7392043886798
 33
0.0
 14
753.8143224996255
 24
233.4738478986719
 34
0.0
100
AcDbRotatedDimension
1001
ACAD
1000
DSTYLE
1002
{
1070
   283
1070
     1
1070
   272
1070
     3
1070
   146
1040
1.0
1070
   147
1040
0.5
1070
    48
1040
0.1
1070
    72
1070
     0
1070
    71
1070
     1
1070
    47
1040
0.1
1070
    43
1040
0.450000000000273
1070
   345
1005
33
1002
}
  0
LINE
  5
204
330
2
100
AcDbEntity
  8
0
  6
Continuous
 62
     7
100
AcDbLine
 10
766.3143224996164
 20
230.4988478986679
 30
0.0
 11
765.3143224991999
 21
230.4988478986756
 31
0.0
  0
LINE
  5
205
330
2
100
AcDbEntity
  8
0
370
    20
100
AcDbLine
 10
768.6125536431473
 20
231.9239181916727
 30
0.0
 11
768.6125536431473
 21
231.5237776056728
 31
0.0
  0
SPLINE
  5
206
330
2
100
AcDbEntity
  8
TG_SOLIDLINE
  6
Continuous
 62
     5
100
AcDbSpline
210
0.0
220
0.0
230
1.0
 70
     8
 71
     3
 72
     8
 73
     4
 74
     0
 42
0.0000000001
 43
0.0000000001
 40
0.0
 40
0.0
 40
0.0
 40
0.0
 40
0.5033524800000003
 40
0.5033524800000003
 40
0.5033524800000003
 40
0.5033524800000003
 10
766.6643224992067
 20
230.4838478986776
 30
0.0
 10
766.7152836367993
 20
230.5086256759764
 30
0.0
 10
766.7659297313011
 20
230.5209314976746
 30
0.0
 10
766.8162607827124
 20
230.5207653636685
 30
0.0
  0
SPLINE
  5
208
330
2
100
AcDbEntity
  8
TG_SOLIDLINE
  6
Continuous
 62
     5
100
AcDbSpline
210
0.0
220
0.0
230
1.0
 70
     8
 71
     3
 72
     8
 73
     4
 74
     0
 42
0.0000000001
 43
0.0000000001
 40
0.7566966415000001
 40
0.7566966415000001
 40
0.7566966415000001
 40
0.7566966415000001
 40
1.0
 40
1.0
 40
1.0
 40
1.0
 10
766.8920182701092
 20
230.5110361513739
 30
0.0
 10
766.9161932872956
 20
230.5048873789715
 30
0.0
 10
766.9402946970067
 20
230.4958246280689
 30
0.0
 10
766.9643224991976
 20
230.4838478986776
 30
0.0
  0
SPLINE
  5
209
330
2
100
AcDbEntity
  8
TG_SOLIDLINE
  6
Continuous
 62
     5
100
AcDbSpline
210
0.0
220
0.0
230
1.0
 70
     8
 71
     3
 72
     8
 73
     4
 74
     0
 42
0.0000000001
 43
0.0000000001
 40
0.7569118105000002
 40
0.7569118105000002
 40
0.7569118105000002
 40
0.7569118105000002
 40
1.0
 40
1.0
 40
1.0
 40
1.0
 10
766.8920824086008
 20
232.9366759659742
 30
0.0
 10
766.9162359161072
 20
232.9428244500741
 30
0.0
 10
766.9403159463135
 20
232.951881760976
 30
0.0
 10
766.9643224991976
 20
232.9638478986676
 30
0.0
  0
LINE
  5
20A
330
2
100
AcDbEntity
  8
TG_SOLIDLINE
  6
Continuous
 62
     7
100
AcDbLine
 10
766.3143224991991
 20
230.4838478986776
 30
0.0
 11
766.3143224991991
 21
232.9638478986676
 31
0.0
  0
LINE
  5
20B
330
2
100
AcDbEntity
  8
TG_SOLIDLINE
  6
Continuous
 62
     7
100
AcDbLine
 10
766.3143224991991
 20
230.4838478986776
 30
0.0
 11
766.6643224992067
 21
230.4838478986776
 31
0.0
  0
LINE
  5
20C
330
2
100
AcDbEntity
  8
TG_SOLIDLINE
  6
Continuous
 62
     7
100
AcDbLine
 10
766.9643224991976
 20
230.4838478986776
 30
0.0
 11
774.8143224992981
 21
230.4838478986776
 31
0.0
  0
LINE
  5
20D
330
2
100
AcDbEntity
  8
TG_SOLIDLINE
  6
Continuous
 62
     7
100
AcDbLine
 10
766.3143224991991
 20
230.5838478986743
 30
0.0
 11
766.5961077515946
 21
230.5838478986743
 31
0.0
  0
LINE
  5
20E
330
2
100
AcDbEntity
  8
TG_SOLIDLINE
  6
Continuous
 62
     7
100
AcDbLine
 10
767.0322454029027
 20
230.5838478986743
 30
0.0
 11
774.8143224968032
 21
230.5838478986743
 31
0.0
  0
LWPOLYLINE
  5
20F
330
2
100
AcDbEntity
  8
TG_SOLIDLINE
  6
Continuous
 62
     7
100
AcDbPolyline
 90
        4
 70
     0
 43
0.0
 10
766.5961085009966
 20
232.8638468758781
 10
766.6751872754038
 20
232.8300470025742
 10
766.7689864064047
 20
232.8094832383772
 10
766.8351097649917
 20
232.8073982883743
  0
LINE
  5
210
330
2
100
AcDbEntity
  8
TG_SOLIDLINE
  6
Continuous
 62
     7
100
AcDbLine
 10
766.3143224991991
 20
232.8638478986704
 30
0.0
 11
766.5961079172062
 21
232.8638478986704
 31
0.0
  0
LINE
  5
211
330
2
100
AcDbEntity
  8
TG_SOLIDLINE
  6
Continuous
 62
     7
100
AcDbLine
 10
767.0322453237121
 20
232.8638478986704
 30
0.0
 11
774.8143225017011
 21
232.8638478986704
 31
0.0
  0
LINE
  5
212
330
2
100
AcDbEntity
  8
TG_SOLIDLINE
  6
Continuous
 62
     7
100
AcDbLine
 10
766.3143224991991
 20
232.9638478986676
 30
0.0
 11
766.6643224992067
 21
232.9638478986676
 31
0.0
  0
LINE
  5
213
330
2
100
AcDbEntity
  8
TG_SOLIDLINE
  6
Continuous
 62
     7
100
AcDbLine
 10
766.9643224991976
 20
232.9638478986676
 30
0.0
 11
774.8143224992062
 21
232.9638478986676
 31
0.0
  0
LINE
  5
214
330
2
100
AcDbEntity
  8
TG_SOLIDLINE
  6
Continuous
 62
     7
100
AcDbLine
 10
775.0436118210954
 20
232.6345585767694
 30
0.0
 11
775.1537965361031
 21
232.7447432916728
 31
0.0
  0
LINE
  5
215
330
2
100
AcDbEntity
  8
TG_SOLIDLINE
  6
Continuous
 62
     7
100
AcDbLine
 10
775.1143224991972
 20
232.5638478986675
 30
0.0
 11
775.272164196195
 21
232.7216895955734
 31
0.0
  0
LINE
  5
216
330
2
100
AcDbEntity
  8
TG_SOLIDLINE
  6
Continuous
 62
     7
100
AcDbLine
 10
775.0436118210954
 20
230.8131372204716
 30
0.0
 11
775.1537965361031
 21
230.7029525055682
 31
0.0
  0
LINE
  5
217
330
2
100
AcDbEntity
  8
TG_SOLIDLINE
  6
Continuous
 62
     7
100
AcDbLine
 10
775.1143224991972
 20
230.8838478986772
 30
0.0
 11
775.272164196195
 21
230.7260062016676
 31
0.0
  0
LINE
  5
218
330
2
100
AcDbEntity
  8
TG_SOLIDLINE
  6
Continuous
 62
     7
100
AcDbLine
 10
775.1143224991972
 20
230.8838478986772
 30
0.0
 11
775.0436118210954
 21
230.8131372204716
 31
0.0
  0
LINE
  5
219
330
2
100
AcDbEntity
  8
TG_SOLIDLINE
  6
Continuous
 62
     7
100
AcDbLine
 10
775.1143224991972
 20
232.5638478986675
 30
0.0
 11
775.0436118210954
 21
232.6345585767694
 31
0.0
  0
LINE
  5
21A
330
2
100
AcDbEntity
  8
TG_SOLIDLINE
  6
Continuous
 62
     7
100
AcDbLine
 10
774.8143224968032
 20
230.5838478986743
 30
0.0
 11
774.8143225017011
 21
232.8638478986704
 31
0.0
  0
LINE
  5
21B
330
2
100
AcDbEntity
  8
TG_SOLIDLINE
  6
Continuous
 62
     7
100
AcDbLine
 10
775.0436118210954
 20
230.8131372204716
 30
0.0
 11
775.0436118210954
 21
232.6345585767694
 31
0.0
  0
LINE
  5
21C
330
2
100
AcDbEntity
  8
TG_SOLIDLINE
  6
Continuous
 62
     7
100
AcDbLine
 10
775.1143224991972
 20
230.8838478986772
 30
0.0
 11
775.1143224991972
 21
232.5638478986675
 31
0.0
  0
LINE
  5
21D
330
2
100
AcDbEntity
  8
TG_SOLIDLINE
  6
Continuous
 62
     7
100
AcDbLine
 10
775.272164196195
 20
232.7216895955734
 30
0.0
 11
775.272164196195
 21
230.7260062016676
 31
0.0
  0
LINE
  5
21E
330
2
100
AcDbEntity
  8
TG_SOLIDLINE
  6
Continuous
 62
     7
100
AcDbLine
 10
775.3014539699032
 20
230.6552751022746
 30
0.0
 11
775.3014539698114
 21
232.7923771023743
 31
0.0
  0
ARC
  5
21F
330
2
100
AcDbEntity
  8
TG_SOLIDLINE
  6
Continuous
 62
     5
100
AcDbCircle
 10
766.8160579724989
 20
234.2152055930719
 30
0.0
 40
1.2605204367
100
AcDbArc
 50
264.0121169739445
 51
265.1067184407561
  0
ARC
  5
220
330
2
100
AcDbEntity
  8
TG_SOLIDLINE
  6
Continuous
 62
     5
100
AcDbCircle
 10
766.8130086154977
 20
234.2107889158715
 30
0.0
 40
1.2560838884
100
AcDbArc
 50
274.8722857073543
 51
275.9730185013204
  0
ARC
  5
221
330
2
100
AcDbEntity
  8
TG_SOLIDLINE
  6
Continuous
 62
     5
100
AcDbCircle
 10
766.8148939718129
 20
234.2008940499709
 30
0.0
 40
1.246162919999999
100
AcDbArc
 50
266.5322119578611
 51
268.1827073799905
  0
ARC
  5
222
330
2
100
AcDbEntity
  8
TG_SOLIDLINE
  6
Continuous
 62
     5
100
AcDbCircle
 10
766.8137235718037
 20
234.2005965253715
 30
0.0
 40
1.245867612899999
100
AcDbArc
 50
273.4430476900995
 51
274.8793365765506
  0
ARC
  5
223
330
2
100
AcDbEntity
  8
TG_SOLIDLINE
  6
Continuous
 62
     5
100
AcDbCircle
 10
766.8148650013116
 20
234.1998640616748
 30
0.0
 40
1.245133065699999
100
AcDbArc
 50
265.10119604472
 51
266.5306757765023
  0
ARC
  5
224
330
2
100
AcDbEntity
  8
TG_SOLIDLINE
  6
Continuous
 62
     5
100
AcDbCircle
 10
766.8142372454138
 20
234.1903259860669
 30
0.0
 40
1.235584767099999
100
AcDbArc
 50
271.774718901001
 51
273.4478733186521
  0
ARC
  5
225
330
2
100
AcDbEntity
  8
TG_SOLIDLINE
  6
Continuous
 62
     5
100
AcDbCircle
 10
766.8143221606086
 20
234.1862286786781
 30
0.0
 40
1.231486795899999
100
AcDbArc
 50
268.1876600010759
 51
271.7766738190959
  0
ARC
  5
226
330
2
100
AcDbEntity
  8
TG_SOLIDLINE
  6
Continuous
 62
     5
100
AcDbCircle
 10
766.8421457625087
 20
233.3285710718728
 30
0.0
 40
0.4057636086
100
AcDbArc
 50
244.0081369907346
 51
249.5677104744232
  0
ARC
  5
227
330
2
100
AcDbEntity
  8
TG_SOLIDLINE
  6
Continuous
 62
     5
100
AcDbCircle
 10
766.8257665148066
 20
233.2846501640696
 30
0.0
 40
0.3588879688
100
AcDbArc
 50
249.5702578078034
 51
255.7863104103354
  0
ARC
  5
228
330
2
100
AcDbEntity
  8
TG_SOLIDLINE
  6
Continuous
 62
     5
100
AcDbCircle
 10
766.8111735940128
 20
233.2545142595749
 30
0.0
 40
0.3279747202999999
100
AcDbArc
 50
284.0442149042942
 51
284.2818612425174
  0
ARC
  5
229
330
2
100
AcDbEntity
  8
TG_SOLIDLINE
  6
Continuous
 62
     5
100
AcDbCircle
 10
766.8111851040984
 20
230.1932271631726
 30
0.0
 40
0.3279276654
100
AcDbArc
 50
75.72968451312838
 51
75.96853957245734
  0
ARC
  5
22A
330
2
100
AcDbEntity
  8
TG_SOLIDLINE
  6
Continuous
 62
     5
100
AcDbCircle
 10
766.8177646303027
 20
233.2532820295732
 30
0.0
 40
0.3265153458999999
100
AcDbArc
 50
255.7959300262028
 51
262.5788808420395
  0
ARC
  5
22B
330
2
100
AcDbEntity
  8
TG_SOLIDLINE
  6
Continuous
 62
     5
100
AcDbCircle
 10
766.8136997094087
 20
233.2435969099765
 30
0.0
 40
0.3167707523
100
AcDbArc
 50
277.2202668035742
 51
284.0801570580235
  0
ARC
  5
22C
330
2
100
AcDbEntity
  8
TG_SOLIDLINE
  6
Continuous
 62
     5
100
AcDbCircle
 10
766.8137382157937
 20
230.2042881059765
 30
0.0
 40
0.3165778033
100
AcDbArc
 50
75.93146608671287
 51
82.92029695792958
  0
ARC
  5
22D
330
2
100
AcDbEntity
  8
TG_SOLIDLINE
  6
Continuous
 62
     5
100
AcDbCircle
 10
766.8153581858049
 20
233.2354966475782
 30
0.0
 40
0.3085681346999999
100
AcDbArc
 50
262.5954265454863
 51
269.8387852003079
  0
ARC
  5
22E
330
2
100
AcDbEntity
  8
TG_SOLIDLINE
  6
Continuous
 62
     5
100
AcDbCircle
 10
766.8151112385047
 20
230.2141587501778
 30
0.0
 40
0.306613226
100
AcDbArc
 50
82.9475791180929
 51
86.37385781460961
  0
ARC
  5
22F
330
2
100
AcDbEntity
  8
TG_SOLIDLINE
  6
Continuous
 62
     5
100
AcDbCircle
 10
766.8152544058982
 20
233.2318973860692
 30
0.0
 40
0.3049686099
100
AcDbArc
 50
269.8563800372812
 51
277.2067542305129
  0
ARC
  5
230
330
2
100
AcDbEntity
  8
TG_SOLIDLINE
  6
Continuous
 62
     5
100
AcDbCircle
 10
766.8152558359066
 20
230.2162519872736
 30
0.0
 40
0.3045150346
100
AcDbArc
 50
86.37610049222027
 51
89.8109147161467
  0
ARC
  5
231
330
2
100
AcDbEntity
  8
TG_SOLIDLINE
  6
Continuous
 62
     7
100
AcDbCircle
 10
775.2014540776042
 20
232.7923997140724
 30
0.0
 40
0.0999999476
100
AcDbArc
 50
315.0000000444567
 51
46.57707287132218
  0
ARC
  5
232
330
2
100
AcDbEntity
  8
TG_SOLIDLINE
  6
Continuous
 62
     7
100
AcDbCircle
 10
775.2014540776042
 20
230.6552960831686
 30
0.0
 40
0.0999999476
100
AcDbArc
 50
313.4229271108377
 51
44.99999994428642
  0
ARC
  5
233
330
2
100
AcDbEntity
  8
TG_SOLIDLINE
  6
Continuous
 62
     7
100
AcDbCircle
 10
775.118441517893
 20
232.7800983061752
 30
0.0
 40
0.0499999884
100
AcDbArc
 50
315.0000030183433
 51
71.56365741146942
  0
ARC
  5
234
330
2
100
AcDbEntity
  8
TG_SOLIDLINE
  6
Continuous
 62
     7
100
AcDbCircle
 10
775.118441517893
 20
230.6675974910772
 30
0.0
 40
0.0499999884
100
AcDbArc
 50
288.4363418057931
 51
44.99999697555845
  0
SPLINE
  5
235
330
2
100
AcDbEntity
  8
TG_SOLIDLINE
  6
Continuous
 62
     7
100
AcDbSpline
210
0.0
220
0.0
230
1.0
 70
     8
 71
     3
 72
    14
 73
    10
 74
     0
 42
0.0000000001
 43
0.0000000001
 40
0.0
 40
0.0
 40
0.0
 40
0.0
 40
0.0383653737
 40
0.1466704413
 40
0.3082281719
 40
0.4987587979
 40
0.6894784862000001
 40
0.8516048139
 40
1.0
 40
1.0
 40
1.0
 40
1.0
 10
766.6643031388129
 20
230.4838479066702
 30
0.0
 10
766.6681288517137
 20
230.4842413193673
 30
0.0
 10
766.6827156980096
 20
230.4860979451668
 30
0.0
 10
766.7134826364923
 20
230.4889995588723
 30
0.0
 10
766.7595365478988
 20
230.492134273074
 30
0.0
 10
766.8139565218997
 20
230.4933883687676
 30
0.0
 10
766.8684337696957
 20
230.49215960237
 30
0.0
 10
766.9185768274035
 20
230.4887968555713
 30
0.0
 10
766.9495615323027
 20
230.4857126745682
 30
0.0
 10
766.9643199160026
 20
230.4838482364743
 30
0.0
  0
SPLINE
  5
236
330
2
100
AcDbEntity
  8
TG_SOLIDLINE
  6
Continuous
 62
     7
100
AcDbSpline
210
0.0
220
0.0
230
1.0
 70
     8
 71
     3
 72
    24
 73
    20
 74
     0
 42
0.0000000001
 43
0.0000000001
 40
0.0
 40
0.0
 40
0.0
 40
0.0
 40
0.0096826824
 40
0.0216743928
 40
0.0382854297
 40
0.0846286825
 40
0.1468917543
 40
0.3089513508
 40
0.4999824162
 40
0.5973835911
 40
0.6910283896
 40
0.7773508605
 40
0.8530972343
 40
0.9153836504
 40
0.9617104799999999
 40
0.9783060556999998
 40
0.9902934077999999
 40
0.9975539370999999
 40
1.0
 40
1.0
 40
1.0
 40
1.0
 10
766.6643224992067
 20
232.9638478986676
 30
0.0
 10
766.6633518962107
 20
232.9638479006776
 30
0.0
 10
766.6685500894062
 20
232.9634057671719
 30
0.0
 10
766.6708045058975
 20
232.9630539441732
 30
0.0
 10
766.6791356826132
 20
232.9621497542666
 30
0.0
 10
766.6909965395042
 20
232.9608614028716
 30
0.0
 10
766.7183910257062
 20
232.9583165809717
 30
0.0
 10
766.7596945093945
 20
232.9555737463697
 30
0.0
 10
766.8049455829031
 20
232.9545152757691
 30
0.0
 10
766.8432332704086
 20
232.9549698580767
 30
0.0
 10
766.8710246885048
 20
232.9559488854675
 30
0.0
 10
766.8966172737087
 20
232.9574106419722
 30
0.0
 10
766.9190422123938
 20
232.9591337239771
 30
0.0
 10
766.9374438455023
 20
232.9608425656729
 30
0.0
 10
766.9499239489067
 20
232.9621852156761
 30
0.0
 10
766.9573858389092
 20
232.963014909672
 30
0.0
 10
766.9609520961065
 20
232.9634713285682
 30
0.0
 10
766.9631156160956
 20
232.9636600515755
 30
0.0
 10
766.964077303105
 20
232.9638478549718
 30
0.0
 10
766.9643224991976
 20
232.9638478986676
 30
0.0
  0
SPLINE
  5
237
330
2
100
AcDbEntity
  8
TG_SOLIDLINE
  6
Continuous
 62
     7
100
AcDbSpline
210
0.0
220
0.0
230
1.0
 70
     8
 71
     3
 72
    13
 73
     9
 74
     0
 42
0.0000000001
 43
0.0000000001
 40
0.0
 40
0.0
 40
0.0
 40
0.0
 40
0.250053386
 40
0.5000640342000003
 40
0.6250980972
 40
0.7501272975
 40
0.8751094770999998
 40
1.0
 40
1.0
 40
1.0
 40
1.0
 10
774.8143224992981
 20
230.4838479220675
 30
0.0
 10
774.8539163595004
 20
230.4838479220675
 30
0.0
 10
774.9331086528963
 20
230.4857024112748
 30
0.0
 10
775.031827716395
 20
230.4948180157726
 30
0.0
 10
775.1097901216925
 20
230.5089796622723
 30
0.0
 10
775.1672390909114
 20
230.5244528929747
 30
0.0
 10
775.222395761494
 20
230.5468222152694
 30
0.0
 10
775.2558296053092
 20
230.5690723754692
 30
0.0
 10
775.270192448406
 20
230.5826655335668
 30
0.0
  0
SPLINE
  5
238
330
2
100
AcDbEntity
  8
TG_SOLIDLINE
  6
Continuous
 62
     7
100
AcDbSpline
210
0.0
220
0.0
230
1.0
 70
     8
 71
     3
 72
    13
 73
     9
 74
     0
 42
0.0000000001
 43
0.0000000001
 40
0.0
 40
0.0
 40
0.0
 40
0.0
 40
0.1248870339
 40
0.2498679508
 40
0.3748970369
 40
0.4999318961000001
 40
0.749944578
 40
1.0
 40
1.0
 40
1.0
 40
1.0
 10
775.270192448406
 20
232.8650302636742
 30
0.0
 10
775.2558300083093
 20
232.8786230403716
 30
0.0
 10
775.222396791413
 20
232.900872691468
 30
0.0
 10
775.1672410847957
 20
232.9232423247736
 30
0.0
 10
775.1097921425134
 20
232.9387153231705
 30
0.0
 10
775.0318294420972
 20
232.9528776115707
 30
0.0
 10
774.9331095987042
 20
232.9619933573672
 30
0.0
 10
774.853916677095
 20
232.9638478751735
 30
0.0
 10
774.8143224992062
 20
232.9638478751735
 30
0.0
  0
SPLINE
  5
239
330
2
100
AcDbEntity
  8
TG_SOLIDLINE
  6
Continuous
 62
     7
100
AcDbSpline
210
0.0
220
0.0
230
1.0
 70
     8
 71
     3
 72
    11
 73
     7
 74
     0
 42
0.0000000001
 43
0.0000000001
 40
0.0
 40
0.0
 40
0.0
 40
0.0
 40
0.2500554586
 40
0.4999732169
 40
0.7499121633
 40
1.0
 40
1.0
 40
1.0
 40
1.0
 10
766.9643224991976
 20
232.9638478986676
 30
0.0
 10
766.9410936013996
 20
232.9523369447684
 30
0.0
 10
766.8923286609023
 20
232.9334406500666
 30
0.0
 10
766.8143514752017
 20
232.9235792920717
 30
0.0
 10
766.736470496592
 20
232.9338920937689
 30
0.0
 10
766.6876608396996
 20
232.9525527809669
 30
0.0
 10
766.6643224992067
 20
232.9638478986676
 30
0.0
  0
SPLINE
  5
23A
330
2
100
AcDbEntity
  8
TG_SOLIDLINE
  6
Continuous
 62
     7
100
AcDbSpline
210
0.0
220
0.0
230
1.0
 70
     8
 71
     3
 72
     9
 73
     5
 74
     0
 42
0.0000000001
 43
0.0000000001
 40
0.0
 40
0.0
 40
0.0
 40
0.0
 40
0.4998914262
 40
1.0
 40
1.0
 40
1.0
 40
1.0
 10
766.8351097980957
 20
232.807397552267
 30
0.0
 10
766.8694575865965
 20
232.8089988199672
 30
0.0
 10
766.9380319676081
 20
232.8206923944699
 30
0.0
 10
767.001876335007
 20
232.8476897251707
 30
0.0
 10
767.0322453237121
 20
232.8638478986704
 30
0.0
  0
SPLINE
  5
23B
330
2
100
AcDbEntity
  8
TG_SOLIDLINE
  6
Continuous
 62
     7
100
AcDbSpline
210
0.0
220
0.0
230
1.0
 70
     8
 71
     3
 72
    11
 73
     7
 74
     0
 42
0.0000000001
 43
0.0000000001
 40
0.0
 40
0.0
 40
0.0
 40
0.0
 40
0.2500549197
 40
0.4999713167000003
 40
0.7499153411
 40
1.0
 40
1.0
 40
1.0
 40
1.0
 10
767.0322454029027
 20
230.5838478986743
 30
0.0
 10
766.9988246984993
 20
230.6016297933756
 30
0.0
 10
766.9281092639137
 20
230.6307392064673
 30
0.0
 10
766.8142164110037
 20
230.6458972970772
 30
0.0
 10
766.7004413221992
 20
230.6301966688747
 30
0.0
 10
766.6296764826991
 20
230.6013584803754
 30
0.0
 10
766.5961077515946
 20
230.5838478986743
 30
0.0
  0
SPLINE
  5
23C
330
2
100
AcDbEntity
  8
TG_SOLIDLINE
  6
Continuous
 62
     7
100
AcDbSpline
210
0.0
220
0.0
230
1.0
 70
     8
 71
     3
 72
    11
 73
     7
 74
     0
 42
0.0000000001
 43
0.0000000001
 40
0.0
 40
0.0
 40
0.0
 40
0.0
 40
0.2094020059
 40
0.4508544262
 40
0.7161106098000002
 40
1.0
 40
1.0
 40
1.0
 40
1.0
 10
775.1342574433992
 20
230.6201535602776
 30
0.0
 10
775.1128612203091
 20
230.6130203494753
 30
0.0
 10
775.0655048291117
 20
230.6015574525727
 30
0.0
 10
774.9890581560072
 20
230.5908616364749
 30
0.0
 10
774.9040547546083
 20
230.5849697143685
 30
0.0
 10
774.8448992317943
 20
230.583847922076
 30
0.0
 10
774.8143224968032
 20
230.583847922076
 30
0.0
  0
SPLINE
  5
23D
330
2
100
AcDbEntity
  8
TG_SOLIDLINE
  6
Continuous
 62
     7
100
AcDbSpline
210
0.0
220
0.0
230
1.0
 70
     8
 71
     3
 72
    11
 73
     7
 74
     0
 42
0.0000000001
 43
0.0000000001
 40
0.0
 40
0.0
 40
0.0
 40
0.0
 40
0.2838893902
 40
0.5491455739
 40
0.7905979941
 40
1.0
 40
1.0
 40
1.0
 40
1.0
 10
774.8143225017011
 20
232.8638478751768
 30
0.0
 10
774.8448992363907
 20
232.8638478751768
 30
0.0
 10
774.9040547583042
 20
232.8627260826761
 30
0.0
 10
774.989058158594
 20
232.8568341604773
 30
0.0
 10
775.0655048307062
 20
232.8461383443678
 30
0.0
 10
775.1128612212101
 20
232.8346754475692
 30
0.0
 10
775.1342574440922
 20
232.8275422367669
 30
0.0
  0
SPLINE
  5
23E
330
2
100
AcDbEntity
  8
TG_SOLIDLINE
  6
Continuous
 62
     7
100
AcDbSpline
210
0.0
220
0.0
230
1.0
 70
     8
 71
     3
 72
     9
 73
     5
 74
     0
 42
0.0000000001
 43
0.0000000001
 40
0.0
 40
0.0
 40
0.0
 40
0.0
 40
0.5001786790999999
 40
1.0
 40
1.0
 40
1.0
 40
1.0
 10
766.5961079172062
 20
232.8638478986704
 30
0.0
 10
766.6327382712924
 20
232.8447401936764
 30
0.0
 10
766.7103349068055
 20
232.8139192526737
 30
0.0
 10
766.7938696143045
 20
232.805474966276
 30
0.0
 10
766.8351097980957
 20
232.807397552267
 30
0.0
  0
SPLINE
  5
23F
330
2
100
AcDbEntity
  8
TG_SOLIDLINE
  6
Continuous
 62
     7
100
AcDbSpline
210
0.0
220
0.0
230
1.0
 70
     8
 71
     3
 72
     9
 73
     5
 74
     0
 42
0.0000000001
 43
0.0000000001
 40
0.0
 40
0.0
 40
0.0
 40
0.0
 40
0.4998662903000002
 40
1.0
 40
1.0
 40
1.0
 40
1.0
 10
766.8162300638913
 20
230.5207546713745
 30
0.0
 10
766.8418327838077
 20
230.5206749814674
 30
0.0
 10
766.8932456638128
 20
230.5139428371712
 30
0.0
 10
766.9413696083957
 20
230.4952220787768
 30
0.0
 10
766.9643224991976
 20
230.4838478986776
 30
0.0
  0
SPLINE
  5
240
330
2
100
AcDbEntity
  8
TG_SOLIDLINE
  6
Continuous
 62
     7
100
AcDbSpline
210
0.0
220
0.0
230
1.0
 70
     8
 71
     3
 72
     9
 73
     5
 74
     0
 42
0.0000000001
 43
0.0000000001
 40
0.0
 40
0.0
 40
0.0
 40
0.0
 40
0.5001541179000001
 40
1.0
 40
1.0
 40
1.0
 40
1.0
 10
766.6643224992067
 20
230.4838478986776
 30
0.0
 10
766.6879382094101
 20
230.495277255668
 30
0.0
 10
766.7373272973097
 20
230.5141123773751
 30
0.0
 10
766.7900102783042
 20
230.5208362820744
 30
0.0
 10
766.8162300638913
 20
230.5207546713745
 30
0.0
  0
LINE
  5
241
330
2
100
AcDbEntity
  8
TG_SOLIDLINE
  6
Continuous
 62
     7
100
AcDbLine
 10
775.1342281076912
 20
230.6201437814734
 30
0.0
 11
775.1342281069981
 21
230.71959375187
 31
0.0
  0
LINE
  5
242
330
2
100
AcDbEntity
  8
TG_SOLIDLINE
  6
Continuous
 62
     7
100
AcDbLine
 10
775.1342282346094
 20
232.7288692774768
 30
0.0
 11
775.1342282353024
 21
232.8275519731687
 31
0.0
  0
LINE
  5
243
330
2
100
AcDbEntity
  8
TG_SOLIDLINE
  6
Continuous
 62
     5
100
AcDbLine
 10
766.6643224992067
 20
232.9638478986676
 30
0.0
 11
766.6845628272093
 21
232.9615625824736
 31
0.0
  0
LINE
  5
244
330
2
100
AcDbEntity
  8
TG_SOLIDLINE
  6
Continuous
 62
     5
100
AcDbLine
 10
766.9437168498966
 20
232.9615242952718
 30
0.0
 11
766.9643224991976
 21
232.9638478986676
 31
0.0
  0
INSERT
  5
245
330
2
100
AcDbEntity
  8
0
370
     5
100
AcDbBlockReference
  2
HATCHING_BL0
 10
770.8078835270997
 20
231.7238478986669
 30
0.0
  0
LWPOLYLINE
  5
24B
330
2
100
AcDbEntity
  8
TG_SOLIDLINE
  6
Continuous
 62
     7
100
AcDbPolyline
 90
        3
 70
     0
 43
0.0
 10
733.6248763704792
 20
212.1480947657288
 10
733.5712261832845
 20
212.0246972951255
 10
733.532347625189
 20
211.8822321186304
  0
LWPOLYLINE
  5
24C
330
2
100
AcDbEntity
  8
TG_SOLIDLINE
  6
Continuous
 62
     7
100
AcDbPolyline
 90
       10
 70
     0
 43
0.0
 10
733.5322887262732
 20
211.8818931235356
 10
733.5300294057747
 20
211.8681340154322
 10
733.5223515348911
 20
211.7838529218339
 10
733.5256649732802
 20
211.704003984834
 10
733.5400456401734
 20
211.6248930922298
 10
733.5667782004821
 20
211.5436214042344
 10
733.6060887161814
 20
211.4609106051367
 10
733.6573899831822
 20
211.376925014231
 10
733.7195276611748
 20
211.2918626215338
 10
733.7810923215753
 20
211.2174450630305
  0
LINE
  5
24D
330
2
100
AcDbEntity
  8
TG_SOLIDLINE
  6
Continuous
 62
     7
100
AcDbLine
 10
733.5323473879864
 20
211.8822297869261
 30
0.0
 11
733.5322883945868
 21
211.8818912195257
 31
0.0
  0
LWPOLYLINE
  5
24E
330
2
100
AcDbEntity
  8
TG_SOLIDLINE
  6
Continuous
 62
     7
100
AcDbPolyline
 90
       11
 70
     0
 43
0.0
 10
735.1815906254772
 20
212.5206489708331
 10
735.1147152440947
 20
212.4039305001335
 10
735.0214389061887
 20
212.2733927146347
 10
734.909513964289
 20
212.1436863827358
 10
734.7825674411737
 20
212.0194467911311
 10
734.6448760602893
 20
211.9050589455302
 10
734.5011655766851
 20
211.8044771483301
 10
734.3565000034872
 20
211.7211197115281
 10
734.2162389545785
 20
211.6577527929285
 10
734.0861844050798
 20
211.6163135437265
 10
733.9669440997806
 20
211.596939690136
  0
LWPOLYLINE
  5
24F
330
2
100
AcDbEntity
  8
TG_SOLIDLINE
  6
Continuous
 62
     7
100
AcDbPolyline
 90
        3
 70
     0
 43
0.0
 10
735.2522475369791
 20
212.7127451861275
 10
735.2243939404793
 20
212.6182670533359
 10
735.1816034432744
 20
212.5206744644362
  0
LINE
  5
250
330
2
100
AcDbEntity
  8
CDSF_SOLIDLINE
  6
Continuous
 62
     7
100
AcDbLine
 10
741.8216807580749
 20
201.1750725035309
 30
0.0
 11
742.6933137456784
 21
200.1707839869355
 31
0.0
  0
LINE
  5
252
330
2
100
AcDbEntity
  8
CDSF_SOLIDLINE
  6
Continuous
 62
     7
100
AcDbLine
 10
745.0176683791863
 20
197.4926812759305
 30
0.0
 11
745.5987570375811
 21
196.8231555982312
 31
0.0
  0
LINE
  5
253
330
2
100
AcDbEntity
  8
SD______SUS301-06_____SOLIDLINE
  6
Continuous
 62
     7
100
AcDbLine
 10
739.8943817951781
 20
203.5662420120335
 30
0.0
 11
739.4995012151904
 21
204.7737721460317
 31
0.0
  0
LINE
  5
255
330
2
100
AcDbEntity
  8
CDSF_SOLIDLINE
  6
Continuous
 62
     7
100
AcDbLine
 10
743.3840995834911
 20
200.0613995138325
 30
0.0
 11
745.3575190940767
 21
197.7876414284283
 31
0.0
  0
LINE
  5
256
330
2
100
AcDbEntity
  8
CDSF_SOLIDLINE
  6
Continuous
 62
     7
100
AcDbLine
 10
740.4658248748777
 20
203.4848373498258
 30
0.0
 11
742.1917404254822
 21
201.4962513362253
 31
0.0
  0
LINE
  5
257
330
2
100
AcDbEntity
  8
TG_SOLIDLINE
  6
Continuous
 62
     7
100
AcDbLine
 10
738.7203129513748
 20
205.5265147428314
 30
0.0
 11
733.7810593551722
 21
211.2174830036339
 31
0.0
  0
LINE
  5
258
330
2
100
AcDbEntity
  8
CDSF_SOLIDLINE
  6
Continuous
 62
     7
100
AcDbLine
 10
738.7809015456752
 20
205.4795894989303
 30
0.0
 11
739.3127299668933
 21
204.8668210701281
 31
0.0
  0
LINE
  5
259
330
2
100
AcDbEntity
  8
SD______SUS301-06_____SOLIDLINE
  6
Continuous
 62
     7
100
AcDbLine
 10
741.0033103726894
 20
203.8453263872316
 30
0.0
 11
741.0614192384804
 21
203.7783738194272
 31
0.0
  0
LINE
  5
25A
330
2
100
AcDbEntity
  8
CDSF_SOLIDLINE
  6
Continuous
 62
     7
100
AcDbLine
 10
734.0479728397723
 20
211.7175303488339
 30
0.0
 11
734.0668326974795
 21
211.6970649049295
 31
0.0
  0
LINE
  5
25B
330
2
100
AcDbEntity
  8
SD______SUS301-06_____SOLIDLINE
  6
Continuous
 62
     7
100
AcDbLine
 10
740.2800714047901
 20
205.002034965834
 30
0.0
 11
740.7455255372727
 21
203.5786935317311
 31
0.0
  0
LINE
  5
25C
330
2
100
AcDbEntity
  8
SD______SUS301-06_____SOLIDLINE
  6
Continuous
 62
     7
100
AcDbLine
 10
740.8419351327933
 20
203.7356923521343
 30
0.0
 11
740.8355607801905
 21
203.7657669488272
 31
0.0
  0
LINE
  5
25D
330
2
100
AcDbEntity
  8
SD______SUS301-06_____SOLIDLINE
  6
Continuous
 62
     7
100
AcDbLine
 10
740.8526999436864
 20
203.7316844541334
 30
0.0
 11
740.85907429629
 21
203.7016098573364
 31
0.0
  0
LINE
  5
25E
330
2
100
AcDbEntity
  8
SD______SUS301-06_____SOLIDLINE
  6
Continuous
 62
     7
100
AcDbLine
 10
741.0073039208931
 20
205.610998842934
 30
0.0
 11
740.9826159005855
 21
205.6093108420355
 31
0.0
  0
LINE
  5
25F
330
2
100
AcDbEntity
  8
SD______SUS301-06_____SOLIDLINE
  6
Continuous
 62
     7
100
AcDbLine
 10
740.8942355974826
 20
205.4883942149318
 30
0.0
 11
740.8743994026773
 21
205.496880515731
 31
0.0
  0
LINE
  5
260
330
2
100
AcDbEntity
  8
SD______SUS301-06_____SOLIDLINE
  6
Continuous
 62
     7
100
AcDbLine
 10
742.0456167110891
 20
204.4615688310278
 30
0.0
 11
740.5967858297882
 21
205.2347257952289
 31
0.0
  0
LINE
  5
261
330
2
100
AcDbEntity
  8
SD______SUS301-06_____SOLIDLINE
  6
Continuous
 62
     7
100
AcDbLine
 10
741.7472640080781
 20
204.2443184686341
 30
0.0
 11
741.6891551422871
 21
204.3112710364268
 31
0.0
  0
LINE
  5
262
330
2
100
AcDbEntity
  8
SD______SUS301-06_____SOLIDLINE
  6
Continuous
 62
     7
100
AcDbLine
 10
741.7408896554746
 20
204.2743930654311
 30
0.0
 11
741.6827807896837
 21
204.3413456332356
 31
0.0
  0
LINE
  5
263
330
2
100
AcDbEntity
  8
CDSF_SOLIDLINE
  6
Continuous
 62
     7
100
AcDbLine
 10
741.1036319673834
 20
205.8390486749345
 30
0.0
 11
741.1241918409862
 21
205.8153597539268
 31
0.0
  0
LINE
  5
264
330
2
100
AcDbEntity
  8
SD______SUS301-06_____SOLIDLINE
  6
Continuous
 62
     7
100
AcDbLine
 10
741.6891551422871
 20
204.3112710364268
 30
0.0
 11
741.6827807896837
 21
204.3413456332356
 31
0.0
  0
LINE
  5
265
330
2
100
AcDbEntity
  8
SD______SUS301-06_____SOLIDLINE
  6
Continuous
 62
     7
100
AcDbLine
 10
741.7472640080781
 20
204.2443184686341
 30
0.0
 11
741.7408896554746
 21
204.2743930654311
 31
0.0
  0
LINE
  5
266
330
2
100
AcDbEntity
  8
SD______SUS301-06_____SOLIDLINE
  6
Continuous
 62
     7
100
AcDbLine
 10
742.0037358650792
 20
204.4205381786301
 30
0.0
 11
742.0456167110891
 21
204.4615688310278
 31
0.0
  0
LINE
  5
267
330
2
100
AcDbEntity
  8
SD______SUS301-06_____SOLIDLINE
  6
Continuous
 62
     7
100
AcDbLine
 10
741.0614192384804
 20
203.7783738194272
 30
0.0
 11
741.7472640080781
 21
204.2443184686341
 31
0.0
  0
LINE
  5
268
330
2
100
AcDbEntity
  8
SD______SUS301-06_____SOLIDLINE
  6
Continuous
 62
     7
100
AcDbLine
 10
740.7455255372727
 20
203.5786935317311
 30
0.0
 11
740.8027857671742
 21
203.6046447041286
 31
0.0
  0
LINE
  5
269
330
2
100
AcDbEntity
  8
SD______SUS301-06_____SOLIDLINE
  6
Continuous
 62
     7
100
AcDbLine
 10
741.2338264913945
 20
206.2518784011255
 30
0.0
 11
742.5752004146792
 21
205.5360649795285
 31
0.0
  0
LWPOLYLINE
  5
26A
330
2
100
AcDbEntity
  8
TG_SOLIDLINE
  6
Continuous
 62
     7
100
AcDbPolyline
 90
       10
 70
     0
 43
0.0
 10
735.6540378301846
 20
212.8430141491282
 10
735.590654675589
 20
212.9127349681299
 10
735.5180703690797
 20
212.983832274636
 10
735.445171064481
 20
213.0448486898263
 10
735.3703675311867
 20
213.0957377950282
 10
735.29292683279
 20
213.135481660731
 10
735.2135564616823
 20
213.1629786694317
 10
735.1312791247894
 20
213.1786901594324
 10
735.0448953277812
 20
213.1831332734333
 10
735.03124828379
 20
213.1828367029353
  0
LINE
  5
26B
330
2
100
AcDbEntity
  8
CDSF_SOLIDLINE
  6
Continuous
 62
     7
100
AcDbLine
 10
740.6337321948797
 20
207.0825659526259
 30
0.0
 11
741.1630283038832
 21
206.4727152336359
 31
0.0
  0
LINE
  5
26C
330
2
100
AcDbEntity
  8
TG_SOLIDLINE
  6
Continuous
 62
     7
100
AcDbLine
 10
740.5932680026827
 20
207.152072916435
 30
0.0
 11
735.6540144063886
 21
212.8430411772257
 31
0.0
  0
LINE
  5
26D
330
2
100
AcDbEntity
  8
CDSF_SOLIDLINE
  6
Continuous
 62
     7
100
AcDbLine
 10
742.4614634724815
 20
205.0300657205281
 30
0.0
 11
744.0949044291921
 21
203.14802819013
 31
0.0
  0
LINE
  5
26E
330
2
100
AcDbEntity
  8
CDSF_SOLIDLINE
  6
Continuous
 62
     7
100
AcDbLine
 10
745.3477382171927
 20
201.7655483699319
 30
0.0
 11
747.321101002682
 21
199.4918556428302
 31
0.0
  0
LINE
  5
26F
330
2
100
AcDbEntity
  8
CDSF_SOLIDLINE
  6
Continuous
 62
     7
100
AcDbLine
 10
744.4649640964837
 20
203.4692070228362
 30
0.0
 11
745.3365970840872
 21
202.4649185062295
 31
0.0
  0
LINE
  5
270
330
2
100
AcDbEntity
  8
CDSF_SOLIDLINE
  6
Continuous
 62
     7
100
AcDbLine
 10
747.6609517175721
 20
199.7868157952358
 30
0.0
 11
748.2420403759901
 21
199.1172901175365
 31
0.0
  0
LINE
  5
271
330
2
100
AcDbEntity
  8
TG_SOLIDLINE
  6
Continuous
 62
     7
100
AcDbLine
 10
733.9666060396815
 20
211.5969162380294
 30
0.0
 11
733.9669699057916
 21
211.5969408866264
 31
0.0
  0
LINE
  5
272
330
2
100
AcDbEntity
  8
CDSF_SOLIDLINE
  6
Continuous
 62
     7
100
AcDbLine
 10
734.0336994216796
 20
211.6891349461358
 30
0.0
 11
734.0861009166823
 21
211.7016764678352
 31
0.0
  0
LINE
  5
273
330
2
100
AcDbEntity
  8
CDSF_SOLIDLINE
  6
Continuous
 62
     7
100
AcDbLine
 10
734.100374334775
 20
211.7300718706256
 30
0.0
 11
734.0479728397723
 21
211.7175303488339
 31
0.0
  0
LWPOLYLINE
  5
274
330
2
100
AcDbEntity
  8
TG_SOLIDLINE
  6
Continuous
 62
     7
100
AcDbPolyline
 90
       12
 70
     0
 43
0.0
 10
735.0306386227815
 20
213.1828175009347
 10
735.0077719524809
 20
213.1817188667288
 10
734.8629020611872
 20
213.1596118117342
 10
734.7088519108822
 20
213.1123023950359
 10
734.5490519214839
 20
213.041699409127
 10
734.3875958279942
 20
212.9501204355307
 10
734.2286993816818
 20
212.8402528835269
 10
734.0767090937792
 20
212.7152269002291
 10
733.9359127780928
 20
212.5785590193314
 10
733.8103456243872
 20
212.4340073661352
 10
733.7036921616812
 20
212.2854454824361
 10
733.6248633606886
 20
212.1480688837261
  0
LINE
  5
275
330
2
100
AcDbEntity
  8
TG_SOLIDLINE
  6
Continuous
 62
     7
100
AcDbLine
 10
735.0312547479808
 20
213.1828369054288
 30
0.0
 11
735.0306458903845
 21
213.1828177315306
 31
0.0
  0
ARC
  5
276
330
2
100
AcDbEntity
  8
SD______SUS301-06_____SOLIDLINE
  6
Continuous
 62
     7
100
AcDbCircle
 10
739.0945811049871
 20
207.4122276439308
 30
0.0
 40
2.614633395799998
100
AcDbArc
 50
311.2094625260247
 51
312.8994848951257
  0
ARC
  5
277
330
2
100
AcDbEntity
  8
CDSF_SOLIDLINE
  6
Continuous
 62
     7
100
AcDbCircle
 10
738.9343674082757
 20
207.1764560654306
 30
0.0
 40
2.559079296699998
100
AcDbArc
 50
310.8427646892734
 51
318.4298500229088
  0
ARC
  5
278
330
2
100
AcDbEntity
  8
CDSF_SOLIDLINE
  6
Continuous
 62
     7
100
AcDbCircle
 10
739.0605335708809
 20
207.0622540325295
 30
0.0
 40
2.388912254699999
100
AcDbArc
 50
318.4711911799937
 51
319.2144337503785
  0
ARC
  5
279
330
2
100
AcDbEntity
  8
CDSF_SOLIDLINE
  6
Continuous
 62
     7
100
AcDbCircle
 10
739.1875412904847
 20
206.9555770077323
 30
0.0
 40
2.223063597499999
100
AcDbArc
 50
319.1578947521221
 51
323.1985574399123
  0
ARC
  5
27A
330
2
100
AcDbEntity
  8
TG_SOLIDLINE
  6
Continuous
 62
     7
100
AcDbCircle
 10
733.8473771680733
 20
213.1885168961263
 30
0.0
 40
2.009855208899999
100
AcDbArc
 50
324.7231224424735
 51
324.9670290351787
  0
ARC
  5
27B
330
2
100
AcDbEntity
  8
CDSF_SOLIDLINE
  6
Continuous
 62
     7
100
AcDbCircle
 10
735.5579461231938
 20
210.737432302834
 30
0.0
 40
1.800170945599999
100
AcDbArc
 50
145.7414370388267
 51
146.7082531072682
  0
ARC
  5
27C
330
2
100
AcDbEntity
  8
CDSF_SOLIDLINE
  6
Continuous
 62
     7
100
AcDbCircle
 10
735.5206989483789
 20
210.7619892684284
 30
0.0
 40
1.7555571615
100
AcDbArc
 50
146.7109218228149
 51
147.0234967393531
  0
ARC
  5
27D
330
2
100
AcDbEntity
  8
TG_SOLIDLINE
  6
Continuous
 62
     7
100
AcDbCircle
 10
734.9688890747914
 20
211.2870013218277
 30
0.0
 40
1.2110742527
100
AcDbArc
 50
153.2811279867177
 51
155.8109053635097
  0
ARC
  5
27E
330
2
100
AcDbEntity
  8
TG_SOLIDLINE
  6
Continuous
 62
     7
100
AcDbCircle
 10
734.8984302900881
 20
211.5332851258273
 30
0.0
 40
1.0942255102
100
AcDbArc
 50
150.4089572754859
 51
153.2962519758493
  0
ARC
  5
27F
330
2
100
AcDbEntity
  8
CDSF_SOLIDLINE
  6
Continuous
 62
     7
100
AcDbCircle
 10
735.3436009628897
 20
211.723026762933
 30
0.0
 40
0.8571478268999999
100
AcDbArc
 50
99.43952378964056
 51
101.1337659050275
  0
ARC
  5
280
330
2
100
AcDbEntity
  8
SD______SUS301-06_____SOLIDLINE
  6
Continuous
 62
     7
100
AcDbCircle
 10
740.4027215001828
 20
206.2023874217353
 30
0.0
 40
0.8187424705999999
100
AcDbArc
 50
335.3716057939755
 51
336.3499682609041
  0
ARC
  5
281
330
2
100
AcDbEntity
  8
TG_SOLIDLINE
  6
Continuous
 62
     7
100
AcDbCircle
 10
734.5555216847882
 20
211.6818200513322
 30
0.0
 40
0.7201225056000001
100
AcDbArc
 50
161.3219238152075
 51
161.7862603105049
  0
ARC
  5
282
330
2
100
AcDbEntity
  8
TG_SOLIDLINE
  6
Continuous
 62
     7
100
AcDbCircle
 10
735.0817551284866
 20
212.1613227383278
 30
0.0
 40
0.7001115082
100
AcDbArc
 50
98.81341532243851
 51
100.5357736767003
  0
ARC
  5
283
330
2
100
AcDbEntity
  8
TG_SOLIDLINE
  6
Continuous
 62
     7
100
AcDbCircle
 10
734.5220718332742
 20
211.6927231215341
 30
0.0
 40
0.6849407016
100
AcDbArc
 50
161.7780306324024
 51
164.0765626976563
  0
ARC
  5
284
330
2
100
AcDbEntity
  8
TG_SOLIDLINE
  6
Continuous
 62
     7
100
AcDbCircle
 10
735.0767653085878
 20
212.1927083925285
 30
0.0
 40
0.6683319238999999
100
AcDbArc
 50
98.40683647977725
 51
98.80294945148635
  0
ARC
  5
285
330
2
100
AcDbEntity
  8
SD______SUS301-06_____SOLIDLINE
  6
Continuous
 62
     7
100
AcDbCircle
 10
740.1314943396759
 20
203.8592193498285
 30
0.0
 40
0.4115459338000001
100
AcDbArc
 50
253.6363081205857
 51
254.0768515266964
  0
ARC
  5
286
330
2
100
AcDbEntity
  8
CDSF_SOLIDLINE
  6
Continuous
 62
     7
100
AcDbCircle
 10
734.152452944489
 20
211.4251313865321
 30
0.0
 40
0.2843936946999999
100
AcDbArc
 50
99.92259039573788
 51
103.4920519312852
  0
ARC
  5
287
330
2
100
AcDbEntity
  8
CDSF_SOLIDLINE
  6
Continuous
 62
     7
100
AcDbCircle
 10
734.1477843419755
 20
211.4517662074268
 30
0.0
 40
0.2573528101
100
AcDbArc
 50
92.96056158593421
 51
99.92055963198669
  0
ARC
  5
288
330
2
100
AcDbEntity
  8
SD______SUS301-06_____SOLIDLINE
  6
Continuous
 62
     7
100
AcDbCircle
 10
740.8955857911827
 20
203.8178801052364
 30
0.0
 40
0.0794907731
100
AcDbArc
 50
214.267602839684
 51
220.9642114913052
  0
ARC
  5
289
330
2
100
AcDbEntity
  8
SD______SUS301-06_____SOLIDLINE
  6
Continuous
 62
     7
100
AcDbCircle
 10
741.7428058006765
 20
204.3934587895288
 30
0.0
 40
0.0794907731
100
AcDbArc
 50
214.267602839684
 51
220.9642114913052
  0
ARC
  5
28A
330
2
100
AcDbEntity
  8
SD______SUS301-06_____SOLIDLINE
  6
Continuous
 62
     7
100
AcDbCircle
 10
740.893468817086
 20
203.8164594802293
 30
0.0
 40
0.0769413768
100
AcDbArc
 50
205.052287047801
 51
214.280971626465
  0
ARC
  5
28B
330
2
100
AcDbEntity
  8
SD______SUS301-06_____SOLIDLINE
  6
Continuous
 62
     7
100
AcDbCircle
 10
741.740688826579
 20
204.3920381646263
 30
0.0
 40
0.0769413768
100
AcDbArc
 50
205.052287047801
 51
214.2809716270078
  0
SPLINE
  5
28C
330
2
100
AcDbEntity
  8
SD______SUS301-06_____SOLIDLINE
  6
Continuous
 62
     7
100
AcDbSpline
210
0.0
220
0.0
230
1.0
 70
     8
 71
     3
 72
     9
 73
     5
 74
     0
 42
0.0000000001
 43
0.0000000001
 40
0.0
 40
0.0
 40
0.0
 40
0.0
 40
0.4924194166
 40
1.0
 40
1.0
 40
1.0
 40
1.0
 10
740.8247904231924
 20
203.7698018002285
 30
0.0
 10
740.8229554410938
 20
203.7784740134322
 30
0.0
 10
740.8224655046938
 20
203.7969131491337
 30
0.0
 10
740.8283835841914
 20
203.8143208850351
 30
0.0
 10
740.8326376709895
 20
203.8224073027323
 30
0.0
  0
SPLINE
  5
28D
330
2
100
AcDbEntity
  8
SD______SUS301-06_____SOLIDLINE
  6
Continuous
 62
     7
100
AcDbSpline
210
0.0
220
0.0
230
1.0
 70
     8
 71
     3
 72
    14
 73
    10
 74
     0
 42
0.0000000001
 43
0.0000000001
 40
0.0
 40
0.0
 40
0.0
 40
0.0
 40
0.1208255262
 40
0.2462204883
 40
0.5037141412000003
 40
0.6332605163000001
 40
0.7599501311
 40
0.8823333593
 40
1.0
 40
1.0
 40
1.0
 40
1.0
 10
740.8326376709895
 20
203.8224073027323
 30
0.0
 10
740.8363638340837
 20
203.829490212329
 30
0.0
 10
740.8459958815948
 20
203.8429306396357
 30
0.0
 10
740.871683732886
 20
203.8646042394358
 30
0.0
 10
740.9048433483807
 20
203.8767924229306
 30
0.0
 10
740.9390729332774
 20
203.8775435235276
 30
0.0
 10
740.9638680235834
 20
203.8723809835266
 30
0.0
 10
740.9859793409854
 20
203.8617508935363
 30
0.0
 10
740.9982016596862
 20
203.8512126052324
 30
0.0
 10
741.0033103726894
 20
203.8453263872316
 30
0.0
  0
SPLINE
  5
28E
330
2
100
AcDbEntity
  8
SD______SUS301-06_____SOLIDLINE
  6
Continuous
 62
     7
100
AcDbSpline
210
0.0
220
0.0
230
1.0
 70
     8
 71
     3
 72
    12
 73
     8
 74
     0
 42
0.0000000001
 43
0.0000000001
 40
0.0
 40
0.0
 40
0.0
 40
0.0
 40
0.3310868288
 40
0.6002317688000001
 40
0.8158125634999999
 40
0.9100518117
 40
1.0
 40
1.0
 40
1.0
 40
1.0
 10
742.605158920392
 20
205.4417210140319
 30
0.0
 10
742.6057289596912
 20
205.4531481661316
 30
0.0
 10
742.6056741181938
 20
205.4739686751337
 30
0.0
 10
742.601009069472
 20
205.5019272153305
 30
0.0
 10
742.5925351569842
 20
205.5205230588277
 30
0.0
 10
742.5831575905723
 20
205.5308080466294
 30
0.0
 10
742.57785768879
 20
205.5344547032288
 30
0.0
 10
742.5751059707849
 20
205.5359003215363
 30
0.0
  0
SPLINE
  5
28F
330
2
100
AcDbEntity
  8
SD______SUS301-06_____SOLIDLINE
  6
Continuous
 62
     7
100
AcDbSpline
210
0.0
220
0.0
230
1.0
 70
     8
 71
     3
 72
    16
 73
    12
 74
     0
 42
0.0000000001
 43
0.0000000001
 40
0.0
 40
0.0
 40
0.0
 40
0.0
 40
0.1452689385
 40
0.2940043732
 40
0.5826702071000001
 40
0.7131914411000003
 40
0.8286100626999999
 40
0.8793632440999999
 40
0.9249639087
 40
0.9652219762000001
 40
1.0
 40
1.0
 40
1.0
 40
1.0
 10
742.0456167110891
 20
204.4615688310278
 30
0.0
 10
742.0850390385768
 20
204.5005919078313
 30
0.0
 10
742.1612672492742
 20
204.5832232670342
 30
0.0
 10
742.2997197172739
 20
204.7575228727279
 30
0.0
 10
742.4176372636788
 20
204.9404924206307
 30
0.0
 10
742.5098810498797
 20
205.1227250326352
 30
0.0
 10
742.5534744499885
 20
205.2274699328314
 30
0.0
 10
742.5788509762751
 20
205.3042847333337
 30
0.0
 10
742.5923860081915
 20
205.3546988329264
 30
0.0
 10
742.6013201273812
 20
205.3999249216355
 30
0.0
 10
742.6044972870744
 20
205.4284577451277
 30
0.0
 10
742.605158920392
 20
205.4417210140319
 30
0.0
  0
SPLINE
  5
290
330
2
100
AcDbEntity
  8
SD______SUS301-06_____SOLIDLINE
  6
Continuous
 62
     7
100
AcDbSpline
210
0.0
220
0.0
230
1.0
 70
     8
 71
     3
 72
    15
 73
    11
 74
     0
 42
0.0000000001
 43
0.0000000001
 40
0.0
 40
0.0
 40
0.0
 40
0.0
 40
0.1146163548
 40
0.2333359555
 40
0.3581923007
 40
0.4884457568000001
 40
0.6212019647
 40
0.7526399366
 40
0.8794062143999996
 40
1.0
 40
1.0
 40
1.0
 40
1.0
 10
741.6720104326863
 20
204.3453804845327
 30
0.0
 10
741.6700121798896
 20
204.354824322933
 30
0.0
 10
741.6698196144892
 20
204.3750697844303
 30
0.0
 10
741.6810733305932
 20
204.4037507015356
 30
0.0
 10
741.7021396578832
 20
204.4279043432362
 30
0.0
 10
741.7305122638776
 20
204.4450507223356
 30
0.0
 10
741.7631080553722
 20
204.4535165614276
 30
0.0
 10
741.7964943680783
 20
204.4524067921367
 30
0.0
 10
741.8271120277769
 20
204.441792702533
 30
0.0
 10
741.8438732309809
 20
204.4285753876335
 30
0.0
 10
741.8505303821834
 20
204.4209050715359
 30
0.0
  0
SPLINE
  5
291
330
2
100
AcDbEntity
  8
SD______SUS301-06_____SOLIDLINE
  6
Continuous
 62
     7
100
AcDbSpline
210
0.0
220
0.0
230
1.0
 70
     8
 71
     3
 72
    10
 73
     6
 74
     0
 42
0.0000000001
 43
0.0000000001
 40
0.0
 40
0.0
 40
0.0
 40
0.0
 40
0.2586112067
 40
0.5229244121
 40
1.0
 40
1.0
 40
1.0
 40
1.0
 10
740.9826159016942
 20
205.6093108433293
 30
0.0
 10
740.9995671979888
 20
205.6290183367256
 30
0.0
 10
741.0324876065755
 20
205.6700624870301
 30
0.0
 10
741.0901617727926
 20
205.7524200579315
 30
0.0
 10
741.1270011238842
 20
205.8175988351364
 30
0.0
 10
741.1469827226912
 20
205.8611917802337
 30
0.0
  0
SPLINE
  5
292
330
2
100
AcDbEntity
  8
SD______SUS301-06_____SOLIDLINE
  6
Continuous
 62
     7
100
AcDbSpline
210
0.0
220
0.0
230
1.0
 70
     8
 71
     3
 72
     9
 73
     5
 74
     0
 42
0.0000000001
 43
0.0000000001
 40
0.0
 40
0.0
 40
0.0
 40
0.0
 40
0.5364340955
 40
1.0
 40
1.0
 40
1.0
 40
1.0
 10
741.1527000733915
 20
205.8739496454328
 30
0.0
 10
741.166734151374
 20
205.9060009746273
 30
0.0
 10
741.1891211802851
 20
205.96752289593
 30
0.0
 10
741.2006284688726
 20
206.0322835160292
 30
0.0
 10
741.2020991234842
 20
206.0624840496267
 30
0.0
  0
SPLINE
  5
293
330
2
100
AcDbEntity
  8
SD______SUS301-06_____SOLIDLINE
  6
Continuous
 62
     7
100
AcDbSpline
210
0.0
220
0.0
230
1.0
 70
     8
 71
     3
 72
     9
 73
     5
 74
     0
 42
0.0000000001
 43
0.0000000001
 40
0.0
 40
0.0
 40
0.0
 40
0.0
 40
0.5850080662
 40
1.0
 40
1.0
 40
1.0
 40
1.0
 10
740.8743994026773
 20
205.496880515731
 30
0.0
 10
740.896416181887
 20
205.5178983905331
 30
0.0
 10
740.9332910599836
 20
205.5546314734334
 30
0.0
 10
740.9685355390942
 20
205.5929410834252
 30
0.0
 10
740.9826159016942
 20
205.6093108433293
 30
0.0
  0
SPLINE
  5
294
330
2
100
AcDbEntity
  8
SD______SUS301-06_____SOLIDLINE
  6
Continuous
 62
     7
100
AcDbSpline
210
0.0
220
0.0
230
1.0
 70
     8
 71
     3
 72
    11
 73
     7
 74
     0
 42
0.0000000001
 43
0.0000000001
 40
0.0
 40
0.0
 40
0.0
 40
0.0
 40
0.2416029115
 40
0.4830394513
 40
0.7345672658
 40
1.0
 40
1.0
 40
1.0
 40
1.0
 10
739.8944452538947
 20
203.5660480852344
 30
0.0
 10
739.8985654448819
 20
203.5534782286273
 30
0.0
 10
739.9108716669927
 20
203.5294911615302
 30
0.0
 10
739.9393394861728
 20
203.5004085026258
 30
0.0
 10
739.974976734093
 20
203.4784840174353
 30
0.0
 10
740.0016074008902
 20
203.4684493994288
 30
0.0
 10
740.015548068872
 20
203.4643440304263
 30
0.0
  0
SPLINE
  5
295
330
2
100
AcDbEntity
  8
SD______SUS301-06_____SOLIDLINE
  6
Continuous
 62
     7
100
AcDbSpline
210
0.0
220
0.0
230
1.0
 70
     8
 71
     3
 72
    14
 73
    10
 74
     0
 42
0.0000000001
 43
0.0000000001
 40
0.0
 40
0.0
 40
0.0
 40
0.0
 40
0.0553259967
 40
0.1119741747
 40
0.2287483378
 40
0.3497489903
 40
0.4744788772
 40
0.7329538708
 40
1.0
 40
1.0
 40
1.0
 40
1.0
 10
740.2869285687942
 20
203.4549227083281
 30
0.0
 10
740.2956688400749
 20
203.4558979898298
 30
0.0
 10
740.3133756410881
 20
203.4577185136364
 30
0.0
 10
740.3494424184947
 20
203.4623637187347
 30
0.0
 10
740.3956669681851
 20
203.4697759448355
 30
0.0
 10
740.4521465854744
 20
203.4812798993358
 30
0.0
 10
740.5300071394886
 20
203.5003676367333
 30
0.0
 10
740.6288324198825
 20
203.5310285996357
 30
0.0
 10
740.7066223308804
 20
203.5617091016312
 30
0.0
 10
740.7455255372727
 20
203.5786935315346
 30
0.0
  0
SPLINE
  5
296
330
2
100
AcDbEntity
  8
SD______SUS301-06_____SOLIDLINE
  6
Continuous
 62
     7
100
AcDbSpline
210
0.0
220
0.0
230
1.0
 70
     8
 71
     3
 72
    15
 73
    11
 74
     0
 42
0.0000000001
 43
0.0000000001
 40
0.0
 40
0.0
 40
0.0
 40
0.0
 40
0.2094295813
 40
0.3846866251
 40
0.5752394191
 40
0.6761062781
 40
0.7805612695000002
 40
0.8885164962000001
 40
0.9437939633999999
 40
1.0
 40
1.0
 40
1.0
 40
1.0
 10
740.0185876361769
 20
203.4634642085303
 30
0.0
 10
740.0367276393921
 20
203.4583037991271
 30
0.0
 10
740.0708281280923
 20
203.4514942739312
 30
0.0
 10
740.1224354899936
 20
203.4465772217337
 30
0.0
 10
740.1644965531842
 20
203.445807548435
 30
0.0
 10
740.2001330105835
 20
203.4469021588339
 30
0.0
 10
740.2282949735901
 20
203.4486593949301
 30
0.0
 10
740.2523002830776
 20
203.4508922765263
 30
0.0
 10
740.2719421730803
 20
203.45306465863
 30
0.0
 10
740.2818982738748
 20
203.4543614039263
 30
0.0
 10
740.2869285687942
 20
203.4549227083281
 30
0.0
  0
SPLINE
  5
297
330
2
100
AcDbEntity
  8
SD______SUS301-06_____SOLIDLINE
  6
Continuous
 62
     7
100
AcDbSpline
210
0.0
220
0.0
230
1.0
 70
     8
 71
     3
 72
    11
 73
     7
 74
     0
 42
0.0000000001
 43
0.0000000001
 40
0.0
 40
0.0
 40
0.0
 40
0.0
 40
0.2665066891
 40
0.5218617905
 40
0.7649833615999999
 40
1.0
 40
1.0
 40
1.0
 40
1.0
 10
740.8027857671742
 20
203.6046447041286
 30
0.0
 10
740.8125411661761
 20
203.6090659934303
 30
0.0
 10
740.8305465288925
 20
203.6205011651346
 30
0.0
 10
740.8506587081923
 20
203.6444317552306
 30
0.0
 10
740.8613110107737
 20
203.6725694835328
 30
0.0
 10
740.8610351360788
 20
203.6923402078333
 30
0.0
 10
740.8590802678949
 20
203.7015806856349
 30
0.0
  0
SPLINE
  5
298
330
2
100
AcDbEntity
  8
SD______SUS301-06_____SOLIDLINE
  6
Continuous
 62
     7
100
AcDbSpline
210
0.0
220
0.0
230
1.0
 70
     8
 71
     3
 72
    12
 73
     8
 74
     0
 42
0.0000000001
 43
0.0000000001
 40
0.0
 40
0.0
 40
0.0
 40
0.0
 40
0.1169242902
 40
0.2378368871
 40
0.4891513859
 40
0.7473595014
 40
1.0
 40
1.0
 40
1.0
 40
1.0
 10
741.8505303821834
 20
204.4209050715359
 30
0.0
 10
741.8548576249889
 20
204.4159192572293
 30
0.0
 10
741.8649441701876
 20
204.4068301472272
 30
0.0
 10
741.8892396543837
 20
204.3933099457286
 30
0.0
 10
741.925243003175
 20
204.3864254346345
 30
0.0
 10
741.9684135478859
 20
204.3946549357293
 30
0.0
 10
741.9935463971889
 20
204.4105555600305
 30
0.0
 10
742.0037358650792
 20
204.4205381786301
 30
0.0
  0
SPLINE
  5
299
330
2
100
AcDbEntity
  8
SD______SUS301-06_____SOLIDLINE
  6
Continuous
 62
     7
100
AcDbSpline
210
0.0
220
0.0
230
1.0
 70
     8
 71
     3
 72
     9
 73
     5
 74
     0
 42
0.0000000001
 43
0.0000000001
 40
0.0
 40
0.0
 40
0.0
 40
0.0
 40
0.5040579503
 40
1.0
 40
1.0
 40
1.0
 40
1.0
 10
740.8355607801905
 20
203.7657669488272
 30
0.0
 10
740.8397995021954
 20
203.7608831275294
 30
0.0
 10
740.8470751298802
 20
203.7501350157291
 30
0.0
 10
740.8513890228917
 20
203.7378801086298
 30
0.0
 10
740.8527059152921
 20
203.7316552824319
 30
0.0
  0
SPLINE
  5
29A
330
2
100
AcDbEntity
  8
SD______SUS301-06_____SOLIDLINE
  6
Continuous
 62
     7
100
AcDbSpline
210
0.0
220
0.0
230
1.0
 70
     8
 71
     3
 72
    15
 73
    11
 74
     0
 42
0.0000000001
 43
0.0000000001
 40
0.0
 40
0.0
 40
0.0
 40
0.0
 40
0.0890106096
 40
0.1885647381
 40
0.2993767303
 40
0.4212056310000003
 40
0.553340332
 40
0.6950404862
 40
0.8482754815999998
 40
1.0
 40
1.0
 40
1.0
 40
1.0
 10
741.2310681981737
 20
206.1752504000315
 30
0.0
 10
741.2347054796732
 20
206.1571173691287
 30
0.0
 10
741.2381161804835
 20
206.1177986056324
 30
0.0
 10
741.2329803944853
 20
206.0555997895272
 30
0.0
 10
741.2180907891893
 20
205.9880222842367
 30
0.0
 10
741.1936260254747
 20
205.91615199303
 30
0.0
 10
741.1598818347804
 20
205.8410704702324
 30
0.0
 10
741.1168592531732
 20
205.7633579191353
 30
0.0
 10
741.0658651841762
 20
205.6857234714263
 30
0.0
 10
741.0273720856816
 20
205.6353108285353
 30
0.0
 10
741.0073039228803
 20
205.6109988453364
 30
0.0
  0
SPLINE
  5
29B
330
2
100
AcDbEntity
  8
SD______SUS301-06_____SOLIDLINE
  6
Continuous
 62
     7
100
AcDbSpline
210
0.0
220
0.0
230
1.0
 70
     8
 71
     3
 72
     9
 73
     5
 74
     0
 42
0.0000000001
 43
0.0000000001
 40
0.0
 40
0.0
 40
0.0
 40
0.0
 40
0.5040217917000001
 40
1.0
 40
1.0
 40
1.0
 40
1.0
 10
740.8419351327933
 20
203.7356923521343
 30
0.0
 10
740.8376969693757
 20
203.7405755298338
 30
0.0
 10
740.830422152194
 20
203.7513231446356
 30
0.0
 10
740.8261075613885
 20
203.763576942336
 30
0.0
 10
740.8247904231924
 20
203.7698018002285
 30
0.0
  0
SPLINE
  5
29C
330
2
100
AcDbEntity
  8
SD______SUS301-06_____SOLIDLINE
  6
Continuous
 62
     7
100
AcDbSpline
210
0.0
220
0.0
230
1.0
 70
     8
 71
     3
 72
     9
 73
     5
 74
     0
 42
0.0000000001
 43
0.0000000001
 40
0.0
 40
0.0
 40
0.0
 40
0.0
 40
0.4959420497
 40
1.0
 40
1.0
 40
1.0
 40
1.0
 10
740.8590802678949
 20
203.7015806856349
 30
0.0
 10
740.8577633754722
 20
203.7078055118328
 30
0.0
 10
740.8534494824829
 20
203.7200604189321
 30
0.0
 10
740.846173854775
 20
203.7308085307323
 30
0.0
 10
740.8419351327933
 20
203.7356923521343
 30
0.0
  0
SPLINE
  5
29D
330
2
100
AcDbEntity
  8
SD______SUS301-06_____SOLIDLINE
  6
Continuous
 62
     7
100
AcDbSpline
210
0.0
220
0.0
230
1.0
 70
     8
 71
     3
 72
     9
 73
     5
 74
     0
 42
0.0000000001
 43
0.0000000001
 40
0.0
 40
0.0
 40
0.0
 40
0.0
 40
0.5001316772
 40
1.0
 40
1.0
 40
1.0
 40
1.0
 10
740.8942355974826
 20
205.4883942149318
 30
0.0
 10
740.8574531010859
 20
205.4526610955346
 30
0.0
 10
740.7819516038937
 20
205.3831975202307
 30
0.0
 10
740.7024161121927
 20
205.3183519983355
 30
0.0
 10
740.6615767489832
 20
205.2873812790326
 30
0.0
  0
SPLINE
  5
29E
330
2
100
AcDbEntity
  8
SD______SUS301-06_____SOLIDLINE
  6
Continuous
 62
     7
100
AcDbSpline
210
0.0
220
0.0
230
1.0
 70
     8
 71
     3
 72
     9
 73
     5
 74
     0
 42
0.0000000001
 43
0.0000000001
 40
0.0
 40
0.0
 40
0.0
 40
0.0
 40
0.4152867932000003
 40
1.0
 40
1.0
 40
1.0
 40
1.0
 10
741.0073039228803
 20
205.6109988453364
 30
0.0
 10
740.9926028376932
 20
205.5931889173367
 30
0.0
 10
740.9558173956896
 20
205.5514513198287
 30
0.0
 10
740.9172645202737
 20
205.5113487145341
 30
0.0
 10
740.8942355974826
 20
205.4883942149318
 30
0.0
  0
SPLINE
  5
29F
330
2
100
AcDbEntity
  8
SD______SUS301-06_____SOLIDLINE
  6
Continuous
 62
     7
100
AcDbSpline
210
0.0
220
0.0
230
1.0
 70
     8
 71
     3
 72
     9
 73
     5
 74
     0
 42
0.0000000001
 43
0.0000000001
 40
0.0
 40
0.0
 40
0.0
 40
0.0
 40
0.5040217917000001
 40
1.0
 40
1.0
 40
1.0
 40
1.0
 10
741.6891551422871
 20
204.3112710364268
 30
0.0
 10
741.6849169788924
 20
204.3161542142307
 30
0.0
 10
741.6776421616879
 20
204.3269018290322
 30
0.0
 10
741.6733275707896
 20
204.3391556267326
 30
0.0
 10
741.6720104326863
 20
204.3453804845327
 30
0.0
  0
SPLINE
  5
2A0
330
2
100
AcDbEntity
  8
TG_SOLIDLINE
  6
Continuous
 62
     7
100
AcDbSpline
210
0.0
220
0.0
230
1.0
 70
     8
 71
     3
 72
    15
 73
    11
 74
     0
 42
0.0000000001
 43
0.0000000001
 40
0.0
 40
0.0
 40
0.0
 40
0.0
 40
0.1200210677
 40
0.2489391047
 40
0.3832311656
 40
0.5189565487
 40
0.6521014729
 40
0.7788100796
 40
0.8956650054
 40
1.0
 40
1.0
 40
1.0
 40
1.0
 10
733.9469222728807
 20
212.0736201704363
 30
0.0
 10
733.9726355448796
 20
212.1189860292358
 30
0.0
 10
734.0321522066873
 20
212.2096403317328
 30
0.0
 10
734.1377363816832
 20
212.3387024340278
 30
0.0
 10
734.25973449859
 20
212.46216981593
 30
0.0
 10
734.3936491394737
 20
212.5754414761337
 30
0.0
 10
734.5345133702761
 20
212.6743327657274
 30
0.0
 10
734.6771419297867
 20
212.7552147425259
 30
0.0
 10
734.816245491383
 20
212.8151412913267
 30
0.0
 10
734.9091717715766
 20
212.8413507440288
 30
0.0
 10
734.9537401569726
 20
212.84963102033
 30
0.0
  0
SPLINE
  5
2A1
330
2
100
AcDbEntity
  8
TG_SOLIDLINE
  6
Continuous
 62
     7
100
AcDbSpline
210
0.0
220
0.0
230
1.0
 70
     8
 71
     3
 72
     9
 73
     5
 74
     0
 42
0.0000000001
 43
0.0000000001
 40
0.0
 40
0.0
 40
0.0
 40
0.0
 40
0.2608084329
 40
1.0
 40
1.0
 40
1.0
 40
1.0
 10
733.9209126907801
 20
212.0250053820278
 30
0.0
 10
733.9161389006907
 20
212.0155084491335
 30
0.0
 10
733.898401343294
 20
211.9788170868338
 30
0.0
 10
733.8829733253727
 20
211.9409789032262
 30
0.0
 10
733.8733259513942
 20
211.9124396611329
 30
0.0
  0
LINE
  5
2A2
330
2
100
AcDbEntity
  8
TG_SOLIDLINE
  6
Continuous
 62
     7
100
AcDbLine
 10
740.5932519173876
 20
207.1520855922296
 30
0.0
 11
740.5942921558902
 21
207.1508798450346
 31
0.0
  0
SPLINE
  5
2A3
330
2
100
AcDbEntity
  8
TG_SOLIDLINE
  6
Continuous
 62
     7
100
AcDbSpline
210
0.0
220
0.0
230
1.0
 70
     8
 71
     3
 72
    13
 73
     9
 74
     0
 42
0.0000000001
 43
0.0000000001
 40
0.0
 40
0.0
 40
0.0
 40
0.0
 40
0.0964476663
 40
0.1967555134
 40
0.3041203355
 40
0.4208912507
 40
0.6872539424
 40
1.0
 40
1.0
 40
1.0
 40
1.0
 10
740.5942921558902
 20
207.1508798450346
 30
0.0
 10
740.6074519104817
 20
207.1355335909276
 30
0.0
 10
740.6307520589737
 20
207.1009999814338
 30
0.0
 10
740.6540795087924
 20
207.0412003874322
 30
0.0
 10
740.6660644385777
 20
206.9738736788355
 30
0.0
 10
740.6669570683948
 20
206.8706767008281
 30
0.0
 10
740.6367900238867
 20
206.7264122232319
 30
0.0
 10
740.5894819190919
 20
206.6140435400313
 30
0.0
 10
740.560040662772
 20
206.5554733837354
 30
0.0
  0
LINE
  5
2A4
330
2
100
AcDbEntity
  8
TG_SOLIDLINE
  6
Continuous
 62
     7
100
AcDbLine
 10
738.7203290366927
 20
205.5265020670259
 30
0.0
 11
738.72115301479
 21
205.5255572626257
 31
0.0
  0
SPLINE
  5
2A5
330
2
100
AcDbEntity
  8
TG_SOLIDLINE
  6
Continuous
 62
     7
100
AcDbSpline
210
0.0
220
0.0
230
1.0
 70
     8
 71
     3
 72
    20
 73
    16
 74
     0
 42
0.0000000001
 43
0.0000000001
 40
0.0
 40
0.0
 40
0.0
 40
0.0
 40
0.0359351983
 40
0.0744343214
 40
0.1173922788
 40
0.1658817831
 40
0.2202715424
 40
0.2804120397
 40
0.3457832475
 40
0.4155979720000003
 40
0.5644123391
 40
0.7178139863
 40
0.8659870149999997
 40
0.9352833397999999
 40
1.0
 40
1.0
 40
1.0
 40
1.0
 10
738.72115301479
 20
205.5255572626257
 30
0.0
 10
738.7393980011824
 20
205.5047361934322
 30
0.0
 10
738.7843957989892
 20
205.4674939773282
 30
0.0
 10
738.8687355693739
 20
205.4321235210365
 30
0.0
 10
738.9683192245752
 20
205.4161582539342
 30
0.0
 10
739.0811237220724
 20
205.4192261984332
 30
0.0
 10
739.2051831752827
 20
205.4409203938345
 30
0.0
 10
739.338206685384
 20
205.4807348917317
 30
0.0
 10
739.4776426900756
 20
205.5378676850365
 30
0.0
 10
739.6725172376849
 20
205.6377825247356
 30
0.0
 10
739.911831908885
 20
205.7974148852278
 30
0.0
 10
740.1735590374885
 20
206.0265136489307
 30
0.0
 10
740.3627815015892
 20
206.2420371954323
 30
0.0
 10
740.4864281157901
 20
206.4210757669362
 30
0.0
 10
740.5376491322763
 20
206.5109278849291
 30
0.0
 10
740.560040662772
 20
206.5554733837354
 30
0.0
  0
SPLINE
  5
2A6
330
2
100
AcDbEntity
  8
TG_SOLIDLINE
  6
Continuous
 62
     7
100
AcDbSpline
210
0.0
220
0.0
230
1.0
 70
     8
 71
     3
 72
     9
 73
     5
 74
     0
 42
0.0000000001
 43
0.0000000001
 40
0.0
 40
0.0
 40
0.0
 40
0.0
 40
0.2638702837
 40
1.0
 40
1.0
 40
1.0
 40
1.0
 10
733.8691204014852
 20
211.9146479739353
 30
0.0
 10
733.8675254945758
 20
211.907109843734
 30
0.0
 10
733.8621316958882
 20
211.8784159197254
 30
0.0
 10
733.8594665529891
 20
211.8491531803293
 30
0.0
 10
733.8595928341931
 20
211.8276585779346
 30
0.0
  0
SPLINE
  5
2A7
330
2
100
AcDbEntity
  8
TG_SOLIDLINE
  6
Continuous
 62
     7
100
AcDbSpline
210
0.0
220
0.0
230
1.0
 70
     8
 71
     3
 72
    13
 73
     9
 74
     0
 42
0.0000000001
 43
0.0000000001
 40
0.0
 40
0.0
 40
0.0
 40
0.0
 40
0.2620857342
 40
0.3817917879999999
 40
0.4979454828
 40
0.6143979184
 40
0.7349534445
 40
1.0
 40
1.0
 40
1.0
 40
1.0
 10
733.8595928341931
 20
211.8276585779346
 30
0.0
 10
733.859758630287
 20
211.7994380721266
 30
0.0
 10
733.8653387596945
 20
211.757704235327
 30
0.0
 10
733.8873702857867
 20
211.7084868969338
 30
0.0
 10
733.9097258084732
 20
211.6774869258262
 30
0.0
 10
733.9381661264781
 20
211.6518216939254
 30
0.0
 10
733.9850000098786
 20
211.6242259459346
 30
0.0
 10
734.02616551749
 20
211.6137237028298
 30
0.0
 10
734.0544782040746
 20
211.6101303054362
 30
0.0
  0
SPLINE
  5
2A8
330
2
100
AcDbEntity
  8
TG_SOLIDLINE
  6
Continuous
 62
     7
100
AcDbSpline
210
0.0
220
0.0
230
1.0
 70
     8
 71
     3
 72
    15
 73
    11
 74
     0
 42
0.0000000001
 43
0.0000000001
 40
0.0
 40
0.0
 40
0.0
 40
0.0
 40
0.1495378882
 40
0.2847367998
 40
0.4078011437
 40
0.5223830164
 40
0.6335119938
 40
0.7468681670999999
 40
0.8677047498999998
 40
1.0
 40
1.0
 40
1.0
 40
1.0
 10
734.9513929107817
 20
212.8539629195335
 30
0.0
 10
734.9721037973734
 20
212.8553584037268
 30
0.0
 10
735.0117793995933
 20
212.8556377291353
 30
0.0
 10
735.0680267582742
 20
212.847184076035
 30
0.0
 10
735.1171811390726
 20
212.8298007103268
 30
0.0
 10
735.15836353888
 20
212.8034320492325
 30
0.0
 10
735.1906053293864
 20
212.7684039074307
 30
0.0
 10
735.2131006101727
 20
212.7254997531273
 30
0.0
 10
735.2255891666867
 20
212.6757779442356
 30
0.0
 10
735.2272342305926
 20
212.640457600528
 30
0.0
 10
735.2266703286735
 20
212.622101920928
 30
0.0
  0
SPLINE
  5
2A9
330
2
100
AcDbEntity
  8
TG_SOLIDLINE
  6
Continuous
 62
     7
100
AcDbSpline
210
0.0
220
0.0
230
1.0
 70
     8
 71
     3
 72
    19
 73
    15
 74
     0
 42
0.0000000001
 43
0.0000000001
 40
0.0
 40
0.0
 40
0.0
 40
0.0
 40
0.0582841952
 40
0.1109523687
 40
0.1593418123
 40
0.206154546
 40
0.25460457
 40
0.3073631762
 40
0.3658857637
 40
0.4303884561000002
 40
0.5731741955
 40
0.7240691979000001
 40
0.8694684253
 40
1.0
 40
1.0
 40
1.0
 40
1.0
 10
740.0661153031799
 20
207.1245702098318
 30
0.0
 10
740.0695004610772
 20
207.1313080258338
 30
0.0
 10
740.0770838576891
 20
207.1436249344284
 30
0.0
 10
740.0916250702898
 20
207.158524051733
 30
0.0
 10
740.1084692333817
 20
207.1681950693274
 30
0.0
 10
740.1270084707768
 20
207.1719555559258
 30
0.0
 10
740.1463049230917
 20
207.1696173921315
 30
0.0
 10
740.1655825839728
 20
207.1616260030306
 30
0.0
 10
740.1843213566902
 20
207.1484848162314
 30
0.0
 10
740.208688751973
 20
207.1240328577347
 30
0.0
 10
740.2337914139901
 20
207.084394122826
 30
0.0
 10
740.2523003898744
 20
207.0301424642281
 30
0.0
 10
740.2567366244867
 20
206.9744611433317
 30
0.0
 10
740.2480237695765
 20
206.9388020361299
 30
0.0
 10
740.240441900691
 20
206.9237125064297
 30
0.0
  0
SPLINE
  5
2AA
330
2
100
AcDbEntity
  8
TG_SOLIDLINE
  6
Continuous
 62
     7
100
AcDbSpline
210
0.0
220
0.0
230
1.0
 70
     8
 71
     3
 72
    15
 73
    11
 74
     0
 42
0.0000000001
 43
0.0000000001
 40
0.0
 40
0.0
 40
0.0
 40
0.0
 40
0.1190579279
 40
0.2492930348
 40
0.3862495122
 40
0.5248887404
 40
0.6600461453000001
 40
0.7868355174
 40
0.9011042498
 40
1.0
 40
1.0
 40
1.0
 40
1.0
 10
733.9313311250865
 20
212.0846755797257
 30
0.0
 10
733.9548722744758
 20
212.1315081193321
 30
0.0
 10
734.012079718192
 20
212.2256593354264
 30
0.0
 10
734.1175215075841
 20
212.3594774069362
 30
0.0
 10
734.2425621591867
 20
212.4875522874296
 30
0.0
 10
734.3814053614765
 20
212.603884986535
 30
0.0
 10
734.5275979035744
 20
212.7030953152363
 30
0.0
 10
734.6744232718832
 20
212.7806386960252
 30
0.0
 10
734.8150819010882
 20
212.8330231697315
 30
0.0
 10
734.9079516545792
 20
212.851035879935
 30
0.0
 10
734.9513929107817
 20
212.8539629195335
 30
0.0
  0
SPLINE
  5
2AB
330
2
100
AcDbEntity
  8
TG_SOLIDLINE
  6
Continuous
 62
     7
100
AcDbSpline
210
0.0
220
0.0
230
1.0
 70
     8
 71
     3
 72
    25
 73
    21
 74
     0
 42
0.0000000001
 43
0.0000000001
 40
0.0
 40
0.0
 40
0.0
 40
0.0
 40
0.0500304861
 40
0.0932210263
 40
0.1130464969
 40
0.132242776
 40
0.1513442105
 40
0.1708959242
 40
0.2131136944
 40
0.2618615586
 40
0.3183284444
 40
0.3824927184
 40
0.4535254999000001
 40
0.5300629232000002
 40
0.6103887171000001
 40
0.692571353
 40
0.7745797140000003
 40
0.8543874508
 40
0.9300831607999999
 40
1.0
 40
1.0
 40
1.0
 40
1.0
 10
735.2522473934745
 20
212.7127434794366
 30
0.0
 10
735.2596795939747
 20
212.747867373028
 30
0.0
 10
735.2679393980928
 20
212.814814879725
 30
0.0
 10
735.2568284633847
 20
212.896543162729
 30
0.0
 10
735.2338598296922
 20
212.9512185304285
 30
0.0
 10
735.2107180424849
 20
212.9862269190358
 30
0.0
 10
735.1813728809842
 20
213.015957960533
 30
0.0
 10
735.1332720800732
 20
213.048992220025
 30
0.0
 10
735.0568275106756
 20
213.075107880829
 30
0.0
 10
734.9503431169908
 20
213.0811898867283
 30
0.0
 10
734.829388405294
 20
213.0642283346361
 30
0.0
 10
734.6971804621793
 20
213.0249003762288
 30
0.0
 10
734.5574588195926
 20
212.9644504167341
 30
0.0
 10
734.4144255870799
 20
212.8846723561311
 30
0.0
 10
734.2724705273779
 20
212.7879980482363
 30
0.0
 10
734.1359950663782
 20
212.677403643832
 30
0.0
 10
734.0092434564825
 20
212.5563259187298
 30
0.0
 10
733.8961461458914
 20
212.4285255545256
 30
0.0
 10
733.8002083999902
 20
212.2980077146308
 30
0.0
 10
733.7471673907823
 20
212.2076642324347
 30
0.0
 10
733.7246339834847
 20
212.1628371198304
 30
0.0
  0
SPLINE
  5
2AC
330
2
100
AcDbEntity
  8
TG_SOLIDLINE
  6
Continuous
 62
     7
100
AcDbSpline
210
0.0
220
0.0
230
1.0
 70
     8
 71
     3
 72
    19
 73
    15
 74
     0
 42
0.0000000001
 43
0.0000000001
 40
0.0
 40
0.0
 40
0.0
 40
0.0
 40
0.0554349341
 40
0.1041405063
 40
0.1480686706
 40
0.1910303599
 40
0.237182857
 40
0.2894711728
 40
0.3491730235
 40
0.4160269862
 40
0.5653927397000002
 40
0.7225459351000004
 40
0.8711388097
 40
1.0
 40
1.0
 40
1.0
 40
1.0
 10
738.712812954683
 20
206.0130612592284
 30
0.0
 10
738.7061156117728
 20
206.0114568546329
 30
0.0
 10
738.6937398883731
 20
206.007334718227
 30
0.0
 10
738.6779556459762
 20
205.9974570352275
 30
0.0
 10
738.6669520594736
 20
205.9842336062348
 30
0.0
 10
738.6617089906924
 20
205.9681555792255
 30
0.0
 10
738.6622960748867
 20
205.9503170782255
 30
0.0
 10
738.6682002244737
 20
205.9313976179288
 30
0.0
 10
738.6789636435917
 20
205.911832597436
 30
0.0
 10
738.6999269875726
 20
205.8845885825345
 30
0.0
 10
738.7349045053881
 20
205.8534847680267
 30
0.0
 10
738.7841526603782
 20
205.8249111386363
 30
0.0
 10
738.836122806077
 20
205.8085956000319
 30
0.0
 10
738.8715711716844
 20
205.808474671033
 30
0.0
 10
738.8871396173857
 20
205.8122035715352
 30
0.0
  0
SPLINE
  5
2AD
330
2
100
AcDbEntity
  8
TG_SOLIDLINE
  6
Continuous
 62
     7
100
AcDbSpline
210
0.0
220
0.0
230
1.0
 70
     8
 71
     3
 72
    17
 73
    13
 74
     0
 42
0.0000000001
 43
0.0000000001
 40
0.0
 40
0.0
 40
0.0
 40
0.0
 40
0.1271206684
 40
0.2735516964
 40
0.425086028
 40
0.5678785212
 40
0.6330672122
 40
0.6931892089
 40
0.7985838637000003
 40
0.8472767522999998
 40
0.8957359596999998
 40
1.0
 40
1.0
 40
1.0
 40
1.0
 10
738.712812954683
 20
206.0130612592284
 30
0.0
 10
738.7287229004773
 20
206.0168726202297
 30
0.0
 10
738.7645430682773
 20
206.0183318390255
 30
0.0
 10
738.8185254774902
 20
206.0072915164256
 30
0.0
 10
738.8706206363934
 20
205.9835669989362
 30
0.0
 10
738.9070843899782
 20
205.9539032638277
 30
0.0
 10
738.9276465412871
 20
205.9259417429335
 30
0.0
 10
738.9405027610731
 20
205.8990822840307
 30
0.0
 10
738.9438983911908
 20
205.8702148270359
 30
0.0
 10
738.935076754787
 20
205.8452503449285
 30
0.0
 10
738.919063125579
 20
205.8243694324315
 30
0.0
 10
738.9001890370923
 20
205.8153291236295
 30
0.0
 10
738.8871396173857
 20
205.8122035715352
 30
0.0
  0
SPLINE
  5
2AE
330
2
100
AcDbEntity
  8
TG_SOLIDLINE
  6
Continuous
 62
     7
100
AcDbSpline
210
0.0
220
0.0
230
1.0
 70
     8
 71
     3
 72
     9
 73
     5
 74
     0
 42
0.0000000001
 43
0.0000000001
 40
0.0
 40
0.0
 40
0.0
 40
0.0
 40
0.2388483876
 40
1.0
 40
1.0
 40
1.0
 40
1.0
 10
735.6207870665932
 20
212.246441644526
 30
0.0
 10
735.611943053984
 20
212.2288473416261
 30
0.0
 10
735.5733693472767
 20
212.1559645935287
 30
0.0
 10
735.5291139659924
 20
212.0861483077366
 30
0.0
 10
735.4930905144749
 20
212.034764088031
 30
0.0
  0
SPLINE
  5
2AF
330
2
100
AcDbEntity
  8
TG_SOLIDLINE
  6
Continuous
 62
     7
100
AcDbSpline
210
0.0
220
0.0
230
1.0
 70
     8
 71
     3
 72
    19
 73
    15
 74
     0
 42
0.0000000001
 43
0.0000000001
 40
0.0
 40
0.0
 40
0.0
 40
0.0
 40
0.1469753061
 40
0.3010044949
 40
0.4541820417000002
 40
0.5987020327
 40
0.6655800202000001
 40
0.7278959706999999
 40
0.7851522615000001
 40
0.8370895868000001
 40
0.8837686083000001
 40
0.9256821924999998
 40
0.9638774931
 40
1.0
 40
1.0
 40
1.0
 40
1.0
 10
735.4881641229844
 20
212.0277688057286
 30
0.0
 10
735.4299706407892
 20
211.9455082625292
 30
0.0
 10
735.2983052425902
 20
211.7856866845255
 30
0.0
 10
735.0722418979852
 20
211.5705810294322
 30
0.0
 10
734.8240217092865
 20
211.3842200661266
 30
0.0
 10
734.6064259599938
 20
211.2594971624263
 30
0.0
 10
734.4339457095915
 20
211.1851215357265
 30
0.0
 10
734.312533296284
 20
211.1445695602325
 30
0.0
 10
734.1976626151875
 20
211.1184265594303
 30
0.0
 10
734.0910929580818
 20
211.1071390940252
 30
0.0
 10
733.9944097378722
 20
211.1109826617358
 30
0.0
 10
733.9090192086907
 20
211.1301894067279
 30
0.0
 10
733.8364372452864
 20
211.1649011087312
 30
0.0
 10
733.7973273844858
 20
211.1987442303271
 30
0.0
 10
733.7810929956897
 20
211.2174457038337
 30
0.0
  0
SPLINE
  5
2B0
330
2
100
AcDbEntity
  8
TG_SOLIDLINE
  6
Continuous
 62
     7
100
AcDbSpline
210
0.0
220
0.0
230
1.0
 70
     8
 71
     3
 72
    17
 73
    13
 74
     0
 42
0.0000000001
 43
0.0000000001
 40
0.0
 40
0.0
 40
0.0
 40
0.0
 40
0.1107588456
 40
0.162952501
 40
0.2147986649
 40
0.267915432
 40
0.3236428351
 40
0.4454190976
 40
0.5821466089000003
 40
0.7277106146
 40
0.8710941453
 40
1.0
 40
1.0
 40
1.0
 40
1.0
 10
740.240441900691
 20
206.9237125064297
 30
0.0
 10
740.2338008536811
 20
206.9104954122273
 30
0.0
 10
740.2195189877922
 20
206.8925502390317
 30
0.0
 10
740.1938354254864
 20
206.879065508033
 30
0.0
 10
740.1730021980796
 20
206.8747708798338
 30
0.0
 10
740.1513441314804
 20
206.8763483972253
 30
0.0
 10
740.1219115057788
 20
206.8863868455319
 30
0.0
 10
740.0883892684727
 20
206.9138268525345
 30
0.0
 10
740.0609626120726
 20
206.9612952886346
 30
0.0
 10
740.0474438133917
 20
207.017236912735
 30
0.0
 10
740.0482497569867
 20
207.0735427366304
 30
0.0
 10
740.0583867496792
 20
207.1091873022261
 30
0.0
 10
740.0661153031799
 20
207.1245702098318
 30
0.0
  0
SPLINE
  5
2B1
330
2
100
AcDbEntity
  8
TG_SOLIDLINE
  6
Continuous
 62
     7
100
AcDbSpline
210
0.0
220
0.0
230
1.0
 70
     8
 71
     3
 72
    17
 73
    13
 74
     0
 42
0.0000000001
 43
0.0000000001
 40
0.0
 40
0.0
 40
0.0
 40
0.0
 40
0.166115752
 40
0.3121825015
 40
0.4385145513000002
 40
0.5485358853
 40
0.5998213816
 40
0.6501478116000003
 40
0.7008995975
 40
0.7534156604000001
 40
0.8678279793000001
 40
1.0
 40
1.0
 40
1.0
 40
1.0
 10
733.7246339808748
 20
212.162837120835
 30
0.0
 10
733.7047659569829
 20
212.123309709934
 30
0.0
 10
733.6716080572817
 20
212.046751067825
 30
0.0
 10
733.6418828640757
 20
211.9332194129334
 30
0.0
 10
733.6361176124857
 20
211.8306675433328
 30
0.0
 10
733.6531051063887
 20
211.7545059588347
 30
0.0
 10
733.6797882320744
 20
211.7045169209283
 30
0.0
 10
733.7053852013942
 20
211.6727156925282
 30
0.0
 10
733.7367694968774
 20
211.6461104046253
 30
0.0
 10
733.7872729153937
 20
211.6170702559312
 30
0.0
 10
733.8653009469902
 20
211.5956680497312
 30
0.0
 10
733.9314866628767
 20
211.5945497184322
 30
0.0
 10
733.9666068277777
 20
211.5969174408261
 30
0.0
  0
SPLINE
  5
2B2
330
2
100
AcDbEntity
  8
TG_SOLIDLINE
  6
Continuous
 62
     7
100
AcDbSpline
210
0.0
220
0.0
230
1.0
 70
     8
 71
     3
 72
    13
 73
     9
 74
     0
 42
0.0000000001
 43
0.0000000001
 40
0.0
 40
0.0
 40
0.0
 40
0.0
 40
0.0964740275
 40
0.1967413396
 40
0.3040393512
 40
0.4207529406
 40
0.6870922576999999
 40
1.0
 40
1.0
 40
1.0
 40
1.0
 10
735.6540371438717
 20
212.8430135101267
 30
0.0
 10
735.6673203404882
 20
212.8277016865282
 30
0.0
 10
735.6908609454761
 20
212.793208970833
 30
0.0
 10
735.7145040361741
 20
212.7333794612265
 30
0.0
 10
735.7267247689807
 20
212.6659568044339
 30
0.0
 10
735.7278372224885
 20
212.5625383866359
 30
0.0
 10
735.6977302898926
 20
212.4178636044358
 30
0.0
 10
735.6503150781848
 20
212.3051840941303
 30
0.0
 10
735.6207870665932
 20
212.246441644526
 30
0.0
  0
SPLINE
  5
2B3
330
2
100
AcDbEntity
  8
TG_SOLIDLINE
  6
Continuous
 62
     7
100
AcDbSpline
210
0.0
220
0.0
230
1.0
 70
     8
 71
     3
 72
     9
 73
     5
 74
     0
 42
0.0000000001
 43
0.0000000001
 40
0.0
 40
0.0
 40
0.0
 40
0.0
 40
0.2553700802
 40
1.0
 40
1.0
 40
1.0
 40
1.0
 10
733.9313311250865
 20
212.0846755797257
 30
0.0
 10
733.9289769889723
 20
212.0799922835318
 30
0.0
 10
733.9199103941857
 20
212.0615772856255
 30
0.0
 10
733.9114613138803
 20
212.0428564425311
 30
0.0
 10
733.9055721446823
 20
212.0287524473343
 30
0.0
  0
SPLINE
  5
2B4
330
2
100
AcDbEntity
  8
TG_SOLIDLINE
  6
Continuous
 62
     7
100
AcDbSpline
210
0.0
220
0.0
230
1.0
 70
     8
 71
     3
 72
     9
 73
     5
 74
     0
 42
0.0000000001
 43
0.0000000001
 40
0.0
 40
0.0
 40
0.0
 40
0.0
 40
0.2643312307
 40
1.0
 40
1.0
 40
1.0
 40
1.0
 10
733.9055721446823
 20
212.0287524473343
 30
0.0
 10
733.9015022464804
 20
212.0190054314336
 30
0.0
 10
733.8868369239775
 20
211.9818387829269
 30
0.0
 10
733.8752054875778
 20
211.9434083801289
 30
0.0
 10
733.8691204014852
 20
211.9146479739353
 30
0.0
  0
SPLINE
  5
2B5
330
2
100
AcDbEntity
  8
TG_SOLIDLINE
  6
Continuous
 62
     7
100
AcDbSpline
210
0.0
220
0.0
230
1.0
 70
     8
 71
     3
 72
     9
 73
     5
 74
     0
 42
0.0000000001
 43
0.0000000001
 40
0.0
 40
0.0
 40
0.0
 40
0.0
 40
0.2583042936
 40
1.0
 40
1.0
 40
1.0
 40
1.0
 10
735.2839061932912
 20
212.5344301025362
 30
0.0
 10
735.2886330400791
 20
212.5438352012289
 30
0.0
 10
735.306487463777
 20
212.5804663698269
 30
0.0
 10
735.3225253114845
 20
212.6179965435286
 30
0.0
 10
735.333131687585
 20
212.6462991445365
 30
0.0
  0
SPLINE
  5
2B6
330
2
100
AcDbEntity
  8
TG_SOLIDLINE
  6
Continuous
 62
     7
100
AcDbSpline
210
0.0
220
0.0
230
1.0
 70
     8
 71
     3
 72
    15
 73
    11
 74
     0
 42
0.0000000001
 43
0.0000000001
 40
0.0
 40
0.0
 40
0.0
 40
0.0
 40
0.1582842361
 40
0.2980669938
 40
0.421044315
 40
0.5314906293
 40
0.6365623722000003
 40
0.744980553
 40
0.8644619347999999
 40
1.0
 40
1.0
 40
1.0
 40
1.0
 10
735.333131687585
 20
212.6462991445365
 30
0.0
 10
735.3473375420921
 20
212.6842067792341
 30
0.0
 10
735.3698314447796
 20
212.7573589760328
 30
0.0
 10
735.3846236685907
 20
212.8646049457344
 30
0.0
 10
735.3776929689805
 20
212.9607069823306
 30
0.0
 10
735.3480403304821
 20
213.0434594718359
 30
0.0
 10
735.2953637113881
 20
213.1094669859322
 30
0.0
 10
735.2219880844825
 20
213.155448224226
 30
0.0
 10
735.1315221851804
 20
213.1806995052344
 30
0.0
 10
735.0659026721825
 20
213.1839112255312
 30
0.0
 10
735.0312547439847
 20
213.1828368995261
 30
0.0
  0
SPLINE
  5
2B7
330
2
100
AcDbEntity
  8
TG_SOLIDLINE
  6
Continuous
 62
     7
100
AcDbSpline
210
0.0
220
0.0
230
1.0
 70
     8
 71
     3
 72
    15
 73
    11
 74
     0
 42
0.0000000001
 43
0.0000000001
 40
0.0
 40
0.0
 40
0.0
 40
0.0
 40
0.1355195318
 40
0.2549826316
 40
0.3633812106
 40
0.4684415559000001
 40
0.5788907744000003
 40
0.7018819979000001
 40
0.8417025934999998
 40
1.0
 40
1.0
 40
1.0
 40
1.0
 10
733.5322881157781
 20
211.8818910335268
 30
0.0
 10
733.5263448441822
 20
211.8477253083252
 30
0.0
 10
733.5202882162761
 20
211.7822802641304
 30
0.0
 10
733.5325679935825
 20
211.6891242816333
 30
0.0
 10
733.5678011902913
 20
211.6099842964259
 30
0.0
 10
733.6257915081779
 20
211.548537184031
 30
0.0
 10
733.7036137119952
 20
211.5075530065347
 30
0.0
 10
733.7978585815776
 20
211.4871970832342
 30
0.0
 10
733.9061953114873
 20
211.4868065951333
 30
0.0
 10
733.9818337144783
 20
211.4988203026292
 30
0.0
 10
734.0213853832896
 20
211.5075682824345
 30
0.0
  0
SPLINE
  5
2B8
330
2
100
AcDbEntity
  8
TG_SOLIDLINE
  6
Continuous
 62
     7
100
AcDbSpline
210
0.0
220
0.0
230
1.0
 70
     8
 71
     3
 72
    15
 73
    11
 74
     0
 42
0.0000000001
 43
0.0000000001
 40
0.0
 40
0.0
 40
0.0
 40
0.0
 40
0.1071166329
 40
0.2265062241
 40
0.3551682218
 40
0.4893868299000001
 40
0.6250638911000001
 40
0.7579966373
 40
0.8841548849999998
 40
1.0
 40
1.0
 40
1.0
 40
1.0
 10
734.0213853832896
 20
211.5075682824345
 30
0.0
 10
734.0796065233782
 20
211.5204455484332
 30
0.0
 10
734.2003785638792
 20
211.5585572999345
 30
0.0
 10
734.380107100975
 20
211.6418713247259
 30
0.0
 10
734.5627827704742
 20
211.7517458984326
 30
0.0
 10
734.7413206137876
 20
211.8839879588273
 30
0.0
 10
734.9088431714748
 20
212.0335157488363
 30
0.0
 10
735.0588714734932
 20
212.1945517622326
 30
0.0
 10
735.1856141383873
 20
212.3608060422358
 30
0.0
 10
735.2549418244937
 20
212.4768137098268
 30
0.0
 10
735.2839062004752
 20
212.5344300961256
 30
0.0
  0
SPLINE
  5
2B9
330
2
100
AcDbEntity
  8
TG_SOLIDLINE
  6
Continuous
 62
     7
100
AcDbSpline
210
0.0
220
0.0
230
1.0
 70
     8
 71
     3
 72
    15
 73
    11
 74
     0
 42
0.0000000001
 43
0.0000000001
 40
0.0
 40
0.0
 40
0.0
 40
0.0
 40
0.1145154727
 40
0.238808156
 40
0.3698298457
 40
0.5040276156
 40
0.6376688188000001
 40
0.7670985924
 40
0.8888271054
 40
1.0
 40
1.0
 40
1.0
 40
1.0
 10
733.8871292873831
 20
211.8315163320359
 30
0.0
 10
733.9144956705789
 20
211.8859594834363
 30
0.0
 10
733.9795172199814
 20
211.9955609063296
 30
0.0
 10
734.0975718800731
 20
212.1533751198368
 30
0.0
 10
734.2372150353877
 20
212.3069305834257
 30
0.0
 10
734.3933086941802
 20
212.4511189967266
 30
0.0
 10
734.5606871154727
 20
212.5806661078278
 30
0.0
 10
734.7333170176729
 20
212.6913348670292
 30
0.0
 10
734.9053502594845
 20
212.7790691530286
 30
0.0
 10
735.0217675533943
 20
212.8227122239355
 30
0.0
 10
735.0785408549913
 20
212.8393307716325
 30
0.0
  0
SPLINE
  5
2BA
330
2
100
AcDbEntity
  8
CDSF_SOLIDLINE
  6
Continuous
 62
     7
100
AcDbSpline
210
0.0
220
0.0
230
1.0
 70
     8
 71
     3
 72
    18
 73
    14
 74
     0
 42
0.0000000001
 43
0.0000000001
 40
0.0
 40
0.0
 40
0.0
 40
0.0
 40
0.1339878857
 40
0.2822717921
 40
0.4357783426000001
 40
0.5846602010000001
 40
0.7197346501000002
 40
0.7798579099
 40
0.8342180911999999
 40
0.8826690275
 40
0.9255869068999999
 40
0.9640605821999999
 40
1.0
 40
1.0
 40
1.0
 40
1.0
 10
748.1951469528922
 20
198.275314970525
 30
0.0
 10
748.1297011939935
 20
198.1451177976305
 30
0.0
 10
747.962677344682
 20
197.8852988155309
 30
0.0
 10
747.6491326735826
 20
197.5281890936345
 30
0.0
 10
747.2791299191769
 20
197.204484190429
 30
0.0
 10
746.8820274380735
 20
196.9400542443332
 30
0.0
 10
746.5416455915832
 20
196.7796242838321
 30
0.0
 10
746.2810968421782
 20
196.7018763948363
 30
0.0
 10
746.105997201775
 20
196.6715303257334
 30
0.0
 10
745.9468539400926
 20
196.6675153884258
 30
0.0
 10
745.8064387554725
 20
196.6904390689252
 30
0.0
 10
745.6876134721738
 20
196.740794956931
 30
0.0
 10
745.6243537046916
 20
196.7936617250335
 30
0.0
 10
745.5987347775757
 20
196.8231815441319
 30
0.0
  0
SPLINE
  5
2BB
330
2
100
AcDbEntity
  8
CDSF_SOLIDLINE
  6
Continuous
 62
     7
100
AcDbSpline
210
0.0
220
0.0
230
1.0
 70
     8
 71
     3
 72
    18
 73
    14
 74
     0
 42
0.0000000001
 43
0.0000000001
 40
0.0
 40
0.0
 40
0.0
 40
0.0
 40
0.1339878857
 40
0.2822717921
 40
0.4357783426000001
 40
0.5846602010000001
 40
0.7197346501000002
 40
0.7798579099
 40
0.8342180911999999
 40
0.8826690275
 40
0.9255869068999999
 40
0.9640605821999999
 40
1.0
 40
1.0
 40
1.0
 40
1.0
 10
745.2897036609896
 20
201.6229433592294
 30
0.0
 10
745.2242579020917
 20
201.492746186335
 30
0.0
 10
745.0572340527791
 20
201.2329272042358
 30
0.0
 10
744.7436893816806
 20
200.8758174823275
 30
0.0
 10
744.3736866272741
 20
200.5521125792262
 30
0.0
 10
743.9765841461943
 20
200.2876826330262
 30
0.0
 10
743.6362022996812
 20
200.1272526725252
 30
0.0
 10
743.3756535502756
 20
200.0495047835294
 30
0.0
 10
743.2005539098721
 20
200.019158714426
 30
0.0
 10
743.0414106481897
 20
200.0151437771306
 30
0.0
 10
742.9009954635934
 20
200.03806745763
 30
0.0
 10
742.7821701802941
 20
200.0884233456355
 30
0.0
 10
742.7189104127887
 20
200.1412901137265
 30
0.0
 10
742.6932914856727
 20
200.1708099328363
 30
0.0
  0
SPLINE
  5
2BC
330
2
100
AcDbEntity
  8
CDSF_SOLIDLINE
  6
Continuous
 62
     7
100
AcDbSpline
210
0.0
220
0.0
230
1.0
 70
     8
 71
     3
 72
    15
 73
    11
 74
     0
 42
0.0000000001
 43
0.0000000001
 40
0.0
 40
0.0
 40
0.0
 40
0.0
 40
0.1185640391
 40
0.2542717663
 40
0.3959220665999999
 40
0.5346526328
 40
0.6649391666
 40
0.7850187990000001
 40
0.8960390926
 40
1.0
 40
1.0
 40
1.0
 40
1.0
 10
741.4366708088904
 20
202.8518497929259
 30
0.0
 10
741.4754887595766
 20
202.8611402944299
 30
0.0
 10
741.5612255370882
 20
202.8706213447304
 30
0.0
 10
741.6947910618867
 20
202.8638622441345
 30
0.0
 10
741.8324214181787
 20
202.8339310440334
 30
0.0
 10
741.9599625393724
 20
202.777411703828
 30
0.0
 10
742.062704540493
 20
202.6927335253368
 30
0.0
 10
742.1261399061935
 20
202.585615915436
 30
0.0
 10
742.1437979494943
 20
202.4714402458272
 30
0.0
 10
742.125572563494
 20
202.3988740469354
 30
0.0
 10
742.1098445410864
 20
202.3676090648256
 30
0.0
  0
SPLINE
  5
2BD
330
2
100
AcDbEntity
  8
CDSF_SOLIDLINE
  6
Continuous
 62
     7
100
AcDbSpline
210
0.0
220
0.0
230
1.0
 70
     8
 71
     3
 72
     9
 73
     5
 74
     0
 42
0.0000000001
 43
0.0000000001
 40
0.0
 40
0.0
 40
0.0
 40
0.0
 40
0.2366940774
 40
1.0
 40
1.0
 40
1.0
 40
1.0
 10
741.1302029076881
 20
205.8833326307318
 30
0.0
 10
741.1193442403859
 20
205.8617305008321
 30
0.0
 10
741.0710796423938
 20
205.7716702124272
 30
0.0
 10
741.01426777488
 20
205.6863144053251
 30
0.0
 10
740.9675845240839
 20
205.6238646345259
 30
0.0
  0
SPLINE
  5
2BE
330
2
100
AcDbEntity
  8
CDSF_SOLIDLINE
  6
Continuous
 62
     7
100
AcDbSpline
210
0.0
220
0.0
230
1.0
 70
     8
 71
     3
 72
    15
 73
    11
 74
     0
 42
0.0000000001
 43
0.0000000001
 40
0.0
 40
0.0
 40
0.0
 40
0.0
 40
0.1646950615
 40
0.3244214382
 40
0.4745715261
 40
0.6112229125000001
 40
0.7315829113
 40
0.8346356295999999
 40
0.9221616807
 40
1.0
 40
1.0
 40
1.0
 40
1.0
 10
740.6079679860826
 20
205.2404943012299
 30
0.0
 10
740.5477764409828
 20
205.1883320589332
 30
0.0
 10
740.4245344419853
 20
205.0908264060255
 30
0.0
 10
740.2318939731789
 20
204.9654534513316
 30
0.0
 10
740.0395771754932
 20
204.8663061147264
 30
0.0
 10
739.8546795108797
 20
204.7970175470251
 30
0.0
 10
739.6837099448815
 20
204.7600434333332
 30
0.0
 10
739.5321081209787
 20
204.7570285682319
 30
0.0
 10
739.4042032380934
 20
204.7895185921265
 30
0.0
 10
739.3374796570791
 20
204.8383225658314
 30
0.0
 10
739.3127993894763
 20
204.8667466597263
 30
0.0
  0
SPLINE
  5
2BF
330
2
100
AcDbEntity
  8
CDSF_SOLIDLINE
  6
Continuous
 62
     7
100
AcDbSpline
210
0.0
220
0.0
230
1.0
 70
     8
 71
     3
 72
    12
 73
     8
 74
     0
 42
0.0000000001
 43
0.0000000001
 40
0.0
 40
0.0
 40
0.0
 40
0.0
 40
0.1036234505
 40
0.2179533085
 40
0.4708235441000002
 40
0.7391835101000001
 40
1.0
 40
1.0
 40
1.0
 40
1.0
 10
735.1780855164872
 20
212.5640422409257
 30
0.0
 10
735.1305475912726
 20
212.5546945977304
 30
0.0
 10
735.0320891735803
 20
212.5269251398332
 30
0.0
 10
734.8287879726925
 20
212.4415361269308
 30
0.0
 10
734.5745268066886
 20
212.2840378148267
 30
0.0
 10
734.2980366966769
 20
212.0428490708337
 30
0.0
 10
734.138734366676
 20
211.851589481536
 30
0.0
 10
734.0700947058832
 20
211.7507997552276
 30
0.0
  0
SPLINE
  5
2C0
330
2
100
AcDbEntity
  8
CDSF_SOLIDLINE
  6
Continuous
 62
     7
100
AcDbSpline
210
0.0
220
0.0
230
1.0
 70
     8
 71
     3
 72
    13
 73
     9
 74
     0
 42
0.0000000001
 43
0.0000000001
 40
0.0
 40
0.0
 40
0.0
 40
0.0
 40
0.3128992133
 40
0.5792552931000003
 40
0.6959524515000001
 40
0.8032600997999999
 40
0.9035263090999999
 40
1.0
 40
1.0
 40
1.0
 40
1.0
 10
748.1951469528922
 20
198.275314970525
 30
0.0
 10
748.2368189366917
 20
198.3582168203266
 30
0.0
 10
748.3037265860823
 20
198.5172450893284
 30
0.0
 10
748.3462502480782
 20
198.7214252676259
 30
0.0
 10
748.3446327183814
 20
198.8673807018336
 30
0.0
 10
748.3274190529802
 20
198.9625400250312
 30
0.0
 10
748.2940218347915
 20
199.0469690491255
 30
0.0
 10
748.2608135534814
 20
199.0956581266315
 30
0.0
 10
748.2420626359729
 20
199.1172641716358
 30
0.0
  0
SPLINE
  5
2C1
330
2
100
AcDbEntity
  8
CDSF_SOLIDLINE
  6
Continuous
 62
     7
100
AcDbSpline
210
0.0
220
0.0
230
1.0
 70
     8
 71
     3
 72
    13
 73
     9
 74
     0
 42
0.0000000001
 43
0.0000000001
 40
0.0
 40
0.0
 40
0.0
 40
0.0
 40
0.3128992133
 40
0.5792552931000003
 40
0.6959524515000001
 40
0.8032600997999999
 40
0.9035263090999999
 40
1.0
 40
1.0
 40
1.0
 40
1.0
 10
745.2897036609896
 20
201.6229433592294
 30
0.0
 10
745.3313756447888
 20
201.705845209031
 30
0.0
 10
745.3982832941797
 20
201.8648734780327
 30
0.0
 10
745.4408069561752
 20
202.0690536563303
 30
0.0
 10
745.4391894264792
 20
202.2150090905266
 30
0.0
 10
745.4219757610775
 20
202.310168413736
 30
0.0
 10
745.3885785428886
 20
202.3945974378299
 30
0.0
 10
745.3553702615785
 20
202.4432865153359
 30
0.0
 10
745.3366193440927
 20
202.4648925603288
 30
0.0
  0
SPLINE
  5
2C2
330
2
100
AcDbEntity
  8
CDSF_SOLIDLINE
  6
Continuous
 62
     7
100
AcDbSpline
210
0.0
220
0.0
230
1.0
 70
     8
 71
     3
 72
     9
 73
     5
 74
     0
 42
0.0000000001
 43
0.0000000001
 40
0.0
 40
0.0
 40
0.0
 40
0.0
 40
0.2694624632
 40
1.0
 40
1.0
 40
1.0
 40
1.0
 10
741.1302029076881
 20
205.8833326307318
 30
0.0
 10
741.1408199245783
 20
205.9044540236346
 30
0.0
 10
741.1781737829782
 20
205.9837961485324
 30
0.0
 10
741.2073022110774
 20
206.0674055187325
 30
0.0
 10
741.220671658691
 20
206.1300848697338
 30
0.0
  0
SPLINE
  5
2C3
330
2
100
AcDbEntity
  8
CDSF_SOLIDLINE
  6
Continuous
 62
     7
100
AcDbSpline
210
0.0
220
0.0
230
1.0
 70
     8
 71
     3
 72
    11
 73
     7
 74
     0
 42
0.0000000001
 43
0.0000000001
 40
0.0
 40
0.0
 40
0.0
 40
0.0
 40
0.2899984273
 40
0.5482194483000003
 40
0.7812438178
 40
1.0
 40
1.0
 40
1.0
 40
1.0
 10
741.220671658691
 20
206.1300848697338
 30
0.0
 10
741.2279223225862
 20
206.1640778155321
 30
0.0
 10
741.2372356611752
 20
206.2294641283289
 30
0.0
 10
741.2330771070758
 20
206.3236725335301
 30
0.0
 10
741.2095235677908
 20
206.4063977420261
 30
0.0
 10
741.1801487622737
 20
206.4529921767304
 30
0.0
 10
741.1629588812777
 20
206.4727896441301
 30
0.0
  0
SPLINE
  5
2C4
330
2
100
AcDbEntity
  8
CDSF_SOLIDLINE
  6
Continuous
 62
     7
100
AcDbSpline
210
0.0
220
0.0
230
1.0
 70
     8
 71
     3
 72
    11
 73
     7
 74
     0
 42
0.0000000001
 43
0.0000000001
 40
0.0
 40
0.0
 40
0.0
 40
0.0
 40
0.2007070057
 40
0.4279889275000003
 40
0.6934220693000001
 40
1.0
 40
1.0
 40
1.0
 40
1.0
 10
741.3057873660823
 20
202.7719335612265
 30
0.0
 10
741.3105307667732
 20
202.7813588498299
 30
0.0
 10
741.3243005126736
 20
202.7997149662266
 30
0.0
 10
741.3537946543769
 20
202.8217038610351
 30
0.0
 10
741.3920732248911
 20
202.8395302836258
 30
0.0
 10
741.4209960554837
 20
202.8480982728257
 30
0.0
 10
741.4366708088904
 20
202.8518497929259
 30
0.0
  0
SPLINE
  5
2C5
330
2
100
AcDbEntity
  8
CDSF_SOLIDLINE
  6
Continuous
 62
     7
100
AcDbSpline
210
0.0
220
0.0
230
1.0
 70
     8
 71
     3
 72
     9
 73
     5
 74
     0
 42
0.0000000001
 43
0.0000000001
 40
0.0
 40
0.0
 40
0.0
 40
0.0
 40
0.2580597126
 40
1.0
 40
1.0
 40
1.0
 40
1.0
 10
734.0336994216796
 20
211.6891349461358
 30
0.0
 10
734.0317147454848
 20
211.6830917605326
 30
0.0
 10
734.0243132260815
 20
211.6595809087367
 30
0.0
 10
734.0180971735911
 20
211.6356896494259
 30
0.0
 10
734.0142979488795
 20
211.6178010537338
 30
0.0
  0
SPLINE
  5
2C6
330
2
100
AcDbEntity
  8
CDSF_SOLIDLINE
  6
Continuous
 62
     7
100
AcDbSpline
210
0.0
220
0.0
230
1.0
 70
     8
 71
     3
 72
     9
 73
     5
 74
     0
 42
0.0000000001
 43
0.0000000001
 40
0.0
 40
0.0
 40
0.0
 40
0.0
 40
0.4728911994
 40
1.0
 40
1.0
 40
1.0
 40
1.0
 10
734.1344924406779
 20
211.7087755345261
 30
0.0
 10
734.1551011952843
 20
211.709815393927
 30
0.0
 10
734.199226536089
 20
211.7063234859362
 30
0.0
 10
734.2404236452852
 20
211.6897374932333
 30
0.0
 10
734.2603892687821
 20
211.6783177457265
 30
0.0
  0
SPLINE
  5
2C7
330
2
100
AcDbEntity
  8
CDSF_SOLIDLINE
  6
Continuous
 62
     7
100
AcDbSpline
210
0.0
220
0.0
230
1.0
 70
     8
 71
     3
 72
    12
 73
     8
 74
     0
 42
0.0000000001
 43
0.0000000001
 40
0.0
 40
0.0
 40
0.0
 40
0.0
 40
0.0997437544
 40
0.2027008202
 40
0.4282226046
 40
0.6923339804000001
 40
1.0
 40
1.0
 40
1.0
 40
1.0
 10
744.4649863564896
 20
203.4691810770278
 30
0.0
 10
744.4480739977865
 20
203.4886686131276
 30
0.0
 10
744.4094406712912
 20
203.5247676781329
 30
0.0
 10
744.3144746392757
 20
203.5830449473306
 30
0.0
 10
744.1637404420828
 20
203.6243372551363
 30
0.0
 10
743.9559505370901
 20
203.6237025424271
 30
0.0
 10
743.8100379970805
 20
203.5948861675266
 30
0.0
 10
743.73318869739
 20
203.5741765811268
 30
0.0
  0
SPLINE
  5
2C8
330
2
100
AcDbEntity
  8
CDSF_SOLIDLINE
  6
Continuous
 62
     7
100
AcDbSpline
210
0.0
220
0.0
230
1.0
 70
     8
 71
     3
 72
    11
 73
     7
 74
     0
 42
0.0000000001
 43
0.0000000001
 40
0.0
 40
0.0
 40
0.0
 40
0.0
 40
0.2045044044
 40
0.4312517128000001
 40
0.6945172806000001
 40
1.0
 40
1.0
 40
1.0
 40
1.0
 10
745.0176461191808
 20
197.4927072218312
 30
0.0
 10
744.9850417342834
 20
197.5302761465364
 30
0.0
 10
744.9324638301881
 20
197.6245818123335
 30
0.0
 10
744.9072287113779
 20
197.7942506771347
 30
0.0
 10
744.929700675489
 20
197.9880211155274
 30
0.0
 10
744.9719616754785
 20
198.1205274692289
 30
0.0
 10
744.9992972705723
 20
198.1896228910314
 30
0.0
  0
SPLINE
  5
2C9
330
2
100
AcDbEntity
  8
CDSF_SOLIDLINE
  6
Continuous
 62
     7
100
AcDbSpline
210
0.0
220
0.0
230
1.0
 70
     8
 71
     3
 72
    11
 73
     7
 74
     0
 42
0.0000000001
 43
0.0000000001
 40
0.0
 40
0.0
 40
0.0
 40
0.0
 40
0.2045286466
 40
0.4312888405
 40
0.6946203914
 40
1.0
 40
1.0
 40
1.0
 40
1.0
 10
747.660973977578
 20
199.7867898494274
 30
0.0
 10
747.6283676342791
 20
199.8243610307355
 30
0.0
 10
747.5424140448916
 20
199.8897076563308
 30
0.0
 10
747.3779735517831
 20
199.9385998652256
 30
0.0
 10
747.1829858174727
 20
199.943603374632
 30
0.0
 10
747.0458649634832
 20
199.9204416811272
 30
0.0
 10
746.9736374804855
 20
199.9031145097316
 30
0.0
  0
SPLINE
  5
2CA
330
2
100
AcDbEntity
  8
CDSF_SOLIDLINE
  6
Continuous
 62
     7
100
AcDbSpline
210
0.0
220
0.0
230
1.0
 70
     8
 71
     3
 72
    12
 73
     8
 74
     0
 42
0.0000000001
 43
0.0000000001
 40
0.0
 40
0.0
 40
0.0
 40
0.0
 40
0.0997483371
 40
0.2027105036
 40
0.4282296968
 40
0.6922615667000001
 40
1.0
 40
1.0
 40
1.0
 40
1.0
 10
741.8216584980922
 20
201.1750984494316
 30
0.0
 10
741.8047582111807
 20
201.1945720757309
 30
0.0
 10
741.7744820662904
 20
201.2378737963323
 30
0.0
 10
741.7301808566837
 20
201.340018502036
 30
0.0
 10
741.710501901994
 20
201.4949175192302
 30
0.0
 10
741.7402563150784
 20
201.7004046619359
 30
0.0
 10
741.7892587774852
 20
201.8407112928281
 30
0.0
 10
741.8205354689868
 20
201.9138538040361
 30
0.0
  0
SPLINE
  5
2CB
330
2
100
AcDbEntity
  8
CDSF_SOLIDLINE
  6
Continuous
 62
     7
100
AcDbSpline
210
0.0
220
0.0
230
1.0
 70
     8
 71
     3
 72
    11
 73
     7
 74
     0
 42
0.0000000001
 43
0.0000000001
 40
0.0
 40
0.0
 40
0.0
 40
0.0
 40
0.2500675264
 40
0.5175424821
 40
0.7757005564
 40
1.0
 40
1.0
 40
1.0
 40
1.0
 10
741.9160108051886
 20
204.3906035616356
 30
0.0
 10
741.8713089304933
 20
204.3180643210299
 30
0.0
 10
741.7616201679843
 20
204.1783656570343
 30
0.0
 10
741.5654989411726
 20
203.9995733492325
 30
0.0
 10
741.3506282091879
 20
203.8594335727335
 30
0.0
 10
741.1968053254915
 20
203.7962935861338
 30
0.0
 10
741.1224777649817
 20
203.7785043853311
 30
0.0
  0
SPLINE
  5
2CC
330
2
100
AcDbEntity
  8
CDSF_SOLIDLINE
  6
Continuous
 62
     7
100
AcDbSpline
210
0.0
220
0.0
230
1.0
 70
     8
 71
     3
 72
     9
 73
     5
 74
     0
 42
0.0000000001
 43
0.0000000001
 40
0.0
 40
0.0
 40
0.0
 40
0.0
 40
0.2443070076
 40
1.0
 40
1.0
 40
1.0
 40
1.0
 10
734.8448739120827
 20
212.0837728758366
 30
0.0
 10
734.8164608409782
 20
212.0660427122335
 30
0.0
 10
734.7026229055913
 20
211.9895791655291
 30
0.0
 10
734.5983086401915
 20
211.8990684442252
 30
0.0
 10
734.5262754664791
 20
211.8246156248307
 30
0.0
  0
SPLINE
  5
2CD
330
2
100
AcDbEntity
  8
CDSF_SOLIDLINE
  6
Continuous
 62
     7
100
AcDbSpline
210
0.0
220
0.0
230
1.0
 70
     8
 71
     3
 72
     9
 73
     5
 74
     0
 42
0.0000000001
 43
0.0000000001
 40
0.0
 40
0.0
 40
0.0
 40
0.0
 40
0.4947904106000001
 40
1.0
 40
1.0
 40
1.0
 40
1.0
 10
742.1098445410864
 20
202.3676090648256
 30
0.0
 10
742.0953173506854
 20
202.3387311592319
 30
0.0
 10
742.0531771752897
 20
202.2856571722319
 30
0.0
 10
741.9917507837737
 20
202.2569593861359
 30
0.0
 10
741.959650601378
 20
202.2492766829274
 30
0.0
  0
SPLINE
  5
2CE
330
2
100
AcDbEntity
  8
CDSF_SOLIDLINE
  6
Continuous
 62
     7
100
AcDbSpline
210
0.0
220
0.0
230
1.0
 70
     8
 71
     3
 72
    18
 73
    14
 74
     0
 42
0.0000000001
 43
0.0000000001
 40
0.0
 40
0.0
 40
0.0
 40
0.0
 40
0.1339826867
 40
0.282257193
 40
0.4357588272
 40
0.584637908
 40
0.7197125888000003
 40
0.7798417871
 40
0.8342045587000001
 40
0.8826593621999998
 40
0.9255845295999998
 40
0.9640605913999999
 40
1.0
 40
1.0
 40
1.0
 40
1.0
 10
744.0611411644899
 20
202.5418060842272
 30
0.0
 10
744.0140246463928
 20
202.4480729294265
 30
0.0
 10
743.8937838545911
 20
202.2610210803287
 30
0.0
 10
743.6680545265947
 20
202.0039273784292
 30
0.0
 10
743.4016874547845
 20
201.7708720538331
 30
0.0
 10
743.1158070235827
 20
201.5804739800288
 30
0.0
 10
742.8707444756877
 20
201.4649725172336
 30
0.0
 10
742.6831651280876
 20
201.4089560730323
 30
0.0
 10
742.5570910144783
 20
201.3870983447351
 30
0.0
 10
742.4425067365722
 20
201.3841921807353
 30
0.0
 10
742.3413930282817
 20
201.4006491080355
 30
0.0
 10
742.2558340004925
 20
201.4368948270354
 30
0.0
 10
742.2102616684782
 20
201.4749262499281
 30
0.0
 10
742.1918118315772
 20
201.4961747998351
 30
0.0
  0
SPLINE
  5
2CF
330
2
100
AcDbEntity
  8
CDSF_SOLIDLINE
  6
Continuous
 62
     7
100
AcDbSpline
210
0.0
220
0.0
230
1.0
 70
     8
 71
     3
 72
    17
 73
    13
 74
     0
 42
0.0000000001
 43
0.0000000001
 40
0.0
 40
0.0
 40
0.0
 40
0.0
 40
0.1224912627
 40
0.2603058383
 40
0.4107943766
 40
0.5656947934000001
 40
0.7120415765000001
 40
0.8354005148
 40
0.8856989057999998
 40
0.9285621758999999
 40
0.9656160682999999
 40
1.0
 40
1.0
 40
1.0
 40
1.0
 10
741.959650601378
 20
202.2492766829274
 30
0.0
 10
741.9229877134823
 20
202.2405019637314
 30
0.0
 10
741.8405468256763
 20
202.2398630109297
 30
0.0
 10
741.7191113388772
 20
202.2793835063354
 30
0.0
 10
741.6006096232762
 20
202.3483611277298
 30
0.0
 10
741.4918381503862
 20
202.4355938228255
 30
0.0
 10
741.3999945626767
 20
202.5288133279256
 30
0.0
 10
741.3396729967792
 20
202.6074113470286
 30
0.0
 10
741.308960269895
 20
202.6667788420355
 30
0.0
 10
741.2967552991752
 20
202.7052421214299
 30
0.0
 10
741.2946772911767
 20
202.7408593688352
 30
0.0
 10
741.3010302411734
 20
202.7624810023327
 30
0.0
 10
741.3057873660823
 20
202.7719335612265
 30
0.0
  0
SPLINE
  5
2D0
330
2
100
AcDbEntity
  8
CDSF_SOLIDLINE
  6
Continuous
 62
     7
100
AcDbSpline
210
0.0
220
0.0
230
1.0
 70
     8
 71
     3
 72
    13
 73
     9
 74
     0
 42
0.0000000001
 43
0.0000000001
 40
0.0
 40
0.0
 40
0.0
 40
0.0
 40
0.3128992133
 40
0.5792552931000003
 40
0.6959524515000001
 40
0.8032600997999999
 40
0.9035263090999999
 40
1.0
 40
1.0
 40
1.0
 40
1.0
 10
747.6140582944748
 20
198.9448406482362
 30
0.0
 10
747.655730278274
 20
199.0277424980259
 30
0.0
 10
747.7226379276875
 20
199.1867707670277
 30
0.0
 10
747.7651615896832
 20
199.3909509453366
 30
0.0
 10
747.7635440599872
 20
199.5369063795329
 30
0.0
 10
747.7463303945854
 20
199.6320657027304
 30
0.0
 10
747.7129331763737
 20
199.7164947268365
 30
0.0
 10
747.6797248950862
 20
199.7651838043308
 30
0.0
 10
747.660973977578
 20
199.7867898494274
 30
0.0
  0
SPLINE
  5
2D1
330
2
100
AcDbEntity
  8
CDSF_SOLIDLINE
  6
Continuous
 62
     7
100
AcDbSpline
210
0.0
220
0.0
230
1.0
 70
     8
 71
     3
 72
    10
 73
     6
 74
     0
 42
0.0000000001
 43
0.0000000001
 40
0.0
 40
0.0
 40
0.0
 40
0.0
 40
0.2763598937
 40
0.5437294700999999
 40
1.0
 40
1.0
 40
1.0
 40
1.0
 10
734.3012778236825
 20
211.6964592831251
 30
0.0
 10
734.2851071374829
 20
211.7069020324358
 30
0.0
 10
734.2511061317791
 20
211.7243827043299
 30
0.0
 10
734.1829993526848
 20
211.7414505699254
 30
0.0
 10
734.1312823345872
 20
211.7374692426311
 30
0.0
 10
734.100374334775
 20
211.7300718706256
 30
0.0
  0
SPLINE
  5
2D2
330
2
100
AcDbEntity
  8
CDSF_SOLIDLINE
  6
Continuous
 62
     7
100
AcDbSpline
210
0.0
220
0.0
230
1.0
 70
     8
 71
     3
 72
    18
 73
    14
 74
     0
 42
0.0000000001
 43
0.0000000001
 40
0.0
 40
0.0
 40
0.0
 40
0.0
 40
0.1339878857
 40
0.2822717921
 40
0.4357783426000001
 40
0.5846602010000001
 40
0.7197346501000002
 40
0.7798579099
 40
0.8342180911999999
 40
0.8826690275
 40
0.9255869068999999
 40
0.9640605821999999
 40
1.0
 40
1.0
 40
1.0
 40
1.0
 10
747.6140582944748
 20
198.9448406482362
 30
0.0
 10
747.5486125355768
 20
198.8146434753299
 30
0.0
 10
747.3815886862869
 20
198.5548244932301
 30
0.0
 10
747.0680440151884
 20
198.1977147713338
 30
0.0
 10
746.6980412607829
 20
197.8740098682325
 30
0.0
 10
746.3009387796795
 20
197.6095799220325
 30
0.0
 10
745.9605569332817
 20
197.4491499615315
 30
0.0
 10
745.7000081837842
 20
197.3714020725357
 30
0.0
 10
745.5249085433798
 20
197.3410560034327
 30
0.0
 10
745.3657652816748
 20
197.3370410661251
 30
0.0
 10
745.2253500971941
 20
197.3599647467286
 30
0.0
 10
745.1065248137796
 20
197.4103206347341
 30
0.0
 10
745.0432650463893
 20
197.4631874028251
 30
0.0
 10
745.0176461191808
 20
197.4927072218312
 30
0.0
  0
SPLINE
  5
2D3
330
2
100
AcDbEntity
  8
CDSF_SOLIDLINE
  6
Continuous
 62
     7
100
AcDbSpline
210
0.0
220
0.0
230
1.0
 70
     8
 71
     3
 72
    18
 73
    14
 74
     0
 42
0.0000000001
 43
0.0000000001
 40
0.0
 40
0.0
 40
0.0
 40
0.0
 40
0.1339826867
 40
0.282257193
 40
0.4357588272
 40
0.584637908
 40
0.7197125888000003
 40
0.7798417871
 40
0.8342045587000001
 40
0.8826593621999998
 40
0.9255845295999998
 40
0.9640605913999999
 40
1.0
 40
1.0
 40
1.0
 40
1.0
 10
747.2862658883736
 20
198.8663883907298
 30
0.0
 10
747.2376536077931
 20
198.7696795801354
 30
0.0
 10
747.1135956479814
 20
198.5766895770312
 30
0.0
 10
746.8807003095938
 20
198.3114341704364
 30
0.0
 10
746.6058771402906
 20
198.0709802640273
 30
0.0
 10
746.310921139777
 20
197.874537806928
 30
0.0
 10
746.0580788284799
 20
197.7553696311366
 30
0.0
 10
745.8645445808728
 20
197.6975748870346
 30
0.0
 10
745.7344681145826
 20
197.6750232626324
 30
0.0
 10
745.6162462404932
 20
197.6720248394272
 30
0.0
 10
745.5119225732889
 20
197.6890042088358
 30
0.0
 10
745.4236473857794
 20
197.7264005856351
 30
0.0
 10
745.3766283130867
 20
197.7656393553285
 30
0.0
 10
745.3575927670892
 20
197.7875624622344
 30
0.0
  0
SPLINE
  5
2D4
330
2
100
AcDbEntity
  8
CDSF_SOLIDLINE
  6
Continuous
 62
     7
100
AcDbSpline
210
0.0
220
0.0
230
1.0
 70
     8
 71
     3
 72
     9
 73
     5
 74
     0
 42
0.0000000001
 43
0.0000000001
 40
0.0
 40
0.0
 40
0.0
 40
0.0
 40
0.5487716547
 40
1.0
 40
1.0
 40
1.0
 40
1.0
 10
742.3178751893759
 20
204.5503831175329
 30
0.0
 10
742.3527919856864
 20
204.6198462613307
 30
0.0
 10
742.4068344950756
 20
204.7516584082278
 30
0.0
 10
742.4282149355887
 20
204.8944237952256
 30
0.0
 10
742.4248349386756
 20
204.9582604609273
 30
0.0
  0
SPLINE
  5
2D5
330
2
100
AcDbEntity
  8
CDSF_SOLIDLINE
  6
Continuous
 62
     7
100
AcDbSpline
210
0.0
220
0.0
230
1.0
 70
     8
 71
     3
 72
    17
 73
    13
 74
     0
 42
0.0000000001
 43
0.0000000001
 40
0.0
 40
0.0
 40
0.0
 40
0.0
 40
0.1326445895
 40
0.2793356861
 40
0.4314877606000003
 40
0.5797273024000003
 40
0.7152241745
 40
0.831060717
 40
0.8805710656
 40
0.924551199
 40
0.9638313161999999
 40
1.0
 40
1.0
 40
1.0
 40
1.0
 10
742.3178751893759
 20
204.5503831175329
 30
0.0
 10
742.2717740037909
 20
204.4586698557297
 30
0.0
 10
742.1545869392915
 20
204.2755056298362
 30
0.0
 10
741.9347900578936
 20
204.0229512099291
 30
0.0
 10
741.6751904412852
 20
203.7927983564269
 30
0.0
 10
741.3953657065732
 20
203.6025388408253
 30
0.0
 10
741.1165717581756
 20
203.4663983904321
 30
0.0
 10
740.8903408800846
 20
203.4025314582301
 30
0.0
 10
740.728105921978
 20
203.3917832052358
 30
0.0
 10
740.6252889021792
 20
203.4027382778355
 30
0.0
 10
740.5368654281732
 20
203.4324854534294
 30
0.0
 10
740.4878073549784
 20
203.4659259408281
 30
0.0
 10
740.4674234021788
 20
203.4851067501305
 30
0.0
  0
SPLINE
  5
2D6
330
2
100
AcDbEntity
  8
CDSF_SOLIDLINE
  6
Continuous
 62
     7
100
AcDbSpline
210
0.0
220
0.0
230
1.0
 70
     8
 71
     3
 72
    13
 73
     9
 74
     0
 42
0.0000000001
 43
0.0000000001
 40
0.0
 40
0.0
 40
0.0
 40
0.0
 40
0.3128992133
 40
0.5792552931000003
 40
0.6959524515000001
 40
0.8032600997999999
 40
0.9035263090999999
 40
1.0
 40
1.0
 40
1.0
 40
1.0
 10
744.4180706733873
 20
202.6272318758362
 30
0.0
 10
744.4597426571858
 20
202.7101337256264
 30
0.0
 10
744.5266503065762
 20
202.8691619946277
 30
0.0
 10
744.5691739685719
 20
203.0733421729252
 30
0.0
 10
744.5675564388761
 20
203.2192976071334
 30
0.0
 10
744.5503427734743
 20
203.3144569303309
 30
0.0
 10
744.5169455552854
 20
203.3988859544253
 30
0.0
 10
744.483737273975
 20
203.4475750319312
 30
0.0
 10
744.4649863564896
 20
203.4691810770278
 30
0.0
  0
SPLINE
  5
2D7
330
2
100
AcDbEntity
  8
CDSF_SOLIDLINE
  6
Continuous
 62
     7
100
AcDbSpline
210
0.0
220
0.0
230
1.0
 70
     8
 71
     3
 72
    18
 73
    14
 74
     0
 42
0.0000000001
 43
0.0000000001
 40
0.0
 40
0.0
 40
0.0
 40
0.0
 40
0.1339878857
 40
0.2822717921
 40
0.4357783426000001
 40
0.5846602010000001
 40
0.7197346501000002
 40
0.7798579099
 40
0.8342180911999999
 40
0.8826690275
 40
0.9255869068999999
 40
0.9640605821999999
 40
1.0
 40
1.0
 40
1.0
 40
1.0
 10
744.4180706733873
 20
202.6272318758362
 30
0.0
 10
744.3526249144882
 20
202.4970347029299
 30
0.0
 10
744.1856010651758
 20
202.2372157208307
 30
0.0
 10
743.8720563940773
 20
201.8801059989342
 30
0.0
 10
743.5020536396945
 20
201.5564010958329
 30
0.0
 10
743.104951158591
 20
201.291971149633
 30
0.0
 10
742.7645693121934
 20
201.131541189132
 30
0.0
 10
742.5040205627878
 20
201.0537933001361
 30
0.0
 10
742.3289209222921
 20
201.0234472310327
 30
0.0
 10
742.1697776605864
 20
201.0194322937255
 30
0.0
 10
742.0293624760827
 20
201.0423559742366
 30
0.0
 10
741.910537192691
 20
201.0927118622308
 30
0.0
 10
741.8472774252783
 20
201.1455786303332
 30
0.0
 10
741.8216584980922
 20
201.1750984494316
 30
0.0
  0
SPLINE
  5
2D8
330
2
100
AcDbEntity
  8
CDSF_SOLIDLINE
  6
Continuous
 62
     7
100
AcDbSpline
210
0.0
220
0.0
230
1.0
 70
     8
 71
     3
 72
    12
 73
     8
 74
     0
 42
0.0000000001
 43
0.0000000001
 40
0.0
 40
0.0
 40
0.0
 40
0.0
 40
0.3131459011
 40
0.5797312654
 40
0.8031020601000001
 40
0.9034473434999995
 40
1.0
 40
1.0
 40
1.0
 40
1.0
 10
747.2862658883736
 20
198.8663883907298
 30
0.0
 10
747.3172282897906
 20
198.9279846988252
 30
0.0
 10
747.3669236028813
 20
199.0463101836281
 30
0.0
 10
747.4033993927745
 20
199.2206354414334
 30
0.0
 10
747.3939504024794
 20
199.3530879861333
 30
0.0
 10
747.3596676272885
 20
199.4397277992317
 30
0.0
 10
747.3349636856802
 20
199.475884204032
 30
0.0
 10
747.321027329693
 20
199.4919346089319
 30
0.0
  0
SPLINE
  5
2D9
330
2
100
AcDbEntity
  8
CDSF_SOLIDLINE
  6
Continuous
 62
     7
100
AcDbSpline
210
0.0
220
0.0
230
1.0
 70
     8
 71
     3
 72
    12
 73
     8
 74
     0
 42
0.0000000001
 43
0.0000000001
 40
0.0
 40
0.0
 40
0.0
 40
0.0
 40
0.2613383488
 40
0.5312555475999999
 40
0.7844674032
 40
0.8979790812
 40
1.0
 40
1.0
 40
1.0
 40
1.0
 10
734.100374334775
 20
211.7300718706256
 30
0.0
 10
734.1659729564882
 20
211.8292481352265
 30
0.0
 10
734.3203662404852
 20
212.0173457454258
 30
0.0
 10
734.5901911597897
 20
212.2530019523279
 30
0.0
 10
734.8392042918788
 20
212.4050745269284
 30
0.0
 10
735.0375509446751
 20
212.4845954103308
 30
0.0
 10
735.133039404673
 20
212.5088520206364
 30
0.0
 10
735.1788674016737
 20
212.5162365784369
 30
0.0
  0
SPLINE
  5
2DA
330
2
100
AcDbEntity
  8
CDSF_SOLIDLINE
  6
Continuous
 62
     7
100
AcDbSpline
210
0.0
220
0.0
230
1.0
 70
     8
 71
     3
 72
     9
 73
     5
 74
     0
 42
0.0000000001
 43
0.0000000001
 40
0.0
 40
0.0
 40
0.0
 40
0.0
 40
0.2387468637
 40
1.0
 40
1.0
 40
1.0
 40
1.0
 10
734.0651301061735
 20
211.611197403629
 30
0.0
 10
734.0661890553732
 20
211.618517071434
 30
0.0
 10
734.0713220051951
 20
211.6490738657295
 30
0.0
 10
734.07907979359
 20
211.6791639189274
 30
0.0
 10
734.0861009166823
 20
211.7016764678352
 30
0.0
  0
SPLINE
  5
2DB
330
2
100
AcDbEntity
  8
CDSF_SOLIDLINE
  6
Continuous
 62
     7
100
AcDbSpline
210
0.0
220
0.0
230
1.0
 70
     8
 71
     3
 72
    12
 73
     8
 74
     0
 42
0.0000000001
 43
0.0000000001
 40
0.0
 40
0.0
 40
0.0
 40
0.0
 40
0.3131459011
 40
0.5797312654
 40
0.8031020601000001
 40
0.9034473434999995
 40
1.0
 40
1.0
 40
1.0
 40
1.0
 10
744.0611411644899
 20
202.5418060842272
 30
0.0
 10
744.0911508765934
 20
202.6015071213338
 30
0.0
 10
744.1393171031926
 20
202.7161918220273
 30
0.0
 10
744.1746705610817
 20
202.8851532257309
 30
0.0
 10
744.1655123088861
 20
203.0135303075268
 30
0.0
 10
744.1322843883737
 20
203.097504280233
 30
0.0
 10
744.1083405680905
 20
203.1325481802288
 30
0.0
 10
744.0948330230741
 20
203.1481047266357
 30
0.0
  0
SPLINE
  5
2DC
330
2
100
AcDbEntity
  8
CDSF_SOLIDLINE
  6
Continuous
 62
     7
100
AcDbSpline
210
0.0
220
0.0
230
1.0
 70
     8
 71
     3
 72
    11
 73
     7
 74
     0
 42
0.0000000001
 43
0.0000000001
 40
0.0
 40
0.0
 40
0.0
 40
0.0
 40
0.2138888262
 40
0.4458242724
 40
0.7060486148999999
 40
1.0
 40
1.0
 40
1.0
 40
1.0
 10
740.8308817035861
 20
203.8204430505317
 30
0.0
 10
740.8431599333911
 20
203.8082797692269
 30
0.0
 10
740.8729762044899
 20
203.7869381506267
 30
0.0
 10
740.9273685702877
 20
203.7678790006326
 30
0.0
 10
740.9909024619738
 20
203.7607371642363
 30
0.0
 10
741.0357946612806
 20
203.7636598154337
 30
0.0
 10
741.0593477305722
 20
203.7667296102323
 30
0.0
  0
SPLINE
  5
2DD
330
2
100
AcDbEntity
  8
CDSF_SOLIDLINE
  6
Continuous
 62
     7
100
AcDbSpline
210
0.0
220
0.0
230
1.0
 70
     8
 71
     3
 72
     9
 73
     5
 74
     0
 42
0.0000000001
 43
0.0000000001
 40
0.0
 40
0.0
 40
0.0
 40
0.0
 40
0.2421753431
 40
1.0
 40
1.0
 40
1.0
 40
1.0
 10
741.0593477305722
 20
203.7667296102323
 30
0.0
 10
741.0644896752947
 20
203.7673997867301
 30
0.0
 10
741.0856815040782
 20
203.7704740155319
 30
0.0
 10
741.1066969770867
 20
203.7747274875265
 30
0.0
 10
741.1224777649817
 20
203.7785043853311
 30
0.0
  0
DIMENSION
  5
2DE
330
2
100
AcDbEntity
  8
0
100
AcDbDimension
  2
*D3
 10
749.3028678077451
 20
232.1738478986722
 30
0.0
 11
747.8028678077452
 21
236.7809907558152
 31
0.0
  1
%%cd
 71
     5
 42
0.8999999999991246
 73
     0
 74
     0
 75
     0
  3
01
100
AcDbAlignedDimension
 13
755.6329758484134
 23
231.273847898673
 33
0.0
 14
755.6329758484125
 24
232.1738478986722
 34
0.0
 50
90.0
100
AcDbRotatedDimension
  0
DIMENSION
  5
2EC
330
2
100
AcDbEntity
  8
0
100
AcDbDimension
  2
*D4
 10
757.7668193796299
 20
230.4238478986722
 30
0.0
 11
756.2668193796298
 21
225.7095621843866
 31
0.0
  1
%%cD
 71
     5
 42
2.599999999380087
 73
     0
 74
     0
 75
     0
  3
01
100
AcDbAlignedDimension
 13
757.7941868696727
 23
233.0238478980522
 33
0.0
 14
757.7941868696727
 24
230.4238478986722
 34
0.0
 50
90.0
100
AcDbRotatedDimension
  0
ENDSEC
  0
SECTION
  2
OBJECTS
  0
DICTIONARY
  5
B
330
0
100
AcDbDictionary
281
     1
  3
ACAD_COLOR
350
4F
  3
ACAD_GROUP
350
43
  3
ACAD_LAYOUT
350
22
  3
ACAD_MATERIAL
350
D
  3
ACAD_MLEADERSTYLE
350
342
  3
ACAD_MLINESTYLE
350
44
  3
ACAD_PLOTSETTINGS
350
45
  3
ACAD_PLOTSTYLENAME
350
A
  3
ACAD_SCALELIST
350
50
  3
ACAD_TABLESTYLE
350
51
  3
ACAD_VISUALSTYLE
350
39
  3
ACDB_RECOMPOSE_DATA
350
324
  3
AcDbVariableDictionary
350
304
  3
lxx_dict
350
351
  0
DICTIONARY
  5
3A
330
36
100
AcDbDictionary
280
     1
281
     1
  0
DICTIONARY
  5
29
330
28
100
AcDbDictionary
280
     1
281
     1
  3
ACAD_LAYERFILTERS
360
2A
  3
ACAD_LAYERSTATES
360
2B
  3
ACLYDICTIONARY
360
2C
  0
DICTIONARY
  5
7
330
6
100
AcDbDictionary
280
     1
281
     1
  3
ADSK_XREC_LAYER_RECONCILED
360
8
  0
DICTIONARY
  5
7A
330
79
100
AcDbDictionary
280
     1
281
     1
  3
ADSK_XREC_LAYER_RECONCILED
360
7B
  0
DICTIONARY
  5
3EC
330
3EA
100
AcDbDictionary
280
     1
281
     1
  3
ASDK_XREC_ANNO_SCALE_INFO
360
3ED
  0
DICTIONARY
  5
3
330
2
100
AcDbDictionary
280
     1
281
     1
  3
ACAD_SORTENTS
360
2FA
  0
DICTIONARY
  5
3D4
330
BC
100
AcDbDictionary
280
     1
281
     1
  3
ACAD_MTEXT_2008_RT
360
3D5
  0
DICTIONARY
  5
3D6
330
BD
100
AcDbDictionary
280
     1
281
     1
  3
ACAD_MTEXT_2008_RT
360
3D7
  0
DICTIONARY
  5
3D8
330
E2
100
AcDbDictionary
280
     1
281
     1
  3
ACAD_MTEXT_2008_RT
360
3D9
  0
DICTIONARY
  5
3DA
330
E5
100
AcDbDictionary
280
     1
281
     1
  3
ACAD_MTEXT_2008_RT
360
3DB
  0
DICTIONARY
  5
3DC
330
E6
100
AcDbDictionary
280
     1
281
     1
  3
ACAD_MTEXT_2008_RT
360
3DD
  0
DICTIONARY
  5
3DE
330
F0
100
AcDbDictionary
280
     1
281
     1
  3
ACAD_MTEXT_2008_RT
360
3DF
  0
DICTIONARY
  5
3E0
330
F1
100
AcDbDictionary
280
     1
281
     1
  3
ACAD_MTEXT_2008_RT
360
3E1
  0
DICTIONARY
  5
3E2
330
F2
100
AcDbDictionary
280
     1
281
     1
  3
ACAD_MTEXT_2008_RT
360
3E3
  0
DICTIONARY
  5
3E4
330
100
100
AcDbDictionary
280
     1
281
     1
  3
ACAD_MTEXT_2008_RT
360
3E5
  0
DICTIONARY
  5
3E6
330
101
100
AcDbDictionary
280
     1
281
     1
  3
ACAD_MTEXT_2008_RT
360
3E7
  0
DICTIONARY
  5
3E8
330
102
100
AcDbDictionary
280
     1
281
     1
  3
ACAD_MTEXT_2008_RT
360
3E9
  0
DICTIONARY
  5
3CE
330
137
100
AcDbDictionary
280
     1
281
     1
  3
AcDbContextDataManager
360
3CF
  0
DICTIONARY
  5
3EE
330
13F
100
AcDbDictionary
280
     1
281
     1
  3
ACAD_MTEXT_2008_RT
360
3EF
  0
DICTIONARY
  5
3F0
330
145
100
AcDbDictionary
280
     1
281
     1
  3
ACAD_MTEXT_2008_RT
360
3F1
  0
DICTIONARY
  5
1F6
330
1F5
100
AcDbDictionary
280
     1
281
     1
  3
ACAD_DIMASSOC
360
1F7
  0
DICTIONARY
  5
4F
102
{ACAD_REACTORS
330
B
102
}
330
B
100
AcDbDictionary
281
     1
  0
DICTIONARY
  5
43
102
{ACAD_REACTORS
330
B
102
}
330
B
100
AcDbDictionary
281
     1
  0
DICTIONARY
  5
22
102
{ACAD_REACTORS
330
B
102
}
330
B
100
AcDbDictionary
281
     1
  3
Layout1
350
27
  3
Model
350
21
  0
DICTIONARY
  5
D
102
{ACAD_REACTORS
330
B
102
}
330
B
100
AcDbDictionary
281
     1
  3
ByBlock
350
46
  3
ByLayer
350
17
  3
Global
350
C
  0
DICTIONARY
  5
342
102
{ACAD_REACTORS
330
B
102
}
330
B
100
AcDbDictionary
281
     1
  3
Standard
350
343
  0
DICTIONARY
  5
44
102
{ACAD_REACTORS
330
B
102
}
330
B
100
AcDbDictionary
281
     1
  3
Standard
350
52
  0
DICTIONARY
  5
45
102
{ACAD_REACTORS
330
B
102
}
330
B
100
AcDbDictionary
281
     1
  0
ACDBDICTIONARYWDFLT
  5
A
102
{ACAD_REACTORS
330
B
102
}
330
B
100
AcDbDictionary
281
     1
  3
Normal
350
9
100
AcDbDictionaryWithDefault
340
9
  0
DICTIONARY
  5
50
102
{ACAD_REACTORS
330
B
102
}
330
B
100
AcDbDictionary
281
     1
  3
A0
350
57
  3
A1
350
58
  3
A2
350
59
  3
A3
350
5A
  3
A4
350
5B
  3
A5
350
5C
  3
A6
350
5D
  3
A7
350
5E
  3
A8
350
5F
  3
A9
350
60
  3
B0
350
61
  3
B1
350
62
  3
B2
350
63
  3
B3
350
64
  3
B4
350
65
  3
B5
350
66
  3
B6
350
67
  3
B7
350
68
  3
B8
350
69
  3
B9
350
6A
  3
C0
350
6B
  3
C1
350
6C
  3
C2
350
6D
  3
C3
350
6E
  3
C4
350
6F
  3
C5
350
70
  3
C6
350
71
  3
C7
350
72
  3
C8
350
73
  3
C9
350
74
  3
D0
350
75
  3
D1
350
76
  3
D2
350
77
  0
DICTIONARY
  5
51
102
{ACAD_REACTORS
330
B
102
}
330
B
100
AcDbDictionary
281
     1
  3
Standard
350
53
  0
DICTIONARY
  5
39
102
{ACAD_REACTORS
330
B
102
}
330
B
100
AcDbDictionary
281
     1
  3
2dWireframe
350
38
  3
3D Hidden
350
33A
  3
3dWireframe
350
56
  3
Basic
350
339
  3
Brighten
350
33D
  3
ColorChange
350
341
  3
Conceptual
350
33B
  3
Dim
350
33C
  3
Facepattern
350
340
  3
Flat
350
335
  3
FlatWithEdges
350
336
  3
Gouraud
350
337
  3
GouraudWithEdges
350
338
  3
Linepattern
350
33F
  3
Realistic
350
55
  3
Thicken
350
33E
  0
XRECORD
  5
324
102
{ACAD_REACTORS
330
B
102
}
330
B
100
AcDbXrecord
280
     1
 90
        1
330
53
330
BC
330
BD
330
E2
330
E5
330
E6
330
F0
330
F1
330
F2
330
100
330
101
330
102
330
137
330
13F
330
145
  0
DICTIONARY
  5
304
102
{ACAD_REACTORS
330
B
102
}
330
B
100
AcDbDictionary
281
     1
  3
CANNOSCALE
350
308
  3
CMLEADERSTYLE
350
306
  3
CTABLESTYLE
350
305
  3
LIGHTINGUNITS
350
3D2
  3
MSLTSCALE
350
307
  0
DICTIONARY
  5
351
102
{ACAD_REACTORS
330
B
102
}
330
B
100
AcDbDictionary
281
     1
  3
lxx_dimth
350
352
  0
DICTIONARY
  5
2A
102
{ACAD_REACTORS
330
29
102
}
330
29
100
AcDbDictionary
281
     1
  0
DICTIONARY
  5
2B
102
{ACAD_REACTORS
330
29
102
}
330
29
100
AcDbDictionary
281
     1
  0
DICTIONARY
  5
2C
102
{ACAD_REACTORS
330
29
102
}
330
29
100
AcDbDictionary
281
     1
1001
ACAD
1000
<All
  0
XRECORD
  5
8
102
{ACAD_REACTORS
330
7
102
}
330
7
100
AcDbXrecord
280
     1
290
     1
  0
XRECORD
  5
7B
102
{ACAD_REACTORS
330
7A
102
}
330
7A
100
AcDbXrecord
280
     1
290
     1
  0
XRECORD
  5
3ED
102
{ACAD_REACTORS
330
3EC
102
}
330
3EC
100
AcDbXrecord
280
     1
 70
     1
340
57
340
79
 70
    -1
  0
SORTENTSTABLE
  5
2FA
102
{ACAD_REACTORS
330
3
102
}
330
3
100
AcDbSortentsTable
330
2
  0
XRECORD
  5
3D5
102
{ACAD_REACTORS
330
3D4
102
}
330
3D4
100
AcDbXrecord
280
     1
 40
3634870.0
  1
\pxqc;档案员{\H0.7x;\P\Fromans|c134;Filing Clerk\fFangSong_GB2312|b0|i0|c134|p49; }
  0
XRECORD
  5
3D7
102
{ACAD_REACTORS
330
3D6
102
}
330
3D6
100
AcDbXrecord
280
     1
 40
2054568.0
  1
\pxqc;日期{\Fromans|c134;/Date}
  0
XRECORD
  5
3D9
102
{ACAD_REACTORS
330
3D8
102
}
330
3D8
100
AcDbXrecord
280
     1
 40
1836818.0
  1
\pxsm0.7;{\fFangSong_GB2312|b0|i0|c134|p49;标准化}\PStand.
  0
XRECORD
  5
3DB
102
{ACAD_REACTORS
330
3DA
102
}
330
3DA
100
AcDbXrecord
280
     1
 40
1476476.0
  1
\pxsm0.7;签名\P{\Fromans|c134;Signature} 
  0
XRECORD
  5
3DD
102
{ACAD_REACTORS
330
3DC
102
}
330
3DC
100
AcDbXrecord
280
     1
 40
1354713.0
  1
\pxsm0.7,qc;处数\P{\Fromans|c134;Number }
  0
XRECORD
  5
3DF
102
{ACAD_REACTORS
330
3DE
102
}
330
3DE
100
AcDbXrecord
280
     1
 40
1692934.0
  1
\pxsm0.7;标记\P{\Fromans|c134;Mark}
  0
XRECORD
  5
3E1
102
{ACAD_REACTORS
330
3E0
102
}
330
3E0
100
AcDbXrecord
280
     1
 40
1391581.0
  1
\pxsm0.7;审核\P{\Fromans|c134;Checked}
  0
XRECORD
  5
3E3
102
{ACAD_REACTORS
330
3E2
102
}
330
3E2
100
AcDbXrecord
280
     1
 40
1546703.0
  1
\pxsm0.7;绘图\P{\Fromans|c134;Drawn\Ftxt|c134; }
  0
XRECORD
  5
3E5
102
{ACAD_REACTORS
330
3E4
102
}
330
3E4
100
AcDbXrecord
280
     1
 40
1293614.0
  1
\pxsm0.7;批准\P{\Fromans|c134;Approved}
  0
XRECORD
  5
3E7
102
{ACAD_REACTORS
330
3E6
102
}
330
3E6
100
AcDbXrecord
280
     1
 40
1583427.0
  1
\pxsm0.7;工艺\P{\Fromans|c134;Process}
  0
XRECORD
  5
3E9
102
{ACAD_REACTORS
330
3E8
102
}
330
3E8
100
AcDbXrecord
280
     1
 40
1435325.0
  1
\pxsm0.7;日期\P{\Fromans|c134;Date}
  0
DICTIONARY
  5
3CF
102
{ACAD_REACTORS
330
3CE
102
}
330
3CE
100
AcDbDictionary
281
     1
  3
ACDB_ANNOTATIONSCALES
350
3D0
  0
XRECORD
  5
3EF
102
{ACAD_REACTORS
330
3EE
102
}
330
3EE
100
AcDbXrecord
280
     1
 40
1902.0
  1
\pxqc;TC CHEN
  0
XRECORD
  5
3F1
102
{ACAD_REACTORS
330
3F0
102
}
330
3F0
100
AcDbXrecord
280
     1
 40
322411098.0
  1
\A1;\pxql;{\f仿宋_GB2312|b0|i0|c134|p49;技术参数}:\P\pq*;- {\f仿宋_GB2312|b0|i0|c134|p49;材料}: {\f仿宋_GB2312|b0|i0|c134|p49;铜合金}\P- {\f仿宋_GB2312|b0|i0|c134|p49;表面处理}: {\f仿宋_GB2312|b0|i0|c134|p49;镀金}\P\pql;- {\f仿宋_GB2312|b0|i0|c134|p49;额定电流}: 10A\P- {\f仿宋_GB231
  1
2|b0|i0|c134|p49;接触电阻}: ≤3mΩ\P- {\f仿宋_GB2312|b0|i0|c134|p49;线径范围}: 0.75mm{\H0.7x;\S2^ ;}(18 AWG)\P\pq*;- {\f仿宋_GB2312|b0|i0|c134|p49;可插拔次数}: {\f仿宋_GB2312|b0|i0|c134|p49;≥}500\P\P\pql;Technical specification:\P- Material: copper alloy\P- Surface: hard-
  1
gold plated\P- Rated current: 10A\P- Contact resistance: ≤3mΩ\P- Wire gauge: 0.75mm{\H0.7x;\S2^ ;}(18 AWG)\P- Mating cycles: {\f仿宋_GB2312|b0|i0|c134|p49;≥}500
  0
DIMASSOC
  5
1F7
102
{ACAD_REACTORS
330
1F6
102
}
330
1F6
100
AcDbDimAssoc
330
1F5
 90
        2
 70
     0
 71
     0
  1
AcDbOsnapPointRef
 72
     1
331
1CF
 73
     2
 91
        0
 40
1.0
 10
0.0
 20
0.0
 30
2.000000000000000E+50
 75
     0
  0
LAYOUT
  5
27
102
{ACAD_REACTORS
330
22
102
}
330
22
100
AcDbPlotSettings
  1

  2
none_device
  4

  6

 40
0.0
 41
0.0
 42
0.0
 43
0.0
 44
0.0
 45
0.0
 46
0.0
 47
0.0
 48
0.0
 49
0.0
140
0.0
141
0.0
142
1.0
143
1.0
 70
   688
 72
     0
 73
     0
 74
     5
  7

 75
    16
147
1.0
 76
     0
 77
     2
 78
   300
148
0.0
149
0.0
100
AcDbLayout
  1
Layout1
 70
     1
 71
     1
 10
0.0
 20
0.0
 11
12.0
 21
9.0
 12
0.0
 22
0.0
 32
0.0
 14
1.000000000000000E+20
 24
1.000000000000000E+20
 34
1.000000000000000E+20
 15
-1.000000000000000E+20
 25
-1.000000000000000E+20
 35
-1.000000000000000E+20
146
0.0
 13
0.0
 23
0.0
 33
0.0
 16
1.0
 26
0.0
 36
0.0
 17
0.0
 27
1.0
 37
0.0
 76
     0
330
24
  0
LAYOUT
  5
21
102
{ACAD_REACTORS
330
22
102
}
330
22
100
AcDbPlotSettings
  1

  2
Adobe PDF Converter.pc3
  4
A4
  6

 40
3.174999952316281
 41
3.174999952316281
 42
3.17498779296875
 43
3.175003051757812
 44
297.0318298339844
 45
209.9733276367186
 46
0.0000000000000076
 47
1.630241740247063
 48
246.9897427644609
 49
39.36804549891383
140
544.952097801264
141
244.7492402188181
142
1.0
143
1.025046328645055
 70
  3764
 72
     1
 73
     0
 74
     4
  7
monochrome.ctb
 75
     0
147
0.9755656618192436
 76
     1
 77
     2
 78
   300
148
-246.9897427644609
149
-39.36804549891383
100
AcDbLayout
  1
Model
 70
     1
 71
     0
 10
0.0
 20
0.0
 11
12.0
 21
9.0
 12
0.0
 22
0.0
 32
0.0
 14
1.000000000000000E+20
 24
1.000000000000000E+20
 34
1.000000000000000E+20
 15
-1.000000000000000E+20
 25
-1.000000000000000E+20
 35
-1.000000000000000E+20
146
0.0
 13
0.0
 23
0.0
 33
0.0
 16
1.0
 26
0.0
 36
0.0
 17
0.0
 27
1.0
 37
0.0
 76
     0
330
2
331
37
1001
ACAD_PSEXT
1000
Adobe PDF Converter.pc3
1000
Adobe PDF Converter
1000
桌面\*.pdf
1000

1070
     0
  0
MATERIAL
  5
46
102
{ACAD_XDICTIONARY
360
47
102
}
102
{ACAD_REACTORS
330
D
102
}
330
D
100
AcDbMaterial
  1
ByBlock
 72
     0
 43
0.0208333333333333
 43
0.0
 43
0.0
 43
0.0
 43
0.0
 43
0.0208333333333333
 43
0.0
 43
0.0
 43
0.0
 43
0.0
 43
1.0
 43
0.0
 43
0.0
 43
0.0
 43
0.0
 43
1.0
 77
     0
 47
0.0208333333333333
 47
0.0
 47
0.0
 47
0.0
 47
0.0
 47
0.0208333333333333
 47
0.0
 47
0.0
 47
0.0
 47
0.0
 47
1.0
 47
0.0
 47
0.0
 47
0.0
 47
0.0
 47
1.0
171
     0
 49
0.0208333333333333
 49
0.0
 49
0.0
 49
0.0
 49
0.0
 49
0.0208333333333333
 49
0.0
 49
0.0
 49
0.0
 49
0.0
 49
1.0
 49
0.0
 49
0.0
 49
0.0
 49
0.0
 49
1.0
175
     0
142
0.0208333333333333
142
0.0
142
0.0
142
0.0
142
0.0
142
0.0208333333333333
142
0.0
142
0.0
142
0.0
142
0.0
142
1.0
142
0.0
142
0.0
142
0.0
142
0.0
142
1.0
179
     0
144
0.0208333333333333
144
0.0
144
0.0
144
0.0
144
0.0
144
0.0208333333333333
144
0.0
144
0.0
144
0.0
144
0.0
144
1.0
144
0.0
144
0.0
144
0.0
144
0.0
144
1.0
147
0.0208333333333333
147
0.0
147
0.0
147
0.0
147
0.0
147
0.0208333333333333
147
0.0
147
0.0
147
0.0
147
0.0
147
1.0
147
0.0
147
0.0
147
0.0
147
0.0
147
1.0
  0
MATERIAL
  5
17
102
{ACAD_XDICTIONARY
360
18
102
}
102
{ACAD_REACTORS
330
D
102
}
330
D
100
AcDbMaterial
  1
ByLayer
 72
     0
 43
0.0208333333333333
 43
0.0
 43
0.0
 43
0.0
 43
0.0
 43
0.0208333333333333
 43
0.0
 43
0.0
 43
0.0
 43
0.0
 43
1.0
 43
0.0
 43
0.0
 43
0.0
 43
0.0
 43
1.0
 77
     0
 47
0.0208333333333333
 47
0.0
 47
0.0
 47
0.0
 47
0.0
 47
0.0208333333333333
 47
0.0
 47
0.0
 47
0.0
 47
0.0
 47
1.0
 47
0.0
 47
0.0
 47
0.0
 47
0.0
 47
1.0
171
     0
 49
0.0208333333333333
 49
0.0
 49
0.0
 49
0.0
 49
0.0
 49
0.0208333333333333
 49
0.0
 49
0.0
 49
0.0
 49
0.0
 49
1.0
 49
0.0
 49
0.0
 49
0.0
 49
0.0
 49
1.0
175
     0
142
0.0208333333333333
142
0.0
142
0.0
142
0.0
142
0.0
142
0.0208333333333333
142
0.0
142
0.0
142
0.0
142
0.0
142
1.0
142
0.0
142
0.0
142
0.0
142
0.0
142
1.0
179
     0
144
0.0208333333333333
144
0.0
144
0.0
144
0.0
144
0.0
144
0.0208333333333333
144
0.0
144
0.0
144
0.0
144
0.0
144
1.0
144
0.0
144
0.0
144
0.0
144
0.0
144
1.0
147
0.0208333333333333
147
0.0
147
0.0
147
0.0
147
0.0
147
0.0208333333333333
147
0.0
147
0.0
147
0.0
147
0.0
147
1.0
147
0.0
147
0.0
147
0.0
147
0.0
147
1.0
  0
MATERIAL
  5
C
102
{ACAD_XDICTIONARY
360
E
102
}
102
{ACAD_REACTORS
330
D
102
}
330
D
100
AcDbMaterial
  1
Global
 72
     0
 43
0.0208333333333333
 43
0.0
 43
0.0
 43
0.0
 43
0.0
 43
0.0208333333333333
 43
0.0
 43
0.0
 43
0.0
 43
0.0
 43
1.0
 43
0.0
 43
0.0
 43
0.0
 43
0.0
 43
1.0
 77
     0
 47
0.0208333333333333
 47
0.0
 47
0.0
 47
0.0
 47
0.0
 47
0.0208333333333333
 47
0.0
 47
0.0
 47
0.0
 47
0.0
 47
1.0
 47
0.0
 47
0.0
 47
0.0
 47
0.0
 47
1.0
171
     0
 49
0.0208333333333333
 49
0.0
 49
0.0
 49
0.0
 49
0.0
 49
0.0208333333333333
 49
0.0
 49
0.0
 49
0.0
 49
0.0
 49
1.0
 49
0.0
 49
0.0
 49
0.0
 49
0.0
 49
1.0
175
     0
142
0.0208333333333333
142
0.0
142
0.0
142
0.0
142
0.0
142
0.0208333333333333
142
0.0
142
0.0
142
0.0
142
0.0
142
1.0
142
0.0
142
0.0
142
0.0
142
0.0
142
1.0
179
     0
144
0.0208333333333333
144
0.0
144
0.0
144
0.0
144
0.0
144
0.0208333333333333
144
0.0
144
0.0
144
0.0
144
0.0
144
1.0
144
0.0
144
0.0
144
0.0
144
0.0
144
1.0
147
0.0208333333333333
147
0.0
147
0.0
147
0.0
147
0.0
147
0.0208333333333333
147
0.0
147
0.0
147
0.0
147
0.0
147
1.0
147
0.0
147
0.0
147
0.0
147
0.0
147
1.0
  0
MLEADERSTYLE
  5
343
102
{ACAD_REACTORS
330
342
102
}
330
342
100
AcDbMLeaderStyle
170
     2
171
     1
172
     0
 90
        2
 40
0.0
 41
0.0
173
     1
 91
-1056964608
340
32
 92
       -2
290
     1
 42
0.09
291
     1
 43
0.36
  3
Standard
 44
0.18
300

342
2F
174
     1
178
     6
175
     1
176
     0
 93
-1056964608
 45
0.18
292
     0
297
     0
 46
0.18
 94
-1056964608
 47
1.0
 49
1.0
140
1.0
293
     1
141
0.0
294
     1
177
     0
142
1.0
295
     0
296
     0
143
0.125
1001
ACAD_MLEADERVER
1070
     2
  0
MLINESTYLE
  5
52
102
{ACAD_REACTORS
330
44
102
}
330
44
100
AcDbMlineStyle
  2
STANDARD
 70
     0
  3

 62
   256
 51
90.0
 52
90.0
 71
     2
 49
0.5
 62
   256
  6
BYLAYER
 49
-0.5
 62
   256
  6
BYLAYER
  0
ACDBPLACEHOLDER
  5
9
102
{ACAD_REACTORS
330
A
102
}
330
A
  0
SCALE
  5
57
102
{ACAD_REACTORS
330
50
102
}
330
50
100
AcDbScale
 70
     0
300
1:1
140
1.0
141
1.0
290
     1
  0
SCALE
  5
58
102
{ACAD_REACTORS
330
50
102
}
330
50
100
AcDbScale
 70
     0
300
1:2
140
1.0
141
2.0
290
     0
  0
SCALE
  5
59
102
{ACAD_REACTORS
330
50
102
}
330
50
100
AcDbScale
 70
     0
300
1:4
140
1.0
141
4.0
290
     0
  0
SCALE
  5
5A
102
{ACAD_REACTORS
330
50
102
}
330
50
100
AcDbScale
 70
     0
300
1:5
140
1.0
141
5.0
290
     0
  0
SCALE
  5
5B
102
{ACAD_REACTORS
330
50
102
}
330
50
100
AcDbScale
 70
     0
300
1:8
140
1.0
141
8.0
290
     0
  0
SCALE
  5
5C
102
{ACAD_REACTORS
330
50
102
}
330
50
100
AcDbScale
 70
     0
300
1:10
140
1.0
141
10.0
290
     0
  0
SCALE
  5
5D
102
{ACAD_REACTORS
330
50
102
}
330
50
100
AcDbScale
 70
     0
300
1:16
140
1.0
141
16.0
290
     0
  0
SCALE
  5
5E
102
{ACAD_REACTORS
330
50
102
}
330
50
100
AcDbScale
 70
     0
300
1:20
140
1.0
141
20.0
290
     0
  0
SCALE
  5
5F
102
{ACAD_REACTORS
330
50
102
}
330
50
100
AcDbScale
 70
     0
300
1:30
140
1.0
141
30.0
290
     0
  0
SCALE
  5
60
102
{ACAD_REACTORS
330
50
102
}
330
50
100
AcDbScale
 70
     0
300
1:40
140
1.0
141
40.0
290
     0
  0
SCALE
  5
61
102
{ACAD_REACTORS
330
50
102
}
330
50
100
AcDbScale
 70
     0
300
1:50
140
1.0
141
50.0
290
     0
  0
SCALE
  5
62
102
{ACAD_REACTORS
330
50
102
}
330
50
100
AcDbScale
 70
     0
300
1:100
140
1.0
141
100.0
290
     0
  0
SCALE
  5
63
102
{ACAD_REACTORS
330
50
102
}
330
50
100
AcDbScale
 70
     0
300
2:1
140
2.0
141
1.0
290
     0
  0
SCALE
  5
64
102
{ACAD_REACTORS
330
50
102
}
330
50
100
AcDbScale
 70
     0
300
4:1
140
4.0
141
1.0
290
     0
  0
SCALE
  5
65
102
{ACAD_REACTORS
330
50
102
}
330
50
100
AcDbScale
 70
     0
300
8:1
140
8.0
141
1.0
290
     0
  0
SCALE
  5
66
102
{ACAD_REACTORS
330
50
102
}
330
50
100
AcDbScale
 70
     0
300
10:1
140
10.0
141
1.0
290
     0
  0
SCALE
  5
67
102
{ACAD_REACTORS
330
50
102
}
330
50
100
AcDbScale
 70
     0
300
100:1
140
100.0
141
1.0
290
     0
  0
SCALE
  5
68
102
{ACAD_REACTORS
330
50
102
}
330
50
100
AcDbScale
 70
     0
300
1/128" = 1'-0"
140
0.0078125
141
12.0
290
     0
  0
SCALE
  5
69
102
{ACAD_REACTORS
330
50
102
}
330
50
100
AcDbScale
 70
     0
300
1/64" = 1'-0"
140
0.015625
141
12.0
290
     0
  0
SCALE
  5
6A
102
{ACAD_REACTORS
330
50
102
}
330
50
100
AcDbScale
 70
     0
300
1/32" = 1'-0"
140
0.03125
141
12.0
290
     0
  0
SCALE
  5
6B
102
{ACAD_REACTORS
330
50
102
}
330
50
100
AcDbScale
 70
     0
300
1/16" = 1'-0"
140
0.0625
141
12.0
290
     0
  0
SCALE
  5
6C
102
{ACAD_REACTORS
330
50
102
}
330
50
100
AcDbScale
 70
     0
300
3/32" = 1'-0"
140
0.09375
141
12.0
290
     0
  0
SCALE
  5
6D
102
{ACAD_REACTORS
330
50
102
}
330
50
100
AcDbScale
 70
     0
300
1/8" = 1'-0"
140
0.125
141
12.0
290
     0
  0
SCALE
  5
6E
102
{ACAD_REACTORS
330
50
102
}
330
50
100
AcDbScale
 70
     0
300
3/16" = 1'-0"
140
0.1875
141
12.0
290
     0
  0
SCALE
  5
6F
102
{ACAD_REACTORS
330
50
102
}
330
50
100
AcDbScale
 70
     0
300
1/4" = 1'-0"
140
0.25
141
12.0
290
     0
  0
SCALE
  5
70
102
{ACAD_REACTORS
330
50
102
}
330
50
100
AcDbScale
 70
     0
300
3/8" = 1'-0"
140
0.375
141
12.0
290
     0
  0
SCALE
  5
71
102
{ACAD_REACTORS
330
50
102
}
330
50
100
AcDbScale
 70
     0
300
1/2" = 1'-0"
140
0.5
141
12.0
290
     0
  0
SCALE
  5
72
102
{ACAD_REACTORS
330
50
102
}
330
50
100
AcDbScale
 70
     0
300
3/4" = 1'-0"
140
0.75
141
12.0
290
     0
  0
SCALE
  5
73
102
{ACAD_REACTORS
330
50
102
}
330
50
100
AcDbScale
 70
     0
300
1" = 1'-0"
140
1.0
141
12.0
290
     0
  0
SCALE
  5
74
102
{ACAD_REACTORS
330
50
102
}
330
50
100
AcDbScale
 70
     0
300
1-1/2" = 1'-0"
140
1.5
141
12.0
290
     0
  0
SCALE
  5
75
102
{ACAD_REACTORS
330
50
102
}
330
50
100
AcDbScale
 70
     0
300
3" = 1'-0"
140
3.0
141
12.0
290
     0
  0
SCALE
  5
76
102
{ACAD_REACTORS
330
50
102
}
330
50
100
AcDbScale
 70
     0
300
6" = 1'-0"
140
6.0
141
12.0
290
     0
  0
SCALE
  5
77
102
{ACAD_REACTORS
330
50
102
}
330
50
100
AcDbScale
 70
     0
300
1'-0" = 1'-0"
140
12.0
141
12.0
290
     0
  0
TABLESTYLE
  5
53
102
{ACAD_XDICTIONARY
360
54
102
}
102
{ACAD_REACTORS
330
51
102
}
330
51
100
AcDbTableStyle
  3
Standard
 70
     0
 71
     0
 40
0.06
 41
0.06
280
     0
281
     0
  7
Standard
140
0.18
170
     2
 62
     0
 63
     7
283
     0
 90
      512
 91
        0
  1

274
    -2
284
     1
 64
     0
275
    -2
285
     1
 65
     0
276
    -2
286
     1
 66
     0
277
    -2
287
     1
 67
     0
278
    -2
288
     1
 68
     0
279
    -2
289
     1
 69
     0
  7
Standard
140
0.25
170
     5
 62
     0
 63
     7
283
     0
 90
      512
 91
        0
  1

274
    -2
284
     1
 64
     0
275
    -2
285
     1
 65
     0
276
    -2
286
     1
 66
     0
277
    -2
287
     1
 67
     0
278
    -2
288
     1
 68
     0
279
    -2
289
     1
 69
     0
  7
Standard
140
0.18
170
     5
 62
     0
 63
     7
283
     0
 90
      512
 91
        0
  1

274
    -2
284
     1
 64
     0
275
    -2
285
     1
 65
     0
276
    -2
286
     1
 66
     0
277
    -2
287
     1
 67
     0
278
    -2
288
     1
 68
     0
279
    -2
289
     1
 69
     0
  0
VISUALSTYLE
  5
38
102
{ACAD_REACTORS
330
39
102
}
330
39
100
AcDbVisualStyle
  2
2dWireframe
 70
     4
 71
     0
 72
     2
 73
     0
 90
        0
 40
-0.6
 41
-30.0
 62
     5
 63
     7
 74
     1
 91
        4
 64
     7
 65
   257
 75
     1
175
     1
 42
1.0
 92
        0
 66
   257
 43
1.0
 76
     1
 77
     6
 78
     2
 67
     7
 79
     5
170
     0
171
     0
290
     0
174
     0
 93
        1
 44
0.0
173
     0
291
     0
 45
0.0
1001
ACAD
1000
AcDbSavedByObjectVersion
1070
     0
1000
AcDbSavedByObjectVersion
1070
     0
1000
AcDbSavedByObjectVersion
1070
     0
1000
AcDbSavedByObjectVersion
1070
     0
1000
AcDbSavedByObjectVersion
1070
     0
1000
AcDbSavedByObjectVersion
1070
     0
1000
AcDbSavedByObjectVersion
1070
     0
1000
AcDbSavedByObjectVersion
1070
     0
1000
AcDbSavedByObjectVersion
1070
     0
1000
AcDbSavedByObjectVersion
1070
     0
1000
AcDbSavedByObjectVersion
1070
     0
1000
AcDbSavedByObjectVersion
1070
     0
1000
AcDbSavedByObjectVersion
1070
     0
1000
AcDbSavedByObjectVersion
1070
     0
1000
AcDbSavedByObjectVersion
1070
     0
1000
AcDbSavedByObjectVersion
1070
     0
1000
AcDbSavedByObjectVersion
1070
     0
1000
AcDbSavedByObjectVersion
1070
     0
1000
AcDbSavedByObjectVersion
1070
     0
1000
AcDbSavedByObjectVersion
1070
     0
1000
AcDbSavedByObjectVersion
1070
     0
1000
AcDbSavedByObjectVersion
1070
     0
1000
AcDbSavedByObjectVersion
1070
     0
1000
AcDbSavedByObjectVersion
1070
     0
1000
AcDbSavedByObjectVersion
1070
     0
1000
AcDbSavedByObjectVersion
1070
     0
1000
AcDbSavedByObjectVersion
1070
     0
1000
AcDbSavedByObjectVersion
1070
     0
1000
AcDbSavedByObjectVersion
1070
     0
1000
AcDbSavedByObjectVersion
1070
     0
1000
AcDbSavedByObjectVersion
1070
     0
1000
AcDbSavedByObjectVersion
1070
     0
1000
AcDbSavedByObjectVersion
1070
     0
1000
AcDbSavedByObjectVersion
1070
     0
1000
AcDbSavedByObjectVersion
1070
     0
1000
AcDbSavedByObjectVersion
1070
     0
1000
AcDbSavedByObjectVersion
1070
     0
1000
AcDbSavedByObjectVersion
1070
     0
1000
AcDbSavedByObjectVersion
1070
     0
1000
AcDbSavedByObjectVersion
1070
     0
1000
AcDbSavedByObjectVersion
1070
     0
1000
AcDbSavedByObjectVersion
1070
     0
1000
AcDbSavedByObjectVersion
1070
     0
1000
AcDbSavedByObjectVersion
1070
     0
1000
AcDbSavedByObjectVersion
1070
     0
1000
AcDbSavedByObjectVersion
1070
     0
1000
AcDbSavedByObjectVersion
1070
     0
  0
VISUALSTYLE
  5
33A
102
{ACAD_REACTORS
330
39
102
}
330
39
100
AcDbVisualStyle
  2
3D Hidden
 70
     6
 71
     1
 72
     2
 73
     2
 90
        0
 40
-0.6
 41
-30.0
 62
     5
 63
     7
421
 16777215
 74
     2
 91
        2
 64
     7
 65
   257
 75
     2
175
     1
 42
40.0
 92
        0
 66
   257
 43
1.0
 76
     1
 77
     6
 78
     2
 67
     7
 79
     3
170
     0
171
     0
290
     0
174
     0
 93
        1
 44
0.0
173
     0
291
     0
 45
0.0
1001
ACAD
1000
AcDbSavedByObjectVersion
1070
     0
  0
VISUALSTYLE
  5
56
102
{ACAD_REACTORS
330
39
102
}
330
39
100
AcDbVisualStyle
  2
3dWireframe
 70
     5
 71
     0
 72
     2
 73
     0
 90
        0
 40
-0.6
 41
-30.0
 62
     5
 63
     7
 74
     1
 91
        4
 64
     7
 65
   257
 75
     1
175
     1
 42
1.0
 92
        0
 66
   257
 43
1.0
 76
     1
 77
     6
 78
     2
 67
     7
 79
     5
170
     0
171
     0
290
     0
174
     0
 93
        1
 44
0.0
173
     0
291
     0
 45
0.0
1001
ACAD
1000
AcDbSavedByObjectVersion
1070
     0
1000
AcDbSavedByObjectVersion
1070
     0
1000
AcDbSavedByObjectVersion
1070
     0
1000
AcDbSavedByObjectVersion
1070
     0
1000
AcDbSavedByObjectVersion
1070
     0
1000
AcDbSavedByObjectVersion
1070
     0
1000
AcDbSavedByObjectVersion
1070
     0
1000
AcDbSavedByObjectVersion
1070
     0
1000
AcDbSavedByObjectVersion
1070
     0
1000
AcDbSavedByObjectVersion
1070
     0
1000
AcDbSavedByObjectVersion
1070
     0
1000
AcDbSavedByObjectVersion
1070
     0
1000
AcDbSavedByObjectVersion
1070
     0
1000
AcDbSavedByObjectVersion
1070
     0
1000
AcDbSavedByObjectVersion
1070
     0
1000
AcDbSavedByObjectVersion
1070
     0
1000
AcDbSavedByObjectVersion
1070
     0
1000
AcDbSavedByObjectVersion
1070
     0
1000
AcDbSavedByObjectVersion
1070
     0
1000
AcDbSavedByObjectVersion
1070
     0
1000
AcDbSavedByObjectVersion
1070
     0
1000
AcDbSavedByObjectVersion
1070
     0
1000
AcDbSavedByObjectVersion
1070
     0
1000
AcDbSavedByObjectVersion
1070
     0
1000
AcDbSavedByObjectVersion
1070
     0
1000
AcDbSavedByObjectVersion
1070
     0
1000
AcDbSavedByObjectVersion
1070
     0
1000
AcDbSavedByObjectVersion
1070
     0
1000
AcDbSavedByObjectVersion
1070
     0
1000
AcDbSavedByObjectVersion
1070
     0
1000
AcDbSavedByObjectVersion
1070
     0
1000
AcDbSavedByObjectVersion
1070
     0
1000
AcDbSavedByObjectVersion
1070
     0
1000
AcDbSavedByObjectVersion
1070
     0
1000
AcDbSavedByObjectVersion
1070
     0
1000
AcDbSavedByObjectVersion
1070
     0
1000
AcDbSavedByObjectVersion
1070
     0
1000
AcDbSavedByObjectVersion
1070
     0
1000
AcDbSavedByObjectVersion
1070
     0
1000
AcDbSavedByObjectVersion
1070
     0
1000
AcDbSavedByObjectVersion
1070
     0
1000
AcDbSavedByObjectVersion
1070
     0
1000
AcDbSavedByObjectVersion
1070
     0
1000
AcDbSavedByObjectVersion
1070
     0
1000
AcDbSavedByObjectVersion
1070
     0
1000
AcDbSavedByObjectVersion
1070
     0
1000
AcDbSavedByObjectVersion
1070
     0
1000
AcDbSavedByObjectVersion
1070
     0
  0
VISUALSTYLE
  5
339
102
{ACAD_REACTORS
330
39
102
}
330
39
100
AcDbVisualStyle
  2
Basic
 70
     7
 71
     1
 72
     0
 73
     1
 90
        0
 40
-0.6
 41
-30.0
 62
     5
 63
     7
421
 16777215
 74
     0
 91
        4
 64
     7
 65
   257
 75
     1
175
     1
 42
1.0
 92
        8
 66
     7
 43
1.0
 76
     1
 77
     6
 78
     2
 67
     7
 79
     5
170
     0
171
     0
290
     0
174
     0
 93
        1
 44
0.0
173
     0
291
     1
 45
0.0
1001
ACAD
1000
AcDbSavedByObjectVersion
1070
     0
  0
VISUALSTYLE
  5
33D
102
{ACAD_REACTORS
330
39
102
}
330
39
100
AcDbVisualStyle
  2
Brighten
 70
    12
 71
     2
 72
     2
 73
     0
 90
        0
 40
-0.6
 41
-30.0
 62
     5
 63
     7
421
 16777215
 74
     1
 91
        4
 64
     7
 65
   257
 75
     1
175
     1
 42
1.0
 92
        8
 66
     7
 43
1.0
 76
     1
 77
     6
 78
     2
 67
     7
 79
     5
170
     0
171
     0
290
     0
174
     0
 93
        1
 44
50.0
173
     0
291
     1
 45
0.0
1001
ACAD
1000
AcDbSavedByObjectVersion
1070
     0
  0
VISUALSTYLE
  5
341
102
{ACAD_REACTORS
330
39
102
}
330
39
100
AcDbVisualStyle
  2
ColorChange
 70
    16
 71
     2
 72
     2
 73
     3
 90
        0
 40
-0.6
 41
-30.0
 62
     5
 63
     8
421
  8421504
 74
     1
 91
        4
 64
     7
 65
   257
 75
     1
175
     1
 42
1.0
 92
        8
 66
     8
424
  8421504
 43
1.0
 76
     1
 77
     6
 78
     2
 67
     7
 79
     5
170
     0
171
     0
290
     0
174
     0
 93
        1
 44
0.0
173
     0
291
     1
 45
0.0
1001
ACAD
1000
AcDbSavedByObjectVersion
1070
     0
  0
VISUALSTYLE
  5
33B
102
{ACAD_REACTORS
330
39
102
}
330
39
100
AcDbVisualStyle
  2
Conceptual
 70
     9
 71
     3
 72
     2
 73
     0
 90
        0
 40
-0.6
 41
-30.0
 62
     5
 63
     7
421
 16777215
 74
     2
 91
        2
 64
     7
 65
   257
 75
     1
175
     1
 42
40.0
 92
        8
 66
     7
 43
1.0
 76
     1
 77
     6
 78
     2
 67
     7
 79
     3
170
     0
171
     0
290
     0
174
     0
 93
        1
 44
0.0
173
     0
291
     0
 45
0.0
1001
ACAD
1000
AcDbSavedByObjectVersion
1070
     0
  0
VISUALSTYLE
  5
33C
102
{ACAD_REACTORS
330
39
102
}
330
39
100
AcDbVisualStyle
  2
Dim
 70
    11
 71
     2
 72
     2
 73
     0
 90
        0
 40
-0.6
 41
-30.0
 62
     5
 63
     7
421
 16777215
 74
     1
 91
        4
 64
     7
 65
   257
 75
     1
175
     1
 42
1.0
 92
        8
 66
     7
 43
1.0
 76
     1
 77
     6
 78
     2
 67
     7
 79
     5
170
     0
171
     0
290
     0
174
     0
 93
        1
 44
-50.0
173
     0
291
     1
 45
0.0
1001
ACAD
1000
AcDbSavedByObjectVersion
1070
     0
  0
VISUALSTYLE
  5
340
102
{ACAD_REACTORS
330
39
102
}
330
39
100
AcDbVisualStyle
  2
Facepattern
 70
    15
 71
     2
 72
     2
 73
     0
 90
        0
 40
-0.6
 41
-30.0
 62
     5
 63
     7
421
 16777215
 74
     1
 91
        4
 64
     7
 65
   257
 75
     1
175
     1
 42
1.0
 92
        8
 66
     7
 43
1.0
 76
     1
 77
     6
 78
     2
 67
     7
 79
     5
170
     0
171
     0
290
     0
174
     0
 93
        1
 44
0.0
173
     0
291
     1
 45
0.0
1001
ACAD
1000
AcDbSavedByObjectVersion
1070
     0
  0
VISUALSTYLE
  5
335
102
{ACAD_REACTORS
330
39
102
}
330
39
100
AcDbVisualStyle
  2
Flat
 70
     0
 71
     2
 72
     1
 73
     1
 90
        2
 40
-0.6
 41
30.0
 62
     5
 63
     7
421
 16777215
 74
     0
 91
        4
 64
     7
 65
   257
 75
     1
175
     1
 42
1.0
 92
        8
 66
     7
 43
1.0
 76
     1
 77
     6
 78
     2
 67
     7
 79
     5
170
     0
171
     0
290
     0
174
     0
 93
       13
 44
0.0
173
     0
291
     1
 45
0.0
1001
ACAD
1000
AcDbSavedByObjectVersion
1070
     0
  0
VISUALSTYLE
  5
336
102
{ACAD_REACTORS
330
39
102
}
330
39
100
AcDbVisualStyle
  2
FlatWithEdges
 70
     1
 71
     2
 72
     1
 73
     1
 90
        2
 40
-0.6
 41
30.0
 62
     5
 63
     7
421
 16777215
 74
     1
 91
        4
 64
     7
 65
   257
 75
     1
175
     1
 42
1.0
 92
        0
 66
   257
 43
1.0
 76
     1
 77
     6
 78
     2
 67
     7
 79
     5
170
     0
171
     0
290
     0
174
     0
 93
       13
 44
0.0
173
     0
291
     1
 45
0.0
1001
ACAD
1000
AcDbSavedByObjectVersion
1070
     0
  0
VISUALSTYLE
  5
337
102
{ACAD_REACTORS
330
39
102
}
330
39
100
AcDbVisualStyle
  2
Gouraud
 70
     2
 71
     2
 72
     2
 73
     1
 90
        2
 40
-0.6
 41
30.0
 62
     5
 63
     7
421
 16777215
 74
     0
 91
        4
 64
     7
 65
   257
 75
     1
175
     1
 42
1.0
 92
        0
 66
     7
 43
1.0
 76
     1
 77
     6
 78
     2
 67
     7
 79
     5
170
     0
171
     0
290
     0
174
     0
 93
       13
 44
0.0
173
     0
291
     1
 45
0.0
1001
ACAD
1000
AcDbSavedByObjectVersion
1070
     0
  0
VISUALSTYLE
  5
338
102
{ACAD_REACTORS
330
39
102
}
330
39
100
AcDbVisualStyle
  2
GouraudWithEdges
 70
     3
 71
     2
 72
     2
 73
     1
 90
        2
 40
-0.6
 41
30.0
 62
     5
 63
     7
421
 16777215
 74
     1
 91
        4
 64
     7
 65
   257
 75
     1
175
     1
 42
1.0
 92
        0
 66
   257
 43
1.0
 76
     1
 77
     6
 78
     2
 67
     7
 79
     5
170
     0
171
     0
290
     0
174
     0
 93
       13
 44
0.0
173
     0
291
     1
 45
0.0
1001
ACAD
1000
AcDbSavedByObjectVersion
1070
     0
  0
VISUALSTYLE
  5
33F
102
{ACAD_REACTORS
330
39
102
}
330
39
100
AcDbVisualStyle
  2
Linepattern
 70
    14
 71
     2
 72
     2
 73
     0
 90
        0
 40
-0.6
 41
-30.0
 62
     5
 63
     7
421
 16777215
 74
     1
 91
        4
 64
     7
 65
   257
 75
     7
175
     7
 42
1.0
 92
        8
 66
     7
 43
1.0
 76
     1
 77
     6
 78
     2
 67
     7
 79
     5
170
     0
171
     0
290
     0
174
     0
 93
        1
 44
0.0
173
     0
291
     1
 45
0.0
1001
ACAD
1000
AcDbSavedByObjectVersion
1070
     0
  0
VISUALSTYLE
  5
55
102
{ACAD_REACTORS
330
39
102
}
330
39
100
AcDbVisualStyle
  2
Realistic
 70
     8
 71
     2
 72
     2
 73
     0
 90
        0
 40
-0.6
 41
-30.0
 62
     5
 63
     7
 74
     1
 91
        0
 64
     7
 65
   257
 75
     1
175
     1
 42
1.0
 92
        8
 66
     8
 43
1.0
 76
     1
 77
     6
 78
     2
 67
     7
 79
     5
170
     0
171
     0
290
     0
174
     0
 93
       13
 44
0.0
173
     0
291
     0
 45
0.0
1001
ACAD
1000
AcDbSavedByObjectVersion
1070
     0
1000
AcDbSavedByObjectVersion
1070
     0
1000
AcDbSavedByObjectVersion
1070
     0
1000
AcDbSavedByObjectVersion
1070
     0
1000
AcDbSavedByObjectVersion
1070
     0
1000
AcDbSavedByObjectVersion
1070
     0
1000
AcDbSavedByObjectVersion
1070
     0
1000
AcDbSavedByObjectVersion
1070
     0
1000
AcDbSavedByObjectVersion
1070
     0
1000
AcDbSavedByObjectVersion
1070
     0
1000
AcDbSavedByObjectVersion
1070
     0
1000
AcDbSavedByObjectVersion
1070
     0
1000
AcDbSavedByObjectVersion
1070
     0
1000
AcDbSavedByObjectVersion
1070
     0
1000
AcDbSavedByObjectVersion
1070
     0
1000
AcDbSavedByObjectVersion
1070
     0
1000
AcDbSavedByObjectVersion
1070
     0
1000
AcDbSavedByObjectVersion
1070
     0
1000
AcDbSavedByObjectVersion
1070
     0
1000
AcDbSavedByObjectVersion
1070
     0
1000
AcDbSavedByObjectVersion
1070
     0
1000
AcDbSavedByObjectVersion
1070
     0
1000
AcDbSavedByObjectVersion
1070
     0
1000
AcDbSavedByObjectVersion
1070
     0
1000
AcDbSavedByObjectVersion
1070
     0
1000
AcDbSavedByObjectVersion
1070
     0
1000
AcDbSavedByObjectVersion
1070
     0
1000
AcDbSavedByObjectVersion
1070
     0
1000
AcDbSavedByObjectVersion
1070
     0
1000
AcDbSavedByObjectVersion
1070
     0
1000
AcDbSavedByObjectVersion
1070
     0
1000
AcDbSavedByObjectVersion
1070
     0
1000
AcDbSavedByObjectVersion
1070
     0
1000
AcDbSavedByObjectVersion
1070
     0
1000
AcDbSavedByObjectVersion
1070
     0
1000
AcDbSavedByObjectVersion
1070
     0
1000
AcDbSavedByObjectVersion
1070
     0
1000
AcDbSavedByObjectVersion
1070
     0
1000
AcDbSavedByObjectVersion
1070
     0
1000
AcDbSavedByObjectVersion
1070
     0
1000
AcDbSavedByObjectVersion
1070
     0
1000
AcDbSavedByObjectVersion
1070
     0
1000
AcDbSavedByObjectVersion
1070
     0
1000
AcDbSavedByObjectVersion
1070
     0
1000
AcDbSavedByObjectVersion
1070
     0
1000
AcDbSavedByObjectVersion
1070
     0
1000
AcDbSavedByObjectVersion
1070
     0
1000
AcDbSavedByObjectVersion
1070
     0
  0
VISUALSTYLE
  5
33E
102
{ACAD_REACTORS
330
39
102
}
330
39
100
AcDbVisualStyle
  2
Thicken
 70
    13
 71
     2
 72
     2
 73
     0
 90
        0
 40
-0.6
 41
-30.0
 62
     5
 63
     7
421
 16777215
 74
     1
 91
        4
 64
     7
 65
   257
 75
     1
175
     1
 42
1.0
 92
       12
 66
     7
 43
1.0
 76
     1
 77
     6
 78
     2
 67
     7
 79
     5
170
     0
171
     0
290
     0
174
     0
 93
        1
 44
0.0
173
     0
291
     1
 45
0.0
1001
ACAD
1000
AcDbSavedByObjectVersion
1070
     0
  0
DICTIONARYVAR
  5
308
102
{ACAD_REACTORS
330
304
102
}
330
304
100
DictionaryVariables
280
     0
  1
1:1
  0
DICTIONARYVAR
  5
306
102
{ACAD_REACTORS
330
304
102
}
330
304
100
DictionaryVariables
280
     0
  1
STANDARD
  0
DICTIONARYVAR
  5
305
102
{ACAD_REACTORS
330
304
102
}
330
304
100
DictionaryVariables
280
     0
  1
STANDARD
  0
DICTIONARYVAR
  5
3D2
102
{ACAD_REACTORS
330
304
102
}
330
304
100
DictionaryVariables
280
     0
  1
0
  0
DICTIONARYVAR
  5
307
102
{ACAD_REACTORS
330
304
102
}
330
304
100
DictionaryVariables
280
     0
  1
1
  0
VLO-VL
  5
352
102
{ACAD_REACTORS
330
351
102
}
330
351
100
vlo_VL
 90
   -64512
 91
       12
 92
        1
 40
2.5
300
(&VLO-R . 0)
  0
DICTIONARY
  5
3D0
102
{ACAD_REACTORS
330
3CF
102
}
330
3CF
100
AcDbDictionary
281
     1
  0
DICTIONARY
  5
47
330
46
100
AcDbDictionary
280
     1
281
     1
  3
ACAD_XREC_ROUNDTRIP
360
48
  3
BUMPTILE
360
49
  3
DIFFUSETILE
360
4A
  3
OPACITYTILE
360
4B
  3
REFLECTIONTILE
360
4C
  3
REFRACTIONTILE
360
4D
  3
SPECULARTILE
360
4E
  0
DICTIONARY
  5
18
330
17
100
AcDbDictionary
280
     1
281
     1
  3
ACAD_XREC_ROUNDTRIP
360
19
  3
BUMPTILE
360
1A
  3
DIFFUSETILE
360
1B
  3
OPACITYTILE
360
1C
  3
REFLECTIONTILE
360
1D
  3
REFRACTIONTILE
360
1E
  3
SPECULARTILE
360
1F
  0
DICTIONARY
  5
E
330
C
100
AcDbDictionary
280
     1
281
     1
  3
ACAD_XREC_ROUNDTRIP
360
F
  3
BUMPTILE
360
10
  3
DIFFUSETILE
360
11
  3
OPACITYTILE
360
12
  3
REFLECTIONTILE
360
13
  3
REFRACTIONTILE
360
14
  3
SPECULARTILE
360
15
  0
DICTIONARY
  5
54
330
53
100
AcDbDictionary
280
     1
281
     1
  3
ACAD_ROUNDTRIP_2008_TABLESTYLE_CELLSTYLEMAP
360
3D3
  0
XRECORD
  5
48
102
{ACAD_REACTORS
330
47
102
}
330
47
100
AcDbXrecord
280
     1
102
MATERIAL
148
0.0
149
0.0
149
0.0
 93
        0
 94
      127
282
     0
 72
     0
 77
     0
171
     0
175
     0
179
     0
273
     0
  0
XRECORD
  5
49
102
{ACAD_REACTORS
330
47
102
}
330
47
100
AcDbXrecord
280
     1
270
     1
271
     1
  0
XRECORD
  5
4A
102
{ACAD_REACTORS
330
47
102
}
330
47
100
AcDbXrecord
280
     1
270
     1
271
     1
  0
XRECORD
  5
4B
102
{ACAD_REACTORS
330
47
102
}
330
47
100
AcDbXrecord
280
     1
270
     1
271
     1
  0
XRECORD
  5
4C
102
{ACAD_REACTORS
330
47
102
}
330
47
100
AcDbXrecord
280
     1
270
     1
271
     1
  0
XRECORD
  5
4D
102
{ACAD_REACTORS
330
47
102
}
330
47
100
AcDbXrecord
280
     1
270
     1
271
     1
  0
XRECORD
  5
4E
102
{ACAD_REACTORS
330
47
102
}
330
47
100
AcDbXrecord
280
     1
270
     1
271
     1
  0
XRECORD
  5
19
102
{ACAD_REACTORS
330
18
102
}
330
18
100
AcDbXrecord
280
     1
102
MATERIAL
148
0.0
149
0.0
149
0.0
 93
        0
 94
      127
282
     0
 72
     0
 77
     0
171
     0
175
     0
179
     0
273
     0
  0
XRECORD
  5
1A
102
{ACAD_REACTORS
330
18
102
}
330
18
100
AcDbXrecord
280
     1
270
     1
271
     1
  0
XRECORD
  5
1B
102
{ACAD_REACTORS
330
18
102
}
330
18
100
AcDbXrecord
280
     1
270
     1
271
     1
  0
XRECORD
  5
1C
102
{ACAD_REACTORS
330
18
102
}
330
18
100
AcDbXrecord
280
     1
270
     1
271
     1
  0
XRECORD
  5
1D
102
{ACAD_REACTORS
330
18
102
}
330
18
100
AcDbXrecord
280
     1
270
     1
271
     1
  0
XRECORD
  5
1E
102
{ACAD_REACTORS
330
18
102
}
330
18
100
AcDbXrecord
280
     1
270
     1
271
     1
  0
XRECORD
  5
1F
102
{ACAD_REACTORS
330
18
102
}
330
18
100
AcDbXrecord
280
     1
270
     1
271
     1
  0
XRECORD
  5
F
102
{ACAD_REACTORS
330
E
102
}
330
E
100
AcDbXrecord
280
     1
102
MATERIAL
148
0.0
149
0.0
149
0.0
 93
        0
 94
      127
282
     0
 72
     0
 77
     0
171
     0
175
     0
179
     0
273
     0
  0
XRECORD
  5
10
102
{ACAD_REACTORS
330
E
102
}
330
E
100
AcDbXrecord
280
     1
270
     1
271
     1
  0
XRECORD
  5
11
102
{ACAD_REACTORS
330
E
102
}
330
E
100
AcDbXrecord
280
     1
270
     1
271
     1
  0
XRECORD
  5
12
102
{ACAD_REACTORS
330
E
102
}
330
E
100
AcDbXrecord
280
     1
270
     1
271
     1
  0
XRECORD
  5
13
102
{ACAD_REACTORS
330
E
102
}
330
E
100
AcDbXrecord
280
     1
270
     1
271
     1
  0
XRECORD
  5
14
102
{ACAD_REACTORS
330
E
102
}
330
E
100
AcDbXrecord
280
     1
270
     1
271
     1
  0
XRECORD
  5
15
102
{ACAD_REACTORS
330
E
102
}
330
E
100
AcDbXrecord
280
     1
270
     1
271
     1
  0
CELLSTYLEMAP
  5
3D3
102
{ACAD_REACTORS
330
54
102
}
330
54
100
AcDbCellStyleMap
 90
        3
300
CELLSTYLE
  1
TABLEFORMAT_BEGIN
 90
        5
170
     1
 91
        0
 92
    32768
 62
   257
 93
        1
300
CONTENTFORMAT
  1
CONTENTFORMAT_BEGIN
 90
        0
 91
        0
 92
      512
 93
        0
300

 40
0.0
140
1.0
 94
        5
 62
     0
340
2F
144
0.25
309
CONTENTFORMAT_END
171
     1
301
MARGIN
  1
CELLMARGIN_BEGIN
 40
0.06
 40
0.06
 40
0.06
 40
0.06
 40
0.18
 40
0.18
309
CELLMARGIN_END
 94
        6
 95
        1
302
GRIDFORMAT
  1
GRIDFORMAT_BEGIN
 90
        0
 91
        1
 62
     0
 92
       -2
340
0
 93
        0
 40
0.045
309
GRIDFORMAT_END
 95
        2
302
GRIDFORMAT
  1
GRIDFORMAT_BEGIN
 90
        0
 91
        1
 62
     0
 92
       -2
340
0
 93
        0
 40
0.045
309
GRIDFORMAT_END
 95
        4
302
GRIDFORMAT
  1
GRIDFORMAT_BEGIN
 90
        0
 91
        1
 62
     0
 92
       -2
340
0
 93
        0
 40
0.045
309
GRIDFORMAT_END
 95
        8
302
GRIDFORMAT
  1
GRIDFORMAT_BEGIN
 90
        0
 91
        1
 62
     0
 92
       -2
340
0
 93
        0
 40
0.045
309
GRIDFORMAT_END
 95
       16
302
GRIDFORMAT
  1
GRIDFORMAT_BEGIN
 90
        0
 91
        1
 62
     0
 92
       -2
340
0
 93
        0
 40
0.045
309
GRIDFORMAT_END
 95
       32
302
GRIDFORMAT
  1
GRIDFORMAT_BEGIN
 90
        0
 91
        1
 62
     0
 92
       -2
340
0
 93
        0
 40
0.045
309
GRIDFORMAT_END
309
TABLEFORMAT_END
  1
CELLSTYLE_BEGIN
 90
        1
 91
        1
300
_TITLE
309
CELLSTYLE_END
300
CELLSTYLE
  1
TABLEFORMAT_BEGIN
 90
        5
170
     1
 91
        0
 92
        0
 62
   257
 93
        1
300
CONTENTFORMAT
  1
CONTENTFORMAT_BEGIN
 90
        0
 91
        0
 92
      512
 93
        0
300

 40
0.0
140
1.0
 94
        5
 62
     0
340
2F
144
0.18
309
CONTENTFORMAT_END
171
     1
301
MARGIN
  1
CELLMARGIN_BEGIN
 40
0.06
 40
0.06
 40
0.06
 40
0.06
 40
0.18
 40
0.18
309
CELLMARGIN_END
 94
        6
 95
        1
302
GRIDFORMAT
  1
GRIDFORMAT_BEGIN
 90
        0
 91
        1
 62
     0
 92
       -2
340
0
 93
        0
 40
0.045
309
GRIDFORMAT_END
 95
        2
302
GRIDFORMAT
  1
GRIDFORMAT_BEGIN
 90
        0
 91
        1
 62
     0
 92
       -2
340
0
 93
        0
 40
0.045
309
GRIDFORMAT_END
 95
        4
302
GRIDFORMAT
  1
GRIDFORMAT_BEGIN
 90
        0
 91
        1
 62
     0
 92
       -2
340
0
 93
        0
 40
0.045
309
GRIDFORMAT_END
 95
        8
302
GRIDFORMAT
  1
GRIDFORMAT_BEGIN
 90
        0
 91
        1
 62
     0
 92
       -2
340
0
 93
        0
 40
0.045
309
GRIDFORMAT_END
 95
       16
302
GRIDFORMAT
  1
GRIDFORMAT_BEGIN
 90
        0
 91
        1
 62
     0
 92
       -2
340
0
 93
        0
 40
0.045
309
GRIDFORMAT_END
 95
       32
302
GRIDFORMAT
  1
GRIDFORMAT_BEGIN
 90
        0
 91
        1
 62
     0
 92
       -2
340
0
 93
        0
 40
0.045
309
GRIDFORMAT_END
309
TABLEFORMAT_END
  1
CELLSTYLE_BEGIN
 90
        2
 91
        1
300
_HEADER
309
CELLSTYLE_END
300
CELLSTYLE
  1
TABLEFORMAT_BEGIN
 90
        5
170
     1
 91
        0
 92
        0
 62
   257
 93
        1
300
CONTENTFORMAT
  1
CONTENTFORMAT_BEGIN
 90
        0
 91
        0
 92
      512
 93
        0
300

 40
0.0
140
1.0
 94
        2
 62
     0
340
2F
144
0.18
309
CONTENTFORMAT_END
171
     1
301
MARGIN
  1
CELLMARGIN_BEGIN
 40
0.06
 40
0.06
 40
0.06
 40
0.06
 40
0.18
 40
0.18
309
CELLMARGIN_END
 94
        6
 95
        1
302
GRIDFORMAT
  1
GRIDFORMAT_BEGIN
 90
        0
 91
        1
 62
     0
 92
       -2
340
0
 93
        0
 40
0.045
309
GRIDFORMAT_END
 95
        2
302
GRIDFORMAT
  1
GRIDFORMAT_BEGIN
 90
        0
 91
        1
 62
     0
 92
       -2
340
0
 93
        0
 40
0.045
309
GRIDFORMAT_END
 95
        4
302
GRIDFORMAT
  1
GRIDFORMAT_BEGIN
 90
        0
 91
        1
 62
     0
 92
       -2
340
0
 93
        0
 40
0.045
309
GRIDFORMAT_END
 95
        8
302
GRIDFORMAT
  1
GRIDFORMAT_BEGIN
 90
        0
 91
        1
 62
     0
 92
       -2
340
0
 93
        0
 40
0.045
309
GRIDFORMAT_END
 95
       16
302
GRIDFORMAT
  1
GRIDFORMAT_BEGIN
 90
        0
 91
        1
 62
     0
 92
       -2
340
0
 93
        0
 40
0.045
309
GRIDFORMAT_END
 95
       32
302
GRIDFORMAT
  1
GRIDFORMAT_BEGIN
 90
        0
 91
        1
 62
     0
 92
       -2
340
0
 93
        0
 40
0.045
309
GRIDFORMAT_END
309
TABLEFORMAT_END
  1
CELLSTYLE_BEGIN
 90
        3
 91
        2
300
_DATA
309
CELLSTYLE_END
  0
ENDSEC
  0
EOF
