  0
SECTION
  2
HEADER
  9
$ACADVER
  1
AC1021
  9
$ACADMAINTVER
 70
    25
  9
$DWGCODEPAGE
  3
ANSI_936
  9
$LASTSAVEDBY
  1
zb.ye
  9
$INSBASE
 10
0.0
 20
0.0
 30
0.0
  9
$EXTMIN
 10
862.6162828370976
 20
184.8499953611865
 30
-0.0000000349181948
  9
$EXTMAX
 10
936.9619095742447
 20
237.3767698443212
 30
0.0000000814935746
  9
$LIMMIN
 10
0.0
 20
0.0
  9
$LIMMAX
 10
12.0
 20
9.0
  9
$ORTHOMODE
 70
     0
  9
$REGENMODE
 70
     1
  9
$FILLMODE
 70
     1
  9
$QTEXTMODE
 70
     0
  9
$MIRRTEXT
 70
     1
  9
$LTSCALE
 40
1.0
  9
$ATTMODE
 70
     1
  9
$TEXTSIZE
 40
0.2
  9
$TRACEWID
 40
0.05
  9
$TEXTSTYLE
  7
Standard
  9
$CLAYER
  8
0
  9
$CELTYPE
  6
ByLayer
  9
$CECOLOR
 62
   256
  9
$CELTSCALE
 40
1.0
  9
$DISPSILH
 70
     0
  9
$DIMSCALE
 40
1.0
  9
$DIMASZ
 40
1.5
  9
$DIMEXO
 40
0.2
  9
$DIMDLI
 40
0.2
  9
$DIMRND
 40
0.0
  9
$DIMDLE
 40
0.0
  9
$DIMEXE
 40
0.5
  9
$DIMTP
 40
0.0
  9
$DIMTM
 40
0.0
  9
$DIMTXT
 40
2.0
  9
$DIMCEN
 40
0.0
  9
$DIMTSZ
 40
0.0
  9
$DIMTOL
 70
     0
  9
$DIMLIM
 70
     0
  9
$DIMTIH
 70
     0
  9
$DIMTOH
 70
     0
  9
$DIMSE1
 70
     0
  9
$DIMSE2
 70
     0
  9
$DIMTAD
 70
     1
  9
$DIMZIN
 70
     8
  9
$DIMBLK
  1

  9
$DIMASO
 70
     1
  9
$DIMSHO
 70
     1
  9
$DIMPOST
  1

  9
$DIMAPOST
  1

  9
$DIMALT
 70
     0
  9
$DIMALTD
 70
     2
  9
$DIMALTF
 40
25.4
  9
$DIMLFAC
 40
1.0
  9
$DIMTOFL
 70
     0
  9
$DIMTVP
 40
0.0
  9
$DIMTIX
 70
     0
  9
$DIMSOXD
 70
     0
  9
$DIMSAH
 70
     0
  9
$DIMBLK1
  1

  9
$DIMBLK2
  1

  9
$DIMSTYLE
  2
01
  9
$DIMCLRD
 70
     1
  9
$DIMCLRE
 70
     6
  9
$DIMCLRT
 70
     4
  9
$DIMTFAC
 40
1.0
  9
$DIMGAP
 40
0.5
  9
$DIMJUST
 70
     0
  9
$DIMSD1
 70
     0
  9
$DIMSD2
 70
     0
  9
$DIMTOLJ
 70
     1
  9
$DIMTZIN
 70
     0
  9
$DIMALTZ
 70
     0
  9
$DIMALTTZ
 70
     0
  9
$DIMUPT
 70
     0
  9
$DIMDEC
 70
     1
  9
$DIMTDEC
 70
     1
  9
$DIMALTU
 70
     2
  9
$DIMALTTD
 70
     2
  9
$DIMTXSTY
  7
Romans字体
  9
$DIMAUNIT
 70
     0
  9
$DIMADEC
 70
     2
  9
$DIMALTRND
 40
0.0
  9
$DIMAZIN
 70
     2
  9
$DIMDSEP
 70
    46
  9
$DIMATFIT
 70
     3
  9
$DIMFRAC
 70
     0
  9
$DIMLDRBLK
  1

  9
$DIMLUNIT
 70
     2
  9
$DIMLWD
 70
    -2
  9
$DIMLWE
 70
    -2
  9
$DIMTMOVE
 70
     0
  9
$DIMFXL
 40
1.0
  9
$DIMFXLON
 70
     0
  9
$DIMJOGANG
 40
0.7853981633974483
  9
$DIMTFILL
 70
     0
  9
$DIMTFILLCLR
 70
     0
  9
$DIMARCSYM
 70
     0
  9
$DIMLTYPE
  6

  9
$DIMLTEX1
  6

  9
$DIMLTEX2
  6

  9
$LUNITS
 70
     2
  9
$LUPREC
 70
     4
  9
$SKETCHINC
 40
0.1
  9
$FILLETRAD
 40
0.5
  9
$AUNITS
 70
     0
  9
$AUPREC
 70
     0
  9
$MENU
  1
.
  9
$ELEVATION
 40
0.0
  9
$PELEVATION
 40
0.0
  9
$THICKNESS
 40
0.0
  9
$LIMCHECK
 70
     0
  9
$CHAMFERA
 40
0.5
  9
$CHAMFERB
 40
0.5
  9
$CHAMFERC
 40
1.0
  9
$CHAMFERD
 40
0.0
  9
$SKPOLY
 70
     0
  9
$TDCREATE
 40
2456524.383632987
  9
$TDUCREATE
 40
2456524.050299653
  9
$TDUPDATE
 40
2460291.554186343
  9
$TDUUPDATE
 40
2460291.220853009
  9
$TDINDWG
 40
1.5959837384
  9
$TDUSRTIMER
 40
1.5959637963
  9
$USRTIMER
 70
     1
  9
$ANGBASE
 50
0.0
  9
$ANGDIR
 70
     0
  9
$PDMODE
 70
     0
  9
$PDSIZE
 40
0.0
  9
$PLINEWID
 40
0.0
  9
$SPLFRAME
 70
     0
  9
$SPLINETYPE
 70
     6
  9
$SPLINESEGS
 70
     8
  9
$HANDSEED
  5
1DEB
  9
$SURFTAB1
 70
     6
  9
$SURFTAB2
 70
     6
  9
$SURFTYPE
 70
     6
  9
$SURFU
 70
     6
  9
$SURFV
 70
     6
  9
$UCSBASE
  2

  9
$UCSNAME
  2

  9
$UCSORG
 10
0.0
 20
0.0
 30
0.0
  9
$UCSXDIR
 10
1.0
 20
0.0
 30
0.0
  9
$UCSYDIR
 10
0.0
 20
1.0
 30
0.0
  9
$UCSORTHOREF
  2

  9
$UCSORTHOVIEW
 70
     0
  9
$UCSORGTOP
 10
0.0
 20
0.0
 30
0.0
  9
$UCSORGBOTTOM
 10
0.0
 20
0.0
 30
0.0
  9
$UCSORGLEFT
 10
0.0
 20
0.0
 30
0.0
  9
$UCSORGRIGHT
 10
0.0
 20
0.0
 30
0.0
  9
$UCSORGFRONT
 10
0.0
 20
0.0
 30
0.0
  9
$UCSORGBACK
 10
0.0
 20
0.0
 30
0.0
  9
$PUCSBASE
  2

  9
$PUCSNAME
  2

  9
$PUCSORG
 10
0.0
 20
0.0
 30
0.0
  9
$PUCSXDIR
 10
1.0
 20
0.0
 30
0.0
  9
$PUCSYDIR
 10
0.0
 20
1.0
 30
0.0
  9
$PUCSORTHOREF
  2

  9
$PUCSORTHOVIEW
 70
     0
  9
$PUCSORGTOP
 10
0.0
 20
0.0
 30
0.0
  9
$PUCSORGBOTTOM
 10
0.0
 20
0.0
 30
0.0
  9
$PUCSORGLEFT
 10
0.0
 20
0.0
 30
0.0
  9
$PUCSORGRIGHT
 10
0.0
 20
0.0
 30
0.0
  9
$PUCSORGFRONT
 10
0.0
 20
0.0
 30
0.0
  9
$PUCSORGBACK
 10
0.0
 20
0.0
 30
0.0
  9
$USERI1
 70
     0
  9
$USERI2
 70
     0
  9
$USERI3
 70
     0
  9
$USERI4
 70
     0
  9
$USERI5
 70
     0
  9
$USERR1
 40
0.0
  9
$USERR2
 40
0.0
  9
$USERR3
 40
0.0
  9
$USERR4
 40
0.0
  9
$USERR5
 40
0.0
  9
$WORLDVIEW
 70
     1
  9
$SHADEDGE
 70
     3
  9
$SHADEDIF
 70
    70
  9
$TILEMODE
 70
     1
  9
$MAXACTVP
 70
    64
  9
$PINSBASE
 10
0.0
 20
0.0
 30
0.0
  9
$PLIMCHECK
 70
     0
  9
$PEXTMIN
 10
1.000000000000000E+20
 20
1.000000000000000E+20
 30
1.000000000000000E+20
  9
$PEXTMAX
 10
-1.000000000000000E+20
 20
-1.000000000000000E+20
 30
-1.000000000000000E+20
  9
$PLIMMIN
 10
0.0
 20
0.0
  9
$PLIMMAX
 10
12.0
 20
9.0
  9
$UNITMODE
 70
     0
  9
$VISRETAIN
 70
     1
  9
$PLINEGEN
 70
     0
  9
$PSLTSCALE
 70
     1
  9
$TREEDEPTH
 70
  3020
  9
$CMLSTYLE
  2
Standard
  9
$CMLJUST
 70
     0
  9
$CMLSCALE
 40
1.0
  9
$PROXYGRAPHICS
 70
     1
  9
$MEASUREMENT
 70
     0
  9
$CELWEIGHT
370
    -1
  9
$ENDCAPS
280
     0
  9
$JOINSTYLE
280
     0
  9
$LWDISPLAY
290
     0
  9
$INSUNITS
 70
     4
  9
$HYPERLINKBASE
  1

  9
$STYLESHEET
  1
MONOCHROME.CTB
  9
$XEDIT
290
     1
  9
$CEPSNTYPE
380
     0
  9
$PSTYLEMODE
290
     1
  9
$FINGERPRINTGUID
  2
{6F478082-FE3C-45F1-B44F-2B64E702E701}
  9
$VERSIONGUID
  2
{5ECA3358-0A2C-4298-8C61-AA438E84A878}
  9
$EXTNAMES
290
     1
  9
$PSVPSCALE
 40
0.0
  9
$OLESTARTUP
290
     0
  9
$SORTENTS
280
   127
  9
$INDEXCTL
280
     0
  9
$HIDETEXT
280
     1
  9
$XCLIPFRAME
290
     0
  9
$HALOGAP
280
     0
  9
$OBSCOLOR
 70
   257
  9
$OBSLTYPE
280
     0
  9
$INTERSECTIONDISPLAY
280
     0
  9
$INTERSECTIONCOLOR
 70
   257
  9
$DIMASSOC
280
     1
  9
$PROJECTNAME
  1

  9
$CAMERADISPLAY
290
     0
  9
$LENSLENGTH
 40
50.0
  9
$CAMERAHEIGHT
 40
0.0
  9
$STEPSPERSEC
 40
2.0
  9
$STEPSIZE
 40
6.0
  9
$3DDWFPREC
 40
2.0
  9
$PSOLWIDTH
 40
0.25
  9
$PSOLHEIGHT
 40
4.0
  9
$LOFTANG1
 40
1.570795999999999
  9
$LOFTANG2
 40
1.570795999999999
  9
$LOFTMAG1
 40
0.0
  9
$LOFTMAG2
 40
0.0
  9
$LOFTPARAM
 70
     7
  9
$LOFTNORMALS
280
     1
  9
$LATITUDE
 40
37.795
  9
$LONGITUDE
 40
-122.394
  9
$NORTHDIRECTION
 40
0.0
  9
$TIMEZONE
 70
 -8000
  9
$LIGHTGLYPHDISPLAY
280
     1
  9
$TILEMODELIGHTSYNCH
280
     1
  9
$CMATERIAL
347
211
  9
$SOLIDHIST
280
     1
  9
$SHOWHIST
280
     1
  9
$DWFFRAME
280
     2
  9
$DGNFRAME
280
     0
  9
$REALWORLDSCALE
290
     1
  9
$INTERFERECOLOR
 62
     1
  9
$INTERFEREOBJVS
345
227
  9
$INTERFEREVPVS
346
228
  9
$CSHADOW
280
     0
  9
$SHADOWPLANELOCATION
 40
0.0
  0
ENDSEC
  0
SECTION
  2
CLASSES
  0
CLASS
  1
ACDBDICTIONARYWDFLT
  2
AcDbDictionaryWithDefault
  3
ObjectDBX Classes
 90
        0
 91
        1
280
     0
281
     0
  0
CLASS
  1
VISUALSTYLE
  2
AcDbVisualStyle
  3
ObjectDBX Classes
 90
     4095
 91
       16
280
     0
281
     0
  0
CLASS
  1
MATERIAL
  2
AcDbMaterial
  3
ObjectDBX Classes
 90
     1153
 91
        3
280
     0
281
     0
  0
CLASS
  1
TABLESTYLE
  2
AcDbTableStyle
  3
ObjectDBX Classes
 90
     4095
 91
        1
280
     0
281
     0
  0
CLASS
  1
SCALE
  2
AcDbScale
  3
ObjectDBX Classes
 90
     1153
 91
       33
280
     0
281
     0
  0
CLASS
  1
MLEADERSTYLE
  2
AcDbMLeaderStyle
  3
ACDB_MLEADERSTYLE_CLASS
 90
     4095
 91
        1
280
     0
281
     0
  0
CLASS
  1
CELLSTYLEMAP
  2
AcDbCellStyleMap
  3
ObjectDBX Classes
 90
     1152
 91
        2
280
     0
281
     0
  0
CLASS
  1
DICTIONARYVAR
  2
AcDbDictionaryVar
  3
ObjectDBX Classes
 90
        0
 91
       11
280
     0
281
     0
  0
CLASS
  1
SORTENTSTABLE
  2
AcDbSortentsTable
  3
ObjectDBX Classes
 90
        0
 91
        1
280
     0
281
     0
  0
CLASS
  1
ACAD_EVALUATION_GRAPH
  2
AcDbEvalGraph
  3
ObjectDBX Classes
 90
     1153
 91
        1
280
     0
281
     0
  0
CLASS
  1
ACAECUSTOBJ
  2
AcAeEditorObj
  3
AcAeEditorObj
 90
     1024
 91
        1
280
     1
281
     0
  0
CLASS
  1
ACDB_DYNAMICBLOCKPURGEPREVENTER_VERSION
  2
AcDbDynamicBlockPurgePreventer
  3
ObjectDBX Classes
 90
     1153
 91
        1
280
     0
281
     0
  0
CLASS
  1
MENTALRAYRENDERSETTINGS
  2
AcDbMentalRayRenderSettings
  3
SCENEOE
 90
     1024
 91
        0
280
     0
281
     0
  0
CLASS
  1
ACDB_BLOCKREPRESENTATION_DATA
  2
AcDbBlockRepresentationData
  3
ObjectDBX Classes
 90
     1153
 91
        0
280
     0
281
     0
  0
CLASS
  1
DIMASSOC
  2
AcDbDimAssoc
  3
"AcDbDimAssoc|Product Desc:     AcDim ARX App For Dimension|Company:          Autodesk, Inc.|WEB Address:      www.autodesk.com"
 90
        0
 91
        6
280
     0
281
     0
  0
CLASS
  1
SOLID_BACKGROUND
  2
AcDbSolidBackground
  3
SCENEOE
 90
     4095
 91
        0
280
     0
281
     0
  0
CLASS
  1
NPOCOLLECTION
  2
AcDbImpNonPersistentObjectsCollection
  3
ObjectDBX Classes
 90
     1153
 91
        0
280
     0
281
     0
  0
ENDSEC
  0
SECTION
  2
TABLES
  0
TABLE
  2
VPORT
  5
205
102
{ACAD_XDICTIONARY
360
209
102
}
330
0
100
AcDbSymbolTable
 70
     1
  0
VPORT
  5
206
330
205
100
AcDbSymbolTableRecord
100
AcDbViewportTableRecord
  2
*Active
 70
     0
 10
0.0
 20
0.0
 11
1.0
 21
1.0
 12
179.506787710113
 22
-11.70451406977315
 13
0.0
 23
0.0
 14
0.5
 24
0.5
 15
0.5
 25
0.5
 16
0.0
 26
0.0
 36
47.52287584630495
 17
720.282308495558
 27
222.817896672527
 37
0.0
 40
53.059140440734
 41
2.426395939086294
 42
50.0
 43
0.0
 44
0.0
 50
0.0
 51
0.0
 71
     0
 72
   100
 73
     1
 74
     3
 75
     0
 76
     0
 77
     0
 78
     0
281
     0
 65
     1
110
0.0
120
0.0
130
0.0
111
1.0
121
0.0
131
0.0
112
0.0
122
1.0
132
0.0
 79
     0
146
0.0
348
207
 60
     3
 61
     5
292
     1
282
     1
141
0.0
142
0.0
 63
   250
421
  3355443
  0
ENDTAB
  0
TABLE
  2
LTYPE
  5
200
330
0
100
AcDbSymbolTable
 70
     3
  0
LTYPE
  5
201
330
200
100
AcDbSymbolTableRecord
100
AcDbLinetypeTableRecord
  2
ByBlock
 70
     0
  3

 72
    65
 73
     0
 40
0.0
  0
LTYPE
  5
202
330
200
100
AcDbSymbolTableRecord
100
AcDbLinetypeTableRecord
  2
ByLayer
 70
     0
  3

 72
    65
 73
     0
 40
0.0
  0
LTYPE
  5
15
330
200
100
AcDbSymbolTableRecord
100
AcDbLinetypeTableRecord
  2
Continuous
 70
     0
  3
Solid line
 72
    65
 73
     0
 40
0.0
  0
LTYPE
  5
112
330
200
100
AcDbSymbolTableRecord
100
AcDbLinetypeTableRecord
  2
CENTER
 70
     0
  3
Center ____ _ ____ _ ____ _ ____ _ ____ _ ____
 72
    65
 73
     4
 40
2.0
 49
1.25
 74
     0
 49
-0.25
 74
     0
 49
0.25
 74
     0
 49
-0.25
 74
     0
  0
LTYPE
  5
951
330
200
100
AcDbSymbolTableRecord
100
AcDbLinetypeTableRecord
  2
CENTER2
 70
     0
  3
Center (.5x) ___ _ ___ _ ___ _ ___ _ ___ _ ___
 72
    65
 73
     4
 40
28.575
 49
19.05
 74
     0
 49
-3.174999999999998
 74
     0
 49
3.174999999999998
 74
     0
 49
-3.174999999999998
 74
     0
  0
ENDTAB
  0
TABLE
  2
LAYER
  5
1F9
102
{ACAD_XDICTIONARY
360
1FA
102
}
330
0
100
AcDbSymbolTable
 70
     8
  0
LAYER
  5
6
102
{ACAD_XDICTIONARY
360
7
102
}
330
1F9
100
AcDbSymbolTableRecord
100
AcDbLayerTableRecord
  2
0
 70
     0
 62
     7
  6
Continuous
370
    30
390
9
347
C
  0
LAYER
  5
17
102
{ACAD_XDICTIONARY
360
18
102
}
330
1F9
100
AcDbSymbolTableRecord
100
AcDbLayerTableRecord
  2
图层 1
 70
     0
 62
     7
  6
Continuous
370
    -3
390
9
347
C
  0
LAYER
  5
25
102
{ACAD_XDICTIONARY
360
26
102
}
330
1F9
100
AcDbSymbolTableRecord
100
AcDbLayerTableRecord
  2
图框
 70
     0
 62
     7
  6
Continuous
370
    20
390
9
347
C
  0
LAYER
  5
123
330
1F9
100
AcDbSymbolTableRecord
100
AcDbLayerTableRecord
  2
Defpoints
 70
     0
 62
     7
  6
Continuous
290
     0
370
    -3
390
9
347
C
  0
LAYER
  5
119
330
1F9
100
AcDbSymbolTableRecord
100
AcDbLayerTableRecord
  2
DIM
 70
     0
 62
     3
  6
Continuous
370
    15
390
9
347
C
1001
AcAecLayerStandard
1000

1000

  0
LAYER
  5
ED
330
1F9
100
AcDbSymbolTableRecord
100
AcDbLayerTableRecord
  2
打标文字
 70
     0
 62
     3
  6
Continuous
370
    20
390
9
347
C
  0
LAYER
  5
106
330
1F9
100
AcDbSymbolTableRecord
100
AcDbLayerTableRecord
  2
hat
 70
     0
 62
     6
  6
Continuous
370
    15
390
9
347
C
1001
AcAecLayerStandard
1000

1000

  0
LAYER
  5
952
330
1F9
100
AcDbSymbolTableRecord
100
AcDbLayerTableRecord
  2
中心线
 70
     0
 62
    12
  6
CENTER
370
    -3
390
9
347
C
  0
ENDTAB
  0
TABLE
  2
STYLE
  5
1FE
330
0
100
AcDbSymbolTable
 70
     4
  0
STYLE
  5
46
330
1FE
100
AcDbSymbolTableRecord
100
AcDbTextStyleTableRecord
  2
Standard
 70
     0
 40
0.0
 41
0.75
 50
0.0
 71
     0
 42
0.2
  3
仿宋_GB2312.ttf
  4

1001
ACAD
1000
FangSong_GB2312
1071
    34353
  0
STYLE
  5
28
330
1FE
100
AcDbSymbolTableRecord
100
AcDbTextStyleTableRecord
  2
Romans字体
 70
     0
 40
0.0
 41
0.75
 50
0.0
 71
     0
 42
0.2
  3
romans.shx
  4

  0
STYLE
  5
48
330
1FE
100
AcDbSymbolTableRecord
100
AcDbTextStyleTableRecord
  2
工程字
 70
     0
 40
0.0
 41
1.0
 50
0.0
 71
     0
 42
3.5
  3
gbenor.shx
  4
gbcbig.shx
  0
STYLE
  5
4A
330
1FE
100
AcDbSymbolTableRecord
100
AcDbTextStyleTableRecord
  2
Chinese
 70
     0
 40
0.0
 41
1.0
 50
0.0
 71
     0
 42
2.5
  3
PMingLiU.ttf
  4

1001
ACAD
1000
PMingLiU
1071
    34834
  0
ENDTAB
  0
TABLE
  2
VIEW
  5
203
330
0
100
AcDbSymbolTable
 70
     0
  0
ENDTAB
  0
TABLE
  2
UCS
  5
204
330
0
100
AcDbSymbolTable
 70
     0
  0
ENDTAB
  0
TABLE
  2
APPID
  5
20A
330
0
100
AcDbSymbolTable
 70
    11
  0
APPID
  5
29
330
20A
100
AcDbSymbolTableRecord
100
AcDbRegAppTableRecord
  2
ACAD
 70
     0
  0
APPID
  5
35
330
20A
100
AcDbSymbolTableRecord
100
AcDbRegAppTableRecord
  2
AcDbBlockRepETag
 70
     0
  0
APPID
  5
1F0
330
20A
100
AcDbSymbolTableRecord
100
AcDbRegAppTableRecord
  2
ACAD_PSEXT
 70
     0
  0
APPID
  5
107
330
20A
100
AcDbSymbolTableRecord
100
AcDbRegAppTableRecord
  2
AcAecLayerStandard
 70
     0
  0
APPID
  5
128
330
20A
100
AcDbSymbolTableRecord
100
AcDbRegAppTableRecord
  2
ACAD_DSTYLE_DIMJAG
 70
     0
  0
APPID
  5
129
330
20A
100
AcDbSymbolTableRecord
100
AcDbRegAppTableRecord
  2
ACAD_DSTYLE_DIMTALN
 70
     0
  0
APPID
  5
285
330
20A
100
AcDbSymbolTableRecord
100
AcDbRegAppTableRecord
  2
ACAD_MLEADERVER
 70
     0
  0
APPID
  5
32C
330
20A
100
AcDbSymbolTableRecord
100
AcDbRegAppTableRecord
  2
AcDbDynamicBlockGUID
 70
     0
  0
APPID
  5
13E0
330
20A
100
AcDbSymbolTableRecord
100
AcDbRegAppTableRecord
  2
ACAUTHENVIRON
 70
     0
  0
APPID
  5
13E3
330
20A
100
AcDbSymbolTableRecord
100
AcDbRegAppTableRecord
  2
AcDbDynamicBlockTrueName
 70
     0
  0
APPID
  5
16BD
330
20A
100
AcDbSymbolTableRecord
100
AcDbRegAppTableRecord
  2
DCO15
 70
     0
  0
ENDTAB
  0
TABLE
  2
DIMSTYLE
  5
20B
330
0
100
AcDbSymbolTable
 70
     2
100
AcDbDimStyleTable
 71
     2
340
127
340
20C
  0
DIMSTYLE
105
20C
330
20B
100
AcDbSymbolTableRecord
100
AcDbDimStyleTableRecord
  2
Standard
 70
     0
340
46
  0
DIMSTYLE
105
127
102
{ACAD_REACTORS
330
1083
330
1086
330
1089
330
108D
330
10D1
330
10CE
102
}
330
20B
100
AcDbSymbolTableRecord
100
AcDbDimStyleTableRecord
  2
01
 70
     0
 41
1.5
 42
0.2
 43
0.2
 44
0.5
 73
     0
 74
     0
 77
     1
 78
     8
 79
     2
140
2.0
141
0.0
147
0.5
176
     1
177
     6
178
     4
179
     2
271
     1
272
     1
340
28
1001
ACAD_DSTYLE_DIMJAG
1070
   388
1040
1.5
1001
ACAD_DSTYLE_DIMTALN
1070
   392
1070
     0
  0
ENDTAB
  0
TABLE
  2
BLOCK_RECORD
  5
1
330
0
100
AcDbSymbolTable
 70
     9
  0
BLOCK_RECORD
  5
2
102
{ACAD_XDICTIONARY
360
3
102
}
330
1
100
AcDbSymbolTableRecord
100
AcDbBlockTableRecord
  2
*Model_Space
340
1EE
 70
     0
280
     1
281
     0
  0
BLOCK_RECORD
  5
1F1
330
1
100
AcDbSymbolTableRecord
100
AcDbBlockTableRecord
  2
*Paper_Space
340
1F4
 70
     0
280
     1
281
     0
  0
BLOCK_RECORD
  5
1F5
330
1
100
AcDbSymbolTableRecord
100
AcDbBlockTableRecord
  2
*Paper_Space0
340
1F8
 70
     0
280
     1
281
     0
  0
BLOCK_RECORD
  5
293
102
{ACAD_XDICTIONARY
360
1DCC
102
}
330
1
100
AcDbSymbolTableRecord
100
AcDbBlockTableRecord
  2
A4图框-NEW
340
0
310
2800000020000000200000000100080000000000000400000000000000000000000000000000000000000000000080000080000000808000800000008000800080800000C0C0C000C0DCC000F0CAA6000020400000206000002080000020A0000020C0000020E00000400000004020000040400000406000004080000040A0
310
000040C0000040E00000600000006020000060400000606000006080000060A0000060C0000060E00000800000008020000080400000806000008080000080A0000080C0000080E00000A0000000A0200000A0400000A0600000A0800000A0A00000A0C00000A0E00000C0000000C0200000C0400000C0600000C0800000C0
310
A00000C0C00000C0E00000E0000000E0200000E0400000E0600000E0800000E0A00000E0C00000E0E00040000000400020004000400040006000400080004000A0004000C0004000E00040200000402020004020400040206000402080004020A0004020C0004020E000404000004040200040404000404060004040800040
310
40A0004040C0004040E00040600000406020004060400040606000406080004060A0004060C0004060E00040800000408020004080400040806000408080004080A0004080C0004080E00040A0000040A0200040A0400040A0600040A0800040A0A00040A0C00040A0E00040C0000040C0200040C0400040C0600040C08000
310
40C0A00040C0C00040C0E00040E0000040E0200040E0400040E0600040E0800040E0A00040E0C00040E0E00080000000800020008000400080006000800080008000A0008000C0008000E00080200000802020008020400080206000802080008020A0008020C0008020E00080400000804020008040400080406000804080
310
008040A0008040C0008040E00080600000806020008060400080606000806080008060A0008060C0008060E00080800000808020008080400080806000808080008080A0008080C0008080E00080A0000080A0200080A0400080A0600080A0800080A0A00080A0C00080A0E00080C0000080C0200080C0400080C0600080C0
310
800080C0A00080C0C00080C0E00080E0000080E0200080E0400080E0600080E0800080E0A00080E0C00080E0E000C0000000C0002000C0004000C0006000C0008000C000A000C000C000C000E000C0200000C0202000C0204000C0206000C0208000C020A000C020C000C020E000C0400000C0402000C0404000C0406000C0
310
408000C040A000C040C000C040E000C0600000C0602000C0604000C0606000C0608000C060A000C060C000C060E000C0800000C0802000C0804000C0806000C0808000C080A000C080C000C080E000C0A00000C0A02000C0A04000C0A06000C0A08000C0A0A000C0A0C000C0A0E000C0C00000C0C02000C0C04000C0C06000
310
C0C08000C0C0A000F0FBFF00A4A0A000808080000000FF0000FF000000FFFF00FF000000FF00FF00FFFF0000FFFFFF0000000000000000000000000000000000000000000000000000000000000000000000000000000000000000000000000000000000000000000000000000000000000000000000000000000000000000
310
000000000000000000000000000000000000000000000000000000000000000000000000000000000000000000000000000000000000000000000000000000000000000000000000000000000000000000000000000000000000000000000000000000000000000000000000000000000000F9F9F9F9F9F9F9F9F9F9F9F9F9
310
F9F9F9F9F9F9F9F9F9F9F9F9F9F9FF00000000F9FF000000000000000000FFFFFFFFFFFFFFFFFFFFFFFFF9FAFAFAFF00000000F9FF000000000000000000FFFFFFFFFFFFFFFFFFFFFFFFFFFFFFFFFF00000000F9FD000000000000000000FFFFFFFFFFFFFFFFFFFFFFFFFFFFFFFFFF00000000F9FF000000000000000000FF
310
FFFFFFFFFFFFFFFFFFFFFFFFFFFFFFFF00000000F9FD000000000000000000FFFFFFFFFFFFFFFFFFFFFFFFFFFFFFFFFF00000000F9FF00000000000000000000000000000000000000000000000000FF00000000F9FD00000000000000000000000000000000000000000000000000FF00000000F9FF000000000000000000
310
00000000000000000000000000000000FF00000000F9FD00000000000000000000000000000000000000000000000000FF00000000F9FF00000000000000000000000000000000000000000000000000FF00000000F9FD00000000000000000000000000000000000000000000000000FF00000000F9FD0000000000000000
310
0000000000000000000000000000000000FF00000000F9FF00000000000000000000000000000000000000000000000000FF00000000F9FD00000000000000000000000000000000000000000000000000FF00000000F9FF00000000000000000000000000000000000000000000000000FF00000000F9FD00000000000000
310
000000000000000000000000000000000000FF00000000F9FF00000000000000000000000000000000000000000000000000FF00000000F9FFFFFFFFFFFFFFFFFFFFFFFFFFFFFFFFFFFFFFFFFFFFFFFFFFFFFF00000000F9FFFFFFF9F9F9F9F9F9F9F9F9F9F9F9F9F9F9F9F9F9F9F9F9F9F9F9000000000000000000000000
310
00000000000000000000000000000000000000000000000000000000000000000000000000000000000000000000000000000000000000000000000000000000000000000000000000000000000000000000000000000000000000000000000000000000000000000000000000000000000000000000000000000000000000
310
0000000000000000000000000000000000000000000000000000000000000000000000000000000000000000000000000000000000000000
102
{BLKREFS
331
E28
102
}
 70
     4
280
     1
281
     0
1001
AcDbDynamicBlockGUID
1000
{2605724B-E9FE-4BB4-A979-6559EE75DE34}
1001
AcDbBlockRepETag
1070
     1
1071
      149
  0
BLOCK_RECORD
  5
10E0
330
1
100
AcDbSymbolTableRecord
100
AcDbBlockTableRecord
  2
*D2
340
0
 70
     0
280
     1
281
     0
  0
BLOCK_RECORD
  5
10EC
330
1
100
AcDbSymbolTableRecord
100
AcDbBlockTableRecord
  2
*D3
340
0
 70
     0
280
     1
281
     0
  0
BLOCK_RECORD
  5
10F9
330
1
100
AcDbSymbolTableRecord
100
AcDbBlockTableRecord
  2
*D4
340
0
 70
     0
280
     1
281
     0
  0
BLOCK_RECORD
  5
1106
330
1
100
AcDbSymbolTableRecord
100
AcDbBlockTableRecord
  2
*D5
340
0
 70
     0
280
     1
281
     0
  0
BLOCK_RECORD
  5
1113
330
1
100
AcDbSymbolTableRecord
100
AcDbBlockTableRecord
  2
*D6
340
0
 70
     0
280
     1
281
     0
  0
BLOCK_RECORD
  5
1120
330
1
100
AcDbSymbolTableRecord
100
AcDbBlockTableRecord
  2
*D7
340
0
 70
     0
280
     1
281
     0
  0
ENDTAB
  0
ENDSEC
  0
SECTION
  2
BLOCKS
  0
BLOCK
  5
5
330
2
100
AcDbEntity
  8
0
100
AcDbBlockBegin
  2
*Model_Space
 70
     0
 10
0.0
 20
0.0
 30
0.0
  3
*Model_Space
  1

  0
ENDBLK
  5
1ED
330
2
100
AcDbEntity
  8
0
100
AcDbBlockEnd
  0
BLOCK
  5
1F2
330
1F1
100
AcDbEntity
 67
     1
  8
0
100
AcDbBlockBegin
  2
*Paper_Space
 70
     0
 10
0.0
 20
0.0
 30
0.0
  3
*Paper_Space
  1

  0
ENDBLK
  5
1F3
330
1F1
100
AcDbEntity
 67
     1
  8
0
100
AcDbBlockEnd
  0
BLOCK
  5
1F6
330
1F5
100
AcDbEntity
 67
     1
  8
0
100
AcDbBlockBegin
  2
*Paper_Space0
 70
     0
 10
0.0
 20
0.0
 30
0.0
  3
*Paper_Space0
  1

  0
ENDBLK
  5
1F7
330
1F5
100
AcDbEntity
 67
     1
  8
0
100
AcDbBlockEnd
  0
BLOCK
  5
295
330
293
100
AcDbEntity
  8
0
100
AcDbBlockBegin
  2
A4图框-NEW
 70
     0
 10
0.0
 20
0.0
 30
0.0
  3
A4图框-NEW
  1

  0
MTEXT
  5
1D37
102
{ACAD_XDICTIONARY
360
1DD3
102
}
330
293
100
AcDbEntity
  8
图框
 62
     3
100
AcDbMText
 10
967.6594956750133
 20
499.7664151964293
 30
0.0
 40
2.985513575034151
 41
15.50176341157864
 46
6.292658374511018
 71
     5
 72
     5
  1
YL YE
  7
Romans字体
 73
     1
 44
1.0
1001
AcDbBlockRepETag
1070
     1
1071
        0
1005
1D37
1001
ACAD
1000
MTEXTBEGIN
1070
    73
1070
     1
1070
    44
1040
1.0
1070
    74
1070
     0
1000
MTEXTEND
1000
ACAD_MTEXT_DEFINED_HEIGHT_BEGIN
1070
    46
1040
6.292658374511018
1000
ACAD_MTEXT_DEFINED_HEIGHT_END
  0
MTEXT
  5
1D38
330
293
100
AcDbEntity
  8
图框
 62
     3
100
AcDbMText
 10
983.041569333247
 20
499.7664151964293
 30
0.0
 40
2.487927979195124
 41
15.26238390489062
 46
6.292658374511042
 71
     5
 72
     5
  1
{\W0.7;01.11.2021}
  7
Romans字体
 73
     1
 44
1.0
1001
AcDbBlockRepETag
1070
     1
1071
        1
1005
1D38
1001
ACAD
1000
MTEXTBEGIN
1070
    73
1070
     1
1070
    44
1040
1.0
1070
    74
1070
     0
1000
MTEXTEND
1000
ACAD_MTEXT_DEFINED_HEIGHT_BEGIN
1070
    46
1040
6.292658374511042
1000
ACAD_MTEXT_DEFINED_HEIGHT_END
  0
MTEXT
  5
1D39
330
293
100
AcDbEntity
  8
图框
 62
     3
100
AcDbMText
 10
1012.477254728976
 20
487.1810984474071
 30
0.0
 40
2.799999999999998
 41
17.64876416884615
 46
6.292658374511455
 71
     5
 72
     5
  1
HQ ZHANG
  7
Romans字体
 73
     1
 44
1.0
1001
AcDbBlockRepETag
1070
     1
1071
        2
1005
1D39
1001
ACAD
1000
MTEXTBEGIN
1070
    73
1070
     1
1070
    44
1040
1.0
1070
    74
1070
     0
1000
MTEXTEND
1000
ACAD_MTEXT_DEFINED_HEIGHT_BEGIN
1070
    46
1040
6.292658374511455
1000
ACAD_MTEXT_DEFINED_HEIGHT_END
  0
MTEXT
  5
1D3A
330
293
100
AcDbEntity
  8
图框
 62
     3
100
AcDbMText
 10
1028.977802139886
 20
487.1810984474071
 30
0.0
 40
2.487927979195124
 41
15.35233065297276
 46
6.292658374511495
 71
     5
 72
     5
  1
{\W0.7;01.11.2021}
  7
Romans字体
 73
     1
 44
1.0
1001
AcDbBlockRepETag
1070
     1
1071
        3
1005
1D3A
1001
ACAD
1000
MTEXTBEGIN
1070
    73
1070
     1
1070
    44
1040
1.0
1070
    74
1070
     0
1000
MTEXTEND
1000
ACAD_MTEXT_DEFINED_HEIGHT_BEGIN
1070
    46
1040
6.292658374511495
1000
ACAD_MTEXT_DEFINED_HEIGHT_END
  0
MTEXT
  5
1D3B
330
293
100
AcDbEntity
  8
图框
 62
     3
100
AcDbMText
 10
1063.722665487208
 20
525.4145966538831
 30
0.0
 40
2.985513575034151
 41
32.4973914334545
 46
11.82914190181707
 71
     5
 72
     5
  1
-
  7
Romans字体
 73
     1
 44
1.0
1001
AcDbBlockRepETag
1070
     1
1071
        4
1005
1D3B
1001
ACAD
1000
MTEXTBEGIN
1070
    73
1070
     1
1070
    44
1040
1.0
1070
    74
1070
     0
1000
MTEXTEND
1000
ACAD_MTEXT_DEFINED_HEIGHT_BEGIN
1070
    46
1040
11.82914190181707
1000
ACAD_MTEXT_DEFINED_HEIGHT_END
  0
MTEXT
  5
1D3C
330
293
100
AcDbEntity
  8
图框
 62
     3
100
AcDbMText
 10
1063.727338552349
 20
513.5854547520641
 30
0.0
 40
2.985513575034151
 41
32.48804530317308
 46
11.82914190182139
 71
     5
 72
     5
  1
-
  7
Romans字体
 73
     1
 44
1.0
1001
AcDbBlockRepETag
1070
     1
1071
        5
1005
1D3C
1001
ACAD
1000
MTEXTBEGIN
1070
    73
1070
     1
1070
    44
1040
1.0
1070
    74
1070
     0
1000
MTEXTEND
1000
ACAD_MTEXT_DEFINED_HEIGHT_BEGIN
1070
    46
1040
11.82914190182139
1000
ACAD_MTEXT_DEFINED_HEIGHT_END
  0
MTEXT
  5
1D3D
330
293
100
AcDbEntity
  8
图框
 62
     3
100
AcDbMText
 10
1110.122306614152
 20
526.8006839312707
 30
0.0
 40
2.985513575034151
 41
33.61239199242139
 46
9.05696734704178
 71
     5
 72
     5
  1
-
  7
Romans字体
 73
     1
 44
1.0
1001
AcDbBlockRepETag
1070
     1
1071
        6
1005
1D3D
1001
ACAD
1000
MTEXTBEGIN
1070
    73
1070
     1
1070
    44
1040
1.0
1070
    74
1070
     0
1000
MTEXTEND
1000
ACAD_MTEXT_DEFINED_HEIGHT_BEGIN
1070
    46
1040
9.05696734704178
1000
ACAD_MTEXT_DEFINED_HEIGHT_END
  0
MTEXT
  5
1D3E
330
293
100
AcDbEntity
  8
图框
 62
     3
100
AcDbMText
 10
1110.122306614152
 20
500.2775205517162
 30
0.0
 40
2.985513575034151
 41
33.61239199242139
 46
8.871557304763419
 71
     5
 72
     5
  1
-
  7
Romans字体
 73
     1
 44
1.0
1001
AcDbBlockRepETag
1070
     1
1071
        7
1005
1D3E
1001
ACAD
1000
MTEXTBEGIN
1070
    73
1070
     1
1070
    44
1040
1.0
1070
    74
1070
     0
1000
MTEXTEND
1000
ACAD_MTEXT_DEFINED_HEIGHT_BEGIN
1070
    46
1040
8.871557304763419
1000
ACAD_MTEXT_DEFINED_HEIGHT_END
  0
MTEXT
  5
1D3F
330
293
100
AcDbEntity
  8
图框
 62
     3
100
AcDbMText
 10
967.6594956750133
 20
493.4737568219182
 30
0.0
 40
2.985513575034151
 41
15.50176341157864
 46
6.292658374510335
 71
     5
 72
     5
  1
HZ LAN
  7
Romans字体
 73
     1
 44
1.0
1001
AcDbBlockRepETag
1070
     1
1071
        8
1005
1D3F
1001
ACAD
1000
MTEXTBEGIN
1070
    73
1070
     1
1070
    44
1040
1.0
1070
    74
1070
     0
1000
MTEXTEND
1000
ACAD_MTEXT_DEFINED_HEIGHT_BEGIN
1070
    46
1040
6.292658374510335
1000
ACAD_MTEXT_DEFINED_HEIGHT_END
  0
MTEXT
  5
1D40
330
293
100
AcDbEntity
  8
图框
 62
     3
100
AcDbMText
 10
983.041569333247
 20
493.2441970450405
 30
0.0
 40
2.487927979195124
 41
15.26238390489051
 46
6.751777928266487
 71
     5
 72
     5
  1
{\W0.7;01.11.2021}
  7
Romans字体
 73
     1
 44
1.0
1001
AcDbBlockRepETag
1070
     1
1071
        9
1005
1D40
1001
ACAD
1000
MTEXTBEGIN
1070
    73
1070
     1
1070
    44
1040
1.0
1070
    74
1070
     0
1000
MTEXTEND
1000
ACAD_MTEXT_DEFINED_HEIGHT_BEGIN
1070
    46
1040
6.751777928266487
1000
ACAD_MTEXT_DEFINED_HEIGHT_END
  0
MTEXT
  5
1D41
330
293
100
AcDbEntity
  8
图框
 62
     3
100
AcDbMText
 10
1012.477254728976
 20
499.7664151964291
 30
0.0
 40
2.985513575034151
 41
17.64876416884615
 46
6.292658374511397
 71
     5
 72
     5
  1
-
  7
Romans字体
 73
     1
 44
1.0
1001
AcDbBlockRepETag
1070
     1
1071
       10
1005
1D41
1001
ACAD
1000
MTEXTBEGIN
1070
    73
1070
     1
1070
    44
1040
1.0
1070
    74
1070
     0
1000
MTEXTEND
1000
ACAD_MTEXT_DEFINED_HEIGHT_BEGIN
1070
    46
1040
6.292658374511397
1000
ACAD_MTEXT_DEFINED_HEIGHT_END
  0
MTEXT
  5
1D42
330
293
100
AcDbEntity
  8
图框
 62
     3
100
AcDbMText
 10
1028.977802139886
 20
499.7664151964289
 30
0.0
 40
2.487927979195124
 41
15.35233065297265
 46
6.292658374511382
 71
     5
 72
     5
  1
-
  7
Romans字体
 73
     1
 44
1.0
1001
AcDbBlockRepETag
1070
     1
1071
       11
1005
1D42
1001
ACAD
1000
MTEXTBEGIN
1070
    73
1070
     1
1070
    44
1040
1.0
1070
    74
1070
     0
1000
MTEXTEND
1000
ACAD_MTEXT_DEFINED_HEIGHT_BEGIN
1070
    46
1040
6.292658374511382
1000
ACAD_MTEXT_DEFINED_HEIGHT_END
  0
MTEXT
  5
1D43
330
293
100
AcDbEntity
  8
图框
 62
     3
100
AcDbMText
 10
967.6594956750133
 20
487.1810984474071
 30
0.0
 40
2.985513575034151
 41
15.50176341157863
 46
6.292658374511478
 71
     5
 72
     5
  1
-
  7
Romans字体
 73
     1
 44
1.0
1001
AcDbBlockRepETag
1070
     1
1071
       12
1005
1D43
1001
ACAD
1000
MTEXTBEGIN
1070
    73
1070
     1
1070
    44
1040
1.0
1070
    74
1070
     0
1000
MTEXTEND
1000
ACAD_MTEXT_DEFINED_HEIGHT_BEGIN
1070
    46
1040
6.292658374511478
1000
ACAD_MTEXT_DEFINED_HEIGHT_END
  0
MTEXT
  5
1D44
330
293
100
AcDbEntity
  8
图框
 62
     3
100
AcDbMText
 10
983.041569333247
 20
487.1810984474071
 30
0.0
 40
2.487927979195124
 41
15.26238390489062
 46
6.292658374511495
 71
     5
 72
     5
  1
-
  7
Romans字体
 73
     1
 44
1.0
1001
AcDbBlockRepETag
1070
     1
1071
       13
1005
1D44
1001
ACAD
1000
MTEXTBEGIN
1070
    73
1070
     1
1070
    44
1040
1.0
1070
    74
1070
     0
1000
MTEXTEND
1000
ACAD_MTEXT_DEFINED_HEIGHT_BEGIN
1070
    46
1040
6.292658374511495
1000
ACAD_MTEXT_DEFINED_HEIGHT_END
  0
MTEXT
  5
1D45
330
293
100
AcDbEntity
  8
图框
 62
     3
100
AcDbMText
 10
1074.556686986741
 20
495.8417418993361
 30
0.0
 40
2.985513575034151
 41
10.82934843438978
 46
7.886094601210427
 71
     5
 72
     5
  1
-
  7
Romans字体
 73
     1
 44
1.0
1001
AcDbBlockRepETag
1070
     1
1071
       14
1005
1D45
1001
ACAD
1000
MTEXTBEGIN
1070
    73
1070
     1
1070
    44
1040
1.0
1070
    74
1070
     0
1000
MTEXTEND
1000
ACAD_MTEXT_DEFINED_HEIGHT_BEGIN
1070
    46
1040
7.886094601210427
1000
ACAD_MTEXT_DEFINED_HEIGHT_END
  0
LINE
  5
1D46
330
293
100
AcDbEntity
  8
图框
370
    -3
100
AcDbLine
 10
1036.653967466372
 20
499.7847891999413
 30
0.0
 11
1079.971361203936
 21
499.7847891999413
 31
0.0
1001
AcDbBlockRepETag
1070
     1
1071
       15
1005
1D46
  0
MTEXT
  5
1D47
330
293
100
AcDbEntity
  8
图框
 62
     1
370
    20
100
AcDbMText
 10
1108.26336443907
 20
491.5162596080882
 30
0.0
 40
2.699054613030988
 41
82.30831305643079
 46
0.0
 71
     5
 72
     5
  1
{\fSimHei|b0|i0|c134|p2;厦门唯恩电气有限公司}
 73
     1
 44
1.0
1001
AcDbBlockRepETag
1070
     1
1071
       16
1005
1D47
1001
ACAD
1000
MTEXTBEGIN
1070
    73
1070
     1
1070
    44
1040
1.0
1070
    74
1070
     0
1000
MTEXTEND
  0
MTEXT
  5
1D48
330
293
100
AcDbEntity
  8
图框
 62
     3
370
    20
100
AcDbMText
 10
1108.435451459908
 20
487.298967726064
 30
0.0
 40
1.652482416141417
 41
68.08558693693567
 46
0.0
 71
     5
 72
     5
  1
{\fArial Narrow|b0|i0|c0|p34;XIAMEN WAIN ELECTRICAL CO.LTD}
  7
工程字
 73
     1
 44
1.0
1001
AcDbBlockRepETag
1070
     1
1071
       17
1005
1D48
1001
ACAD
1000
MTEXTBEGIN
1070
    73
1070
     1
1070
    44
1040
1.0
1070
    74
1070
     0
1000
MTEXTEND
  0
MTEXT
  5
1D49
330
293
100
AcDbEntity
  8
图框
 62
     1
370
    20
100
AcDbMText
 10
1085.711816899387
 20
491.0944802995856
 30
0.0
 40
2.005930044038334
 41
5.047240019334847
 46
0.0
 71
     1
 72
     5
  1
{\fArial|b0|i0|c0|p34;A}
  7
Chinese
 73
     1
 44
1.0
1001
AcDbBlockRepETag
1070
     1
1071
       18
1005
1D49
1001
ACAD
1000
MTEXTBEGIN
1070
    73
1070
     1
1070
    44
1040
1.0
1070
    74
1070
     0
1000
MTEXTEND
  0
MTEXT
  5
1D4A
330
293
100
AcDbEntity
  8
图框
 62
     1
370
    20
100
AcDbMText
 10
1088.213485935716
 20
491.0944802995856
 30
0.0
 40
2.005930044038334
 41
5.047240019334847
 46
0.0
 71
     1
 72
     5
  1
{\fArial|b0|i0|c0|p34;I}
  7
Chinese
 73
     1
 44
1.0
1001
AcDbBlockRepETag
1070
     1
1071
       19
1005
1D4A
1001
ACAD
1000
MTEXTBEGIN
1070
    73
1070
     1
1070
    44
1040
1.0
1070
    74
1070
     0
1000
MTEXTEND
  0
MTEXT
  5
1D4B
330
293
100
AcDbEntity
  8
图框
 62
     1
370
    20
100
AcDbMText
 10
1089.142375222864
 20
491.0822866326808
 30
0.0
 40
2.005930044038334
 41
5.047240019334847
 46
0.0
 71
     1
 72
     5
  1
{\fArial|b0|i0|c0|p34;N}
  7
Chinese
 73
     1
 44
1.0
1001
AcDbBlockRepETag
1070
     1
1071
       20
1005
1D4B
1001
ACAD
1000
MTEXTBEGIN
1070
    73
1070
     1
1070
    44
1040
1.0
1070
    74
1070
     0
1000
MTEXTEND
  0
MTEXT
  5
1D4C
330
293
100
AcDbEntity
  8
图框
100
AcDbMText
 10
1069.142012769545
 20
487.9667319294409
 30
0.0
 40
2.252848170144607
 41
21.65869686878327
 46
7.863925338579296
 71
     5
 72
     5
  1
{\W0.5;\C1;All Dimensions in mm\POriginal Size DIN A 4}
  7
Romans字体
 73
     1
 44
1.0
1001
AcDbBlockRepETag
1070
     1
1071
       21
1005
1D4C
1001
ACAD
1000
MTEXTBEGIN
1070
    73
1070
     1
1070
    44
1040
1.0
1070
    74
1070
     0
1000
MTEXTEND
1000
ACAD_MTEXT_DEFINED_HEIGHT_BEGIN
1070
    46
1040
7.863925338579296
1000
ACAD_MTEXT_DEFINED_HEIGHT_END
  0
MTEXT
  5
1D4D
330
293
100
AcDbEntity
  8
图框
  6
ByBlock
 62
     6
370
    18
100
AcDbMText
 10
1127.40434942308
 20
508.7896535755975
 30
0.0
 40
2.651776162684904
 41
2.557913877927211
 46
0.0
 71
     1
 72
     5
  1
A
  7
Romans字体
 11
0.0000000000000001
 21
1.0
 31
0.0
 73
     1
 44
1.0
1001
AcDbBlockRepETag
1070
     1
1071
       22
1005
1D4D
1001
ACAD
1000
MTEXTBEGIN
1070
    73
1070
     1
1070
    44
1040
1.0
1070
    74
1070
     0
1000
MTEXTEND
  0
MTEXT
  5
1D4E
330
293
100
AcDbEntity
  8
图框
 62
     6
100
AcDbMText
 10
1127.40434942308
 20
556.3746573232886
 30
0.0
 40
2.651776162684904
 41
2.557913877927211
 46
0.0
 71
     1
 72
     5
  1
B
  7
Romans字体
 11
0.0000000000000001
 21
1.0
 31
0.0
 73
     1
 44
1.0
1001
AcDbBlockRepETag
1070
     1
1071
       23
1005
1D4E
1001
ACAD
1000
MTEXTBEGIN
1070
    73
1070
     1
1070
    44
1040
1.0
1070
    74
1070
     0
1000
MTEXTEND
  0
MTEXT
  5
1D4F
330
293
100
AcDbEntity
  8
图框
 62
     6
100
AcDbMText
 10
1127.40434942308
 20
607.5539372630998
 30
0.0
 40
2.651776162684904
 41
2.557913877927211
 46
0.0
 71
     1
 72
     5
  1
C
  7
Romans字体
 11
0.0000000000000001
 21
1.0
 31
0.0
 73
     1
 44
1.0
1001
AcDbBlockRepETag
1070
     1
1071
       24
1005
1D4F
1001
ACAD
1000
MTEXTBEGIN
1070
    73
1070
     1
1070
    44
1040
1.0
1070
    74
1070
     0
1000
MTEXTEND
  0
MTEXT
  5
1D50
330
293
100
AcDbEntity
  8
图框
 62
     6
100
AcDbMText
 10
1127.40434942308
 20
658.7332172029115
 30
0.0
 40
2.651776162684904
 41
2.557913877927211
 46
0.0
 71
     1
 72
     5
  1
D
  7
Romans字体
 11
0.0000000000000001
 21
1.0
 31
0.0
 73
     1
 44
1.0
1001
AcDbBlockRepETag
1070
     1
1071
       25
1005
1D50
1001
ACAD
1000
MTEXTBEGIN
1070
    73
1070
     1
1070
    44
1040
1.0
1070
    74
1070
     0
1000
MTEXTEND
  0
LINE
  5
1D51
330
293
100
AcDbEntity
  8
图框
 62
     6
100
AcDbLine
 10
1130.411601781241
 20
634.0726090796082
 30
0.0
 11
1126.928502610363
 21
634.0726090796082
 31
0.0
1001
AcDbBlockRepETag
1070
     1
1071
       26
1005
1D51
  0
LINE
  5
1D52
330
293
100
AcDbEntity
  8
图框
 62
     6
100
AcDbLine
 10
1130.411601781241
 20
582.89332913979
 30
0.0
 11
1126.928502610363
 21
582.89332913979
 31
0.0
1001
AcDbBlockRepETag
1070
     1
1071
       27
1005
1D52
  0
MTEXT
  5
1D53
330
293
100
AcDbEntity
  8
图框
 62
     6
100
AcDbMText
 10
1105.329704038389
 20
483.6164543011163
 30
0.0
 40
2.651776162684904
 41
2.557913877927211
 46
0.0
 71
     1
 72
     5
  1
6
  7
Romans字体
 73
     1
 44
1.0
1001
AcDbBlockRepETag
1070
     1
1071
       28
1005
1D53
1001
ACAD
1000
MTEXTBEGIN
1070
    73
1070
     1
1070
    44
1040
1.0
1070
    74
1070
     0
1000
MTEXTEND
  0
LINE
  5
1D54
330
293
100
AcDbEntity
  8
图框
 62
     6
100
AcDbLine
 10
1081.088565155284
 20
484.0347692601515
 30
0.0
 11
1081.088565155284
 21
480.5347692601475
 31
0.0
1001
AcDbBlockRepETag
1070
     1
1071
       29
1005
1D54
  0
MTEXT
  5
1D55
330
293
100
AcDbEntity
  8
图框
 62
     6
100
AcDbMText
 10
1055.900596365941
 20
483.520053108993
 30
0.0
 40
2.651776162684904
 41
2.557913877927211
 46
0.0
 71
     1
 72
     5
  1
5
  7
Romans字体
 73
     1
 44
1.0
1001
AcDbBlockRepETag
1070
     1
1071
       30
1005
1D55
1001
ACAD
1000
MTEXTBEGIN
1070
    73
1070
     1
1070
    44
1040
1.0
1070
    74
1070
     0
1000
MTEXTEND
  0
LINE
  5
1D56
330
293
100
AcDbEntity
  8
图框
 62
     6
100
AcDbLine
 10
1031.553386436349
 20
484.0347692601515
 30
0.0
 11
1031.553386436349
 21
480.5347692601475
 31
0.0
1001
AcDbBlockRepETag
1070
     1
1071
       31
1005
1D56
  0
MTEXT
  5
1D57
330
293
100
AcDbEntity
  8
图框
 62
     6
100
AcDbMText
 10
1006.383180575197
 20
483.5687958215896
 30
0.0
 40
2.651776162684904
 41
2.557913877927211
 46
0.0
 71
     1
 72
     5
  1
4
  7
Romans字体
 73
     1
 44
1.0
1001
AcDbBlockRepETag
1070
     1
1071
       32
1005
1D57
1001
ACAD
1000
MTEXTBEGIN
1070
    73
1070
     1
1070
    44
1040
1.0
1070
    74
1070
     0
1000
MTEXTEND
  0
LINE
  5
1D58
330
293
100
AcDbEntity
  8
图框
 62
     6
100
AcDbLine
 10
982.0182077173887
 20
484.0347692601515
 30
0.0
 11
982.0182077173887
 21
480.5347692601475
 31
0.0
1001
AcDbBlockRepETag
1070
     1
1071
       33
1005
1D58
  0
MTEXT
  5
1D59
330
293
100
AcDbEntity
  8
图框
 62
     6
100
AcDbMText
 10
956.8302389280352
 20
483.5989680297948
 30
0.0
 40
2.651776162684904
 41
2.557913877927211
 46
0.0
 71
     1
 72
     5
  1
3
  7
Romans字体
 73
     1
 44
1.0
1001
AcDbBlockRepETag
1070
     1
1071
       34
1005
1D59
1001
ACAD
1000
MTEXTBEGIN
1070
    73
1070
     1
1070
    44
1040
1.0
1070
    74
1070
     0
1000
MTEXTEND
  0
LINE
  5
1D5A
330
293
100
AcDbEntity
  8
图框
 62
     6
100
AcDbLine
 10
932.4830289984245
 20
484.0347692601515
 30
0.0
 11
932.4830289984245
 21
480.5347692601475
 31
0.0
1001
AcDbBlockRepETag
1070
     1
1071
       35
1005
1D5A
  0
MTEXT
  5
1D5B
330
293
100
AcDbEntity
  8
图框
 62
     6
100
AcDbMText
 10
906.0252349826365
 20
483.6475250013156
 30
0.0
 40
2.651776162684904
 41
2.557913877927211
 46
0.0
 71
     1
 72
     5
  1
2
  7
Romans字体
 73
     1
 44
1.0
1001
AcDbBlockRepETag
1070
     1
1071
       36
1005
1D5B
1001
ACAD
1000
MTEXTBEGIN
1070
    73
1070
     1
1070
    44
1040
1.0
1070
    74
1070
     0
1000
MTEXTEND
  0
LINE
  5
1D5C
330
293
100
AcDbEntity
  8
图框
 62
     6
100
AcDbLine
 10
882.9478502794648
 20
484.0347692601515
 30
0.0
 11
882.9478502794648
 21
480.5347692601475
 31
0.0
1001
AcDbBlockRepETag
1070
     1
1071
       37
1005
1D5C
  0
MTEXT
  5
1D5D
330
293
100
AcDbEntity
  8
图框
 62
     6
100
AcDbMText
 10
857.7598814901191
 20
483.651829494754
 30
0.0
 40
2.651776162684904
 41
2.557913877927211
 46
0.0
 71
     1
 72
     5
  1
1
  7
Romans字体
 73
     1
 44
1.0
1001
AcDbBlockRepETag
1070
     1
1071
       38
1005
1D5D
1001
ACAD
1000
MTEXTBEGIN
1070
    73
1070
     1
1070
    44
1040
1.0
1070
    74
1070
     0
1000
MTEXTEND
  0
LINE
  5
1D5E
330
293
100
AcDbEntity
  8
图框
370
    50
100
AcDbLine
 10
836.8548209370597
 20
484.0347692601515
 30
0.0
 11
1126.928502610363
 21
484.0347692601515
 31
0.0
1001
AcDbBlockRepETag
1070
     1
1071
       39
1005
1D5E
  0
LINE
  5
1D5F
330
293
100
AcDbEntity
  8
图框
370
    50
100
AcDbLine
 10
836.9128518455362
 20
484.0178684310246
 30
0.0
 11
836.9128518455394
 21
675.0207195125422
 31
0.0
1001
AcDbBlockRepETag
1070
     1
1071
       40
1005
1D5F
  0
MTEXT
  5
1D60
330
293
100
AcDbEntity
  8
图框
 62
     6
100
AcDbMText
 10
833.8475685789031
 20
658.7332172029115
 30
0.0
 40
2.651776162684904
 41
2.557913877927211
 46
0.0
 71
     1
 72
     5
  1
D
  7
Romans字体
 11
0.0000000000000001
 21
1.0
 31
0.0
 73
     1
 44
1.0
1001
AcDbBlockRepETag
1070
     1
1071
       41
1005
1D60
1001
ACAD
1000
MTEXTBEGIN
1070
    73
1070
     1
1070
    44
1040
1.0
1070
    74
1070
     0
1000
MTEXTEND
  0
LINE
  5
1D61
330
293
100
AcDbEntity
  8
图框
 62
     6
100
AcDbLine
 10
836.9128518455386
 20
634.0726090796082
 30
0.0
 11
833.4128518455365
 21
634.0726090796082
 31
0.0
1001
AcDbBlockRepETag
1070
     1
1071
       42
1005
1D61
  0
MTEXT
  5
1D62
330
293
100
AcDbEntity
  8
图框
 62
     6
100
AcDbMText
 10
833.9039177480142
 20
607.5539372630998
 30
0.0
 40
2.651776162684904
 41
2.557913877927211
 46
0.0
 71
     1
 72
     5
  1
C
  7
Romans字体
 11
0.0000000000000001
 21
1.0
 31
0.0
 73
     1
 44
1.0
1001
AcDbBlockRepETag
1070
     1
1071
       43
1005
1D62
1001
ACAD
1000
MTEXTBEGIN
1070
    73
1070
     1
1070
    44
1040
1.0
1070
    74
1070
     0
1000
MTEXTEND
  0
LINE
  5
1D63
330
293
100
AcDbEntity
  8
图框
 62
     6
100
AcDbLine
 10
836.9128518455378
 20
582.89332913979
 30
0.0
 11
833.4128518455365
 21
582.89332913979
 31
0.0
1001
AcDbBlockRepETag
1070
     1
1071
       44
1005
1D63
  0
MTEXT
  5
1D64
330
293
100
AcDbEntity
  8
图框
 62
     6
100
AcDbMText
 10
833.9039177480142
 20
556.3746573232886
 30
0.0
 40
2.651776162684904
 41
2.557913877927211
 46
0.0
 71
     1
 72
     5
  1
B
  7
Romans字体
 11
0.0000000000000001
 21
1.0
 31
0.0
 73
     1
 44
1.0
1001
AcDbBlockRepETag
1070
     1
1071
       45
1005
1D64
1001
ACAD
1000
MTEXTBEGIN
1070
    73
1070
     1
1070
    44
1040
1.0
1070
    74
1070
     0
1000
MTEXTEND
  0
LINE
  5
1D65
330
293
100
AcDbEntity
  8
图框
 62
     6
100
AcDbLine
 10
836.9128518455367
 20
531.714049199969
 30
0.0
 11
833.4128518455365
 21
531.714049199969
 31
0.0
1001
AcDbBlockRepETag
1070
     1
1071
       46
1005
1D65
  0
MTEXT
  5
1D66
330
293
100
AcDbEntity
  8
图框
 62
     6
100
AcDbMText
 10
833.9039177480142
 20
508.7896535755975
 30
0.0
 40
2.651776162684904
 41
2.557913877927211
 46
0.0
 71
     1
 72
     5
  1
A
  7
Romans字体
 11
0.0000000000000001
 21
1.0
 31
0.0
 73
     1
 44
1.0
1001
AcDbBlockRepETag
1070
     1
1071
       47
1005
1D66
1001
ACAD
1000
MTEXTBEGIN
1070
    73
1070
     1
1070
    44
1040
1.0
1070
    74
1070
     0
1000
MTEXTEND
  0
LINE
  5
1D67
330
293
100
AcDbEntity
  8
图框
370
    -3
100
AcDbLine
 10
836.9128518455394
 20
675.0207195125422
 30
0.0
 11
836.9128518455394
 21
684.5021384922564
 31
0.0
1001
AcDbBlockRepETag
1070
     1
1071
       48
1005
1D67
  0
LINE
  5
1D68
330
293
100
AcDbEntity
  8
图框
370
    -3
100
AcDbLine
 10
842.6237321475781
 20
675.5347692601515
 30
0.0
 11
842.6237321475781
 21
685.0161882398658
 31
0.0
1001
AcDbBlockRepETag
1070
     1
1071
       49
1005
1D68
  0
LINE
  5
1D69
330
293
100
AcDbEntity
  8
图框
370
    -3
100
AcDbLine
 10
848.3346124496179
 20
675.5347692601515
 30
0.0
 11
848.3346124496179
 21
685.0161882398658
 31
0.0
1001
AcDbBlockRepETag
1070
     1
1071
       50
1005
1D69
  0
LINE
  5
1D6A
330
293
100
AcDbEntity
  8
图框
370
    -3
100
AcDbLine
 10
854.0454927516588
 20
675.5347692601515
 30
0.0
 11
854.0454927516588
 21
685.0161882398658
 31
0.0
1001
AcDbBlockRepETag
1070
     1
1071
       51
1005
1D6A
  0
LINE
  5
1D6B
330
293
100
AcDbEntity
  8
图框
370
    -3
100
AcDbLine
 10
861.5351874539182
 20
675.5347692601515
 30
0.0
 11
861.5351874539182
 21
686.7901958362482
 31
0.0
1001
AcDbBlockRepETag
1070
     1
1071
       52
1005
1D6B
  0
MTEXT
  5
1D6C
330
293
100
AcDbEntity
  8
图框
 62
     6
100
AcDbMText
 10
1105.329704038389
 20
678.859919059449
 30
0.0
 40
2.651776162684904
 41
2.557913877927211
 46
0.0
 71
     1
 72
     5
  1
6
  7
Romans字体
 73
     1
 44
1.0
1001
AcDbBlockRepETag
1070
     1
1071
       53
1005
1D6C
1001
ACAD
1000
MTEXTBEGIN
1070
    73
1070
     1
1070
    44
1040
1.0
1070
    74
1070
     0
1000
MTEXTEND
  0
LINE
  5
1D6D
330
293
100
AcDbEntity
  8
图框
 62
     6
100
AcDbLine
 10
1081.088565155284
 20
679.0347692601516
 30
0.0
 11
1081.088565155284
 21
675.5347692601515
 31
0.0
1001
AcDbBlockRepETag
1070
     1
1071
       54
1005
1D6D
  0
MTEXT
  5
1D6E
330
293
100
AcDbEntity
  8
图框
 62
     6
100
AcDbMText
 10
1055.900596365941
 20
678.859919059449
 30
0.0
 40
2.651776162684904
 41
2.557913877927211
 46
0.0
 71
     1
 72
     5
  1
5
  7
Romans字体
 73
     1
 44
1.0
1001
AcDbBlockRepETag
1070
     1
1071
       55
1005
1D6E
1001
ACAD
1000
MTEXTBEGIN
1070
    73
1070
     1
1070
    44
1040
1.0
1070
    74
1070
     0
1000
MTEXTEND
  0
LINE
  5
1D6F
330
293
100
AcDbEntity
  8
图框
 62
     6
100
AcDbLine
 10
1031.553386436349
 20
679.0347692601516
 30
0.0
 11
1031.553386436349
 21
675.5347692601515
 31
0.0
1001
AcDbBlockRepETag
1070
     1
1071
       56
1005
1D6F
  0
MTEXT
  5
1D70
330
293
100
AcDbEntity
  8
图框
 62
     6
100
AcDbMText
 10
1006.36541764698
 20
678.7312083656147
 30
0.0
 40
2.651776162684904
 41
2.557913877927211
 46
0.0
 71
     1
 72
     5
  1
4
  7
Romans字体
 73
     1
 44
1.0
1001
AcDbBlockRepETag
1070
     1
1071
       57
1005
1D70
1001
ACAD
1000
MTEXTBEGIN
1070
    73
1070
     1
1070
    44
1040
1.0
1070
    74
1070
     0
1000
MTEXTEND
  0
LINE
  5
1D71
330
293
100
AcDbEntity
  8
图框
 62
     6
100
AcDbLine
 10
982.0182077173887
 20
679.0347692601516
 30
0.0
 11
982.0182077173887
 21
675.5347692601515
 31
0.0
1001
AcDbBlockRepETag
1070
     1
1071
       58
1005
1D71
  0
MTEXT
  5
1D72
330
293
100
AcDbEntity
  8
图框
 62
     6
100
AcDbMText
 10
956.8302389280352
 20
678.859919059449
 30
0.0
 40
2.651776162684904
 41
2.557913877927211
 46
0.0
 71
     1
 72
     5
  1
3
  7
Romans字体
 73
     1
 44
1.0
1001
AcDbBlockRepETag
1070
     1
1071
       59
1005
1D72
1001
ACAD
1000
MTEXTBEGIN
1070
    73
1070
     1
1070
    44
1040
1.0
1070
    74
1070
     0
1000
MTEXTEND
  0
LINE
  5
1D73
330
293
100
AcDbEntity
  8
图框
 62
     6
100
AcDbLine
 10
932.4830289984245
 20
679.0347692601516
 30
0.0
 11
932.4830289984245
 21
675.5347692601515
 31
0.0
1001
AcDbBlockRepETag
1070
     1
1071
       60
1005
1D73
  0
MTEXT
  5
1D74
330
293
100
AcDbEntity
  8
图框
 62
     6
100
AcDbMText
 10
907.295060209082
 20
678.859919059449
 30
0.0
 40
2.651776162684904
 41
2.557913877927211
 46
0.0
 71
     1
 72
     5
  1
2
  7
Romans字体
 73
     1
 44
1.0
1001
AcDbBlockRepETag
1070
     1
1071
       61
1005
1D74
1001
ACAD
1000
MTEXTBEGIN
1070
    73
1070
     1
1070
    44
1040
1.0
1070
    74
1070
     0
1000
MTEXTEND
  0
LINE
  5
1D75
330
293
100
AcDbEntity
  8
图框
 62
     6
100
AcDbLine
 10
882.9478502794648
 20
678.7962435131815
 30
0.0
 11
882.9478502794648
 21
675.5347692601515
 31
0.0
1001
AcDbBlockRepETag
1070
     1
1071
       62
1005
1D75
  0
MTEXT
  5
1D76
330
293
100
AcDbEntity
  8
图框
 62
     6
100
AcDbMText
 10
862.6286629643733
 20
678.859919059449
 30
0.0
 40
2.651776162684904
 41
2.557913877927211
 46
0.0
 71
     1
 72
     5
  1
1
  7
Romans字体
 73
     1
 44
1.0
1001
AcDbBlockRepETag
1070
     1
1071
       63
1005
1D76
1001
ACAD
1000
MTEXTBEGIN
1070
    73
1070
     1
1070
    44
1040
1.0
1070
    74
1070
     0
1000
MTEXTEND
  0
LINE
  5
1D77
330
293
100
AcDbEntity
  8
图框
370
    -3
100
AcDbLine
 10
836.9128518455394
 20
675.0207195125422
 30
0.0
 11
836.9128518455394
 21
686.7901958362482
 31
0.0
1001
AcDbBlockRepETag
1070
     1
1071
       64
1005
1D77
  0
LINE
  5
1D78
330
293
100
AcDbEntity
  8
图框
370
    50
100
AcDbLine
 10
836.9128518455394
 20
675.5347692601515
 30
0.0
 11
1126.928502610363
 21
675.5347692601515
 31
0.0
1001
AcDbBlockRepETag
1070
     1
1071
       65
1005
1D78
  0
LINE
  5
1D79
330
293
100
AcDbEntity
  8
图框
370
    -3
100
AcDbLine
 10
842.6237321475781
 20
675.5347692601515
 30
0.0
 11
842.6237321475781
 21
686.7901958362482
 31
0.0
1001
AcDbBlockRepETag
1070
     1
1071
       66
1005
1D79
  0
LINE
  5
1D7A
330
293
100
AcDbEntity
  8
图框
370
    -3
100
AcDbLine
 10
848.3346124496179
 20
675.5347692601515
 30
0.0
 11
848.3346124496179
 21
686.7901958362482
 31
0.0
1001
AcDbBlockRepETag
1070
     1
1071
       67
1005
1D7A
  0
MTEXT
  5
1D7B
102
{ACAD_XDICTIONARY
360
1DD5
102
}
330
293
100
AcDbEntity
  8
图框
100
AcDbMText
 10
857.7903401027889
 20
686.7901958362482
 30
0.0
 40
1.958998408821398
 41
11.25542657609672
 46
7.489694702258906
 71
     4
 72
     5
  1
\pi2.6646;{\fSimSun|b0|i0|c134|p2;档案员\fFangSong_GB2312|b0|i0|c134|p49;\H0.7x;\P\pi1.4159;\Fromans|c134;Filing Clerk\fFangSong_GB2312|b0|i0|c134|p49; }
 11
-0.0000000000000002
 21
-1.0
 31
0.0
 73
     1
 44
1.0
1001
AcDbBlockRepETag
1070
     1
1071
       68
1005
1D7B
1001
ACAD
1000
MTEXTBEGIN
1070
    73
1070
     1
1070
    44
1040
1.0
1070
    74
1070
     0
1000
MTEXTEND
1000
ACAD_MTEXT_DEFINED_HEIGHT_BEGIN
1070
    46
1040
7.489694702258906
1000
ACAD_MTEXT_DEFINED_HEIGHT_END
  0
MTEXT
  5
1D7C
102
{ACAD_XDICTIONARY
360
1DD7
102
}
330
293
100
AcDbEntity
  8
图框
100
AcDbMText
 10
845.479172298598
 20
686.7901958362482
 30
0.0
 40
1.958998408821398
 41
11.25542657609672
 46
5.710880302039671
 71
     4
 72
     5
  1
\pi0.63465;{\fSimSun|b0|i0|c134|p2;日期\Fromans|c134;/Date}
 11
-0.0000000000000002
 21
-1.0
 31
0.0
 73
     1
 44
1.0
1001
AcDbBlockRepETag
1070
     1
1071
       69
1005
1D7C
1001
ACAD
1000
MTEXTBEGIN
1070
    73
1070
     1
1070
    44
1040
1.0
1070
    74
1070
     0
1000
MTEXTEND
1000
ACAD_MTEXT_DEFINED_HEIGHT_BEGIN
1070
    46
1040
5.710880302039671
1000
ACAD_MTEXT_DEFINED_HEIGHT_END
  0
LINE
  5
1D7D
330
293
100
AcDbEntity
  8
图框
370
    -3
100
AcDbLine
 10
854.0454927516588
 20
675.5347692601515
 30
0.0
 11
854.0454927516588
 21
686.7901958362482
 31
0.0
1001
AcDbBlockRepETag
1070
     1
1071
       70
1005
1D7D
  0
LINE
  5
1D7E
330
293
100
AcDbEntity
  8
图框
370
    -3
100
AcDbLine
 10
1036.653967466372
 20
531.3291676047914
 30
0.0
 11
1036.653967466372
 21
484.0126019753161
 31
0.0
1001
AcDbBlockRepETag
1070
     1
1071
       71
1005
1D7E
  0
LINE
  5
1D7F
330
293
100
AcDbEntity
  8
图框
370
    -3
100
AcDbLine
 10
1047.483315900763
 20
507.6708838011533
 30
0.0
 11
1047.483315900763
 21
491.8986945987308
 31
0.0
1001
AcDbBlockRepETag
1070
     1
1071
       72
1005
1D7F
  0
LINE
  5
1D80
330
293
100
AcDbEntity
  8
图框
370
    -3
100
AcDbLine
 10
1058.312664335153
 20
507.6708838011533
 30
0.0
 11
1058.312664335153
 21
484.0347692601515
 31
0.0
1001
AcDbBlockRepETag
1070
     1
1071
       73
1005
1D80
  0
LINE
  5
1D81
330
293
100
AcDbEntity
  8
图框
370
    25
100
AcDbLine
 10
1048.474135214456
 20
488.1095628329926
 30
0.0
 11
1054.946420288459
 21
488.1095628329926
 31
0.0
1001
AcDbBlockRepETag
1070
     1
1071
       74
1005
1D81
  0
LINE
  5
1D82
330
293
100
AcDbEntity
  8
图框
370
    25
100
AcDbLine
 10
1054.232527365989
 20
487.0761716842634
 30
0.0
 11
1049.156490914508
 21
486.4576273751
 31
0.0
1001
AcDbBlockRepETag
1070
     1
1071
       75
1005
1D82
  0
LINE
  5
1D83
330
293
100
AcDbEntity
  8
图框
370
    25
100
AcDbLine
 10
1054.232527365989
 20
489.1429539817209
 30
0.0
 11
1049.156490914508
 21
489.7614982908846
 31
0.0
1001
AcDbBlockRepETag
1070
     1
1071
       76
1005
1D83
  0
LINE
  5
1D84
330
293
100
AcDbEntity
  8
图框
370
    25
100
AcDbLine
 10
1049.156490914508
 20
489.7614982908846
 30
0.0
 11
1049.156490914508
 21
486.4576273751
 31
0.0
1001
AcDbBlockRepETag
1070
     1
1071
       77
1005
1D84
  0
LINE
  5
1D85
330
293
100
AcDbEntity
  8
图框
370
    25
100
AcDbLine
 10
1054.232527365989
 20
489.1429539817209
 30
0.0
 11
1054.232527365989
 21
487.0761716842634
 31
0.0
1001
AcDbBlockRepETag
1070
     1
1071
       78
1005
1D85
  0
CIRCLE
  5
1D86
330
293
100
AcDbEntity
  8
图框
370
    25
100
AcDbCircle
 10
1042.502700458579
 20
488.1095628329926
 30
0.0
 40
1.651935457891863
1001
AcDbBlockRepETag
1070
     1
1071
       79
1005
1D86
  0
CIRCLE
  5
1D87
330
293
100
AcDbEntity
  8
图框
370
    25
100
AcDbCircle
 10
1042.502700458579
 20
488.1095628329926
 30
0.0
 40
1.033391148728775
1001
AcDbBlockRepETag
1070
     1
1071
       80
1005
1D87
  0
LINE
  5
1D88
330
293
100
AcDbEntity
  8
图框
370
    25
100
AcDbLine
 10
1040.136872078216
 20
488.1095628329926
 30
0.0
 11
1044.868528838943
 21
488.1095628329926
 31
0.0
1001
AcDbBlockRepETag
1070
     1
1071
       81
1005
1D88
  0
LINE
  5
1D89
330
293
100
AcDbEntity
  8
图框
370
    25
100
AcDbLine
 10
1042.502700458579
 20
490.475391213355
 30
0.0
 11
1042.502700458579
 21
485.743734452629
 31
0.0
1001
AcDbBlockRepETag
1070
     1
1071
       82
1005
1D89
  0
LINE
  5
1D8A
330
293
100
AcDbEntity
  8
图框
370
    -3
100
AcDbLine
 10
1069.142012769546
 20
507.6708838011533
 30
0.0
 11
1069.142012769546
 21
491.8986945987308
 31
0.0
1001
AcDbBlockRepETag
1070
     1
1071
       83
1005
1D8A
  0
MTEXT
  5
1D8B
330
293
100
AcDbEntity
  8
图框
100
AcDbMText
 10
1086.643735910939
 20
526.8006839312707
 30
0.0
 40
2.154898249703542
 41
13.34474941400573
 46
9.056967347041775
 71
     5
 72
     5
  1
图号{\Ftxt|c134;\P\Fromans|c134;\W0.65;Drawing No.}
 73
     1
 44
1.0
1001
AcDbBlockRepETag
1070
     1
1071
       84
1005
1D8B
1001
ACAD
1000
MTEXTBEGIN
1070
    73
1070
     1
1070
    44
1040
1.0
1070
    74
1070
     0
1000
MTEXTEND
1000
ACAD_MTEXT_DEFINED_HEIGHT_BEGIN
1070
    46
1040
9.056967347041775
1000
ACAD_MTEXT_DEFINED_HEIGHT_END
  0
LINE
  5
1D8C
330
293
100
AcDbEntity
  8
图框
370
    -3
100
AcDbLine
 10
1093.316110617942
 20
531.3291676047914
 30
0.0
 11
1093.316110617942
 21
495.8417418993347
 31
0.0
1001
AcDbBlockRepETag
1070
     1
1071
       85
1005
1D8C
  0
LINE
  5
1D8D
330
293
100
AcDbEntity
  8
图框
370
    -3
100
AcDbLine
 10
1047.473969770481
 20
531.3291676047914
 30
0.0
 11
1047.473969770481
 21
507.6708838011533
 31
0.0
1001
AcDbBlockRepETag
1070
     1
1071
       86
1005
1D8D
  0
MTEXT
  5
1D8E
330
293
100
AcDbEntity
  8
图框
100
AcDbMText
 10
1063.72733855235
 20
503.7278365005473
 30
0.0
 40
2.252848170144607
 41
10.82934843439208
 46
7.886094601212128
 71
     5
 72
     5
  1
重量\P{\Fromans|c134;Weight}
 73
     1
 44
1.0
1001
AcDbBlockRepETag
1070
     1
1071
       87
1005
1D8E
1001
ACAD
1000
MTEXTBEGIN
1070
    73
1070
     1
1070
    44
1040
1.0
1070
    74
1070
     0
1000
MTEXTEND
1000
ACAD_MTEXT_DEFINED_HEIGHT_BEGIN
1070
    46
1040
7.886094601212128
1000
ACAD_MTEXT_DEFINED_HEIGHT_END
  0
LINE
  5
1D8F
330
293
100
AcDbEntity
  8
图框
370
    -3
100
AcDbLine
 10
1036.653967466372
 20
519.5000257029746
 30
0.0
 11
1079.971361203936
 21
519.5000257029746
 31
0.0
1001
AcDbBlockRepETag
1070
     1
1071
       88
1005
1D8F
  0
MTEXT
  5
1D90
330
293
100
AcDbEntity
  8
图框
100
AcDbMText
 10
1074.556686986741
 20
503.7278365005473
 30
0.0
 40
2.252848170144607
 41
10.82934843438984
 46
7.886094601212141
 71
     5
 72
     5
  1
数量\P{\Fromans|c134;Qty.}
 73
     1
 44
1.0
1001
AcDbBlockRepETag
1070
     1
1071
       89
1005
1D90
1001
ACAD
1000
MTEXTBEGIN
1070
    73
1070
     1
1070
    44
1040
1.0
1070
    74
1070
     0
1000
MTEXTEND
1000
ACAD_MTEXT_DEFINED_HEIGHT_BEGIN
1070
    46
1040
7.886094601212141
1000
ACAD_MTEXT_DEFINED_HEIGHT_END
  0
LINE
  5
1D91
330
293
100
AcDbEntity
  8
图框
370
    -3
100
AcDbLine
 10
1079.971361203936
 20
495.8417418993347
 30
0.0
 11
1126.928502610363
 21
495.8417418993342
 31
0.0
1001
AcDbBlockRepETag
1070
     1
1071
       90
1005
1D91
  0
LINE
  5
1D92
330
293
100
AcDbEntity
  8
图框
370
    -3
100
AcDbLine
 10
1079.971361203936
 20
504.7132992040975
 30
0.0
 11
1126.928502610363
 21
504.7132992040975
 31
0.0
1001
AcDbBlockRepETag
1070
     1
1071
       91
1005
1D92
  0
MTEXT
  5
1D93
330
293
100
AcDbEntity
  8
图框
100
AcDbMText
 10
1052.893317052817
 20
503.7278365005473
 30
0.0
 40
2.252848170144607
 41
10.83869456467139
 46
7.886094601212101
 71
     5
 72
     5
  1
版本\P{\Fromans|c134;REV.}
 73
     1
 44
1.0
1001
AcDbBlockRepETag
1070
     1
1071
       92
1005
1D93
1001
ACAD
1000
MTEXTBEGIN
1070
    73
1070
     1
1070
    44
1040
1.0
1070
    74
1070
     0
1000
MTEXTEND
1000
ACAD_MTEXT_DEFINED_HEIGHT_BEGIN
1070
    46
1040
7.886094601212101
1000
ACAD_MTEXT_DEFINED_HEIGHT_END
  0
MTEXT
  5
1D94
330
293
100
AcDbEntity
  8
图框
100
AcDbMText
 10
1042.068641683568
 20
503.7278365005473
 30
0.0
 40
2.252848170144607
 41
10.8293484343908
 46
7.886094601212136
 71
     5
 72
     5
  1
比例\P{\Fromans|c134;Scale}
 73
     1
 44
1.0
1001
AcDbBlockRepETag
1070
     1
1071
       93
1005
1D94
1001
ACAD
1000
MTEXTBEGIN
1070
    73
1070
     1
1070
    44
1040
1.0
1070
    74
1070
     0
1000
MTEXTEND
1000
ACAD_MTEXT_DEFINED_HEIGHT_BEGIN
1070
    46
1040
7.886094601212136
1000
ACAD_MTEXT_DEFINED_HEIGHT_END
  0
LINE
  5
1D95
330
293
100
AcDbEntity
  8
图框
370
    -3
100
AcDbLine
 10
1036.653967466372
 20
507.6708838011533
 30
0.0
 11
1079.971361203936
 21
507.6708838011533
 31
0.0
1001
AcDbBlockRepETag
1070
     1
1071
       94
1005
1D95
  0
LINE
  5
1D96
330
293
100
AcDbEntity
  8
图框
370
    -3
100
AcDbLine
 10
1036.653967466372
 20
491.8986945987308
 30
0.0
 11
1079.971361203936
 21
491.8986945987308
 31
0.0
1001
AcDbBlockRepETag
1070
     1
1071
       95
1005
1D96
  0
LINE
  5
1D97
330
293
100
AcDbEntity
  8
图框
370
    -3
100
AcDbLine
 10
1079.971361203936
 20
531.3291676047914
 30
0.0
 11
1079.971361203936
 21
484.0125999975168
 31
0.0
1001
AcDbBlockRepETag
1070
     1
1071
       96
1005
1D97
  0
MTEXT
  5
1D98
330
293
100
AcDbEntity
  8
图框
100
AcDbMText
 10
1042.063968618426
 20
525.4145966538832
 30
0.0
 40
2.252848170144607
 41
10.82000230410933
 46
11.82914190181708
 71
     5
 72
     5
  1
表面处理\P{\Fromans|c134;Finish}
 73
     1
 44
1.0
1001
AcDbBlockRepETag
1070
     1
1071
       97
1005
1D98
1001
ACAD
1000
MTEXTBEGIN
1070
    73
1070
     1
1070
    44
1040
1.0
1070
    74
1070
     0
1000
MTEXTEND
1000
ACAD_MTEXT_DEFINED_HEIGHT_BEGIN
1070
    46
1040
11.82914190181708
1000
ACAD_MTEXT_DEFINED_HEIGHT_END
  0
MTEXT
  5
1D99
330
293
100
AcDbEntity
  8
图框
100
AcDbMText
 10
1042.063968618426
 20
513.5854547520639
 30
0.0
 40
2.252848170144607
 41
10.82000230410933
 46
11.8291419018212
 71
     5
 72
     5
  1
材料\P{\Fromans|c134;Material}
 73
     1
 44
1.0
1001
AcDbBlockRepETag
1070
     1
1071
       98
1005
1D99
1001
ACAD
1000
MTEXTBEGIN
1070
    73
1070
     1
1070
    44
1040
1.0
1070
    74
1070
     0
1000
MTEXTEND
1000
ACAD_MTEXT_DEFINED_HEIGHT_BEGIN
1070
    46
1040
11.8291419018212
1000
ACAD_MTEXT_DEFINED_HEIGHT_END
  0
LINE
  5
1D9A
330
293
100
AcDbEntity
  8
图框
370
    -3
100
AcDbLine
 10
1079.971361203936
 20
522.27220025775
 30
0.0
 11
1126.928502610363
 21
522.27220025775
 31
0.0
1001
AcDbBlockRepETag
1070
     1
1071
       99
1005
1D9A
  0
LINE
  5
1D9B
330
293
100
AcDbEntity
  8
图框
370
    -3
100
AcDbLine
 10
1079.971361203936
 20
513.5854547520641
 30
0.0
 11
1126.928502610363
 21
513.5854547520639
 31
0.0
1001
AcDbBlockRepETag
1070
     1
1071
      100
1005
1D9B
  0
MTEXT
  5
1D9C
330
293
100
AcDbEntity
  8
图框
100
AcDbMText
 10
1086.643735910939
 20
517.9288275049072
 30
0.0
 40
1.958998408821398
 41
13.34474941400573
 46
8.686745505685811
 71
     5
 72
     5
  1
产品代号\P{\Fromans|c134;Part Code}
 73
     1
 44
1.0
1001
AcDbBlockRepETag
1070
     1
1071
      101
1005
1D9C
1001
ACAD
1000
MTEXTBEGIN
1070
    73
1070
     1
1070
    44
1040
1.0
1070
    74
1070
     0
1000
MTEXTEND
1000
ACAD_MTEXT_DEFINED_HEIGHT_BEGIN
1070
    46
1040
8.686745505685811
1000
ACAD_MTEXT_DEFINED_HEIGHT_END
  0
LINE
  5
1D9D
330
293
100
AcDbEntity
  8
图框
370
    -3
100
AcDbLine
 10
946.9285026103634
 20
525.7982263931411
 30
0.0
 11
1036.653967466372
 21
525.7982263931411
 31
0.0
1001
AcDbBlockRepETag
1070
     1
1071
      102
1005
1D9D
  0
LINE
  5
1D9E
330
293
100
AcDbEntity
  8
图框
370
    -3
100
AcDbLine
 10
946.9285026103634
 20
520.2672851814959
 30
0.0
 11
1036.653967466372
 21
520.2672851814959
 31
0.0
1001
AcDbBlockRepETag
1070
     1
1071
      103
1005
1D9E
  0
LINE
  5
1D9F
330
293
100
AcDbEntity
  8
图框
370
    35
100
AcDbLine
 10
946.9285026103634
 20
531.3291676047914
 30
0.0
 11
1126.928502610363
 21
531.3291676047914
 31
0.0
1001
AcDbBlockRepETag
1070
     1
1071
      104
1005
1D9F
  0
LINE
  5
1DA0
330
293
100
AcDbEntity
  8
图框
370
    -3
100
AcDbLine
 10
990.6727612856927
 20
509.2054027581959
 30
0.0
 11
990.6727612856927
 21
484.0347692601515
 31
0.0
1001
AcDbBlockRepETag
1070
     1
1071
      105
1005
1DA0
  0
MTEXT
  5
1DA1
102
{ACAD_XDICTIONARY
360
1DD9
102
}
330
293
100
AcDbEntity
  8
图框
100
AcDbMText
 10
997.1628169651232
 20
499.816589978722
 30
0.0
 40
2.252848170144607
 41
12.98011135886052
 46
6.19230880992475
 71
     5
 72
     5
  1
{\fSimSun|b0|i0|c134|p2;标准化}\PStand.
  7
Romans字体
 73
     1
 44
1.0
1001
AcDbBlockRepETag
1070
     1
1071
      106
1005
1DA1
1001
ACAD
1000
MTEXTBEGIN
1070
    73
1070
     1
1070
    44
1040
1.0
1070
    74
1070
     0
1000
MTEXTEND
1000
ACAD_MTEXT_DEFINED_HEIGHT_BEGIN
1070
    46
1040
6.19230880992475
1000
ACAD_MTEXT_DEFINED_HEIGHT_END
  0
LINE
  5
1DA2
330
293
100
AcDbEntity
  8
图框
370
    -3
100
AcDbLine
 10
975.4103773808022
 20
509.2054027581959
 30
0.0
 11
975.4103773808022
 21
484.0347692601515
 31
0.0
1001
AcDbBlockRepETag
1070
     1
1071
      107
1005
1DA2
  0
MTEXT
  5
1DA3
330
293
100
AcDbEntity
  8
图框
100
AcDbMText
 10
984.5089229802068
 20
511.9708733640202
 30
0.0
 40
2.448748011026752
 41
38.287899328693
 46
5.530941211648832
 71
     5
 72
     5
  1
  变更描述{\Fromans|c134;/Description}
 73
     1
 44
1.0
1001
AcDbBlockRepETag
1070
     1
1071
      108
1005
1DA3
1001
ACAD
1000
MTEXTBEGIN
1070
    73
1070
     1
1070
    44
1040
1.0
1070
    74
1070
     0
1000
MTEXTEND
1000
ACAD_MTEXT_DEFINED_HEIGHT_BEGIN
1070
    46
1040
5.530941211648832
1000
ACAD_MTEXT_DEFINED_HEIGHT_END
  0
MTEXT
  5
1DA4
102
{ACAD_XDICTIONARY
360
1DDB
102
}
330
293
100
AcDbEntity
  8
图框
100
AcDbMText
 10
1012.466086049227
 20
511.9708733640202
 30
0.0
 40
1.958998408821398
 41
17.6264268093469
 46
5.530941211648825
 71
     5
 72
     5
  1
{\fSimSun|b0|i0|c134|p2;签名\P\Fromans|c134;Signature} 
 73
     1
 44
1.0
1001
AcDbBlockRepETag
1070
     1
1071
      109
1005
1DA4
1001
ACAD
1000
MTEXTBEGIN
1070
    73
1070
     1
1070
    44
1040
1.0
1070
    74
1070
     0
1000
MTEXTEND
1000
ACAD_MTEXT_DEFINED_HEIGHT_BEGIN
1070
    46
1040
5.530941211648825
1000
ACAD_MTEXT_DEFINED_HEIGHT_END
  0
MTEXT
  5
1DA5
102
{ACAD_XDICTIONARY
360
1DDD
102
}
330
293
100
AcDbEntity
  8
图框
100
AcDbMText
 10
960.7558556394856
 20
511.9708733640202
 30
0.0
 40
1.958998408821398
 41
9.218235352749283
 46
5.530941211648841
 71
     5
 72
     5
  1
{\fSimSun|b0|i0|c134|p2;处数\P\Fromans|c134;Number }
 73
     1
 44
1.0
1001
AcDbBlockRepETag
1070
     1
1071
      110
1005
1DA5
1001
ACAD
1000
MTEXTBEGIN
1070
    73
1070
     1
1070
    44
1040
1.0
1070
    74
1070
     0
1000
MTEXTEND
1000
ACAD_MTEXT_DEFINED_HEIGHT_BEGIN
1070
    46
1040
5.530941211648841
1000
ACAD_MTEXT_DEFINED_HEIGHT_END
  0
LINE
  5
1DA6
330
293
100
AcDbEntity
  8
图框
370
    -3
100
AcDbLine
 10
946.9285026103634
 20
514.7363439698449
 30
0.0
 11
1036.653967466372
 21
514.7363439698449
 31
0.0
1001
AcDbBlockRepETag
1070
     1
1071
      111
1005
1DA6
  0
LINE
  5
1DA7
330
293
100
AcDbEntity
  8
图框
370
    -3
100
AcDbLine
 10
946.9285026103634
 20
509.2054027581959
 30
0.0
 11
1036.653967466372
 21
509.2054027581959
 31
0.0
1001
AcDbBlockRepETag
1070
     1
1071
      112
1005
1DA7
  0
LINE
  5
1DA8
330
293
100
AcDbEntity
  8
图框
370
    -3
100
AcDbLine
 10
946.9285026103634
 20
502.9127443836848
 30
0.0
 11
1036.653967466372
 21
502.9127443836848
 31
0.0
1001
AcDbBlockRepETag
1070
     1
1071
      113
1005
1DA8
  0
LINE
  5
1DA9
330
293
100
AcDbEntity
  8
图框
370
    -3
100
AcDbLine
 10
946.9285026103634
 20
496.620086009173
 30
0.0
 11
1036.653967466372
 21
496.620086009173
 31
0.0
1001
AcDbBlockRepETag
1070
     1
1071
      114
1005
1DA9
  0
LINE
  5
1DAA
330
293
100
AcDbEntity
  8
图框
370
    35
380
     1
100
AcDbLine
 10
946.9285026103634
 20
531.3291676047914
 30
0.0
 11
946.9285026103634
 21
484.0347692601515
 31
0.0
1001
AcDbBlockRepETag
1070
     1
1071
      115
1005
1DAA
  0
LINE
  5
1DAB
330
293
100
AcDbEntity
  8
图框
370
    -3
100
AcDbLine
 10
1021.301636813399
 20
531.3291676047914
 30
0.0
 11
1021.301636813399
 21
484.0347692601515
 31
0.0
1001
AcDbBlockRepETag
1070
     1
1071
      116
1005
1DAB
  0
LINE
  5
1DAC
330
293
100
AcDbEntity
  8
图框
370
    -3
100
AcDbLine
 10
1003.652872644553
 20
531.3291676047914
 30
0.0
 11
1003.652872644553
 21
484.0347692601515
 31
0.0
1001
AcDbBlockRepETag
1070
     1
1071
      117
1005
1DAC
  0
LINE
  5
1DAD
330
293
100
AcDbEntity
  8
图框
370
    -3
100
AcDbLine
 10
965.3649733158603
 20
531.3291676047914
 30
0.0
 11
965.3649733158603
 21
509.2054027581959
 31
0.0
1001
AcDbBlockRepETag
1070
     1
1071
      118
1005
1DAD
  0
LINE
  5
1DAE
330
293
100
AcDbEntity
  8
图框
370
    -3
100
AcDbLine
 10
956.1467379631109
 20
531.3291676047914
 30
0.0
 11
956.1467379631109
 21
509.2054027581959
 31
0.0
1001
AcDbBlockRepETag
1070
     1
1071
      119
1005
1DAE
  0
MTEXT
  5
1DAF
102
{ACAD_XDICTIONARY
360
1DDF
102
}
330
293
100
AcDbEntity
  8
图框
100
AcDbMText
 10
951.537620286737
 20
511.9708733640202
 30
0.0
 40
1.958998408821398
 41
9.218235352747692
 46
5.530941211648832
 71
     5
 72
     5
  1
{\fSimSun|b0|i0|c134|p2;标记\P\Fromans|c134;Mark}
 73
     1
 44
1.0
1001
AcDbBlockRepETag
1070
     1
1071
      120
1005
1DAF
1001
ACAD
1000
MTEXTBEGIN
1070
    73
1070
     1
1070
    44
1040
1.0
1070
    74
1070
     0
1000
MTEXTEND
1000
ACAD_MTEXT_DEFINED_HEIGHT_BEGIN
1070
    46
1040
5.530941211648832
1000
ACAD_MTEXT_DEFINED_HEIGHT_END
  0
MTEXT
  5
1DB0
102
{ACAD_XDICTIONARY
360
1DE1
102
}
330
293
100
AcDbEntity
  8
图框
100
AcDbMText
 10
953.4185582897936
 20
493.4737568219182
 30
0.0
 40
2.252848170144607
 41
12.98011135886041
 46
6.292658374510382
 71
     5
 72
     5
  1
{\fSimSun|b0|i0|c134|p2;审核\P\Fromans|c134;Checked}
 73
     1
 44
1.0
1001
AcDbBlockRepETag
1070
     1
1071
      121
1005
1DB0
1001
ACAD
1000
MTEXTBEGIN
1070
    73
1070
     1
1070
    44
1040
1.0
1070
    74
1070
     0
1000
MTEXTEND
1000
ACAD_MTEXT_DEFINED_HEIGHT_BEGIN
1070
    46
1040
6.292658374510382
1000
ACAD_MTEXT_DEFINED_HEIGHT_END
  0
MTEXT
  5
1DB1
102
{ACAD_XDICTIONARY
360
1DE3
102
}
330
293
100
AcDbEntity
  8
图框
100
AcDbMText
 10
953.4185582897936
 20
499.8775635376777
 30
0.0
 40
2.252848170144607
 41
12.98011135886041
 46
6.070361692014189
 71
     5
 72
     5
  1
{\fSimSun|b0|i0|c134|p2;绘图\P\Fromans|c134;Drawn\Ftxt|c134; }
 73
     1
 44
1.0
1001
AcDbBlockRepETag
1070
     1
1071
      122
1005
1DB1
1001
ACAD
1000
MTEXTBEGIN
1070
    73
1070
     1
1070
    44
1040
1.0
1070
    74
1070
     0
1000
MTEXTEND
1000
ACAD_MTEXT_DEFINED_HEIGHT_BEGIN
1070
    46
1040
6.070361692014189
1000
ACAD_MTEXT_DEFINED_HEIGHT_END
  0
ARC
  5
1DB2
330
293
100
AcDbEntity
  8
图框
 62
     4
370
    35
100
AcDbCircle
 10
1086.900627017421
 20
490.0179944151195
 30
0.0
 40
4.063310408393665
100
AcDbArc
 50
18.95237904564806
 51
161.0476209543519
1001
AcDbBlockRepETag
1070
     1
1071
      123
1005
1DB2
  0
ARC
  5
1DB3
330
293
100
AcDbEntity
  8
图框
 62
     4
370
    35
100
AcDbCircle
 10
1086.900627017421
 20
490.0179944151195
 30
0.0
 40
4.063310408393665
100
AcDbArc
 50
198.952379045648
 51
341.0476209543519
1001
AcDbBlockRepETag
1070
     1
1071
      124
1005
1DB3
  0
LINE
  5
1DB4
330
293
100
AcDbEntity
  8
图框
 62
     4
370
    35
100
AcDbLine
 10
1083.057593369548
 20
488.6983035966752
 30
0.0
 11
1090.74366066529
 21
488.6983035966752
 31
0.0
1001
AcDbBlockRepETag
1070
     1
1071
      125
1005
1DB4
  0
LINE
  5
1DB5
330
293
100
AcDbEntity
  8
图框
 62
     4
370
    35
100
AcDbLine
 10
1083.057593369548
 20
491.3376852335652
 30
0.0
 11
1090.74366066529
 21
491.3376852335652
 31
0.0
1001
AcDbBlockRepETag
1070
     1
1071
      126
1005
1DB5
  0
MTEXT
  5
1DB6
330
293
100
AcDbEntity
  8
图框
 62
     1
370
    20
100
AcDbMText
 10
1083.034582879669
 20
491.0506288081688
 30
0.0
 40
2.005930044038334
 41
5.047240019334847
 46
0.0
 71
     1
 72
     5
  1
{\fArial|b0|i0|c0|p34;W}
  7
Chinese
 73
     1
 44
1.0
1001
AcDbBlockRepETag
1070
     1
1071
      127
1005
1DB6
1001
ACAD
1000
MTEXTBEGIN
1070
    73
1070
     1
1070
    44
1040
1.0
1070
    74
1070
     0
1000
MTEXTEND
  0
LINE
  5
1DB7
330
293
100
AcDbEntity
  8
图框
370
    -3
100
AcDbLine
 10
946.9285026103634
 20
490.327427634663
 30
0.0
 11
1036.653967466372
 21
490.327427634663
 31
0.0
1001
AcDbBlockRepETag
1070
     1
1071
      128
1005
1DB7
  0
LINE
  5
1DB8
330
293
100
AcDbEntity
  8
图框
370
    -3
100
AcDbLine
 10
959.9086139692238
 20
509.2054027581959
 30
0.0
 11
959.9086139692238
 21
484.0347692601515
 31
0.0
1001
AcDbBlockRepETag
1070
     1
1071
      129
1005
1DB8
  0
MTEXT
  5
1DB9
330
293
100
AcDbEntity
  8
图框
100
AcDbMText
 10
967.6594956750129
 20
506.0590735709403
 30
0.0
 40
2.252848170144607
 41
15.50176341157869
 46
6.292658374511246
 71
     5
 72
     5
  1
姓名{\Fromans|c134;/Name\Ftxt|c134; }
 73
     1
 44
1.0
1001
AcDbBlockRepETag
1070
     1
1071
      130
1005
1DB9
1001
ACAD
1000
MTEXTBEGIN
1070
    73
1070
     1
1070
    44
1040
1.0
1070
    74
1070
     0
1000
MTEXTEND
1000
ACAD_MTEXT_DEFINED_HEIGHT_BEGIN
1070
    46
1040
6.292658374511246
1000
ACAD_MTEXT_DEFINED_HEIGHT_END
  0
MTEXT
  5
1DBA
330
293
100
AcDbEntity
  8
图框
100
AcDbMText
 10
983.0415693332477
 20
506.0590735709403
 30
0.0
 40
2.252848170144607
 41
15.26238390489042
 46
6.2926583745112
 71
     5
 72
     5
  1
日期{\Fromans|c134;/Date}
 73
     1
 44
1.0
1001
AcDbBlockRepETag
1070
     1
1071
      131
1005
1DBA
1001
ACAD
1000
MTEXTBEGIN
1070
    73
1070
     1
1070
    44
1040
1.0
1070
    74
1070
     0
1000
MTEXTEND
1000
ACAD_MTEXT_DEFINED_HEIGHT_BEGIN
1070
    46
1040
6.2926583745112
1000
ACAD_MTEXT_DEFINED_HEIGHT_END
  0
LINE
  5
1DBB
330
293
100
AcDbEntity
  8
图框
370
    -3
100
AcDbLine
 10
946.9285026103634
 20
509.2054027581959
 30
0.0
 11
959.9086139692238
 21
502.9127443836848
 31
0.0
1001
AcDbBlockRepETag
1070
     1
1071
      132
1005
1DBB
  0
MTEXT
  5
1DBC
330
293
100
AcDbEntity
  8
图框
100
AcDbMText
 10
1012.931405110086
 20
506.0185715840725
 30
0.0
 40
2.252848170144607
 41
16.93492221063566
 46
0.0
 71
     5
 72
     5
  1
姓名{\Fromans|c134;/Name}
 73
     1
 44
1.0
1001
AcDbBlockRepETag
1070
     1
1071
      133
1005
1DBC
1001
ACAD
1000
MTEXTBEGIN
1070
    73
1070
     1
1070
    44
1040
1.0
1070
    74
1070
     0
1000
MTEXTEND
  0
MTEXT
  5
1DBD
330
293
100
AcDbEntity
  8
图框
100
AcDbMText
 10
1028.977802139886
 20
506.0590735709403
 30
0.0
 40
2.252848170144607
 41
15.35233065297283
 46
6.292658374511256
 71
     5
 72
     5
  1
日期{\Fromans|c134;/Date}
 73
     1
 44
1.0
1001
AcDbBlockRepETag
1070
     1
1071
      134
1005
1DBD
1001
ACAD
1000
MTEXTBEGIN
1070
    73
1070
     1
1070
    44
1040
1.0
1070
    74
1070
     0
1000
MTEXTEND
1000
ACAD_MTEXT_DEFINED_HEIGHT_BEGIN
1070
    46
1040
6.292658374511256
1000
ACAD_MTEXT_DEFINED_HEIGHT_END
  0
LINE
  5
1DBE
330
293
100
AcDbEntity
  8
图框
370
    -3
100
AcDbLine
 10
1003.652872644553
 20
502.9127443836848
 30
0.0
 11
990.6727612856927
 21
509.2054027581959
 31
0.0
1001
AcDbBlockRepETag
1070
     1
1071
      135
1005
1DBE
  0
MTEXT
  5
1DBF
102
{ACAD_XDICTIONARY
360
1DE5
102
}
330
293
100
AcDbEntity
  8
图框
100
AcDbMText
 10
997.1628169651232
 20
487.1810984474071
 30
0.0
 40
2.252848170144607
 41
12.98011135886052
 46
6.292658374511517
 71
     5
 72
     5
  1
{\fSimSun|b0|i0|c134|p2;批准\P\Fromans|c134;Approved}
 73
     1
 44
1.0
1001
AcDbBlockRepETag
1070
     1
1071
      136
1005
1DBF
1001
ACAD
1000
MTEXTBEGIN
1070
    73
1070
     1
1070
    44
1040
1.0
1070
    74
1070
     0
1000
MTEXTEND
1000
ACAD_MTEXT_DEFINED_HEIGHT_BEGIN
1070
    46
1040
6.292658374511517
1000
ACAD_MTEXT_DEFINED_HEIGHT_END
  0
MTEXT
  5
1DC0
102
{ACAD_XDICTIONARY
360
1DE7
102
}
330
293
100
AcDbEntity
  8
图框
100
AcDbMText
 10
953.4185582897936
 20
487.1810984474071
 30
0.0
 40
2.252848170144607
 41
12.98011135886041
 46
6.292658374511495
 71
     5
 72
     5
  1
{\fSimSun|b0|i0|c134|p2;工艺\P\Fromans|c134;Process}
 73
     1
 44
1.0
1001
AcDbBlockRepETag
1070
     1
1071
      137
1005
1DC0
1001
ACAD
1000
MTEXTBEGIN
1070
    73
1070
     1
1070
    44
1040
1.0
1070
    74
1070
     0
1000
MTEXTEND
1000
ACAD_MTEXT_DEFINED_HEIGHT_BEGIN
1070
    46
1040
6.292658374511495
1000
ACAD_MTEXT_DEFINED_HEIGHT_END
  0
MTEXT
  5
1DC1
102
{ACAD_XDICTIONARY
360
1DE9
102
}
330
293
100
AcDbEntity
  8
图框
100
AcDbMText
 10
1028.977802139886
 20
511.8287965307664
 30
0.0
 40
1.958998408821398
 41
15.3523306529728
 46
5.246787545140668
 71
     5
 72
     5
  1
{\fSimSun|b0|i0|c134|p2;日期\P\Fromans|c134;Date}
 73
     1
 44
1.0
1001
AcDbBlockRepETag
1070
     1
1071
      138
1005
1DC1
1001
ACAD
1000
MTEXTBEGIN
1070
    73
1070
     1
1070
    44
1040
1.0
1070
    74
1070
     0
1000
MTEXTEND
1000
ACAD_MTEXT_DEFINED_HEIGHT_BEGIN
1070
    46
1040
5.246787545140668
1000
ACAD_MTEXT_DEFINED_HEIGHT_END
  0
MTEXT
  5
1DC2
330
293
100
AcDbEntity
  8
图框
100
AcDbMText
 10
1086.643735910939
 20
509.1493769780809
 30
0.0
 40
2.154898249703542
 41
13.34474941400573
 46
8.87215554796615
 71
     5
 72
     5
  1
产品料号\P{\Fromans|c134;Part No.}
 73
     1
 44
1.0
1001
AcDbBlockRepETag
1070
     1
1071
      139
1005
1DC2
1001
ACAD
1000
MTEXTBEGIN
1070
    73
1070
     1
1070
    44
1040
1.0
1070
    74
1070
     0
1000
MTEXTEND
1000
ACAD_MTEXT_DEFINED_HEIGHT_BEGIN
1070
    46
1040
8.87215554796615
1000
ACAD_MTEXT_DEFINED_HEIGHT_END
  0
MTEXT
  5
1DC3
330
293
100
AcDbEntity
  8
图框
100
AcDbMText
 10
1086.643735910939
 20
500.2775205517163
 30
0.0
 40
1.958998408821398
 41
13.34474941400573
 46
8.871557304763321
 71
     5
 72
     5
  1
产品名称\P{\Fromans|c134;Part Name}
 73
     1
 44
1.0
1001
AcDbBlockRepETag
1070
     1
1071
      140
1005
1DC3
1001
ACAD
1000
MTEXTBEGIN
1070
    73
1070
     1
1070
    44
1040
1.0
1070
    74
1070
     0
1000
MTEXTEND
1000
ACAD_MTEXT_DEFINED_HEIGHT_BEGIN
1070
    46
1040
8.871557304763321
1000
ACAD_MTEXT_DEFINED_HEIGHT_END
  0
LINE
  5
1DC4
330
293
100
AcDbEntity
  8
图框
 62
     1
370
    18
100
AcDbLine
 10
833.4128518455365
 20
690.5347692601515
 30
0.0
 11
833.4128518455365
 21
480.5347692601515
 31
0.0
1001
AcDbBlockRepETag
1070
     1
1071
      141
1005
1DC4
  0
LINE
  5
1DC5
330
293
100
AcDbEntity
  8
图框
 62
     1
370
    18
100
AcDbLine
 10
833.4128518455365
 20
480.5347692601515
 30
0.0
 11
1130.411601781236
 21
480.5347692601515
 31
0.0
1001
AcDbBlockRepETag
1070
     1
1071
      142
1005
1DC5
  0
LINE
  5
1DC6
330
293
100
AcDbEntity
  8
图框
 62
     1
370
    18
100
AcDbLine
 10
833.4128518455365
 20
690.5347692601515
 30
0.0
 11
1130.411601781236
 21
690.5347692601515
 31
0.0
1001
AcDbBlockRepETag
1070
     1
1071
      143
1005
1DC6
  0
LINE
  5
1DC7
330
293
100
AcDbEntity
  8
图框
 62
     1
370
    18
100
AcDbLine
 10
1130.411601781236
 20
480.5347692601515
 30
0.0
 11
1130.411601781236
 21
690.5347692601515
 31
0.0
1001
AcDbBlockRepETag
1070
     1
1071
      144
1005
1DC7
  0
LINE
  5
1DC8
330
293
100
AcDbEntity
  8
图框
370
    18
100
AcDbLine
 10
836.9128518455394
 20
686.7901958362482
 30
0.0
 11
861.5351874539182
 21
686.7901958362482
 31
0.0
1001
AcDbBlockRepETag
1070
     1
1071
      145
1005
1DC8
  0
LINE
  5
1DC9
330
293
100
AcDbEntity
  8
图框
370
    50
100
AcDbLine
 10
1126.928502610363
 20
484.3410054693078
 30
0.0
 11
1126.928502610363
 21
675.5347692601515
 31
0.0
1001
AcDbBlockRepETag
1070
     1
1071
      146
1005
1DC9
  0
MTEXT
  5
1DCA
330
293
100
AcDbEntity
  8
图框
 62
     3
100
AcDbMText
 10
1052.897990117958
 20
495.8417418993364
 30
0.0
 40
2.985513575034151
 41
10.82934843439114
 46
7.886094601211307
 71
     5
 72
     5
  1
V1.2
  7
Romans字体
 73
     1
 44
1.0
1001
AcDbBlockRepETag
1070
     1
1071
      147
1005
1DCA
1001
ACAD
1000
MTEXTBEGIN
1070
    73
1070
     1
1070
    44
1040
1.0
1070
    74
1070
     0
1000
MTEXTEND
1000
ACAD_MTEXT_DEFINED_HEIGHT_BEGIN
1070
    46
1040
7.886094601211307
1000
ACAD_MTEXT_DEFINED_HEIGHT_END
  0
LINE
  5
1DCB
330
293
100
AcDbEntity
  8
图框
 62
     6
100
AcDbLine
 10
1126.911601781236
 20
531.714049199969
 30
0.0
 11
1130.411601781236
 21
531.714049199969
 31
0.0
1001
AcDbBlockRepETag
1070
     1
1071
      148
1005
1DCB
  0
ENDBLK
  5
32B
330
293
100
AcDbEntity
  8
0
100
AcDbBlockEnd
  0
BLOCK
  5
10E1
330
10E0
100
AcDbEntity
  8
0
100
AcDbBlockBegin
  2
*D2
 70
     1
 10
0.0
 20
0.0
 30
0.0
  3
*D2
  1

  0
LINE
  5
15D9
330
10E0
100
AcDbEntity
  8
DIM
 62
     6
370
    -2
100
AcDbLine
 10
903.5417545514476
 20
211.0029109317214
 30
0.0
 11
903.5417545514476
 21
202.2875310496334
 31
0.0
  0
LINE
  5
15DA
330
10E0
100
AcDbEntity
  8
DIM
 62
     6
370
    -2
100
AcDbLine
 10
878.8417545514471
 20
209.0441076584478
 30
0.0
 11
878.8417545514471
 21
202.2875310496334
 31
0.0
  0
LINE
  5
15DB
330
10E0
100
AcDbEntity
  8
DIM
 62
     1
370
    -2
100
AcDbLine
 10
902.3417545514474
 20
202.6875310496334
 30
0.0
 11
880.0417545514473
 21
202.6875310496334
 31
0.0
  0
SOLID
  5
15DC
330
10E0
100
AcDbEntity
  8
DIM
 62
     1
100
AcDbTrace
 10
902.3417545514474
 20
202.8875310496334
 30
0.0
 11
902.3417545514474
 21
202.4875310496335
 31
0.0
 12
903.5417545514476
 22
202.6875310496334
 32
0.0
 13
903.5417545514476
 23
202.6875310496334
 33
0.0
  0
SOLID
  5
15DD
330
10E0
100
AcDbEntity
  8
DIM
 62
     1
100
AcDbTrace
 10
880.0417545514473
 20
202.8875310496334
 30
0.0
 11
880.0417545514473
 21
202.4875310496335
 31
0.0
 12
878.8417545514471
 22
202.6875310496334
 32
0.0
 13
878.8417545514471
 23
202.6875310496334
 33
0.0
  0
MTEXT
  5
15DE
330
10E0
100
AcDbEntity
  8
DIM
 62
     4
100
AcDbMText
 10
891.1917545514473
 20
203.8875310496334
 30
0.0
 40
1.6
 41
0.0
 46
0.0
 71
     5
 72
     1
  1
\A1;24.7
  7
Romans字体
 73
     1
 44
1.0
1001
ACAD
1000
MTEXTBEGIN
1070
    73
1070
     1
1070
    44
1040
1.0
1070
    74
1070
     0
1000
MTEXTEND
  0
POINT
  5
15DF
330
10E0
100
AcDbEntity
  8
Defpoints
 62
     0
100
AcDbPoint
 10
903.5417545514476
 20
211.1629109317214
 30
0.0
  0
POINT
  5
15E0
330
10E0
100
AcDbEntity
  8
Defpoints
 62
     0
100
AcDbPoint
 10
878.8417545514471
 20
209.2041076584478
 30
0.0
  0
POINT
  5
15E1
330
10E0
100
AcDbEntity
  8
Defpoints
 62
     0
100
AcDbPoint
 10
878.8417545514471
 20
202.6875310496334
 30
0.0
  0
ENDBLK
  5
10E2
330
10E0
100
AcDbEntity
  8
0
100
AcDbBlockEnd
  0
BLOCK
  5
10ED
330
10EC
100
AcDbEntity
  8
0
100
AcDbBlockBegin
  2
*D3
 70
     1
 10
0.0
 20
0.0
 30
0.0
  3
*D3
  1

  0
LINE
  5
157D
330
10EC
100
AcDbEntity
  8
DIM
 62
     6
370
    -2
100
AcDbLine
 10
902.2017545514467
 20
210.0091076584481
 30
0.0
 11
906.8534529973137
 21
210.0091076584481
 31
0.0
  0
LINE
  5
157E
330
10EC
100
AcDbEntity
  8
DIM
 62
     6
370
    -2
100
AcDbLine
 10
902.2017545514467
 20
211.5991076584483
 30
0.0
 11
906.8534529973137
 21
211.5991076584483
 31
0.0
  0
LINE
  5
157F
330
10EC
100
AcDbEntity
  8
DIM
 62
     1
370
    -2
100
AcDbLine
 10
906.4534529973137
 20
208.8091076584481
 30
0.0
 11
906.4534529973137
 21
207.6091076584481
 31
0.0
  0
LINE
  5
1580
330
10EC
100
AcDbEntity
  8
DIM
 62
     1
370
    -2
100
AcDbLine
 10
906.4534529973137
 20
212.7991076584482
 30
0.0
 11
906.4534529973137
 21
218.3991076584483
 31
0.0
  0
SOLID
  5
1581
330
10EC
100
AcDbEntity
  8
DIM
 62
     1
100
AcDbTrace
 10
906.2534529973136
 20
208.8091076584481
 30
0.0
 11
906.6534529973138
 21
208.8091076584481
 31
0.0
 12
906.4534529973137
 22
210.0091076584481
 32
0.0
 13
906.4534529973137
 23
210.0091076584481
 33
0.0
  0
SOLID
  5
1582
330
10EC
100
AcDbEntity
  8
DIM
 62
     1
100
AcDbTrace
 10
906.2534529973136
 20
212.7991076584482
 30
0.0
 11
906.6534529973138
 21
212.7991076584482
 31
0.0
 12
906.4534529973137
 22
211.5991076584483
 32
0.0
 13
906.4534529973137
 23
211.5991076584483
 33
0.0
  0
MTEXT
  5
1583
330
10EC
100
AcDbEntity
  8
DIM
 62
     4
100
AcDbMText
 10
905.2534529973137
 20
216.1991076584484
 30
0.0
 40
1.6
 41
0.0
 46
0.0
 71
     5
 72
     1
  1
\A1;%%C1.6
  7
Romans字体
 11
0.0000000000000001
 21
1.0
 31
0.0
 73
     1
 44
1.0
1001
ACAD
1000
MTEXTBEGIN
1070
    73
1070
     1
1070
    44
1040
1.0
1070
    74
1070
     0
1000
MTEXTEND
  0
POINT
  5
1584
330
10EC
100
AcDbEntity
  8
Defpoints
 62
     0
100
AcDbPoint
 10
902.0417545514467
 20
210.0091076584481
 30
0.0
  0
POINT
  5
1585
330
10EC
100
AcDbEntity
  8
Defpoints
 62
     0
100
AcDbPoint
 10
902.0417545514467
 20
211.5991076584483
 30
0.0
  0
POINT
  5
1586
330
10EC
100
AcDbEntity
  8
Defpoints
 62
     0
100
AcDbPoint
 10
906.4534529973137
 20
211.5991076584483
 30
0.0
  0
ENDBLK
  5
10EE
330
10EC
100
AcDbEntity
  8
0
100
AcDbBlockEnd
  0
BLOCK
  5
10FA
330
10F9
100
AcDbEntity
  8
0
100
AcDbBlockBegin
  2
*D4
 70
     1
 10
0.0
 20
0.0
 30
0.0
  3
*D4
  1

  0
LINE
  5
1521
330
10F9
100
AcDbEntity
  8
DIM
 62
     6
370
    -2
100
AcDbLine
 10
878.6817545514471
 20
209.2041076584478
 30
0.0
 11
874.2310458034737
 21
209.2041076584478
 31
0.0
  0
LINE
  5
1522
330
10F9
100
AcDbEntity
  8
DIM
 62
     6
370
    -2
100
AcDbLine
 10
878.6817545514471
 20
212.4041076584485
 30
0.0
 11
874.2310458034737
 21
212.4041076584485
 31
0.0
  0
LINE
  5
1523
330
10F9
100
AcDbEntity
  8
DIM
 62
     1
370
    -2
100
AcDbLine
 10
874.6310458034736
 20
210.4041076584478
 30
0.0
 11
874.6310458034736
 21
211.2041076584486
 31
0.0
  0
LINE
  5
1524
330
10F9
100
AcDbEntity
  8
DIM
 62
     1
370
    -2
100
AcDbLine
 10
874.6310458034736
 20
212.4041076584485
 30
0.0
 11
874.6310458034736
 21
218.0041076584486
 31
0.0
  0
SOLID
  5
1525
330
10F9
100
AcDbEntity
  8
DIM
 62
     1
100
AcDbTrace
 10
874.4310458034734
 20
210.4041076584478
 30
0.0
 11
874.8310458034737
 21
210.4041076584478
 31
0.0
 12
874.6310458034736
 22
209.2041076584478
 32
0.0
 13
874.6310458034736
 23
209.2041076584478
 33
0.0
  0
SOLID
  5
1526
330
10F9
100
AcDbEntity
  8
DIM
 62
     1
100
AcDbTrace
 10
874.4310458034734
 20
211.2041076584486
 30
0.0
 11
874.8310458034737
 21
211.2041076584486
 31
0.0
 12
874.6310458034736
 22
212.4041076584485
 32
0.0
 13
874.6310458034736
 23
212.4041076584485
 33
0.0
  0
MTEXT
  5
1527
330
10F9
100
AcDbEntity
  8
DIM
 62
     4
100
AcDbMText
 10
873.4310458034737
 20
215.8041076584487
 30
0.0
 40
1.6
 41
0.0
 46
0.0
 71
     5
 72
     1
  1
\A1;%%C3.2
  7
Romans字体
 11
0.0000000000000001
 21
1.0
 31
0.0
 73
     1
 44
1.0
1001
ACAD
1000
MTEXTBEGIN
1070
    73
1070
     1
1070
    44
1040
1.0
1070
    74
1070
     0
1000
MTEXTEND
  0
POINT
  5
1528
330
10F9
100
AcDbEntity
  8
Defpoints
 62
     0
100
AcDbPoint
 10
878.8417545514471
 20
209.2041076584478
 30
0.0
  0
POINT
  5
1529
330
10F9
100
AcDbEntity
  8
Defpoints
 62
     0
100
AcDbPoint
 10
878.8417545514471
 20
212.4041076584485
 30
0.0
  0
POINT
  5
152A
330
10F9
100
AcDbEntity
  8
Defpoints
 62
     0
100
AcDbPoint
 10
874.6310458034736
 20
212.4041076584485
 30
0.0
  0
ENDBLK
  5
10FB
330
10F9
100
AcDbEntity
  8
0
100
AcDbBlockEnd
  0
BLOCK
  5
1107
330
1106
100
AcDbEntity
  8
0
100
AcDbBlockBegin
  2
*D5
 70
     1
 10
0.0
 20
0.0
 30
0.0
  3
*D5
  1

  0
LINE
  5
152B
330
1106
100
AcDbEntity
  8
DIM
 62
     6
370
    -2
100
AcDbLine
 10
878.9817545514473
 20
211.5291071665502
 30
0.0
 11
876.6782533342805
 21
211.5291071665502
 31
0.0
  0
LINE
  5
152C
330
1106
100
AcDbEntity
  8
DIM
 62
     6
370
    -2
100
AcDbLine
 10
878.9817545514473
 20
210.0791071665494
 30
0.0
 11
876.6782533342805
 21
210.0791071665494
 31
0.0
  0
LINE
  5
152D
330
1106
100
AcDbEntity
  8
DIM
 62
     1
370
    -2
100
AcDbLine
 10
877.0782533342806
 20
208.8791071665494
 30
0.0
 11
877.0782533342806
 21
207.6791071665494
 31
0.0
  0
LINE
  5
152E
330
1106
100
AcDbEntity
  8
DIM
 62
     1
370
    -2
100
AcDbLine
 10
877.0782533342806
 20
212.7291071665502
 30
0.0
 11
877.0782533342806
 21
216.5005357379788
 31
0.0
  0
SOLID
  5
152F
330
1106
100
AcDbEntity
  8
DIM
 62
     1
100
AcDbTrace
 10
876.8782533342804
 20
208.8791071665494
 30
0.0
 11
877.2782533342805
 21
208.8791071665494
 31
0.0
 12
877.0782533342806
 22
210.0791071665494
 32
0.0
 13
877.0782533342806
 23
210.0791071665494
 33
0.0
  0
SOLID
  5
1530
330
1106
100
AcDbEntity
  8
DIM
 62
     1
100
AcDbTrace
 10
876.8782533342804
 20
212.7291071665502
 30
0.0
 11
877.2782533342805
 21
212.7291071665502
 31
0.0
 12
877.0782533342806
 22
211.5291071665502
 32
0.0
 13
877.0782533342806
 23
211.5291071665502
 33
0.0
  0
MTEXT
  5
1531
330
1106
100
AcDbEntity
  8
DIM
 62
     4
100
AcDbMText
 10
875.8782533342804
 20
215.2148214522646
 30
0.0
 40
1.6
 41
0.0
 46
0.0
 71
     5
 72
     1
  1
\A1;%%Cd
  7
Romans字体
 11
0.0000000000000001
 21
1.0
 31
0.0
 73
     1
 44
1.0
1001
ACAD
1000
MTEXTBEGIN
1070
    73
1070
     1
1070
    44
1040
1.0
1070
    74
1070
     0
1000
MTEXTEND
  0
POINT
  5
1532
330
1106
100
AcDbEntity
  8
Defpoints
 62
     0
100
AcDbPoint
 10
879.1417545514473
 20
211.5291071665502
 30
0.0
  0
POINT
  5
1533
330
1106
100
AcDbEntity
  8
Defpoints
 62
     0
100
AcDbPoint
 10
879.1417545514473
 20
210.0791071665494
 30
0.0
  0
POINT
  5
1534
330
1106
100
AcDbEntity
  8
Defpoints
 62
     0
100
AcDbPoint
 10
877.0782533342806
 20
210.0791071665494
 30
0.0
  0
ENDBLK
  5
1108
330
1106
100
AcDbEntity
  8
0
100
AcDbBlockEnd
  0
BLOCK
  5
1114
330
1113
100
AcDbEntity
  8
0
100
AcDbBlockBegin
  2
*D6
 70
     1
 10
0.0
 20
0.0
 30
0.0
  3
*D6
  1

  0
LINE
  5
1535
330
1113
100
AcDbEntity
  8
DIM
 62
     6
370
    -2
100
AcDbLine
 10
882.001754551447
 20
212.3041076584482
 30
0.0
 11
883.4950771061205
 21
212.3041076584482
 31
0.0
  0
LINE
  5
1536
330
1113
100
AcDbEntity
  8
DIM
 62
     6
370
    -2
100
AcDbLine
 10
882.001754551447
 20
209.3041076584482
 30
0.0
 11
883.4950771061205
 21
209.3041076584482
 31
0.0
  0
LINE
  5
1537
330
1113
100
AcDbEntity
  8
DIM
 62
     1
370
    -2
100
AcDbLine
 10
883.0950771061209
 20
208.1041076584482
 30
0.0
 11
883.0950771061209
 21
206.9041076584482
 31
0.0
  0
LINE
  5
1538
330
1113
100
AcDbEntity
  8
DIM
 62
     1
370
    -2
100
AcDbLine
 10
883.0950771061209
 20
213.5041076584482
 30
0.0
 11
883.0950771061209
 21
217.5326790870196
 31
0.0
  0
SOLID
  5
1539
330
1113
100
AcDbEntity
  8
DIM
 62
     1
100
AcDbTrace
 10
882.8950771061206
 20
208.1041076584482
 30
0.0
 11
883.2950771061208
 21
208.1041076584482
 31
0.0
 12
883.0950771061209
 22
209.3041076584482
 32
0.0
 13
883.0950771061209
 23
209.3041076584482
 33
0.0
  0
SOLID
  5
153A
330
1113
100
AcDbEntity
  8
DIM
 62
     1
100
AcDbTrace
 10
882.8950771061206
 20
213.5041076584482
 30
0.0
 11
883.2950771061208
 21
213.5041076584482
 31
0.0
 12
883.0950771061209
 22
212.3041076584482
 32
0.0
 13
883.0950771061209
 23
212.3041076584482
 33
0.0
  0
MTEXT
  5
153B
330
1113
100
AcDbEntity
  8
DIM
 62
     4
100
AcDbMText
 10
881.8950771061206
 20
216.1612505155912
 30
0.0
 40
1.6
 41
0.0
 46
0.0
 71
     5
 72
     1
  1
\A1;%%CD
  7
Romans字体
 11
0.0000000000000001
 21
1.0
 31
0.0
 73
     1
 44
1.0
1001
ACAD
1000
MTEXTBEGIN
1070
    73
1070
     1
1070
    44
1040
1.0
1070
    74
1070
     0
1000
MTEXTEND
  0
POINT
  5
153C
330
1113
100
AcDbEntity
  8
Defpoints
 62
     0
100
AcDbPoint
 10
881.8417545514471
 20
212.3041076584482
 30
0.0
  0
POINT
  5
153D
330
1113
100
AcDbEntity
  8
Defpoints
 62
     0
100
AcDbPoint
 10
881.8417545514471
 20
209.3041076584482
 30
0.0
  0
POINT
  5
153E
330
1113
100
AcDbEntity
  8
Defpoints
 62
     0
100
AcDbPoint
 10
883.0950771061209
 20
209.3041076584482
 30
0.0
  0
ENDBLK
  5
1115
330
1113
100
AcDbEntity
  8
0
100
AcDbBlockEnd
  0
BLOCK
  5
1121
330
1120
100
AcDbEntity
  8
0
100
AcDbBlockBegin
  2
*D7
 70
     1
 10
0.0
 20
0.0
 30
0.0
  3
*D7
  1

  0
LINE
  5
1692
330
1120
100
AcDbEntity
  8
DIM
 62
     6
370
    -2
100
AcDbLine
 10
878.8417545514471
 20
207.8555763199533
 30
0.0
 11
878.8417545514471
 21
205.0087728739413
 31
0.0
  0
LINE
  5
1693
330
1120
100
AcDbEntity
  8
DIM
 62
     6
370
    -2
100
AcDbLine
 10
884.8417545514472
 20
210.1780258494412
 30
0.0
 11
884.8417545514472
 21
205.0087728739413
 31
0.0
  0
LINE
  5
1694
330
1120
100
AcDbEntity
  8
DIM
 62
     1
370
    -2
100
AcDbLine
 10
880.0417545514473
 20
205.4087728739413
 30
0.0
 11
883.6417545514471
 21
205.4087728739413
 31
0.0
  0
SOLID
  5
1695
330
1120
100
AcDbEntity
  8
DIM
 62
     1
100
AcDbTrace
 10
880.0417545514473
 20
205.6087728739413
 30
0.0
 11
880.0417545514473
 21
205.2087728739413
 31
0.0
 12
878.8417545514471
 22
205.4087728739413
 32
0.0
 13
878.8417545514471
 23
205.4087728739413
 33
0.0
  0
SOLID
  5
1696
330
1120
100
AcDbEntity
  8
DIM
 62
     1
100
AcDbTrace
 10
883.6417545514471
 20
205.6087728739413
 30
0.0
 11
883.6417545514471
 21
205.2087728739413
 31
0.0
 12
884.8417545514472
 22
205.4087728739413
 32
0.0
 13
884.8417545514472
 23
205.4087728739413
 33
0.0
  0
MTEXT
  5
1697
330
1120
100
AcDbEntity
  8
DIM
 62
     4
100
AcDbMText
 10
881.8417545514471
 20
206.6087728739413
 30
0.0
 40
1.6
 41
0.0
 46
0.0
 71
     5
 72
     1
  1
\A1;6
  7
Romans字体
 73
     1
 44
1.0
1001
ACAD
1000
MTEXTBEGIN
1070
    73
1070
     1
1070
    44
1040
1.0
1070
    74
1070
     0
1000
MTEXTEND
  0
POINT
  5
1698
330
1120
100
AcDbEntity
  8
Defpoints
 62
     0
100
AcDbPoint
 10
878.8417545514471
 20
208.0155763199533
 30
0.0
  0
POINT
  5
1699
330
1120
100
AcDbEntity
  8
Defpoints
 62
     0
100
AcDbPoint
 10
884.8417545514472
 20
210.3380258494413
 30
0.0
  0
POINT
  5
169A
330
1120
100
AcDbEntity
  8
Defpoints
 62
     0
100
AcDbPoint
 10
884.8417545514472
 20
205.4087728739413
 30
0.0
  0
ENDBLK
  5
1122
330
1120
100
AcDbEntity
  8
0
100
AcDbBlockEnd
  0
ENDSEC
  0
SECTION
  2
ENTITIES
  0
HATCH
  5
16
330
2
100
AcDbEntity
  8
图层 1
 62
     7
100
AcDbHatch
 10
0.0
 20
0.0
 30
0.0
210
0.0
220
0.0
230
1.0
  2
SOLID
 70
     1
 71
     0
 91
        1
 92
        1
 93
        2
 72
     4
 94
        3
 73
     0
 74
     0
 95
       17
 96
       13
 40
0.0
 40
0.0
 40
0.0
 40
0.0
 40
0.3527780104152769
 40
0.3527780104152769
 40
0.3527780104152769
 40
0.7055560208305538
 40
0.7055560208305538
 40
0.7055560208305538
 40
1.058334031245828
 40
1.058334031245828
 40
1.058334031245828
 40
1.411112041661104
 40
1.411112041661104
 40
1.411112041661104
 40
1.411112041661104
 10
11.07013262565829
 20
29.50312817963231
 10
11.07013262565829
 20
29.50312817963231
 10
10.9431807732774
 20
29.50312817963231
 10
10.9431807732774
 20
29.50312817963231
 10
10.9431807732774
 20
29.50312817963231
 10
10.85843136843155
 20
29.22786486877117
 10
10.85843136843155
 20
29.22786486877117
 10
10.85843136843155
 20
29.22786486877117
 10
10.90080607085448
 20
29.2068497724476
 10
10.90080607085448
 20
29.2068497724476
 10
10.94455881238059
 20
29.31571486159919
 10
11.00346998404173
 20
29.40907701083995
 10
11.07013262565829
 20
29.50312817963231
 72
     1
 10
11.07013262565829
 20
29.50312817963231
 11
11.07013262565829
 21
29.50312817963231
 97
        0
 75
     0
 76
     1
 98
        0
450
        0
451
        0
460
0.0
461
0.0
452
        0
462
0.0
453
        0
470

  0
HATCH
  5
1A
330
2
100
AcDbEntity
  8
图层 1
 62
     7
100
AcDbHatch
 10
0.0
 20
0.0
 30
0.0
210
0.0
220
0.0
230
1.0
  2
SOLID
 70
     1
 71
     0
 91
        1
 92
        1
 93
        2
 72
     4
 94
        3
 73
     0
 74
     0
 95
       47
 96
       43
 40
0.0
 40
0.0
 40
0.0
 40
0.0
 40
0.3527780104152769
 40
0.3527780104152769
 40
0.3527780104152769
 40
0.7055560208305538
 40
0.7055560208305538
 40
0.7055560208305538
 40
1.058334031245828
 40
1.058334031245828
 40
1.058334031245828
 40
1.411112041661104
 40
1.411112041661104
 40
1.411112041661104
 40
1.763890052076384
 40
1.763890052076384
 40
1.763890052076384
 40
2.116668062491659
 40
2.116668062491659
 40
2.116668062491659
 40
2.469446072906936
 40
2.469446072906936
 40
2.469446072906936
 40
2.822224083322215
 40
2.822224083322215
 40
2.822224083322215
 40
3.175002093737492
 40
3.175002093737492
 40
3.175002093737492
 40
3.527780104152768
 40
3.527780104152768
 40
3.527780104152768
 40
3.880558114568044
 40
3.880558114568044
 40
3.880558114568044
 40
4.233336124983321
 40
4.233336124983321
 40
4.233336124983321
 40
4.586114135398599
 40
4.586114135398599
 40
4.586114135398599
 40
4.938892145813873
 40
4.938892145813873
 40
4.938892145813873
 40
4.938892145813873
 10
162.8986914070121
 20
257.4895347631509
 10
162.8986914070121
 20
257.4895347631509
 10
162.9200510131114
 20
257.4471600607279
 10
162.9200510131114
 20
257.4471600607279
 10
162.9200510131114
 20
257.4471600607279
 10
162.9200510131114
 20
257.404785358305
 10
162.9200510131114
 20
257.404785358305
 10
162.9200510131114
 20
257.404785358305
 10
162.8986914070121
 20
257.36258291077
 10
162.8986914070121
 20
257.36258291077
 10
162.8986914070121
 20
257.36258291077
 10
162.8986914070121
 20
257.320208208347
 10
162.8986914070121
 20
257.320208208347
 10
162.8986914070121
 20
257.320208208347
 10
162.8563167045891
 20
257.2990208571356
 10
162.8563167045891
 20
257.2990208571356
 10
162.8563167045891
 20
257.2990208571356
 10
162.8139420021662
 20
257.2563016449369
 10
162.8139420021662
 20
257.2563016449369
 10
162.8139420021662
 20
257.2563016449369
 10
162.7295371070961
 20
257.2563016449369
 10
162.7295371070961
 20
257.2563016449369
 10
162.7295371070961
 20
257.2563016449369
 10
162.6658027985738
 20
257.2778335059241
 10
162.6658027985738
 20
257.2778335059241
 10
162.6658027985738
 20
257.2778335059241
 10
162.6237726059267
 20
257.2990208571356
 10
162.6237726059267
 20
257.2990208571356
 10
162.6237726059267
 20
257.2990208571356
 10
162.5813979035038
 20
257.3413955595585
 10
162.5813979035038
 20
257.3413955595585
 10
162.5813979035038
 20
257.3413955595585
 10
162.5813979035038
 20
257.4895347631509
 10
162.5813979035038
 20
257.4895347631509
 10
162.5813979035038
 20
257.4895347631509
 10
162.6447877022503
 20
257.5525800521216
 10
162.6447877022503
 20
257.5525800521216
 10
162.6447877022503
 20
257.5525800521216
 10
162.7081775009967
 20
257.5525800521216
 10
162.7081775009967
 20
257.5525800521216
 10
162.8749202324821
 20
257.5424170137356
 10
162.7918933765152
 20
257.5939212252171
 10
162.8986914070121
 20
257.4895347631509
 72
     1
 10
162.8986914070121
 20
257.4895347631509
 11
162.8986914070121
 21
257.4895347631509
 97
        0
 75
     0
 76
     1
 98
        0
450
        0
451
        0
460
0.0
461
0.0
452
        0
462
0.0
453
        0
470

  0
HATCH
  5
1B
330
2
100
AcDbEntity
  8
图层 1
 62
     7
100
AcDbHatch
 10
0.0
 20
0.0
 30
0.0
210
0.0
220
0.0
230
1.0
  2
SOLID
 70
     1
 71
     0
 91
        1
 92
        1
 93
        2
 72
     4
 94
        3
 73
     0
 74
     0
 95
       56
 96
       52
 40
0.0
 40
0.0
 40
0.0
 40
0.0
 40
0.3527780104152769
 40
0.3527780104152769
 40
0.3527780104152769
 40
0.7055560208305538
 40
0.7055560208305538
 40
0.7055560208305538
 40
1.058334031245828
 40
1.058334031245828
 40
1.058334031245828
 40
1.411112041661104
 40
1.411112041661104
 40
1.411112041661104
 40
1.763890052076384
 40
1.763890052076384
 40
1.763890052076384
 40
2.116668062491659
 40
2.116668062491659
 40
2.116668062491659
 40
2.469446072906936
 40
2.469446072906936
 40
2.469446072906936
 40
2.822224083322215
 40
2.822224083322215
 40
2.822224083322215
 40
3.175002093737492
 40
3.175002093737492
 40
3.175002093737492
 40
3.527780104152768
 40
3.527780104152768
 40
3.527780104152768
 40
3.880558114568044
 40
3.880558114568044
 40
3.880558114568044
 40
4.233336124983321
 40
4.233336124983321
 40
4.233336124983321
 40
4.586114135398599
 40
4.586114135398599
 40
4.586114135398599
 40
4.938892145813873
 40
4.938892145813873
 40
4.938892145813873
 40
5.291670156229153
 40
5.291670156229153
 40
5.291670156229153
 40
5.64444816664443
 40
5.64444816664443
 40
5.64444816664443
 40
5.997226177059705
 40
5.997226177059705
 40
5.997226177059705
 40
5.997226177059705
 10
185.4837187788815
 20
241.4451977396596
 10
185.4837187788815
 20
241.4451977396596
 10
185.4837187788815
 20
241.4028230372367
 10
185.4837187788815
 20
241.4028230372367
 10
185.4837187788815
 20
241.4028230372367
 10
185.5047338752051
 20
241.3604483348137
 10
185.5047338752051
 20
241.3604483348137
 10
185.4520238795082
 20
241.2782827532863
 10
185.4671823096433
 20
241.1897437409066
 10
185.335579575289
 20
241.2119646214456
 10
185.335579575289
 20
241.2119646214456
 10
185.2932048728662
 20
241.2119646214456
 10
185.2932048728662
 20
241.2119646214456
 10
185.2932048728662
 20
241.2119646214456
 10
185.2294705643439
 20
241.2334964824328
 10
185.2294705643439
 20
241.2334964824328
 10
185.2294705643439
 20
241.2334964824328
 10
185.1660807655974
 20
241.2543393238685
 10
185.1660807655974
 20
241.2543393238685
 10
185.1660807655974
 20
241.2543393238685
 10
185.1450656692739
 20
241.2758711848558
 10
185.1450656692739
 20
241.2758711848558
 10
185.1450656692739
 20
241.2758711848558
 10
185.1450656692739
 20
241.2967140262914
 10
185.1450656692739
 20
241.2967140262914
 10
185.1450656692739
 20
241.2967140262914
 10
185.1237060631745
 20
241.3604483348137
 10
185.1237060631745
 20
241.3604483348137
 10
185.1237060631745
 20
241.3604483348137
 10
185.1237060631745
 20
241.4028230372367
 10
185.1237060631745
 20
241.4028230372367
 10
185.1237060631745
 20
241.4028230372367
 10
185.1660807655974
 20
241.4875724420825
 10
185.1660807655974
 20
241.4875724420825
 10
185.1660807655974
 20
241.4875724420825
 10
185.2084554680203
 20
241.5085875384061
 10
185.2084554680203
 20
241.5085875384061
 10
185.2084554680203
 20
241.5085875384061
 10
185.2718452667668
 20
241.5297748896175
 10
185.2718452667668
 20
241.5297748896175
 10
185.2718452667668
 20
241.5297748896175
 10
185.3565946716127
 20
241.5297748896175
 10
185.3565946716127
 20
241.5297748896175
 10
185.3565946716127
 20
241.5297748896175
 10
185.4199844703592
 20
241.5085875384061
 10
185.4199844703592
 20
241.5085875384061
 10
185.4199844703592
 20
241.5085875384061
 10
185.4623591727821
 20
241.4875724420825
 10
185.4623591727821
 20
241.4875724420825
 10
185.4623591727821
 20
241.4875724420825
 10
185.4837187788815
 20
241.4451977396596
 10
185.4837187788815
 20
241.4451977396596
 72
     1
 10
185.4837187788815
 20
241.4451977396596
 11
185.4837187788815
 21
241.4451977396596
 97
        0
 75
     0
 76
     1
 98
        0
450
        0
451
        0
460
0.0
461
0.0
452
        0
462
0.0
453
        0
470

  0
HATCH
  5
1C
330
2
100
AcDbEntity
  8
图层 1
 62
     7
100
AcDbHatch
 10
0.0
 20
0.0
 30
0.0
210
0.0
220
0.0
230
1.0
  2
SOLID
 70
     1
 71
     0
 91
        1
 92
        1
 93
        2
 72
     4
 94
        3
 73
     0
 74
     0
 95
       38
 96
       34
 40
0.0
 40
0.0
 40
0.0
 40
0.0
 40
0.3527780104152769
 40
0.3527780104152769
 40
0.3527780104152769
 40
0.7055560208305538
 40
0.7055560208305538
 40
0.7055560208305538
 40
1.058334031245828
 40
1.058334031245828
 40
1.058334031245828
 40
1.411112041661104
 40
1.411112041661104
 40
1.411112041661104
 40
1.763890052076384
 40
1.763890052076384
 40
1.763890052076384
 40
2.116668062491659
 40
2.116668062491659
 40
2.116668062491659
 40
2.469446072906936
 40
2.469446072906936
 40
2.469446072906936
 40
2.822224083322215
 40
2.822224083322215
 40
2.822224083322215
 40
3.175002093737492
 40
3.175002093737492
 40
3.175002093737492
 40
3.527780104152768
 40
3.527780104152768
 40
3.527780104152768
 40
3.880558114568044
 40
3.880558114568044
 40
3.880558114568044
 40
3.880558114568044
 10
185.907121293335
 20
220.1937677098971
 10
185.9005756075949
 20
220.0449394867532
 10
185.9329595265197
 20
220.1136691870245
 10
185.864746590912
 20
219.9817219428946
 10
185.864746590912
 20
219.9817219428946
 10
185.822371888489
 20
219.9605345916831
 10
185.822371888489
 20
219.9605345916831
 10
185.822371888489
 20
219.9605345916831
 10
185.6528730787974
 20
219.9605345916831
 10
185.6528730787974
 20
219.9605345916831
 10
185.6528730787974
 20
219.9605345916831
 10
185.5894832800509
 20
220.002909294106
 10
185.5894832800509
 20
220.002909294106
 10
185.5894832800509
 20
220.002909294106
 10
185.5681236739515
 20
220.0240966453175
 10
185.5681236739515
 20
220.0240966453175
 10
185.5681236739515
 20
220.0240966453175
 10
185.5681236739515
 20
220.045283996529
 10
185.5681236739515
 20
220.045283996529
 10
185.5681236739515
 20
220.045283996529
 10
185.547108577628
 20
220.0876586989519
 10
185.547108577628
 20
220.0876586989519
 10
185.547108577628
 20
220.0876586989519
 10
185.547108577628
 20
220.1513930074742
 10
185.547108577628
 20
220.1513930074742
 10
185.547108577628
 20
220.1513930074742
 10
185.5894832800509
 20
220.23614241232
 10
185.5894832800509
 20
220.23614241232
 10
185.5894832800509
 20
220.23614241232
 10
185.6318579824738
 20
220.2573297635315
 10
185.6318579824738
 20
220.2573297635315
 10
185.7055830744942
 20
220.2566407439799
 10
185.8416644359337
 20
220.3310548555519
 10
185.907121293335
 20
220.1937677098971
 72
     1
 10
185.907121293335
 20
220.1937677098971
 11
185.907121293335
 21
220.1937677098971
 97
        0
 75
     0
 76
     1
 98
        0
450
        0
451
        0
460
0.0
461
0.0
452
        0
462
0.0
453
        0
470

  0
HATCH
  5
1D
330
2
100
AcDbEntity
  8
图层 1
 62
     7
100
AcDbHatch
 10
0.0
 20
0.0
 30
0.0
210
0.0
220
0.0
230
1.0
  2
SOLID
 70
     1
 71
     0
 91
        1
 92
        1
 93
        2
 72
     4
 94
        3
 73
     0
 74
     0
 95
       50
 96
       46
 40
0.0
 40
0.0
 40
0.0
 40
0.0
 40
0.3527780104152769
 40
0.3527780104152769
 40
0.3527780104152769
 40
0.7055560208305538
 40
0.7055560208305538
 40
0.7055560208305538
 40
1.058334031245828
 40
1.058334031245828
 40
1.058334031245828
 40
1.411112041661104
 40
1.411112041661104
 40
1.411112041661104
 40
1.763890052076384
 40
1.763890052076384
 40
1.763890052076384
 40
2.116668062491659
 40
2.116668062491659
 40
2.116668062491659
 40
2.469446072906936
 40
2.469446072906936
 40
2.469446072906936
 40
2.822224083322215
 40
2.822224083322215
 40
2.822224083322215
 40
3.175002093737492
 40
3.175002093737492
 40
3.175002093737492
 40
3.527780104152768
 40
3.527780104152768
 40
3.527780104152768
 40
3.880558114568044
 40
3.880558114568044
 40
3.880558114568044
 40
4.233336124983321
 40
4.233336124983321
 40
4.233336124983321
 40
4.586114135398599
 40
4.586114135398599
 40
4.586114135398599
 40
4.938892145813873
 40
4.938892145813873
 40
4.938892145813873
 40
5.291670156229153
 40
5.291670156229153
 40
5.291670156229153
 40
5.291670156229153
 10
180.9117295442905
 20
208.9327766684477
 10
180.9117295442905
 20
208.9327766684477
 10
180.9117295442905
 20
208.7637946234197
 10
180.9117295442905
 20
208.7637946234197
 10
181.2273004989198
 20
208.6749111012643
 10
181.3833634273555
 20
208.6776671794706
 10
181.6948002646751
 20
208.5097186637701
 10
181.9542161258496
 20
208.4294478860095
 10
182.1388733656765
 20
208.2134402565853
 10
182.3297317814676
 20
208.02292635057
 10
182.3297317814676
 20
208.02292635057
 10
182.435496282637
 20
208.065301052993
 10
182.435496282637
 20
208.065301052993
 10
182.288390608372
 20
208.2733849575739
 10
182.3752070718726
 20
208.2134402565853
 10
182.1605774815516
 20
208.3824223016133
 10
182.1605774815516
 20
208.3824223016133
 10
182.1182027791287
 20
208.4247970040363
 10
182.1182027791287
 20
208.4247970040363
 10
182.1182027791287
 20
208.4247970040363
 10
182.0968431730294
 20
208.467516216235
 10
182.0968431730294
 20
208.467516216235
 10
182.0968431730294
 20
208.467516216235
 10
182.0544684706064
 20
208.4883590576707
 10
182.0544684706064
 20
208.4883590576707
 10
182.0544684706064
 20
208.4883590576707
 10
181.9910786718599
 20
208.5305615052057
 10
181.9910786718599
 20
208.5305615052057
 10
181.9910786718599
 20
208.5305615052057
 10
181.948703969437
 20
208.552093366193
 10
181.948703969437
 20
208.552093366193
 10
181.948703969437
 20
208.552093366193
 10
181.9063292670141
 20
208.5729362076286
 10
181.9063292670141
 20
208.5729362076286
 10
181.9063292670141
 20
208.5729362076286
 10
181.8639545645911
 20
208.6156554198274
 10
181.8639545645911
 20
208.6156554198274
 10
181.8639545645911
 20
208.6156554198274
 10
181.821924371944
 20
208.6368427710388
 10
181.821924371944
 20
208.6368427710388
 10
181.6637943848536
 20
208.6742220817127
 10
181.5452830219797
 20
208.8092699138248
 10
181.3771622513911
 20
208.8061693258427
 10
181.2803550043924
 20
208.8573290275484
 10
181.0126709085988
 20
208.8971199066528
 10
180.9117295442905
 20
208.9327766684477
 72
     1
 10
180.9117295442905
 20
208.9327766684477
 11
180.9117295442905
 21
208.9327766684477
 97
        0
 75
     0
 76
     1
 98
        0
450
        0
451
        0
460
0.0
461
0.0
452
        0
462
0.0
453
        0
470

  0
HATCH
  5
1E
330
2
100
AcDbEntity
  8
图层 1
 62
     7
100
AcDbHatch
 10
0.0
 20
0.0
 30
0.0
210
0.0
220
0.0
230
1.0
  2
SOLID
 70
     1
 71
     0
 91
        1
 92
        1
 93
        2
 72
     4
 94
        3
 73
     0
 74
     0
 95
       38
 96
       34
 40
0.0
 40
0.0
 40
0.0
 40
0.0
 40
0.3527780104152769
 40
0.3527780104152769
 40
0.3527780104152769
 40
0.7055560208305538
 40
0.7055560208305538
 40
0.7055560208305538
 40
1.058334031245828
 40
1.058334031245828
 40
1.058334031245828
 40
1.411112041661104
 40
1.411112041661104
 40
1.411112041661104
 40
1.763890052076384
 40
1.763890052076384
 40
1.763890052076384
 40
2.116668062491659
 40
2.116668062491659
 40
2.116668062491659
 40
2.469446072906936
 40
2.469446072906936
 40
2.469446072906936
 40
2.822224083322215
 40
2.822224083322215
 40
2.822224083322215
 40
3.175002093737492
 40
3.175002093737492
 40
3.175002093737492
 40
3.527780104152768
 40
3.527780104152768
 40
3.527780104152768
 40
3.880558114568044
 40
3.880558114568044
 40
3.880558114568044
 40
3.880558114568044
 10
189.145513185819
 20
166.8326485368285
 10
189.207869455238
 20
166.740492171803
 10
189.1317327947871
 20
166.6833035490209
 10
189.103138483396
 20
166.6209472796017
 10
189.103138483396
 20
166.6209472796017
 10
189.0607637809731
 20
166.5997599283903
 10
189.0607637809731
 20
166.5997599283903
 10
189.0607637809731
 20
166.5997599283903
 10
188.9973739822266
 20
166.5785725771788
 10
188.9973739822266
 20
166.5785725771788
 10
188.9973739822266
 20
166.5785725771788
 10
188.9549992798037
 20
166.5997599283903
 10
188.9549992798037
 20
166.5997599283903
 10
188.9549992798037
 20
166.5997599283903
 10
188.8916094810572
 20
166.5997599283903
 10
188.8916094810572
 20
166.5997599283903
 10
188.8916094810572
 20
166.5997599283903
 10
188.8492347786343
 20
166.6209472796017
 10
188.8492347786343
 20
166.6209472796017
 10
188.8492347786343
 20
166.6209472796017
 10
188.8278751725349
 20
166.6633219820247
 10
188.8278751725349
 20
166.6633219820247
 10
188.8278751725349
 20
166.6633219820247
 10
188.8068600762114
 20
166.6845093332361
 10
188.8068600762114
 20
166.6845093332361
 10
188.8068600762114
 20
166.6845093332361
 10
188.8068600762114
 20
166.8326485368285
 10
188.8068600762114
 20
166.8326485368285
 10
188.8068600762114
 20
166.8326485368285
 10
188.8702498749578
 20
166.896038335575
 10
188.8702498749578
 20
166.896038335575
 10
189.0228677056355
 20
166.8819134347673
 10
189.0686875058164
 20
166.9411691162043
 10
189.145513185819
 20
166.8326485368285
 72
     1
 10
189.145513185819
 20
166.8326485368285
 11
189.145513185819
 21
166.8326485368285
 97
        0
 75
     0
 76
     1
 98
        0
450
        0
451
        0
460
0.0
461
0.0
452
        0
462
0.0
453
        0
470

  0
HATCH
  5
1F
330
2
100
AcDbEntity
  8
图层 1
 62
     7
100
AcDbHatch
 10
0.0
 20
0.0
 30
0.0
210
0.0
220
0.0
230
1.0
  2
SOLID
 70
     1
 71
     0
 91
        1
 92
        1
 93
        2
 72
     4
 94
        3
 73
     0
 74
     0
 95
       68
 96
       64
 40
0.0
 40
0.0
 40
0.0
 40
0.0
 40
0.3527780104152769
 40
0.3527780104152769
 40
0.3527780104152769
 40
0.7055560208305538
 40
0.7055560208305538
 40
0.7055560208305538
 40
1.058334031245828
 40
1.058334031245828
 40
1.058334031245828
 40
1.411112041661104
 40
1.411112041661104
 40
1.411112041661104
 40
1.763890052076384
 40
1.763890052076384
 40
1.763890052076384
 40
2.116668062491659
 40
2.116668062491659
 40
2.116668062491659
 40
2.469446072906936
 40
2.469446072906936
 40
2.469446072906936
 40
2.822224083322215
 40
2.822224083322215
 40
2.822224083322215
 40
3.175002093737492
 40
3.175002093737492
 40
3.175002093737492
 40
3.527780104152768
 40
3.527780104152768
 40
3.527780104152768
 40
3.880558114568044
 40
3.880558114568044
 40
3.880558114568044
 40
4.233336124983321
 40
4.233336124983321
 40
4.233336124983321
 40
4.586114135398599
 40
4.586114135398599
 40
4.586114135398599
 40
4.938892145813873
 40
4.938892145813873
 40
4.938892145813873
 40
5.291670156229153
 40
5.291670156229153
 40
5.291670156229153
 40
5.64444816664443
 40
5.64444816664443
 40
5.64444816664443
 40
5.997226177059705
 40
5.997226177059705
 40
5.997226177059705
 40
6.350004187474984
 40
6.350004187474984
 40
6.350004187474984
 40
6.702782197890257
 40
6.702782197890257
 40
6.702782197890257
 40
7.055560208305537
 40
7.055560208305537
 40
7.055560208305537
 40
7.408338218720808
 40
7.408338218720808
 40
7.408338218720808
 40
7.408338218720808
 10
174.7732543591544
 20
135.4846705078077
 10
174.7732543591544
 20
135.4846705078077
 10
174.7732543591544
 20
135.3789060066383
 10
174.7732543591544
 20
135.3789060066383
 10
174.7732543591544
 20
135.3789060066383
 10
174.8156290615773
 20
135.3789060066383
 10
174.8156290615773
 20
135.3789060066383
 10
174.8156290615773
 20
135.3789060066383
 10
174.8580037640002
 20
135.3578909103147
 10
174.8580037640002
 20
135.3578909103147
 10
174.8580037640002
 20
135.3578909103147
 10
174.9213935627468
 20
135.3578909103147
 10
174.9213935627468
 20
135.3578909103147
 10
174.9213935627468
 20
135.3578909103147
 10
174.9637682651697
 20
135.3365313042154
 10
174.9637682651697
 20
135.3365313042154
 10
174.9637682651697
 20
135.3365313042154
 10
174.9847833614933
 20
135.3365313042154
 10
174.9847833614933
 20
135.3365313042154
 10
174.9847833614933
 20
135.3365313042154
 10
175.0271580639162
 20
135.3155162078918
 10
175.0271580639162
 20
135.3155162078918
 10
175.0271580639162
 20
135.3155162078918
 10
175.0485176700155
 20
135.2941566017924
 10
175.0485176700155
 20
135.2941566017924
 10
175.0485176700155
 20
135.2941566017924
 10
175.0695327663391
 20
135.2941566017924
 10
175.0695327663391
 20
135.2941566017924
 10
175.0695327663391
 20
135.2941566017924
 10
175.0908923724385
 20
135.2731415054689
 10
175.0908923724385
 20
135.2731415054689
 10
175.0908923724385
 20
135.2731415054689
 10
175.1332670748614
 20
135.2731415054689
 10
175.1332670748614
 20
135.2731415054689
 10
175.1332670748614
 20
135.2731415054689
 10
175.154282171185
 20
135.2517818993695
 10
175.154282171185
 20
135.2517818993695
 10
175.154282171185
 20
135.2517818993695
 10
175.154282171185
 20
135.3578909103147
 10
175.154282171185
 20
135.3578909103147
 10
175.154282171185
 20
135.3578909103147
 10
175.1332670748614
 20
135.3789060066383
 10
175.1332670748614
 20
135.3789060066383
 10
175.1332670748614
 20
135.3789060066383
 10
175.0908923724385
 20
135.3789060066383
 10
175.0908923724385
 20
135.3789060066383
 10
175.0908923724385
 20
135.3789060066383
 10
175.0908923724385
 20
135.3999211029619
 10
175.0908923724385
 20
135.3999211029619
 10
175.0908923724385
 20
135.3999211029619
 10
175.0695327663391
 20
135.3999211029619
 10
175.0695327663391
 20
135.3999211029619
 10
175.0695327663391
 20
135.3999211029619
 10
175.0271580639162
 20
135.4212807090612
 10
175.0271580639162
 20
135.4212807090612
 10
175.0271580639162
 20
135.4212807090612
 10
175.0061429675926
 20
135.4212807090612
 10
175.0061429675926
 20
135.4212807090612
 10
175.0061429675926
 20
135.4212807090612
 10
174.9637682651697
 20
135.4422958053848
 10
174.9637682651697
 20
135.4422958053848
 10
174.8996894468716
 20
135.4498750204523
 10
174.8394002361073
 20
135.4860485469109
 10
174.7732543591544
 20
135.4846705078077
 72
     1
 10
174.7732543591544
 20
135.4846705078077
 11
174.7732543591544
 21
135.4846705078077
 97
        0
 75
     0
 76
     1
 98
        0
450
        0
451
        0
460
0.0
461
0.0
452
        0
462
0.0
453
        0
470

  0
HATCH
  5
20
330
2
100
AcDbEntity
  8
图层 1
 62
     7
100
AcDbHatch
 10
0.0
 20
0.0
 30
0.0
210
0.0
220
0.0
230
1.0
  2
SOLID
 70
     1
 71
     0
 91
        1
 92
        1
 93
        2
 72
     4
 94
        3
 73
     0
 74
     0
 95
       29
 96
       25
 40
0.0
 40
0.0
 40
0.0
 40
0.0
 40
0.3527780104152769
 40
0.3527780104152769
 40
0.3527780104152769
 40
0.7055560208305538
 40
0.7055560208305538
 40
0.7055560208305538
 40
1.058334031245828
 40
1.058334031245828
 40
1.058334031245828
 40
1.411112041661104
 40
1.411112041661104
 40
1.411112041661104
 40
1.763890052076384
 40
1.763890052076384
 40
1.763890052076384
 40
2.116668062491659
 40
2.116668062491659
 40
2.116668062491659
 40
2.469446072906936
 40
2.469446072906936
 40
2.469446072906936
 40
2.822224083322215
 40
2.822224083322215
 40
2.822224083322215
 40
2.822224083322215
 10
175.4929352807925
 20
164.0174869039101
 10
175.4929352807925
 20
164.0174869039101
 10
175.5139503771161
 20
163.9751122014871
 10
175.5139503771161
 20
163.9751122014871
 10
175.5139503771161
 20
163.9751122014871
 10
175.5139503771161
 20
163.9327374990642
 10
175.5139503771161
 20
163.9327374990642
 10
175.5139503771161
 20
163.9327374990642
 10
175.4929352807925
 20
163.8903627966413
 10
175.4929352807925
 20
163.8903627966413
 10
175.4929352807925
 20
163.8903627966413
 10
175.471920184469
 20
163.8691754454298
 10
175.471920184469
 20
163.8691754454298
 10
175.471920184469
 20
163.8691754454298
 10
175.4505605783696
 20
163.8269729978948
 10
175.4505605783696
 20
163.8269729978948
 10
175.3571984291289
 20
163.7715069239916
 10
175.272449024283
 20
163.8195660377152
 10
175.1966568736079
 20
163.8691754454298
 10
175.208370205985
 20
163.9930267098286
 10
175.1563492298397
 20
164.0216210212197
 10
175.2600466723544
 20
164.0596893514451
 10
175.3330827448232
 20
164.1094710140476
 10
175.4357466580104
 20
164.0753645462439
 10
175.4929352807925
 20
164.0174869039101
 72
     1
 10
175.4929352807925
 20
164.0174869039101
 11
175.4929352807925
 21
164.0174869039101
 97
        0
 75
     0
 76
     1
 98
        0
450
        0
451
        0
460
0.0
461
0.0
452
        0
462
0.0
453
        0
470

  0
HATCH
  5
21
330
2
100
AcDbEntity
  8
图层 1
 62
     7
100
AcDbHatch
 10
0.0
 20
0.0
 30
0.0
210
0.0
220
0.0
230
1.0
  2
SOLID
 70
     1
 71
     0
 91
        1
 92
        1
 93
        2
 72
     4
 94
        3
 73
     0
 74
     0
 95
       11
 96
        7
 40
0.0
 40
0.0
 40
0.0
 40
0.0
 40
0.3527780104152769
 40
0.3527780104152769
 40
0.3527780104152769
 40
0.7055560208305538
 40
0.7055560208305538
 40
0.7055560208305538
 40
0.7055560208305538
 10
174.9213935627468
 20
174.5369206529582
 10
174.9213935627468
 20
174.5369206529582
 10
174.9213935627468
 20
174.3043765542958
 10
174.9213935627468
 20
174.3043765542958
 10
174.9213935627468
 20
174.3043765542958
 10
174.9213935627468
 20
174.5369206529582
 10
174.9213935627468
 20
174.5369206529582
 72
     1
 10
174.9213935627468
 20
174.5369206529582
 11
174.9213935627468
 21
174.5369206529582
 97
        0
 75
     0
 76
     1
 98
        0
450
        0
451
        0
460
0.0
461
0.0
452
        0
462
0.0
453
        0
470

  0
HATCH
  5
22
330
2
100
AcDbEntity
  8
图层 1
 62
     7
100
AcDbHatch
 10
0.0
 20
0.0
 30
0.0
210
0.0
220
0.0
230
1.0
  2
SOLID
 70
     1
 71
     0
 91
        1
 92
        1
 93
        2
 72
     4
 94
        3
 73
     0
 74
     0
 95
      131
 96
      127
 40
0.0
 40
0.0
 40
0.0
 40
0.0
 40
0.3527780104152769
 40
0.3527780104152769
 40
0.3527780104152769
 40
0.7055560208305538
 40
0.7055560208305538
 40
0.7055560208305538
 40
1.058334031245828
 40
1.058334031245828
 40
1.058334031245828
 40
1.411112041661104
 40
1.411112041661104
 40
1.411112041661104
 40
1.763890052076384
 40
1.763890052076384
 40
1.763890052076384
 40
2.116668062491659
 40
2.116668062491659
 40
2.116668062491659
 40
2.469446072906936
 40
2.469446072906936
 40
2.469446072906936
 40
2.822224083322215
 40
2.822224083322215
 40
2.822224083322215
 40
3.175002093737492
 40
3.175002093737492
 40
3.175002093737492
 40
3.527780104152768
 40
3.527780104152768
 40
3.527780104152768
 40
3.880558114568044
 40
3.880558114568044
 40
3.880558114568044
 40
4.233336124983321
 40
4.233336124983321
 40
4.233336124983321
 40
4.586114135398599
 40
4.586114135398599
 40
4.586114135398599
 40
4.938892145813873
 40
4.938892145813873
 40
4.938892145813873
 40
5.291670156229153
 40
5.291670156229153
 40
5.291670156229153
 40
5.64444816664443
 40
5.64444816664443
 40
5.64444816664443
 40
5.997226177059705
 40
5.997226177059705
 40
5.997226177059705
 40
6.350004187474984
 40
6.350004187474984
 40
6.350004187474984
 40
6.702782197890257
 40
6.702782197890257
 40
6.702782197890257
 40
7.055560208305537
 40
7.055560208305537
 40
7.055560208305537
 40
7.408338218720808
 40
7.408338218720808
 40
7.408338218720808
 40
7.76111622913609
 40
7.76111622913609
 40
7.76111622913609
 40
8.113894239551369
 40
8.113894239551369
 40
8.113894239551369
 40
8.466672249966642
 40
8.466672249966642
 40
8.466672249966642
 40
8.819450260381922
 40
8.819450260381922
 40
8.819450260381922
 40
9.172228270797198
 40
9.172228270797198
 40
9.172228270797198
 40
9.525006281212476
 40
9.525006281212476
 40
9.525006281212476
 40
9.877784291627751
 40
9.877784291627751
 40
9.877784291627751
 40
10.23056230204303
 40
10.23056230204303
 40
10.23056230204303
 40
10.58334031245831
 40
10.58334031245831
 40
10.58334031245831
 40
10.93611832287358
 40
10.93611832287358
 40
10.93611832287358
 40
11.28889633328886
 40
11.28889633328886
 40
11.28889633328886
 40
11.64167434370414
 40
11.64167434370414
 40
11.64167434370414
 40
11.99445235411941
 40
11.99445235411941
 40
11.99445235411941
 40
12.34723036453469
 40
12.34723036453469
 40
12.34723036453469
 40
12.70000837494997
 40
12.70000837494997
 40
12.70000837494997
 40
13.05278638536524
 40
13.05278638536524
 40
13.05278638536524
 40
13.40556439578052
 40
13.40556439578052
 40
13.40556439578052
 40
13.7583424061958
 40
13.7583424061958
 40
13.7583424061958
 40
14.11112041661107
 40
14.11112041661107
 40
14.11112041661107
 40
14.46389842702635
 40
14.46389842702635
 40
14.46389842702635
 40
14.81667643744163
 40
14.81667643744163
 40
14.81667643744163
 40
14.81667643744163
 10
173.3972823146245
 20
126.8274843518258
 10
173.3972823146245
 20
126.8274843518258
 10
173.3972823146245
 20
126.7217198506564
 10
173.3972823146245
 20
126.7217198506564
 10
173.3972823146245
 20
126.7217198506564
 10
173.4186419207238
 20
126.7217198506564
 10
173.4186419207238
 20
126.7217198506564
 10
173.4186419207238
 20
126.7217198506564
 10
173.4820317194703
 20
126.7007047543328
 10
173.4820317194703
 20
126.7007047543328
 10
173.4820317194703
 20
126.7007047543328
 10
173.5244064218933
 20
126.6793451482334
 10
173.5244064218933
 20
126.6793451482334
 10
173.5244064218933
 20
126.6793451482334
 10
173.5877962206398
 20
126.6793451482334
 10
173.5877962206398
 20
126.6793451482334
 10
173.5877962206398
 20
126.6793451482334
 10
173.6301709230627
 20
126.6583300519099
 10
173.6301709230627
 20
126.6583300519099
 10
173.7955356154449
 20
126.5911506456296
 10
173.759706598762
 20
126.6380039751379
 10
173.9478089363468
 20
126.5525655507404
 10
173.9478089363468
 20
126.5525655507404
 10
173.9688240326703
 20
126.4464565397952
 10
173.9688240326703
 20
126.4464565397952
 10
173.9688240326703
 20
126.4464565397952
 10
174.0325583411926
 20
126.5101908483175
 10
174.0325583411926
 20
126.5101908483175
 10
174.0325583411926
 20
126.5101908483175
 10
174.0749330436156
 20
126.5101908483175
 10
174.0749330436156
 20
126.5101908483175
 10
174.0749330436156
 20
126.5101908483175
 10
174.1593379386856
 20
126.4678161458946
 10
174.1593379386856
 20
126.4678161458946
 10
174.1593379386856
 20
126.4678161458946
 10
174.180697544785
 20
126.4464565397952
 10
174.180697544785
 20
126.4464565397952
 10
174.2464989119621
 20
126.3982251711837
 10
174.3298702777047
 20
126.3716979184474
 10
174.3922265471239
 20
126.3196769423022
 10
174.608234176548
 20
126.2059887162895
 10
174.7749769080334
 20
126.0278771622029
 10
174.9637682651697
 20
125.8749148217494
 10
174.9637682651697
 20
125.8749148217494
 10
175.0061429675926
 20
125.9172895241723
 10
175.0061429675926
 20
125.9172895241723
 10
174.961356696739
 20
125.9631093243532
 10
174.782211613325
 20
126.1246844092016
 10
174.7308796567315
 20
126.1501781326105
 10
174.7308796567315
 20
126.1501781326105
 10
174.6885049543085
 20
126.1925528350335
 10
174.6885049543085
 20
126.1925528350335
 10
174.6885049543085
 20
126.1925528350335
 10
174.667489857985
 20
126.2349275374564
 10
174.667489857985
 20
126.2349275374564
 10
174.667489857985
 20
126.2349275374564
 10
174.625115155562
 20
126.2559426337799
 10
174.625115155562
 20
126.2559426337799
 10
174.625115155562
 20
126.2559426337799
 10
174.5827404531391
 20
126.2983173362029
 10
174.5827404531391
 20
126.2983173362029
 10
174.5827404531391
 20
126.2983173362029
 10
174.5403657507162
 20
126.3196769423022
 10
174.5403657507162
 20
126.3196769423022
 10
174.5403657507162
 20
126.3196769423022
 10
174.4979910482932
 20
126.3620516447252
 10
174.4979910482932
 20
126.3620516447252
 10
174.4735308542117
 20
126.3875453681341
 10
174.3247026310678
 20
126.4695386947736
 10
174.2864620459544
 20
126.4888312422181
 10
174.2864620459544
 20
126.4888312422181
 10
174.2654469496308
 20
126.5101908483175
 10
174.2654469496308
 20
126.5101908483175
 10
174.2654469496308
 20
126.5101908483175
 10
174.2230722472079
 20
126.5312059446411
 10
174.2230722472079
 20
126.5312059446411
 10
174.2230722472079
 20
126.5312059446411
 10
174.2017126411085
 20
126.5525655507404
 10
174.2017126411085
 20
126.5525655507404
 10
174.2017126411085
 20
126.5525655507404
 10
174.1383228423621
 20
126.573580647064
 10
174.1383228423621
 20
126.573580647064
 10
174.1383228423621
 20
126.573580647064
 10
174.1169632362627
 20
126.5945957433876
 10
174.1169632362627
 20
126.5945957433876
 10
174.1169632362627
 20
126.5945957433876
 10
174.0959481399391
 20
126.7007047543328
 10
174.0959481399391
 20
126.7007047543328
 10
174.0959481399391
 20
126.7007047543328
 10
174.0325583411926
 20
126.6369704458105
 10
174.0325583411926
 20
126.6369704458105
 10
174.0325583411926
 20
126.6369704458105
 10
173.9901836387697
 20
126.6369704458105
 10
173.9901836387697
 20
126.6369704458105
 10
173.9901836387697
 20
126.6369704458105
 10
173.9054342339239
 20
126.6793451482334
 10
173.9054342339239
 20
126.6793451482334
 10
173.9054342339239
 20
126.6793451482334
 10
173.8420444351773
 20
126.7007047543328
 10
173.8420444351773
 20
126.7007047543328
 10
173.8420444351773
 20
126.7007047543328
 10
173.7996697327544
 20
126.7217198506564
 10
173.7996697327544
 20
126.7217198506564
 10
173.7996697327544
 20
126.7217198506564
 10
173.7572950303315
 20
126.7217198506564
 10
173.7572950303315
 20
126.7217198506564
 10
173.7572950303315
 20
126.7217198506564
 10
173.6725456254856
 20
126.7640945530793
 10
173.6725456254856
 20
126.7640945530793
 10
173.6725456254856
 20
126.7640945530793
 10
173.6515305291621
 20
126.7640945530793
 10
173.6515305291621
 20
126.7640945530793
 10
173.6515305291621
 20
126.7640945530793
 10
173.5667811243162
 20
126.7851096494029
 10
173.5667811243162
 20
126.7851096494029
 10
173.5667811243162
 20
126.7851096494029
 10
173.5033913255697
 20
126.8064692555022
 10
173.5033913255697
 20
126.8064692555022
 10
173.5033913255697
 20
126.8064692555022
 10
173.4396570170474
 20
126.8064692555022
 10
173.4396570170474
 20
126.8064692555022
 10
173.4396570170474
 20
126.8064692555022
 10
173.4186419207238
 20
126.8274843518258
 10
173.4186419207238
 20
126.8274843518258
 10
173.4186419207238
 20
126.8274843518258
 10
173.3972823146245
 20
126.8274843518258
 10
173.3972823146245
 20
126.8274843518258
 72
     1
 10
173.3972823146245
 20
126.8274843518258
 11
173.3972823146245
 21
126.8274843518258
 97
        0
 75
     0
 76
     1
 98
        0
450
        0
451
        0
460
0.0
461
0.0
452
        0
462
0.0
453
        0
470

  0
HATCH
  5
23
330
2
100
AcDbEntity
  8
图层 1
 62
     7
100
AcDbHatch
 10
0.0
 20
0.0
 30
0.0
210
0.0
220
0.0
230
1.0
  2
SOLID
 70
     1
 71
     0
 91
        1
 92
        1
 93
        2
 72
     4
 94
        3
 73
     0
 74
     0
 95
       47
 96
       43
 40
0.0
 40
0.0
 40
0.0
 40
0.0
 40
0.3527780104152769
 40
0.3527780104152769
 40
0.3527780104152769
 40
0.7055560208305538
 40
0.7055560208305538
 40
0.7055560208305538
 40
1.058334031245828
 40
1.058334031245828
 40
1.058334031245828
 40
1.411112041661104
 40
1.411112041661104
 40
1.411112041661104
 40
1.763890052076384
 40
1.763890052076384
 40
1.763890052076384
 40
2.116668062491659
 40
2.116668062491659
 40
2.116668062491659
 40
2.469446072906936
 40
2.469446072906936
 40
2.469446072906936
 40
2.822224083322215
 40
2.822224083322215
 40
2.822224083322215
 40
3.175002093737492
 40
3.175002093737492
 40
3.175002093737492
 40
3.527780104152768
 40
3.527780104152768
 40
3.527780104152768
 40
3.880558114568044
 40
3.880558114568044
 40
3.880558114568044
 40
4.233336124983321
 40
4.233336124983321
 40
4.233336124983321
 40
4.586114135398599
 40
4.586114135398599
 40
4.586114135398599
 40
4.938892145813873
 40
4.938892145813873
 40
4.938892145813873
 40
4.938892145813873
 10
180.1920486226523
 20
255.6479577566324
 10
180.1920486226523
 20
255.6479577566324
 10
180.2130637189759
 20
255.6055830542095
 10
180.2130637189759
 20
255.6055830542095
 10
180.2130637189759
 20
255.6055830542095
 10
180.2130637189759
 20
255.5210059042515
 10
180.2130637189759
 20
255.5210059042515
 10
180.2130637189759
 20
255.5210059042515
 10
180.1920486226523
 20
255.4786312018286
 10
180.1920486226523
 20
255.4786312018286
 10
180.1920486226523
 20
255.4786312018286
 10
180.1496739202294
 20
255.4359119896299
 10
180.1496739202294
 20
255.4359119896299
 10
180.1496739202294
 20
255.4359119896299
 10
180.1283143141301
 20
255.4147246384184
 10
180.1283143141301
 20
255.4147246384184
 10
180.1283143141301
 20
255.4147246384184
 10
180.0225498129606
 20
255.4147246384184
 10
180.0225498129606
 20
255.4147246384184
 10
180.0225498129606
 20
255.4147246384184
 10
179.9591600142141
 20
255.4359119896299
 10
179.9591600142141
 20
255.4359119896299
 10
179.9591600142141
 20
255.4359119896299
 10
179.9167853117912
 20
255.4570993408414
 10
179.9167853117912
 20
255.4570993408414
 10
179.9167853117912
 20
255.4570993408414
 10
179.8957702154676
 20
255.4786312018286
 10
179.8957702154676
 20
255.4786312018286
 10
179.8957702154676
 20
255.4786312018286
 10
179.8744106093683
 20
255.4994740432643
 10
179.8744106093683
 20
255.4994740432643
 10
179.8744106093683
 20
255.4994740432643
 10
179.8744106093683
 20
255.6479577566324
 10
179.8744106093683
 20
255.6479577566324
 10
179.9608825630931
 20
255.7323626517025
 10
180.045631967939
 20
255.7085914771726
 10
180.1496739202294
 20
255.7115198102668
 10
180.1496739202294
 20
255.7115198102668
 10
180.170689016553
 20
255.6688005980681
 10
180.170689016553
 20
255.6688005980681
 10
180.170689016553
 20
255.6688005980681
 10
180.1920486226523
 20
255.6479577566324
 10
180.1920486226523
 20
255.6479577566324
 72
     1
 10
180.1920486226523
 20
255.6479577566324
 11
180.1920486226523
 21
255.6479577566324
 97
        0
 75
     0
 76
     1
 98
        0
450
        0
451
        0
460
0.0
461
0.0
452
        0
462
0.0
453
        0
470

  0
MTEXT
  5
DD1
330
2
100
AcDbEntity
  8
图框
100
AcDbMText
 10
865.8386447085158
 20
230.2427841570098
 30
0.0
 40
0.6000023545570477
 41
4.555173628074113
 46
1.3522221868162
 71
     5
 72
     5
  1
{\C4;ZCDGM-0.37}
  7
Romans字体
 73
     1
 44
1.0
1001
ACAD
1000
MTEXTBEGIN
1070
    73
1070
     1
1070
    44
1040
1.0
1070
    74
1070
     0
1000
MTEXTEND
1000
ACAD_MTEXT_DEFINED_HEIGHT_BEGIN
1070
    46
1040
1.3522221868162
1000
ACAD_MTEXT_DEFINED_HEIGHT_END
  0
MTEXT
  5
DD2
330
2
100
AcDbEntity
  8
图框
100
AcDbMText
 10
871.1496485216446
 20
230.2427841570098
 30
0.0
 40
0.6000023545570477
 41
6.066833998183262
 46
1.352222186816343
 71
     5
 72
     5
  1
{\C4;1010172100302}
  7
Romans字体
 73
     1
 44
1.0
1001
ACAD
1000
MTEXTBEGIN
1070
    73
1070
     1
1070
    44
1040
1.0
1070
    74
1070
     0
1000
MTEXTEND
1000
ACAD_MTEXT_DEFINED_HEIGHT_BEGIN
1070
    46
1040
1.352222186816343
1000
ACAD_MTEXT_DEFINED_HEIGHT_END
  0
MTEXT
  5
DD3
330
2
100
AcDbEntity
  8
图框
100
AcDbMText
 10
871.1496485216446
 20
228.8905619701933
 30
0.0
 40
0.6000023545570477
 41
6.066833998183262
 46
1.352222186816343
 71
     5
 72
     5
  1
{\C4;1010172100402}
  7
Romans字体
 73
     1
 44
1.0
1001
ACAD
1000
MTEXTBEGIN
1070
    73
1070
     1
1070
    44
1040
1.0
1070
    74
1070
     0
1000
MTEXTEND
1000
ACAD_MTEXT_DEFINED_HEIGHT_BEGIN
1070
    46
1040
1.352222186816343
1000
ACAD_MTEXT_DEFINED_HEIGHT_END
  0
MTEXT
  5
DD4
330
2
100
AcDbEntity
  8
图框
100
AcDbMText
 10
871.1496485216446
 20
227.5383397833781
 30
0.0
 40
0.6000023545570477
 41
6.066833998183262
 46
1.352222186816343
 71
     5
 72
     5
  1
{\C4;1010172100602}
  7
Romans字体
 73
     1
 44
1.0
1001
ACAD
1000
MTEXTBEGIN
1070
    73
1070
     1
1070
    44
1040
1.0
1070
    74
1070
     0
1000
MTEXTEND
1000
ACAD_MTEXT_DEFINED_HEIGHT_BEGIN
1070
    46
1040
1.352222186816343
1000
ACAD_MTEXT_DEFINED_HEIGHT_END
  0
MTEXT
  5
DD5
330
2
100
AcDbEntity
  8
图框
100
AcDbMText
 10
871.1496485216446
 20
226.1861175965629
 30
0.0
 40
0.6000023545570477
 41
6.066833998183262
 46
1.352222186816343
 71
     5
 72
     5
  1
{\C4;1010172100802}
  7
Romans字体
 73
     1
 44
1.0
1001
ACAD
1000
MTEXTBEGIN
1070
    73
1070
     1
1070
    44
1040
1.0
1070
    74
1070
     0
1000
MTEXTEND
1000
ACAD_MTEXT_DEFINED_HEIGHT_BEGIN
1070
    46
1040
1.352222186816343
1000
ACAD_MTEXT_DEFINED_HEIGHT_END
  0
MTEXT
  5
DD6
330
2
100
AcDbEntity
  8
图框
100
AcDbMText
 10
871.1496485216446
 20
224.8338954097478
 30
0.0
 40
0.6000023545570477
 41
6.066833998183262
 46
1.352222186816343
 71
     5
 72
     5
  1
{\C4;1010172100902}
  7
Romans字体
 73
     1
 44
1.0
1001
ACAD
1000
MTEXTBEGIN
1070
    73
1070
     1
1070
    44
1040
1.0
1070
    74
1070
     0
1000
MTEXTEND
1000
ACAD_MTEXT_DEFINED_HEIGHT_BEGIN
1070
    46
1040
1.352222186816343
1000
ACAD_MTEXT_DEFINED_HEIGHT_END
  0
LINE
  5
DD7
330
2
100
AcDbEntity
  8
图框
370
    -3
100
AcDbLine
 10
874.1830655200692
 20
232.2711174372334
 30
0.0
 11
884.9522926914529
 21
232.2711174372334
 31
0.0
  0
LINE
  5
DD8
330
2
100
AcDbEntity
  8
图框
370
    -3
100
AcDbLine
 10
863.5610578944787
 20
230.918895250418
 30
0.0
 11
895.6467995240636
 21
230.9188952504189
 31
0.0
  0
LINE
  5
DD9
330
2
100
AcDbEntity
  8
图框
370
    -3
100
AcDbLine
 10
863.5610578944787
 20
229.566673063602
 30
0.0
 11
895.6467978419462
 21
229.566673063602
 31
0.0
  0
MTEXT
  5
DDA
330
2
100
AcDbEntity
  8
图框
100
AcDbMText
 10
881.5225688013358
 20
232.9472285306758
 30
0.0
 40
0.6000023545570477
 41
6.859684067146692
 46
1.352222186885061
 71
     5
 72
     5
  1
{\f仿宋_GB2312|b0|i0|c134|p49;\C4;线径\Fromans|c134;/Wire Gauge}
  7
Romans字体
 73
     1
 44
1.0
1001
ACAD
1000
MTEXTBEGIN
1070
    73
1070
     1
1070
    44
1040
1.0
1070
    74
1070
     0
1000
MTEXTEND
1000
ACAD_MTEXT_DEFINED_HEIGHT_BEGIN
1070
    46
1040
1.352222186885061
1000
ACAD_MTEXT_DEFINED_HEIGHT_END
  0
LINE
  5
DDB
330
2
100
AcDbEntity
  8
图框
370
    -3
100
AcDbLine
 10
863.5610578944787
 20
228.2144508767869
 30
0.0
 11
895.6467961598288
 21
228.2144508767868
 31
0.0
  0
MTEXT
  5
DDC
330
2
100
AcDbEntity
  8
图框
100
AcDbMText
 10
883.4773403524541
 20
231.5949713098666
 30
0.0
 40
0.6000023545570477
 41
2.949904677997924
 46
1.352152118895874
 71
     5
 72
     5
  1
{\C4;AWG}
  7
Romans字体
 73
     1
 44
1.0
1001
ACAD
1000
MTEXTBEGIN
1070
    73
1070
     1
1070
    44
1040
1.0
1070
    74
1070
     0
1000
MTEXTEND
1000
ACAD_MTEXT_DEFINED_HEIGHT_BEGIN
1070
    46
1040
1.352152118895874
1000
ACAD_MTEXT_DEFINED_HEIGHT_END
  0
MTEXT
  5
DDD
330
2
100
AcDbEntity
  8
图框
100
AcDbMText
 10
880.0475573902751
 20
231.595006343826
 30
0.0
 40
0.6000023545570477
 41
3.909661246359366
 46
1.352222186814757
 71
     5
 72
     5
  1
\A1;{\C4;mm\H0.7x;\S2^  ;}
  7
Romans字体
 73
     1
 44
1.0
1001
ACAD
1000
MTEXTBEGIN
1070
    73
1070
     1
1070
    44
1040
1.0
1070
    74
1070
     0
1000
MTEXTEND
1000
ACAD_MTEXT_DEFINED_HEIGHT_BEGIN
1070
    46
1040
1.352222186814757
1000
ACAD_MTEXT_DEFINED_HEIGHT_END
  0
MTEXT
  5
DDE
330
2
100
AcDbEntity
  8
图框
100
AcDbMText
 10
880.0475573906089
 20
230.2427841570101
 30
0.0
 40
0.6000023545570477
 41
3.909661247026225
 46
1.3522221868165
 71
     5
 72
     5
  1
{\C4;0.14-0.37}
  7
Romans字体
 73
     1
 44
1.0
1001
ACAD
1000
MTEXTBEGIN
1070
    73
1070
     1
1070
    44
1040
1.0
1070
    74
1070
     0
1000
MTEXTEND
1000
ACAD_MTEXT_DEFINED_HEIGHT_BEGIN
1070
    46
1040
1.3522221868165
1000
ACAD_MTEXT_DEFINED_HEIGHT_END
  0
MTEXT
  5
DDF
330
2
100
AcDbEntity
  8
图框
100
AcDbMText
 10
880.0475573906089
 20
228.8905619701944
 30
0.0
 40
0.6000023545570477
 41
3.909661247026225
 46
1.352222186815229
 71
     5
 72
     5
  1
{\C4;0.5}
  7
Romans字体
 73
     1
 44
1.0
1001
ACAD
1000
MTEXTBEGIN
1070
    73
1070
     1
1070
    44
1040
1.0
1070
    74
1070
     0
1000
MTEXTEND
1000
ACAD_MTEXT_DEFINED_HEIGHT_BEGIN
1070
    46
1040
1.352222186815229
1000
ACAD_MTEXT_DEFINED_HEIGHT_END
  0
MTEXT
  5
DE0
330
2
100
AcDbEntity
  8
图框
100
AcDbMText
 10
883.4773403527876
 20
230.2427841570104
 30
0.0
 40
0.6000023545570477
 41
2.94990467866485
 46
1.352222186816635
 71
     5
 72
     5
  1
{\C4;26-22}
  7
Romans字体
 73
     1
 44
1.0
1001
ACAD
1000
MTEXTBEGIN
1070
    73
1070
     1
1070
    44
1040
1.0
1070
    74
1070
     0
1000
MTEXTEND
1000
ACAD_MTEXT_DEFINED_HEIGHT_BEGIN
1070
    46
1040
1.352222186816635
1000
ACAD_MTEXT_DEFINED_HEIGHT_END
  0
MTEXT
  5
DE1
330
2
100
AcDbEntity
  8
图框
100
AcDbMText
 10
883.4773403531208
 20
228.8905619701944
 30
0.0
 40
0.6000023545570477
 41
2.949904677998123
 46
1.352222186815164
 71
     5
 72
     5
  1
{\C4;20}
  7
Romans字体
 73
     1
 44
1.0
1001
ACAD
1000
MTEXTBEGIN
1070
    73
1070
     1
1070
    44
1040
1.0
1070
    74
1070
     0
1000
MTEXTEND
1000
ACAD_MTEXT_DEFINED_HEIGHT_BEGIN
1070
    46
1040
1.352222186815164
1000
ACAD_MTEXT_DEFINED_HEIGHT_END
  0
MTEXT
  5
DE2
330
2
100
AcDbEntity
  8
图框
100
AcDbMText
 10
871.1496485209776
 20
232.2710774015245
 30
0.0
 40
0.6000023545570477
 41
6.066833998183262
 46
2.704364302212839
 71
     5
 72
     5
  1
{\f仿宋_GB2312|b0|i0|c134|p49;\C4;产品料号\P\Fromans|c134;Part NO.}
  7
Romans字体
 73
     1
 44
1.0
1001
ACAD
1000
MTEXTBEGIN
1070
    73
1070
     1
1070
    44
1040
1.0
1070
    74
1070
     0
1000
MTEXTEND
1000
ACAD_MTEXT_DEFINED_HEIGHT_BEGIN
1070
    46
1040
2.704364302212839
1000
ACAD_MTEXT_DEFINED_HEIGHT_END
  0
MTEXT
  5
DE3
330
2
100
AcDbEntity
  8
图框
100
AcDbMText
 10
886.1687445543177
 20
232.2710774015248
 30
0.0
 40
0.6000023545570477
 41
2.432903725729715
 46
2.704364302212435
 71
     5
 72
     5
  1
{\C4;d}
  7
Romans字体
 73
     1
 44
1.0
1001
ACAD
1000
MTEXTBEGIN
1070
    73
1070
     1
1070
    44
1040
1.0
1070
    74
1070
     0
1000
MTEXTEND
1000
ACAD_MTEXT_DEFINED_HEIGHT_BEGIN
1070
    46
1040
2.704364302212435
1000
ACAD_MTEXT_DEFINED_HEIGHT_END
  0
MTEXT
  5
DE4
330
2
100
AcDbEntity
  8
图框
100
AcDbMText
 10
886.1687445543177
 20
230.2427841570104
 30
0.0
 40
0.6000023545570477
 41
2.43290372572948
 46
1.352222186816667
 71
     5
 72
     5
  1
{\C4;0.9}
  7
Romans字体
 73
     1
 44
1.0
1001
ACAD
1000
MTEXTBEGIN
1070
    73
1070
     1
1070
    44
1040
1.0
1070
    74
1070
     0
1000
MTEXTEND
1000
ACAD_MTEXT_DEFINED_HEIGHT_BEGIN
1070
    46
1040
1.352222186816667
1000
ACAD_MTEXT_DEFINED_HEIGHT_END
  0
MTEXT
  5
DE5
330
2
100
AcDbEntity
  8
图框
100
AcDbMText
 10
886.1687445543177
 20
228.8905619701943
 30
0.0
 40
0.6000023545570477
 41
2.43290372572947
 46
1.352222186815196
 71
     5
 72
     5
  1
{\C4;1.15}
  7
Romans字体
 73
     1
 44
1.0
1001
ACAD
1000
MTEXTBEGIN
1070
    73
1070
     1
1070
    44
1040
1.0
1070
    74
1070
     0
1000
MTEXTEND
1000
ACAD_MTEXT_DEFINED_HEIGHT_BEGIN
1070
    46
1040
1.352222186815196
1000
ACAD_MTEXT_DEFINED_HEIGHT_END
  0
LINE
  5
DE6
330
2
100
AcDbEntity
  8
0
370
    35
100
AcDbLine
 10
863.5610578944787
 20
224.154849585417
 30
0.0
 11
895.6467911098259
 21
224.1548495854178
 31
0.0
  0
MTEXT
  5
DE7
330
2
100
AcDbEntity
  8
图框
100
AcDbMText
 10
888.6016482797138
 20
232.2710774015248
 30
0.0
 40
0.6000023545570477
 41
2.432903725062574
 46
2.704364302212435
 71
     5
 72
     5
  1
{\C4;D}
  7
Romans字体
 73
     1
 44
1.0
1001
ACAD
1000
MTEXTBEGIN
1070
    73
1070
     1
1070
    44
1040
1.0
1070
    74
1070
     0
1000
MTEXTEND
1000
ACAD_MTEXT_DEFINED_HEIGHT_BEGIN
1070
    46
1040
2.704364302212435
1000
ACAD_MTEXT_DEFINED_HEIGHT_END
  0
LINE
  5
DE8
330
2
100
AcDbEntity
  8
图框
370
    -3
100
AcDbLine
 10
863.5610578944787
 20
222.7996926676811
 30
0.0
 11
895.6467894240576
 21
222.7996926676811
 31
0.0
  0
MTEXT
  5
DE9
330
2
100
AcDbEntity
  8
图框
100
AcDbMText
 10
888.6016482797138
 20
230.2427841570104
 30
0.0
 40
0.6000023545570477
 41
2.432903725062595
 46
1.35222218681682
 71
     5
 72
     5
  1
{\C4;2.6}
  7
Romans字体
 73
     1
 44
1.0
1001
ACAD
1000
MTEXTBEGIN
1070
    73
1070
     1
1070
    44
1040
1.0
1070
    74
1070
     0
1000
MTEXTEND
1000
ACAD_MTEXT_DEFINED_HEIGHT_BEGIN
1070
    46
1040
1.35222218681682
1000
ACAD_MTEXT_DEFINED_HEIGHT_END
  0
LINE
  5
DEA
330
2
100
AcDbEntity
  8
图框
370
    35
380
     1
100
AcDbLine
 10
889.8181001422447
 20
233.6233396241184
 30
0.0
 11
889.8181001422447
 21
222.7996926676811
 31
0.0
  0
LINE
  5
DEB
330
2
100
AcDbEntity
  8
图框
370
    -3
100
AcDbLine
 10
884.9522926921192
 20
233.6233396241184
 30
0.0
 11
884.9522926921205
 21
222.7996926676811
 31
0.0
  0
LINE
  5
DEC
330
2
100
AcDbEntity
  8
图框
370
    -3
100
AcDbLine
 10
882.0023880141221
 20
232.2711274408018
 30
0.0
 11
882.0023880141215
 21
222.7996926676811
 31
0.0
  0
LINE
  5
DED
330
2
100
AcDbEntity
  8
图框
370
    -3
100
AcDbLine
 10
868.1162315225529
 20
222.7996926676811
 30
0.0
 11
868.1162315225529
 21
230.9185020459435
 31
0.0
  0
LINE
  5
DEE
330
2
100
AcDbEntity
  8
图框
370
    -3
100
AcDbLine
 10
874.1830655207362
 20
222.7996926676811
 30
0.0
 11
874.1830655207362
 21
233.6233396241181
 31
0.0
  0
MTEXT
  5
DEF
330
2
100
AcDbEntity
  8
图框
100
AcDbMText
 10
880.0475573909421
 20
227.5383397833792
 30
0.0
 40
0.59999791584616
 41
3.909661246359378
 46
1.352222186815279
 71
     5
 72
     5
  1
{\C4;0.75}
  7
Romans字体
 73
     1
 44
1.0
1001
ACAD
1000
MTEXTBEGIN
1070
    73
1070
     1
1070
    44
1040
1.0
1070
    74
1070
     0
1000
MTEXTEND
1000
ACAD_MTEXT_DEFINED_HEIGHT_BEGIN
1070
    46
1040
1.352222186815279
1000
ACAD_MTEXT_DEFINED_HEIGHT_END
  0
MTEXT
  5
DF0
330
2
100
AcDbEntity
  8
图框
100
AcDbMText
 10
883.4773403531208
 20
227.5383397833792
 30
0.0
 40
0.59999791584616
 41
2.949904677998274
 46
1.35222218681521
 71
     5
 72
     5
  1
{\C4;18}
  7
Romans字体
 73
     1
 44
1.0
1001
ACAD
1000
MTEXTBEGIN
1070
    73
1070
     1
1070
    44
1040
1.0
1070
    74
1070
     0
1000
MTEXTEND
1000
ACAD_MTEXT_DEFINED_HEIGHT_BEGIN
1070
    46
1040
1.35222218681521
1000
ACAD_MTEXT_DEFINED_HEIGHT_END
  0
MTEXT
  5
DF1
330
2
100
AcDbEntity
  8
图框
100
AcDbMText
 10
886.1687445546511
 20
227.5383397833792
 30
0.0
 40
0.59999791584616
 41
2.432903725062625
 46
1.352222186815245
 71
     5
 72
     5
  1
{\C4;1.3}
  7
Romans字体
 73
     1
 44
1.0
1001
ACAD
1000
MTEXTBEGIN
1070
    73
1070
     1
1070
    44
1040
1.0
1070
    74
1070
     0
1000
MTEXTEND
1000
ACAD_MTEXT_DEFINED_HEIGHT_BEGIN
1070
    46
1040
1.352222186815245
1000
ACAD_MTEXT_DEFINED_HEIGHT_END
  0
MTEXT
  5
DF2
330
2
100
AcDbEntity
  8
图框
100
AcDbMText
 10
880.0475573909421
 20
226.1839415734392
 30
0.0
 40
0.59999791584616
 41
3.909661246359378
 46
1.347870140565607
 71
     5
 72
     5
  1
{\C4;1.0}
  7
Romans字体
 73
     1
 44
1.0
1001
ACAD
1000
MTEXTBEGIN
1070
    73
1070
     1
1070
    44
1040
1.0
1070
    74
1070
     0
1000
MTEXTEND
1000
ACAD_MTEXT_DEFINED_HEIGHT_BEGIN
1070
    46
1040
1.347870140565607
1000
ACAD_MTEXT_DEFINED_HEIGHT_END
  0
MTEXT
  5
DF3
330
2
100
AcDbEntity
  8
图框
100
AcDbMText
 10
883.4773403527876
 20
226.1839015376956
 30
0.0
 40
0.59999791584616
 41
2.94990467733168
 46
1.347790069078369
 71
     5
 72
     5
  1
{\C4;18}
  7
Romans字体
 73
     1
 44
1.0
1001
ACAD
1000
MTEXTBEGIN
1070
    73
1070
     1
1070
    44
1040
1.0
1070
    74
1070
     0
1000
MTEXTEND
1000
ACAD_MTEXT_DEFINED_HEIGHT_BEGIN
1070
    46
1040
1.347790069078369
1000
ACAD_MTEXT_DEFINED_HEIGHT_END
  0
MTEXT
  5
DF4
330
2
100
AcDbEntity
  8
图框
100
AcDbMText
 10
886.168744554318
 20
226.1861175965639
 30
0.0
 40
0.59999791584616
 41
2.43290372572923
 46
1.352222186815245
 71
     5
 72
     5
  1
{\C4;1.45}
  7
Romans字体
 73
     1
 44
1.0
1001
ACAD
1000
MTEXTBEGIN
1070
    73
1070
     1
1070
    44
1040
1.0
1070
    74
1070
     0
1000
MTEXTEND
1000
ACAD_MTEXT_DEFINED_HEIGHT_BEGIN
1070
    46
1040
1.352222186815245
1000
ACAD_MTEXT_DEFINED_HEIGHT_END
  0
MTEXT
  5
DF5
330
2
100
AcDbEntity
  8
图框
100
AcDbMText
 10
888.6016482797138
 20
224.8324280442871
 30
0.0
 40
0.59999791584616
 41
2.432903725062594
 46
1.35515691773857
 71
     5
 72
     5
  1
{\C4;3.0}
  7
Romans字体
 73
     1
 44
1.0
1001
ACAD
1000
MTEXTBEGIN
1070
    73
1070
     1
1070
    44
1040
1.0
1070
    74
1070
     0
1000
MTEXTEND
1000
ACAD_MTEXT_DEFINED_HEIGHT_BEGIN
1070
    46
1040
1.35515691773857
1000
ACAD_MTEXT_DEFINED_HEIGHT_END
  0
LINE
  5
DF6
330
2
100
AcDbEntity
  8
图框
370
    -3
100
AcDbLine
 10
884.9522926914529
 20
233.623259552631
 30
0.0
 11
884.9522926914538
 21
222.7996926676811
 31
0.0
  0
LINE
  5
DF7
330
2
100
AcDbEntity
  8
图框
370
    -3
100
AcDbLine
 10
882.0023880134549
 20
232.2710473693145
 30
0.0
 11
882.0023880134549
 21
222.7996926676811
 31
0.0
  0
LINE
  5
DF8
330
2
100
AcDbEntity
  8
图框
370
    -3
100
AcDbLine
 10
868.1162315218863
 20
222.7996926676811
 30
0.0
 11
868.1162315218863
 21
233.623259552631
 31
0.0
  0
LINE
  5
DF9
330
2
100
AcDbEntity
  8
图框
370
    -3
100
AcDbLine
 10
874.1830655200692
 20
222.7996926676811
 30
0.0
 11
874.1830655200692
 21
233.623259552631
 31
0.0
  0
LINE
  5
DFA
330
2
100
AcDbEntity
  8
图框
370
    35
380
     1
100
AcDbLine
 10
895.6468028881985
 20
233.6232595526313
 30
0.0
 11
895.6467894240576
 21
222.7996926676811
 31
0.0
  0
LINE
  5
DFB
330
2
100
AcDbEntity
  8
图框
370
    -3
100
AcDbLine
 10
863.5610578944787
 20
226.8622286899717
 30
0.0
 11
895.6467944777115
 21
226.8622286899714
 31
0.0
  0
LINE
  5
DFC
330
2
100
AcDbEntity
  8
图框
370
    -3
100
AcDbLine
 10
863.5610578944787
 20
225.5100065031564
 30
0.0
 11
895.6467927955939
 21
225.5100065031562
 31
0.0
  0
MTEXT
  5
DFD
102
{ACAD_XDICTIONARY
360
1DD1
102
}
330
2
100
AcDbEntity
  8
打标文字
 62
     3
100
AcDbMText
 10
915.953416316691
 20
218.7074368814613
 30
0.0
 40
0.75
 41
21.56370451087032
 46
26.95590277395973
 71
     1
 72
     5
  3
\A1;{\f仿宋_GB2312|b0|i0|c134|p49;技术参数}:\P- {\f仿宋_GB2312|b0|i0|c134|p49;材料}: {\f仿宋_GB2312|b0|i0|c134|p49;铜合金}\P- {\f仿宋_GB2312|b0|i0|c134|p49;表面处理}: {\f仿宋_GB2312|b0|i0|c134|p49;镀金}\P- {\f仿宋_GB2312|b0|i0|c134|p49;额定电流}: 10A\P- {\f仿宋_GB2312|b0|i0|c134|p49
  3
;接触电阻}: ≤3mΩ\P- {\f仿宋_GB2312|b0|i0|c134|p49;线径范围}: 0.14-0.37mm{\H0.7x;\S2^ ;}(26-22 AWG)\P- {\f仿宋_GB2312|b0|i0|c134|p49;可插拔次数}: {\f仿宋_GB2312|b0|i0|c134|p49;≥}500\P\PTechnical specification:\P- Material: copper alloy\P- Surface: hard-gold plated\P- Rat
  1
ed current: 10A\P- Contact resistance: ≤3mΩ\P- Wire gauge: 0.14-0.37mm{\H0.7x;\S2^ ;}(26-22 AWG)\P- Mating cycles: {\f仿宋_GB2312|b0|i0|c134|p49;≥}500
  7
Romans字体
 73
     1
 44
1.0
1001
ACAD
1000
MTEXTBEGIN
1070
    73
1070
     1
1070
    44
1040
1.0
1070
    74
1070
     0
1000
MTEXTEND
1000
ACAD_MTEXT_DEFINED_HEIGHT_BEGIN
1070
    46
1040
26.95590277395973
1000
ACAD_MTEXT_DEFINED_HEIGHT_END
  0
MTEXT
  5
DFE
330
2
100
AcDbEntity
  8
图框
100
AcDbMText
 10
865.8386447081825
 20
232.2711224390171
 30
0.0
 40
0.6000023545570477
 41
4.555173627407302
 46
2.704274227227899
 71
     5
 72
     5
  1
{\f仿宋_GB2312|b0|i0|c134|p49;\C4;产品代号\fFangSong_GB2312|b0|i0|c134|p49;\P\Fromans|c134;Part Code}
  7
Romans字体
 73
     1
 44
1.0
1001
ACAD
1000
MTEXTBEGIN
1070
    73
1070
     1
1070
    44
1040
1.0
1070
    74
1070
     0
1000
MTEXTEND
1000
ACAD_MTEXT_DEFINED_HEIGHT_BEGIN
1070
    46
1040
2.704274227227899
1000
ACAD_MTEXT_DEFINED_HEIGHT_END
  0
MTEXT
  5
DFF
330
2
100
AcDbEntity
  8
图框
100
AcDbMText
 10
876.1378961439159
 20
232.9471884949322
 30
0.0
 40
0.6000023545570477
 41
3.909661246359441
 46
1.352142115397727
 71
     5
 72
     5
  1
{\f仿宋_GB2312|b0|i0|c134|p49;\C4;重量\Fromans|c134;/Weight}
  7
Romans字体
 73
     1
 44
1.0
1001
ACAD
1000
MTEXTBEGIN
1070
    73
1070
     1
1070
    44
1040
1.0
1070
    74
1070
     0
1000
MTEXTEND
1000
ACAD_MTEXT_DEFINED_HEIGHT_BEGIN
1070
    46
1040
1.352142115397727
1000
ACAD_MTEXT_DEFINED_HEIGHT_END
  0
MTEXT
  5
E00
330
2
100
AcDbEntity
  8
图框
100
AcDbMText
 10
876.1378961439159
 20
231.5950063438259
 30
0.0
 40
0.6000023545570477
 41
3.909661246359381
 46
1.352222186814967
 71
     5
 72
     5
  1
{\C4;g}
  7
Romans字体
 73
     1
 44
1.0
1001
ACAD
1000
MTEXTBEGIN
1070
    73
1070
     1
1070
    44
1040
1.0
1070
    74
1070
     0
1000
MTEXTEND
1000
ACAD_MTEXT_DEFINED_HEIGHT_BEGIN
1070
    46
1040
1.352222186814967
1000
ACAD_MTEXT_DEFINED_HEIGHT_END
  0
LINE
  5
E01
330
2
100
AcDbEntity
  8
图框
370
    -3
100
AcDbLine
 10
878.0927267670957
 20
233.623259552631
 30
0.0
 11
878.0927267670955
 21
222.7996926676811
 31
0.0
  0
MTEXT
  5
E02
330
2
100
AcDbEntity
  8
图框
100
AcDbMText
 10
892.7324515152216
 20
232.2710774015248
 30
0.0
 40
0.6000023545570477
 41
5.828702745953783
 46
2.704364302212259
 71
     5
 72
     5
  1
{\f仿宋_GB2312|b0|i0|c134|p49;\C4;剥线长度\Fromans|c134;\PStripping Length}
  7
Romans字体
 73
     1
 44
1.0
1001
ACAD
1000
MTEXTBEGIN
1070
    73
1070
     1
1070
    44
1040
1.0
1070
    74
1070
     0
1000
MTEXTEND
1000
ACAD_MTEXT_DEFINED_HEIGHT_BEGIN
1070
    46
1040
2.704364302212259
1000
ACAD_MTEXT_DEFINED_HEIGHT_END
  0
MTEXT
  5
E04
330
2
100
AcDbEntity
  8
图框
100
AcDbMText
 10
892.7324515152216
 20
230.2427841570104
 30
0.0
 40
0.6000023545570477
 41
5.828702745953752
 46
1.35222218681682
 71
     5
 72
     5
  1
{\C4;6}
  7
Romans字体
 73
     1
 44
1.0
1001
ACAD
1000
MTEXTBEGIN
1070
    73
1070
     1
1070
    44
1040
1.0
1070
    74
1070
     0
1000
MTEXTEND
1000
ACAD_MTEXT_DEFINED_HEIGHT_BEGIN
1070
    46
1040
1.35222218681682
1000
ACAD_MTEXT_DEFINED_HEIGHT_END
  0
MTEXT
  5
E05
330
2
100
AcDbEntity
  8
图框
100
AcDbMText
 10
876.1378961432487
 20
230.2427040855226
 30
0.0
 40
0.6000023545570477
 41
3.909661246359451
 46
1.352222186816528
 71
     5
 72
     5
  1
{\C4;0.68}
  7
Romans字体
 73
     1
 44
1.0
1001
ACAD
1000
MTEXTBEGIN
1070
    73
1070
     1
1070
    44
1040
1.0
1070
    74
1070
     0
1000
MTEXTEND
1000
ACAD_MTEXT_DEFINED_HEIGHT_BEGIN
1070
    46
1040
1.352222186816528
1000
ACAD_MTEXT_DEFINED_HEIGHT_END
  0
MTEXT
  5
E06
330
2
100
AcDbEntity
  8
图框
100
AcDbMText
 10
876.1378961432487
 20
228.8904818987061
 30
0.0
 40
0.6000023545570477
 41
3.909661246359451
 46
1.352222186816528
 71
     5
 72
     5
  1
{\C4;0.66}
  7
Romans字体
 73
     1
 44
1.0
1001
ACAD
1000
MTEXTBEGIN
1070
    73
1070
     1
1070
    44
1040
1.0
1070
    74
1070
     0
1000
MTEXTEND
1000
ACAD_MTEXT_DEFINED_HEIGHT_BEGIN
1070
    46
1040
1.352222186816528
1000
ACAD_MTEXT_DEFINED_HEIGHT_END
  0
MTEXT
  5
E07
330
2
100
AcDbEntity
  8
图框
100
AcDbMText
 10
876.1378961432487
 20
227.538259711891
 30
0.0
 40
0.6000023545570477
 41
3.909661246359451
 46
1.352222186816528
 71
     5
 72
     5
  1
{\C4;0.64}
  7
Romans字体
 73
     1
 44
1.0
1001
ACAD
1000
MTEXTBEGIN
1070
    73
1070
     1
1070
    44
1040
1.0
1070
    74
1070
     0
1000
MTEXTEND
1000
ACAD_MTEXT_DEFINED_HEIGHT_BEGIN
1070
    46
1040
1.352222186816528
1000
ACAD_MTEXT_DEFINED_HEIGHT_END
  0
MTEXT
  5
E08
330
2
100
AcDbEntity
  8
图框
100
AcDbMText
 10
876.1378961432487
 20
226.1860375250758
 30
0.0
 40
0.6000023545570477
 41
3.909661246359451
 46
1.352222186816528
 71
     5
 72
     5
  1
{\C4;0.62}
  7
Romans字体
 73
     1
 44
1.0
1001
ACAD
1000
MTEXTBEGIN
1070
    73
1070
     1
1070
    44
1040
1.0
1070
    74
1070
     0
1000
MTEXTEND
1000
ACAD_MTEXT_DEFINED_HEIGHT_BEGIN
1070
    46
1040
1.352222186816528
1000
ACAD_MTEXT_DEFINED_HEIGHT_END
  0
MTEXT
  5
E09
330
2
100
AcDbEntity
  8
图框
100
AcDbMText
 10
876.1378961432487
 20
224.8338153382606
 30
0.0
 40
0.6000023545570477
 41
3.909661246359451
 46
1.352222186816528
 71
     5
 72
     5
  1
{\C4;0.62}
  7
Romans字体
 73
     1
 44
1.0
1001
ACAD
1000
MTEXTBEGIN
1070
    73
1070
     1
1070
    44
1040
1.0
1070
    74
1070
     0
1000
MTEXTEND
1000
ACAD_MTEXT_DEFINED_HEIGHT_BEGIN
1070
    46
1040
1.352222186816528
1000
ACAD_MTEXT_DEFINED_HEIGHT_END
  0
MTEXT
  5
E0A
330
2
100
AcDbEntity
  8
图框
100
AcDbMText
 10
880.0475573906089
 20
224.8338954097479
 30
0.0
 40
0.6000023545570477
 41
3.909661247026225
 46
1.3522221868165
 71
     5
 72
     5
  1
{\C4;1.5}
  7
Romans字体
 73
     1
 44
1.0
1001
ACAD
1000
MTEXTBEGIN
1070
    73
1070
     1
1070
    44
1040
1.0
1070
    74
1070
     0
1000
MTEXTEND
1000
ACAD_MTEXT_DEFINED_HEIGHT_BEGIN
1070
    46
1040
1.3522221868165
1000
ACAD_MTEXT_DEFINED_HEIGHT_END
  0
MTEXT
  5
E0B
330
2
100
AcDbEntity
  8
图框
100
AcDbMText
 10
883.4773403521211
 20
224.8338954097479
 30
0.0
 40
0.6000023545570477
 41
2.94990467866485
 46
1.352222186816635
 71
     5
 72
     5
  1
{\C4;16}
  7
Romans字体
 73
     1
 44
1.0
1001
ACAD
1000
MTEXTBEGIN
1070
    73
1070
     1
1070
    44
1040
1.0
1070
    74
1070
     0
1000
MTEXTEND
1000
ACAD_MTEXT_DEFINED_HEIGHT_BEGIN
1070
    46
1040
1.352222186816635
1000
ACAD_MTEXT_DEFINED_HEIGHT_END
  0
MTEXT
  5
E0C
330
2
100
AcDbEntity
  8
图框
100
AcDbMText
 10
886.1687445543177
 20
224.8338954097479
 30
0.0
 40
0.6000023545570477
 41
2.43290372572948
 46
1.352222186816667
 71
     5
 72
     5
  1
{\C4;1.75}
  7
Romans字体
 73
     1
 44
1.0
1001
ACAD
1000
MTEXTBEGIN
1070
    73
1070
     1
1070
    44
1040
1.0
1070
    74
1070
     0
1000
MTEXTEND
1000
ACAD_MTEXT_DEFINED_HEIGHT_BEGIN
1070
    46
1040
1.352222186816667
1000
ACAD_MTEXT_DEFINED_HEIGHT_END
  0
MTEXT
  5
E0D
330
2
100
AcDbEntity
  8
图框
100
AcDbMText
 10
865.8386447085158
 20
227.5383397833785
 30
0.0
 40
0.6000023545570477
 41
4.555173628074113
 46
1.3522221868162
 71
     5
 72
     5
  1
{\C4;ZCDGM-0.75}
  7
Romans字体
 73
     1
 44
1.0
1001
ACAD
1000
MTEXTBEGIN
1070
    73
1070
     1
1070
    44
1040
1.0
1070
    74
1070
     0
1000
MTEXTEND
1000
ACAD_MTEXT_DEFINED_HEIGHT_BEGIN
1070
    46
1040
1.3522221868162
1000
ACAD_MTEXT_DEFINED_HEIGHT_END
  0
MTEXT
  5
E0E
330
2
100
AcDbEntity
  8
图框
100
AcDbMText
 10
865.8386447078491
 20
226.1816854788261
 30
0.0
 40
0.6000023545570477
 41
4.555173628074113
 46
1.3522221868162
 71
     5
 72
     5
  1
{\C4;ZCDGM-1.0}
  7
Romans字体
 73
     1
 44
1.0
1001
ACAD
1000
MTEXTBEGIN
1070
    73
1070
     1
1070
    44
1040
1.0
1070
    74
1070
     0
1000
MTEXTEND
1000
ACAD_MTEXT_DEFINED_HEIGHT_BEGIN
1070
    46
1040
1.3522221868162
1000
ACAD_MTEXT_DEFINED_HEIGHT_END
  0
MTEXT
  5
E0F
330
2
100
AcDbEntity
  8
图框
100
AcDbMText
 10
865.8386447078491
 20
224.833895409748
 30
0.0
 40
0.6000023545570477
 41
4.555173628074113
 46
1.3522221868162
 71
     5
 72
     5
  1
{\C4;ZCDGM-1.5}
  7
Romans字体
 73
     1
 44
1.0
1001
ACAD
1000
MTEXTBEGIN
1070
    73
1070
     1
1070
    44
1040
1.0
1070
    74
1070
     0
1000
MTEXTEND
1000
ACAD_MTEXT_DEFINED_HEIGHT_BEGIN
1070
    46
1040
1.3522221868162
1000
ACAD_MTEXT_DEFINED_HEIGHT_END
  0
MTEXT
  5
E10
330
2
100
AcDbEntity
  8
图框
100
AcDbMText
 10
888.6016482797138
 20
228.8905619701951
 30
0.0
 40
0.6000023545570477
 41
2.432903725062595
 46
1.35222218681682
 71
     5
 72
     5
  1
{\C4;2.6}
  7
Romans字体
 73
     1
 44
1.0
1001
ACAD
1000
MTEXTBEGIN
1070
    73
1070
     1
1070
    44
1040
1.0
1070
    74
1070
     0
1000
MTEXTEND
1000
ACAD_MTEXT_DEFINED_HEIGHT_BEGIN
1070
    46
1040
1.35222218681682
1000
ACAD_MTEXT_DEFINED_HEIGHT_END
  0
MTEXT
  5
E11
330
2
100
AcDbEntity
  8
图框
100
AcDbMText
 10
888.6016482797138
 20
227.5383397833799
 30
0.0
 40
0.6000023545570477
 41
2.432903725062595
 46
1.35222218681682
 71
     5
 72
     5
  1
{\C4;2.6}
  7
Romans字体
 73
     1
 44
1.0
1001
ACAD
1000
MTEXTBEGIN
1070
    73
1070
     1
1070
    44
1040
1.0
1070
    74
1070
     0
1000
MTEXTEND
1000
ACAD_MTEXT_DEFINED_HEIGHT_BEGIN
1070
    46
1040
1.35222218681682
1000
ACAD_MTEXT_DEFINED_HEIGHT_END
  0
MTEXT
  5
E12
330
2
100
AcDbEntity
  8
图框
100
AcDbMText
 10
888.6016482797138
 20
226.1861175965645
 30
0.0
 40
0.6000023545570477
 41
2.432903725062595
 46
1.35222218681682
 71
     5
 72
     5
  1
{\C4;2.6}
  7
Romans字体
 73
     1
 44
1.0
1001
ACAD
1000
MTEXTBEGIN
1070
    73
1070
     1
1070
    44
1040
1.0
1070
    74
1070
     0
1000
MTEXTEND
1000
ACAD_MTEXT_DEFINED_HEIGHT_BEGIN
1070
    46
1040
1.35222218681682
1000
ACAD_MTEXT_DEFINED_HEIGHT_END
  0
LINE
  5
E13
330
2
100
AcDbEntity
  8
图框
370
    35
380
     1
100
AcDbLine
 10
887.3851964171826
 20
233.623259552631
 30
0.0
 11
887.3851964171826
 21
222.7996926676811
 31
0.0
  0
MTEXT
  5
E15
330
2
100
AcDbEntity
  8
图框
100
AcDbMText
 10
871.1496485216446
 20
223.4831505809613
 30
0.0
 40
0.6000023545570477
 41
6.066833998183262
 46
1.352222186816343
 71
     5
 72
     5
  1
{\C4;1010172101002}
  7
Romans字体
 73
     1
 44
1.0
1001
ACAD
1000
MTEXTBEGIN
1070
    73
1070
     1
1070
    44
1040
1.0
1070
    74
1070
     0
1000
MTEXTEND
1000
ACAD_MTEXT_DEFINED_HEIGHT_BEGIN
1070
    46
1040
1.352222186816343
1000
ACAD_MTEXT_DEFINED_HEIGHT_END
  0
MTEXT
  5
E16
330
2
100
AcDbEntity
  8
图框
100
AcDbMText
 10
888.6016482797138
 20
223.4816832155006
 30
0.0
 40
0.59999791584616
 41
2.432903725062594
 46
1.35515691773857
 71
     5
 72
     5
  1
{\C4;3.2}
  7
Romans字体
 73
     1
 44
1.0
1001
ACAD
1000
MTEXTBEGIN
1070
    73
1070
     1
1070
    44
1040
1.0
1070
    74
1070
     0
1000
MTEXTEND
1000
ACAD_MTEXT_DEFINED_HEIGHT_BEGIN
1070
    46
1040
1.35515691773857
1000
ACAD_MTEXT_DEFINED_HEIGHT_END
  0
MTEXT
  5
E17
330
2
100
AcDbEntity
  8
图框
100
AcDbMText
 10
876.1378961432487
 20
223.483070509474
 30
0.0
 40
0.6000023545570477
 41
3.909661246359451
 46
1.352222186816528
 71
     5
 72
     5
  1
{\C4;0.62}
  7
Romans字体
 73
     1
 44
1.0
1001
ACAD
1000
MTEXTBEGIN
1070
    73
1070
     1
1070
    44
1040
1.0
1070
    74
1070
     0
1000
MTEXTEND
1000
ACAD_MTEXT_DEFINED_HEIGHT_BEGIN
1070
    46
1040
1.352222186816528
1000
ACAD_MTEXT_DEFINED_HEIGHT_END
  0
MTEXT
  5
E18
330
2
100
AcDbEntity
  8
图框
100
AcDbMText
 10
880.0475573906089
 20
223.4831505809615
 30
0.0
 40
0.6000023545570477
 41
3.909661247026225
 46
1.3522221868165
 71
     5
 72
     5
  1
{\C4;2.5}
  7
Romans字体
 73
     1
 44
1.0
1001
ACAD
1000
MTEXTBEGIN
1070
    73
1070
     1
1070
    44
1040
1.0
1070
    74
1070
     0
1000
MTEXTEND
1000
ACAD_MTEXT_DEFINED_HEIGHT_BEGIN
1070
    46
1040
1.3522221868165
1000
ACAD_MTEXT_DEFINED_HEIGHT_END
  0
MTEXT
  5
E19
330
2
100
AcDbEntity
  8
图框
100
AcDbMText
 10
883.4773403521211
 20
223.4831505809615
 30
0.0
 40
0.6000023545570477
 41
2.94990467866485
 46
1.352222186816635
 71
     5
 72
     5
  1
{\C4;14}
  7
Romans字体
 73
     1
 44
1.0
1001
ACAD
1000
MTEXTBEGIN
1070
    73
1070
     1
1070
    44
1040
1.0
1070
    74
1070
     0
1000
MTEXTEND
1000
ACAD_MTEXT_DEFINED_HEIGHT_BEGIN
1070
    46
1040
1.352222186816635
1000
ACAD_MTEXT_DEFINED_HEIGHT_END
  0
MTEXT
  5
E1A
330
2
100
AcDbEntity
  8
图框
100
AcDbMText
 10
886.1687445543177
 20
223.4831505809615
 30
0.0
 40
0.6000023545570477
 41
2.43290372572948
 46
1.352222186816667
 71
     5
 72
     5
  1
{\C4;2.25}
  7
Romans字体
 73
     1
 44
1.0
1001
ACAD
1000
MTEXTBEGIN
1070
    73
1070
     1
1070
    44
1040
1.0
1070
    74
1070
     0
1000
MTEXTEND
1000
ACAD_MTEXT_DEFINED_HEIGHT_BEGIN
1070
    46
1040
1.352222186816667
1000
ACAD_MTEXT_DEFINED_HEIGHT_END
  0
MTEXT
  5
E1B
330
2
100
AcDbEntity
  8
图框
100
AcDbMText
 10
865.8386447078491
 20
223.4831505809616
 30
0.0
 40
0.6000023545570477
 41
4.555173628074113
 46
1.3522221868162
 71
     5
 72
     5
  1
{\C4;ZCDGM-2.5}
  7
Romans字体
 73
     1
 44
1.0
1001
ACAD
1000
MTEXTBEGIN
1070
    73
1070
     1
1070
    44
1040
1.0
1070
    74
1070
     0
1000
MTEXTEND
1000
ACAD_MTEXT_DEFINED_HEIGHT_BEGIN
1070
    46
1040
1.3522221868162
1000
ACAD_MTEXT_DEFINED_HEIGHT_END
  0
MTEXT
  5
E1D
330
2
100
AcDbEntity
  8
图框
100
AcDbMText
 10
892.7324515152216
 20
228.8905619701951
 30
0.0
 40
0.6000023545570477
 41
5.828702745953752
 46
1.35222218681682
 71
     5
 72
     5
  1
{\C4;6}
  7
Romans字体
 73
     1
 44
1.0
1001
ACAD
1000
MTEXTBEGIN
1070
    73
1070
     1
1070
    44
1040
1.0
1070
    74
1070
     0
1000
MTEXTEND
1000
ACAD_MTEXT_DEFINED_HEIGHT_BEGIN
1070
    46
1040
1.35222218681682
1000
ACAD_MTEXT_DEFINED_HEIGHT_END
  0
MTEXT
  5
E1F
330
2
100
AcDbEntity
  8
图框
100
AcDbMText
 10
892.7324515152216
 20
227.5383397833799
 30
0.0
 40
0.6000023545570477
 41
5.828702745953752
 46
1.35222218681682
 71
     5
 72
     5
  1
{\C4;6}
  7
Romans字体
 73
     1
 44
1.0
1001
ACAD
1000
MTEXTBEGIN
1070
    73
1070
     1
1070
    44
1040
1.0
1070
    74
1070
     0
1000
MTEXTEND
1000
ACAD_MTEXT_DEFINED_HEIGHT_BEGIN
1070
    46
1040
1.35222218681682
1000
ACAD_MTEXT_DEFINED_HEIGHT_END
  0
MTEXT
  5
E21
330
2
100
AcDbEntity
  8
图框
100
AcDbMText
 10
892.7324464688696
 20
226.1861175965645
 30
0.0
 40
0.6000023545570477
 41
5.828702745953752
 46
1.35222218681682
 71
     5
 72
     5
  1
{\C4;6}
  7
Romans字体
 73
     1
 44
1.0
1001
ACAD
1000
MTEXTBEGIN
1070
    73
1070
     1
1070
    44
1040
1.0
1070
    74
1070
     0
1000
MTEXTEND
1000
ACAD_MTEXT_DEFINED_HEIGHT_BEGIN
1070
    46
1040
1.35222218681682
1000
ACAD_MTEXT_DEFINED_HEIGHT_END
  0
MTEXT
  5
E23
330
2
100
AcDbEntity
  8
图框
100
AcDbMText
 10
892.7324447775632
 20
224.8265085541323
 30
0.0
 40
0.6000023545570477
 41
5.828702745953752
 46
1.35222218681682
 71
     5
 72
     5
  1
{\C4;6}
  7
Romans字体
 73
     1
 44
1.0
1001
ACAD
1000
MTEXTBEGIN
1070
    73
1070
     1
1070
    44
1040
1.0
1070
    74
1070
     0
1000
MTEXTEND
1000
ACAD_MTEXT_DEFINED_HEIGHT_BEGIN
1070
    46
1040
1.35222218681682
1000
ACAD_MTEXT_DEFINED_HEIGHT_END
  0
MTEXT
  5
E25
330
2
100
AcDbEntity
  8
图框
100
AcDbMText
 10
892.7324430973332
 20
223.4758037610896
 30
0.0
 40
0.6000023545570477
 41
5.828702745953752
 46
1.35222218681682
 71
     5
 72
     5
  1
{\C4;6}
  7
Romans字体
 73
     1
 44
1.0
1001
ACAD
1000
MTEXTBEGIN
1070
    73
1070
     1
1070
    44
1040
1.0
1070
    74
1070
     0
1000
MTEXTEND
1000
ACAD_MTEXT_DEFINED_HEIGHT_BEGIN
1070
    46
1040
1.35222218681682
1000
ACAD_MTEXT_DEFINED_HEIGHT_END
  0
MTEXT
  5
E27
330
2
100
AcDbEntity
  8
图框
 62
     3
100
AcDbMText
 10
931.8634219125636
 20
192.0269116315993
 30
0.0
 40
0.746378394635083
 41
8.403098007973925
 46
2.218038889596384
 71
     5
 72
     5
  1
{\C4;1010172100302}
  7
Romans字体
 73
     1
 44
1.0
1001
ACAD
1000
MTEXTBEGIN
1070
    73
1070
     1
1070
    44
1040
1.0
1070
    74
1070
     0
1000
MTEXTEND
1000
ACAD_MTEXT_DEFINED_HEIGHT_BEGIN
1070
    46
1040
2.218038889596384
1000
ACAD_MTEXT_DEFINED_HEIGHT_END
  0
INSERT
  5
E28
330
2
100
AcDbEntity
  8
DIM
100
AcDbBlockReference
  2
A4图框-NEW
 10
654.3328449330941
 20
64.73956723759312
 30
0.0
 41
0.25
 42
0.25
 43
0.25
  0
MTEXT
  5
E29
330
2
100
AcDbEntity
  8
图框
 62
     3
100
AcDbMText
 10
920.2564900517662
 20
188.5854605982526
 30
0.0
 40
0.746378394635083
 41
2.707336787601192
 46
1.971523801091308
 71
     5
 72
     5
  1
0.68g
  7
Romans字体
 73
     1
 44
1.0
1001
ACAD
1000
MTEXTBEGIN
1070
    73
1070
     1
1070
    44
1040
1.0
1070
    74
1070
     0
1000
MTEXTEND
1000
ACAD_MTEXT_DEFINED_HEIGHT_BEGIN
1070
    46
1040
1.971523801091308
1000
ACAD_MTEXT_DEFINED_HEIGHT_END
  0
MTEXT
  5
E2A
330
2
100
AcDbEntity
  8
图框
 62
     3
100
AcDbMText
 10
914.850005353986
 20
188.7000027124269
 30
0.0
 40
0.7463783937585367
 41
2.707337108597616
 46
1.971523650302624
 71
     5
 72
     5
  1
4:1
  7
Romans字体
 73
     1
 44
1.0
1001
ACAD
1000
MTEXTBEGIN
1070
    73
1070
     1
1070
    44
1040
1.0
1070
    74
1070
     0
1000
MTEXTEND
1000
ACAD_MTEXT_DEFINED_HEIGHT_BEGIN
1070
    46
1040
1.971523650302624
1000
ACAD_MTEXT_DEFINED_HEIGHT_END
  0
MTEXT
  5
ECF
330
2
100
AcDbEntity
  8
图框
 62
     3
100
AcDbMText
 10
931.8594363859672
 20
194.2089976755001
 30
0.0
 40
0.7413120000000003
 41
2.984676924772828
 46
0.0
 71
     5
 72
     5
  1
ZCDGM-0.37
  7
Romans字体
 73
     1
 44
1.0
1001
ACAD
1000
MTEXTBEGIN
1070
    73
1070
     1
1070
    44
1040
1.0
1070
    74
1070
     0
1000
MTEXTEND
  0
MTEXT
  5
ED0
330
2
100
AcDbEntity
  8
图框
100
AcDbMText
 10
865.8386447081825
 20
228.9021079141669
 30
0.0
 40
0.6000023545570477
 41
4.555173627407453
 46
1.329130298870162
 71
     5
 72
     5
  1
{\C4;ZCDGM-0.50}
  7
Romans字体
 73
     1
 44
1.0
1001
ACAD
1000
MTEXTBEGIN
1070
    73
1070
     1
1070
    44
1040
1.0
1070
    74
1070
     0
1000
MTEXTEND
1000
ACAD_MTEXT_DEFINED_HEIGHT_BEGIN
1070
    46
1040
1.329130298870162
1000
ACAD_MTEXT_DEFINED_HEIGHT_END
  0
LINE
  5
1034
330
2
100
AcDbEntity
  8
0
100
AcDbLine
 10
903.4542191157477
 20
211.015068058548
 30
0.0
 11
903.4542191157477
 21
210.5931472583484
 31
0.0
  0
LINE
  5
1035
330
2
100
AcDbEntity
  8
0
100
AcDbLine
 10
902.0417545514467
 20
211.5991076584483
 30
0.0
 11
902.0417545514467
 21
210.0091076584481
 31
0.0
  0
LINE
  5
1036
330
2
100
AcDbEntity
  8
0
100
AcDbLine
 10
892.2217545514472
 20
211.5991076584483
 30
0.0
 11
892.2217545514472
 21
210.0091076584481
 31
0.0
  0
LINE
  5
1037
330
2
100
AcDbEntity
  8
0
100
AcDbLine
 10
891.791754551447
 20
209.5791076584478
 30
0.0
 11
892.2217545514472
 21
210.0091076584481
 31
0.0
  0
LINE
  5
1038
330
2
100
AcDbEntity
  8
0
100
AcDbLine
 10
891.791754551447
 20
212.0291076584486
 30
0.0
 11
892.2217545514472
 21
211.5991076584483
 31
0.0
  0
LINE
  5
1039
330
2
100
AcDbEntity
  8
0
100
AcDbLine
 10
891.791754551447
 20
212.0291076584486
 30
0.0
 11
891.791754551447
 21
209.5791076584478
 31
0.0
  0
LINE
  5
103A
330
2
100
AcDbEntity
  8
0
100
AcDbLine
 10
891.3917545514474
 20
212.0291076584486
 30
0.0
 11
891.3917545514474
 21
209.5791076584478
 31
0.0
  0
HATCH
  5
103B
330
2
100
AcDbEntity
  8
hat
100
AcDbHatch
 10
0.0
 20
0.0
 30
0.0
210
0.0
220
0.0
230
1.0
  2
ANSI31
 70
     0
 71
     0
 91
        2
 92
        5
 93
       11
 72
     1
 10
879.1417545514473
 20
210.0791071665494
 11
878.8417545514471
 21
209.7791071665493
 72
     1
 10
878.8417545514471
 20
209.7791071665493
 11
878.8417545514471
 21
209.2041076584478
 72
     1
 10
878.8417545514471
 20
209.2041076584478
 11
879.8417545514471
 21
209.2041076584478
 72
     1
 10
879.8417545514471
 20
209.2041076584478
 11
879.8417545514466
 21
209.3041076584482
 72
     1
 10
879.8417545514466
 20
209.3041076584482
 11
883.8417545514467
 21
209.3041076584482
 72
     1
 10
883.8417545514467
 20
209.3041076584482
 11
883.8417545514472
 21
209.2041076584478
 72
     1
 10
883.8417545514472
 20
209.2041076584478
 11
885.6845676151243
 21
209.2041076584478
 72
     4
 94
        3
 73
     0
 74
     0
 95
       10
 96
        6
 40
1.821547673055573
 40
1.821547673055573
 40
1.821547673055573
 40
1.821547673055573
 40
2.566182865861041
 40
3.338017568474501
 40
3.531942831892796
 40
3.531942831892796
 40
3.531942831892796
 40
3.531942831892796
 10
885.6845676151246
 20
209.2041076584478
 10
885.5354800355367
 20
209.4359192058987
 10
885.2318591102692
 20
209.9080097497199
 10
885.7644932542671
 20
210.4510556088139
 10
885.6672002549576
 20
210.7449538990733
 10
885.6405638449263
 20
210.8041071665498
 72
     1
 10
885.6405638449263
 20
210.8041071665498
 11
885.2603334966339
 21
210.8041071665498
 72
     1
 10
885.2603334966339
 20
210.8041071665498
 11
884.8417545514472
 21
210.0791071665494
 72
     1
 10
884.8417545514472
 20
210.0791071665494
 11
879.1417545514473
 21
210.0791071665494
 97
        0
 92
        5
 93
       12
 72
     1
 10
884.8417545514472
 20
211.5291071665502
 11
885.2603334966339
 21
210.8041071665498
 72
     1
 10
885.2603334966339
 20
210.8041071665498
 11
885.4661258834685
 21
210.8041071665498
 72
     1
 10
885.4661258834685
 20
210.8041076584491
 11
885.6405636234258
 21
210.8041076584491
 72
     4
 94
        3
 73
     0
 74
     0
 95
       10
 96
        6
 40
0.0
 40
0.0
 40
0.0
 40
0.0
 40
0.4904439878411089
 40
1.128915585301625
 40
1.821547135515803
 40
1.821547135515803
 40
1.821547135515803
 40
1.821547135515803
 10
885.6405636234262
 20
210.8041076584491
 10
885.5731990818945
 20
210.953708408035
 10
885.3136096089702
 20
211.3000989488598
 10
885.7441371489086
 20
211.9566687368811
 10
885.3145892517645
 20
212.2509698414237
 10
885.0910765762746
 20
212.4041076584485
 72
     1
 10
885.0910765762746
 20
212.4041076584485
 11
883.8417545514472
 21
212.4041076584485
 72
     1
 10
883.8417545514472
 20
212.4041076584485
 11
883.8417545514472
 21
212.3041076584482
 72
     1
 10
883.8417545514472
 20
212.3041076584482
 11
879.8417545514471
 21
212.3041076584482
 72
     1
 10
879.8417545514471
 20
212.3041076584482
 11
879.8417545514471
 21
212.4041076584485
 72
     1
 10
879.8417545514471
 20
212.4041076584485
 11
878.8417545514471
 21
212.4041076584485
 72
     1
 10
878.8417545514471
 20
212.4041076584485
 11
878.8417545514471
 21
211.8291071665512
 72
     1
 10
878.8417545514471
 20
211.8291071665512
 11
879.1417545514473
 21
211.5291071665502
 72
     1
 10
879.1417545514473
 20
211.5291071665502
 11
884.8417545514472
 21
211.5291071665502
 97
        0
 75
     0
 76
     1
 52
-90.00000000000001
 41
0.1
 77
     0
 78
     1
 53
315.0
 43
3466.801927126117
 44
6395.814596690251
 45
0.2245064030267289
 46
0.2245064030267288
 79
     0
 47
0.0386302949343484
 98
        2
 10
883.2095577981062
 20
209.7234135311869
 10
883.5266256825262
 20
211.8389327669225
1001
ACAD
1010
0.0
1020
0.0
1030
0.0
  0
LINE
  5
103C
330
2
100
AcDbEntity
  8
0
100
AcDbLine
 10
878.8417545514471
 20
212.4041076584485
 30
0.0
 11
879.8417545514471
 21
212.4041076584485
 31
0.0
  0
LINE
  5
103D
330
2
100
AcDbEntity
  8
0
100
AcDbLine
 10
883.8417545514472
 20
212.4041076584485
 30
0.0
 11
885.8417545514472
 21
212.4041076584485
 31
0.0
  0
LINE
  5
103E
102
{ACAD_REACTORS
330
10D0
102
}
330
2
100
AcDbEntity
  8
0
100
AcDbLine
 10
879.8417545514471
 20
212.3041076584482
 30
0.0
 11
883.8417545514472
 21
212.3041076584482
 31
0.0
  0
LINE
  5
103F
330
2
100
AcDbEntity
  8
0
100
AcDbLine
 10
891.3917545514474
 20
212.0291076584486
 30
0.0
 11
891.791754551447
 21
212.0291076584486
 31
0.0
  0
LINE
  5
1040
330
2
100
AcDbEntity
  8
0
100
AcDbLine
 10
879.1417545514473
 20
211.5291071665502
 30
0.0
 11
884.8417545514472
 21
211.5291071665502
 31
0.0
  0
LINE
  5
1041
330
2
100
AcDbEntity
  8
0
100
AcDbLine
 10
892.2217545514472
 20
211.5991076584483
 30
0.0
 11
902.0417545514467
 21
211.5991076584483
 31
0.0
  0
LINE
  5
1042
330
2
100
AcDbEntity
  8
0
100
AcDbLine
 10
902.0417545514467
 20
211.5991076584483
 30
0.0
 11
892.2217545514472
 21
211.5991076584483
 31
0.0
  0
LINE
  5
1043
330
2
100
AcDbEntity
  8
0
100
AcDbLine
 10
892.2217545514472
 20
210.0091076584481
 30
0.0
 11
902.0417545514467
 21
210.0091076584481
 31
0.0
  0
LINE
  5
1044
330
2
100
AcDbEntity
  8
0
100
AcDbLine
 10
892.2217545514472
 20
210.0091076584481
 30
0.0
 11
902.0417545514467
 21
210.0091076584481
 31
0.0
  0
LINE
  5
1045
330
2
100
AcDbEntity
  8
0
100
AcDbLine
 10
879.1417545514473
 20
210.0791071665494
 30
0.0
 11
884.8417545514472
 21
210.0791071665494
 31
0.0
  0
LINE
  5
1046
330
2
100
AcDbEntity
  8
0
100
AcDbLine
 10
891.3917545514474
 20
209.5791076584478
 30
0.0
 11
891.791754551447
 21
209.5791076584478
 31
0.0
  0
LINE
  5
1047
102
{ACAD_REACTORS
330
10D0
102
}
330
2
100
AcDbEntity
  8
0
100
AcDbLine
 10
879.8417545514471
 20
209.3041076584482
 30
0.0
 11
883.8417545514472
 21
209.3041076584482
 31
0.0
  0
LINE
  5
1048
330
2
100
AcDbEntity
  8
0
100
AcDbLine
 10
878.8417545514471
 20
209.2041076584478
 30
0.0
 11
879.8417545514471
 21
209.2041076584478
 31
0.0
  0
LINE
  5
1049
330
2
100
AcDbEntity
  8
0
100
AcDbLine
 10
883.8417545514472
 20
209.2041076584478
 30
0.0
 11
885.8417545514472
 21
209.2041076584478
 31
0.0
  0
LINE
  5
104A
330
2
100
AcDbEntity
  8
0
100
AcDbLine
 10
885.8417545514472
 20
212.4041076584485
 30
0.0
 11
885.8417545514472
 21
209.2041076584478
 31
0.0
  0
LINE
  5
104B
330
2
100
AcDbEntity
  8
0
100
AcDbLine
 10
885.2603334966339
 20
210.8041071665498
 30
0.0
 11
884.8417545514472
 21
210.0791071665494
 31
0.0
  0
LINE
  5
104C
330
2
100
AcDbEntity
  8
0
100
AcDbLine
 10
885.2603334966339
 20
210.8041071665498
 30
0.0
 11
884.8417545514472
 21
211.5291071665502
 31
0.0
  0
LINE
  5
104D
102
{ACAD_REACTORS
330
10D3
102
}
330
2
100
AcDbEntity
  8
0
100
AcDbLine
 10
884.8417545514466
 20
211.5291071665502
 30
0.0
 11
884.8417545514472
 21
210.0791071665494
 31
0.0
  0
LINE
  5
104E
330
2
100
AcDbEntity
  8
0
100
AcDbLine
 10
883.8417545514472
 20
212.4041076584485
 30
0.0
 11
883.8417545514472
 21
212.3041076584482
 31
0.0
  0
LINE
  5
104F
330
2
100
AcDbEntity
  8
0
100
AcDbLine
 10
883.8417545514467
 20
209.3041076584482
 30
0.0
 11
883.8417545514472
 21
209.2041076584478
 31
0.0
  0
LINE
  5
1050
330
2
100
AcDbEntity
  8
0
100
AcDbLine
 10
878.8417545514471
 20
209.7791071665493
 30
0.0
 11
879.1417545514473
 21
210.0791071665494
 31
0.0
  0
LINE
  5
1051
330
2
100
AcDbEntity
  8
0
100
AcDbLine
 10
879.1417545514473
 20
211.5291071665502
 30
0.0
 11
878.8417545514471
 21
211.8291071665513
 31
0.0
  0
LINE
  5
1052
330
2
100
AcDbEntity
  8
0
100
AcDbLine
 10
879.8417545514471
 20
212.4041076584485
 30
0.0
 11
879.8417545514471
 21
212.3041076584482
 31
0.0
  0
LINE
  5
1053
330
2
100
AcDbEntity
  8
0
100
AcDbLine
 10
879.8417545514466
 20
209.3041076584482
 30
0.0
 11
879.8417545514471
 21
209.2041076584478
 31
0.0
  0
LINE
  5
1054
102
{ACAD_REACTORS
330
108F
102
}
330
2
100
AcDbEntity
  8
0
100
AcDbLine
 10
879.1417545514473
 20
211.5291071665502
 30
0.0
 11
879.1417545514473
 21
210.0791071665494
 31
0.0
  0
LINE
  5
1055
102
{ACAD_REACTORS
330
1085
330
108B
102
}
330
2
100
AcDbEntity
  8
0
100
AcDbLine
 10
878.8417545514471
 20
212.4041076584485
 30
0.0
 11
878.8417545514471
 21
209.2041076584478
 31
0.0
  0
ARC
  5
1056
102
{ACAD_REACTORS
330
1088
102
}
330
2
100
AcDbEntity
  8
0
100
AcDbCircle
 10
902.0417545514467
 20
212.0091076584481
 30
0.0
 40
2.0
100
AcDbArc
 50
270.0
 51
314.9291844259218
  0
ARC
  5
1057
102
{ACAD_REACTORS
330
1088
102
}
330
2
100
AcDbEntity
  8
0
100
AcDbCircle
 10
902.0417545514467
 20
209.5991076584483
 30
0.0
 40
2.0
100
AcDbArc
 50
45.07081557407814
 51
90.0
  0
ARC
  5
1058
330
2
100
AcDbEntity
  8
0
100
AcDbCircle
 10
903.2437795514475
 20
210.8041076584482
 30
0.0
 40
0.297975
100
AcDbArc
 50
314.9291844259218
 51
45.07081557407814
  0
LINE
  5
1059
330
2
100
AcDbEntity
  8
中心线
  6
CENTER2
 48
0.3
100
AcDbLine
 10
903.8793213829206
 20
210.8041071665498
 30
0.0
 11
878.1978359555674
 21
210.8041071665498
 31
0.0
  0
LINE
  5
105A
330
2
100
AcDbEntity
  8
0
100
AcDbLine
 10
891.3917545514474
 20
211.9519196239985
 30
0.0
 11
891.3917545514474
 21
209.6562956928988
 31
0.0
  0
LINE
  5
105B
330
2
100
AcDbEntity
  8
0
100
AcDbLine
 10
890.3917545514472
 20
209.7165306693983
 30
0.0
 11
890.3917545514472
 21
211.015568775099
 31
0.0
  0
LINE
  5
105C
330
2
100
AcDbEntity
  8
0
100
AcDbLine
 10
890.3917545514472
 20
211.673719405299
 30
0.0
 11
890.3917545514472
 21
211.9519396165983
 31
0.0
  0
LINE
  5
105D
330
2
100
AcDbEntity
  8
0
100
AcDbLine
 10
887.7637444534471
 20
209.6574652045988
 30
0.0
 11
887.8330594884474
 21
209.543015213199
 31
0.0
  0
LINE
  5
105E
330
2
100
AcDbEntity
  8
0
100
AcDbLine
 10
891.3917545514474
 20
209.6562956928988
 30
0.0
 11
888.2605787947472
 21
209.6562956928988
 31
0.0
  0
LINE
  5
105F
330
2
100
AcDbEntity
  8
0
100
AcDbLine
 10
887.7637444534471
 20
209.6562956928988
 30
0.0
 11
885.8917545514472
 21
209.6562956928988
 31
0.0
  0
LINE
  5
1060
330
2
100
AcDbEntity
  8
0
100
AcDbLine
 10
890.3917545514472
 20
209.7165306693983
 30
0.0
 11
888.5509060082473
 21
209.7165306693983
 31
0.0
  0
LINE
  5
1061
330
2
100
AcDbEntity
  8
0
100
AcDbLine
 10
887.779928353547
 20
209.7165306693983
 30
0.0
 11
887.5417545514475
 21
209.7165306693983
 31
0.0
  0
LINE
  5
1062
330
2
100
AcDbEntity
  8
0
100
AcDbLine
 10
887.8059406255474
 20
209.8581057494989
 30
0.0
 11
887.5417545514475
 21
209.8581057494989
 31
0.0
  0
LINE
  5
1063
330
2
100
AcDbEntity
  8
0
100
AcDbLine
 10
887.8330594884474
 20
210.4090406169985
 30
0.0
 11
887.7637444534471
 21
210.4105307730984
 31
0.0
  0
LINE
  5
1064
330
2
100
AcDbEntity
  8
0
100
AcDbLine
 10
890.3917545514472
 20
210.9877041022988
 30
0.0
 11
887.5417545514475
 21
210.9877041022988
 31
0.0
  0
LINE
  5
1065
330
2
100
AcDbEntity
  8
0
100
AcDbLine
 10
890.3917545514472
 20
211.015568775099
 30
0.0
 11
887.5417545514475
 21
211.015568775099
 31
0.0
  0
LINE
  5
1066
330
2
100
AcDbEntity
  8
0
100
AcDbLine
 10
890.3917545514472
 20
211.673719405299
 30
0.0
 11
887.5417545514475
 21
211.673719405299
 31
0.0
  0
LINE
  5
1067
330
2
100
AcDbEntity
  8
0
100
AcDbLine
 10
891.3917545514474
 20
211.9519396165983
 30
0.0
 11
890.3917545514472
 21
211.9519396165983
 31
0.0
  0
LINE
  5
1068
330
2
100
AcDbEntity
  8
0
100
AcDbLine
 10
887.5417545514475
 20
211.9519396165983
 30
0.0
 11
885.8917545514472
 21
211.9519396165983
 31
0.0
  0
LWPOLYLINE
  5
1069
330
2
100
AcDbEntity
  8
0
100
AcDbPolyline
 90
        7
 70
     0
 43
0.0
 10
890.3917545514472
 20
211.9519396165983
 10
889.9036463933471
 20
211.9610340404984
 10
889.4533155706472
 20
211.9974213846986
 10
889.0385531756473
 20
212.0709760086989
 10
888.6470860382472
 20
212.1884501589989
 10
888.2661278287471
 20
212.3495787817988
 10
887.8917545514473
 20
212.5519396165987
  0
LINE
  5
106A
330
2
100
AcDbEntity
  8
0
100
AcDbLine
 10
889.9050920751474
 20
211.960970600499
 30
0.0
 11
889.9028851768472
 21
211.9610678695986
 31
0.0
  0
LINE
  5
106B
330
2
100
AcDbEntity
  8
0
100
AcDbLine
 10
889.4573342878471
 20
211.9969236574985
 30
0.0
 11
889.4500291766471
 21
211.9978311298988
 31
0.0
  0
LINE
  5
106C
330
2
100
AcDbEntity
  8
0
100
AcDbLine
 10
888.267307728447
 20
212.3490094289987
 30
0.0
 11
888.2652384008475
 21
212.3500082368987
 31
0.0
  0
LINE
  5
106D
330
2
100
AcDbEntity
  8
0
100
AcDbLine
 10
889.0408473015472
 20
212.0704330561989
 30
0.0
 11
889.0368781417473
 21
212.0713735166988
 31
0.0
  0
LINE
  5
106E
330
2
100
AcDbEntity
  8
0
100
AcDbLine
 10
888.6487094743474
 20
212.1878616664985
 30
0.0
 11
888.645825251347
 21
212.1889077924985
 31
0.0
  0
LINE
  5
106F
330
2
100
AcDbEntity
  8
0
100
AcDbLine
 10
887.5417545514475
 20
211.015568775099
 30
0.0
 11
887.5417545514475
 21
209.7165306693983
 31
0.0
  0
LINE
  5
1070
330
2
100
AcDbEntity
  8
0
100
AcDbLine
 10
887.5417545514475
 20
211.673719405299
 30
0.0
 11
887.5417545514475
 21
211.9519228938985
 31
0.0
  0
LINE
  5
1071
330
2
100
AcDbEntity
  8
0
100
AcDbLine
 10
887.7637444534471
 20
212.337822872199
 30
0.0
 11
887.8917400977471
 21
212.5519154405988
 31
0.0
  0
LINE
  5
1072
330
2
100
AcDbEntity
  8
0
100
AcDbLine
 10
885.8917545514472
 20
209.6562956928988
 30
0.0
 11
885.8917545514472
 21
211.9519196239985
 31
0.0
  0
ARC
  5
1073
330
2
100
AcDbEntity
  8
0
100
AcDbCircle
 10
890.0011629948471
 20
202.9258795109986
 30
0.0
 40
7.811916937899999
100
AcDbArc
 50
106.1618912361112
 51
106.6432062421993
  0
ARC
  5
1074
330
2
100
AcDbEntity
  8
0
100
AcDbCircle
 10
890.3493050599472
 20
216.6509666776988
 30
0.0
 40
4.7792862803
100
AcDbArc
 50
239.0554230215848
 51
244.1470898255799
  0
ARC
  5
1075
330
2
100
AcDbEntity
  8
0
100
AcDbCircle
 10
890.0391271007469
 20
216.0105001415991
 30
0.0
 40
4.067660030799999
100
AcDbArc
 50
244.1773556797626
 51
249.9688156518077
  0
SPLINE
  5
1076
330
2
100
AcDbEntity
  8
0
100
AcDbSpline
210
0.0
220
0.0
230
1.0
 70
     8
 71
     3
 72
    14
 73
    10
 74
     0
 42
0.0000000001
 43
0.0000000001
 40
0.0
 40
0.0
 40
0.0
 40
0.0
 40
0.255299806
 40
0.3821741063
 40
0.508763619
 40
0.5719554778
 40
0.6347099487
 40
0.7585376820000001
 40
1.0
 40
1.0
 40
1.0
 40
1.0
 10
890.3917545514472
 20
210.7282046795986
 30
0.0
 10
890.1711527020468
 20
210.7282046795986
 30
0.0
 10
889.8408352842471
 20
210.7256122284985
 30
0.0
 10
889.4016328902472
 20
210.7051284344985
 30
0.0
 10
889.1288484713472
 20
210.6827206477988
 30
0.0
 10
888.9120828875471
 20
210.6574601845991
 30
0.0
 10
888.698353241647
 20
210.6272908912984
 30
0.0
 10
888.3340438352471
 20
210.5628044666987
 30
0.0
 10
888.0270973245474
 20
210.4871372607991
 30
0.0
 10
887.8266977089474
 20
210.4290619667986
 30
0.0
  0
SPLINE
  5
1077
330
2
100
AcDbEntity
  8
0
100
AcDbSpline
210
0.0
220
0.0
230
1.0
 70
     8
 71
     3
 72
    14
 73
    10
 74
     0
 42
0.0000000001
 43
0.0000000001
 40
0.0
 40
0.0
 40
0.0
 40
0.0
 40
0.2588838018
 40
0.3860391733
 40
0.5119551453
 40
0.5744860589
 40
0.6365696273000001
 40
0.759370615
 40
1.0
 40
1.0
 40
1.0
 40
1.0
 10
890.3917545514472
 20
209.8511190352988
 30
0.0
 10
890.1684528556469
 20
209.8511190352988
 30
0.0
 10
889.8353782328472
 20
209.8484876640982
 30
0.0
 10
889.394239761747
 20
209.8270618958991
 30
0.0
 10
889.1229191021471
 20
209.8037812160988
 30
0.0
 10
888.9083955585475
 20
209.7775881613984
 30
0.0
 10
888.6972422926474
 20
209.7464875124984
 30
0.0
 10
888.3361640834474
 20
209.6800599705989
 30
0.0
 10
888.0319210047472
 20
209.6024600787992
 30
0.0
 10
887.8330594884474
 20
209.543015213199
 30
0.0
  0
SPLINE
  5
1078
330
2
100
AcDbEntity
  8
0
100
AcDbSpline
210
0.0
220
0.0
230
1.0
 70
     8
 71
     3
 72
    13
 73
     9
 74
     0
 42
0.0000000001
 43
0.0000000001
 40
0.0
 40
0.0
 40
0.0
 40
0.0
 40
0.2867991396
 40
0.554836374
 40
0.6788292628
 40
0.7947633882999999
 40
0.9019811695999999
 40
1.0
 40
1.0
 40
1.0
 40
1.0
 10
887.7637444534471
 20
210.4105307730984
 30
0.0
 10
887.7801370591472
 20
210.3395189064991
 30
0.0
 10
887.8050986191475
 20
210.2004729692986
 30
0.0
 10
887.8169559095471
 20
210.0279268090985
 30
0.0
 10
887.8128262176474
 20
209.8988152890984
 30
0.0
 10
887.8034081168467
 20
209.8110059816986
 30
0.0
 10
887.7877146786472
 20
209.7308069173983
 30
0.0
 10
887.7725114427471
 20
209.6807791707984
 30
0.0
 10
887.7637444534471
 20
209.6574652045988
 30
0.0
  0
SPLINE
  5
1079
330
2
100
AcDbEntity
  8
0
100
AcDbSpline
210
0.0
220
0.0
230
1.0
 70
     8
 71
     3
 72
    15
 73
    11
 74
     0
 42
0.0000000001
 43
0.0000000001
 40
0.0
 40
0.0
 40
0.0
 40
0.0
 40
0.2476707076
 40
0.3711734308
 40
0.4953392721000001
 40
0.5579046282000001
 40
0.6205313851
 40
0.7460600234000001
 40
0.8724315863999997
 40
1.0
 40
1.0
 40
1.0
 40
1.0
 10
890.3917545514472
 20
211.7024750590986
 30
0.0
 10
890.1652276170471
 20
211.7024750590986
 30
0.0
 10
889.825363160547
 20
211.7079749078989
 30
0.0
 10
889.3741630310474
 20
211.751927681999
 30
0.0
 10
889.094168373947
 20
211.8001544915983
 30
0.0
 10
888.8725434357469
 20
211.8543301876985
 30
0.0
 10
888.6525161686472
 20
211.919189493799
 30
0.0
 10
888.3822654908472
 20
212.0189080794985
 30
0.0
 10
888.0671401444471
 20
212.1651092171983
 30
0.0
 10
887.8638896531475
 20
212.2779508762983
 30
0.0
 10
887.7637444534471
 20
212.337822872199
 30
0.0
  0
SPLINE
  5
107A
330
2
100
AcDbEntity
  8
0
100
AcDbSpline
210
0.0
220
0.0
230
1.0
 70
     8
 71
     3
 72
    13
 73
     9
 74
     0
 42
0.0000000001
 43
0.0000000001
 40
0.0
 40
0.0
 40
0.0
 40
0.0
 40
0.0980188304
 40
0.2052366117
 40
0.3211707372
 40
0.4451636260000001
 40
0.7132008604000001
 40
1.0
 40
1.0
 40
1.0
 40
1.0
 10
887.8330594884474
 20
209.543015213199
 30
0.0
 10
887.843141526147
 20
209.5698262743986
 30
0.0
 10
887.8606252474474
 20
209.6273581828987
 30
0.0
 10
887.8786727014471
 20
209.7195871068985
 30
0.0
 10
887.8895035173473
 20
209.8205678103991
 30
0.0
 10
887.8942526629471
 20
209.9690460584984
 30
0.0
 10
887.8806167789473
 20
210.1674741426991
 30
0.0
 10
887.8519109850472
 20
210.3273769703988
 30
0.0
 10
887.8330594884474
 20
210.4090406169985
 30
0.0
  0
SPLINE
  5
107B
330
2
100
AcDbEntity
  8
0
100
AcDbSpline
210
0.0
220
0.0
230
1.0
 70
     8
 71
     3
 72
    16
 73
    12
 74
     0
 42
0.0000000001
 43
0.0000000001
 40
0.0
 40
0.0
 40
0.0
 40
0.0
 40
0.1262028056
 40
0.250901967
 40
0.3745458433
 40
0.497910878
 40
0.5598097575
 40
0.6218345357000003
 40
0.7464834787000001
 40
0.8724199540999999
 40
1.0
 40
1.0
 40
1.0
 40
1.0
 10
890.3917545514472
 20
211.8375553754991
 30
0.0
 10
890.2793827249469
 20
211.8375553754991
 30
0.0
 10
890.0559615633472
 20
211.8393893429989
 30
0.0
 10
889.722663287147
 20
211.8537323633987
 30
0.0
 10
889.3930431473473
 20
211.8858113688989
 30
0.0
 10
889.1216208993473
 20
211.932514870699
 30
0.0
 10
888.9076552545471
 20
211.9848167974983
 30
0.0
 10
888.6952919085475
 20
212.0474228955987
 30
0.0
 10
888.4338087552473
 20
212.1439279580986
 30
0.0
 10
888.128092642647
 20
212.2857897406989
 30
0.0
 10
887.9305613625474
 20
212.395471340999
 30
0.0
 10
887.8330594884474
 20
212.4537630195987
 30
0.0
  0
SPLINE
  5
107C
330
2
100
AcDbEntity
  8
0
100
AcDbSpline
210
0.0
220
0.0
230
1.0
 70
     8
 71
     3
 72
    14
 73
    10
 74
     0
 42
0.0000000001
 43
0.0000000001
 40
0.0
 40
0.0
 40
0.0
 40
0.0
 40
0.2588838018
 40
0.3860391733
 40
0.5119551453
 40
0.5744860589
 40
0.6365696273000001
 40
0.759370615
 40
1.0
 40
1.0
 40
1.0
 40
1.0
 10
890.3917545514472
 20
210.7171444390984
 30
0.0
 10
890.1684528556469
 20
210.7171444390984
 30
0.0
 10
889.8353782328472
 20
210.7145130678987
 30
0.0
 10
889.394239761747
 20
210.6930872996986
 30
0.0
 10
889.1229191021471
 20
210.6698066198983
 30
0.0
 10
888.9083955585475
 20
210.6436135651989
 30
0.0
 10
888.6972422926474
 20
210.6125129161988
 30
0.0
 10
888.3361640834474
 20
210.5460853742984
 30
0.0
 10
888.0319210047472
 20
210.4684854825987
 30
0.0
 10
887.8330594884474
 20
210.4090406169985
 30
0.0
  0
SPLINE
  5
107D
330
2
100
AcDbEntity
  8
0
100
AcDbSpline
210
0.0
220
0.0
230
1.0
 70
     8
 71
     3
 72
     8
 73
     4
 74
     0
 42
0.0000000001
 43
0.0000000001
 40
0.0
 40
0.0
 40
0.0
 40
0.0
 40
1.0
 40
1.0
 40
1.0
 40
1.0
 10
890.3917545514472
 20
211.9519396165983
 30
0.0
 10
890.2271858799473
 20
211.9519396165983
 30
0.0
 10
890.0649983270472
 20
211.953946300599
 30
0.0
 10
889.9050920751474
 20
211.960970600499
 30
0.0
  0
SPLINE
  5
107E
330
2
100
AcDbEntity
  8
0
100
AcDbSpline
210
0.0
220
0.0
230
1.0
 70
     8
 71
     3
 72
     8
 73
     4
 74
     0
 42
0.0000000001
 43
0.0000000001
 40
0.0
 40
0.0
 40
0.0
 40
0.0
 40
1.0
 40
1.0
 40
1.0
 40
1.0
 10
889.9028851768472
 20
211.9610678695986
 30
0.0
 10
889.7523747602471
 20
211.9677238227982
 30
0.0
 10
889.6038855534468
 20
211.9788385041989
 30
0.0
 10
889.4573342878471
 20
211.9969236574985
 30
0.0
  0
SPLINE
  5
107F
330
2
100
AcDbEntity
  8
0
100
AcDbSpline
210
0.0
220
0.0
230
1.0
 70
     8
 71
     3
 72
     8
 73
     4
 74
     0
 42
0.0000000001
 43
0.0000000001
 40
0.0
 40
0.0
 40
0.0
 40
0.0
 40
1.0
 40
1.0
 40
1.0
 40
1.0
 10
889.4500291766471
 20
211.9978311298988
 30
0.0
 10
889.3119375224474
 20
212.0150988797991
 30
0.0
 10
889.1755668164474
 20
212.0385981308987
 30
0.0
 10
889.0408473015472
 20
212.0704330561989
 30
0.0
  0
DIMENSION
  5
1083
102
{ACAD_XDICTIONARY
360
1084
102
}
102
{ACAD_REACTORS
330
1085
102
}
330
2
100
AcDbEntity
  8
DIM
100
AcDbDimension
  2
*D2
 10
878.8417545514471
 20
202.6875310496334
 30
0.0
 11
891.1917545514473
 21
203.8875310496334
 31
0.0
 70
    32
  1
<>
 71
     5
 42
24.70000000000027
 73
     0
 74
     0
 75
     0
  3
01
100
AcDbAlignedDimension
 13
903.5417545514476
 23
211.1629109317214
 33
0.0
 14
878.8417545514471
 24
209.2041076584478
 34
0.0
100
AcDbRotatedDimension
1001
ACAD
1000
DSTYLE
1002
{
1070
    40
1040
0.8
1002
}
  0
DIMENSION
  5
1086
102
{ACAD_XDICTIONARY
360
1087
102
}
102
{ACAD_REACTORS
330
1088
102
}
330
2
100
AcDbEntity
  8
DIM
100
AcDbDimension
  2
*D3
 10
906.4534529973137
 20
211.5991076584483
 30
0.0
 11
906.4534529973137
 21
216.1991076584484
 31
0.0
 70
   160
  1
%%C1.6
 71
     5
 42
1.590000000000145
 73
     0
 74
     0
 75
     0
  3
01
100
AcDbAlignedDimension
 13
902.0417545514467
 23
210.0091076584481
 33
0.0
 14
902.0417545514467
 24
211.5991076584483
 34
0.0
 50
270.0
100
AcDbRotatedDimension
1001
ACAD
1000
DSTYLE
1002
{
1070
    40
1040
0.8
1002
}
  0
DIMENSION
  5
1089
102
{ACAD_XDICTIONARY
360
108A
102
}
102
{ACAD_REACTORS
330
108B
102
}
330
2
100
AcDbEntity
  8
DIM
100
AcDbDimension
  2
*D4
 10
874.6310458034736
 20
212.4041076584485
 30
0.0
 11
873.4310458034737
 21
215.8041076584487
 31
0.0
 70
    32
  1
%%C<>
 71
     5
 42
3.200000000000727
 73
     0
 74
     0
 75
     0
  3
01
100
AcDbAlignedDimension
 13
878.8417545514471
 23
209.2041076584478
 33
0.0
 14
878.8417545514471
 24
212.4041076584485
 34
0.0
 50
270.0
100
AcDbRotatedDimension
1001
ACAD
1000
DSTYLE
1002
{
1070
    40
1040
0.8
1002
}
  0
SPLINE
  5
108C
330
2
100
AcDbEntity
  8
DIM
100
AcDbSpline
210
0.0
220
0.0
230
1.0
 70
     8
 71
     3
 72
    12
 73
     8
 74
     6
 42
0.0000000001
 43
0.0000000001
 44
0.0000000001
 40
0.0
 40
0.0
 40
0.0
 40
0.0
 40
0.6926315502142297
 40
1.331103147674787
 40
2.015472936474023
 40
2.787307639087483
 40
3.531942831893005
 40
3.531942831893005
 40
3.531942831893005
 40
3.531942831893005
 10
885.0910765762746
 20
212.4041076584485
 30
0.0
 10
885.3145892517645
 20
212.250969841424
 30
0.0
 10
885.7441371489088
 20
211.9566687368809
 30
0.0
 10
885.2677747269682
 20
211.2301991260419
 30
0.0
 10
885.9172225803561
 20
210.6067704255027
 30
0.0
 10
885.2318591102692
 20
209.9080097497201
 30
0.0
 10
885.5354800355366
 20
209.4359192058989
 30
0.0
 10
885.6845676151246
 20
209.2041076584478
 30
0.0
 11
885.0910765762746
 21
212.4041076584485
 31
0.0
 11
885.5601280378492
 21
211.8944713265933
 31
0.0
 11
885.4470010453681
 21
211.2661017981023
 31
0.0
 11
885.6902239075216
 21
210.6264107420862
 31
0.0
 11
885.4243754942677
 21
209.9018050359751
 31
0.0
 11
885.6845676151246
 21
209.2041076584478
 31
0.0
  0
DIMENSION
  5
108D
102
{ACAD_XDICTIONARY
360
108E
102
}
102
{ACAD_REACTORS
330
108F
102
}
330
2
100
AcDbEntity
  8
DIM
100
AcDbDimension
  2
*D5
 10
877.0782533342806
 20
210.0791071665494
 30
0.0
 11
877.0782533342806
 21
215.2148214522646
 31
0.0
 70
   160
  1
%%Cd
 71
     5
 42
1.450000000000725
 73
     0
 74
     0
 75
     0
  3
01
100
AcDbAlignedDimension
 13
879.1417545514473
 23
211.5291071665502
 33
0.0
 14
879.1417545514473
 24
210.0791071665494
 34
0.0
 50
270.0
100
AcDbRotatedDimension
1001
ACAD
1000
DSTYLE
1002
{
1070
    40
1040
0.8
1002
}
  0
LINE
  5
1090
330
2
100
AcDbEntity
  8
0
100
AcDbLine
 10
884.703845330768
 20
188.7182858232656
 30
0.0
 11
884.5714479869522
 21
188.4077992264521
 31
0.0
  0
LINE
  5
1091
330
2
100
AcDbEntity
  8
0
100
AcDbLine
 10
883.847698812727
 20
189.5913004367892
 30
0.0
 11
883.3487621009876
 21
188.4212379779098
 31
0.0
  0
LINE
  5
1092
330
2
100
AcDbEntity
  8
0
100
AcDbLine
 10
876.6212753245524
 20
192.6727837759576
 30
0.0
 11
876.1223386128142
 21
191.5027213170785
 31
0.0
  0
LINE
  5
1093
330
2
100
AcDbEntity
  8
0
100
AcDbLine
 10
875.6709740572381
 20
191.3212219011845
 30
0.0
 11
876.1223386128142
 21
191.5027213170785
 31
0.0
  0
LINE
  5
1094
330
2
100
AcDbEntity
  8
0
100
AcDbLine
 10
876.43977590866
 20
193.1241483315335
 30
0.0
 11
876.6212753245524
 21
192.6727837759576
 31
0.0
  0
LINE
  5
1095
330
2
100
AcDbEntity
  8
0
100
AcDbLine
 10
876.43977590866
 20
193.1241483315335
 30
0.0
 11
875.6709740572381
 21
191.3212219011845
 31
0.0
  0
LINE
  5
1096
330
2
100
AcDbEntity
  8
0
100
AcDbLine
 10
876.1453899951442
 20
193.2495952924407
 30
0.0
 11
875.3766492995886
 21
191.446812279443
 31
0.0
  0
LINE
  5
1097
330
2
100
AcDbEntity
  8
0
100
AcDbLine
 10
867.0276956724423
 20
197.4637733875717
 30
0.0
 11
867.7635840113593
 21
197.1499767135221
 31
0.0
  0
LINE
  5
1098
330
2
100
AcDbEntity
  8
0
100
AcDbLine
 10
870.7071373670309
 20
195.8947900173231
 30
0.0
 11
872.1789140448668
 21
195.2671966692234
 31
0.0
  0
LINE
  5
1099
330
2
100
AcDbEntity
  8
0
100
AcDbLine
 10
867.7322043439557
 20
197.0763878796303
 30
0.0
 11
870.6757576996272
 21
195.8212011834314
 31
0.0
  0
LINE
  5
109A
330
2
100
AcDbEntity
  8
0
100
AcDbLine
 10
876.1454205730927
 20
193.2496670011535
 30
0.0
 11
876.43977590866
 21
193.1241483315335
 31
0.0
  0
LINE
  5
109B
330
2
100
AcDbEntity
  8
0
100
AcDbLine
 10
876.6212753245524
 20
192.6727837759576
 30
0.0
 11
883.847698812727
 21
189.5913004367892
 31
0.0
  0
LINE
  5
109C
330
2
100
AcDbEntity
  8
0
100
AcDbLine
 10
876.1223386128142
 20
191.5027213170785
 30
0.0
 11
883.3487621009876
 21
188.4212379779098
 31
0.0
  0
LINE
  5
109D
330
2
100
AcDbEntity
  8
0
100
AcDbLine
 10
875.376618721671
 20
191.4467405708044
 30
0.0
 11
875.6709740572381
 21
191.3212219011845
 31
0.0
  0
LINE
  5
109E
330
2
100
AcDbEntity
  8
0
100
AcDbLine
 10
866.7908143218054
 20
194.868722862877
 30
0.0
 11
869.7343676774774
 21
193.613536166678
 31
0.0
  0
LINE
  5
109F
330
2
100
AcDbEntity
  8
0
100
AcDbLine
 10
866.0235463154835
 20
195.108930703034
 30
0.0
 11
866.7594346544005
 21
194.7951340289844
 31
0.0
  0
LINE
  5
10A0
330
2
100
AcDbEntity
  8
0
100
AcDbLine
 10
869.7029880100721
 20
193.5399473327854
 30
0.0
 11
871.1747646879079
 21
192.9123539846855
 31
0.0
  0
LINE
  5
10A1
330
2
100
AcDbEntity
  8
0
100
AcDbLine
 10
872.1789140448668
 20
195.2671966692234
 30
0.0
 11
871.1747646879079
 21
192.9123539846855
 31
0.0
  0
LINE
  5
10A2
330
2
100
AcDbEntity
  8
0
100
AcDbLine
 10
870.7071373670309
 20
195.8947900173231
 30
0.0
 11
869.7029880100721
 21
193.5399473327854
 31
0.0
  0
LINE
  5
10A3
330
2
100
AcDbEntity
  8
0
100
AcDbLine
 10
867.7635840113593
 20
197.1499767135221
 30
0.0
 11
866.7594346544005
 21
194.7951340289844
 31
0.0
  0
LINE
  5
10A4
330
2
100
AcDbEntity
  8
0
100
AcDbLine
 10
867.0276956724423
 20
197.4637733875717
 30
0.0
 11
866.0235463154835
 21
195.108930703034
 31
0.0
  0
ARC
  5
10A5
330
2
100
AcDbEntity
  8
0
100
AcDbCircle
 10
883.2201054646276
 20
188.1195237589538
 30
0.0
 40
1.599999999999999
100
AcDbArc
 50
21.97650092359817
 51
66.9056853494963
  0
ARC
  5
10A6
330
2
100
AcDbEntity
  8
0
100
AcDbCircle
 10
883.9763554490868
 20
189.8930146557456
 30
0.0
 40
1.599999999999999
100
AcDbArc
 50
246.9056853494963
 51
291.8348697753963
  0
ARC
  5
10A7
330
2
100
AcDbEntity
  8
0
100
AcDbCircle
 10
884.4827866374464
 20
188.6290777602246
 30
0.0
 40
0.2383799999999999
100
AcDbArc
 50
291.8348697753963
 51
21.97650092359817
  0
LINE
  5
10A8
330
2
100
AcDbEntity
  8
0
100
AcDbLine
 10
876.121199224589
 20
193.1928652266603
 30
0.0
 11
875.4008400701417
 21
191.5035423452229
 31
0.0
  0
LINE
  5
10A9
330
2
100
AcDbEntity
  8
0
100
AcDbLine
 10
874.6838532665108
 20
191.8616652360735
 30
0.0
 11
875.0914871035432
 21
192.8176122298689
 31
0.0
  0
LINE
  5
10AA
330
2
100
AcDbEntity
  8
0
100
AcDbLine
 10
875.2980125823226
 20
193.3019376038848
 30
0.0
 11
875.3853171592831
 21
193.5066766130305
 31
0.0
  0
LINE
  5
10AB
330
2
100
AcDbEntity
  8
0
100
AcDbLine
 10
872.7313967344283
 20
192.6428604774166
 30
0.0
 11
872.7464908337509
 21
192.5368872359115
 31
0.0
  0
LINE
  5
10AC
330
2
100
AcDbEntity
  8
0
100
AcDbLine
 10
875.4008400701417
 20
191.5035423452229
 30
0.0
 11
873.0966443436839
 21
192.48609488354
 31
0.0
  0
LINE
  5
10AD
330
2
100
AcDbEntity
  8
0
100
AcDbLine
 10
872.7310297455472
 20
192.6419998473945
 30
0.0
 11
871.3534542060946
 21
193.2294240524959
 31
0.0
  0
LINE
  5
10AE
330
2
100
AcDbEntity
  8
0
100
AcDbLine
 10
874.6838532665108
 20
191.8616652360735
 30
0.0
 11
873.3291942898551
 21
192.4393173863593
 31
0.0
  0
LINE
  5
10AF
330
2
100
AcDbEntity
  8
0
100
AcDbLine
 10
872.7618408241971
 20
192.6812476101702
 30
0.0
 11
872.5865715005943
 21
192.7559857571147
 31
0.0
  0
LINE
  5
10B0
330
2
100
AcDbEntity
  8
0
100
AcDbLine
 10
872.8254087410928
 20
192.7772684962603
 30
0.0
 11
872.6309972898594
 21
192.8601692076433
 31
0.0
  0
LINE
  5
10B1
330
2
100
AcDbEntity
  8
0
100
AcDbLine
 10
873.0182467251065
 20
193.1741852317743
 30
0.0
 11
872.9677062051663
 21
193.1970326477155
 31
0.0
  0
LINE
  5
10B2
330
2
100
AcDbEntity
  8
0
100
AcDbLine
 10
875.0827432618947
 20
192.7971069420875
 30
0.0
 11
872.9854614959798
 21
193.6914274631287
 31
0.0
  0
LINE
  5
10B3
330
2
100
AcDbEntity
  8
0
100
AcDbLine
 10
875.0914871035432
 20
192.8176122298689
 30
0.0
 11
872.9942053376282
 21
193.7119327509104
 31
0.0
  0
LINE
  5
10B4
330
2
100
AcDbEntity
  8
0
100
AcDbLine
 10
875.2980125823226
 20
193.3019376038848
 30
0.0
 11
873.2007308164096
 21
194.196258124927
 31
0.0
  0
LINE
  5
10B5
330
2
100
AcDbEntity
  8
0
100
AcDbLine
 10
876.1212054982001
 20
193.1928799389809
 30
0.0
 11
875.3853171592831
 21
193.5066766130305
 31
0.0
  0
LINE
  5
10B6
330
2
100
AcDbEntity
  8
0
100
AcDbLine
 10
873.2880353933664
 20
194.4009971340722
 30
0.0
 11
872.073819634153
 21
194.9187616462543
 31
0.0
  0
LWPOLYLINE
  5
10B7
330
2
100
AcDbEntity
  8
0
100
AcDbPolyline
 90
        7
 70
     0
 43
0.0
 10
875.3853171592831
 20
193.5066766130305
 10
875.0289778575783
 20
193.666535810117
 10
874.709002884086
 20
193.8346251467826
 10
874.4268652705571
 20
194.0189041969299
 10
874.1756521667243
 20
194.2281931399759
 10
873.9458710886678
 20
194.4663092336534
 10
873.7338743164176
 20
194.7327013015062
  0
LINE
  5
10B8
330
2
100
AcDbEntity
  8
0
100
AcDbLine
 10
875.0300218106962
 20
193.66603547522
 30
0.0
 11
875.0284283026916
 21
193.6667995717623
 31
0.0
  0
LINE
  5
10B9
330
2
100
AcDbEntity
  8
0
100
AcDbLine
 10
874.7118040260712
 20
193.8329978150488
 30
0.0
 11
874.7067130417446
 21
193.8359579330042
 31
0.0
  0
LINE
  5
10BA
330
2
100
AcDbEntity
  8
0
100
AcDbLine
 10
873.9465607020822
 20
194.4655200049653
 30
0.0
 11
873.9453513306301
 21
194.4669043641704
 31
0.0
  0
LINE
  5
10BB
330
2
100
AcDbEntity
  8
0
100
AcDbLine
 10
874.4283831143651
 20
194.0177847554393
 30
0.0
 11
874.4257573693296
 21
194.0197223384986
 31
0.0
  0
LINE
  5
10BC
330
2
100
AcDbEntity
  8
0
100
AcDbLine
 10
874.1766621674317
 20
194.2272506463584
 30
0.0
 11
874.174867972218
 21
194.228925537868
 31
0.0
  0
LINE
  5
10BD
330
2
100
AcDbEntity
  8
0
100
AcDbLine
 10
872.9942053376282
 20
193.7119327509104
 30
0.0
 11
872.5865715005943
 21
192.7559857571147
 31
0.0
  0
LINE
  5
10BE
330
2
100
AcDbEntity
  8
0
100
AcDbLine
 10
873.2007308164096
 20
194.196258124927
 30
0.0
 11
873.2880301458402
 21
194.4009848280331
 31
0.0
  0
LINE
  5
10BF
330
2
100
AcDbEntity
  8
0
100
AcDbLine
 10
873.5724840557862
 20
194.6153044291324
 30
0.0
 11
873.7338560937599
 21
194.7326880461935
 31
0.0
  0
LINE
  5
10C0
330
2
100
AcDbEntity
  8
0
100
AcDbLine
 10
871.3534542060946
 20
193.2294240524959
 30
0.0
 11
872.0738133605422
 21
194.9187469339335
 31
0.0
  0
ARC
  5
10C1
330
2
100
AcDbEntity
  8
0
100
AcDbCircle
 10
872.2655377465921
 20
186.9870705663204
 30
0.0
 40
6.249533550319997
100
AcDbArc
 50
83.06757658561163
 51
83.54889159172513
  0
ARC
  5
10C2
330
2
100
AcDbEntity
  8
0
100
AcDbCircle
 10
876.8286181365395
 20
196.9779563408021
 30
0.0
 40
3.823429024239997
100
AcDbArc
 50
215.9611083710768
 51
221.0527751750548
  0
ARC
  5
10C3
330
2
100
AcDbEntity
  8
0
100
AcDbCircle
 10
876.3993855245056
 20
196.6039772973801
 30
0.0
 40
3.254128024639998
100
AcDbArc
 50
221.0830410292924
 51
226.8745010013009
  0
SPLINE
  5
10C4
330
2
100
AcDbEntity
  8
0
100
AcDbSpline
210
0.0
220
0.0
230
1.0
 70
     8
 71
     3
 72
    14
 73
    10
 74
     0
 42
0.0000000001
 43
0.0000000001
 40
0.0
 40
0.0
 40
0.0
 40
0.0
 40
0.255299806
 40
0.3821741063
 40
0.508763619
 40
0.5719554778
 40
0.6347099487
 40
0.7585376820000001
 40
1.0
 40
1.0
 40
1.0
 40
1.0
 10
875.0013132061335
 20
192.6061443429669
 30
0.0
 10
874.8389748776164
 20
192.6753684695975
 30
0.0
 10
874.5950846391838
 20
192.7771132221494
 30
0.0
 10
874.2654529725836
 20
192.8998596874796
 30
0.0
 10
874.0576826107384
 20
192.9689689019298
 30
0.0
 10
873.8902406960036
 20
193.018400340871
 30
0.0
 10
873.7234925180086
 20
193.0632667617671
 30
0.0
 10
873.4351658485207
 20
193.1301310339383
 30
0.0
 10
873.1855433730792
 20
193.1707672136478
 30
0.0
 10
873.0198477987336
 20
193.1909150148692
 30
0.0
  0
SPLINE
  5
10C5
330
2
100
AcDbEntity
  8
0
100
AcDbSpline
210
0.0
220
0.0
230
1.0
 70
     8
 71
     3
 72
    14
 73
    10
 74
     0
 42
0.0000000001
 43
0.0000000001
 40
0.0
 40
0.0
 40
0.0
 40
0.0
 40
0.2588838018
 40
0.3860391733
 40
0.5119551453
 40
0.5744860589
 40
0.6365696273000001
 40
0.759370615
 40
1.0
 40
1.0
 40
1.0
 40
1.0
 10
874.7260866480969
 20
191.9607072450937
 30
0.0
 10
874.5617615340956
 20
192.0307785745451
 30
0.0
 10
874.3158300876579
 20
192.1333598880085
 30
0.0
 10
873.9844780961279
 20
192.2560207000653
 30
0.0
 10
873.7775109867284
 20
192.3240282398617
 30
0.0
 10
873.6114263191224
 20
192.3720698508339
 30
0.0
 10
873.446281812837
 20
192.4154424385294
 30
0.0
 10
873.1597238275366
 20
192.4798643261817
 30
0.0
 10
872.9114843057699
 20
192.5182299369041
 30
0.0
 10
872.7464908337509
 20
192.5368872359115
 30
0.0
  0
SPLINE
  5
10C6
330
2
100
AcDbEntity
  8
0
100
AcDbSpline
210
0.0
220
0.0
230
1.0
 70
     8
 71
     3
 72
    13
 73
     9
 74
     0
 42
0.0000000001
 43
0.0000000001
 40
0.0
 40
0.0
 40
0.0
 40
0.0
 40
0.2867991396
 40
0.554836374
 40
0.6788292628
 40
0.7947633882999999
 40
0.9019811695999999
 40
1.0
 40
1.0
 40
1.0
 40
1.0
 10
872.9677062051663
 20
193.1970326477155
 30
0.0
 10
872.9574860449877
 20
193.1396318980125
 30
0.0
 10
872.9322228132799
 20
193.0294767597454
 30
0.0
 10
872.8868040438241
 20
192.8987812742386
 30
0.0
 10
872.8432502861553
 20
192.8050654958344
 30
0.0
 10
872.8087653469877
 20
192.7434030191768
 30
0.0
 10
872.7720505291811
 20
192.6893100116778
 30
0.0
 10
872.745164104675
 20
192.6572659011928
 30
0.0
 10
872.7313967344283
 20
192.6428604774166
 30
0.0
  0
SPLINE
  5
10C7
330
2
100
AcDbEntity
  8
0
100
AcDbSpline
210
0.0
220
0.0
230
1.0
 70
     8
 71
     3
 72
    15
 73
    11
 74
     0
 42
0.0000000001
 43
0.0000000001
 40
0.0
 40
0.0
 40
0.0
 40
0.0
 40
0.2476707076
 40
0.3711734308
 40
0.4953392721000001
 40
0.5579046282000001
 40
0.6205313851
 40
0.7460600234000001
 40
0.8724315863999997
 40
1.0
 40
1.0
 40
1.0
 40
1.0
 10
875.3070360108463
 20
193.3230985541933
 30
0.0
 10
875.1403374813703
 20
193.3941819527906
 30
0.0
 10
874.8919610252809
 20
193.5048775634661
 30
0.0
 10
874.5737203457915
 20
193.6788069973574
 30
0.0
 10
874.3828089551238
 20
193.8021579363146
 30
0.0
 10
874.2367179007407
 20
193.9115703678205
 30
0.0
 10
874.0951550351741
 20
194.0283433994666
 30
0.0
 10
873.9275720733289
 20
194.1865289077102
 30
0.0
 10
873.7415524363672
 20
194.3930019056885
 30
0.0
 10
873.6273921072601
 20
194.5398200949336
 30
0.0
 10
873.5724840557862
 20
194.6153044291324
 30
0.0
  0
SPLINE
  5
10C8
330
2
100
AcDbEntity
  8
0
100
AcDbSpline
210
0.0
220
0.0
230
1.0
 70
     8
 71
     3
 72
    13
 73
     9
 74
     0
 42
0.0000000001
 43
0.0000000001
 40
0.0
 40
0.0
 40
0.0
 40
0.0
 40
0.0980188304
 40
0.2052366117
 40
0.3211707372
 40
0.4451636260000001
 40
0.7132008604000001
 40
1.0
 40
1.0
 40
1.0
 40
1.0
 10
872.7464908337509
 20
192.5368872359115
 30
0.0
 10
872.7623233095595
 20
192.5534534733039
 30
0.0
 10
872.7932426977233
 20
192.5903042002911
 30
0.0
 10
872.8354647382724
 20
192.6525111589337
 30
0.0
 10
872.8751224182953
 20
192.7234230070882
 30
0.0
 10
872.925209239583
 20
192.8311961523538
 30
0.0
 10
872.9774408244187
 20
192.9814959606781
 30
0.0
 10
873.0064935409313
 20
193.1081743695938
 30
0.0
 10
873.0182467251065
 20
193.1741852317743
 30
0.0
  0
SPLINE
  5
10C9
330
2
100
AcDbEntity
  8
0
100
AcDbSpline
210
0.0
220
0.0
230
1.0
 70
     8
 71
     3
 72
    16
 73
    12
 74
     0
 42
0.0000000001
 43
0.0000000001
 40
0.0
 40
0.0
 40
0.0
 40
0.0
 40
0.1262028056
 40
0.250901967
 40
0.3745458433
 40
0.497910878
 40
0.5598097575
 40
0.6218345357000003
 40
0.7464834787000001
 40
0.8724199540999999
 40
1.0
 40
1.0
 40
1.0
 40
1.0
 10
875.3494237648622
 20
193.4225025838496
 30
0.0
 10
875.2667306481191
 20
193.4577644892622
 30
0.0
 10
875.1028931135309
 20
193.5292229019821
 30
0.0
 10
874.8621235907917
 20
193.6443656539765
 30
0.0
 10
874.6296262588726
 20
193.7714059236175
 30
0.0
 10
874.444545195179
 20
193.8909458846653
 30
0.0
 10
874.3035025429156
 20
193.9965759703988
 30
0.0
 10
874.1668724183412
 20
194.1092859796009
 30
0.0
 10
874.004732982646
 20
194.2623554735656
 30
0.0
 10
873.8242758159188
 20
194.4626826044561
 30
0.0
 10
873.7133325716996
 20
194.6053806738284
 30
0.0
 10
873.6598738143978
 20
194.6788726041716
 30
0.0
  0
SPLINE
  5
10CA
330
2
100
AcDbEntity
  8
0
100
AcDbSpline
210
0.0
220
0.0
230
1.0
 70
     8
 71
     3
 72
    14
 73
    10
 74
     0
 42
0.0000000001
 43
0.0000000001
 40
0.0
 40
0.0
 40
0.0
 40
0.0
 40
0.2588838018
 40
0.3860391733
 40
0.5119551453
 40
0.5744860589
 40
0.6365696273000001
 40
0.759370615
 40
1.0
 40
1.0
 40
1.0
 40
1.0
 10
874.9978425394505
 20
192.5980052409565
 30
0.0
 10
874.833517425451
 20
192.6680765704074
 30
0.0
 10
874.5875859790134
 20
192.7706578838722
 30
0.0
 10
874.2562339874815
 20
192.8933186959277
 30
0.0
 10
874.0492668780838
 20
192.961326235724
 30
0.0
 10
873.883182210478
 20
193.0093678466967
 30
0.0
 10
873.7180377041596
 20
193.0527404343195
 30
0.0
 10
873.4314797188591
 20
193.11716232197
 30
0.0
 10
873.1832401971255
 20
193.1555279327665
 30
0.0
 10
873.0182467251065
 20
193.1741852317743
 30
0.0
  0
SPLINE
  5
10CB
330
2
100
AcDbEntity
  8
0
100
AcDbSpline
210
0.0
220
0.0
230
1.0
 70
     8
 71
     3
 72
     8
 73
     4
 74
     0
 42
0.0000000001
 43
0.0000000001
 40
0.0
 40
0.0
 40
0.0
 40
0.0
 40
1.0
 40
1.0
 40
1.0
 40
1.0
 10
875.3853171592831
 20
193.5066766130305
 30
0.0
 10
875.2642129929746
 20
193.5583177148002
 30
0.0
 10
875.1454907548426
 20
193.6106883248287
 30
0.0
 10
875.0300218106962
 20
193.66603547522
 30
0.0
  0
SPLINE
  5
10CC
330
2
100
AcDbEntity
  8
0
100
AcDbSpline
210
0.0
220
0.0
230
1.0
 70
     8
 71
     3
 72
     8
 73
     4
 74
     0
 42
0.0000000001
 43
0.0000000001
 40
0.0
 40
0.0
 40
0.0
 40
0.0
 40
1.0
 40
1.0
 40
1.0
 40
1.0
 10
875.0284283026916
 20
193.6667995717623
 30
0.0
 10
874.9197580582071
 20
193.718927278245
 30
0.0
 10
874.8139743325259
 20
193.7737018619056
 30
0.0
 10
874.7118040260712
 20
193.8329978150488
 30
0.0
  0
SPLINE
  5
10CD
330
2
100
AcDbEntity
  8
0
100
AcDbSpline
210
0.0
220
0.0
230
1.0
 70
     8
 71
     3
 72
     8
 73
     4
 74
     0
 42
0.0000000001
 43
0.0000000001
 40
0.0
 40
0.0
 40
0.0
 40
0.0
 40
1.0
 40
1.0
 40
1.0
 40
1.0
 10
874.7067130417446
 20
193.8359579330042
 30
0.0
 10
874.6105115662059
 20
193.8919977705979
 30
0.0
 10
874.5175319407275
 20
193.9520832694349
 30
0.0
 10
874.4283831143651
 20
194.0177847554393
 30
0.0
  0
DIMENSION
  5
10CE
102
{ACAD_XDICTIONARY
360
10CF
102
}
102
{ACAD_REACTORS
330
10D0
102
}
330
2
100
AcDbEntity
  8
DIM
100
AcDbDimension
  2
*D6
 10
883.0950771061209
 20
209.3041076584482
 30
0.0
 11
883.0950771061209
 21
216.1612505155912
 31
0.0
 70
   160
  1
%%CD
 71
     5
 42
3.0
 73
     0
 74
     0
 75
     0
  3
01
100
AcDbAlignedDimension
 13
881.8417545514471
 23
212.3041076584482
 33
0.0
 14
881.8417545514471
 24
209.3041076584482
 34
0.0
 50
90.0
100
AcDbRotatedDimension
1001
ACAD
1000
DSTYLE
1002
{
1070
    40
1040
0.8
1002
}
  0
DIMENSION
  5
10D1
102
{ACAD_XDICTIONARY
360
10D2
102
}
102
{ACAD_REACTORS
330
10D3
102
}
330
2
100
AcDbEntity
  8
DIM
100
AcDbDimension
  2
*D7
 10
884.8417545514472
 20
205.4087728739413
 30
0.0
 11
881.8417545514471
 21
205.4087728739413
 31
0.0
 70
   160
  1
6
 71
     5
 42
6.0
 73
     0
 74
     0
 75
     0
  3
01
100
AcDbAlignedDimension
 13
878.8417545514471
 23
208.0155763199533
 33
0.0
 14
884.8417545514472
 24
210.3380258494413
 34
0.0
100
AcDbRotatedDimension
1001
ACAD
1000
DSTYLE
1002
{
1070
    40
1040
0.8
1002
}
  0
LINE
  5
178A
330
2
100
AcDbEntity
  8
0
100
AcDbLine
 10
892.2217545514472
 20
211.5991076584483
 30
0.0
 11
902.0417545514467
 21
211.5991076584483
 31
0.0
  0
LINE
  5
178B
330
2
100
AcDbEntity
  8
0
100
AcDbLine
 10
892.2217545514472
 20
210.0091066746513
 30
0.0
 11
902.0417545514467
 21
210.0091066746513
 31
0.0
  0
ENDSEC
  0
SECTION
  2
OBJECTS
  0
DICTIONARY
  5
B
330
0
100
AcDbDictionary
281
     1
  3
ACAD_COLOR
350
221
  3
ACAD_GROUP
350
20E
  3
ACAD_LAYOUT
350
1EF
  3
ACAD_MATERIAL
350
D
  3
ACAD_MLEADERSTYLE
350
283
  3
ACAD_MLINESTYLE
350
20F
  3
ACAD_PLOTSETTINGS
350
210
  3
ACAD_PLOTSTYLENAME
350
A
  3
ACAD_SCALELIST
350
222
  3
ACAD_TABLESTYLE
350
223
  3
ACAD_VISUALSTYLE
350
208
  3
ACDB_RECOMPOSE_DATA
350
273
  3
AcDbVariableDictionary
350
24B
  3
ASE_INDEX_DICTIONARY
350
16BC
  0
DICTIONARY
  5
209
330
205
100
AcDbDictionary
280
     1
281
     1
  0
DICTIONARY
  5
1FA
330
1F9
100
AcDbDictionary
280
     1
281
     1
  3
ACAD_LAYERFILTERS
360
822
  3
ACAD_LAYERSTATES
360
1FC
  3
ACLYDICTIONARY
360
821
  0
DICTIONARY
  5
7
330
6
100
AcDbDictionary
280
     1
281
     1
  3
ADSK_XREC_LAYER_RECONCILED
360
8
  0
DICTIONARY
  5
18
330
17
100
AcDbDictionary
280
     1
281
     1
  3
ADSK_XREC_LAYER_RECONCILED
360
19
  0
DICTIONARY
  5
26
330
25
100
AcDbDictionary
280
     1
281
     1
  3
ADSK_XREC_LAYER_RECONCILED
360
27
  0
DICTIONARY
  5
3
330
2
100
AcDbDictionary
280
     1
281
     1
  3
ACAD_SORTENTS
360
24A
  0
DICTIONARY
  5
1DCC
330
293
100
AcDbDictionary
280
     1
281
     1
  0
DICTIONARY
  5
1DD3
330
1D37
100
AcDbDictionary
280
     1
281
     1
  3
ACAD_MTEXT_2008_RT
360
1DD4
  0
DICTIONARY
  5
1DD5
330
1D7B
100
AcDbDictionary
280
     1
281
     1
  3
ACAD_MTEXT_2008_RT
360
1DD6
  0
DICTIONARY
  5
1DD7
330
1D7C
100
AcDbDictionary
280
     1
281
     1
  3
ACAD_MTEXT_2008_RT
360
1DD8
  0
DICTIONARY
  5
1DD9
330
1DA1
100
AcDbDictionary
280
     1
281
     1
  3
ACAD_MTEXT_2008_RT
360
1DDA
  0
DICTIONARY
  5
1DDB
330
1DA4
100
AcDbDictionary
280
     1
281
     1
  3
ACAD_MTEXT_2008_RT
360
1DDC
  0
DICTIONARY
  5
1DDD
330
1DA5
100
AcDbDictionary
280
     1
281
     1
  3
ACAD_MTEXT_2008_RT
360
1DDE
  0
DICTIONARY
  5
1DDF
330
1DAF
100
AcDbDictionary
280
     1
281
     1
  3
ACAD_MTEXT_2008_RT
360
1DE0
  0
DICTIONARY
  5
1DE1
330
1DB0
100
AcDbDictionary
280
     1
281
     1
  3
ACAD_MTEXT_2008_RT
360
1DE2
  0
DICTIONARY
  5
1DE3
330
1DB1
100
AcDbDictionary
280
     1
281
     1
  3
ACAD_MTEXT_2008_RT
360
1DE4
  0
DICTIONARY
  5
1DE5
330
1DBF
100
AcDbDictionary
280
     1
281
     1
  3
ACAD_MTEXT_2008_RT
360
1DE6
  0
DICTIONARY
  5
1DE7
330
1DC0
100
AcDbDictionary
280
     1
281
     1
  3
ACAD_MTEXT_2008_RT
360
1DE8
  0
DICTIONARY
  5
1DE9
330
1DC1
100
AcDbDictionary
280
     1
281
     1
  3
ACAD_MTEXT_2008_RT
360
1DEA
  0
DICTIONARY
  5
1DD1
330
DFD
100
AcDbDictionary
280
     1
281
     1
  3
ACAD_MTEXT_2008_RT
360
1DD2
  0
DICTIONARY
  5
1084
330
1083
100
AcDbDictionary
280
     1
281
     1
  3
ACAD_DIMASSOC
360
1085
  0
DICTIONARY
  5
1087
330
1086
100
AcDbDictionary
280
     1
281
     1
  3
ACAD_DIMASSOC
360
1088
  0
DICTIONARY
  5
108A
330
1089
100
AcDbDictionary
280
     1
281
     1
  3
ACAD_DIMASSOC
360
108B
  0
DICTIONARY
  5
108E
330
108D
100
AcDbDictionary
280
     1
281
     1
  3
ACAD_DIMASSOC
360
108F
  0
DICTIONARY
  5
10CF
330
10CE
100
AcDbDictionary
280
     1
281
     1
  3
ACAD_DIMASSOC
360
10D0
  0
DICTIONARY
  5
10D2
330
10D1
100
AcDbDictionary
280
     1
281
     1
  3
ACAD_DIMASSOC
360
10D3
  0
DICTIONARY
  5
221
102
{ACAD_REACTORS
330
B
102
}
330
B
100
AcDbDictionary
281
     1
  0
DICTIONARY
  5
20E
102
{ACAD_REACTORS
330
B
102
}
330
B
100
AcDbDictionary
281
     1
  0
DICTIONARY
  5
1EF
102
{ACAD_REACTORS
330
B
102
}
330
B
100
AcDbDictionary
281
     1
  3
Layout1
350
1F4
  3
Layout2
350
1F8
  3
Model
350
1EE
  0
DICTIONARY
  5
D
102
{ACAD_REACTORS
330
B
102
}
330
B
100
AcDbDictionary
281
     1
  3
ByBlock
350
219
  3
ByLayer
350
211
  3
Global
350
C
  0
DICTIONARY
  5
283
102
{ACAD_REACTORS
330
B
102
}
330
B
100
AcDbDictionary
281
     1
  3
Standard
350
284
  0
DICTIONARY
  5
20F
102
{ACAD_REACTORS
330
B
102
}
330
B
100
AcDbDictionary
281
     1
  3
Standard
350
224
  0
DICTIONARY
  5
210
102
{ACAD_REACTORS
330
B
102
}
330
B
100
AcDbDictionary
281
     1
  0
ACDBDICTIONARYWDFLT
  5
A
102
{ACAD_REACTORS
330
B
102
}
330
B
100
AcDbDictionary
281
     1
  3
Normal
350
9
100
AcDbDictionaryWithDefault
340
9
  0
DICTIONARY
  5
222
102
{ACAD_REACTORS
330
B
102
}
330
B
100
AcDbDictionary
281
     1
  3
A0
350
229
  3
A1
350
22A
  3
A2
350
22B
  3
A3
350
22C
  3
A4
350
22D
  3
A5
350
22E
  3
A6
350
22F
  3
A7
350
230
  3
A8
350
231
  3
A9
350
232
  3
B0
350
233
  3
B1
350
234
  3
B2
350
235
  3
B3
350
236
  3
B4
350
237
  3
B5
350
238
  3
B6
350
239
  3
B7
350
23A
  3
B8
350
23B
  3
B9
350
23C
  3
C0
350
23D
  3
C1
350
23E
  3
C2
350
23F
  3
C3
350
240
  3
C4
350
241
  3
C5
350
242
  3
C6
350
243
  3
C7
350
244
  3
C8
350
245
  3
C9
350
246
  3
D0
350
247
  3
D1
350
248
  3
D2
350
249
  0
DICTIONARY
  5
223
102
{ACAD_REACTORS
330
B
102
}
330
B
100
AcDbDictionary
281
     1
  3
Standard
350
225
  0
DICTIONARY
  5
208
102
{ACAD_REACTORS
330
B
102
}
330
B
100
AcDbDictionary
281
     1
  3
2dWireframe
350
207
  3
3D Hidden
350
27B
  3
3dWireframe
350
228
  3
Basic
350
27A
  3
Brighten
350
27E
  3
ColorChange
350
282
  3
Conceptual
350
27C
  3
Dim
350
27D
  3
Facepattern
350
281
  3
Flat
350
276
  3
FlatWithEdges
350
277
  3
Gouraud
350
278
  3
GouraudWithEdges
350
279
  3
Linepattern
350
280
  3
Realistic
350
227
  3
Thicken
350
27F
  0
XRECORD
  5
273
102
{ACAD_REACTORS
330
B
102
}
330
B
100
AcDbXrecord
280
     1
 90
        1
330
225
330
DFD
330
1D37
330
1D7B
330
1D7C
330
1DA1
330
1DA4
330
1DA5
330
1DAF
330
1DB0
330
1DB1
330
1DBF
330
1DC0
330
1DC1
  0
DICTIONARY
  5
24B
102
{ACAD_REACTORS
330
B
102
}
330
B
100
AcDbDictionary
281
     1
  3
CANNOSCALE
350
24E
  3
CMLEADERSTYLE
350
24D
  3
CTABLESTYLE
350
24C
  3
DIMASSOC
350
38A
  3
HIDETEXT
350
389
  3
INDEXCTL
350
388
  3
LIGHTINGUNITS
350
24F
  3
MSLTSCALE
350
386
  3
SORTENTS
350
387
  0
DICTIONARY
  5
16BC
102
{ACAD_REACTORS
330
B
102
}
330
B
100
AcDbDictionary
281
     1
  3
ASEBlockHierarchyIndexRecord
350
16BE
1001
DCO15
1040
1913274276.698
  0
DICTIONARY
  5
822
102
{ACAD_REACTORS
330
1FA
102
}
330
1FA
100
AcDbDictionary
281
     1
  0
DICTIONARY
  5
1FC
102
{ACAD_REACTORS
330
1FA
102
}
330
1FA
100
AcDbDictionary
281
     1
  0
DICTIONARY
  5
821
102
{ACAD_REACTORS
330
1FA
102
}
330
1FA
100
AcDbDictionary
281
     1
1001
ACAD
1000
<All
  0
XRECORD
  5
8
102
{ACAD_REACTORS
330
7
102
}
330
7
100
AcDbXrecord
280
     1
290
     1
  0
XRECORD
  5
19
102
{ACAD_REACTORS
330
18
102
}
330
18
100
AcDbXrecord
280
     1
290
     1
  0
XRECORD
  5
27
102
{ACAD_REACTORS
330
26
102
}
330
26
100
AcDbXrecord
280
     1
290
     1
  0
SORTENTSTABLE
  5
24A
102
{ACAD_REACTORS
330
3
102
}
330
3
100
AcDbSortentsTable
330
2
  0
XRECORD
  5
1DD4
102
{ACAD_REACTORS
330
1DD3
102
}
330
1DD3
100
AcDbXrecord
280
     1
 40
1038.0
  1
\pxqc;YL YE
  0
XRECORD
  5
1DD6
102
{ACAD_REACTORS
330
1DD5
102
}
330
1DD5
100
AcDbXrecord
280
     1
 40
3624820.0
  1
\pxqc;档案员{\H0.7x;\P\Fromans|c134;Filing Clerk\fFangSong_GB2312|b0|i0|c134|p49; }
  0
XRECORD
  5
1DD8
102
{ACAD_REACTORS
330
1DD7
102
}
330
1DD7
100
AcDbXrecord
280
     1
 40
2054623.0
  1
\pxqc;日期{\Fromans|c134;/Date}
  0
XRECORD
  5
1DDA
102
{ACAD_REACTORS
330
1DD9
102
}
330
1DD9
100
AcDbXrecord
280
     1
 40
1836818.0
  1
\pxsm0.7;{\fFangSong_GB2312|b0|i0|c134|p49;标准化}\PStand.
  0
XRECORD
  5
1DDC
102
{ACAD_REACTORS
330
1DDB
102
}
330
1DDB
100
AcDbXrecord
280
     1
 40
1476476.0
  1
\pxsm0.7;签名\P{\Fromans|c134;Signature} 
  0
XRECORD
  5
1DDE
102
{ACAD_REACTORS
330
1DDD
102
}
330
1DDD
100
AcDbXrecord
280
     1
 40
1354713.0
  1
\pxsm0.7,qc;处数\P{\Fromans|c134;Number }
  0
XRECORD
  5
1DE0
102
{ACAD_REACTORS
330
1DDF
102
}
330
1DDF
100
AcDbXrecord
280
     1
 40
1692934.0
  1
\pxsm0.7;标记\P{\Fromans|c134;Mark}
  0
XRECORD
  5
1DE2
102
{ACAD_REACTORS
330
1DE1
102
}
330
1DE1
100
AcDbXrecord
280
     1
 40
1391581.0
  1
\pxsm0.7;审核\P{\Fromans|c134;Checked}
  0
XRECORD
  5
1DE4
102
{ACAD_REACTORS
330
1DE3
102
}
330
1DE3
100
AcDbXrecord
280
     1
 40
1546703.0
  1
\pxsm0.7;绘图\P{\Fromans|c134;Drawn\Ftxt|c134; }
  0
XRECORD
  5
1DE6
102
{ACAD_REACTORS
330
1DE5
102
}
330
1DE5
100
AcDbXrecord
280
     1
 40
1293614.0
  1
\pxsm0.7;批准\P{\Fromans|c134;Approved}
  0
XRECORD
  5
1DE8
102
{ACAD_REACTORS
330
1DE7
102
}
330
1DE7
100
AcDbXrecord
280
     1
 40
1583427.0
  1
\pxsm0.7;工艺\P{\Fromans|c134;Process}
  0
XRECORD
  5
1DEA
102
{ACAD_REACTORS
330
1DE9
102
}
330
1DE9
100
AcDbXrecord
280
     1
 40
1435325.0
  1
\pxsm0.7;日期\P{\Fromans|c134;Date}
  0
XRECORD
  5
1DD2
102
{ACAD_REACTORS
330
1DD1
102
}
330
1DD1
100
AcDbXrecord
280
     1
 40
325686832.0
  1
\A1;\pxql;{\f仿宋_GB2312|b0|i0|c134|p49;技术参数}:\P\pq*;- {\f仿宋_GB2312|b0|i0|c134|p49;材料}: {\f仿宋_GB2312|b0|i0|c134|p49;铜合金}\P- {\f仿宋_GB2312|b0|i0|c134|p49;表面处理}: {\f仿宋_GB2312|b0|i0|c134|p49;镀金}\P\pql;- {\f仿宋_GB2312|b0|i0|c134|p49;额定电流}: 10A\P- {\f仿宋_GB231
  1
2|b0|i0|c134|p49;接触电阻}: ≤3mΩ\P- {\f仿宋_GB2312|b0|i0|c134|p49;线径范围}: 0.14-0.37mm{\H0.7x;\S2^ ;}(26-22 AWG)\P\pq*;- {\f仿宋_GB2312|b0|i0|c134|p49;可插拔次数}: {\f仿宋_GB2312|b0|i0|c134|p49;≥}500\P\P\pql;Technical specification:\P- Material: copper alloy\P- Surfac
  1
e: hard-gold plated\P- Rated current: 10A\P- Contact resistance: ≤3mΩ\P- Wire gauge: 0.14-0.37mm{\H0.7x;\S2^ ;}(26-22 AWG)\P- Mating cycles: {\f仿宋_GB2312|b0|i0|c134|p49;≥}500
  0
DIMASSOC
  5
1085
102
{ACAD_REACTORS
330
1084
102
}
330
1084
100
AcDbDimAssoc
330
1083
 90
        2
 70
     0
 71
     0
  1
AcDbOsnapPointRef
 72
     1
331
1055
 73
     2
 91
        0
 40
1.0
 10
0.0
 20
0.0
 30
2.000000000000000E+50
 75
     0
  0
DIMASSOC
  5
1088
102
{ACAD_REACTORS
330
1087
102
}
330
1087
100
AcDbDimAssoc
330
1086
 90
        3
 70
     0
 71
     0
  1
AcDbOsnapPointRef
 72
    13
331
1056
 73
     2
 91
        0
 40
0.0
 10
0.0
 20
0.0
 30
2.000000000000000E+50
 75
     0
  1
AcDbOsnapPointRef
 72
     1
331
1057
 73
     2
 91
        0
 40
3.141592653589792
 10
0.0
 20
0.0
 30
2.000000000000000E+50
 75
     0
  0
DIMASSOC
  5
108B
102
{ACAD_REACTORS
330
108A
102
}
330
108A
100
AcDbDimAssoc
330
1089
 90
        2
 70
     0
 71
     0
  1
AcDbOsnapPointRef
 72
    13
331
1055
 73
     2
 91
        0
 40
0.0
 10
0.0
 20
0.0
 30
2.000000000000000E+50
 75
     0
  0
DIMASSOC
  5
108F
102
{ACAD_REACTORS
330
108E
102
}
330
108E
100
AcDbDimAssoc
330
108D
 90
        3
 70
     0
 71
     0
  1
AcDbOsnapPointRef
 72
    13
331
1054
 73
     2
 91
        0
 40
0.0
 10
0.0
 20
0.0
 30
2.000000000000000E+50
 75
     0
  1
AcDbOsnapPointRef
 72
     1
331
1054
 73
     2
 91
        0
 40
1.0
 10
0.0
 20
0.0
 30
2.000000000000000E+50
 75
     0
  0
DIMASSOC
  5
10D0
102
{ACAD_REACTORS
330
10CF
102
}
330
10CF
100
AcDbDimAssoc
330
10CE
 90
        3
 70
     0
 71
     0
  1
AcDbOsnapPointRef
 72
     2
331
103E
 73
     2
 91
        0
 40
0.5
 10
0.0
 20
0.0
 30
0.0
 75
     0
  1
AcDbOsnapPointRef
 72
     2
331
1047
 73
     2
 91
        0
 40
0.5
 10
0.0
 20
0.0
 30
0.0
 75
     0
  0
DIMASSOC
  5
10D3
102
{ACAD_REACTORS
330
10D2
102
}
330
10D2
100
AcDbDimAssoc
330
10D1
 90
        2
 70
     0
 71
     0
  1
AcDbOsnapPointRef
 72
    10
331
104D
 73
     2
 91
        0
 40
0.8214353911092008
 10
0.0
 20
0.0
 30
0.0
 75
     0
  0
LAYOUT
  5
1F4
102
{ACAD_REACTORS
330
1EF
102
}
330
1EF
100
AcDbPlotSettings
  1

  2
none_device
  4

  6

 40
0.0
 41
0.0
 42
0.0
 43
0.0
 44
0.0
 45
0.0
 46
0.0
 47
0.0
 48
0.0
 49
0.0
140
0.0
141
0.0
142
1.0
143
1.0
 70
   688
 72
     0
 73
     0
 74
     5
  7
monochrome.ctb
 75
    16
147
1.0
 76
     0
 77
     2
 78
   300
148
0.0
149
0.0
100
AcDbLayout
  1
Layout1
 70
     1
 71
     1
 10
0.0
 20
0.0
 11
12.0
 21
9.0
 12
0.0
 22
0.0
 32
0.0
 14
1.000000000000000E+20
 24
1.000000000000000E+20
 34
1.000000000000000E+20
 15
-1.000000000000000E+20
 25
-1.000000000000000E+20
 35
-1.000000000000000E+20
146
0.0
 13
0.0
 23
0.0
 33
0.0
 16
1.0
 26
0.0
 36
0.0
 17
0.0
 27
1.0
 37
0.0
 76
     0
330
1F1
  0
LAYOUT
  5
1F8
102
{ACAD_REACTORS
330
1EF
102
}
330
1EF
100
AcDbPlotSettings
  1

  2
none_device
  4

  6

 40
0.0
 41
0.0
 42
0.0
 43
0.0
 44
0.0
 45
0.0
 46
0.0
 47
0.0
 48
0.0
 49
0.0
140
0.0
141
0.0
142
1.0
143
1.0
 70
   688
 72
     0
 73
     0
 74
     5
  7
monochrome.ctb
 75
    16
147
1.0
 76
     0
 77
     2
 78
   300
148
0.0
149
0.0
100
AcDbLayout
  1
Layout2
 70
     1
 71
     2
 10
0.0
 20
0.0
 11
0.0
 21
0.0
 12
0.0
 22
0.0
 32
0.0
 14
0.0
 24
0.0
 34
0.0
 15
0.0
 25
0.0
 35
0.0
146
0.0
 13
0.0
 23
0.0
 33
0.0
 16
1.0
 26
0.0
 36
0.0
 17
0.0
 27
1.0
 37
0.0
 76
     0
330
1F5
  0
LAYOUT
  5
1EE
102
{ACAD_REACTORS
330
1EF
102
}
330
1EF
100
AcDbPlotSettings
  1

  2
Adobe PDF Converter.pc3
  4
A4
  6

 40
3.174999952316281
 41
3.174999952316281
 42
3.17498779296875
 43
3.175003051757812
 44
297.0318298339844
 45
209.9733276367186
 46
0.0000000000000076
 47
1.630241740247063
 48
246.9897427644609
 49
39.36804549891383
140
544.952097801264
141
244.7492402188181
142
1.0
143
1.025046328645055
 70
  3764
 72
     1
 73
     0
 74
     4
  7
monochrome.ctb
 75
     0
147
0.9755656618192436
 76
     1
 77
     2
 78
   300
148
-246.9897427644609
149
-39.36804549891383
100
AcDbLayout
  1
Model
 70
     1
 71
     0
 10
0.0
 20
0.0
 11
12.0
 21
9.0
 12
0.0
 22
0.0
 32
0.0
 14
1.000000000000000E+20
 24
1.000000000000000E+20
 34
1.000000000000000E+20
 15
-1.000000000000000E+20
 25
-1.000000000000000E+20
 35
-1.000000000000000E+20
146
0.0
 13
0.0
 23
0.0
 33
0.0
 16
1.0
 26
0.0
 36
0.0
 17
0.0
 27
1.0
 37
0.0
 76
     0
330
2
331
206
1001
ACAD_PSEXT
1000
Adobe PDF Converter.pc3
1000
Adobe PDF Converter
1000
桌面\*.pdf
1000

1070
     0
  0
MATERIAL
  5
219
102
{ACAD_XDICTIONARY
360
21A
102
}
102
{ACAD_REACTORS
330
D
102
}
330
D
100
AcDbMaterial
  1
ByBlock
 72
     0
 43
0.0208333333333333
 43
0.0
 43
0.0
 43
0.0
 43
0.0
 43
0.0208333333333333
 43
0.0
 43
0.0
 43
0.0
 43
0.0
 43
1.0
 43
0.0
 43
0.0
 43
0.0
 43
0.0
 43
1.0
 77
     0
 47
0.0208333333333333
 47
0.0
 47
0.0
 47
0.0
 47
0.0
 47
0.0208333333333333
 47
0.0
 47
0.0
 47
0.0
 47
0.0
 47
1.0
 47
0.0
 47
0.0
 47
0.0
 47
0.0
 47
1.0
171
     0
 49
0.0208333333333333
 49
0.0
 49
0.0
 49
0.0
 49
0.0
 49
0.0208333333333333
 49
0.0
 49
0.0
 49
0.0
 49
0.0
 49
1.0
 49
0.0
 49
0.0
 49
0.0
 49
0.0
 49
1.0
175
     0
142
0.0208333333333333
142
0.0
142
0.0
142
0.0
142
0.0
142
0.0208333333333333
142
0.0
142
0.0
142
0.0
142
0.0
142
1.0
142
0.0
142
0.0
142
0.0
142
0.0
142
1.0
179
     0
144
0.0208333333333333
144
0.0
144
0.0
144
0.0
144
0.0
144
0.0208333333333333
144
0.0
144
0.0
144
0.0
144
0.0
144
1.0
144
0.0
144
0.0
144
0.0
144
0.0
144
1.0
147
0.0208333333333333
147
0.0
147
0.0
147
0.0
147
0.0
147
0.0208333333333333
147
0.0
147
0.0
147
0.0
147
0.0
147
1.0
147
0.0
147
0.0
147
0.0
147
0.0
147
1.0
  0
MATERIAL
  5
211
102
{ACAD_XDICTIONARY
360
212
102
}
102
{ACAD_REACTORS
330
D
102
}
330
D
100
AcDbMaterial
  1
ByLayer
 72
     0
 43
0.0208333333333333
 43
0.0
 43
0.0
 43
0.0
 43
0.0
 43
0.0208333333333333
 43
0.0
 43
0.0
 43
0.0
 43
0.0
 43
1.0
 43
0.0
 43
0.0
 43
0.0
 43
0.0
 43
1.0
 77
     0
 47
0.0208333333333333
 47
0.0
 47
0.0
 47
0.0
 47
0.0
 47
0.0208333333333333
 47
0.0
 47
0.0
 47
0.0
 47
0.0
 47
1.0
 47
0.0
 47
0.0
 47
0.0
 47
0.0
 47
1.0
171
     0
 49
0.0208333333333333
 49
0.0
 49
0.0
 49
0.0
 49
0.0
 49
0.0208333333333333
 49
0.0
 49
0.0
 49
0.0
 49
0.0
 49
1.0
 49
0.0
 49
0.0
 49
0.0
 49
0.0
 49
1.0
175
     0
142
0.0208333333333333
142
0.0
142
0.0
142
0.0
142
0.0
142
0.0208333333333333
142
0.0
142
0.0
142
0.0
142
0.0
142
1.0
142
0.0
142
0.0
142
0.0
142
0.0
142
1.0
179
     0
144
0.0208333333333333
144
0.0
144
0.0
144
0.0
144
0.0
144
0.0208333333333333
144
0.0
144
0.0
144
0.0
144
0.0
144
1.0
144
0.0
144
0.0
144
0.0
144
0.0
144
1.0
147
0.0208333333333333
147
0.0
147
0.0
147
0.0
147
0.0
147
0.0208333333333333
147
0.0
147
0.0
147
0.0
147
0.0
147
1.0
147
0.0
147
0.0
147
0.0
147
0.0
147
1.0
  0
MATERIAL
  5
C
102
{ACAD_XDICTIONARY
360
E
102
}
102
{ACAD_REACTORS
330
D
102
}
330
D
100
AcDbMaterial
  1
Global
 72
     0
 43
0.0208333333333333
 43
0.0
 43
0.0
 43
0.0
 43
0.0
 43
0.0208333333333333
 43
0.0
 43
0.0
 43
0.0
 43
0.0
 43
1.0
 43
0.0
 43
0.0
 43
0.0
 43
0.0
 43
1.0
 77
     0
 47
0.0208333333333333
 47
0.0
 47
0.0
 47
0.0
 47
0.0
 47
0.0208333333333333
 47
0.0
 47
0.0
 47
0.0
 47
0.0
 47
1.0
 47
0.0
 47
0.0
 47
0.0
 47
0.0
 47
1.0
171
     0
 49
0.0208333333333333
 49
0.0
 49
0.0
 49
0.0
 49
0.0
 49
0.0208333333333333
 49
0.0
 49
0.0
 49
0.0
 49
0.0
 49
1.0
 49
0.0
 49
0.0
 49
0.0
 49
0.0
 49
1.0
175
     0
142
0.0208333333333333
142
0.0
142
0.0
142
0.0
142
0.0
142
0.0208333333333333
142
0.0
142
0.0
142
0.0
142
0.0
142
1.0
142
0.0
142
0.0
142
0.0
142
0.0
142
1.0
179
     0
144
0.0208333333333333
144
0.0
144
0.0
144
0.0
144
0.0
144
0.0208333333333333
144
0.0
144
0.0
144
0.0
144
0.0
144
1.0
144
0.0
144
0.0
144
0.0
144
0.0
144
1.0
147
0.0208333333333333
147
0.0
147
0.0
147
0.0
147
0.0
147
0.0208333333333333
147
0.0
147
0.0
147
0.0
147
0.0
147
1.0
147
0.0
147
0.0
147
0.0
147
0.0
147
1.0
  0
MLEADERSTYLE
  5
284
102
{ACAD_REACTORS
330
283
102
}
330
283
100
AcDbMLeaderStyle
170
     2
171
     1
172
     0
 90
        2
 40
0.0
 41
0.0
173
     1
 91
-1056964608
340
201
 92
       -2
290
     1
 42
0.09
291
     1
 43
0.36
  3
Standard
 44
0.18
300

342
46
174
     1
178
     6
175
     1
176
     0
 93
-1056964608
 45
0.18
292
     0
297
     0
 46
0.18
 94
-1056964608
 47
1.0
 49
1.0
140
1.0
293
     1
141
0.0
294
     1
177
     0
142
1.0
295
     0
296
     0
143
0.125
1001
ACAD_MLEADERVER
1070
     2
  0
MLINESTYLE
  5
224
102
{ACAD_REACTORS
330
20F
102
}
330
20F
100
AcDbMlineStyle
  2
STANDARD
 70
     0
  3

 62
   256
 51
90.0
 52
90.0
 71
     2
 49
0.5
 62
   256
  6
BYLAYER
 49
-0.5
 62
   256
  6
BYLAYER
  0
ACDBPLACEHOLDER
  5
9
102
{ACAD_REACTORS
330
A
102
}
330
A
  0
SCALE
  5
229
102
{ACAD_REACTORS
330
222
102
}
330
222
100
AcDbScale
 70
     0
300
1:1
140
1.0
141
1.0
290
     1
  0
SCALE
  5
22A
102
{ACAD_REACTORS
330
222
102
}
330
222
100
AcDbScale
 70
     0
300
1:2
140
1.0
141
2.0
290
     0
  0
SCALE
  5
22B
102
{ACAD_REACTORS
330
222
102
}
330
222
100
AcDbScale
 70
     0
300
1:4
140
1.0
141
4.0
290
     0
  0
SCALE
  5
22C
102
{ACAD_REACTORS
330
222
102
}
330
222
100
AcDbScale
 70
     0
300
1:5
140
1.0
141
5.0
290
     0
  0
SCALE
  5
22D
102
{ACAD_REACTORS
330
222
102
}
330
222
100
AcDbScale
 70
     0
300
1:8
140
1.0
141
8.0
290
     0
  0
SCALE
  5
22E
102
{ACAD_REACTORS
330
222
102
}
330
222
100
AcDbScale
 70
     0
300
1:10
140
1.0
141
10.0
290
     0
  0
SCALE
  5
22F
102
{ACAD_REACTORS
330
222
102
}
330
222
100
AcDbScale
 70
     0
300
1:16
140
1.0
141
16.0
290
     0
  0
SCALE
  5
230
102
{ACAD_REACTORS
330
222
102
}
330
222
100
AcDbScale
 70
     0
300
1:20
140
1.0
141
20.0
290
     0
  0
SCALE
  5
231
102
{ACAD_REACTORS
330
222
102
}
330
222
100
AcDbScale
 70
     0
300
1:30
140
1.0
141
30.0
290
     0
  0
SCALE
  5
232
102
{ACAD_REACTORS
330
222
102
}
330
222
100
AcDbScale
 70
     0
300
1:40
140
1.0
141
40.0
290
     0
  0
SCALE
  5
233
102
{ACAD_REACTORS
330
222
102
}
330
222
100
AcDbScale
 70
     0
300
1:50
140
1.0
141
50.0
290
     0
  0
SCALE
  5
234
102
{ACAD_REACTORS
330
222
102
}
330
222
100
AcDbScale
 70
     0
300
1:100
140
1.0
141
100.0
290
     0
  0
SCALE
  5
235
102
{ACAD_REACTORS
330
222
102
}
330
222
100
AcDbScale
 70
     0
300
2:1
140
2.0
141
1.0
290
     0
  0
SCALE
  5
236
102
{ACAD_REACTORS
330
222
102
}
330
222
100
AcDbScale
 70
     0
300
4:1
140
4.0
141
1.0
290
     0
  0
SCALE
  5
237
102
{ACAD_REACTORS
330
222
102
}
330
222
100
AcDbScale
 70
     0
300
8:1
140
8.0
141
1.0
290
     0
  0
SCALE
  5
238
102
{ACAD_REACTORS
330
222
102
}
330
222
100
AcDbScale
 70
     0
300
10:1
140
10.0
141
1.0
290
     0
  0
SCALE
  5
239
102
{ACAD_REACTORS
330
222
102
}
330
222
100
AcDbScale
 70
     0
300
100:1
140
100.0
141
1.0
290
     0
  0
SCALE
  5
23A
102
{ACAD_REACTORS
330
222
102
}
330
222
100
AcDbScale
 70
     0
300
1/128" = 1'-0"
140
0.0078125
141
12.0
290
     0
  0
SCALE
  5
23B
102
{ACAD_REACTORS
330
222
102
}
330
222
100
AcDbScale
 70
     0
300
1/64" = 1'-0"
140
0.015625
141
12.0
290
     0
  0
SCALE
  5
23C
102
{ACAD_REACTORS
330
222
102
}
330
222
100
AcDbScale
 70
     0
300
1/32" = 1'-0"
140
0.03125
141
12.0
290
     0
  0
SCALE
  5
23D
102
{ACAD_REACTORS
330
222
102
}
330
222
100
AcDbScale
 70
     0
300
1/16" = 1'-0"
140
0.0625
141
12.0
290
     0
  0
SCALE
  5
23E
102
{ACAD_REACTORS
330
222
102
}
330
222
100
AcDbScale
 70
     0
300
3/32" = 1'-0"
140
0.09375
141
12.0
290
     0
  0
SCALE
  5
23F
102
{ACAD_REACTORS
330
222
102
}
330
222
100
AcDbScale
 70
     0
300
1/8" = 1'-0"
140
0.125
141
12.0
290
     0
  0
SCALE
  5
240
102
{ACAD_REACTORS
330
222
102
}
330
222
100
AcDbScale
 70
     0
300
3/16" = 1'-0"
140
0.1875
141
12.0
290
     0
  0
SCALE
  5
241
102
{ACAD_REACTORS
330
222
102
}
330
222
100
AcDbScale
 70
     0
300
1/4" = 1'-0"
140
0.25
141
12.0
290
     0
  0
SCALE
  5
242
102
{ACAD_REACTORS
330
222
102
}
330
222
100
AcDbScale
 70
     0
300
3/8" = 1'-0"
140
0.375
141
12.0
290
     0
  0
SCALE
  5
243
102
{ACAD_REACTORS
330
222
102
}
330
222
100
AcDbScale
 70
     0
300
1/2" = 1'-0"
140
0.5
141
12.0
290
     0
  0
SCALE
  5
244
102
{ACAD_REACTORS
330
222
102
}
330
222
100
AcDbScale
 70
     0
300
3/4" = 1'-0"
140
0.75
141
12.0
290
     0
  0
SCALE
  5
245
102
{ACAD_REACTORS
330
222
102
}
330
222
100
AcDbScale
 70
     0
300
1" = 1'-0"
140
1.0
141
12.0
290
     0
  0
SCALE
  5
246
102
{ACAD_REACTORS
330
222
102
}
330
222
100
AcDbScale
 70
     0
300
1-1/2" = 1'-0"
140
1.5
141
12.0
290
     0
  0
SCALE
  5
247
102
{ACAD_REACTORS
330
222
102
}
330
222
100
AcDbScale
 70
     0
300
3" = 1'-0"
140
3.0
141
12.0
290
     0
  0
SCALE
  5
248
102
{ACAD_REACTORS
330
222
102
}
330
222
100
AcDbScale
 70
     0
300
6" = 1'-0"
140
6.0
141
12.0
290
     0
  0
SCALE
  5
249
102
{ACAD_REACTORS
330
222
102
}
330
222
100
AcDbScale
 70
     0
300
1'-0" = 1'-0"
140
12.0
141
12.0
290
     0
  0
TABLESTYLE
  5
225
102
{ACAD_XDICTIONARY
360
226
102
}
102
{ACAD_REACTORS
330
223
102
}
330
223
100
AcDbTableStyle
  3
Standard
 70
     0
 71
     0
 40
0.06
 41
0.06
280
     0
281
     0
  7
Standard
140
0.18
170
     2
 62
     0
 63
     7
283
     0
 90
      512
 91
        0
  1

274
    -2
284
     1
 64
     0
275
    -2
285
     1
 65
     0
276
    -2
286
     1
 66
     0
277
    -2
287
     1
 67
     0
278
    -2
288
     1
 68
     0
279
    -2
289
     1
 69
     0
  7
Standard
140
0.25
170
     5
 62
     0
 63
     7
283
     0
 90
      512
 91
        0
  1

274
    -2
284
     1
 64
     0
275
    -2
285
     1
 65
     0
276
    -2
286
     1
 66
     0
277
    -2
287
     1
 67
     0
278
    -2
288
     1
 68
     0
279
    -2
289
     1
 69
     0
  7
Standard
140
0.18
170
     5
 62
     0
 63
     7
283
     0
 90
      512
 91
        0
  1

274
    -2
284
     1
 64
     0
275
    -2
285
     1
 65
     0
276
    -2
286
     1
 66
     0
277
    -2
287
     1
 67
     0
278
    -2
288
     1
 68
     0
279
    -2
289
     1
 69
     0
  0
VISUALSTYLE
  5
207
102
{ACAD_REACTORS
330
208
102
}
330
208
100
AcDbVisualStyle
  2
2dWireframe
 70
     4
 71
     0
 72
     2
 73
     0
 90
        0
 40
-0.6
 41
-30.0
 62
     5
 63
     7
 74
     1
 91
        4
 64
     7
 65
   257
 75
     1
175
     1
 42
1.0
 92
        0
 66
   257
 43
1.0
 76
     1
 77
     6
 78
     2
 67
     7
 79
     5
170
     0
171
     0
290
     0
174
     0
 93
        1
 44
0.0
173
     0
291
     0
 45
0.0
1001
ACAD
1000
AcDbSavedByObjectVersion
1070
     0
1000
AcDbSavedByObjectVersion
1070
     0
1000
AcDbSavedByObjectVersion
1070
     0
1000
AcDbSavedByObjectVersion
1070
     0
1000
AcDbSavedByObjectVersion
1070
     0
1000
AcDbSavedByObjectVersion
1070
     0
1000
AcDbSavedByObjectVersion
1070
     0
1000
AcDbSavedByObjectVersion
1070
     0
1000
AcDbSavedByObjectVersion
1070
     0
1000
AcDbSavedByObjectVersion
1070
     0
1000
AcDbSavedByObjectVersion
1070
     0
1000
AcDbSavedByObjectVersion
1070
     0
1000
AcDbSavedByObjectVersion
1070
     0
1000
AcDbSavedByObjectVersion
1070
     0
1000
AcDbSavedByObjectVersion
1070
     0
1000
AcDbSavedByObjectVersion
1070
     0
1000
AcDbSavedByObjectVersion
1070
     0
1000
AcDbSavedByObjectVersion
1070
     0
1000
AcDbSavedByObjectVersion
1070
     0
1000
AcDbSavedByObjectVersion
1070
     0
1000
AcDbSavedByObjectVersion
1070
     0
1000
AcDbSavedByObjectVersion
1070
     0
1000
AcDbSavedByObjectVersion
1070
     0
1000
AcDbSavedByObjectVersion
1070
     0
1000
AcDbSavedByObjectVersion
1070
     0
1000
AcDbSavedByObjectVersion
1070
     0
1000
AcDbSavedByObjectVersion
1070
     0
1000
AcDbSavedByObjectVersion
1070
     0
1000
AcDbSavedByObjectVersion
1070
     0
1000
AcDbSavedByObjectVersion
1070
     0
  0
VISUALSTYLE
  5
27B
102
{ACAD_REACTORS
330
208
102
}
330
208
100
AcDbVisualStyle
  2
3D Hidden
 70
     6
 71
     1
 72
     2
 73
     2
 90
        0
 40
-0.6
 41
-30.0
 62
     5
 63
     7
 74
     2
 91
        2
 64
     7
 65
   257
 75
     2
175
     1
 42
40.0
 92
        0
 66
   257
 43
1.0
 76
     1
 77
     6
 78
     2
 67
     7
 79
     3
170
     0
171
     0
290
     0
174
     0
 93
        1
 44
0.0
173
     0
291
     0
 45
0.0
1001
ACAD
1000
AcDbSavedByObjectVersion
1070
     0
1000
AcDbSavedByObjectVersion
1070
     0
1000
AcDbSavedByObjectVersion
1070
     0
1000
AcDbSavedByObjectVersion
1070
     0
1000
AcDbSavedByObjectVersion
1070
     0
1000
AcDbSavedByObjectVersion
1070
     0
  0
VISUALSTYLE
  5
228
102
{ACAD_REACTORS
330
208
102
}
330
208
100
AcDbVisualStyle
  2
3dWireframe
 70
     5
 71
     0
 72
     2
 73
     0
 90
        0
 40
-0.6
 41
-30.0
 62
     5
 63
     7
 74
     1
 91
        4
 64
     7
 65
   257
 75
     1
175
     1
 42
1.0
 92
        0
 66
   257
 43
1.0
 76
     1
 77
     6
 78
     2
 67
     7
 79
     5
170
     0
171
     0
290
     0
174
     0
 93
        1
 44
0.0
173
     0
291
     0
 45
0.0
1001
ACAD
1000
AcDbSavedByObjectVersion
1070
     0
1000
AcDbSavedByObjectVersion
1070
     0
1000
AcDbSavedByObjectVersion
1070
     0
1000
AcDbSavedByObjectVersion
1070
     0
1000
AcDbSavedByObjectVersion
1070
     0
1000
AcDbSavedByObjectVersion
1070
     0
1000
AcDbSavedByObjectVersion
1070
     0
1000
AcDbSavedByObjectVersion
1070
     0
1000
AcDbSavedByObjectVersion
1070
     0
1000
AcDbSavedByObjectVersion
1070
     0
1000
AcDbSavedByObjectVersion
1070
     0
1000
AcDbSavedByObjectVersion
1070
     0
1000
AcDbSavedByObjectVersion
1070
     0
1000
AcDbSavedByObjectVersion
1070
     0
1000
AcDbSavedByObjectVersion
1070
     0
1000
AcDbSavedByObjectVersion
1070
     0
1000
AcDbSavedByObjectVersion
1070
     0
1000
AcDbSavedByObjectVersion
1070
     0
1000
AcDbSavedByObjectVersion
1070
     0
1000
AcDbSavedByObjectVersion
1070
     0
1000
AcDbSavedByObjectVersion
1070
     0
1000
AcDbSavedByObjectVersion
1070
     0
1000
AcDbSavedByObjectVersion
1070
     0
1000
AcDbSavedByObjectVersion
1070
     0
1000
AcDbSavedByObjectVersion
1070
     0
1000
AcDbSavedByObjectVersion
1070
     0
1000
AcDbSavedByObjectVersion
1070
     0
1000
AcDbSavedByObjectVersion
1070
     0
1000
AcDbSavedByObjectVersion
1070
     0
1000
AcDbSavedByObjectVersion
1070
     0
  0
VISUALSTYLE
  5
27A
102
{ACAD_REACTORS
330
208
102
}
330
208
100
AcDbVisualStyle
  2
Basic
 70
     7
 71
     1
 72
     0
 73
     1
 90
        0
 40
-0.6
 41
-30.0
 62
     5
 63
     7
 74
     0
 91
        4
 64
     7
 65
   257
 75
     1
175
     1
 42
1.0
 92
        8
 66
     7
 43
1.0
 76
     1
 77
     6
 78
     2
 67
     7
 79
     5
170
     0
171
     0
290
     0
174
     0
 93
        1
 44
0.0
173
     0
291
     1
 45
0.0
1001
ACAD
1000
AcDbSavedByObjectVersion
1070
     0
1000
AcDbSavedByObjectVersion
1070
     0
1000
AcDbSavedByObjectVersion
1070
     0
1000
AcDbSavedByObjectVersion
1070
     0
1000
AcDbSavedByObjectVersion
1070
     0
1000
AcDbSavedByObjectVersion
1070
     0
  0
VISUALSTYLE
  5
27E
102
{ACAD_REACTORS
330
208
102
}
330
208
100
AcDbVisualStyle
  2
Brighten
 70
    12
 71
     2
 72
     2
 73
     0
 90
        0
 40
-0.6
 41
-30.0
 62
     5
 63
     7
 74
     1
 91
        4
 64
     7
 65
   257
 75
     1
175
     1
 42
1.0
 92
        8
 66
     7
 43
1.0
 76
     1
 77
     6
 78
     2
 67
     7
 79
     5
170
     0
171
     0
290
     0
174
     0
 93
        1
 44
50.0
173
     0
291
     1
 45
0.0
1001
ACAD
1000
AcDbSavedByObjectVersion
1070
     0
1000
AcDbSavedByObjectVersion
1070
     0
1000
AcDbSavedByObjectVersion
1070
     0
1000
AcDbSavedByObjectVersion
1070
     0
1000
AcDbSavedByObjectVersion
1070
     0
1000
AcDbSavedByObjectVersion
1070
     0
  0
VISUALSTYLE
  5
282
102
{ACAD_REACTORS
330
208
102
}
330
208
100
AcDbVisualStyle
  2
ColorChange
 70
    16
 71
     2
 72
     2
 73
     3
 90
        0
 40
-0.6
 41
-30.0
 62
     5
 63
     8
 74
     1
 91
        4
 64
     7
 65
   257
 75
     1
175
     1
 42
1.0
 92
        8
 66
     8
 43
1.0
 76
     1
 77
     6
 78
     2
 67
     7
 79
     5
170
     0
171
     0
290
     0
174
     0
 93
        1
 44
0.0
173
     0
291
     1
 45
0.0
1001
ACAD
1000
AcDbSavedByObjectVersion
1070
     0
1000
AcDbSavedByObjectVersion
1070
     0
1000
AcDbSavedByObjectVersion
1070
     0
1000
AcDbSavedByObjectVersion
1070
     0
1000
AcDbSavedByObjectVersion
1070
     0
1000
AcDbSavedByObjectVersion
1070
     0
  0
VISUALSTYLE
  5
27C
102
{ACAD_REACTORS
330
208
102
}
330
208
100
AcDbVisualStyle
  2
Conceptual
 70
     9
 71
     3
 72
     2
 73
     0
 90
        0
 40
-0.6
 41
-30.0
 62
     5
 63
     7
 74
     2
 91
        2
 64
     7
 65
   257
 75
     1
175
     1
 42
40.0
 92
        8
 66
     7
 43
1.0
 76
     1
 77
     6
 78
     2
 67
     7
 79
     3
170
     0
171
     0
290
     0
174
     0
 93
        1
 44
0.0
173
     0
291
     0
 45
0.0
1001
ACAD
1000
AcDbSavedByObjectVersion
1070
     0
1000
AcDbSavedByObjectVersion
1070
     0
1000
AcDbSavedByObjectVersion
1070
     0
1000
AcDbSavedByObjectVersion
1070
     0
1000
AcDbSavedByObjectVersion
1070
     0
1000
AcDbSavedByObjectVersion
1070
     0
  0
VISUALSTYLE
  5
27D
102
{ACAD_REACTORS
330
208
102
}
330
208
100
AcDbVisualStyle
  2
Dim
 70
    11
 71
     2
 72
     2
 73
     0
 90
        0
 40
-0.6
 41
-30.0
 62
     5
 63
     7
 74
     1
 91
        4
 64
     7
 65
   257
 75
     1
175
     1
 42
1.0
 92
        8
 66
     7
 43
1.0
 76
     1
 77
     6
 78
     2
 67
     7
 79
     5
170
     0
171
     0
290
     0
174
     0
 93
        1
 44
-50.0
173
     0
291
     1
 45
0.0
1001
ACAD
1000
AcDbSavedByObjectVersion
1070
     0
1000
AcDbSavedByObjectVersion
1070
     0
1000
AcDbSavedByObjectVersion
1070
     0
1000
AcDbSavedByObjectVersion
1070
     0
1000
AcDbSavedByObjectVersion
1070
     0
1000
AcDbSavedByObjectVersion
1070
     0
  0
VISUALSTYLE
  5
281
102
{ACAD_REACTORS
330
208
102
}
330
208
100
AcDbVisualStyle
  2
Facepattern
 70
    15
 71
     2
 72
     2
 73
     0
 90
        0
 40
-0.6
 41
-30.0
 62
     5
 63
     7
 74
     1
 91
        4
 64
     7
 65
   257
 75
     1
175
     1
 42
1.0
 92
        8
 66
     7
 43
1.0
 76
     1
 77
     6
 78
     2
 67
     7
 79
     5
170
     0
171
     0
290
     0
174
     0
 93
        1
 44
0.0
173
     0
291
     1
 45
0.0
1001
ACAD
1000
AcDbSavedByObjectVersion
1070
     0
1000
AcDbSavedByObjectVersion
1070
     0
1000
AcDbSavedByObjectVersion
1070
     0
1000
AcDbSavedByObjectVersion
1070
     0
1000
AcDbSavedByObjectVersion
1070
     0
1000
AcDbSavedByObjectVersion
1070
     0
  0
VISUALSTYLE
  5
276
102
{ACAD_REACTORS
330
208
102
}
330
208
100
AcDbVisualStyle
  2
Flat
 70
     0
 71
     2
 72
     1
 73
     1
 90
        2
 40
-0.6
 41
30.0
 62
     5
 63
     7
 74
     0
 91
        4
 64
     7
 65
   257
 75
     1
175
     1
 42
1.0
 92
        8
 66
     7
 43
1.0
 76
     1
 77
     6
 78
     2
 67
     7
 79
     5
170
     0
171
     0
290
     0
174
     0
 93
       13
 44
0.0
173
     0
291
     1
 45
0.0
1001
ACAD
1000
AcDbSavedByObjectVersion
1070
     0
1000
AcDbSavedByObjectVersion
1070
     0
1000
AcDbSavedByObjectVersion
1070
     0
1000
AcDbSavedByObjectVersion
1070
     0
1000
AcDbSavedByObjectVersion
1070
     0
1000
AcDbSavedByObjectVersion
1070
     0
  0
VISUALSTYLE
  5
277
102
{ACAD_REACTORS
330
208
102
}
330
208
100
AcDbVisualStyle
  2
FlatWithEdges
 70
     1
 71
     2
 72
     1
 73
     1
 90
        2
 40
-0.6
 41
30.0
 62
     5
 63
     7
 74
     1
 91
        4
 64
     7
 65
   257
 75
     1
175
     1
 42
1.0
 92
        0
 66
   257
 43
1.0
 76
     1
 77
     6
 78
     2
 67
     7
 79
     5
170
     0
171
     0
290
     0
174
     0
 93
       13
 44
0.0
173
     0
291
     1
 45
0.0
1001
ACAD
1000
AcDbSavedByObjectVersion
1070
     0
1000
AcDbSavedByObjectVersion
1070
     0
1000
AcDbSavedByObjectVersion
1070
     0
1000
AcDbSavedByObjectVersion
1070
     0
1000
AcDbSavedByObjectVersion
1070
     0
1000
AcDbSavedByObjectVersion
1070
     0
  0
VISUALSTYLE
  5
278
102
{ACAD_REACTORS
330
208
102
}
330
208
100
AcDbVisualStyle
  2
Gouraud
 70
     2
 71
     2
 72
     2
 73
     1
 90
        2
 40
-0.6
 41
30.0
 62
     5
 63
     7
 74
     0
 91
        4
 64
     7
 65
   257
 75
     1
175
     1
 42
1.0
 92
        0
 66
     7
 43
1.0
 76
     1
 77
     6
 78
     2
 67
     7
 79
     5
170
     0
171
     0
290
     0
174
     0
 93
       13
 44
0.0
173
     0
291
     1
 45
0.0
1001
ACAD
1000
AcDbSavedByObjectVersion
1070
     0
1000
AcDbSavedByObjectVersion
1070
     0
1000
AcDbSavedByObjectVersion
1070
     0
1000
AcDbSavedByObjectVersion
1070
     0
1000
AcDbSavedByObjectVersion
1070
     0
1000
AcDbSavedByObjectVersion
1070
     0
  0
VISUALSTYLE
  5
279
102
{ACAD_REACTORS
330
208
102
}
330
208
100
AcDbVisualStyle
  2
GouraudWithEdges
 70
     3
 71
     2
 72
     2
 73
     1
 90
        2
 40
-0.6
 41
30.0
 62
     5
 63
     7
 74
     1
 91
        4
 64
     7
 65
   257
 75
     1
175
     1
 42
1.0
 92
        0
 66
   257
 43
1.0
 76
     1
 77
     6
 78
     2
 67
     7
 79
     5
170
     0
171
     0
290
     0
174
     0
 93
       13
 44
0.0
173
     0
291
     1
 45
0.0
1001
ACAD
1000
AcDbSavedByObjectVersion
1070
     0
1000
AcDbSavedByObjectVersion
1070
     0
1000
AcDbSavedByObjectVersion
1070
     0
1000
AcDbSavedByObjectVersion
1070
     0
1000
AcDbSavedByObjectVersion
1070
     0
1000
AcDbSavedByObjectVersion
1070
     0
  0
VISUALSTYLE
  5
280
102
{ACAD_REACTORS
330
208
102
}
330
208
100
AcDbVisualStyle
  2
Linepattern
 70
    14
 71
     2
 72
     2
 73
     0
 90
        0
 40
-0.6
 41
-30.0
 62
     5
 63
     7
 74
     1
 91
        4
 64
     7
 65
   257
 75
     7
175
     7
 42
1.0
 92
        8
 66
     7
 43
1.0
 76
     1
 77
     6
 78
     2
 67
     7
 79
     5
170
     0
171
     0
290
     0
174
     0
 93
        1
 44
0.0
173
     0
291
     1
 45
0.0
1001
ACAD
1000
AcDbSavedByObjectVersion
1070
     0
1000
AcDbSavedByObjectVersion
1070
     0
1000
AcDbSavedByObjectVersion
1070
     0
1000
AcDbSavedByObjectVersion
1070
     0
1000
AcDbSavedByObjectVersion
1070
     0
1000
AcDbSavedByObjectVersion
1070
     0
  0
VISUALSTYLE
  5
227
102
{ACAD_REACTORS
330
208
102
}
330
208
100
AcDbVisualStyle
  2
Realistic
 70
     8
 71
     2
 72
     2
 73
     0
 90
        0
 40
-0.6
 41
-30.0
 62
     5
 63
     7
 74
     1
 91
        0
 64
     7
 65
   257
 75
     1
175
     1
 42
1.0
 92
        8
 66
     8
 43
1.0
 76
     1
 77
     6
 78
     2
 67
     7
 79
     5
170
     0
171
     0
290
     0
174
     0
 93
       13
 44
0.0
173
     0
291
     0
 45
0.0
1001
ACAD
1000
AcDbSavedByObjectVersion
1070
     0
1000
AcDbSavedByObjectVersion
1070
     0
1000
AcDbSavedByObjectVersion
1070
     0
1000
AcDbSavedByObjectVersion
1070
     0
1000
AcDbSavedByObjectVersion
1070
     0
1000
AcDbSavedByObjectVersion
1070
     0
1000
AcDbSavedByObjectVersion
1070
     0
1000
AcDbSavedByObjectVersion
1070
     0
1000
AcDbSavedByObjectVersion
1070
     0
1000
AcDbSavedByObjectVersion
1070
     0
1000
AcDbSavedByObjectVersion
1070
     0
1000
AcDbSavedByObjectVersion
1070
     0
1000
AcDbSavedByObjectVersion
1070
     0
1000
AcDbSavedByObjectVersion
1070
     0
1000
AcDbSavedByObjectVersion
1070
     0
1000
AcDbSavedByObjectVersion
1070
     0
1000
AcDbSavedByObjectVersion
1070
     0
1000
AcDbSavedByObjectVersion
1070
     0
1000
AcDbSavedByObjectVersion
1070
     0
1000
AcDbSavedByObjectVersion
1070
     0
1000
AcDbSavedByObjectVersion
1070
     0
1000
AcDbSavedByObjectVersion
1070
     0
1000
AcDbSavedByObjectVersion
1070
     0
1000
AcDbSavedByObjectVersion
1070
     0
1000
AcDbSavedByObjectVersion
1070
     0
1000
AcDbSavedByObjectVersion
1070
     0
1000
AcDbSavedByObjectVersion
1070
     0
1000
AcDbSavedByObjectVersion
1070
     0
1000
AcDbSavedByObjectVersion
1070
     0
1000
AcDbSavedByObjectVersion
1070
     0
  0
VISUALSTYLE
  5
27F
102
{ACAD_REACTORS
330
208
102
}
330
208
100
AcDbVisualStyle
  2
Thicken
 70
    13
 71
     2
 72
     2
 73
     0
 90
        0
 40
-0.6
 41
-30.0
 62
     5
 63
     7
 74
     1
 91
        4
 64
     7
 65
   257
 75
     1
175
     1
 42
1.0
 92
       12
 66
     7
 43
1.0
 76
     1
 77
     6
 78
     2
 67
     7
 79
     5
170
     0
171
     0
290
     0
174
     0
 93
        1
 44
0.0
173
     0
291
     1
 45
0.0
1001
ACAD
1000
AcDbSavedByObjectVersion
1070
     0
1000
AcDbSavedByObjectVersion
1070
     0
1000
AcDbSavedByObjectVersion
1070
     0
1000
AcDbSavedByObjectVersion
1070
     0
1000
AcDbSavedByObjectVersion
1070
     0
1000
AcDbSavedByObjectVersion
1070
     0
  0
DICTIONARYVAR
  5
24E
102
{ACAD_REACTORS
330
24B
102
}
330
24B
100
DictionaryVariables
280
     0
  1
1:1
  0
DICTIONARYVAR
  5
24D
102
{ACAD_REACTORS
330
24B
102
}
330
24B
100
DictionaryVariables
280
     0
  1
STANDARD
  0
DICTIONARYVAR
  5
24C
102
{ACAD_REACTORS
330
24B
102
}
330
24B
100
DictionaryVariables
280
     0
  1
STANDARD
  0
DICTIONARYVAR
  5
38A
102
{ACAD_REACTORS
330
24B
102
}
330
24B
100
DictionaryVariables
280
     0
  1
1
  0
DICTIONARYVAR
  5
389
102
{ACAD_REACTORS
330
24B
102
}
330
24B
100
DictionaryVariables
280
     0
  1
1
  0
DICTIONARYVAR
  5
388
102
{ACAD_REACTORS
330
24B
102
}
330
24B
100
DictionaryVariables
280
     0
  1
0
  0
DICTIONARYVAR
  5
24F
102
{ACAD_REACTORS
330
24B
102
}
330
24B
100
DictionaryVariables
280
     0
  1
0
  0
DICTIONARYVAR
  5
386
102
{ACAD_REACTORS
330
24B
102
}
330
24B
100
DictionaryVariables
280
     0
  1
1
  0
DICTIONARYVAR
  5
387
102
{ACAD_REACTORS
330
24B
102
}
330
24B
100
DictionaryVariables
280
     0
  1
127
  0
XRECORD
  5
16BE
102
{ACAD_REACTORS
330
16BC
102
}
330
16BC
100
AcDbXrecord
280
     1
330
E28
  0
DICTIONARY
  5
21A
330
219
100
AcDbDictionary
280
     1
281
     1
  3
ACAD_XREC_ROUNDTRIP
360
797
  3
BUMPTILE
360
21B
  3
DIFFUSETILE
360
21C
  3
OPACITYTILE
360
21D
  3
REFLECTIONTILE
360
21E
  3
REFRACTIONTILE
360
21F
  3
SPECULARTILE
360
220
  0
DICTIONARY
  5
212
330
211
100
AcDbDictionary
280
     1
281
     1
  3
ACAD_XREC_ROUNDTRIP
360
796
  3
BUMPTILE
360
213
  3
DIFFUSETILE
360
214
  3
OPACITYTILE
360
215
  3
REFLECTIONTILE
360
216
  3
REFRACTIONTILE
360
217
  3
SPECULARTILE
360
218
  0
DICTIONARY
  5
E
330
C
100
AcDbDictionary
280
     1
281
     1
  3
ACAD_XREC_ROUNDTRIP
360
78E
  3
BUMPTILE
360
F
  3
DIFFUSETILE
360
10
  3
OPACITYTILE
360
11
  3
REFLECTIONTILE
360
12
  3
REFRACTIONTILE
360
13
  3
SPECULARTILE
360
14
  0
DICTIONARY
  5
226
330
225
100
AcDbDictionary
280
     1
281
     1
  3
ACAD_ROUNDTRIP_2008_TABLESTYLE_CELLSTYLEMAP
360
1DD0
  0
XRECORD
  5
797
102
{ACAD_REACTORS
330
21A
102
}
330
21A
100
AcDbXrecord
280
     1
102
MATERIAL
148
0.0
149
0.0
149
0.0
 93
        0
 94
      127
282
     0
 72
     0
 77
     0
171
     0
175
     0
179
     0
273
     0
  0
XRECORD
  5
21B
102
{ACAD_REACTORS
330
21A
102
}
330
21A
100
AcDbXrecord
280
     1
270
     1
271
     1
  0
XRECORD
  5
21C
102
{ACAD_REACTORS
330
21A
102
}
330
21A
100
AcDbXrecord
280
     1
270
     1
271
     1
  0
XRECORD
  5
21D
102
{ACAD_REACTORS
330
21A
102
}
330
21A
100
AcDbXrecord
280
     1
270
     1
271
     1
  0
XRECORD
  5
21E
102
{ACAD_REACTORS
330
21A
102
}
330
21A
100
AcDbXrecord
280
     1
270
     1
271
     1
  0
XRECORD
  5
21F
102
{ACAD_REACTORS
330
21A
102
}
330
21A
100
AcDbXrecord
280
     1
270
     1
271
     1
  0
XRECORD
  5
220
102
{ACAD_REACTORS
330
21A
102
}
330
21A
100
AcDbXrecord
280
     1
270
     1
271
     1
  0
XRECORD
  5
796
102
{ACAD_REACTORS
330
212
102
}
330
212
100
AcDbXrecord
280
     1
102
MATERIAL
148
0.0
149
0.0
149
0.0
 93
        0
 94
      127
282
     0
 72
     0
 77
     0
171
     0
175
     0
179
     0
273
     0
  0
XRECORD
  5
213
102
{ACAD_REACTORS
330
212
102
}
330
212
100
AcDbXrecord
280
     1
270
     1
271
     1
  0
XRECORD
  5
214
102
{ACAD_REACTORS
330
212
102
}
330
212
100
AcDbXrecord
280
     1
270
     1
271
     1
  0
XRECORD
  5
215
102
{ACAD_REACTORS
330
212
102
}
330
212
100
AcDbXrecord
280
     1
270
     1
271
     1
  0
XRECORD
  5
216
102
{ACAD_REACTORS
330
212
102
}
330
212
100
AcDbXrecord
280
     1
270
     1
271
     1
  0
XRECORD
  5
217
102
{ACAD_REACTORS
330
212
102
}
330
212
100
AcDbXrecord
280
     1
270
     1
271
     1
  0
XRECORD
  5
218
102
{ACAD_REACTORS
330
212
102
}
330
212
100
AcDbXrecord
280
     1
270
     1
271
     1
  0
XRECORD
  5
78E
102
{ACAD_REACTORS
330
E
102
}
330
E
100
AcDbXrecord
280
     1
102
MATERIAL
148
0.0
149
0.0
149
0.0
 93
        0
 94
      127
282
     0
 72
     0
 77
     0
171
     0
175
     0
179
     0
273
     0
  0
XRECORD
  5
F
102
{ACAD_REACTORS
330
E
102
}
330
E
100
AcDbXrecord
280
     1
270
     1
271
     1
  0
XRECORD
  5
10
102
{ACAD_REACTORS
330
E
102
}
330
E
100
AcDbXrecord
280
     1
270
     1
271
     1
  0
XRECORD
  5
11
102
{ACAD_REACTORS
330
E
102
}
330
E
100
AcDbXrecord
280
     1
270
     1
271
     1
  0
XRECORD
  5
12
102
{ACAD_REACTORS
330
E
102
}
330
E
100
AcDbXrecord
280
     1
270
     1
271
     1
  0
XRECORD
  5
13
102
{ACAD_REACTORS
330
E
102
}
330
E
100
AcDbXrecord
280
     1
270
     1
271
     1
  0
XRECORD
  5
14
102
{ACAD_REACTORS
330
E
102
}
330
E
100
AcDbXrecord
280
     1
270
     1
271
     1
  0
CELLSTYLEMAP
  5
1DD0
102
{ACAD_REACTORS
330
226
102
}
330
226
100
AcDbCellStyleMap
 90
        3
300
CELLSTYLE
  1
TABLEFORMAT_BEGIN
 90
        5
170
     1
 91
        0
 92
    32768
 62
   257
 93
        1
300
CONTENTFORMAT
  1
CONTENTFORMAT_BEGIN
 90
        0
 91
        0
 92
      512
 93
        0
300

 40
0.0
140
1.0
 94
        5
 62
     0
340
46
144
0.25
309
CONTENTFORMAT_END
171
     1
301
MARGIN
  1
CELLMARGIN_BEGIN
 40
0.06
 40
0.06
 40
0.06
 40
0.06
 40
0.18
 40
0.18
309
CELLMARGIN_END
 94
        6
 95
        1
302
GRIDFORMAT
  1
GRIDFORMAT_BEGIN
 90
        0
 91
        1
 62
     0
 92
       -2
340
0
 93
        0
 40
0.045
309
GRIDFORMAT_END
 95
        2
302
GRIDFORMAT
  1
GRIDFORMAT_BEGIN
 90
        0
 91
        1
 62
     0
 92
       -2
340
0
 93
        0
 40
0.045
309
GRIDFORMAT_END
 95
        4
302
GRIDFORMAT
  1
GRIDFORMAT_BEGIN
 90
        0
 91
        1
 62
     0
 92
       -2
340
0
 93
        0
 40
0.045
309
GRIDFORMAT_END
 95
        8
302
GRIDFORMAT
  1
GRIDFORMAT_BEGIN
 90
        0
 91
        1
 62
     0
 92
       -2
340
0
 93
        0
 40
0.045
309
GRIDFORMAT_END
 95
       16
302
GRIDFORMAT
  1
GRIDFORMAT_BEGIN
 90
        0
 91
        1
 62
     0
 92
       -2
340
0
 93
        0
 40
0.045
309
GRIDFORMAT_END
 95
       32
302
GRIDFORMAT
  1
GRIDFORMAT_BEGIN
 90
        0
 91
        1
 62
     0
 92
       -2
340
0
 93
        0
 40
0.045
309
GRIDFORMAT_END
309
TABLEFORMAT_END
  1
CELLSTYLE_BEGIN
 90
        1
 91
        1
300
_TITLE
309
CELLSTYLE_END
300
CELLSTYLE
  1
TABLEFORMAT_BEGIN
 90
        5
170
     1
 91
        0
 92
        0
 62
   257
 93
        1
300
CONTENTFORMAT
  1
CONTENTFORMAT_BEGIN
 90
        0
 91
        0
 92
      512
 93
        0
300

 40
0.0
140
1.0
 94
        5
 62
     0
340
46
144
0.18
309
CONTENTFORMAT_END
171
     1
301
MARGIN
  1
CELLMARGIN_BEGIN
 40
0.06
 40
0.06
 40
0.06
 40
0.06
 40
0.18
 40
0.18
309
CELLMARGIN_END
 94
        6
 95
        1
302
GRIDFORMAT
  1
GRIDFORMAT_BEGIN
 90
        0
 91
        1
 62
     0
 92
       -2
340
0
 93
        0
 40
0.045
309
GRIDFORMAT_END
 95
        2
302
GRIDFORMAT
  1
GRIDFORMAT_BEGIN
 90
        0
 91
        1
 62
     0
 92
       -2
340
0
 93
        0
 40
0.045
309
GRIDFORMAT_END
 95
        4
302
GRIDFORMAT
  1
GRIDFORMAT_BEGIN
 90
        0
 91
        1
 62
     0
 92
       -2
340
0
 93
        0
 40
0.045
309
GRIDFORMAT_END
 95
        8
302
GRIDFORMAT
  1
GRIDFORMAT_BEGIN
 90
        0
 91
        1
 62
     0
 92
       -2
340
0
 93
        0
 40
0.045
309
GRIDFORMAT_END
 95
       16
302
GRIDFORMAT
  1
GRIDFORMAT_BEGIN
 90
        0
 91
        1
 62
     0
 92
       -2
340
0
 93
        0
 40
0.045
309
GRIDFORMAT_END
 95
       32
302
GRIDFORMAT
  1
GRIDFORMAT_BEGIN
 90
        0
 91
        1
 62
     0
 92
       -2
340
0
 93
        0
 40
0.045
309
GRIDFORMAT_END
309
TABLEFORMAT_END
  1
CELLSTYLE_BEGIN
 90
        2
 91
        1
300
_HEADER
309
CELLSTYLE_END
300
CELLSTYLE
  1
TABLEFORMAT_BEGIN
 90
        5
170
     1
 91
        0
 92
        0
 62
   257
 93
        1
300
CONTENTFORMAT
  1
CONTENTFORMAT_BEGIN
 90
        0
 91
        0
 92
      512
 93
        0
300

 40
0.0
140
1.0
 94
        2
 62
     0
340
46
144
0.18
309
CONTENTFORMAT_END
171
     1
301
MARGIN
  1
CELLMARGIN_BEGIN
 40
0.06
 40
0.06
 40
0.06
 40
0.06
 40
0.18
 40
0.18
309
CELLMARGIN_END
 94
        6
 95
        1
302
GRIDFORMAT
  1
GRIDFORMAT_BEGIN
 90
        0
 91
        1
 62
     0
 92
       -2
340
0
 93
        0
 40
0.045
309
GRIDFORMAT_END
 95
        2
302
GRIDFORMAT
  1
GRIDFORMAT_BEGIN
 90
        0
 91
        1
 62
     0
 92
       -2
340
0
 93
        0
 40
0.045
309
GRIDFORMAT_END
 95
        4
302
GRIDFORMAT
  1
GRIDFORMAT_BEGIN
 90
        0
 91
        1
 62
     0
 92
       -2
340
0
 93
        0
 40
0.045
309
GRIDFORMAT_END
 95
        8
302
GRIDFORMAT
  1
GRIDFORMAT_BEGIN
 90
        0
 91
        1
 62
     0
 92
       -2
340
0
 93
        0
 40
0.045
309
GRIDFORMAT_END
 95
       16
302
GRIDFORMAT
  1
GRIDFORMAT_BEGIN
 90
        0
 91
        1
 62
     0
 92
       -2
340
0
 93
        0
 40
0.045
309
GRIDFORMAT_END
 95
       32
302
GRIDFORMAT
  1
GRIDFORMAT_BEGIN
 90
        0
 91
        1
 62
     0
 92
       -2
340
0
 93
        0
 40
0.045
309
GRIDFORMAT_END
309
TABLEFORMAT_END
  1
CELLSTYLE_BEGIN
 90
        3
 91
        2
300
_DATA
309
CELLSTYLE_END
  0
ENDSEC
  0
EOF
