  0
SECTION
  2
HEADER
  9
$ACADVER
  1
AC1021
  9
$ACADMAINTVER
 70
    25
  9
$DWGCODEPAGE
  3
ANSI_936
  9
$LASTSAVEDBY
  1
zb.ye
  9
$INSBASE
 10
0.0
 20
0.0
 30
0.0
  9
$EXTMIN
 10
686.493583889492
 20
184.7931110638339
 30
-0.0000000349181977
  9
$EXTMAX
 10
760.8387088416062
 20
237.3186918906015
 30
0.0000000814935717
  9
$LIMMIN
 10
0.0
 20
0.0
  9
$LIMMAX
 10
12.0
 20
9.0
  9
$ORTHOMODE
 70
     0
  9
$REGENMODE
 70
     1
  9
$FILLMODE
 70
     1
  9
$QTEXTMODE
 70
     0
  9
$MIRRTEXT
 70
     1
  9
$LTSCALE
 40
1.0
  9
$ATTMODE
 70
     1
  9
$TEXTSIZE
 40
0.2
  9
$TRACEWID
 40
0.05
  9
$TEXTSTYLE
  7
Standard
  9
$CLAYER
  8
0
  9
$CELTYPE
  6
ByLayer
  9
$CECOLOR
 62
   256
  9
$CELTSCALE
 40
1.0
  9
$DISPSILH
 70
     0
  9
$DIMSCALE
 40
1.0
  9
$DIMASZ
 40
1.5
  9
$DIMEXO
 40
0.2
  9
$DIMDLI
 40
0.2
  9
$DIMRND
 40
0.0
  9
$DIMDLE
 40
0.0
  9
$DIMEXE
 40
0.5
  9
$DIMTP
 40
0.0
  9
$DIMTM
 40
0.0
  9
$DIMTXT
 40
2.0
  9
$DIMCEN
 40
0.0
  9
$DIMTSZ
 40
0.0
  9
$DIMTOL
 70
     0
  9
$DIMLIM
 70
     0
  9
$DIMTIH
 70
     0
  9
$DIMTOH
 70
     0
  9
$DIMSE1
 70
     0
  9
$DIMSE2
 70
     0
  9
$DIMTAD
 70
     1
  9
$DIMZIN
 70
     8
  9
$DIMBLK
  1

  9
$DIMASO
 70
     1
  9
$DIMSHO
 70
     1
  9
$DIMPOST
  1

  9
$DIMAPOST
  1

  9
$DIMALT
 70
     0
  9
$DIMALTD
 70
     2
  9
$DIMALTF
 40
25.4
  9
$DIMLFAC
 40
1.0
  9
$DIMTOFL
 70
     0
  9
$DIMTVP
 40
0.0
  9
$DIMTIX
 70
     0
  9
$DIMSOXD
 70
     0
  9
$DIMSAH
 70
     0
  9
$DIMBLK1
  1

  9
$DIMBLK2
  1

  9
$DIMSTYLE
  2
01
  9
$DIMCLRD
 70
     1
  9
$DIMCLRE
 70
     6
  9
$DIMCLRT
 70
     4
  9
$DIMTFAC
 40
1.0
  9
$DIMGAP
 40
0.5
  9
$DIMJUST
 70
     0
  9
$DIMSD1
 70
     0
  9
$DIMSD2
 70
     0
  9
$DIMTOLJ
 70
     1
  9
$DIMTZIN
 70
     0
  9
$DIMALTZ
 70
     0
  9
$DIMALTTZ
 70
     0
  9
$DIMUPT
 70
     0
  9
$DIMDEC
 70
     1
  9
$DIMTDEC
 70
     1
  9
$DIMALTU
 70
     2
  9
$DIMALTTD
 70
     2
  9
$DIMTXSTY
  7
Romans字体
  9
$DIMAUNIT
 70
     0
  9
$DIMADEC
 70
     2
  9
$DIMALTRND
 40
0.0
  9
$DIMAZIN
 70
     2
  9
$DIMDSEP
 70
    46
  9
$DIMATFIT
 70
     3
  9
$DIMFRAC
 70
     0
  9
$DIMLDRBLK
  1

  9
$DIMLUNIT
 70
     2
  9
$DIMLWD
 70
    -2
  9
$DIMLWE
 70
    -2
  9
$DIMTMOVE
 70
     0
  9
$DIMFXL
 40
1.0
  9
$DIMFXLON
 70
     0
  9
$DIMJOGANG
 40
0.7853981633974483
  9
$DIMTFILL
 70
     0
  9
$DIMTFILLCLR
 70
     0
  9
$DIMARCSYM
 70
     0
  9
$DIMLTYPE
  6

  9
$DIMLTEX1
  6

  9
$DIMLTEX2
  6

  9
$LUNITS
 70
     2
  9
$LUPREC
 70
     4
  9
$SKETCHINC
 40
0.1
  9
$FILLETRAD
 40
0.5
  9
$AUNITS
 70
     0
  9
$AUPREC
 70
     0
  9
$MENU
  1
.
  9
$ELEVATION
 40
0.0
  9
$PELEVATION
 40
0.0
  9
$THICKNESS
 40
0.0
  9
$LIMCHECK
 70
     0
  9
$CHAMFERA
 40
0.5
  9
$CHAMFERB
 40
0.5
  9
$CHAMFERC
 40
1.0
  9
$CHAMFERD
 40
0.0
  9
$SKPOLY
 70
     0
  9
$TDCREATE
 40
2456524.383632987
  9
$TDUCREATE
 40
2456524.050299653
  9
$TDUPDATE
 40
2460290.607308924
  9
$TDUUPDATE
 40
2460290.273975590
  9
$TDINDWG
 40
1.2905806597
  9
$TDUSRTIMER
 40
1.2905617477
  9
$USRTIMER
 70
     1
  9
$ANGBASE
 50
0.0
  9
$ANGDIR
 70
     0
  9
$PDMODE
 70
     0
  9
$PDSIZE
 40
0.0
  9
$PLINEWID
 40
0.0
  9
$SPLFRAME
 70
     0
  9
$SPLINETYPE
 70
     6
  9
$SPLINESEGS
 70
     8
  9
$HANDSEED
  5
A0C
  9
$SURFTAB1
 70
     6
  9
$SURFTAB2
 70
     6
  9
$SURFTYPE
 70
     6
  9
$SURFU
 70
     6
  9
$SURFV
 70
     6
  9
$UCSBASE
  2

  9
$UCSNAME
  2

  9
$UCSORG
 10
0.0
 20
0.0
 30
0.0
  9
$UCSXDIR
 10
1.0
 20
0.0
 30
0.0
  9
$UCSYDIR
 10
0.0
 20
1.0
 30
0.0
  9
$UCSORTHOREF
  2

  9
$UCSORTHOVIEW
 70
     0
  9
$UCSORGTOP
 10
0.0
 20
0.0
 30
0.0
  9
$UCSORGBOTTOM
 10
0.0
 20
0.0
 30
0.0
  9
$UCSORGLEFT
 10
0.0
 20
0.0
 30
0.0
  9
$UCSORGRIGHT
 10
0.0
 20
0.0
 30
0.0
  9
$UCSORGFRONT
 10
0.0
 20
0.0
 30
0.0
  9
$UCSORGBACK
 10
0.0
 20
0.0
 30
0.0
  9
$PUCSBASE
  2

  9
$PUCSNAME
  2

  9
$PUCSORG
 10
0.0
 20
0.0
 30
0.0
  9
$PUCSXDIR
 10
1.0
 20
0.0
 30
0.0
  9
$PUCSYDIR
 10
0.0
 20
1.0
 30
0.0
  9
$PUCSORTHOREF
  2

  9
$PUCSORTHOVIEW
 70
     0
  9
$PUCSORGTOP
 10
0.0
 20
0.0
 30
0.0
  9
$PUCSORGBOTTOM
 10
0.0
 20
0.0
 30
0.0
  9
$PUCSORGLEFT
 10
0.0
 20
0.0
 30
0.0
  9
$PUCSORGRIGHT
 10
0.0
 20
0.0
 30
0.0
  9
$PUCSORGFRONT
 10
0.0
 20
0.0
 30
0.0
  9
$PUCSORGBACK
 10
0.0
 20
0.0
 30
0.0
  9
$USERI1
 70
     0
  9
$USERI2
 70
     0
  9
$USERI3
 70
     0
  9
$USERI4
 70
     0
  9
$USERI5
 70
     0
  9
$USERR1
 40
0.0
  9
$USERR2
 40
0.0
  9
$USERR3
 40
0.0
  9
$USERR4
 40
0.0
  9
$USERR5
 40
0.0
  9
$WORLDVIEW
 70
     1
  9
$SHADEDGE
 70
     3
  9
$SHADEDIF
 70
    70
  9
$TILEMODE
 70
     1
  9
$MAXACTVP
 70
    64
  9
$PINSBASE
 10
0.0
 20
0.0
 30
0.0
  9
$PLIMCHECK
 70
     0
  9
$PEXTMIN
 10
1.000000000000000E+20
 20
1.000000000000000E+20
 30
1.000000000000000E+20
  9
$PEXTMAX
 10
-1.000000000000000E+20
 20
-1.000000000000000E+20
 30
-1.000000000000000E+20
  9
$PLIMMIN
 10
0.0
 20
0.0
  9
$PLIMMAX
 10
12.0
 20
9.0
  9
$UNITMODE
 70
     0
  9
$VISRETAIN
 70
     1
  9
$PLINEGEN
 70
     0
  9
$PSLTSCALE
 70
     1
  9
$TREEDEPTH
 70
  3020
  9
$CMLSTYLE
  2
Standard
  9
$CMLJUST
 70
     0
  9
$CMLSCALE
 40
1.0
  9
$PROXYGRAPHICS
 70
     1
  9
$MEASUREMENT
 70
     0
  9
$CELWEIGHT
370
    -1
  9
$ENDCAPS
280
     0
  9
$JOINSTYLE
280
     0
  9
$LWDISPLAY
290
     0
  9
$INSUNITS
 70
     4
  9
$HYPERLINKBASE
  1

  9
$STYLESHEET
  1
monochrome.ctb
  9
$XEDIT
290
     1
  9
$CEPSNTYPE
380
     0
  9
$PSTYLEMODE
290
     1
  9
$FINGERPRINTGUID
  2
{6F478082-FE3C-45F1-B44F-2B64E702E701}
  9
$VERSIONGUID
  2
{CF75B81F-711A-4016-9021-3447F82BC4E9}
  9
$EXTNAMES
290
     1
  9
$PSVPSCALE
 40
0.0
  9
$OLESTARTUP
290
     0
  9
$SORTENTS
280
   127
  9
$INDEXCTL
280
     0
  9
$HIDETEXT
280
     1
  9
$XCLIPFRAME
290
     0
  9
$HALOGAP
280
     0
  9
$OBSCOLOR
 70
   257
  9
$OBSLTYPE
280
     0
  9
$INTERSECTIONDISPLAY
280
     0
  9
$INTERSECTIONCOLOR
 70
   257
  9
$DIMASSOC
280
     1
  9
$PROJECTNAME
  1

  9
$CAMERADISPLAY
290
     0
  9
$LENSLENGTH
 40
50.0
  9
$CAMERAHEIGHT
 40
0.0
  9
$STEPSPERSEC
 40
2.0
  9
$STEPSIZE
 40
6.0
  9
$3DDWFPREC
 40
2.0
  9
$PSOLWIDTH
 40
0.25
  9
$PSOLHEIGHT
 40
4.0
  9
$LOFTANG1
 40
1.570796
  9
$LOFTANG2
 40
1.570796
  9
$LOFTMAG1
 40
0.0
  9
$LOFTMAG2
 40
0.0
  9
$LOFTPARAM
 70
     7
  9
$LOFTNORMALS
280
     1
  9
$LATITUDE
 40
37.795
  9
$LONGITUDE
 40
-122.394
  9
$NORTHDIRECTION
 40
0.0
  9
$TIMEZONE
 70
 -8000
  9
$LIGHTGLYPHDISPLAY
280
     1
  9
$TILEMODELIGHTSYNCH
280
     1
  9
$CMATERIAL
347
211
  9
$SOLIDHIST
280
     1
  9
$SHOWHIST
280
     1
  9
$DWFFRAME
280
     2
  9
$DGNFRAME
280
     0
  9
$REALWORLDSCALE
290
     1
  9
$INTERFERECOLOR
 62
     1
  9
$INTERFEREOBJVS
345
227
  9
$INTERFEREVPVS
346
228
  9
$CSHADOW
280
     0
  9
$SHADOWPLANELOCATION
 40
0.0
  0
ENDSEC
  0
SECTION
  2
CLASSES
  0
CLASS
  1
ACDBDICTIONARYWDFLT
  2
AcDbDictionaryWithDefault
  3
ObjectDBX Classes
 90
        0
 91
        1
280
     0
281
     0
  0
CLASS
  1
VISUALSTYLE
  2
AcDbVisualStyle
  3
ObjectDBX Classes
 90
     4095
 91
       16
280
     0
281
     0
  0
CLASS
  1
MATERIAL
  2
AcDbMaterial
  3
ObjectDBX Classes
 90
     1153
 91
        3
280
     0
281
     0
  0
CLASS
  1
TABLESTYLE
  2
AcDbTableStyle
  3
ObjectDBX Classes
 90
     4095
 91
        1
280
     0
281
     0
  0
CLASS
  1
SCALE
  2
AcDbScale
  3
ObjectDBX Classes
 90
     1153
 91
       33
280
     0
281
     0
  0
CLASS
  1
MLEADERSTYLE
  2
AcDbMLeaderStyle
  3
ACDB_MLEADERSTYLE_CLASS
 90
     4095
 91
        1
280
     0
281
     0
  0
CLASS
  1
CELLSTYLEMAP
  2
AcDbCellStyleMap
  3
ObjectDBX Classes
 90
     1152
 91
        5
280
     0
281
     0
  0
CLASS
  1
DICTIONARYVAR
  2
AcDbDictionaryVar
  3
ObjectDBX Classes
 90
        0
 91
       11
280
     0
281
     0
  0
CLASS
  1
SORTENTSTABLE
  2
AcDbSortentsTable
  3
ObjectDBX Classes
 90
        0
 91
        1
280
     0
281
     0
  0
CLASS
  1
ACAD_EVALUATION_GRAPH
  2
AcDbEvalGraph
  3
ObjectDBX Classes
 90
     1153
 91
        1
280
     0
281
     0
  0
CLASS
  1
ACAECUSTOBJ
  2
AcAeEditorObj
  3
AcAeEditorObj
 90
     1024
 91
        1
280
     1
281
     0
  0
CLASS
  1
ACDB_DYNAMICBLOCKPURGEPREVENTER_VERSION
  2
AcDbDynamicBlockPurgePreventer
  3
ObjectDBX Classes
 90
     1153
 91
        1
280
     0
281
     0
  0
CLASS
  1
MENTALRAYRENDERSETTINGS
  2
AcDbMentalRayRenderSettings
  3
SCENEOE
 90
     1024
 91
        0
280
     0
281
     0
  0
CLASS
  1
ACDB_BLOCKREPRESENTATION_DATA
  2
AcDbBlockRepresentationData
  3
ObjectDBX Classes
 90
     1153
 91
        0
280
     0
281
     0
  0
CLASS
  1
DIMASSOC
  2
AcDbDimAssoc
  3
"AcDbDimAssoc|Product Desc:     AcDim ARX App For Dimension|Company:          Autodesk, Inc.|WEB Address:      www.autodesk.com"
 90
        0
 91
        1
280
     0
281
     0
  0
CLASS
  1
SOLID_BACKGROUND
  2
AcDbSolidBackground
  3
SCENEOE
 90
     4095
 91
        0
280
     0
281
     0
  0
CLASS
  1
NPOCOLLECTION
  2
AcDbImpNonPersistentObjectsCollection
  3
ObjectDBX Classes
 90
     1153
 91
        0
280
     0
281
     0
  0
ENDSEC
  0
SECTION
  2
TABLES
  0
TABLE
  2
VPORT
  5
205
102
{ACAD_XDICTIONARY
360
209
102
}
330
0
100
AcDbSymbolTable
 70
     1
  0
VPORT
  5
206
330
205
100
AcDbSymbolTableRecord
100
AcDbViewportTableRecord
  2
*Active
 70
     0
 10
0.0
 20
0.0
 11
1.0
 21
1.0
 12
3.38383786999111
 22
-11.76199519530928
 13
0.0
 23
0.0
 14
0.5
 24
0.5
 15
0.5
 25
0.5
 16
0.0
 26
0.0
 36
47.52287584630495
 17
720.282308495558
 27
222.817896672527
 37
0.0
 40
53.05793468649832
 41
2.426395939086294
 42
50.0
 43
0.0
 44
0.0
 50
0.0
 51
0.0
 71
     0
 72
   100
 73
     1
 74
     3
 75
     0
 76
     0
 77
     0
 78
     0
281
     0
 65
     1
110
0.0
120
0.0
130
0.0
111
1.0
121
0.0
131
0.0
112
0.0
122
1.0
132
0.0
 79
     0
146
0.0
348
207
 60
     3
 61
     5
292
     1
282
     1
141
0.0
142
0.0
 63
   250
421
  3355443
  0
ENDTAB
  0
TABLE
  2
LTYPE
  5
200
330
0
100
AcDbSymbolTable
 70
     2
  0
LTYPE
  5
201
330
200
100
AcDbSymbolTableRecord
100
AcDbLinetypeTableRecord
  2
ByBlock
 70
     0
  3

 72
    65
 73
     0
 40
0.0
  0
LTYPE
  5
202
330
200
100
AcDbSymbolTableRecord
100
AcDbLinetypeTableRecord
  2
ByLayer
 70
     0
  3

 72
    65
 73
     0
 40
0.0
  0
LTYPE
  5
15
330
200
100
AcDbSymbolTableRecord
100
AcDbLinetypeTableRecord
  2
Continuous
 70
     0
  3
Solid line
 72
    65
 73
     0
 40
0.0
  0
LTYPE
  5
112
330
200
100
AcDbSymbolTableRecord
100
AcDbLinetypeTableRecord
  2
CENTER
 70
     0
  3
Center ____ _ ____ _ ____ _ ____ _ ____ _ ____
 72
    65
 73
     4
 40
2.0
 49
1.25
 74
     0
 49
-0.25
 74
     0
 49
0.25
 74
     0
 49
-0.25
 74
     0
  0
ENDTAB
  0
TABLE
  2
LAYER
  5
1F9
102
{ACAD_XDICTIONARY
360
1FA
102
}
330
0
100
AcDbSymbolTable
 70
     8
  0
LAYER
  5
6
102
{ACAD_XDICTIONARY
360
7
102
}
330
1F9
100
AcDbSymbolTableRecord
100
AcDbLayerTableRecord
  2
0
 70
     0
 62
     7
  6
Continuous
370
    30
390
9
347
C
  0
LAYER
  5
17
102
{ACAD_XDICTIONARY
360
18
102
}
330
1F9
100
AcDbSymbolTableRecord
100
AcDbLayerTableRecord
  2
图层 1
 70
     0
 62
     7
  6
Continuous
370
    -3
390
9
347
C
  0
LAYER
  5
25
102
{ACAD_XDICTIONARY
360
26
102
}
330
1F9
100
AcDbSymbolTableRecord
100
AcDbLayerTableRecord
  2
图框
 70
     0
 62
     7
  6
Continuous
370
    20
390
9
347
C
  0
LAYER
  5
123
330
1F9
100
AcDbSymbolTableRecord
100
AcDbLayerTableRecord
  2
Defpoints
 70
     0
 62
     7
  6
Continuous
290
     0
370
    -3
390
9
347
C
  0
LAYER
  5
119
330
1F9
100
AcDbSymbolTableRecord
100
AcDbLayerTableRecord
  2
DIM
 70
     0
 62
     3
  6
Continuous
370
    15
390
9
347
C
1001
AcAecLayerStandard
1000

1000

  0
LAYER
  5
ED
330
1F9
100
AcDbSymbolTableRecord
100
AcDbLayerTableRecord
  2
打标文字
 70
     0
 62
     3
  6
Continuous
370
    20
390
9
347
C
  0
LAYER
  5
106
330
1F9
100
AcDbSymbolTableRecord
100
AcDbLayerTableRecord
  2
hat
 70
     0
 62
     6
  6
Continuous
370
    15
390
9
347
C
1001
AcAecLayerStandard
1000

1000

  0
LAYER
  5
6D5
330
1F9
100
AcDbSymbolTableRecord
100
AcDbLayerTableRecord
  2
CEN
 70
     0
 62
     1
  6
CENTER
370
    15
390
9
347
C
1001
AcAecLayerStandard
1000

1000

  0
ENDTAB
  0
TABLE
  2
STYLE
  5
1FE
330
0
100
AcDbSymbolTable
 70
     5
  0
STYLE
  5
46
330
1FE
100
AcDbSymbolTableRecord
100
AcDbTextStyleTableRecord
  2
Standard
 70
     0
 40
0.0
 41
0.75
 50
0.0
 71
     0
 42
0.2
  3
SIMFANG.TTF
  4

1001
ACAD
1000
FangSong_GB2312
1071
    34353
  0
STYLE
  5
28
330
1FE
100
AcDbSymbolTableRecord
100
AcDbTextStyleTableRecord
  2
Romans字体
 70
     0
 40
0.0
 41
0.75
 50
0.0
 71
     0
 42
0.2
  3
romans.shx
  4

  0
STYLE
  5
48
330
1FE
100
AcDbSymbolTableRecord
100
AcDbTextStyleTableRecord
  2
工程字
 70
     0
 40
0.0
 41
1.0
 50
0.0
 71
     0
 42
3.5
  3
gbenor.shx
  4
gbcbig.shx
  0
STYLE
  5
4A
330
1FE
100
AcDbSymbolTableRecord
100
AcDbTextStyleTableRecord
  2
Chinese
 70
     0
 40
0.0
 41
1.0
 50
0.0
 71
     0
 42
2.5
  3
PMingLiU.ttf
  4

1001
ACAD
1000
PMingLiU
1071
    34834
  0
ENDTAB
  0
TABLE
  2
VIEW
  5
203
330
0
100
AcDbSymbolTable
 70
     0
  0
ENDTAB
  0
TABLE
  2
UCS
  5
204
330
0
100
AcDbSymbolTable
 70
     0
  0
ENDTAB
  0
TABLE
  2
APPID
  5
20A
330
0
100
AcDbSymbolTable
 70
    10
  0
APPID
  5
29
330
20A
100
AcDbSymbolTableRecord
100
AcDbRegAppTableRecord
  2
ACAD
 70
     0
  0
APPID
  5
35
330
20A
100
AcDbSymbolTableRecord
100
AcDbRegAppTableRecord
  2
AcDbBlockRepETag
 70
     0
  0
APPID
  5
1F0
330
20A
100
AcDbSymbolTableRecord
100
AcDbRegAppTableRecord
  2
ACAD_PSEXT
 70
     0
  0
APPID
  5
107
330
20A
100
AcDbSymbolTableRecord
100
AcDbRegAppTableRecord
  2
AcAecLayerStandard
 70
     0
  0
APPID
  5
128
330
20A
100
AcDbSymbolTableRecord
100
AcDbRegAppTableRecord
  2
ACAD_DSTYLE_DIMJAG
 70
     0
  0
APPID
  5
129
330
20A
100
AcDbSymbolTableRecord
100
AcDbRegAppTableRecord
  2
ACAD_DSTYLE_DIMTALN
 70
     0
  0
APPID
  5
285
330
20A
100
AcDbSymbolTableRecord
100
AcDbRegAppTableRecord
  2
ACAD_MLEADERVER
 70
     0
  0
APPID
  5
369
330
20A
100
AcDbSymbolTableRecord
100
AcDbRegAppTableRecord
  2
AcDbDynamicBlockGUID
 70
     0
  0
APPID
  5
993
330
20A
100
AcDbSymbolTableRecord
100
AcDbRegAppTableRecord
  2
ACAUTHENVIRON
 70
     0
  0
APPID
  5
996
330
20A
100
AcDbSymbolTableRecord
100
AcDbRegAppTableRecord
  2
AcDbDynamicBlockTrueName
 70
     0
  0
ENDTAB
  0
TABLE
  2
DIMSTYLE
  5
20B
330
0
100
AcDbSymbolTable
 70
     3
100
AcDbDimStyleTable
 71
     2
340
127
340
20C
  0
DIMSTYLE
105
20C
330
20B
100
AcDbSymbolTableRecord
100
AcDbDimStyleTableRecord
  2
Standard
 70
     0
340
46
  0
DIMSTYLE
105
127
102
{ACAD_REACTORS
330
4A3
330
4B0
330
4B1
330
4B2
330
4C8
102
}
330
20B
100
AcDbSymbolTableRecord
100
AcDbDimStyleTableRecord
  2
01
 70
     0
 41
1.5
 42
0.2
 43
0.2
 44
0.5
 73
     0
 74
     0
 77
     1
 78
     8
 79
     2
140
2.0
141
0.0
147
0.5
176
     1
177
     6
178
     4
179
     2
271
     1
272
     1
340
28
1001
ACAD_DSTYLE_DIMJAG
1070
   388
1040
1.5
1001
ACAD_DSTYLE_DIMTALN
1070
   392
1070
     0
  0
ENDTAB
  0
TABLE
  2
BLOCK_RECORD
  5
1
330
0
100
AcDbSymbolTable
 70
     9
  0
BLOCK_RECORD
  5
2
102
{ACAD_XDICTIONARY
360
3
102
}
330
1
100
AcDbSymbolTableRecord
100
AcDbBlockTableRecord
  2
*Model_Space
340
1EE
 70
     0
280
     1
281
     0
  0
BLOCK_RECORD
  5
1F1
330
1
100
AcDbSymbolTableRecord
100
AcDbBlockTableRecord
  2
*Paper_Space
340
1F4
 70
     0
280
     1
281
     0
  0
BLOCK_RECORD
  5
1F5
330
1
100
AcDbSymbolTableRecord
100
AcDbBlockTableRecord
  2
*Paper_Space0
340
1F8
 70
     0
280
     1
281
     0
  0
BLOCK_RECORD
  5
293
102
{ACAD_XDICTIONARY
360
992
102
}
330
1
100
AcDbSymbolTableRecord
100
AcDbBlockTableRecord
  2
A4图框-NEW
340
0
310
2800000020000000200000000100080000000000000400000000000000000000000000000000000000000000000080000080000000808000800000008000800080800000C0C0C000C0DCC000F0CAA6000020400000206000002080000020A0000020C0000020E00000400000004020000040400000406000004080000040A0
310
000040C0000040E00000600000006020000060400000606000006080000060A0000060C0000060E00000800000008020000080400000806000008080000080A0000080C0000080E00000A0000000A0200000A0400000A0600000A0800000A0A00000A0C00000A0E00000C0000000C0200000C0400000C0600000C0800000C0
310
A00000C0C00000C0E00000E0000000E0200000E0400000E0600000E0800000E0A00000E0C00000E0E00040000000400020004000400040006000400080004000A0004000C0004000E00040200000402020004020400040206000402080004020A0004020C0004020E000404000004040200040404000404060004040800040
310
40A0004040C0004040E00040600000406020004060400040606000406080004060A0004060C0004060E00040800000408020004080400040806000408080004080A0004080C0004080E00040A0000040A0200040A0400040A0600040A0800040A0A00040A0C00040A0E00040C0000040C0200040C0400040C0600040C08000
310
40C0A00040C0C00040C0E00040E0000040E0200040E0400040E0600040E0800040E0A00040E0C00040E0E00080000000800020008000400080006000800080008000A0008000C0008000E00080200000802020008020400080206000802080008020A0008020C0008020E00080400000804020008040400080406000804080
310
008040A0008040C0008040E00080600000806020008060400080606000806080008060A0008060C0008060E00080800000808020008080400080806000808080008080A0008080C0008080E00080A0000080A0200080A0400080A0600080A0800080A0A00080A0C00080A0E00080C0000080C0200080C0400080C0600080C0
310
800080C0A00080C0C00080C0E00080E0000080E0200080E0400080E0600080E0800080E0A00080E0C00080E0E000C0000000C0002000C0004000C0006000C0008000C000A000C000C000C000E000C0200000C0202000C0204000C0206000C0208000C020A000C020C000C020E000C0400000C0402000C0404000C0406000C0
310
408000C040A000C040C000C040E000C0600000C0602000C0604000C0606000C0608000C060A000C060C000C060E000C0800000C0802000C0804000C0806000C0808000C080A000C080C000C080E000C0A00000C0A02000C0A04000C0A06000C0A08000C0A0A000C0A0C000C0A0E000C0C00000C0C02000C0C04000C0C06000
310
C0C08000C0C0A000F0FBFF00A4A0A000808080000000FF0000FF000000FFFF00FF000000FF00FF00FFFF0000FFFFFF0000000000000000000000000000000000000000000000000000000000000000000000000000000000000000000000000000000000000000000000000000000000000000000000000000000000000000
310
000000000000000000000000000000000000000000000000000000000000000000000000000000000000000000000000000000000000000000000000000000000000000000000000000000000000000000000000000000000000000000000000000000000000000000000000000000000000F9F9F9F9F9F9F9F9F9F9F9F9F9
310
F9F9F9F9F9F9F9F9F9F9F9F9F9F9FF00000000F9FF000000000000000000FFFFFFFFFFFFFFFFFFFFFFFFF9FAFAFAFF00000000F9FF000000000000000000FFFFFFFFFFFFFFFFFFFFFFFFFFFFFFFFFF00000000F9FD000000000000000000FFFFFFFFFFFFFFFFFFFFFFFFFFFFFFFFFF00000000F9FF000000000000000000FF
310
FFFFFFFFFFFFFFFFFFFFFFFFFFFFFFFF00000000F9FD000000000000000000FFFFFFFFFFFFFFFFFFFFFFFFFFFFFFFFFF00000000F9FF00000000000000000000000000000000000000000000000000FF00000000F9FD00000000000000000000000000000000000000000000000000FF00000000F9FF000000000000000000
310
00000000000000000000000000000000FF00000000F9FD00000000000000000000000000000000000000000000000000FF00000000F9FF00000000000000000000000000000000000000000000000000FF00000000F9FD00000000000000000000000000000000000000000000000000FF00000000F9FD0000000000000000
310
0000000000000000000000000000000000FF00000000F9FF00000000000000000000000000000000000000000000000000FF00000000F9FD00000000000000000000000000000000000000000000000000FF00000000F9FF00000000000000000000000000000000000000000000000000FF00000000F9FD00000000000000
310
000000000000000000000000000000000000FF00000000F9FF00000000000000000000000000000000000000000000000000FF00000000F9FFFFFFFFFFFFFFFFFFFFFFFFFFFFFFFFFFFFFFFFFFFFFFFFFFFFFF00000000F9FFFFFFF9F9F9F9F9F9F9F9F9F9F9F9F9F9F9F9F9F9F9F9F9F9F9F9000000000000000000000000
310
00000000000000000000000000000000000000000000000000000000000000000000000000000000000000000000000000000000000000000000000000000000000000000000000000000000000000000000000000000000000000000000000000000000000000000000000000000000000000000000000000000000000000
310
0000000000000000000000000000000000000000000000000000000000000000000000000000000000000000000000000000000000000000
102
{BLKREFS
331
534
102
}
 70
     4
280
     1
281
     0
1001
AcDbDynamicBlockGUID
1000
{BC51C0B4-F260-48C0-B1FF-659D052F9E7C}
1001
AcDbBlockRepETag
1070
     1
1071
      149
  0
BLOCK_RECORD
  5
538
330
1
100
AcDbSymbolTableRecord
100
AcDbBlockTableRecord
  2
*D2
340
0
 70
     0
280
     1
281
     0
  0
BLOCK_RECORD
  5
544
330
1
100
AcDbSymbolTableRecord
100
AcDbBlockTableRecord
  2
*D3
340
0
 70
     0
280
     1
281
     0
  0
BLOCK_RECORD
  5
551
330
1
100
AcDbSymbolTableRecord
100
AcDbBlockTableRecord
  2
*D4
340
0
 70
     0
280
     1
281
     0
  0
BLOCK_RECORD
  5
55E
330
1
100
AcDbSymbolTableRecord
100
AcDbBlockTableRecord
  2
*D5
340
0
 70
     0
280
     1
281
     0
  0
BLOCK_RECORD
  5
569
330
1
100
AcDbSymbolTableRecord
100
AcDbBlockTableRecord
  2
*D6
340
0
 70
     0
280
     1
281
     0
  0
ENDTAB
  0
ENDSEC
  0
SECTION
  2
BLOCKS
  0
BLOCK
  5
5
330
2
100
AcDbEntity
  8
0
100
AcDbBlockBegin
  2
*Model_Space
 70
     0
 10
0.0
 20
0.0
 30
0.0
  3
*Model_Space
  1

  0
ENDBLK
  5
1ED
330
2
100
AcDbEntity
  8
0
100
AcDbBlockEnd
  0
BLOCK
  5
1F2
330
1F1
100
AcDbEntity
 67
     1
  8
0
100
AcDbBlockBegin
  2
*Paper_Space
 70
     0
 10
0.0
 20
0.0
 30
0.0
  3
*Paper_Space
  1

  0
ENDBLK
  5
1F3
330
1F1
100
AcDbEntity
 67
     1
  8
0
100
AcDbBlockEnd
  0
BLOCK
  5
1F6
330
1F5
100
AcDbEntity
 67
     1
  8
0
100
AcDbBlockBegin
  2
*Paper_Space0
 70
     0
 10
0.0
 20
0.0
 30
0.0
  3
*Paper_Space0
  1

  0
ENDBLK
  5
1F7
330
1F5
100
AcDbEntity
 67
     1
  8
0
100
AcDbBlockEnd
  0
BLOCK
  5
295
330
293
100
AcDbEntity
  8
0
100
AcDbBlockBegin
  2
A4图框-NEW
 70
     0
 10
0.0
 20
0.0
 30
0.0
  3
A4图框-NEW
  1

  0
MTEXT
  5
8FD
102
{ACAD_XDICTIONARY
360
9F4
102
}
330
293
100
AcDbEntity
  8
图框
 62
     3
100
AcDbMText
 10
967.6594956750133
 20
499.7664151964293
 30
0.0
 40
2.985513575034151
 41
15.50176341157864
 46
6.292658374511018
 71
     5
 72
     5
  1
BQ LUO
  7
Romans字体
 73
     1
 44
1.0
1001
AcDbBlockRepETag
1070
     1
1071
        0
1005
8FD
1001
ACAD
1000
ACAD_MTEXT_DEFINED_HEIGHT_BEGIN
1070
    46
1040
6.292658374511018
1000
ACAD_MTEXT_DEFINED_HEIGHT_END
  0
MTEXT
  5
8FE
330
293
100
AcDbEntity
  8
图框
 62
     3
100
AcDbMText
 10
983.041569333247
 20
499.7664151964293
 30
0.0
 40
2.487927979195124
 41
15.26238390489062
 46
6.292658374511042
 71
     5
 72
     5
  1
{\W0.7;18.10.2010}
  7
Romans字体
 73
     1
 44
1.0
1001
AcDbBlockRepETag
1070
     1
1071
        1
1005
8FE
1001
ACAD
1000
ACAD_MTEXT_DEFINED_HEIGHT_BEGIN
1070
    46
1040
6.292658374511042
1000
ACAD_MTEXT_DEFINED_HEIGHT_END
  0
MTEXT
  5
8FF
330
293
100
AcDbEntity
  8
图框
 62
     3
100
AcDbMText
 10
1012.477254728976
 20
487.1810984474071
 30
0.0
 40
2.985513575034151
 41
17.64876416884615
 46
6.292658374511455
 71
     5
 72
     5
  1
YY LIN
  7
Romans字体
 73
     1
 44
1.0
1001
AcDbBlockRepETag
1070
     1
1071
        2
1005
8FF
1001
ACAD
1000
ACAD_MTEXT_DEFINED_HEIGHT_BEGIN
1070
    46
1040
6.292658374511455
1000
ACAD_MTEXT_DEFINED_HEIGHT_END
  0
MTEXT
  5
900
330
293
100
AcDbEntity
  8
图框
 62
     3
100
AcDbMText
 10
1028.977802139886
 20
487.1810984474071
 30
0.0
 40
2.487927979195124
 41
15.35233065297276
 46
6.292658374511495
 71
     5
 72
     5
  1
{\W0.7;18.10.2010}
  7
Romans字体
 73
     1
 44
1.0
1001
AcDbBlockRepETag
1070
     1
1071
        3
1005
900
1001
ACAD
1000
ACAD_MTEXT_DEFINED_HEIGHT_BEGIN
1070
    46
1040
6.292658374511495
1000
ACAD_MTEXT_DEFINED_HEIGHT_END
  0
MTEXT
  5
901
330
293
100
AcDbEntity
  8
图框
 62
     3
100
AcDbMText
 10
1063.722665487208
 20
525.4145966538831
 30
0.0
 40
2.985513575034151
 41
32.4973914334545
 46
11.82914190181707
 71
     5
 72
     5
  1
-
  7
Romans字体
 73
     1
 44
1.0
1001
AcDbBlockRepETag
1070
     1
1071
        4
1005
901
1001
ACAD
1000
ACAD_MTEXT_DEFINED_HEIGHT_BEGIN
1070
    46
1040
11.82914190181707
1000
ACAD_MTEXT_DEFINED_HEIGHT_END
  0
MTEXT
  5
902
330
293
100
AcDbEntity
  8
图框
 62
     3
100
AcDbMText
 10
1063.727338552349
 20
513.5854547520641
 30
0.0
 40
2.985513575034151
 41
32.48804530317308
 46
11.82914190182139
 71
     5
 72
     5
  1
-
  7
Romans字体
 73
     1
 44
1.0
1001
AcDbBlockRepETag
1070
     1
1071
        5
1005
902
1001
ACAD
1000
ACAD_MTEXT_DEFINED_HEIGHT_BEGIN
1070
    46
1040
11.82914190182139
1000
ACAD_MTEXT_DEFINED_HEIGHT_END
  0
MTEXT
  5
903
330
293
100
AcDbEntity
  8
图框
 62
     3
100
AcDbMText
 10
1110.122306614152
 20
526.8006839312707
 30
0.0
 40
2.985513575034151
 41
33.61239199242139
 46
9.05696734704178
 71
     5
 72
     5
  1
-
  7
Romans字体
 73
     1
 44
1.0
1001
AcDbBlockRepETag
1070
     1
1071
        6
1005
903
1001
ACAD
1000
ACAD_MTEXT_DEFINED_HEIGHT_BEGIN
1070
    46
1040
9.05696734704178
1000
ACAD_MTEXT_DEFINED_HEIGHT_END
  0
MTEXT
  5
904
330
293
100
AcDbEntity
  8
图框
 62
     3
100
AcDbMText
 10
1110.122306614152
 20
500.2775205517162
 30
0.0
 40
2.985513575034151
 41
33.61239199242139
 46
8.871557304763419
 71
     5
 72
     5
  1
-
  7
Romans字体
 73
     1
 44
1.0
1001
AcDbBlockRepETag
1070
     1
1071
        7
1005
904
1001
ACAD
1000
ACAD_MTEXT_DEFINED_HEIGHT_BEGIN
1070
    46
1040
8.871557304763419
1000
ACAD_MTEXT_DEFINED_HEIGHT_END
  0
MTEXT
  5
905
330
293
100
AcDbEntity
  8
图框
 62
     3
100
AcDbMText
 10
967.6594956750133
 20
493.4737568219182
 30
0.0
 40
2.985513575034151
 41
15.50176341157864
 46
6.292658374510335
 71
     5
 72
     5
  1
P RAO
  7
Romans字体
 73
     1
 44
1.0
1001
AcDbBlockRepETag
1070
     1
1071
        8
1005
905
1001
ACAD
1000
ACAD_MTEXT_DEFINED_HEIGHT_BEGIN
1070
    46
1040
6.292658374510335
1000
ACAD_MTEXT_DEFINED_HEIGHT_END
  0
MTEXT
  5
906
330
293
100
AcDbEntity
  8
图框
 62
     3
100
AcDbMText
 10
983.041569333247
 20
493.2441970450405
 30
0.0
 40
2.487927979195124
 41
15.26238390489051
 46
6.751777928266487
 71
     5
 72
     5
  1
{\W0.7;18.10.2010}
  7
Romans字体
 73
     1
 44
1.0
1001
AcDbBlockRepETag
1070
     1
1071
        9
1005
906
1001
ACAD
1000
ACAD_MTEXT_DEFINED_HEIGHT_BEGIN
1070
    46
1040
6.751777928266487
1000
ACAD_MTEXT_DEFINED_HEIGHT_END
  0
MTEXT
  5
907
330
293
100
AcDbEntity
  8
图框
 62
     3
100
AcDbMText
 10
1012.477254728976
 20
499.7664151964291
 30
0.0
 40
2.985513575034151
 41
17.64876416884615
 46
6.292658374511397
 71
     5
 72
     5
  1
-
  7
Romans字体
 73
     1
 44
1.0
1001
AcDbBlockRepETag
1070
     1
1071
       10
1005
907
1001
ACAD
1000
ACAD_MTEXT_DEFINED_HEIGHT_BEGIN
1070
    46
1040
6.292658374511397
1000
ACAD_MTEXT_DEFINED_HEIGHT_END
  0
MTEXT
  5
908
330
293
100
AcDbEntity
  8
图框
 62
     3
100
AcDbMText
 10
1028.977802139886
 20
499.7664151964289
 30
0.0
 40
2.487927979195124
 41
15.35233065297265
 46
6.292658374511382
 71
     5
 72
     5
  1
-
  7
Romans字体
 73
     1
 44
1.0
1001
AcDbBlockRepETag
1070
     1
1071
       11
1005
908
1001
ACAD
1000
ACAD_MTEXT_DEFINED_HEIGHT_BEGIN
1070
    46
1040
6.292658374511382
1000
ACAD_MTEXT_DEFINED_HEIGHT_END
  0
MTEXT
  5
909
330
293
100
AcDbEntity
  8
图框
 62
     3
100
AcDbMText
 10
967.6594956750133
 20
487.1810984474071
 30
0.0
 40
2.985513575034151
 41
15.50176341157863
 46
6.292658374511478
 71
     5
 72
     5
  1
-
  7
Romans字体
 73
     1
 44
1.0
1001
AcDbBlockRepETag
1070
     1
1071
       12
1005
909
1001
ACAD
1000
ACAD_MTEXT_DEFINED_HEIGHT_BEGIN
1070
    46
1040
6.292658374511478
1000
ACAD_MTEXT_DEFINED_HEIGHT_END
  0
MTEXT
  5
90A
330
293
100
AcDbEntity
  8
图框
 62
     3
100
AcDbMText
 10
983.041569333247
 20
487.1810984474071
 30
0.0
 40
2.487927979195124
 41
15.26238390489062
 46
6.292658374511495
 71
     5
 72
     5
  1
-
  7
Romans字体
 73
     1
 44
1.0
1001
AcDbBlockRepETag
1070
     1
1071
       13
1005
90A
1001
ACAD
1000
ACAD_MTEXT_DEFINED_HEIGHT_BEGIN
1070
    46
1040
6.292658374511495
1000
ACAD_MTEXT_DEFINED_HEIGHT_END
  0
MTEXT
  5
90B
330
293
100
AcDbEntity
  8
图框
 62
     3
100
AcDbMText
 10
1074.556686986741
 20
495.8417418993361
 30
0.0
 40
2.985513575034151
 41
10.82934843438978
 46
7.886094601210427
 71
     5
 72
     5
  1
-
  7
Romans字体
 73
     1
 44
1.0
1001
AcDbBlockRepETag
1070
     1
1071
       14
1005
90B
1001
ACAD
1000
ACAD_MTEXT_DEFINED_HEIGHT_BEGIN
1070
    46
1040
7.886094601210427
1000
ACAD_MTEXT_DEFINED_HEIGHT_END
  0
LINE
  5
90C
330
293
100
AcDbEntity
  8
图框
370
    -3
100
AcDbLine
 10
1036.653967466372
 20
499.7847891999413
 30
0.0
 11
1079.971361203936
 21
499.7847891999413
 31
0.0
1001
AcDbBlockRepETag
1070
     1
1071
       15
1005
90C
  0
MTEXT
  5
90D
330
293
100
AcDbEntity
  8
图框
 62
     1
370
    20
100
AcDbMText
 10
1108.26336443907
 20
491.5162596080882
 30
0.0
 40
2.699054613030988
 41
82.30831305643079
 46
0.0
 71
     5
 72
     5
  1
{\fSimHei|b0|i0|c134|p2;厦门唯恩电气有限公司}
 73
     1
 44
1.0
1001
AcDbBlockRepETag
1070
     1
1071
       16
1005
90D
  0
MTEXT
  5
90E
330
293
100
AcDbEntity
  8
图框
 62
     3
370
    20
100
AcDbMText
 10
1108.435451459908
 20
487.298967726064
 30
0.0
 40
1.652482416141417
 41
68.08558693693567
 46
0.0
 71
     5
 72
     5
  1
{\fArial Narrow|b0|i0|c0|p34;XIAMEN WAIN ELECTRICAL CO.LTD}
  7
工程字
 73
     1
 44
1.0
1001
AcDbBlockRepETag
1070
     1
1071
       17
1005
90E
  0
MTEXT
  5
90F
330
293
100
AcDbEntity
  8
图框
 62
     1
370
    20
100
AcDbMText
 10
1085.711816899387
 20
491.0944802995856
 30
0.0
 40
2.005930044038334
 41
5.047240019334847
 46
0.0
 71
     1
 72
     5
  1
{\fArial|b0|i0|c0|p34;A}
  7
Chinese
 73
     1
 44
1.0
1001
AcDbBlockRepETag
1070
     1
1071
       18
1005
90F
  0
MTEXT
  5
910
330
293
100
AcDbEntity
  8
图框
 62
     1
370
    20
100
AcDbMText
 10
1088.213485935716
 20
491.0944802995856
 30
0.0
 40
2.005930044038334
 41
5.047240019334847
 46
0.0
 71
     1
 72
     5
  1
{\fArial|b0|i0|c0|p34;I}
  7
Chinese
 73
     1
 44
1.0
1001
AcDbBlockRepETag
1070
     1
1071
       19
1005
910
  0
MTEXT
  5
911
330
293
100
AcDbEntity
  8
图框
 62
     1
370
    20
100
AcDbMText
 10
1089.142375222864
 20
491.0822866326808
 30
0.0
 40
2.005930044038334
 41
5.047240019334847
 46
0.0
 71
     1
 72
     5
  1
{\fArial|b0|i0|c0|p34;N}
  7
Chinese
 73
     1
 44
1.0
1001
AcDbBlockRepETag
1070
     1
1071
       20
1005
911
  0
MTEXT
  5
912
330
293
100
AcDbEntity
  8
图框
100
AcDbMText
 10
1069.142012769545
 20
487.9667319294409
 30
0.0
 40
2.252848170144607
 41
21.65869686878327
 46
7.863925338579296
 71
     5
 72
     5
  1
{\W0.5;\C1;All Dimensions in mm\POriginal Size DIN A 4}
  7
Romans字体
 73
     1
 44
1.0
1001
AcDbBlockRepETag
1070
     1
1071
       21
1005
912
1001
ACAD
1000
ACAD_MTEXT_DEFINED_HEIGHT_BEGIN
1070
    46
1040
7.863925338579296
1000
ACAD_MTEXT_DEFINED_HEIGHT_END
  0
MTEXT
  5
913
330
293
100
AcDbEntity
  8
图框
  6
ByBlock
 62
     6
370
    18
100
AcDbMText
 10
1127.40434942308
 20
508.7896535755975
 30
0.0
 40
2.651776162684904
 41
2.557913877927211
 46
0.0
 71
     1
 72
     5
  1
A
  7
Romans字体
 11
0.0000000000000001
 21
1.0
 31
0.0
 73
     1
 44
1.0
1001
AcDbBlockRepETag
1070
     1
1071
       22
1005
913
  0
MTEXT
  5
914
330
293
100
AcDbEntity
  8
图框
 62
     6
100
AcDbMText
 10
1127.40434942308
 20
556.3746573232886
 30
0.0
 40
2.651776162684904
 41
2.557913877927211
 46
0.0
 71
     1
 72
     5
  1
B
  7
Romans字体
 11
0.0000000000000001
 21
1.0
 31
0.0
 73
     1
 44
1.0
1001
AcDbBlockRepETag
1070
     1
1071
       23
1005
914
  0
MTEXT
  5
915
330
293
100
AcDbEntity
  8
图框
 62
     6
100
AcDbMText
 10
1127.40434942308
 20
607.5539372630998
 30
0.0
 40
2.651776162684904
 41
2.557913877927211
 46
0.0
 71
     1
 72
     5
  1
C
  7
Romans字体
 11
0.0000000000000001
 21
1.0
 31
0.0
 73
     1
 44
1.0
1001
AcDbBlockRepETag
1070
     1
1071
       24
1005
915
  0
MTEXT
  5
916
330
293
100
AcDbEntity
  8
图框
 62
     6
100
AcDbMText
 10
1127.40434942308
 20
658.7332172029115
 30
0.0
 40
2.651776162684904
 41
2.557913877927211
 46
0.0
 71
     1
 72
     5
  1
D
  7
Romans字体
 11
0.0000000000000001
 21
1.0
 31
0.0
 73
     1
 44
1.0
1001
AcDbBlockRepETag
1070
     1
1071
       25
1005
916
  0
LINE
  5
917
330
293
100
AcDbEntity
  8
图框
 62
     6
100
AcDbLine
 10
1130.411601781241
 20
634.0726090796082
 30
0.0
 11
1126.928502610363
 21
634.0726090796082
 31
0.0
1001
AcDbBlockRepETag
1070
     1
1071
       26
1005
917
  0
LINE
  5
918
330
293
100
AcDbEntity
  8
图框
 62
     6
100
AcDbLine
 10
1130.411601781241
 20
582.89332913979
 30
0.0
 11
1126.928502610363
 21
582.89332913979
 31
0.0
1001
AcDbBlockRepETag
1070
     1
1071
       27
1005
918
  0
MTEXT
  5
919
330
293
100
AcDbEntity
  8
图框
 62
     6
100
AcDbMText
 10
1105.329704038389
 20
483.6164543011163
 30
0.0
 40
2.651776162684904
 41
2.557913877927211
 46
0.0
 71
     1
 72
     5
  1
6
  7
Romans字体
 73
     1
 44
1.0
1001
AcDbBlockRepETag
1070
     1
1071
       28
1005
919
  0
LINE
  5
91A
330
293
100
AcDbEntity
  8
图框
 62
     6
100
AcDbLine
 10
1081.088565155284
 20
484.0347692601515
 30
0.0
 11
1081.088565155284
 21
480.5347692601475
 31
0.0
1001
AcDbBlockRepETag
1070
     1
1071
       29
1005
91A
  0
MTEXT
  5
91B
330
293
100
AcDbEntity
  8
图框
 62
     6
100
AcDbMText
 10
1055.900596365941
 20
483.520053108993
 30
0.0
 40
2.651776162684904
 41
2.557913877927211
 46
0.0
 71
     1
 72
     5
  1
5
  7
Romans字体
 73
     1
 44
1.0
1001
AcDbBlockRepETag
1070
     1
1071
       30
1005
91B
  0
LINE
  5
91C
330
293
100
AcDbEntity
  8
图框
 62
     6
100
AcDbLine
 10
1031.553386436349
 20
484.0347692601515
 30
0.0
 11
1031.553386436349
 21
480.5347692601475
 31
0.0
1001
AcDbBlockRepETag
1070
     1
1071
       31
1005
91C
  0
MTEXT
  5
91D
330
293
100
AcDbEntity
  8
图框
 62
     6
100
AcDbMText
 10
1006.383180575197
 20
483.5687958215896
 30
0.0
 40
2.651776162684904
 41
2.557913877927211
 46
0.0
 71
     1
 72
     5
  1
4
  7
Romans字体
 73
     1
 44
1.0
1001
AcDbBlockRepETag
1070
     1
1071
       32
1005
91D
  0
LINE
  5
91E
330
293
100
AcDbEntity
  8
图框
 62
     6
100
AcDbLine
 10
982.0182077173887
 20
484.0347692601515
 30
0.0
 11
982.0182077173887
 21
480.5347692601475
 31
0.0
1001
AcDbBlockRepETag
1070
     1
1071
       33
1005
91E
  0
MTEXT
  5
91F
330
293
100
AcDbEntity
  8
图框
 62
     6
100
AcDbMText
 10
956.8302389280352
 20
483.5989680297948
 30
0.0
 40
2.651776162684904
 41
2.557913877927211
 46
0.0
 71
     1
 72
     5
  1
3
  7
Romans字体
 73
     1
 44
1.0
1001
AcDbBlockRepETag
1070
     1
1071
       34
1005
91F
  0
LINE
  5
920
330
293
100
AcDbEntity
  8
图框
 62
     6
100
AcDbLine
 10
932.4830289984245
 20
484.0347692601515
 30
0.0
 11
932.4830289984245
 21
480.5347692601475
 31
0.0
1001
AcDbBlockRepETag
1070
     1
1071
       35
1005
920
  0
MTEXT
  5
921
330
293
100
AcDbEntity
  8
图框
 62
     6
100
AcDbMText
 10
906.0252349826365
 20
483.6475250013156
 30
0.0
 40
2.651776162684904
 41
2.557913877927211
 46
0.0
 71
     1
 72
     5
  1
2
  7
Romans字体
 73
     1
 44
1.0
1001
AcDbBlockRepETag
1070
     1
1071
       36
1005
921
  0
LINE
  5
922
330
293
100
AcDbEntity
  8
图框
 62
     6
100
AcDbLine
 10
882.9478502794648
 20
484.0347692601515
 30
0.0
 11
882.9478502794648
 21
480.5347692601475
 31
0.0
1001
AcDbBlockRepETag
1070
     1
1071
       37
1005
922
  0
MTEXT
  5
923
330
293
100
AcDbEntity
  8
图框
 62
     6
100
AcDbMText
 10
857.7598814901191
 20
483.651829494754
 30
0.0
 40
2.651776162684904
 41
2.557913877927211
 46
0.0
 71
     1
 72
     5
  1
1
  7
Romans字体
 73
     1
 44
1.0
1001
AcDbBlockRepETag
1070
     1
1071
       38
1005
923
  0
LINE
  5
924
330
293
100
AcDbEntity
  8
图框
370
    50
100
AcDbLine
 10
836.8548209370597
 20
484.0347692601515
 30
0.0
 11
1126.928502610363
 21
484.0347692601515
 31
0.0
1001
AcDbBlockRepETag
1070
     1
1071
       39
1005
924
  0
LINE
  5
925
330
293
100
AcDbEntity
  8
图框
370
    50
100
AcDbLine
 10
836.9128518455362
 20
484.0178684310246
 30
0.0
 11
836.9128518455394
 21
675.0207195125422
 31
0.0
1001
AcDbBlockRepETag
1070
     1
1071
       40
1005
925
  0
MTEXT
  5
926
330
293
100
AcDbEntity
  8
图框
 62
     6
100
AcDbMText
 10
833.8475685789031
 20
658.7332172029115
 30
0.0
 40
2.651776162684904
 41
2.557913877927211
 46
0.0
 71
     1
 72
     5
  1
D
  7
Romans字体
 11
0.0000000000000001
 21
1.0
 31
0.0
 73
     1
 44
1.0
1001
AcDbBlockRepETag
1070
     1
1071
       41
1005
926
  0
LINE
  5
927
330
293
100
AcDbEntity
  8
图框
 62
     6
100
AcDbLine
 10
836.9128518455386
 20
634.0726090796082
 30
0.0
 11
833.4128518455365
 21
634.0726090796082
 31
0.0
1001
AcDbBlockRepETag
1070
     1
1071
       42
1005
927
  0
MTEXT
  5
928
330
293
100
AcDbEntity
  8
图框
 62
     6
100
AcDbMText
 10
833.9039177480142
 20
607.5539372630998
 30
0.0
 40
2.651776162684904
 41
2.557913877927211
 46
0.0
 71
     1
 72
     5
  1
C
  7
Romans字体
 11
0.0000000000000001
 21
1.0
 31
0.0
 73
     1
 44
1.0
1001
AcDbBlockRepETag
1070
     1
1071
       43
1005
928
  0
LINE
  5
929
330
293
100
AcDbEntity
  8
图框
 62
     6
100
AcDbLine
 10
836.9128518455378
 20
582.89332913979
 30
0.0
 11
833.4128518455365
 21
582.89332913979
 31
0.0
1001
AcDbBlockRepETag
1070
     1
1071
       44
1005
929
  0
MTEXT
  5
92A
330
293
100
AcDbEntity
  8
图框
 62
     6
100
AcDbMText
 10
833.9039177480142
 20
556.3746573232886
 30
0.0
 40
2.651776162684904
 41
2.557913877927211
 46
0.0
 71
     1
 72
     5
  1
B
  7
Romans字体
 11
0.0000000000000001
 21
1.0
 31
0.0
 73
     1
 44
1.0
1001
AcDbBlockRepETag
1070
     1
1071
       45
1005
92A
  0
LINE
  5
92B
330
293
100
AcDbEntity
  8
图框
 62
     6
100
AcDbLine
 10
836.9128518455367
 20
531.714049199969
 30
0.0
 11
833.4128518455365
 21
531.714049199969
 31
0.0
1001
AcDbBlockRepETag
1070
     1
1071
       46
1005
92B
  0
MTEXT
  5
92C
330
293
100
AcDbEntity
  8
图框
 62
     6
100
AcDbMText
 10
833.9039177480142
 20
508.7896535755975
 30
0.0
 40
2.651776162684904
 41
2.557913877927211
 46
0.0
 71
     1
 72
     5
  1
A
  7
Romans字体
 11
0.0000000000000001
 21
1.0
 31
0.0
 73
     1
 44
1.0
1001
AcDbBlockRepETag
1070
     1
1071
       47
1005
92C
  0
LINE
  5
92D
330
293
100
AcDbEntity
  8
图框
370
    -3
100
AcDbLine
 10
836.9128518455394
 20
675.0207195125422
 30
0.0
 11
836.9128518455394
 21
684.5021384922564
 31
0.0
1001
AcDbBlockRepETag
1070
     1
1071
       48
1005
92D
  0
LINE
  5
92E
330
293
100
AcDbEntity
  8
图框
370
    -3
100
AcDbLine
 10
842.6237321475781
 20
675.5347692601515
 30
0.0
 11
842.6237321475781
 21
685.0161882398658
 31
0.0
1001
AcDbBlockRepETag
1070
     1
1071
       49
1005
92E
  0
LINE
  5
92F
330
293
100
AcDbEntity
  8
图框
370
    -3
100
AcDbLine
 10
848.3346124496179
 20
675.5347692601515
 30
0.0
 11
848.3346124496179
 21
685.0161882398658
 31
0.0
1001
AcDbBlockRepETag
1070
     1
1071
       50
1005
92F
  0
LINE
  5
930
330
293
100
AcDbEntity
  8
图框
370
    -3
100
AcDbLine
 10
854.0454927516588
 20
675.5347692601515
 30
0.0
 11
854.0454927516588
 21
685.0161882398658
 31
0.0
1001
AcDbBlockRepETag
1070
     1
1071
       51
1005
930
  0
LINE
  5
931
330
293
100
AcDbEntity
  8
图框
370
    -3
100
AcDbLine
 10
861.5351874539182
 20
675.5347692601515
 30
0.0
 11
861.5351874539182
 21
686.7901958362482
 31
0.0
1001
AcDbBlockRepETag
1070
     1
1071
       52
1005
931
  0
MTEXT
  5
932
330
293
100
AcDbEntity
  8
图框
 62
     6
100
AcDbMText
 10
1105.329704038389
 20
678.859919059449
 30
0.0
 40
2.651776162684904
 41
2.557913877927211
 46
0.0
 71
     1
 72
     5
  1
6
  7
Romans字体
 73
     1
 44
1.0
1001
AcDbBlockRepETag
1070
     1
1071
       53
1005
932
  0
LINE
  5
933
330
293
100
AcDbEntity
  8
图框
 62
     6
100
AcDbLine
 10
1081.088565155284
 20
679.0347692601516
 30
0.0
 11
1081.088565155284
 21
675.5347692601515
 31
0.0
1001
AcDbBlockRepETag
1070
     1
1071
       54
1005
933
  0
MTEXT
  5
934
330
293
100
AcDbEntity
  8
图框
 62
     6
100
AcDbMText
 10
1055.900596365941
 20
678.859919059449
 30
0.0
 40
2.651776162684904
 41
2.557913877927211
 46
0.0
 71
     1
 72
     5
  1
5
  7
Romans字体
 73
     1
 44
1.0
1001
AcDbBlockRepETag
1070
     1
1071
       55
1005
934
  0
LINE
  5
935
330
293
100
AcDbEntity
  8
图框
 62
     6
100
AcDbLine
 10
1031.553386436349
 20
679.0347692601516
 30
0.0
 11
1031.553386436349
 21
675.5347692601515
 31
0.0
1001
AcDbBlockRepETag
1070
     1
1071
       56
1005
935
  0
MTEXT
  5
936
330
293
100
AcDbEntity
  8
图框
 62
     6
100
AcDbMText
 10
1006.36541764698
 20
678.7312083656147
 30
0.0
 40
2.651776162684904
 41
2.557913877927211
 46
0.0
 71
     1
 72
     5
  1
4
  7
Romans字体
 73
     1
 44
1.0
1001
AcDbBlockRepETag
1070
     1
1071
       57
1005
936
  0
LINE
  5
937
330
293
100
AcDbEntity
  8
图框
 62
     6
100
AcDbLine
 10
982.0182077173887
 20
679.0347692601516
 30
0.0
 11
982.0182077173887
 21
675.5347692601515
 31
0.0
1001
AcDbBlockRepETag
1070
     1
1071
       58
1005
937
  0
MTEXT
  5
938
330
293
100
AcDbEntity
  8
图框
 62
     6
100
AcDbMText
 10
956.8302389280352
 20
678.859919059449
 30
0.0
 40
2.651776162684904
 41
2.557913877927211
 46
0.0
 71
     1
 72
     5
  1
3
  7
Romans字体
 73
     1
 44
1.0
1001
AcDbBlockRepETag
1070
     1
1071
       59
1005
938
  0
LINE
  5
939
330
293
100
AcDbEntity
  8
图框
 62
     6
100
AcDbLine
 10
932.4830289984245
 20
679.0347692601516
 30
0.0
 11
932.4830289984245
 21
675.5347692601515
 31
0.0
1001
AcDbBlockRepETag
1070
     1
1071
       60
1005
939
  0
MTEXT
  5
93A
330
293
100
AcDbEntity
  8
图框
 62
     6
100
AcDbMText
 10
907.295060209082
 20
678.859919059449
 30
0.0
 40
2.651776162684904
 41
2.557913877927211
 46
0.0
 71
     1
 72
     5
  1
2
  7
Romans字体
 73
     1
 44
1.0
1001
AcDbBlockRepETag
1070
     1
1071
       61
1005
93A
  0
LINE
  5
93B
330
293
100
AcDbEntity
  8
图框
 62
     6
100
AcDbLine
 10
882.9478502794648
 20
678.7962435131815
 30
0.0
 11
882.9478502794648
 21
675.5347692601515
 31
0.0
1001
AcDbBlockRepETag
1070
     1
1071
       62
1005
93B
  0
MTEXT
  5
93C
330
293
100
AcDbEntity
  8
图框
 62
     6
100
AcDbMText
 10
862.6286629643733
 20
678.859919059449
 30
0.0
 40
2.651776162684904
 41
2.557913877927211
 46
0.0
 71
     1
 72
     5
  1
1
  7
Romans字体
 73
     1
 44
1.0
1001
AcDbBlockRepETag
1070
     1
1071
       63
1005
93C
  0
LINE
  5
93D
330
293
100
AcDbEntity
  8
图框
370
    -3
100
AcDbLine
 10
836.9128518455394
 20
675.0207195125422
 30
0.0
 11
836.9128518455394
 21
686.7901958362482
 31
0.0
1001
AcDbBlockRepETag
1070
     1
1071
       64
1005
93D
  0
LINE
  5
93E
330
293
100
AcDbEntity
  8
图框
370
    50
100
AcDbLine
 10
836.9128518455394
 20
675.5347692601515
 30
0.0
 11
1126.928502610363
 21
675.5347692601515
 31
0.0
1001
AcDbBlockRepETag
1070
     1
1071
       65
1005
93E
  0
LINE
  5
93F
330
293
100
AcDbEntity
  8
图框
370
    -3
100
AcDbLine
 10
842.6237321475781
 20
675.5347692601515
 30
0.0
 11
842.6237321475781
 21
686.7901958362482
 31
0.0
1001
AcDbBlockRepETag
1070
     1
1071
       66
1005
93F
  0
LINE
  5
940
330
293
100
AcDbEntity
  8
图框
370
    -3
100
AcDbLine
 10
848.3346124496179
 20
675.5347692601515
 30
0.0
 11
848.3346124496179
 21
686.7901958362482
 31
0.0
1001
AcDbBlockRepETag
1070
     1
1071
       67
1005
940
  0
MTEXT
  5
941
102
{ACAD_XDICTIONARY
360
9F6
102
}
330
293
100
AcDbEntity
  8
图框
100
AcDbMText
 10
857.7903401027889
 20
686.7901958362482
 30
0.0
 40
1.958998408821398
 41
11.25542657609672
 46
7.489694702258906
 71
     4
 72
     5
  1
\pi2.6646;{\fSimSun|b0|i0|c134|p2;档案员\fFangSong_GB2312|b0|i0|c134|p49;\H0.7x;\P\pi1.4159;\Fromans|c134;Filing Clerk\fFangSong_GB2312|b0|i0|c134|p49; }
 11
-0.0000000000000002
 21
-1.0
 31
0.0
 73
     1
 44
1.0
1001
AcDbBlockRepETag
1070
     1
1071
       68
1005
941
1001
ACAD
1000
ACAD_MTEXT_DEFINED_HEIGHT_BEGIN
1070
    46
1040
7.489694702258906
1000
ACAD_MTEXT_DEFINED_HEIGHT_END
  0
MTEXT
  5
942
102
{ACAD_XDICTIONARY
360
9F8
102
}
330
293
100
AcDbEntity
  8
图框
100
AcDbMText
 10
845.479172298598
 20
686.7901958362482
 30
0.0
 40
1.958998408821398
 41
11.25542657609672
 46
5.710880302039671
 71
     4
 72
     5
  1
\pi0.63465;{\fSimSun|b0|i0|c134|p2;日期\Fromans|c134;/Date}
 11
-0.0000000000000002
 21
-1.0
 31
0.0
 73
     1
 44
1.0
1001
AcDbBlockRepETag
1070
     1
1071
       69
1005
942
1001
ACAD
1000
ACAD_MTEXT_DEFINED_HEIGHT_BEGIN
1070
    46
1040
5.710880302039671
1000
ACAD_MTEXT_DEFINED_HEIGHT_END
  0
LINE
  5
943
330
293
100
AcDbEntity
  8
图框
370
    -3
100
AcDbLine
 10
854.0454927516588
 20
675.5347692601515
 30
0.0
 11
854.0454927516588
 21
686.7901958362482
 31
0.0
1001
AcDbBlockRepETag
1070
     1
1071
       70
1005
943
  0
LINE
  5
944
330
293
100
AcDbEntity
  8
图框
370
    -3
100
AcDbLine
 10
1036.653967466372
 20
531.3291676047914
 30
0.0
 11
1036.653967466372
 21
484.0126019753161
 31
0.0
1001
AcDbBlockRepETag
1070
     1
1071
       71
1005
944
  0
LINE
  5
945
330
293
100
AcDbEntity
  8
图框
370
    -3
100
AcDbLine
 10
1047.483315900763
 20
507.6708838011533
 30
0.0
 11
1047.483315900763
 21
491.8986945987308
 31
0.0
1001
AcDbBlockRepETag
1070
     1
1071
       72
1005
945
  0
LINE
  5
946
330
293
100
AcDbEntity
  8
图框
370
    -3
100
AcDbLine
 10
1058.312664335153
 20
507.6708838011533
 30
0.0
 11
1058.312664335153
 21
484.0347692601515
 31
0.0
1001
AcDbBlockRepETag
1070
     1
1071
       73
1005
946
  0
LINE
  5
947
330
293
100
AcDbEntity
  8
图框
370
    25
100
AcDbLine
 10
1048.474135214456
 20
488.1095628329926
 30
0.0
 11
1054.946420288459
 21
488.1095628329926
 31
0.0
1001
AcDbBlockRepETag
1070
     1
1071
       74
1005
947
  0
LINE
  5
948
330
293
100
AcDbEntity
  8
图框
370
    25
100
AcDbLine
 10
1054.232527365989
 20
487.0761716842634
 30
0.0
 11
1049.156490914508
 21
486.4576273751
 31
0.0
1001
AcDbBlockRepETag
1070
     1
1071
       75
1005
948
  0
LINE
  5
949
330
293
100
AcDbEntity
  8
图框
370
    25
100
AcDbLine
 10
1054.232527365989
 20
489.1429539817209
 30
0.0
 11
1049.156490914508
 21
489.7614982908846
 31
0.0
1001
AcDbBlockRepETag
1070
     1
1071
       76
1005
949
  0
LINE
  5
94A
330
293
100
AcDbEntity
  8
图框
370
    25
100
AcDbLine
 10
1049.156490914508
 20
489.7614982908846
 30
0.0
 11
1049.156490914508
 21
486.4576273751
 31
0.0
1001
AcDbBlockRepETag
1070
     1
1071
       77
1005
94A
  0
LINE
  5
94B
330
293
100
AcDbEntity
  8
图框
370
    25
100
AcDbLine
 10
1054.232527365989
 20
489.1429539817209
 30
0.0
 11
1054.232527365989
 21
487.0761716842634
 31
0.0
1001
AcDbBlockRepETag
1070
     1
1071
       78
1005
94B
  0
CIRCLE
  5
94C
330
293
100
AcDbEntity
  8
图框
370
    25
100
AcDbCircle
 10
1042.502700458579
 20
488.1095628329926
 30
0.0
 40
1.651935457891863
1001
AcDbBlockRepETag
1070
     1
1071
       79
1005
94C
  0
CIRCLE
  5
94D
330
293
100
AcDbEntity
  8
图框
370
    25
100
AcDbCircle
 10
1042.502700458579
 20
488.1095628329926
 30
0.0
 40
1.033391148728775
1001
AcDbBlockRepETag
1070
     1
1071
       80
1005
94D
  0
LINE
  5
94E
330
293
100
AcDbEntity
  8
图框
370
    25
100
AcDbLine
 10
1040.136872078216
 20
488.1095628329926
 30
0.0
 11
1044.868528838943
 21
488.1095628329926
 31
0.0
1001
AcDbBlockRepETag
1070
     1
1071
       81
1005
94E
  0
LINE
  5
94F
330
293
100
AcDbEntity
  8
图框
370
    25
100
AcDbLine
 10
1042.502700458579
 20
490.475391213355
 30
0.0
 11
1042.502700458579
 21
485.743734452629
 31
0.0
1001
AcDbBlockRepETag
1070
     1
1071
       82
1005
94F
  0
LINE
  5
950
330
293
100
AcDbEntity
  8
图框
370
    -3
100
AcDbLine
 10
1069.142012769546
 20
507.6708838011533
 30
0.0
 11
1069.142012769546
 21
491.8986945987308
 31
0.0
1001
AcDbBlockRepETag
1070
     1
1071
       83
1005
950
  0
MTEXT
  5
951
330
293
100
AcDbEntity
  8
图框
100
AcDbMText
 10
1086.643735910939
 20
526.8006839312707
 30
0.0
 40
2.154898249703542
 41
13.34474941400573
 46
9.056967347041776
 71
     5
 72
     5
  1
图号{\Ftxt|c134;\P\Fromans|c134;\W0.65;Drawing No.}
 73
     1
 44
1.0
1001
AcDbBlockRepETag
1070
     1
1071
       84
1005
951
1001
ACAD
1000
ACAD_MTEXT_DEFINED_HEIGHT_BEGIN
1070
    46
1040
9.056967347041776
1000
ACAD_MTEXT_DEFINED_HEIGHT_END
  0
LINE
  5
952
330
293
100
AcDbEntity
  8
图框
370
    -3
100
AcDbLine
 10
1093.316110617942
 20
531.3291676047914
 30
0.0
 11
1093.316110617942
 21
495.8417418993347
 31
0.0
1001
AcDbBlockRepETag
1070
     1
1071
       85
1005
952
  0
LINE
  5
953
330
293
100
AcDbEntity
  8
图框
370
    -3
100
AcDbLine
 10
1047.473969770481
 20
531.3291676047914
 30
0.0
 11
1047.473969770481
 21
507.6708838011533
 31
0.0
1001
AcDbBlockRepETag
1070
     1
1071
       86
1005
953
  0
MTEXT
  5
954
330
293
100
AcDbEntity
  8
图框
100
AcDbMText
 10
1063.72733855235
 20
503.7278365005473
 30
0.0
 40
2.252848170144607
 41
10.82934843439208
 46
7.886094601212128
 71
     5
 72
     5
  1
重量\P{\Fromans|c134;Weight}
 73
     1
 44
1.0
1001
AcDbBlockRepETag
1070
     1
1071
       87
1005
954
1001
ACAD
1000
ACAD_MTEXT_DEFINED_HEIGHT_BEGIN
1070
    46
1040
7.886094601212128
1000
ACAD_MTEXT_DEFINED_HEIGHT_END
  0
LINE
  5
955
330
293
100
AcDbEntity
  8
图框
370
    -3
100
AcDbLine
 10
1036.653967466372
 20
519.5000257029746
 30
0.0
 11
1079.971361203936
 21
519.5000257029746
 31
0.0
1001
AcDbBlockRepETag
1070
     1
1071
       88
1005
955
  0
MTEXT
  5
956
330
293
100
AcDbEntity
  8
图框
100
AcDbMText
 10
1074.556686986741
 20
503.7278365005473
 30
0.0
 40
2.252848170144607
 41
10.82934843438984
 46
7.886094601212141
 71
     5
 72
     5
  1
数量\P{\Fromans|c134;Qty.}
 73
     1
 44
1.0
1001
AcDbBlockRepETag
1070
     1
1071
       89
1005
956
1001
ACAD
1000
ACAD_MTEXT_DEFINED_HEIGHT_BEGIN
1070
    46
1040
7.886094601212141
1000
ACAD_MTEXT_DEFINED_HEIGHT_END
  0
LINE
  5
957
330
293
100
AcDbEntity
  8
图框
370
    -3
100
AcDbLine
 10
1079.971361203936
 20
495.8417418993347
 30
0.0
 11
1126.928502610363
 21
495.8417418993342
 31
0.0
1001
AcDbBlockRepETag
1070
     1
1071
       90
1005
957
  0
LINE
  5
958
330
293
100
AcDbEntity
  8
图框
370
    -3
100
AcDbLine
 10
1079.971361203936
 20
504.7132992040975
 30
0.0
 11
1126.928502610363
 21
504.7132992040975
 31
0.0
1001
AcDbBlockRepETag
1070
     1
1071
       91
1005
958
  0
MTEXT
  5
959
330
293
100
AcDbEntity
  8
图框
100
AcDbMText
 10
1052.893317052817
 20
503.7278365005473
 30
0.0
 40
2.252848170144607
 41
10.83869456467139
 46
7.886094601212101
 71
     5
 72
     5
  1
版本\P{\Fromans|c134;REV.}
 73
     1
 44
1.0
1001
AcDbBlockRepETag
1070
     1
1071
       92
1005
959
1001
ACAD
1000
ACAD_MTEXT_DEFINED_HEIGHT_BEGIN
1070
    46
1040
7.886094601212101
1000
ACAD_MTEXT_DEFINED_HEIGHT_END
  0
MTEXT
  5
95A
330
293
100
AcDbEntity
  8
图框
100
AcDbMText
 10
1042.068641683568
 20
503.7278365005473
 30
0.0
 40
2.252848170144607
 41
10.8293484343908
 46
7.886094601212136
 71
     5
 72
     5
  1
比例\P{\Fromans|c134;Scale}
 73
     1
 44
1.0
1001
AcDbBlockRepETag
1070
     1
1071
       93
1005
95A
1001
ACAD
1000
ACAD_MTEXT_DEFINED_HEIGHT_BEGIN
1070
    46
1040
7.886094601212136
1000
ACAD_MTEXT_DEFINED_HEIGHT_END
  0
LINE
  5
95B
330
293
100
AcDbEntity
  8
图框
370
    -3
100
AcDbLine
 10
1036.653967466372
 20
507.6708838011533
 30
0.0
 11
1079.971361203936
 21
507.6708838011533
 31
0.0
1001
AcDbBlockRepETag
1070
     1
1071
       94
1005
95B
  0
LINE
  5
95C
330
293
100
AcDbEntity
  8
图框
370
    -3
100
AcDbLine
 10
1036.653967466372
 20
491.8986945987308
 30
0.0
 11
1079.971361203936
 21
491.8986945987308
 31
0.0
1001
AcDbBlockRepETag
1070
     1
1071
       95
1005
95C
  0
LINE
  5
95D
330
293
100
AcDbEntity
  8
图框
370
    -3
100
AcDbLine
 10
1079.971361203936
 20
531.3291676047914
 30
0.0
 11
1079.971361203936
 21
484.0125999975168
 31
0.0
1001
AcDbBlockRepETag
1070
     1
1071
       96
1005
95D
  0
MTEXT
  5
95E
330
293
100
AcDbEntity
  8
图框
100
AcDbMText
 10
1042.063968618426
 20
525.4145966538832
 30
0.0
 40
2.252848170144607
 41
10.82000230410933
 46
11.82914190181708
 71
     5
 72
     5
  1
表面处理\P{\Fromans|c134;Finish}
 73
     1
 44
1.0
1001
AcDbBlockRepETag
1070
     1
1071
       97
1005
95E
1001
ACAD
1000
ACAD_MTEXT_DEFINED_HEIGHT_BEGIN
1070
    46
1040
11.82914190181708
1000
ACAD_MTEXT_DEFINED_HEIGHT_END
  0
MTEXT
  5
95F
330
293
100
AcDbEntity
  8
图框
100
AcDbMText
 10
1042.063968618426
 20
513.5854547520639
 30
0.0
 40
2.252848170144607
 41
10.82000230410933
 46
11.8291419018212
 71
     5
 72
     5
  1
材料\P{\Fromans|c134;Material}
 73
     1
 44
1.0
1001
AcDbBlockRepETag
1070
     1
1071
       98
1005
95F
1001
ACAD
1000
ACAD_MTEXT_DEFINED_HEIGHT_BEGIN
1070
    46
1040
11.8291419018212
1000
ACAD_MTEXT_DEFINED_HEIGHT_END
  0
LINE
  5
960
330
293
100
AcDbEntity
  8
图框
370
    -3
100
AcDbLine
 10
1079.971361203936
 20
522.27220025775
 30
0.0
 11
1126.928502610363
 21
522.27220025775
 31
0.0
1001
AcDbBlockRepETag
1070
     1
1071
       99
1005
960
  0
LINE
  5
961
330
293
100
AcDbEntity
  8
图框
370
    -3
100
AcDbLine
 10
1079.971361203936
 20
513.5854547520641
 30
0.0
 11
1126.928502610363
 21
513.5854547520639
 31
0.0
1001
AcDbBlockRepETag
1070
     1
1071
      100
1005
961
  0
MTEXT
  5
962
330
293
100
AcDbEntity
  8
图框
100
AcDbMText
 10
1086.643735910939
 20
517.9288275049072
 30
0.0
 40
1.958998408821398
 41
13.34474941400573
 46
8.686745505685811
 71
     5
 72
     5
  1
产品代号\P{\Fromans|c134;Part Code}
 73
     1
 44
1.0
1001
AcDbBlockRepETag
1070
     1
1071
      101
1005
962
1001
ACAD
1000
ACAD_MTEXT_DEFINED_HEIGHT_BEGIN
1070
    46
1040
8.686745505685811
1000
ACAD_MTEXT_DEFINED_HEIGHT_END
  0
LINE
  5
963
330
293
100
AcDbEntity
  8
图框
370
    -3
100
AcDbLine
 10
946.9285026103634
 20
525.7982263931411
 30
0.0
 11
1036.653967466372
 21
525.7982263931411
 31
0.0
1001
AcDbBlockRepETag
1070
     1
1071
      102
1005
963
  0
LINE
  5
964
330
293
100
AcDbEntity
  8
图框
370
    -3
100
AcDbLine
 10
946.9285026103634
 20
520.2672851814959
 30
0.0
 11
1036.653967466372
 21
520.2672851814959
 31
0.0
1001
AcDbBlockRepETag
1070
     1
1071
      103
1005
964
  0
LINE
  5
965
330
293
100
AcDbEntity
  8
图框
370
    35
100
AcDbLine
 10
946.9285026103634
 20
531.3291676047914
 30
0.0
 11
1126.928502610363
 21
531.3291676047914
 31
0.0
1001
AcDbBlockRepETag
1070
     1
1071
      104
1005
965
  0
LINE
  5
966
330
293
100
AcDbEntity
  8
图框
370
    -3
100
AcDbLine
 10
990.6727612856927
 20
509.2054027581959
 30
0.0
 11
990.6727612856927
 21
484.0347692601515
 31
0.0
1001
AcDbBlockRepETag
1070
     1
1071
      105
1005
966
  0
MTEXT
  5
967
102
{ACAD_XDICTIONARY
360
9FA
102
}
330
293
100
AcDbEntity
  8
图框
100
AcDbMText
 10
997.1628169651232
 20
499.816589978722
 30
0.0
 40
2.252848170144607
 41
12.98011135886052
 46
6.19230880992475
 71
     5
 72
     5
  1
{\fSimSun|b0|i0|c134|p2;标准化}\PStand.
  7
Romans字体
 73
     1
 44
1.0
1001
AcDbBlockRepETag
1070
     1
1071
      106
1005
967
1001
ACAD
1000
ACAD_MTEXT_DEFINED_HEIGHT_BEGIN
1070
    46
1040
6.19230880992475
1000
ACAD_MTEXT_DEFINED_HEIGHT_END
  0
LINE
  5
968
330
293
100
AcDbEntity
  8
图框
370
    -3
100
AcDbLine
 10
975.4103773808022
 20
509.2054027581959
 30
0.0
 11
975.4103773808022
 21
484.0347692601515
 31
0.0
1001
AcDbBlockRepETag
1070
     1
1071
      107
1005
968
  0
MTEXT
  5
969
330
293
100
AcDbEntity
  8
图框
100
AcDbMText
 10
984.5089229802068
 20
511.9708733640202
 30
0.0
 40
2.448748011026752
 41
38.287899328693
 46
5.530941211648832
 71
     5
 72
     5
  1
  变更描述{\Fromans|c134;/Description}
 73
     1
 44
1.0
1001
AcDbBlockRepETag
1070
     1
1071
      108
1005
969
1001
ACAD
1000
ACAD_MTEXT_DEFINED_HEIGHT_BEGIN
1070
    46
1040
5.530941211648832
1000
ACAD_MTEXT_DEFINED_HEIGHT_END
  0
MTEXT
  5
96A
102
{ACAD_XDICTIONARY
360
9FC
102
}
330
293
100
AcDbEntity
  8
图框
100
AcDbMText
 10
1012.466086049227
 20
511.9708733640202
 30
0.0
 40
1.958998408821398
 41
17.6264268093469
 46
5.530941211648825
 71
     5
 72
     5
  1
{\fSimSun|b0|i0|c134|p2;签名\P\Fromans|c134;Signature} 
 73
     1
 44
1.0
1001
AcDbBlockRepETag
1070
     1
1071
      109
1005
96A
1001
ACAD
1000
ACAD_MTEXT_DEFINED_HEIGHT_BEGIN
1070
    46
1040
5.530941211648825
1000
ACAD_MTEXT_DEFINED_HEIGHT_END
  0
MTEXT
  5
96B
102
{ACAD_XDICTIONARY
360
9FE
102
}
330
293
100
AcDbEntity
  8
图框
100
AcDbMText
 10
960.7558556394856
 20
511.9708733640202
 30
0.0
 40
1.958998408821398
 41
9.218235352749283
 46
5.530941211648841
 71
     5
 72
     5
  1
{\fSimSun|b0|i0|c134|p2;处数\P\Fromans|c134;Number }
 73
     1
 44
1.0
1001
AcDbBlockRepETag
1070
     1
1071
      110
1005
96B
1001
ACAD
1000
ACAD_MTEXT_DEFINED_HEIGHT_BEGIN
1070
    46
1040
5.530941211648841
1000
ACAD_MTEXT_DEFINED_HEIGHT_END
  0
LINE
  5
96C
330
293
100
AcDbEntity
  8
图框
370
    -3
100
AcDbLine
 10
946.9285026103634
 20
514.7363439698449
 30
0.0
 11
1036.653967466372
 21
514.7363439698449
 31
0.0
1001
AcDbBlockRepETag
1070
     1
1071
      111
1005
96C
  0
LINE
  5
96D
330
293
100
AcDbEntity
  8
图框
370
    -3
100
AcDbLine
 10
946.9285026103634
 20
509.2054027581959
 30
0.0
 11
1036.653967466372
 21
509.2054027581959
 31
0.0
1001
AcDbBlockRepETag
1070
     1
1071
      112
1005
96D
  0
LINE
  5
96E
330
293
100
AcDbEntity
  8
图框
370
    -3
100
AcDbLine
 10
946.9285026103634
 20
502.9127443836848
 30
0.0
 11
1036.653967466372
 21
502.9127443836848
 31
0.0
1001
AcDbBlockRepETag
1070
     1
1071
      113
1005
96E
  0
LINE
  5
96F
330
293
100
AcDbEntity
  8
图框
370
    -3
100
AcDbLine
 10
946.9285026103634
 20
496.620086009173
 30
0.0
 11
1036.653967466372
 21
496.620086009173
 31
0.0
1001
AcDbBlockRepETag
1070
     1
1071
      114
1005
96F
  0
LINE
  5
970
330
293
100
AcDbEntity
  8
图框
370
    35
380
     1
100
AcDbLine
 10
946.9285026103634
 20
531.3291676047914
 30
0.0
 11
946.9285026103634
 21
484.0347692601515
 31
0.0
1001
AcDbBlockRepETag
1070
     1
1071
      115
1005
970
  0
LINE
  5
971
330
293
100
AcDbEntity
  8
图框
370
    -3
100
AcDbLine
 10
1021.301636813399
 20
531.3291676047914
 30
0.0
 11
1021.301636813399
 21
484.0347692601515
 31
0.0
1001
AcDbBlockRepETag
1070
     1
1071
      116
1005
971
  0
LINE
  5
972
330
293
100
AcDbEntity
  8
图框
370
    -3
100
AcDbLine
 10
1003.652872644553
 20
531.3291676047914
 30
0.0
 11
1003.652872644553
 21
484.0347692601515
 31
0.0
1001
AcDbBlockRepETag
1070
     1
1071
      117
1005
972
  0
LINE
  5
973
330
293
100
AcDbEntity
  8
图框
370
    -3
100
AcDbLine
 10
965.3649733158603
 20
531.3291676047914
 30
0.0
 11
965.3649733158603
 21
509.2054027581959
 31
0.0
1001
AcDbBlockRepETag
1070
     1
1071
      118
1005
973
  0
LINE
  5
974
330
293
100
AcDbEntity
  8
图框
370
    -3
100
AcDbLine
 10
956.1467379631109
 20
531.3291676047914
 30
0.0
 11
956.1467379631109
 21
509.2054027581959
 31
0.0
1001
AcDbBlockRepETag
1070
     1
1071
      119
1005
974
  0
MTEXT
  5
975
102
{ACAD_XDICTIONARY
360
A00
102
}
330
293
100
AcDbEntity
  8
图框
100
AcDbMText
 10
951.537620286737
 20
511.9708733640202
 30
0.0
 40
1.958998408821398
 41
9.218235352747692
 46
5.530941211648832
 71
     5
 72
     5
  1
{\fSimSun|b0|i0|c134|p2;标记\P\Fromans|c134;Mark}
 73
     1
 44
1.0
1001
AcDbBlockRepETag
1070
     1
1071
      120
1005
975
1001
ACAD
1000
ACAD_MTEXT_DEFINED_HEIGHT_BEGIN
1070
    46
1040
5.530941211648832
1000
ACAD_MTEXT_DEFINED_HEIGHT_END
  0
MTEXT
  5
976
102
{ACAD_XDICTIONARY
360
A02
102
}
330
293
100
AcDbEntity
  8
图框
100
AcDbMText
 10
953.4185582897936
 20
493.4737568219182
 30
0.0
 40
2.252848170144607
 41
12.98011135886041
 46
6.292658374510382
 71
     5
 72
     5
  1
{\fSimSun|b0|i0|c134|p2;审核\P\Fromans|c134;Checked}
 73
     1
 44
1.0
1001
AcDbBlockRepETag
1070
     1
1071
      121
1005
976
1001
ACAD
1000
ACAD_MTEXT_DEFINED_HEIGHT_BEGIN
1070
    46
1040
6.292658374510382
1000
ACAD_MTEXT_DEFINED_HEIGHT_END
  0
MTEXT
  5
977
102
{ACAD_XDICTIONARY
360
A04
102
}
330
293
100
AcDbEntity
  8
图框
100
AcDbMText
 10
953.4185582897936
 20
499.8775635376777
 30
0.0
 40
2.252848170144607
 41
12.98011135886041
 46
6.070361692014189
 71
     5
 72
     5
  1
{\fSimSun|b0|i0|c134|p2;绘图\P\Fromans|c134;Drawn\Ftxt|c134; }
 73
     1
 44
1.0
1001
AcDbBlockRepETag
1070
     1
1071
      122
1005
977
1001
ACAD
1000
ACAD_MTEXT_DEFINED_HEIGHT_BEGIN
1070
    46
1040
6.070361692014189
1000
ACAD_MTEXT_DEFINED_HEIGHT_END
  0
ARC
  5
978
330
293
100
AcDbEntity
  8
图框
 62
     4
370
    35
100
AcDbCircle
 10
1086.900627017421
 20
490.0179944151195
 30
0.0
 40
4.063310408393665
100
AcDbArc
 50
18.95237904564806
 51
161.0476209543519
1001
AcDbBlockRepETag
1070
     1
1071
      123
1005
978
  0
ARC
  5
979
330
293
100
AcDbEntity
  8
图框
 62
     4
370
    35
100
AcDbCircle
 10
1086.900627017421
 20
490.0179944151195
 30
0.0
 40
4.063310408393665
100
AcDbArc
 50
198.952379045648
 51
341.0476209543519
1001
AcDbBlockRepETag
1070
     1
1071
      124
1005
979
  0
LINE
  5
97A
330
293
100
AcDbEntity
  8
图框
 62
     4
370
    35
100
AcDbLine
 10
1083.057593369548
 20
488.6983035966752
 30
0.0
 11
1090.74366066529
 21
488.6983035966752
 31
0.0
1001
AcDbBlockRepETag
1070
     1
1071
      125
1005
97A
  0
LINE
  5
97B
330
293
100
AcDbEntity
  8
图框
 62
     4
370
    35
100
AcDbLine
 10
1083.057593369548
 20
491.3376852335652
 30
0.0
 11
1090.74366066529
 21
491.3376852335652
 31
0.0
1001
AcDbBlockRepETag
1070
     1
1071
      126
1005
97B
  0
MTEXT
  5
97C
330
293
100
AcDbEntity
  8
图框
 62
     1
370
    20
100
AcDbMText
 10
1083.034582879669
 20
491.0506288081688
 30
0.0
 40
2.005930044038334
 41
5.047240019334847
 46
0.0
 71
     1
 72
     5
  1
{\fArial|b0|i0|c0|p34;W}
  7
Chinese
 73
     1
 44
1.0
1001
AcDbBlockRepETag
1070
     1
1071
      127
1005
97C
  0
LINE
  5
97D
330
293
100
AcDbEntity
  8
图框
370
    -3
100
AcDbLine
 10
946.9285026103634
 20
490.327427634663
 30
0.0
 11
1036.653967466372
 21
490.327427634663
 31
0.0
1001
AcDbBlockRepETag
1070
     1
1071
      128
1005
97D
  0
LINE
  5
97E
330
293
100
AcDbEntity
  8
图框
370
    -3
100
AcDbLine
 10
959.9086139692238
 20
509.2054027581959
 30
0.0
 11
959.9086139692238
 21
484.0347692601515
 31
0.0
1001
AcDbBlockRepETag
1070
     1
1071
      129
1005
97E
  0
MTEXT
  5
97F
330
293
100
AcDbEntity
  8
图框
100
AcDbMText
 10
967.6594956750127
 20
506.0590735709403
 30
0.0
 40
2.252848170144607
 41
15.50176341157869
 46
6.292658374511246
 71
     5
 72
     5
  1
姓名{\Fromans|c134;/Name\Ftxt|c134; }
 73
     1
 44
1.0
1001
AcDbBlockRepETag
1070
     1
1071
      130
1005
97F
1001
ACAD
1000
ACAD_MTEXT_DEFINED_HEIGHT_BEGIN
1070
    46
1040
6.292658374511246
1000
ACAD_MTEXT_DEFINED_HEIGHT_END
  0
MTEXT
  5
980
330
293
100
AcDbEntity
  8
图框
100
AcDbMText
 10
983.0415693332476
 20
506.0590735709403
 30
0.0
 40
2.252848170144607
 41
15.26238390489042
 46
6.2926583745112
 71
     5
 72
     5
  1
日期{\Fromans|c134;/Date}
 73
     1
 44
1.0
1001
AcDbBlockRepETag
1070
     1
1071
      131
1005
980
1001
ACAD
1000
ACAD_MTEXT_DEFINED_HEIGHT_BEGIN
1070
    46
1040
6.2926583745112
1000
ACAD_MTEXT_DEFINED_HEIGHT_END
  0
LINE
  5
981
330
293
100
AcDbEntity
  8
图框
370
    -3
100
AcDbLine
 10
946.9285026103634
 20
509.2054027581959
 30
0.0
 11
959.9086139692238
 21
502.9127443836848
 31
0.0
1001
AcDbBlockRepETag
1070
     1
1071
      132
1005
981
  0
MTEXT
  5
982
330
293
100
AcDbEntity
  8
图框
100
AcDbMText
 10
1012.931405110086
 20
506.0185715840725
 30
0.0
 40
2.252848170144607
 41
16.93492221063566
 46
0.0
 71
     5
 72
     5
  1
姓名{\Fromans|c134;/Name}
 73
     1
 44
1.0
1001
AcDbBlockRepETag
1070
     1
1071
      133
1005
982
  0
MTEXT
  5
983
330
293
100
AcDbEntity
  8
图框
100
AcDbMText
 10
1028.977802139886
 20
506.0590735709403
 30
0.0
 40
2.252848170144607
 41
15.35233065297283
 46
6.292658374511256
 71
     5
 72
     5
  1
日期{\Fromans|c134;/Date}
 73
     1
 44
1.0
1001
AcDbBlockRepETag
1070
     1
1071
      134
1005
983
1001
ACAD
1000
ACAD_MTEXT_DEFINED_HEIGHT_BEGIN
1070
    46
1040
6.292658374511256
1000
ACAD_MTEXT_DEFINED_HEIGHT_END
  0
LINE
  5
984
330
293
100
AcDbEntity
  8
图框
370
    -3
100
AcDbLine
 10
1003.652872644553
 20
502.9127443836848
 30
0.0
 11
990.6727612856927
 21
509.2054027581959
 31
0.0
1001
AcDbBlockRepETag
1070
     1
1071
      135
1005
984
  0
MTEXT
  5
985
102
{ACAD_XDICTIONARY
360
A06
102
}
330
293
100
AcDbEntity
  8
图框
100
AcDbMText
 10
997.1628169651232
 20
487.1810984474071
 30
0.0
 40
2.252848170144607
 41
12.98011135886052
 46
6.292658374511517
 71
     5
 72
     5
  1
{\fSimSun|b0|i0|c134|p2;批准\P\Fromans|c134;Approved}
 73
     1
 44
1.0
1001
AcDbBlockRepETag
1070
     1
1071
      136
1005
985
1001
ACAD
1000
ACAD_MTEXT_DEFINED_HEIGHT_BEGIN
1070
    46
1040
6.292658374511517
1000
ACAD_MTEXT_DEFINED_HEIGHT_END
  0
MTEXT
  5
986
102
{ACAD_XDICTIONARY
360
A08
102
}
330
293
100
AcDbEntity
  8
图框
100
AcDbMText
 10
953.4185582897936
 20
487.1810984474071
 30
0.0
 40
2.252848170144607
 41
12.98011135886041
 46
6.292658374511495
 71
     5
 72
     5
  1
{\fSimSun|b0|i0|c134|p2;工艺\P\Fromans|c134;Process}
 73
     1
 44
1.0
1001
AcDbBlockRepETag
1070
     1
1071
      137
1005
986
1001
ACAD
1000
ACAD_MTEXT_DEFINED_HEIGHT_BEGIN
1070
    46
1040
6.292658374511495
1000
ACAD_MTEXT_DEFINED_HEIGHT_END
  0
MTEXT
  5
987
102
{ACAD_XDICTIONARY
360
A0A
102
}
330
293
100
AcDbEntity
  8
图框
100
AcDbMText
 10
1028.977802139886
 20
511.8287965307664
 30
0.0
 40
1.958998408821398
 41
15.3523306529728
 46
5.246787545140668
 71
     5
 72
     5
  1
{\fSimSun|b0|i0|c134|p2;日期\P\Fromans|c134;Date}
 73
     1
 44
1.0
1001
AcDbBlockRepETag
1070
     1
1071
      138
1005
987
1001
ACAD
1000
ACAD_MTEXT_DEFINED_HEIGHT_BEGIN
1070
    46
1040
5.246787545140668
1000
ACAD_MTEXT_DEFINED_HEIGHT_END
  0
MTEXT
  5
988
330
293
100
AcDbEntity
  8
图框
100
AcDbMText
 10
1086.643735910939
 20
509.1493769780809
 30
0.0
 40
2.154898249703542
 41
13.34474941400573
 46
8.87215554796615
 71
     5
 72
     5
  1
产品料号\P{\Fromans|c134;Part No.}
 73
     1
 44
1.0
1001
AcDbBlockRepETag
1070
     1
1071
      139
1005
988
1001
ACAD
1000
ACAD_MTEXT_DEFINED_HEIGHT_BEGIN
1070
    46
1040
8.87215554796615
1000
ACAD_MTEXT_DEFINED_HEIGHT_END
  0
MTEXT
  5
989
330
293
100
AcDbEntity
  8
图框
100
AcDbMText
 10
1086.643735910939
 20
500.2775205517163
 30
0.0
 40
1.958998408821398
 41
13.34474941400573
 46
8.871557304763321
 71
     5
 72
     5
  1
产品名称\P{\Fromans|c134;Part Name}
 73
     1
 44
1.0
1001
AcDbBlockRepETag
1070
     1
1071
      140
1005
989
1001
ACAD
1000
ACAD_MTEXT_DEFINED_HEIGHT_BEGIN
1070
    46
1040
8.871557304763321
1000
ACAD_MTEXT_DEFINED_HEIGHT_END
  0
LINE
  5
98A
330
293
100
AcDbEntity
  8
图框
 62
     1
370
    18
100
AcDbLine
 10
833.4128518455365
 20
690.5347692601515
 30
0.0
 11
833.4128518455365
 21
480.5347692601515
 31
0.0
1001
AcDbBlockRepETag
1070
     1
1071
      141
1005
98A
  0
LINE
  5
98B
330
293
100
AcDbEntity
  8
图框
 62
     1
370
    18
100
AcDbLine
 10
833.4128518455365
 20
480.5347692601515
 30
0.0
 11
1130.411601781236
 21
480.5347692601515
 31
0.0
1001
AcDbBlockRepETag
1070
     1
1071
      142
1005
98B
  0
LINE
  5
98C
330
293
100
AcDbEntity
  8
图框
 62
     1
370
    18
100
AcDbLine
 10
833.4128518455365
 20
690.5347692601515
 30
0.0
 11
1130.411601781236
 21
690.5347692601515
 31
0.0
1001
AcDbBlockRepETag
1070
     1
1071
      143
1005
98C
  0
LINE
  5
98D
330
293
100
AcDbEntity
  8
图框
 62
     1
370
    18
100
AcDbLine
 10
1130.411601781236
 20
480.5347692601515
 30
0.0
 11
1130.411601781236
 21
690.5347692601515
 31
0.0
1001
AcDbBlockRepETag
1070
     1
1071
      144
1005
98D
  0
LINE
  5
98E
330
293
100
AcDbEntity
  8
图框
370
    18
100
AcDbLine
 10
836.9128518455394
 20
686.7901958362482
 30
0.0
 11
861.5351874539182
 21
686.7901958362482
 31
0.0
1001
AcDbBlockRepETag
1070
     1
1071
      145
1005
98E
  0
LINE
  5
98F
330
293
100
AcDbEntity
  8
图框
370
    50
100
AcDbLine
 10
1126.928502610363
 20
484.3410054693078
 30
0.0
 11
1126.928502610363
 21
675.5347692601515
 31
0.0
1001
AcDbBlockRepETag
1070
     1
1071
      146
1005
98F
  0
MTEXT
  5
990
330
293
100
AcDbEntity
  8
图框
 62
     3
100
AcDbMText
 10
1052.897990117958
 20
495.8417418993364
 30
0.0
 40
2.985513575034151
 41
10.82934843439114
 46
7.886094601211307
 71
     5
 72
     5
  1
V1.1
  7
Romans字体
 73
     1
 44
1.0
1001
AcDbBlockRepETag
1070
     1
1071
      147
1005
990
1001
ACAD
1000
ACAD_MTEXT_DEFINED_HEIGHT_BEGIN
1070
    46
1040
7.886094601211307
1000
ACAD_MTEXT_DEFINED_HEIGHT_END
  0
LINE
  5
991
330
293
100
AcDbEntity
  8
图框
 62
     6
100
AcDbLine
 10
1126.911601781236
 20
531.714049199969
 30
0.0
 11
1130.411601781236
 21
531.714049199969
 31
0.0
1001
AcDbBlockRepETag
1070
     1
1071
      148
1005
991
  0
ENDBLK
  5
32B
330
293
100
AcDbEntity
  8
0
100
AcDbBlockEnd
  0
BLOCK
  5
539
330
538
100
AcDbEntity
  8
0
100
AcDbBlockBegin
  2
*D2
 70
     1
 10
0.0
 20
0.0
 30
0.0
  3
*D2
  1

  0
LINE
  5
6F2
330
538
100
AcDbEntity
  8
DIM
 62
     6
370
    -2
100
AcDbLine
 10
709.1880528278343
 20
212.3379553946738
 30
0.0
 11
709.1880528278343
 21
214.3461879969239
 31
0.0
  0
LINE
  5
6F3
330
538
100
AcDbEntity
  8
DIM
 62
     6
370
    -2
100
AcDbLine
 10
717.1880528278343
 20
211.4838712397887
 30
0.0
 11
717.1880528278343
 21
214.3461879969239
 31
0.0
  0
LINE
  5
6F4
330
538
100
AcDbEntity
  8
DIM
 62
     1
370
    -2
100
AcDbLine
 10
710.1880528278343
 20
214.1461879969239
 30
0.0
 11
716.1880528278343
 21
214.1461879969239
 31
0.0
  0
SOLID
  5
6F5
330
538
100
AcDbEntity
  8
DIM
 62
     1
100
AcDbTrace
 10
710.1880528278343
 20
214.3128546635906
 30
0.0
 11
710.1880528278343
 21
213.9795213302573
 31
0.0
 12
709.1880528278343
 22
214.1461879969239
 32
0.0
 13
709.1880528278343
 23
214.1461879969239
 33
0.0
  0
SOLID
  5
6F6
330
538
100
AcDbEntity
  8
DIM
 62
     1
100
AcDbTrace
 10
716.1880528278343
 20
214.3128546635906
 30
0.0
 11
716.1880528278343
 21
213.9795213302573
 31
0.0
 12
717.1880528278343
 22
214.1461879969239
 32
0.0
 13
717.1880528278343
 23
214.1461879969239
 33
0.0
  0
MTEXT
  5
6F7
330
538
100
AcDbEntity
  8
DIM
 62
     4
100
AcDbMText
 10
713.1880528278343
 20
214.946187996924
 30
0.0
 40
1.199999999999999
 41
0.0
 46
0.0
 71
     5
 72
     1
  1
\A1;h
  7
Romans字体
 73
     1
 44
1.0
  0
POINT
  5
6F8
330
538
100
AcDbEntity
  8
Defpoints
 62
     0
100
AcDbPoint
 10
709.1880528278343
 20
212.1379553946738
 30
0.0
  0
POINT
  5
6F9
330
538
100
AcDbEntity
  8
Defpoints
 62
     0
100
AcDbPoint
 10
717.1880528278343
 20
211.2838712397887
 30
0.0
  0
POINT
  5
6FA
330
538
100
AcDbEntity
  8
Defpoints
 62
     0
100
AcDbPoint
 10
717.1880528278343
 20
214.1461879969239
 30
0.0
  0
ENDBLK
  5
53A
330
538
100
AcDbEntity
  8
0
100
AcDbBlockEnd
  0
BLOCK
  5
545
330
544
100
AcDbEntity
  8
0
100
AcDbBlockBegin
  2
*D3
 70
     1
 10
0.0
 20
0.0
 30
0.0
  3
*D3
  1

  0
LINE
  5
70E
330
544
100
AcDbEntity
  8
DIM
 62
     6
370
    -2
100
AcDbLine
 10
708.9880528278341
 20
212.138034025454
 30
0.0
 11
704.4520397918837
 21
212.138034025454
 31
0.0
  0
LINE
  5
70F
330
544
100
AcDbEntity
  8
DIM
 62
     6
370
    -2
100
AcDbLine
 10
708.9880528278341
 20
208.638034027754
 30
0.0
 11
704.4520397918837
 21
208.638034027754
 31
0.0
  0
LINE
  5
710
330
544
100
AcDbEntity
  8
DIM
 62
     1
370
    -2
100
AcDbLine
 10
704.6520397918835
 20
209.638034027754
 30
0.0
 11
704.6520397918835
 21
211.1380340254541
 31
0.0
  0
LINE
  5
711
330
544
100
AcDbEntity
  8
DIM
 62
     1
370
    -2
100
AcDbLine
 10
704.6520397918835
 20
212.138034025454
 30
0.0
 11
704.6520397918835
 21
216.3623197397397
 31
0.0
  0
SOLID
  5
712
330
544
100
AcDbEntity
  8
DIM
 62
     1
100
AcDbTrace
 10
704.485373125217
 20
209.638034027754
 30
0.0
 11
704.8187064585504
 21
209.638034027754
 31
0.0
 12
704.6520397918835
 22
208.638034027754
 32
0.0
 13
704.6520397918835
 23
208.638034027754
 33
0.0
  0
SOLID
  5
713
330
544
100
AcDbEntity
  8
DIM
 62
     1
100
AcDbTrace
 10
704.485373125217
 20
211.1380340254541
 30
0.0
 11
704.8187064585504
 21
211.1380340254541
 31
0.0
 12
704.6520397918835
 22
212.138034025454
 32
0.0
 13
704.6520397918835
 23
212.138034025454
 33
0.0
  0
MTEXT
  5
714
330
544
100
AcDbEntity
  8
DIM
 62
     4
100
AcDbMText
 10
703.8520397918837
 20
214.750176882597
 30
0.0
 40
1.199999999999999
 41
0.0
 46
0.0
 71
     5
 72
     1
  1
\A1;{\fISOCPEUR|b0|i0|c0|p34;%%C}3.5
  7
Romans字体
 11
0.0000000000000001
 21
1.0
 31
0.0
 73
     1
 44
1.0
  0
POINT
  5
715
330
544
100
AcDbEntity
  8
Defpoints
 62
     0
100
AcDbPoint
 10
709.1880528278343
 20
212.138034025454
 30
0.0
  0
POINT
  5
716
330
544
100
AcDbEntity
  8
Defpoints
 62
     0
100
AcDbPoint
 10
709.1880528278343
 20
208.638034027754
 30
0.0
  0
POINT
  5
717
330
544
100
AcDbEntity
  8
Defpoints
 62
     0
100
AcDbPoint
 10
704.6520397918835
 20
208.638034027754
 30
0.0
  0
ENDBLK
  5
546
330
544
100
AcDbEntity
  8
0
100
AcDbBlockEnd
  0
BLOCK
  5
552
330
551
100
AcDbEntity
  8
0
100
AcDbBlockBegin
  2
*D4
 70
     1
 10
0.0
 20
0.0
 30
0.0
  3
*D4
  1

  0
LINE
  5
704
330
551
100
AcDbEntity
  8
DIM
 62
     6
370
    -2
100
AcDbLine
 10
710.3358837091413
 20
211.2630340266041
 30
0.0
 11
706.9382029696733
 21
211.2630340266041
 31
0.0
  0
LINE
  5
705
330
551
100
AcDbEntity
  8
DIM
 62
     6
370
    -2
100
AcDbLine
 10
710.3358837091413
 20
209.513034026604
 30
0.0
 11
706.9382029696733
 21
209.513034026604
 31
0.0
  0
LINE
  5
706
330
551
100
AcDbEntity
  8
DIM
 62
     1
370
    -2
100
AcDbLine
 10
707.1382029696733
 20
208.513034026604
 30
0.0
 11
707.1382029696733
 21
207.513034026604
 31
0.0
  0
LINE
  5
707
330
551
100
AcDbEntity
  8
DIM
 62
     1
370
    -2
100
AcDbLine
 10
707.1382029696733
 20
212.2630340266042
 30
0.0
 11
707.1382029696733
 21
215.1158911694613
 31
0.0
  0
SOLID
  5
708
330
551
100
AcDbEntity
  8
DIM
 62
     1
100
AcDbTrace
 10
706.9715363030065
 20
208.513034026604
 30
0.0
 11
707.3048696363397
 21
208.513034026604
 31
0.0
 12
707.1382029696733
 22
209.513034026604
 32
0.0
 13
707.1382029696733
 23
209.513034026604
 33
0.0
  0
SOLID
  5
709
330
551
100
AcDbEntity
  8
DIM
 62
     1
100
AcDbTrace
 10
706.9715363030065
 20
212.2630340266042
 30
0.0
 11
707.3048696363397
 21
212.2630340266042
 31
0.0
 12
707.1382029696733
 22
211.2630340266041
 32
0.0
 13
707.1382029696733
 23
211.2630340266041
 33
0.0
  0
MTEXT
  5
70A
330
551
100
AcDbEntity
  8
DIM
 62
     4
100
AcDbMText
 10
706.3382029696732
 20
214.1894625980328
 30
0.0
 40
1.199999999999999
 41
0.0
 46
0.0
 71
     5
 72
     1
  1
\A1;{\fISOCPEUR|b0|i0|c0|p34;%%C}d
  7
Romans字体
 11
0.0000000000000001
 21
1.0
 31
0.0
 73
     1
 44
1.0
  0
POINT
  5
70B
330
551
100
AcDbEntity
  8
Defpoints
 62
     0
100
AcDbPoint
 10
710.5358837091412
 20
211.2630340266041
 30
0.0
  0
POINT
  5
70C
330
551
100
AcDbEntity
  8
Defpoints
 62
     0
100
AcDbPoint
 10
710.5358837091412
 20
209.513034026604
 30
0.0
  0
POINT
  5
70D
330
551
100
AcDbEntity
  8
Defpoints
 62
     0
100
AcDbPoint
 10
707.1382029696733
 20
209.513034026604
 30
0.0
  0
ENDBLK
  5
553
330
551
100
AcDbEntity
  8
0
100
AcDbBlockEnd
  0
BLOCK
  5
55F
330
55E
100
AcDbEntity
  8
0
100
AcDbBlockBegin
  2
*D5
 70
     1
 10
0.0
 20
0.0
 30
0.0
  3
*D5
  1

  0
LINE
  5
6EA
330
55E
100
AcDbEntity
  8
DIM
 62
     1
370
    -2
100
AcDbLine
 10
712.1680528284549
 20
210.8880340266039
 30
0.0
 11
712.1680528284549
 21
209.888034026604
 31
0.0
  0
LINE
  5
6EB
330
55E
100
AcDbEntity
  8
DIM
 62
     1
370
    -2
100
AcDbLine
 10
712.1680528284549
 20
208.888034026604
 30
0.0
 11
712.1680528284549
 21
205.475515137626
 31
0.0
  0
SOLID
  5
6EC
330
55E
100
AcDbEntity
  8
DIM
 62
     1
100
AcDbTrace
 10
712.0013861617882
 20
210.8880340266039
 30
0.0
 11
712.3347194951215
 21
210.8880340266039
 31
0.0
 12
712.1680528284549
 22
211.8880340266039
 32
0.0
 13
712.1680528284549
 23
211.8880340266039
 33
0.0
  0
SOLID
  5
6ED
330
55E
100
AcDbEntity
  8
DIM
 62
     1
100
AcDbTrace
 10
712.0013861617882
 20
209.888034026604
 30
0.0
 11
712.3347194951215
 21
209.888034026604
 31
0.0
 12
712.1680528284549
 22
208.888034026604
 32
0.0
 13
712.1680528284549
 23
208.888034026604
 33
0.0
  0
MTEXT
  5
6EE
330
55E
100
AcDbEntity
  8
DIM
 62
     4
100
AcDbMText
 10
711.3680528284548
 20
206.4662294233404
 30
0.0
 40
1.199999999999999
 41
0.0
 46
0.0
 71
     5
 72
     1
  1
\A1;{\fISOCPEUR|b0|i0|c0|p34;%%C}D
  7
Romans字体
 11
0.0000000000000001
 21
1.0
 31
0.0
 73
     1
 44
1.0
  0
POINT
  5
6EF
330
55E
100
AcDbEntity
  8
Defpoints
 62
     0
100
AcDbPoint
 10
712.1680528284549
 20
211.8880340266039
 30
0.0
  0
POINT
  5
6F0
330
55E
100
AcDbEntity
  8
Defpoints
 62
     0
100
AcDbPoint
 10
712.1680528284549
 20
208.888034026604
 30
0.0
  0
POINT
  5
6F1
330
55E
100
AcDbEntity
  8
Defpoints
 62
     0
100
AcDbPoint
 10
712.1680528284549
 20
208.888034026604
 30
0.0
  0
ENDBLK
  5
560
330
55E
100
AcDbEntity
  8
0
100
AcDbBlockEnd
  0
BLOCK
  5
56A
330
569
100
AcDbEntity
  8
0
100
AcDbBlockBegin
  2
*D6
 70
     1
 10
0.0
 20
0.0
 30
0.0
  3
*D6
  1

  0
LINE
  5
6FB
330
569
100
AcDbEntity
  8
DIM
 62
     6
370
    -2
100
AcDbLine
 10
730.6880528278344
 20
211.7980340259538
 30
0.0
 11
730.6880528278344
 21
216.7522626322435
 31
0.0
  0
LINE
  5
6FC
330
569
100
AcDbEntity
  8
DIM
 62
     6
370
    -2
100
AcDbLine
 10
709.1880528278343
 20
212.338034025454
 30
0.0
 11
709.1880528278343
 21
216.7522626322435
 31
0.0
  0
LINE
  5
6FD
330
569
100
AcDbEntity
  8
DIM
 62
     1
370
    -2
100
AcDbLine
 10
729.6880528278344
 20
216.5522626322435
 30
0.0
 11
710.1880528278343
 21
216.5522626322435
 31
0.0
  0
SOLID
  5
6FE
330
569
100
AcDbEntity
  8
DIM
 62
     1
100
AcDbTrace
 10
729.6880528278344
 20
216.7189292989102
 30
0.0
 11
729.6880528278344
 21
216.3855959655769
 31
0.0
 12
730.6880528278344
 22
216.5522626322435
 32
0.0
 13
730.6880528278344
 23
216.5522626322435
 33
0.0
  0
SOLID
  5
6FF
330
569
100
AcDbEntity
  8
DIM
 62
     1
100
AcDbTrace
 10
710.1880528278343
 20
216.7189292989102
 30
0.0
 11
710.1880528278343
 21
216.3855959655769
 31
0.0
 12
709.1880528278343
 22
216.5522626322435
 32
0.0
 13
709.1880528278343
 23
216.5522626322435
 33
0.0
  0
MTEXT
  5
700
330
569
100
AcDbEntity
  8
DIM
 62
     4
100
AcDbMText
 10
719.9380528278346
 20
217.3522626322435
 30
0.0
 40
1.199999999999999
 41
0.0
 46
0.0
 71
     5
 72
     1
  1
\A1;21.5
  7
Romans字体
 73
     1
 44
1.0
  0
POINT
  5
701
330
569
100
AcDbEntity
  8
Defpoints
 62
     0
100
AcDbPoint
 10
730.6880528278344
 20
211.5980340259536
 30
0.0
  0
POINT
  5
702
330
569
100
AcDbEntity
  8
Defpoints
 62
     0
100
AcDbPoint
 10
709.1880528278343
 20
212.138034025454
 30
0.0
  0
POINT
  5
703
330
569
100
AcDbEntity
  8
Defpoints
 62
     0
100
AcDbPoint
 10
709.1880528278343
 20
216.5522626322435
 30
0.0
  0
ENDBLK
  5
56B
330
569
100
AcDbEntity
  8
0
100
AcDbBlockEnd
  0
ENDSEC
  0
SECTION
  2
ENTITIES
  0
HATCH
  5
16
330
2
100
AcDbEntity
  8
图层 1
 62
     7
100
AcDbHatch
 10
0.0
 20
0.0
 30
0.0
210
0.0
220
0.0
230
1.0
  2
SOLID
 70
     1
 71
     0
 91
        1
 92
        1
 93
        2
 72
     4
 94
        3
 73
     0
 74
     0
 95
       17
 96
       13
 40
0.0
 40
0.0
 40
0.0
 40
0.0
 40
0.3527780104152769
 40
0.3527780104152769
 40
0.3527780104152769
 40
0.7055560208305538
 40
0.7055560208305538
 40
0.7055560208305538
 40
1.058334031245828
 40
1.058334031245828
 40
1.058334031245828
 40
1.411112041661104
 40
1.411112041661104
 40
1.411112041661104
 40
1.411112041661104
 10
11.07013262565829
 20
29.50312817963231
 10
11.07013262565829
 20
29.50312817963231
 10
10.9431807732774
 20
29.50312817963231
 10
10.9431807732774
 20
29.50312817963231
 10
10.9431807732774
 20
29.50312817963231
 10
10.85843136843155
 20
29.22786486877117
 10
10.85843136843155
 20
29.22786486877117
 10
10.85843136843155
 20
29.22786486877117
 10
10.90080607085448
 20
29.2068497724476
 10
10.90080607085448
 20
29.2068497724476
 10
10.94455881238059
 20
29.31571486159919
 10
11.00346998404173
 20
29.40907701083995
 10
11.07013262565829
 20
29.50312817963231
 72
     1
 10
11.07013262565829
 20
29.50312817963231
 11
11.07013262565829
 21
29.50312817963231
 97
        0
 75
     0
 76
     1
 98
        0
450
        0
451
        0
460
0.0
461
0.0
452
        0
462
0.0
453
        0
470

  0
HATCH
  5
1A
330
2
100
AcDbEntity
  8
图层 1
 62
     7
100
AcDbHatch
 10
0.0
 20
0.0
 30
0.0
210
0.0
220
0.0
230
1.0
  2
SOLID
 70
     1
 71
     0
 91
        1
 92
        1
 93
        2
 72
     4
 94
        3
 73
     0
 74
     0
 95
       47
 96
       43
 40
0.0
 40
0.0
 40
0.0
 40
0.0
 40
0.3527780104152769
 40
0.3527780104152769
 40
0.3527780104152769
 40
0.7055560208305538
 40
0.7055560208305538
 40
0.7055560208305538
 40
1.058334031245828
 40
1.058334031245828
 40
1.058334031245828
 40
1.411112041661104
 40
1.411112041661104
 40
1.411112041661104
 40
1.763890052076384
 40
1.763890052076384
 40
1.763890052076384
 40
2.116668062491659
 40
2.116668062491659
 40
2.116668062491659
 40
2.469446072906936
 40
2.469446072906936
 40
2.469446072906936
 40
2.822224083322215
 40
2.822224083322215
 40
2.822224083322215
 40
3.175002093737492
 40
3.175002093737492
 40
3.175002093737492
 40
3.527780104152768
 40
3.527780104152768
 40
3.527780104152768
 40
3.880558114568044
 40
3.880558114568044
 40
3.880558114568044
 40
4.233336124983321
 40
4.233336124983321
 40
4.233336124983321
 40
4.586114135398599
 40
4.586114135398599
 40
4.586114135398599
 40
4.938892145813873
 40
4.938892145813873
 40
4.938892145813873
 40
4.938892145813873
 10
162.8986914070121
 20
257.4895347631509
 10
162.8986914070121
 20
257.4895347631509
 10
162.9200510131114
 20
257.4471600607279
 10
162.9200510131114
 20
257.4471600607279
 10
162.9200510131114
 20
257.4471600607279
 10
162.9200510131114
 20
257.404785358305
 10
162.9200510131114
 20
257.404785358305
 10
162.9200510131114
 20
257.404785358305
 10
162.8986914070121
 20
257.36258291077
 10
162.8986914070121
 20
257.36258291077
 10
162.8986914070121
 20
257.36258291077
 10
162.8986914070121
 20
257.320208208347
 10
162.8986914070121
 20
257.320208208347
 10
162.8986914070121
 20
257.320208208347
 10
162.8563167045891
 20
257.2990208571356
 10
162.8563167045891
 20
257.2990208571356
 10
162.8563167045891
 20
257.2990208571356
 10
162.8139420021662
 20
257.2563016449369
 10
162.8139420021662
 20
257.2563016449369
 10
162.8139420021662
 20
257.2563016449369
 10
162.7295371070961
 20
257.2563016449369
 10
162.7295371070961
 20
257.2563016449369
 10
162.7295371070961
 20
257.2563016449369
 10
162.6658027985738
 20
257.2778335059241
 10
162.6658027985738
 20
257.2778335059241
 10
162.6658027985738
 20
257.2778335059241
 10
162.6237726059267
 20
257.2990208571356
 10
162.6237726059267
 20
257.2990208571356
 10
162.6237726059267
 20
257.2990208571356
 10
162.5813979035038
 20
257.3413955595585
 10
162.5813979035038
 20
257.3413955595585
 10
162.5813979035038
 20
257.3413955595585
 10
162.5813979035038
 20
257.4895347631509
 10
162.5813979035038
 20
257.4895347631509
 10
162.5813979035038
 20
257.4895347631509
 10
162.6447877022503
 20
257.5525800521216
 10
162.6447877022503
 20
257.5525800521216
 10
162.6447877022503
 20
257.5525800521216
 10
162.7081775009967
 20
257.5525800521216
 10
162.7081775009967
 20
257.5525800521216
 10
162.8749202324821
 20
257.5424170137356
 10
162.7918933765152
 20
257.5939212252171
 10
162.8986914070121
 20
257.4895347631509
 72
     1
 10
162.8986914070121
 20
257.4895347631509
 11
162.8986914070121
 21
257.4895347631509
 97
        0
 75
     0
 76
     1
 98
        0
450
        0
451
        0
460
0.0
461
0.0
452
        0
462
0.0
453
        0
470

  0
HATCH
  5
1B
330
2
100
AcDbEntity
  8
图层 1
 62
     7
100
AcDbHatch
 10
0.0
 20
0.0
 30
0.0
210
0.0
220
0.0
230
1.0
  2
SOLID
 70
     1
 71
     0
 91
        1
 92
        1
 93
        2
 72
     4
 94
        3
 73
     0
 74
     0
 95
       56
 96
       52
 40
0.0
 40
0.0
 40
0.0
 40
0.0
 40
0.3527780104152769
 40
0.3527780104152769
 40
0.3527780104152769
 40
0.7055560208305538
 40
0.7055560208305538
 40
0.7055560208305538
 40
1.058334031245828
 40
1.058334031245828
 40
1.058334031245828
 40
1.411112041661104
 40
1.411112041661104
 40
1.411112041661104
 40
1.763890052076384
 40
1.763890052076384
 40
1.763890052076384
 40
2.116668062491659
 40
2.116668062491659
 40
2.116668062491659
 40
2.469446072906936
 40
2.469446072906936
 40
2.469446072906936
 40
2.822224083322215
 40
2.822224083322215
 40
2.822224083322215
 40
3.175002093737492
 40
3.175002093737492
 40
3.175002093737492
 40
3.527780104152768
 40
3.527780104152768
 40
3.527780104152768
 40
3.880558114568044
 40
3.880558114568044
 40
3.880558114568044
 40
4.233336124983321
 40
4.233336124983321
 40
4.233336124983321
 40
4.586114135398599
 40
4.586114135398599
 40
4.586114135398599
 40
4.938892145813873
 40
4.938892145813873
 40
4.938892145813873
 40
5.291670156229153
 40
5.291670156229153
 40
5.291670156229153
 40
5.64444816664443
 40
5.64444816664443
 40
5.64444816664443
 40
5.997226177059705
 40
5.997226177059705
 40
5.997226177059705
 40
5.997226177059705
 10
185.4837187788815
 20
241.4451977396596
 10
185.4837187788815
 20
241.4451977396596
 10
185.4837187788815
 20
241.4028230372367
 10
185.4837187788815
 20
241.4028230372367
 10
185.4837187788815
 20
241.4028230372367
 10
185.5047338752051
 20
241.3604483348137
 10
185.5047338752051
 20
241.3604483348137
 10
185.4520238795082
 20
241.2782827532863
 10
185.4671823096433
 20
241.1897437409066
 10
185.335579575289
 20
241.2119646214456
 10
185.335579575289
 20
241.2119646214456
 10
185.2932048728662
 20
241.2119646214456
 10
185.2932048728662
 20
241.2119646214456
 10
185.2932048728662
 20
241.2119646214456
 10
185.2294705643439
 20
241.2334964824328
 10
185.2294705643439
 20
241.2334964824328
 10
185.2294705643439
 20
241.2334964824328
 10
185.1660807655974
 20
241.2543393238685
 10
185.1660807655974
 20
241.2543393238685
 10
185.1660807655974
 20
241.2543393238685
 10
185.1450656692739
 20
241.2758711848558
 10
185.1450656692739
 20
241.2758711848558
 10
185.1450656692739
 20
241.2758711848558
 10
185.1450656692739
 20
241.2967140262914
 10
185.1450656692739
 20
241.2967140262914
 10
185.1450656692739
 20
241.2967140262914
 10
185.1237060631745
 20
241.3604483348137
 10
185.1237060631745
 20
241.3604483348137
 10
185.1237060631745
 20
241.3604483348137
 10
185.1237060631745
 20
241.4028230372367
 10
185.1237060631745
 20
241.4028230372367
 10
185.1237060631745
 20
241.4028230372367
 10
185.1660807655974
 20
241.4875724420825
 10
185.1660807655974
 20
241.4875724420825
 10
185.1660807655974
 20
241.4875724420825
 10
185.2084554680203
 20
241.5085875384061
 10
185.2084554680203
 20
241.5085875384061
 10
185.2084554680203
 20
241.5085875384061
 10
185.2718452667668
 20
241.5297748896175
 10
185.2718452667668
 20
241.5297748896175
 10
185.2718452667668
 20
241.5297748896175
 10
185.3565946716127
 20
241.5297748896175
 10
185.3565946716127
 20
241.5297748896175
 10
185.3565946716127
 20
241.5297748896175
 10
185.4199844703592
 20
241.5085875384061
 10
185.4199844703592
 20
241.5085875384061
 10
185.4199844703592
 20
241.5085875384061
 10
185.4623591727821
 20
241.4875724420825
 10
185.4623591727821
 20
241.4875724420825
 10
185.4623591727821
 20
241.4875724420825
 10
185.4837187788815
 20
241.4451977396596
 10
185.4837187788815
 20
241.4451977396596
 72
     1
 10
185.4837187788815
 20
241.4451977396596
 11
185.4837187788815
 21
241.4451977396596
 97
        0
 75
     0
 76
     1
 98
        0
450
        0
451
        0
460
0.0
461
0.0
452
        0
462
0.0
453
        0
470

  0
HATCH
  5
1C
330
2
100
AcDbEntity
  8
图层 1
 62
     7
100
AcDbHatch
 10
0.0
 20
0.0
 30
0.0
210
0.0
220
0.0
230
1.0
  2
SOLID
 70
     1
 71
     0
 91
        1
 92
        1
 93
        2
 72
     4
 94
        3
 73
     0
 74
     0
 95
       38
 96
       34
 40
0.0
 40
0.0
 40
0.0
 40
0.0
 40
0.3527780104152769
 40
0.3527780104152769
 40
0.3527780104152769
 40
0.7055560208305538
 40
0.7055560208305538
 40
0.7055560208305538
 40
1.058334031245828
 40
1.058334031245828
 40
1.058334031245828
 40
1.411112041661104
 40
1.411112041661104
 40
1.411112041661104
 40
1.763890052076384
 40
1.763890052076384
 40
1.763890052076384
 40
2.116668062491659
 40
2.116668062491659
 40
2.116668062491659
 40
2.469446072906936
 40
2.469446072906936
 40
2.469446072906936
 40
2.822224083322215
 40
2.822224083322215
 40
2.822224083322215
 40
3.175002093737492
 40
3.175002093737492
 40
3.175002093737492
 40
3.527780104152768
 40
3.527780104152768
 40
3.527780104152768
 40
3.880558114568044
 40
3.880558114568044
 40
3.880558114568044
 40
3.880558114568044
 10
185.907121293335
 20
220.1937677098971
 10
185.9005756075949
 20
220.0449394867532
 10
185.9329595265197
 20
220.1136691870245
 10
185.864746590912
 20
219.9817219428946
 10
185.864746590912
 20
219.9817219428946
 10
185.822371888489
 20
219.9605345916831
 10
185.822371888489
 20
219.9605345916831
 10
185.822371888489
 20
219.9605345916831
 10
185.6528730787974
 20
219.9605345916831
 10
185.6528730787974
 20
219.9605345916831
 10
185.6528730787974
 20
219.9605345916831
 10
185.5894832800509
 20
220.002909294106
 10
185.5894832800509
 20
220.002909294106
 10
185.5894832800509
 20
220.002909294106
 10
185.5681236739515
 20
220.0240966453175
 10
185.5681236739515
 20
220.0240966453175
 10
185.5681236739515
 20
220.0240966453175
 10
185.5681236739515
 20
220.045283996529
 10
185.5681236739515
 20
220.045283996529
 10
185.5681236739515
 20
220.045283996529
 10
185.547108577628
 20
220.0876586989519
 10
185.547108577628
 20
220.0876586989519
 10
185.547108577628
 20
220.0876586989519
 10
185.547108577628
 20
220.1513930074742
 10
185.547108577628
 20
220.1513930074742
 10
185.547108577628
 20
220.1513930074742
 10
185.5894832800509
 20
220.23614241232
 10
185.5894832800509
 20
220.23614241232
 10
185.5894832800509
 20
220.23614241232
 10
185.6318579824738
 20
220.2573297635315
 10
185.6318579824738
 20
220.2573297635315
 10
185.7055830744942
 20
220.2566407439799
 10
185.8416644359337
 20
220.3310548555519
 10
185.907121293335
 20
220.1937677098971
 72
     1
 10
185.907121293335
 20
220.1937677098971
 11
185.907121293335
 21
220.1937677098971
 97
        0
 75
     0
 76
     1
 98
        0
450
        0
451
        0
460
0.0
461
0.0
452
        0
462
0.0
453
        0
470

  0
HATCH
  5
1D
330
2
100
AcDbEntity
  8
图层 1
 62
     7
100
AcDbHatch
 10
0.0
 20
0.0
 30
0.0
210
0.0
220
0.0
230
1.0
  2
SOLID
 70
     1
 71
     0
 91
        1
 92
        1
 93
        2
 72
     4
 94
        3
 73
     0
 74
     0
 95
       50
 96
       46
 40
0.0
 40
0.0
 40
0.0
 40
0.0
 40
0.3527780104152769
 40
0.3527780104152769
 40
0.3527780104152769
 40
0.7055560208305538
 40
0.7055560208305538
 40
0.7055560208305538
 40
1.058334031245828
 40
1.058334031245828
 40
1.058334031245828
 40
1.411112041661104
 40
1.411112041661104
 40
1.411112041661104
 40
1.763890052076384
 40
1.763890052076384
 40
1.763890052076384
 40
2.116668062491659
 40
2.116668062491659
 40
2.116668062491659
 40
2.469446072906936
 40
2.469446072906936
 40
2.469446072906936
 40
2.822224083322215
 40
2.822224083322215
 40
2.822224083322215
 40
3.175002093737492
 40
3.175002093737492
 40
3.175002093737492
 40
3.527780104152768
 40
3.527780104152768
 40
3.527780104152768
 40
3.880558114568044
 40
3.880558114568044
 40
3.880558114568044
 40
4.233336124983321
 40
4.233336124983321
 40
4.233336124983321
 40
4.586114135398599
 40
4.586114135398599
 40
4.586114135398599
 40
4.938892145813873
 40
4.938892145813873
 40
4.938892145813873
 40
5.291670156229153
 40
5.291670156229153
 40
5.291670156229153
 40
5.291670156229153
 10
180.9117295442905
 20
208.9327766684477
 10
180.9117295442905
 20
208.9327766684477
 10
180.9117295442905
 20
208.7637946234197
 10
180.9117295442905
 20
208.7637946234197
 10
181.2273004989198
 20
208.6749111012643
 10
181.3833634273555
 20
208.6776671794706
 10
181.6948002646751
 20
208.5097186637701
 10
181.9542161258496
 20
208.4294478860095
 10
182.1388733656765
 20
208.2134402565853
 10
182.3297317814676
 20
208.02292635057
 10
182.3297317814676
 20
208.02292635057
 10
182.435496282637
 20
208.065301052993
 10
182.435496282637
 20
208.065301052993
 10
182.288390608372
 20
208.2733849575739
 10
182.3752070718726
 20
208.2134402565853
 10
182.1605774815516
 20
208.3824223016133
 10
182.1605774815516
 20
208.3824223016133
 10
182.1182027791287
 20
208.4247970040363
 10
182.1182027791287
 20
208.4247970040363
 10
182.1182027791287
 20
208.4247970040363
 10
182.0968431730294
 20
208.467516216235
 10
182.0968431730294
 20
208.467516216235
 10
182.0968431730294
 20
208.467516216235
 10
182.0544684706064
 20
208.4883590576707
 10
182.0544684706064
 20
208.4883590576707
 10
182.0544684706064
 20
208.4883590576707
 10
181.9910786718599
 20
208.5305615052057
 10
181.9910786718599
 20
208.5305615052057
 10
181.9910786718599
 20
208.5305615052057
 10
181.948703969437
 20
208.552093366193
 10
181.948703969437
 20
208.552093366193
 10
181.948703969437
 20
208.552093366193
 10
181.9063292670141
 20
208.5729362076286
 10
181.9063292670141
 20
208.5729362076286
 10
181.9063292670141
 20
208.5729362076286
 10
181.8639545645911
 20
208.6156554198274
 10
181.8639545645911
 20
208.6156554198274
 10
181.8639545645911
 20
208.6156554198274
 10
181.821924371944
 20
208.6368427710388
 10
181.821924371944
 20
208.6368427710388
 10
181.6637943848536
 20
208.6742220817127
 10
181.5452830219797
 20
208.8092699138248
 10
181.3771622513911
 20
208.8061693258427
 10
181.2803550043924
 20
208.8573290275484
 10
181.0126709085988
 20
208.8971199066528
 10
180.9117295442905
 20
208.9327766684477
 72
     1
 10
180.9117295442905
 20
208.9327766684477
 11
180.9117295442905
 21
208.9327766684477
 97
        0
 75
     0
 76
     1
 98
        0
450
        0
451
        0
460
0.0
461
0.0
452
        0
462
0.0
453
        0
470

  0
HATCH
  5
1E
330
2
100
AcDbEntity
  8
图层 1
 62
     7
100
AcDbHatch
 10
0.0
 20
0.0
 30
0.0
210
0.0
220
0.0
230
1.0
  2
SOLID
 70
     1
 71
     0
 91
        1
 92
        1
 93
        2
 72
     4
 94
        3
 73
     0
 74
     0
 95
       38
 96
       34
 40
0.0
 40
0.0
 40
0.0
 40
0.0
 40
0.3527780104152769
 40
0.3527780104152769
 40
0.3527780104152769
 40
0.7055560208305538
 40
0.7055560208305538
 40
0.7055560208305538
 40
1.058334031245828
 40
1.058334031245828
 40
1.058334031245828
 40
1.411112041661104
 40
1.411112041661104
 40
1.411112041661104
 40
1.763890052076384
 40
1.763890052076384
 40
1.763890052076384
 40
2.116668062491659
 40
2.116668062491659
 40
2.116668062491659
 40
2.469446072906936
 40
2.469446072906936
 40
2.469446072906936
 40
2.822224083322215
 40
2.822224083322215
 40
2.822224083322215
 40
3.175002093737492
 40
3.175002093737492
 40
3.175002093737492
 40
3.527780104152768
 40
3.527780104152768
 40
3.527780104152768
 40
3.880558114568044
 40
3.880558114568044
 40
3.880558114568044
 40
3.880558114568044
 10
189.145513185819
 20
166.8326485368285
 10
189.207869455238
 20
166.740492171803
 10
189.1317327947871
 20
166.6833035490209
 10
189.103138483396
 20
166.6209472796017
 10
189.103138483396
 20
166.6209472796017
 10
189.0607637809731
 20
166.5997599283903
 10
189.0607637809731
 20
166.5997599283903
 10
189.0607637809731
 20
166.5997599283903
 10
188.9973739822266
 20
166.5785725771788
 10
188.9973739822266
 20
166.5785725771788
 10
188.9973739822266
 20
166.5785725771788
 10
188.9549992798037
 20
166.5997599283903
 10
188.9549992798037
 20
166.5997599283903
 10
188.9549992798037
 20
166.5997599283903
 10
188.8916094810572
 20
166.5997599283903
 10
188.8916094810572
 20
166.5997599283903
 10
188.8916094810572
 20
166.5997599283903
 10
188.8492347786343
 20
166.6209472796017
 10
188.8492347786343
 20
166.6209472796017
 10
188.8492347786343
 20
166.6209472796017
 10
188.8278751725349
 20
166.6633219820247
 10
188.8278751725349
 20
166.6633219820247
 10
188.8278751725349
 20
166.6633219820247
 10
188.8068600762114
 20
166.6845093332361
 10
188.8068600762114
 20
166.6845093332361
 10
188.8068600762114
 20
166.6845093332361
 10
188.8068600762114
 20
166.8326485368285
 10
188.8068600762114
 20
166.8326485368285
 10
188.8068600762114
 20
166.8326485368285
 10
188.8702498749578
 20
166.896038335575
 10
188.8702498749578
 20
166.896038335575
 10
189.0228677056355
 20
166.8819134347673
 10
189.0686875058164
 20
166.9411691162043
 10
189.145513185819
 20
166.8326485368285
 72
     1
 10
189.145513185819
 20
166.8326485368285
 11
189.145513185819
 21
166.8326485368285
 97
        0
 75
     0
 76
     1
 98
        0
450
        0
451
        0
460
0.0
461
0.0
452
        0
462
0.0
453
        0
470

  0
HATCH
  5
1F
330
2
100
AcDbEntity
  8
图层 1
 62
     7
100
AcDbHatch
 10
0.0
 20
0.0
 30
0.0
210
0.0
220
0.0
230
1.0
  2
SOLID
 70
     1
 71
     0
 91
        1
 92
        1
 93
        2
 72
     4
 94
        3
 73
     0
 74
     0
 95
       68
 96
       64
 40
0.0
 40
0.0
 40
0.0
 40
0.0
 40
0.3527780104152769
 40
0.3527780104152769
 40
0.3527780104152769
 40
0.7055560208305538
 40
0.7055560208305538
 40
0.7055560208305538
 40
1.058334031245828
 40
1.058334031245828
 40
1.058334031245828
 40
1.411112041661104
 40
1.411112041661104
 40
1.411112041661104
 40
1.763890052076384
 40
1.763890052076384
 40
1.763890052076384
 40
2.116668062491659
 40
2.116668062491659
 40
2.116668062491659
 40
2.469446072906936
 40
2.469446072906936
 40
2.469446072906936
 40
2.822224083322215
 40
2.822224083322215
 40
2.822224083322215
 40
3.175002093737492
 40
3.175002093737492
 40
3.175002093737492
 40
3.527780104152768
 40
3.527780104152768
 40
3.527780104152768
 40
3.880558114568044
 40
3.880558114568044
 40
3.880558114568044
 40
4.233336124983321
 40
4.233336124983321
 40
4.233336124983321
 40
4.586114135398599
 40
4.586114135398599
 40
4.586114135398599
 40
4.938892145813873
 40
4.938892145813873
 40
4.938892145813873
 40
5.291670156229153
 40
5.291670156229153
 40
5.291670156229153
 40
5.64444816664443
 40
5.64444816664443
 40
5.64444816664443
 40
5.997226177059705
 40
5.997226177059705
 40
5.997226177059705
 40
6.350004187474984
 40
6.350004187474984
 40
6.350004187474984
 40
6.702782197890257
 40
6.702782197890257
 40
6.702782197890257
 40
7.055560208305537
 40
7.055560208305537
 40
7.055560208305537
 40
7.408338218720808
 40
7.408338218720808
 40
7.408338218720808
 40
7.408338218720808
 10
174.7732543591544
 20
135.4846705078077
 10
174.7732543591544
 20
135.4846705078077
 10
174.7732543591544
 20
135.3789060066383
 10
174.7732543591544
 20
135.3789060066383
 10
174.7732543591544
 20
135.3789060066383
 10
174.8156290615773
 20
135.3789060066383
 10
174.8156290615773
 20
135.3789060066383
 10
174.8156290615773
 20
135.3789060066383
 10
174.8580037640002
 20
135.3578909103147
 10
174.8580037640002
 20
135.3578909103147
 10
174.8580037640002
 20
135.3578909103147
 10
174.9213935627468
 20
135.3578909103147
 10
174.9213935627468
 20
135.3578909103147
 10
174.9213935627468
 20
135.3578909103147
 10
174.9637682651697
 20
135.3365313042154
 10
174.9637682651697
 20
135.3365313042154
 10
174.9637682651697
 20
135.3365313042154
 10
174.9847833614933
 20
135.3365313042154
 10
174.9847833614933
 20
135.3365313042154
 10
174.9847833614933
 20
135.3365313042154
 10
175.0271580639162
 20
135.3155162078918
 10
175.0271580639162
 20
135.3155162078918
 10
175.0271580639162
 20
135.3155162078918
 10
175.0485176700155
 20
135.2941566017924
 10
175.0485176700155
 20
135.2941566017924
 10
175.0485176700155
 20
135.2941566017924
 10
175.0695327663391
 20
135.2941566017924
 10
175.0695327663391
 20
135.2941566017924
 10
175.0695327663391
 20
135.2941566017924
 10
175.0908923724385
 20
135.2731415054689
 10
175.0908923724385
 20
135.2731415054689
 10
175.0908923724385
 20
135.2731415054689
 10
175.1332670748614
 20
135.2731415054689
 10
175.1332670748614
 20
135.2731415054689
 10
175.1332670748614
 20
135.2731415054689
 10
175.154282171185
 20
135.2517818993695
 10
175.154282171185
 20
135.2517818993695
 10
175.154282171185
 20
135.2517818993695
 10
175.154282171185
 20
135.3578909103147
 10
175.154282171185
 20
135.3578909103147
 10
175.154282171185
 20
135.3578909103147
 10
175.1332670748614
 20
135.3789060066383
 10
175.1332670748614
 20
135.3789060066383
 10
175.1332670748614
 20
135.3789060066383
 10
175.0908923724385
 20
135.3789060066383
 10
175.0908923724385
 20
135.3789060066383
 10
175.0908923724385
 20
135.3789060066383
 10
175.0908923724385
 20
135.3999211029619
 10
175.0908923724385
 20
135.3999211029619
 10
175.0908923724385
 20
135.3999211029619
 10
175.0695327663391
 20
135.3999211029619
 10
175.0695327663391
 20
135.3999211029619
 10
175.0695327663391
 20
135.3999211029619
 10
175.0271580639162
 20
135.4212807090612
 10
175.0271580639162
 20
135.4212807090612
 10
175.0271580639162
 20
135.4212807090612
 10
175.0061429675926
 20
135.4212807090612
 10
175.0061429675926
 20
135.4212807090612
 10
175.0061429675926
 20
135.4212807090612
 10
174.9637682651697
 20
135.4422958053848
 10
174.9637682651697
 20
135.4422958053848
 10
174.8996894468716
 20
135.4498750204523
 10
174.8394002361073
 20
135.4860485469109
 10
174.7732543591544
 20
135.4846705078077
 72
     1
 10
174.7732543591544
 20
135.4846705078077
 11
174.7732543591544
 21
135.4846705078077
 97
        0
 75
     0
 76
     1
 98
        0
450
        0
451
        0
460
0.0
461
0.0
452
        0
462
0.0
453
        0
470

  0
HATCH
  5
20
330
2
100
AcDbEntity
  8
图层 1
 62
     7
100
AcDbHatch
 10
0.0
 20
0.0
 30
0.0
210
0.0
220
0.0
230
1.0
  2
SOLID
 70
     1
 71
     0
 91
        1
 92
        1
 93
        2
 72
     4
 94
        3
 73
     0
 74
     0
 95
       29
 96
       25
 40
0.0
 40
0.0
 40
0.0
 40
0.0
 40
0.3527780104152769
 40
0.3527780104152769
 40
0.3527780104152769
 40
0.7055560208305538
 40
0.7055560208305538
 40
0.7055560208305538
 40
1.058334031245828
 40
1.058334031245828
 40
1.058334031245828
 40
1.411112041661104
 40
1.411112041661104
 40
1.411112041661104
 40
1.763890052076384
 40
1.763890052076384
 40
1.763890052076384
 40
2.116668062491659
 40
2.116668062491659
 40
2.116668062491659
 40
2.469446072906936
 40
2.469446072906936
 40
2.469446072906936
 40
2.822224083322215
 40
2.822224083322215
 40
2.822224083322215
 40
2.822224083322215
 10
175.4929352807925
 20
164.0174869039101
 10
175.4929352807925
 20
164.0174869039101
 10
175.5139503771161
 20
163.9751122014871
 10
175.5139503771161
 20
163.9751122014871
 10
175.5139503771161
 20
163.9751122014871
 10
175.5139503771161
 20
163.9327374990642
 10
175.5139503771161
 20
163.9327374990642
 10
175.5139503771161
 20
163.9327374990642
 10
175.4929352807925
 20
163.8903627966413
 10
175.4929352807925
 20
163.8903627966413
 10
175.4929352807925
 20
163.8903627966413
 10
175.471920184469
 20
163.8691754454298
 10
175.471920184469
 20
163.8691754454298
 10
175.471920184469
 20
163.8691754454298
 10
175.4505605783696
 20
163.8269729978948
 10
175.4505605783696
 20
163.8269729978948
 10
175.3571984291289
 20
163.7715069239916
 10
175.272449024283
 20
163.8195660377152
 10
175.1966568736079
 20
163.8691754454298
 10
175.208370205985
 20
163.9930267098286
 10
175.1563492298397
 20
164.0216210212197
 10
175.2600466723544
 20
164.0596893514451
 10
175.3330827448232
 20
164.1094710140476
 10
175.4357466580104
 20
164.0753645462439
 10
175.4929352807925
 20
164.0174869039101
 72
     1
 10
175.4929352807925
 20
164.0174869039101
 11
175.4929352807925
 21
164.0174869039101
 97
        0
 75
     0
 76
     1
 98
        0
450
        0
451
        0
460
0.0
461
0.0
452
        0
462
0.0
453
        0
470

  0
HATCH
  5
21
330
2
100
AcDbEntity
  8
图层 1
 62
     7
100
AcDbHatch
 10
0.0
 20
0.0
 30
0.0
210
0.0
220
0.0
230
1.0
  2
SOLID
 70
     1
 71
     0
 91
        1
 92
        1
 93
        2
 72
     4
 94
        3
 73
     0
 74
     0
 95
       11
 96
        7
 40
0.0
 40
0.0
 40
0.0
 40
0.0
 40
0.3527780104152769
 40
0.3527780104152769
 40
0.3527780104152769
 40
0.7055560208305538
 40
0.7055560208305538
 40
0.7055560208305538
 40
0.7055560208305538
 10
174.9213935627468
 20
174.5369206529582
 10
174.9213935627468
 20
174.5369206529582
 10
174.9213935627468
 20
174.3043765542958
 10
174.9213935627468
 20
174.3043765542958
 10
174.9213935627468
 20
174.3043765542958
 10
174.9213935627468
 20
174.5369206529582
 10
174.9213935627468
 20
174.5369206529582
 72
     1
 10
174.9213935627468
 20
174.5369206529582
 11
174.9213935627468
 21
174.5369206529582
 97
        0
 75
     0
 76
     1
 98
        0
450
        0
451
        0
460
0.0
461
0.0
452
        0
462
0.0
453
        0
470

  0
HATCH
  5
22
330
2
100
AcDbEntity
  8
图层 1
 62
     7
100
AcDbHatch
 10
0.0
 20
0.0
 30
0.0
210
0.0
220
0.0
230
1.0
  2
SOLID
 70
     1
 71
     0
 91
        1
 92
        1
 93
        2
 72
     4
 94
        3
 73
     0
 74
     0
 95
      131
 96
      127
 40
0.0
 40
0.0
 40
0.0
 40
0.0
 40
0.3527780104152769
 40
0.3527780104152769
 40
0.3527780104152769
 40
0.7055560208305538
 40
0.7055560208305538
 40
0.7055560208305538
 40
1.058334031245828
 40
1.058334031245828
 40
1.058334031245828
 40
1.411112041661104
 40
1.411112041661104
 40
1.411112041661104
 40
1.763890052076384
 40
1.763890052076384
 40
1.763890052076384
 40
2.116668062491659
 40
2.116668062491659
 40
2.116668062491659
 40
2.469446072906936
 40
2.469446072906936
 40
2.469446072906936
 40
2.822224083322215
 40
2.822224083322215
 40
2.822224083322215
 40
3.175002093737492
 40
3.175002093737492
 40
3.175002093737492
 40
3.527780104152768
 40
3.527780104152768
 40
3.527780104152768
 40
3.880558114568044
 40
3.880558114568044
 40
3.880558114568044
 40
4.233336124983321
 40
4.233336124983321
 40
4.233336124983321
 40
4.586114135398599
 40
4.586114135398599
 40
4.586114135398599
 40
4.938892145813873
 40
4.938892145813873
 40
4.938892145813873
 40
5.291670156229153
 40
5.291670156229153
 40
5.291670156229153
 40
5.64444816664443
 40
5.64444816664443
 40
5.64444816664443
 40
5.997226177059705
 40
5.997226177059705
 40
5.997226177059705
 40
6.350004187474984
 40
6.350004187474984
 40
6.350004187474984
 40
6.702782197890257
 40
6.702782197890257
 40
6.702782197890257
 40
7.055560208305537
 40
7.055560208305537
 40
7.055560208305537
 40
7.408338218720808
 40
7.408338218720808
 40
7.408338218720808
 40
7.76111622913609
 40
7.76111622913609
 40
7.76111622913609
 40
8.113894239551369
 40
8.113894239551369
 40
8.113894239551369
 40
8.466672249966642
 40
8.466672249966642
 40
8.466672249966642
 40
8.819450260381922
 40
8.819450260381922
 40
8.819450260381922
 40
9.172228270797198
 40
9.172228270797198
 40
9.172228270797198
 40
9.525006281212476
 40
9.525006281212476
 40
9.525006281212476
 40
9.877784291627751
 40
9.877784291627751
 40
9.877784291627751
 40
10.23056230204303
 40
10.23056230204303
 40
10.23056230204303
 40
10.58334031245831
 40
10.58334031245831
 40
10.58334031245831
 40
10.93611832287358
 40
10.93611832287358
 40
10.93611832287358
 40
11.28889633328886
 40
11.28889633328886
 40
11.28889633328886
 40
11.64167434370414
 40
11.64167434370414
 40
11.64167434370414
 40
11.99445235411941
 40
11.99445235411941
 40
11.99445235411941
 40
12.34723036453469
 40
12.34723036453469
 40
12.34723036453469
 40
12.70000837494997
 40
12.70000837494997
 40
12.70000837494997
 40
13.05278638536524
 40
13.05278638536524
 40
13.05278638536524
 40
13.40556439578052
 40
13.40556439578052
 40
13.40556439578052
 40
13.7583424061958
 40
13.7583424061958
 40
13.7583424061958
 40
14.11112041661107
 40
14.11112041661107
 40
14.11112041661107
 40
14.46389842702635
 40
14.46389842702635
 40
14.46389842702635
 40
14.81667643744163
 40
14.81667643744163
 40
14.81667643744163
 40
14.81667643744163
 10
173.3972823146245
 20
126.8274843518258
 10
173.3972823146245
 20
126.8274843518258
 10
173.3972823146245
 20
126.7217198506564
 10
173.3972823146245
 20
126.7217198506564
 10
173.3972823146245
 20
126.7217198506564
 10
173.4186419207238
 20
126.7217198506564
 10
173.4186419207238
 20
126.7217198506564
 10
173.4186419207238
 20
126.7217198506564
 10
173.4820317194703
 20
126.7007047543328
 10
173.4820317194703
 20
126.7007047543328
 10
173.4820317194703
 20
126.7007047543328
 10
173.5244064218933
 20
126.6793451482334
 10
173.5244064218933
 20
126.6793451482334
 10
173.5244064218933
 20
126.6793451482334
 10
173.5877962206398
 20
126.6793451482334
 10
173.5877962206398
 20
126.6793451482334
 10
173.5877962206398
 20
126.6793451482334
 10
173.6301709230627
 20
126.6583300519099
 10
173.6301709230627
 20
126.6583300519099
 10
173.7955356154449
 20
126.5911506456296
 10
173.759706598762
 20
126.6380039751379
 10
173.9478089363468
 20
126.5525655507404
 10
173.9478089363468
 20
126.5525655507404
 10
173.9688240326703
 20
126.4464565397952
 10
173.9688240326703
 20
126.4464565397952
 10
173.9688240326703
 20
126.4464565397952
 10
174.0325583411926
 20
126.5101908483175
 10
174.0325583411926
 20
126.5101908483175
 10
174.0325583411926
 20
126.5101908483175
 10
174.0749330436156
 20
126.5101908483175
 10
174.0749330436156
 20
126.5101908483175
 10
174.0749330436156
 20
126.5101908483175
 10
174.1593379386856
 20
126.4678161458946
 10
174.1593379386856
 20
126.4678161458946
 10
174.1593379386856
 20
126.4678161458946
 10
174.180697544785
 20
126.4464565397952
 10
174.180697544785
 20
126.4464565397952
 10
174.2464989119621
 20
126.3982251711837
 10
174.3298702777047
 20
126.3716979184474
 10
174.3922265471239
 20
126.3196769423022
 10
174.608234176548
 20
126.2059887162895
 10
174.7749769080334
 20
126.0278771622029
 10
174.9637682651697
 20
125.8749148217494
 10
174.9637682651697
 20
125.8749148217494
 10
175.0061429675926
 20
125.9172895241723
 10
175.0061429675926
 20
125.9172895241723
 10
174.961356696739
 20
125.9631093243532
 10
174.782211613325
 20
126.1246844092016
 10
174.7308796567315
 20
126.1501781326105
 10
174.7308796567315
 20
126.1501781326105
 10
174.6885049543085
 20
126.1925528350335
 10
174.6885049543085
 20
126.1925528350335
 10
174.6885049543085
 20
126.1925528350335
 10
174.667489857985
 20
126.2349275374564
 10
174.667489857985
 20
126.2349275374564
 10
174.667489857985
 20
126.2349275374564
 10
174.625115155562
 20
126.2559426337799
 10
174.625115155562
 20
126.2559426337799
 10
174.625115155562
 20
126.2559426337799
 10
174.5827404531391
 20
126.2983173362029
 10
174.5827404531391
 20
126.2983173362029
 10
174.5827404531391
 20
126.2983173362029
 10
174.5403657507162
 20
126.3196769423022
 10
174.5403657507162
 20
126.3196769423022
 10
174.5403657507162
 20
126.3196769423022
 10
174.4979910482932
 20
126.3620516447252
 10
174.4979910482932
 20
126.3620516447252
 10
174.4735308542117
 20
126.3875453681341
 10
174.3247026310678
 20
126.4695386947736
 10
174.2864620459544
 20
126.4888312422181
 10
174.2864620459544
 20
126.4888312422181
 10
174.2654469496308
 20
126.5101908483175
 10
174.2654469496308
 20
126.5101908483175
 10
174.2654469496308
 20
126.5101908483175
 10
174.2230722472079
 20
126.5312059446411
 10
174.2230722472079
 20
126.5312059446411
 10
174.2230722472079
 20
126.5312059446411
 10
174.2017126411085
 20
126.5525655507404
 10
174.2017126411085
 20
126.5525655507404
 10
174.2017126411085
 20
126.5525655507404
 10
174.1383228423621
 20
126.573580647064
 10
174.1383228423621
 20
126.573580647064
 10
174.1383228423621
 20
126.573580647064
 10
174.1169632362627
 20
126.5945957433876
 10
174.1169632362627
 20
126.5945957433876
 10
174.1169632362627
 20
126.5945957433876
 10
174.0959481399391
 20
126.7007047543328
 10
174.0959481399391
 20
126.7007047543328
 10
174.0959481399391
 20
126.7007047543328
 10
174.0325583411926
 20
126.6369704458105
 10
174.0325583411926
 20
126.6369704458105
 10
174.0325583411926
 20
126.6369704458105
 10
173.9901836387697
 20
126.6369704458105
 10
173.9901836387697
 20
126.6369704458105
 10
173.9901836387697
 20
126.6369704458105
 10
173.9054342339239
 20
126.6793451482334
 10
173.9054342339239
 20
126.6793451482334
 10
173.9054342339239
 20
126.6793451482334
 10
173.8420444351773
 20
126.7007047543328
 10
173.8420444351773
 20
126.7007047543328
 10
173.8420444351773
 20
126.7007047543328
 10
173.7996697327544
 20
126.7217198506564
 10
173.7996697327544
 20
126.7217198506564
 10
173.7996697327544
 20
126.7217198506564
 10
173.7572950303315
 20
126.7217198506564
 10
173.7572950303315
 20
126.7217198506564
 10
173.7572950303315
 20
126.7217198506564
 10
173.6725456254856
 20
126.7640945530793
 10
173.6725456254856
 20
126.7640945530793
 10
173.6725456254856
 20
126.7640945530793
 10
173.6515305291621
 20
126.7640945530793
 10
173.6515305291621
 20
126.7640945530793
 10
173.6515305291621
 20
126.7640945530793
 10
173.5667811243162
 20
126.7851096494029
 10
173.5667811243162
 20
126.7851096494029
 10
173.5667811243162
 20
126.7851096494029
 10
173.5033913255697
 20
126.8064692555022
 10
173.5033913255697
 20
126.8064692555022
 10
173.5033913255697
 20
126.8064692555022
 10
173.4396570170474
 20
126.8064692555022
 10
173.4396570170474
 20
126.8064692555022
 10
173.4396570170474
 20
126.8064692555022
 10
173.4186419207238
 20
126.8274843518258
 10
173.4186419207238
 20
126.8274843518258
 10
173.4186419207238
 20
126.8274843518258
 10
173.3972823146245
 20
126.8274843518258
 10
173.3972823146245
 20
126.8274843518258
 72
     1
 10
173.3972823146245
 20
126.8274843518258
 11
173.3972823146245
 21
126.8274843518258
 97
        0
 75
     0
 76
     1
 98
        0
450
        0
451
        0
460
0.0
461
0.0
452
        0
462
0.0
453
        0
470

  0
HATCH
  5
23
330
2
100
AcDbEntity
  8
图层 1
 62
     7
100
AcDbHatch
 10
0.0
 20
0.0
 30
0.0
210
0.0
220
0.0
230
1.0
  2
SOLID
 70
     1
 71
     0
 91
        1
 92
        1
 93
        2
 72
     4
 94
        3
 73
     0
 74
     0
 95
       47
 96
       43
 40
0.0
 40
0.0
 40
0.0
 40
0.0
 40
0.3527780104152769
 40
0.3527780104152769
 40
0.3527780104152769
 40
0.7055560208305538
 40
0.7055560208305538
 40
0.7055560208305538
 40
1.058334031245828
 40
1.058334031245828
 40
1.058334031245828
 40
1.411112041661104
 40
1.411112041661104
 40
1.411112041661104
 40
1.763890052076384
 40
1.763890052076384
 40
1.763890052076384
 40
2.116668062491659
 40
2.116668062491659
 40
2.116668062491659
 40
2.469446072906936
 40
2.469446072906936
 40
2.469446072906936
 40
2.822224083322215
 40
2.822224083322215
 40
2.822224083322215
 40
3.175002093737492
 40
3.175002093737492
 40
3.175002093737492
 40
3.527780104152768
 40
3.527780104152768
 40
3.527780104152768
 40
3.880558114568044
 40
3.880558114568044
 40
3.880558114568044
 40
4.233336124983321
 40
4.233336124983321
 40
4.233336124983321
 40
4.586114135398599
 40
4.586114135398599
 40
4.586114135398599
 40
4.938892145813873
 40
4.938892145813873
 40
4.938892145813873
 40
4.938892145813873
 10
180.1920486226523
 20
255.6479577566324
 10
180.1920486226523
 20
255.6479577566324
 10
180.2130637189759
 20
255.6055830542095
 10
180.2130637189759
 20
255.6055830542095
 10
180.2130637189759
 20
255.6055830542095
 10
180.2130637189759
 20
255.5210059042515
 10
180.2130637189759
 20
255.5210059042515
 10
180.2130637189759
 20
255.5210059042515
 10
180.1920486226523
 20
255.4786312018286
 10
180.1920486226523
 20
255.4786312018286
 10
180.1920486226523
 20
255.4786312018286
 10
180.1496739202294
 20
255.4359119896299
 10
180.1496739202294
 20
255.4359119896299
 10
180.1496739202294
 20
255.4359119896299
 10
180.1283143141301
 20
255.4147246384184
 10
180.1283143141301
 20
255.4147246384184
 10
180.1283143141301
 20
255.4147246384184
 10
180.0225498129606
 20
255.4147246384184
 10
180.0225498129606
 20
255.4147246384184
 10
180.0225498129606
 20
255.4147246384184
 10
179.9591600142141
 20
255.4359119896299
 10
179.9591600142141
 20
255.4359119896299
 10
179.9591600142141
 20
255.4359119896299
 10
179.9167853117912
 20
255.4570993408414
 10
179.9167853117912
 20
255.4570993408414
 10
179.9167853117912
 20
255.4570993408414
 10
179.8957702154676
 20
255.4786312018286
 10
179.8957702154676
 20
255.4786312018286
 10
179.8957702154676
 20
255.4786312018286
 10
179.8744106093683
 20
255.4994740432643
 10
179.8744106093683
 20
255.4994740432643
 10
179.8744106093683
 20
255.4994740432643
 10
179.8744106093683
 20
255.6479577566324
 10
179.8744106093683
 20
255.6479577566324
 10
179.9608825630931
 20
255.7323626517025
 10
180.045631967939
 20
255.7085914771726
 10
180.1496739202294
 20
255.7115198102668
 10
180.1496739202294
 20
255.7115198102668
 10
180.170689016553
 20
255.6688005980681
 10
180.170689016553
 20
255.6688005980681
 10
180.170689016553
 20
255.6688005980681
 10
180.1920486226523
 20
255.6479577566324
 10
180.1920486226523
 20
255.6479577566324
 72
     1
 10
180.1920486226523
 20
255.6479577566324
 11
180.1920486226523
 21
255.6479577566324
 97
        0
 75
     0
 76
     1
 98
        0
450
        0
451
        0
460
0.0
461
0.0
452
        0
462
0.0
453
        0
470

  0
MTEXT
  5
454
330
2
100
AcDbEntity
  8
图框
100
AcDbMText
 10
689.6703861898896
 20
230.1751549572462
 30
0.0
 40
0.6000023545570477
 41
4.555173628074112
 46
1.3522221868162
 71
     5
 72
     5
  1
{\C4;CDSF-0.37}
  7
Romans字体
 73
     1
 44
1.0
1001
ACAD
1000
ACAD_MTEXT_DEFINED_HEIGHT_BEGIN
1070
    46
1040
1.3522221868162
1000
ACAD_MTEXT_DEFINED_HEIGHT_END
  0
MTEXT
  5
455
330
2
100
AcDbEntity
  8
图框
100
AcDbMText
 10
694.981390003018
 20
230.1751549572462
 30
0.0
 40
0.6000023545570477
 41
6.066833998183262
 46
1.352222186816343
 71
     5
 72
     5
  1
{\C4;1010171200301}
  7
Romans字体
 73
     1
 44
1.0
1001
ACAD
1000
ACAD_MTEXT_DEFINED_HEIGHT_BEGIN
1070
    46
1040
1.352222186816343
1000
ACAD_MTEXT_DEFINED_HEIGHT_END
  0
MTEXT
  5
456
330
2
100
AcDbEntity
  8
图框
100
AcDbMText
 10
694.981390003018
 20
228.8229327704297
 30
0.0
 40
0.6000023545570477
 41
6.066833998183262
 46
1.352222186816343
 71
     5
 72
     5
  1
{\C4;1010171200401}
  7
Romans字体
 73
     1
 44
1.0
1001
ACAD
1000
ACAD_MTEXT_DEFINED_HEIGHT_BEGIN
1070
    46
1040
1.352222186816343
1000
ACAD_MTEXT_DEFINED_HEIGHT_END
  0
MTEXT
  5
457
330
2
100
AcDbEntity
  8
图框
100
AcDbMText
 10
694.981390003018
 20
227.4707105836145
 30
0.0
 40
0.6000023545570477
 41
6.066833998183262
 46
1.352222186816343
 71
     5
 72
     5
  1
{\C4;1010171200601}
  7
Romans字体
 73
     1
 44
1.0
1001
ACAD
1000
ACAD_MTEXT_DEFINED_HEIGHT_BEGIN
1070
    46
1040
1.352222186816343
1000
ACAD_MTEXT_DEFINED_HEIGHT_END
  0
MTEXT
  5
458
330
2
100
AcDbEntity
  8
图框
100
AcDbMText
 10
694.981390003018
 20
226.1184883967993
 30
0.0
 40
0.6000023545570477
 41
6.066833998183262
 46
1.352222186816343
 71
     5
 72
     5
  1
{\C4;1010171200801}
  7
Romans字体
 73
     1
 44
1.0
1001
ACAD
1000
ACAD_MTEXT_DEFINED_HEIGHT_BEGIN
1070
    46
1040
1.352222186816343
1000
ACAD_MTEXT_DEFINED_HEIGHT_END
  0
MTEXT
  5
459
330
2
100
AcDbEntity
  8
图框
100
AcDbMText
 10
694.981390003018
 20
224.7662662099841
 30
0.0
 40
0.6000023545570477
 41
6.066833998183262
 46
1.352222186816343
 71
     5
 72
     5
  1
{\C4;1010171200901}
  7
Romans字体
 73
     1
 44
1.0
1001
ACAD
1000
ACAD_MTEXT_DEFINED_HEIGHT_BEGIN
1070
    46
1040
1.352222186816343
1000
ACAD_MTEXT_DEFINED_HEIGHT_END
  0
LINE
  5
45A
330
2
100
AcDbEntity
  8
图框
370
    -3
100
AcDbLine
 10
698.014807001443
 20
232.2034882374698
 30
0.0
 11
708.7840341728266
 21
232.2034882374698
 31
0.0
  0
LINE
  5
45B
330
2
100
AcDbEntity
  8
图框
370
    -3
100
AcDbLine
 10
687.3927993758524
 20
230.8512660506544
 30
0.0
 11
721.9114447305002
 21
230.8512660506553
 31
0.0
  0
LINE
  5
45C
330
2
100
AcDbEntity
  8
图框
370
    -3
100
AcDbLine
 10
687.3927993758524
 20
229.4990438638385
 30
0.0
 11
721.9114430483829
 21
229.4990438638385
 31
0.0
  0
MTEXT
  5
45D
330
2
100
AcDbEntity
  8
图框
100
AcDbMText
 10
705.3543102827095
 20
232.8795993309122
 30
0.0
 40
0.6000023545570477
 41
6.859684067146692
 46
1.352222186885061
 71
     5
 72
     5
  1
{\f仿宋_GB2312|b0|i0|c134|p49;\C4;线径\Fromans|c134;/Wire Gauge}
  7
Romans字体
 73
     1
 44
1.0
1001
ACAD
1000
ACAD_MTEXT_DEFINED_HEIGHT_BEGIN
1070
    46
1040
1.352222186885061
1000
ACAD_MTEXT_DEFINED_HEIGHT_END
  0
LINE
  5
45E
330
2
100
AcDbEntity
  8
图框
370
    -3
100
AcDbLine
 10
687.3927993758524
 20
228.1468216770234
 30
0.0
 11
721.9114413662655
 21
228.1468216770232
 31
0.0
  0
MTEXT
  5
45F
330
2
100
AcDbEntity
  8
图框
100
AcDbMText
 10
707.3090818338278
 20
231.527342110103
 30
0.0
 40
0.6000023545570477
 41
2.949904677997924
 46
1.352152118895874
 71
     5
 72
     5
  1
{\C4;AWG}
  7
Romans字体
 73
     1
 44
1.0
1001
ACAD
1000
ACAD_MTEXT_DEFINED_HEIGHT_BEGIN
1070
    46
1040
1.352152118895874
1000
ACAD_MTEXT_DEFINED_HEIGHT_END
  0
MTEXT
  5
460
330
2
100
AcDbEntity
  8
图框
100
AcDbMText
 10
703.8792988716493
 20
231.5273771440623
 30
0.0
 40
0.6000023545570477
 41
3.909661246359366
 46
1.352222186814757
 71
     5
 72
     5
  1
\A1;{\C4;mm\H0.7x;\S2^  ;}
  7
Romans字体
 73
     1
 44
1.0
1001
ACAD
1000
ACAD_MTEXT_DEFINED_HEIGHT_BEGIN
1070
    46
1040
1.352222186814757
1000
ACAD_MTEXT_DEFINED_HEIGHT_END
  0
MTEXT
  5
461
330
2
100
AcDbEntity
  8
图框
100
AcDbMText
 10
703.8792988719825
 20
230.1751549572466
 30
0.0
 40
0.6000023545570477
 41
3.909661247026225
 46
1.3522221868165
 71
     5
 72
     5
  1
{\C4;0.14-0.37}
  7
Romans字体
 73
     1
 44
1.0
1001
ACAD
1000
ACAD_MTEXT_DEFINED_HEIGHT_BEGIN
1070
    46
1040
1.3522221868165
1000
ACAD_MTEXT_DEFINED_HEIGHT_END
  0
MTEXT
  5
462
330
2
100
AcDbEntity
  8
图框
100
AcDbMText
 10
703.8792988719825
 20
228.8229327704308
 30
0.0
 40
0.6000023545570477
 41
3.909661247026225
 46
1.352222186815229
 71
     5
 72
     5
  1
{\C4;0.5}
  7
Romans字体
 73
     1
 44
1.0
1001
ACAD
1000
ACAD_MTEXT_DEFINED_HEIGHT_BEGIN
1070
    46
1040
1.352222186815229
1000
ACAD_MTEXT_DEFINED_HEIGHT_END
  0
MTEXT
  5
463
330
2
100
AcDbEntity
  8
图框
100
AcDbMText
 10
707.3090818341612
 20
230.1751549572467
 30
0.0
 40
0.6000023545570477
 41
2.949904678664851
 46
1.352222186816635
 71
     5
 72
     5
  1
{\C4;26-22}
  7
Romans字体
 73
     1
 44
1.0
1001
ACAD
1000
ACAD_MTEXT_DEFINED_HEIGHT_BEGIN
1070
    46
1040
1.352222186816635
1000
ACAD_MTEXT_DEFINED_HEIGHT_END
  0
MTEXT
  5
464
330
2
100
AcDbEntity
  8
图框
100
AcDbMText
 10
707.3090818344947
 20
228.8229327704308
 30
0.0
 40
0.6000023545570477
 41
2.949904677998123
 46
1.352222186815164
 71
     5
 72
     5
  1
{\C4;20}
  7
Romans字体
 73
     1
 44
1.0
1001
ACAD
1000
ACAD_MTEXT_DEFINED_HEIGHT_BEGIN
1070
    46
1040
1.352222186815164
1000
ACAD_MTEXT_DEFINED_HEIGHT_END
  0
MTEXT
  5
465
330
2
100
AcDbEntity
  8
图框
100
AcDbMText
 10
694.9813900023516
 20
232.203448201761
 30
0.0
 40
0.6000023545570477
 41
6.066833998183262
 46
2.704364302212839
 71
     5
 72
     5
  1
{\f仿宋_GB2312|b0|i0|c134|p49;\C4;产品料号\Fromans|c134;\PPart NO.}
  7
Romans字体
 73
     1
 44
1.0
1001
ACAD
1000
ACAD_MTEXT_DEFINED_HEIGHT_BEGIN
1070
    46
1040
2.704364302212839
1000
ACAD_MTEXT_DEFINED_HEIGHT_END
  0
MTEXT
  5
466
330
2
100
AcDbEntity
  8
图框
100
AcDbMText
 10
710.0004860356915
 20
232.2034482017612
 30
0.0
 40
0.6000023545570477
 41
2.432903725729715
 46
2.704364302212435
 71
     5
 72
     5
  1
{\C4;d}
  7
Romans字体
 73
     1
 44
1.0
1001
ACAD
1000
ACAD_MTEXT_DEFINED_HEIGHT_BEGIN
1070
    46
1040
2.704364302212435
1000
ACAD_MTEXT_DEFINED_HEIGHT_END
  0
MTEXT
  5
467
330
2
100
AcDbEntity
  8
图框
100
AcDbMText
 10
710.0004860356915
 20
230.1751549572467
 30
0.0
 40
0.6000023545570477
 41
2.43290372572948
 46
1.352222186816667
 71
     5
 72
     5
  1
{\C4;0.9}
  7
Romans字体
 73
     1
 44
1.0
1001
ACAD
1000
ACAD_MTEXT_DEFINED_HEIGHT_BEGIN
1070
    46
1040
1.352222186816667
1000
ACAD_MTEXT_DEFINED_HEIGHT_END
  0
MTEXT
  5
468
330
2
100
AcDbEntity
  8
图框
100
AcDbMText
 10
710.0004860356915
 20
228.8229327704307
 30
0.0
 40
0.6000023545570477
 41
2.432903725729469
 46
1.352222186815196
 71
     5
 72
     5
  1
{\C4;1.15}
  7
Romans字体
 73
     1
 44
1.0
1001
ACAD
1000
ACAD_MTEXT_DEFINED_HEIGHT_BEGIN
1070
    46
1040
1.352222186815196
1000
ACAD_MTEXT_DEFINED_HEIGHT_END
  0
LINE
  5
469
330
2
100
AcDbEntity
  8
图框
370
    35
100
AcDbLine
 10
687.3927993758524
 20
224.0872203856534
 30
0.0
 11
721.9114363162628
 21
224.0872203856542
 31
0.0
  0
MTEXT
  5
46A
330
2
100
AcDbEntity
  8
图框
100
AcDbMText
 10
712.4333897610878
 20
232.2034482017612
 30
0.0
 40
0.6000023545570477
 41
2.432903725062574
 46
2.704364302212435
 71
     5
 72
     5
  1
{\C4;D}
  7
Romans字体
 73
     1
 44
1.0
1001
ACAD
1000
ACAD_MTEXT_DEFINED_HEIGHT_BEGIN
1070
    46
1040
2.704364302212435
1000
ACAD_MTEXT_DEFINED_HEIGHT_END
  0
LINE
  5
46B
330
2
100
AcDbEntity
  8
图框
370
    -3
100
AcDbLine
 10
687.3927993758524
 20
222.7320634679176
 30
0.0
 11
721.9114346304942
 21
222.7320634679176
 31
0.0
  0
MTEXT
  5
46C
330
2
100
AcDbEntity
  8
图框
100
AcDbMText
 10
712.4333897610878
 20
230.1751549572467
 30
0.0
 40
0.6000023545570477
 41
2.432903725062594
 46
1.35222218681682
 71
     5
 72
     5
  1
{\C4;2.6}
  7
Romans字体
 73
     1
 44
1.0
1001
ACAD
1000
ACAD_MTEXT_DEFINED_HEIGHT_BEGIN
1070
    46
1040
1.35222218681682
1000
ACAD_MTEXT_DEFINED_HEIGHT_END
  0
LINE
  5
46D
330
2
100
AcDbEntity
  8
图框
370
    35
380
     1
100
AcDbLine
 10
713.6498416236189
 20
233.5557104243548
 30
0.0
 11
713.6498416236189
 21
222.7320634679176
 31
0.0
  0
LINE
  5
46E
330
2
100
AcDbEntity
  8
图框
370
    -3
100
AcDbLine
 10
708.784034173493
 20
233.5557104243548
 30
0.0
 11
708.7840341734943
 21
222.7320634679176
 31
0.0
  0
LINE
  5
46F
330
2
100
AcDbEntity
  8
图框
370
    -3
100
AcDbLine
 10
705.8341294954957
 20
232.2034982410381
 30
0.0
 11
705.8341294954956
 21
222.7320634679176
 31
0.0
  0
LINE
  5
470
330
2
100
AcDbEntity
  8
图框
370
    -3
100
AcDbLine
 10
691.9479730039267
 20
222.7320634679176
 30
0.0
 11
691.9479730039267
 21
230.8508728461799
 31
0.0
  0
LINE
  5
471
330
2
100
AcDbEntity
  8
图框
370
    -3
100
AcDbLine
 10
698.0148070021098
 20
222.7320634679176
 30
0.0
 11
698.0148070021098
 21
233.5557104243545
 31
0.0
  0
MTEXT
  5
472
330
2
100
AcDbEntity
  8
图框
100
AcDbMText
 10
703.8792988723161
 20
227.4707105836156
 30
0.0
 40
0.59999791584616
 41
3.909661246359378
 46
1.352222186815279
 71
     5
 72
     5
  1
{\C4;0.75}
  7
Romans字体
 73
     1
 44
1.0
1001
ACAD
1000
ACAD_MTEXT_DEFINED_HEIGHT_BEGIN
1070
    46
1040
1.352222186815279
1000
ACAD_MTEXT_DEFINED_HEIGHT_END
  0
MTEXT
  5
473
330
2
100
AcDbEntity
  8
图框
100
AcDbMText
 10
707.3090818344947
 20
227.4707105836156
 30
0.0
 40
0.59999791584616
 41
2.949904677998274
 46
1.35222218681521
 71
     5
 72
     5
  1
{\C4;18}
  7
Romans字体
 73
     1
 44
1.0
1001
ACAD
1000
ACAD_MTEXT_DEFINED_HEIGHT_BEGIN
1070
    46
1040
1.35222218681521
1000
ACAD_MTEXT_DEFINED_HEIGHT_END
  0
MTEXT
  5
474
330
2
100
AcDbEntity
  8
图框
100
AcDbMText
 10
710.0004860360249
 20
227.4707105836156
 30
0.0
 40
0.59999791584616
 41
2.432903725062625
 46
1.352222186815245
 71
     5
 72
     5
  1
{\C4;1.3}
  7
Romans字体
 73
     1
 44
1.0
1001
ACAD
1000
ACAD_MTEXT_DEFINED_HEIGHT_BEGIN
1070
    46
1040
1.352222186815245
1000
ACAD_MTEXT_DEFINED_HEIGHT_END
  0
MTEXT
  5
475
330
2
100
AcDbEntity
  8
图框
100
AcDbMText
 10
703.8792988723161
 20
226.1163123736756
 30
0.0
 40
0.59999791584616
 41
3.909661246359378
 46
1.347870140565607
 71
     5
 72
     5
  1
{\C4;1.0}
  7
Romans字体
 73
     1
 44
1.0
1001
ACAD
1000
ACAD_MTEXT_DEFINED_HEIGHT_BEGIN
1070
    46
1040
1.347870140565607
1000
ACAD_MTEXT_DEFINED_HEIGHT_END
  0
MTEXT
  5
476
330
2
100
AcDbEntity
  8
图框
100
AcDbMText
 10
707.3090818341612
 20
226.116272337932
 30
0.0
 40
0.59999791584616
 41
2.94990467733168
 46
1.347790069078369
 71
     5
 72
     5
  1
{\C4;18}
  7
Romans字体
 73
     1
 44
1.0
1001
ACAD
1000
ACAD_MTEXT_DEFINED_HEIGHT_BEGIN
1070
    46
1040
1.347790069078369
1000
ACAD_MTEXT_DEFINED_HEIGHT_END
  0
MTEXT
  5
477
330
2
100
AcDbEntity
  8
图框
100
AcDbMText
 10
710.000486035692
 20
226.1184883968002
 30
0.0
 40
0.59999791584616
 41
2.43290372572923
 46
1.352222186815245
 71
     5
 72
     5
  1
{\C4;1.45}
  7
Romans字体
 73
     1
 44
1.0
1001
ACAD
1000
ACAD_MTEXT_DEFINED_HEIGHT_BEGIN
1070
    46
1040
1.352222186815245
1000
ACAD_MTEXT_DEFINED_HEIGHT_END
  0
MTEXT
  5
478
330
2
100
AcDbEntity
  8
图框
100
AcDbMText
 10
712.4333897610878
 20
224.7647988445235
 30
0.0
 40
0.59999791584616
 41
2.432903725062594
 46
1.35515691773857
 71
     5
 72
     5
  1
{\C4;3.0}
  7
Romans字体
 73
     1
 44
1.0
1001
ACAD
1000
ACAD_MTEXT_DEFINED_HEIGHT_BEGIN
1070
    46
1040
1.35515691773857
1000
ACAD_MTEXT_DEFINED_HEIGHT_END
  0
LINE
  5
479
330
2
100
AcDbEntity
  8
图框
370
    -3
100
AcDbLine
 10
708.7840341728266
 20
233.5556303528675
 30
0.0
 11
708.7840341728273
 21
222.7320634679176
 31
0.0
  0
LINE
  5
47A
330
2
100
AcDbEntity
  8
图框
370
    -3
100
AcDbLine
 10
705.8341294948287
 20
232.2034181695508
 30
0.0
 11
705.8341294948287
 21
222.7320634679176
 31
0.0
  0
LINE
  5
47B
330
2
100
AcDbEntity
  8
图框
370
    -3
100
AcDbLine
 10
691.9479730032596
 20
222.7320634679176
 30
0.0
 11
691.9479730032596
 21
233.5556303528675
 31
0.0
  0
LINE
  5
47C
330
2
100
AcDbEntity
  8
图框
370
    -3
100
AcDbLine
 10
698.014807001443
 20
222.7320634679176
 30
0.0
 11
698.014807001443
 21
233.5556303528675
 31
0.0
  0
LINE
  5
47D
330
2
100
AcDbEntity
  8
图框
370
    35
380
     1
100
AcDbLine
 10
721.9114480946351
 20
233.5556303528676
 30
0.0
 11
721.9114346304944
 21
222.7320634679176
 31
0.0
  0
LINE
  5
47E
330
2
100
AcDbEntity
  8
图框
370
    -3
100
AcDbLine
 10
687.3927993758524
 20
226.794599490208
 30
0.0
 11
721.9114396841481
 21
226.7945994902079
 31
0.0
  0
LINE
  5
47F
330
2
100
AcDbEntity
  8
图框
370
    -3
100
AcDbLine
 10
687.3927993758524
 20
225.4423773033928
 30
0.0
 11
721.9114380020307
 21
225.4423773033927
 31
0.0
  0
MTEXT
  5
480
102
{ACAD_XDICTIONARY
360
9F2
102
}
330
2
100
AcDbEntity
  8
打标文字
 62
     3
100
AcDbMText
 10
738.3330075561882
 20
218.2472971792504
 30
0.0
 40
0.75
 41
21.56370451087032
 46
26.95590277395973
 71
     1
 72
     5
  3
\A1;{\f仿宋_GB2312|b0|i0|c134|p49;技术参数}:\P- {\f仿宋_GB2312|b0|i0|c134|p49;材料}: {\f仿宋_GB2312|b0|i0|c134|p49;铜合金}\P- {\f仿宋_GB2312|b0|i0|c134|p49;表面处理}: {\f仿宋_GB2312|b0|i0|c134|p49;镀银}\P- {\f仿宋_GB2312|b0|i0|c134|p49;额定电流}: 10A\P- {\f仿宋_GB2312|b0|i0|c134|p49
  3
;接触电阻}: ≤3mΩ\P- {\f仿宋_GB2312|b0|i0|c134|p49;线径范围}: 0.5mm{\H0.7x;\S2^ ;}(20 AWG)\P- {\f仿宋_GB2312|b0|i0|c134|p49;可插拔次数}: {\f仿宋_GB2312|b0|i0|c134|p49;≥}500\P\PTechnical specification:\P- Material: copper alloy\P- Surface: hard-silver plated\P- Rated curr
  1
ent: 10A\P- Contact resistance: ≤3mΩ\P- Wire gauge: 0.5mm{\H0.7x;\S2^ ;}(20 AWG)\P- Mating cycles: {\f仿宋_GB2312|b0|i0|c134|p49;≥}500
  7
Romans字体
 73
     1
 44
1.0
1001
ACAD
1000
ACAD_MTEXT_DEFINED_HEIGHT_BEGIN
1070
    46
1040
26.95590277395973
1000
ACAD_MTEXT_DEFINED_HEIGHT_END
  0
MTEXT
  5
481
330
2
100
AcDbEntity
  8
图框
100
AcDbMText
 10
689.6703861895564
 20
232.2034932392535
 30
0.0
 40
0.6000023545570477
 41
4.555173627407302
 46
2.704274227227899
 71
     5
 72
     5
  1
{\f仿宋_GB2312|b0|i0|c134|p49;\C4;产品代号\fFangSong_GB2312|b0|i0|c134|p49;\P\Fromans|c134;Part Code}
  7
Romans字体
 73
     1
 44
1.0
1001
ACAD
1000
ACAD_MTEXT_DEFINED_HEIGHT_BEGIN
1070
    46
1040
2.704274227227899
1000
ACAD_MTEXT_DEFINED_HEIGHT_END
  0
MTEXT
  5
482
330
2
100
AcDbEntity
  8
图框
100
AcDbMText
 10
699.9696376252898
 20
232.8795592951685
 30
0.0
 40
0.6000023545570477
 41
3.909661246359441
 46
1.352142115397727
 71
     5
 72
     5
  1
{\f仿宋_GB2312|b0|i0|c134|p49;\C4;重量\Fromans|c134;/Weight}
  7
Romans字体
 73
     1
 44
1.0
1001
ACAD
1000
ACAD_MTEXT_DEFINED_HEIGHT_BEGIN
1070
    46
1040
1.352142115397727
1000
ACAD_MTEXT_DEFINED_HEIGHT_END
  0
MTEXT
  5
483
330
2
100
AcDbEntity
  8
图框
100
AcDbMText
 10
699.9696376252898
 20
231.5273771440622
 30
0.0
 40
0.6000023545570477
 41
3.909661246359381
 46
1.352222186814969
 71
     5
 72
     5
  1
{\C4;g}
  7
Romans字体
 73
     1
 44
1.0
1001
ACAD
1000
ACAD_MTEXT_DEFINED_HEIGHT_BEGIN
1070
    46
1040
1.352222186814969
1000
ACAD_MTEXT_DEFINED_HEIGHT_END
  0
LINE
  5
484
330
2
100
AcDbEntity
  8
图框
370
    -3
100
AcDbLine
 10
701.9244682484695
 20
233.5556303528675
 30
0.0
 11
701.9244682484692
 21
222.7320634679176
 31
0.0
  0
MTEXT
  5
485
330
2
100
AcDbEntity
  8
图框
100
AcDbMText
 10
718.9970967216585
 20
232.2034482017612
 30
0.0
 40
0.6000023545570477
 41
5.828702745953783
 46
2.704364302212259
 71
     5
 72
     5
  1
{\f仿宋_GB2312|b0|i0|c134|p49;\C4;剥线长度\Fromans|c134;\PStripping Length}
  7
Romans字体
 73
     1
 44
1.0
1001
ACAD
1000
ACAD_MTEXT_DEFINED_HEIGHT_BEGIN
1070
    46
1040
2.704364302212259
1000
ACAD_MTEXT_DEFINED_HEIGHT_END
  0
LINE
  5
486
330
2
100
AcDbEntity
  8
图框
370
    35
380
     1
100
AcDbLine
 10
716.0827453486813
 20
233.5556303528675
 30
0.0
 11
716.0827453486813
 21
222.7320634679176
 31
0.0
  0
MTEXT
  5
487
330
2
100
AcDbEntity
  8
图框
100
AcDbMText
 10
718.9970967216585
 20
230.1751549572467
 30
0.0
 40
0.6000023545570477
 41
5.828702745953751
 46
1.35222218681682
 71
     5
 72
     5
  1
{\C4;8}
  7
Romans字体
 73
     1
 44
1.0
1001
ACAD
1000
ACAD_MTEXT_DEFINED_HEIGHT_BEGIN
1070
    46
1040
1.35222218681682
1000
ACAD_MTEXT_DEFINED_HEIGHT_END
  0
MTEXT
  5
488
330
2
100
AcDbEntity
  8
图框
100
AcDbMText
 10
699.9696376246228
 20
230.175074885759
 30
0.0
 40
0.6000023545570477
 41
3.90966124635945
 46
1.352222186816528
 71
     5
 72
     5
  1
{\C4;0.74}
  7
Romans字体
 73
     1
 44
1.0
1001
ACAD
1000
ACAD_MTEXT_DEFINED_HEIGHT_BEGIN
1070
    46
1040
1.352222186816528
1000
ACAD_MTEXT_DEFINED_HEIGHT_END
  0
MTEXT
  5
489
330
2
100
AcDbEntity
  8
图框
100
AcDbMText
 10
699.9696376246228
 20
228.8228526989425
 30
0.0
 40
0.6000023545570477
 41
3.90966124635945
 46
1.352222186816528
 71
     5
 72
     5
  1
{\C4;0.72}
  7
Romans字体
 73
     1
 44
1.0
1001
ACAD
1000
ACAD_MTEXT_DEFINED_HEIGHT_BEGIN
1070
    46
1040
1.352222186816528
1000
ACAD_MTEXT_DEFINED_HEIGHT_END
  0
MTEXT
  5
48A
330
2
100
AcDbEntity
  8
图框
100
AcDbMText
 10
699.9696376246228
 20
227.4706305121274
 30
0.0
 40
0.6000023545570477
 41
3.90966124635945
 46
1.352222186816528
 71
     5
 72
     5
  1
{\C4;0.70}
  7
Romans字体
 73
     1
 44
1.0
1001
ACAD
1000
ACAD_MTEXT_DEFINED_HEIGHT_BEGIN
1070
    46
1040
1.352222186816528
1000
ACAD_MTEXT_DEFINED_HEIGHT_END
  0
MTEXT
  5
48B
330
2
100
AcDbEntity
  8
图框
100
AcDbMText
 10
699.9696376246228
 20
226.1184083253121
 30
0.0
 40
0.6000023545570477
 41
3.90966124635945
 46
1.352222186816528
 71
     5
 72
     5
  1
{\C4;0.68}
  7
Romans字体
 73
     1
 44
1.0
1001
ACAD
1000
ACAD_MTEXT_DEFINED_HEIGHT_BEGIN
1070
    46
1040
1.352222186816528
1000
ACAD_MTEXT_DEFINED_HEIGHT_END
  0
MTEXT
  5
48C
330
2
100
AcDbEntity
  8
图框
100
AcDbMText
 10
699.9696376246228
 20
224.7661861384969
 30
0.0
 40
0.6000023545570477
 41
3.90966124635945
 46
1.352222186816528
 71
     5
 72
     5
  1
{\C4;0.67}
  7
Romans字体
 73
     1
 44
1.0
1001
ACAD
1000
ACAD_MTEXT_DEFINED_HEIGHT_BEGIN
1070
    46
1040
1.352222186816528
1000
ACAD_MTEXT_DEFINED_HEIGHT_END
  0
MTEXT
  5
48D
330
2
100
AcDbEntity
  8
图框
100
AcDbMText
 10
703.8792988719825
 20
224.7662662099843
 30
0.0
 40
0.6000023545570477
 41
3.909661247026225
 46
1.3522221868165
 71
     5
 72
     5
  1
{\C4;1.5}
  7
Romans字体
 73
     1
 44
1.0
1001
ACAD
1000
ACAD_MTEXT_DEFINED_HEIGHT_BEGIN
1070
    46
1040
1.3522221868165
1000
ACAD_MTEXT_DEFINED_HEIGHT_END
  0
MTEXT
  5
48E
330
2
100
AcDbEntity
  8
图框
100
AcDbMText
 10
707.309081833495
 20
224.7662662099843
 30
0.0
 40
0.6000023545570477
 41
2.949904678664851
 46
1.352222186816635
 71
     5
 72
     5
  1
{\C4;16}
  7
Romans字体
 73
     1
 44
1.0
1001
ACAD
1000
ACAD_MTEXT_DEFINED_HEIGHT_BEGIN
1070
    46
1040
1.352222186816635
1000
ACAD_MTEXT_DEFINED_HEIGHT_END
  0
MTEXT
  5
48F
330
2
100
AcDbEntity
  8
图框
100
AcDbMText
 10
710.0004860356915
 20
224.7662662099843
 30
0.0
 40
0.6000023545570477
 41
2.43290372572948
 46
1.352222186816667
 71
     5
 72
     5
  1
{\C4;1.75}
  7
Romans字体
 73
     1
 44
1.0
1001
ACAD
1000
ACAD_MTEXT_DEFINED_HEIGHT_BEGIN
1070
    46
1040
1.352222186816667
1000
ACAD_MTEXT_DEFINED_HEIGHT_END
  0
SPLINE
  5
490
330
2
100
AcDbEntity
  8
0
  6
Continuous
 62
     7
370
    25
100
AcDbSpline
210
0.0
220
0.0
230
1.0
 70
     8
 71
     3
 72
    16
 73
    12
 74
    10
 42
0.0000000001
 43
0.0000000001
 44
0.0000000001
 12
-0.0000000000000002
 22
-1.0
 32
0.0
 13
-0.9999991797217198
 23
-0.0012808418666015
 33
0.0
 40
0.0
 40
0.0
 40
0.0
 40
0.0
 40
0.1837973260043904
 40
0.3724269252312449
 40
0.5708033321909852
 40
0.7817124924429794
 40
1.005557426141459
 40
1.243713235427504
 40
1.499219056325767
 40
1.77060425271963
 40
1.896422136288536
 40
1.896422136288536
 40
1.896422136288536
 40
1.896422136288536
 10
729.9880528460744
 20
210.3880341878933
 30
0.0
 10
729.9880528460744
 20
210.3267684125585
 30
0.0
 10
729.9785883921597
 20
210.2024216621903
 30
0.0
 10
729.9350244925939
 20
210.0164510479943
 30
0.0
 10
729.8588842098683
 20
209.8312841623782
 30
0.0
 10
729.7463051387496
 20
209.6515092403093
 30
0.0
 10
729.5943028915822
 20
209.4848204799629
 30
0.0
 10
729.4012446133658
 20
209.3410139045924
 30
0.0
 10
729.1683981256262
 20
209.2325388324583
 30
0.0
 10
728.9539906739284
 20
209.1851136063406
 30
0.0
 10
728.8215607028956
 20
209.1781088420976
 30
0.0
 10
728.7796214427745
 20
209.1780551244933
 30
0.0
 11
729.9880528460744
 21
210.3880341878933
 31
0.0
 11
729.974093572494
 21
210.2047677268933
 31
0.0
 11
729.9310773796341
 21
210.0211084421938
 31
0.0
 11
729.8556273882941
 21
209.837640467754
 31
0.0
 11
729.7436864513943
 21
209.6588895222343
 31
0.0
 11
729.5928523969543
 21
209.493494110074
 31
0.0
 11
729.4018586641342
 21
209.3512282198538
 31
0.0
 11
729.1702409917339
 21
209.2433557101735
 31
0.0
 11
728.9052616436141
 21
209.1847394164337
 31
0.0
 11
728.7796214427745
 21
209.1780551244933
 31
0.0
  0
SPLINE
  5
491
330
2
100
AcDbEntity
  8
0
  6
Continuous
 62
     7
370
    25
100
AcDbSpline
210
0.0
220
0.0
230
1.0
 70
     8
 71
     3
 72
    16
 73
    12
 74
    10
 42
0.0000000001
 43
0.0000000001
 44
0.0000000001
 12
0.9999991660080638
 22
-0.0012915042302749
 32
0.0
 13
-0.0000000000000002
 23
-1.0
 33
0.0
 40
0.0
 40
0.0
 40
0.0
 40
0.0
 40
0.1258082619352742
 40
0.3970878058536154
 40
0.6525190475176358
 40
0.8906775483169056
 40
1.114555641980334
 40
1.325519830360291
 40
1.523968415581351
 40
1.712648308985674
 40
1.89640933728045
 40
1.89640933728045
 40
1.89640933728045
 40
1.89640933728045
 10
728.7796343612146
 20
211.598012898234
 30
0.0
 10
728.8215704135519
 20
211.5979587375998
 30
0.0
 10
728.9539619115984
 20
211.5909551288237
 30
0.0
 10
729.1683073225855
 20
211.5435528276857
 30
0.0
 10
729.4011113888261
 20
211.4351305247446
 30
0.0
 10
729.5941803204706
 20
211.2913598761721
 30
0.0
 10
729.7462252176837
 20
211.1246682645831
 30
0.0
 10
729.8588501100177
 20
210.9448579789098
 30
0.0
 10
729.9350209944866
 20
210.7596386942497
 30
0.0
 10
729.978589877411
 20
210.5736391510091
 30
0.0
 10
729.9880528460744
 20
210.4492878639916
 30
0.0
 10
729.9880528460744
 20
210.3880341878933
 30
0.0
 11
728.7796343612146
 21
211.598012898234
 31
0.0
 11
728.9052649100542
 21
211.5913282913337
 31
0.0
 11
729.1701435141543
 21
211.5327457338739
 31
0.0
 11
729.4017061041143
 21
211.4249316060934
 31
0.0
 11
729.5927227680546
 21
211.2826919997945
 31
0.0
 11
729.7436008584744
 21
211.1172918708537
 31
0.0
 11
729.8555879065344
 21
210.938504875114
 31
0.0
 11
729.9310730209939
 21
210.7549733016143
 31
0.0
 11
729.9740990360342
 21
210.5712646621745
 31
0.0
 11
729.9880528460744
 21
210.3880341878933
 31
0.0
  0
SPLINE
  5
492
330
2
100
AcDbEntity
  8
0
  6
Continuous
 62
     7
370
    25
100
AcDbSpline
210
0.0
220
0.0
230
1.0
 70
     8
 71
     3
 72
    15
 73
    11
 74
     9
 42
0.0000000001
 43
0.0000000001
 44
0.0000000001
 12
-0.0000000000000002
 22
-1.0
 32
0.0
 13
-0.9922863483362336
 23
-0.1239669427934035
 33
0.0
 40
0.0
 40
0.0
 40
0.0
 40
0.0
 40
0.1819871974439311
 40
0.3686827695589186
 40
0.5648610721779943
 40
0.773277059876925
 40
0.994372367819805
 40
1.229386155897142
 40
1.481186464943554
 40
1.747766615438217
 40
1.747766615438217
 40
1.747766615438217
 40
1.747766615438217
 10
729.2809460459143
 20
210.3880340253339
 30
0.0
 10
729.2809460459143
 20
210.3273716261859
 30
0.0
 10
729.2716697107274
 20
210.2042789174054
 30
0.0
 10
729.2289865037808
 20
210.0201601106931
 30
0.0
 10
729.154433008402
 20
209.8367626331167
 30
0.0
 10
729.0442502404511
 20
209.6584619382287
 30
0.0
 10
728.8955095621131
 20
209.4926580828485
 30
0.0
 10
728.7065655625373
 20
209.348791426736
 30
0.0
 10
728.4788172165247
 20
209.2389280095328
 30
0.0
 10
728.3091206622453
 20
209.1983832530287
 30
0.0
 10
728.2209460475542
 20
209.1873675442733
 30
0.0
 11
729.2809460459143
 21
210.3880340253339
 31
0.0
 11
729.2672603684344
 21
210.2065621479936
 31
0.0
 11
729.225103734434
 21
210.0246884147139
 31
0.0
 11
729.1512187640941
 21
209.8429552653537
 31
0.0
 11
729.0416558336142
 21
209.665661192714
 31
0.0
 11
728.8940084961941
 21
209.501090846214
 31
0.0
 11
728.7070305389345
 21
209.3587155531134
 31
0.0
 11
728.4802196742941
 21
209.2493527289138
 31
0.0
 11
728.2209460475542
 21
209.1873675442733
 31
0.0
  0
SPLINE
  5
493
330
2
100
AcDbEntity
  8
0
  6
Continuous
 62
     7
370
    25
100
AcDbSpline
210
0.0
220
0.0
230
1.0
 70
     8
 71
     3
 72
    15
 73
    11
 74
     9
 42
0.0000000001
 43
0.0000000001
 44
0.0000000001
 12
0.9922863484250722
 22
-0.1239669420822977
 32
0.0
 13
-0.0000000000000002
 23
-1.0
 33
0.0
 40
0.0
 40
0.0
 40
0.0
 40
0.0
 40
0.2665763167496847
 40
0.5183394526540086
 40
0.7533245956002369
 40
0.9744200222763943
 40
1.182859386246709
 40
1.379091892358307
 40
1.565822273808439
 40
1.747766730468241
 40
1.747766730468241
 40
1.747766730468241
 40
1.747766730468241
 10
728.2209460475542
 20
211.5887005089339
 30
0.0
 10
728.3091193941956
 20
211.5776849586609
 30
0.0
 10
728.4788025843107
 20
211.5371436684192
 30
0.0
 10
728.7065313896787
 20
211.4272948929418
 30
0.0
 10
728.8954641798036
 20
211.2834505168999
 30
0.0
 10
729.0442133044017
 20
211.1176565449455
 30
0.0
 10
729.1544184532078
 20
210.939338822229
 30
0.0
 10
729.228989229082
 20
210.7559072108146
 30
0.0
 10
729.2716721199334
 20
210.5717720988271
 30
0.0
 10
729.2809460459143
 20
210.4486821775538
 30
0.0
 10
729.2809460459143
 20
210.3880340253339
 30
0.0
 11
728.2209460475542
 21
211.5887005089339
 31
0.0
 11
728.4802160446345
 21
211.5267166298539
 31
0.0
 11
728.7069954615341
 21
211.4173741739136
 31
0.0
 11
728.8939571729545
 21
211.2750248294535
 31
0.0
 11
729.0416141039543
 21
211.1104629309933
 31
0.0
 11
729.1511978471941
 21
210.9331542406538
 31
0.0
 11
729.2251061220341
 21
210.751372054054
 31
0.0
 11
729.2672667971742
 21
210.5694635253143
 31
0.0
 11
729.2809460459143
 21
210.3880340253339
 31
0.0
  0
LINE
  5
494
330
2
100
AcDbEntity
  8
0
  6
Continuous
 62
     7
370
    25
100
AcDbLine
 10
730.6880528278344
 20
211.5980340259536
 30
0.0
 11
730.6880528278344
 21
209.1780340272538
 31
0.0
  0
HATCH
  5
495
330
2
100
AcDbEntity
  8
hat
100
AcDbHatch
 10
0.0
 20
0.0
 30
0.0
210
0.0
220
0.0
230
1.0
  2
ANSI31
 70
     0
 71
     1
 91
        3
 92
        5
 93
       13
 72
     1
 10
717.1880528278342
 20
211.2630340266041
 11
717.6932343133739
 21
210.388034026604
 72
     1
 10
717.6932343133739
 20
210.388034026604
 11
718.0165792369235
 21
210.388034026604
 72
     4
 94
        3
 73
     0
 74
     0
 95
       10
 96
        6
 40
0.0
 40
0.0
 40
0.0
 40
0.0
 40
0.2761455570497153
 40
0.8490834775038214
 40
1.519741873694243
 40
1.519741873694243
 40
1.519741873694243
 40
1.519741873694243
 10
718.0165792369229
 20
210.3880340266056
 10
717.9635567636857
 20
210.4750107158933
 10
717.8337515016854
 20
210.7434509814621
 10
718.4312546918131
 20
211.1987252198586
 10
717.9947040396126
 20
211.5003636162446
 10
717.7592768705691
 20
211.6630340266037
 72
     1
 10
717.7592768705691
 20
211.6630340266037
 11
715.6880528278349
 21
211.6630340266037
 72
     1
 10
715.6880528278349
 20
211.6630340266037
 11
715.6880528278342
 21
212.1380340279944
 72
     1
 10
715.6880528278342
 20
212.1380340279944
 11
714.1480528290744
 21
212.1380340279945
 72
     1
 10
714.1480528290744
 20
212.1380340279945
 11
714.1480528290744
 21
211.8880340266039
 72
     1
 10
714.1480528290744
 20
211.8880340266039
 11
710.1880528278344
 21
211.8880340266039
 72
     1
 10
710.1880528278344
 20
211.8880340266039
 11
710.1880528278349
 21
212.1380340254535
 72
     1
 10
710.1880528278349
 20
212.1380340254535
 11
709.1880528278343
 21
212.138034025454
 72
     1
 10
709.1880528278343
 20
212.138034025454
 11
709.1880528278342
 21
212.0412045487491
 72
     1
 10
709.1880528278342
 20
212.0412045487491
 11
710.5358837091414
 21
211.263034026604
 72
     1
 10
710.5358837091414
 20
211.263034026604
 11
717.1880528278342
 21
211.2630340266041
 97
       13
330
4CA
330
4C4
330
4C3
330
4C0
330
4C1
330
4B5
330
4C2
330
49C
330
49E
330
4BF
330
4B8
330
4C6
330
4B3
 92
        7
 72
     0
 73
     1
 93
       11
 10
714.1480528290744
 20
208.888034026604
 10
714.1480528290744
 20
208.6380340252134
 10
715.6880528278342
 20
208.6380340252134
 10
715.6880528278349
 20
209.113034026604
 10
716.2380528278347
 20
209.113034026604
 10
716.2380528278347
 20
209.513034026604
 10
710.5358837091412
 20
209.513034026604
 10
709.1880528278343
 20
208.7348635044589
 10
709.1880528278342
 20
208.6380340252134
 10
710.1880528278349
 20
208.6380340252134
 10
710.1880528278344
 20
208.888034026604
 97
       11
330
4B6
330
4BE
330
49E
330
497
330
4AD
330
4B4
330
49D
330
496
330
4AE
330
4B9
330
4A0
 92
        5
 93
        6
 72
     4
 94
        3
 73
     0
 74
     0
 95
       10
 96
        6
 40
1.519741873694243
 40
1.519741873694243
 40
1.519741873694243
 40
1.519741873694243
 40
1.9754783430883
 40
2.482919157517741
 40
2.933140830322216
 40
2.933140830322216
 40
2.933140830322216
 40
2.933140830322216
 10
718.1069859367847
 20
209.113034026604
 10
718.0067545101216
 20
209.2573622575871
 10
717.7949201721427
 20
209.5623930875363
 10
718.3480050659567
 20
209.9464492175265
 10
718.1030259168988
 20
210.2462291358643
 10
718.0165792369229
 20
210.3880340266056
 72
     1
 10
718.0165792369238
 20
210.388034026604
 11
717.6932343133743
 21
210.388034026604
 72
     1
 10
717.6932343133743
 20
210.388034026604
 11
717.1880528278343
 21
209.513034026604
 72
     1
 10
717.1880528278343
 20
209.513034026604
 11
717.1380528278341
 21
209.513034026604
 72
     1
 10
717.1380528278341
 20
209.513034026604
 11
717.1380528278342
 21
209.113034026604
 72
     1
 10
717.1380528278342
 20
209.113034026604
 11
718.1069859367847
 21
209.113034026604
 97
        6
330
4CA
330
4B3
330
4BD
330
4B7
330
4A1
330
4BA
 75
     0
 76
     1
 52
0.0
 41
0.1
 77
     0
 78
     1
 53
45.0
 43
3609.203292639192
 44
430.5255773026752
 45
-0.2245064030267288
 46
0.2245064030267288
 79
     0
 47
0.0111304559774793
 98
        3
 10
715.361759010338
 20
211.5180213677973
 10
711.8056975095591
 20
209.1560364812691
 10
717.7762442953706
 20
209.4342979683102
1001
ACAD
1010
0.0
1020
0.0
1030
0.0
  0
LINE
  5
496
102
{ACAD_REACTORS
330
495
102
}
330
2
100
AcDbEntity
  8
0
  6
Continuous
 62
     7
370
    25
100
AcDbLine
 10
714.1480528290744
 20
208.6380340252134
 30
0.0
 11
715.6880528278342
 21
208.6380340252134
 31
0.0
  0
LINE
  5
497
102
{ACAD_REACTORS
330
495
102
}
330
2
100
AcDbEntity
  8
0
  6
Continuous
 62
     7
370
    25
100
AcDbLine
 10
709.1880528278343
 20
208.6380340252134
 30
0.0
 11
710.1880528278344
 21
208.6380340252134
 31
0.0
  0
LINE
  5
498
330
2
100
AcDbEntity
  8
0
  6
Continuous
 62
     7
370
    25
100
AcDbLine
 10
720.6880528281747
 20
209.1780340272538
 30
0.0
 11
730.6880528278344
 21
209.1780340272538
 31
0.0
  0
LINE
  5
499
330
2
100
AcDbEntity
  8
0
  6
Continuous
 62
     7
370
    25
100
AcDbLine
 10
720.6880528281747
 20
211.5980340259536
 30
0.0
 11
720.6880528281747
 21
209.1780340272538
 31
0.0
  0
LINE
  5
49A
330
2
100
AcDbEntity
  8
0
  6
Continuous
 62
     7
370
    25
100
AcDbLine
 10
728.7796210770149
 20
209.1783416187135
 30
0.0
 11
728.6280528279545
 21
209.1873675442733
 31
0.0
  0
LINE
  5
49B
102
{ACAD_REACTORS
330
4A5
102
}
330
2
100
AcDbEntity
  8
0
  6
Continuous
 62
     7
370
    25
100
AcDbLine
 10
720.6880528281747
 20
211.5980340259536
 30
0.0
 11
730.6880528278344
 21
211.5980340259536
 31
0.0
  0
LINE
  5
49C
102
{ACAD_REACTORS
330
495
330
4A5
102
}
330
2
100
AcDbEntity
  8
0
  6
Continuous
 62
     7
370
    25
100
AcDbLine
 10
709.1880528278343
 20
212.138034025454
 30
0.0
 11
710.1880528278349
 21
212.1380340254535
 31
0.0
  0
LINE
  5
49D
102
{ACAD_REACTORS
330
495
102
}
330
2
100
AcDbEntity
  8
0
  6
Continuous
 62
     7
370
    25
100
AcDbLine
 10
714.1480528290744
 20
208.888034026604
 30
0.0
 11
714.1480528290744
 21
208.6381126585342
 31
0.0
  0
LINE
  5
49E
102
{ACAD_REACTORS
330
495
102
}
330
2
100
AcDbEntity
  8
0
  6
Continuous
 62
     7
370
    25
100
AcDbLine
 10
709.1880528278343
 20
212.1379553946738
 30
0.0
 11
709.1880528278343
 21
208.6381126585342
 31
0.0
  0
LINE
  5
49F
330
2
100
AcDbEntity
  8
0
  6
CENTER
 62
     1
 48
0.03
100
AcDbLine
 10
716.6880528278343
 20
209.8791044540742
 30
0.0
 11
716.6880528278343
 21
208.8328548047054
 31
0.0
  0
LINE
  5
4A0
102
{ACAD_REACTORS
330
495
102
}
330
2
100
AcDbEntity
  8
0
  6
Continuous
 62
     7
370
    25
100
AcDbLine
 10
716.2380528278347
 20
209.513034026604
 30
0.0
 11
716.2380528278347
 21
209.113034026604
 31
0.0
  0
LINE
  5
4A1
102
{ACAD_REACTORS
330
495
102
}
330
2
100
AcDbEntity
  8
0
  6
Continuous
 62
     7
370
    25
100
AcDbLine
 10
717.1380528278342
 20
209.513034026604
 30
0.0
 11
717.1380528278342
 21
209.1130340266039
 31
0.0
  0
LINE
  5
4A2
330
2
100
AcDbEntity
  8
0
  6
Continuous
 62
     7
370
    25
100
AcDbLine
 10
717.1880528278339
 20
210.388034026604
 30
0.0
 11
717.1880528278339
 21
209.513034026604
 31
0.0
  0
DIMENSION
  5
4A3
102
{ACAD_XDICTIONARY
360
4A4
102
}
102
{ACAD_REACTORS
330
4A5
102
}
330
2
100
AcDbEntity
  8
DIM
100
AcDbDimension
  2
*D6
 10
709.1880528278343
 20
216.5522626322435
 30
0.0
 11
719.9380528278346
 21
217.3522626322435
 31
0.0
 70
    32
 71
     5
 42
21.50000000000011
 73
     0
 74
     0
 75
     0
  3
01
100
AcDbAlignedDimension
 13
730.6880528278344
 23
211.5980340259536
 33
0.0
 14
709.1880528278343
 24
212.138034025454
 34
0.0
100
AcDbRotatedDimension
1001
ACAD
1000
DSTYLE
1002
{
1070
   147
1040
0.2
1070
   140
1040
1.199999999999999
1070
    41
1040
1.0
1070
    44
1040
0.2
1002
}
  0
LINE
  5
4A6
330
2
100
AcDbEntity
  8
0
  6
Continuous
 62
     7
370
    25
100
AcDbLine
 10
720.3380528281748
 20
209.232034027277
 30
0.0
 11
720.3380528281748
 21
210.0380340266041
 31
0.0
  0
LINE
  5
4A7
330
2
100
AcDbEntity
  8
0
  6
Continuous
 62
     7
370
    25
100
AcDbLine
 10
720.3380528281748
 20
210.7380340266039
 30
0.0
 11
720.3380528281748
 21
211.5440340259309
 31
0.0
  0
LINE
  5
4A8
330
2
100
AcDbEntity
  8
0
  6
Continuous
 62
     7
370
    25
100
AcDbLine
 10
718.6880528302147
 20
210.7380340266039
 30
0.0
 11
720.3380528281748
 21
210.7380340266039
 31
0.0
  0
LINE
  5
4A9
330
2
100
AcDbEntity
  8
0
  6
Continuous
 62
     7
370
    25
100
AcDbLine
 10
718.6880528302147
 20
210.0380340266041
 30
0.0
 11
720.3380528281748
 21
210.0380340266041
 31
0.0
  0
LINE
  5
4AA
330
2
100
AcDbEntity
  8
0
  6
Continuous
 62
     7
370
    25
100
AcDbLine
 10
718.6880528302147
 20
212.138034025454
 30
0.0
 11
720.3380528281748
 21
211.5440340259304
 31
0.0
  0
LINE
  5
4AB
330
2
100
AcDbEntity
  8
0
  6
Continuous
 62
     7
370
    25
100
AcDbLine
 10
718.6880528302147
 20
208.638034027754
 30
0.0
 11
720.3380528281748
 21
209.232034027277
 31
0.0
  0
LINE
  5
4AC
330
2
100
AcDbEntity
  8
0
  6
Continuous
 62
     7
370
    25
100
AcDbLine
 10
718.6880528302147
 20
208.638034027754
 30
0.0
 11
718.6880528302151
 21
212.1380340254536
 31
0.0
  0
LINE
  5
4AD
102
{ACAD_REACTORS
330
495
102
}
330
2
100
AcDbEntity
  8
0
  6
Continuous
 62
     7
370
    25
100
AcDbLine
 10
710.1880528278344
 20
208.888034026604
 30
0.0
 11
710.1880528278349
 21
208.6380340252129
 31
0.0
  0
LINE
  5
4AE
102
{ACAD_REACTORS
330
495
102
}
330
2
100
AcDbEntity
  8
0
  6
Continuous
 62
     7
370
    25
100
AcDbLine
 10
715.6880528278349
 20
209.113034026604
 30
0.0
 11
715.6880528278342
 21
208.6380340252134
 31
0.0
  0
ARC
  5
4AF
330
2
100
AcDbEntity
  8
0
  6
Continuous
 62
     7
370
    25
100
AcDbCircle
 10
716.6880528278343
 20
208.1773083010325
 30
0.0
 40
1.038307581353496
100
AcDbArc
 50
64.31662641441953
 51
115.6833735855804
  0
DIMENSION
  5
4B0
330
2
100
AcDbEntity
  8
DIM
100
AcDbDimension
  2
*D2
 10
717.1880528278343
 20
214.1461879969239
 30
0.0
 11
713.1880528278343
 21
214.946187996924
 31
0.0
 70
    32
  1
h
 71
     5
 42
8.0
 73
     0
 74
     0
 75
     0
  3
01
100
AcDbAlignedDimension
 13
709.1880528278343
 23
212.1379553946738
 33
0.0
 14
717.1880528278343
 24
211.2838712397887
 34
0.0
100
AcDbRotatedDimension
1001
ACAD
1000
DSTYLE
1002
{
1070
   147
1040
0.2
1070
   140
1040
1.199999999999999
1070
    41
1040
1.0
1070
    44
1040
0.2
1002
}
  0
DIMENSION
  5
4B1
330
2
100
AcDbEntity
  8
DIM
100
AcDbDimension
  2
*D3
 10
704.6520397918835
 20
208.638034027754
 30
0.0
 11
704.6520397918835
 21
214.750176882597
 31
0.0
 70
   160
  1
{\fISOCPEUR|b0|i0|c0|p34;%%C}<>
 71
     5
 42
3.499999997700001
 73
     0
 74
     0
 75
     0
  3
01
100
AcDbAlignedDimension
 13
709.1880528278343
 23
212.138034025454
 33
0.0
 14
709.1880528278343
 24
208.638034027754
 34
0.0
 50
270.0
100
AcDbRotatedDimension
1001
ACAD
1000
DSTYLE
1002
{
1070
   147
1040
0.2
1070
   140
1040
1.199999999999999
1070
    41
1040
1.0
1070
    44
1040
0.2
1002
}
  0
DIMENSION
  5
4B2
330
2
100
AcDbEntity
  8
DIM
100
AcDbDimension
  2
*D4
 10
707.1382029696733
 20
209.513034026604
 30
0.0
 11
707.1382029696733
 21
214.1894625980328
 31
0.0
 70
   160
  1
{\fISOCPEUR|b0|i0|c0|p34;%%C}d
 71
     5
 42
1.750000000000111
 73
     0
 74
     0
 75
     0
  3
01
100
AcDbAlignedDimension
 13
710.5358837091412
 23
211.2630340266041
 33
0.0
 14
710.5358837091412
 24
209.513034026604
 34
0.0
 50
270.0
100
AcDbRotatedDimension
1001
ACAD
1000
DSTYLE
1002
{
1070
   147
1040
0.2
1070
   140
1040
1.199999999999999
1070
    41
1040
1.0
1070
    44
1040
0.2
1002
}
  0
LINE
  5
4B3
102
{ACAD_REACTORS
330
495
102
}
330
2
100
AcDbEntity
  8
CEN
100
AcDbLine
 10
708.4197897950912
 20
210.388034026604
 30
0.0
 11
731.9479574810824
 21
210.388034026604
 31
0.0
  0
LINE
  5
4B4
102
{ACAD_REACTORS
330
495
102
}
330
2
100
AcDbEntity
  8
0
  6
Continuous
 62
     7
370
    25
100
AcDbLine
 10
710.1880528278344
 20
208.888034026604
 30
0.0
 11
714.1480528290744
 21
208.888034026604
 31
0.0
  0
LINE
  5
4B5
102
{ACAD_REACTORS
330
495
102
}
330
2
100
AcDbEntity
  8
0
  6
Continuous
 62
     7
370
    25
100
AcDbLine
 10
710.1880528278344
 20
211.8880340266039
 30
0.0
 11
714.1480528290744
 21
211.8880340266039
 31
0.0
  0
LINE
  5
4B6
102
{ACAD_REACTORS
330
495
102
}
330
2
100
AcDbEntity
  8
0
  6
Continuous
 62
     7
370
    25
100
AcDbLine
 10
710.5337778214052
 20
209.513034026604
 30
0.0
 11
716.2380528278347
 21
209.513034026604
 31
0.0
  0
LINE
  5
4B7
102
{ACAD_REACTORS
330
495
102
}
330
2
100
AcDbEntity
  8
0
  6
Continuous
 62
     7
370
    25
100
AcDbLine
 10
717.1380528278342
 20
209.513034026604
 30
0.0
 11
717.1880528278343
 21
209.513034026604
 31
0.0
  0
LINE
  5
4B8
102
{ACAD_REACTORS
330
495
102
}
330
2
100
AcDbEntity
  8
0
  6
Continuous
 62
     7
370
    25
100
AcDbLine
 10
710.5337778214058
 20
211.263034026604
 30
0.0
 11
717.1880528278343
 21
211.2630340266041
 31
0.0
  0
LINE
  5
4B9
102
{ACAD_REACTORS
330
495
102
}
330
2
100
AcDbEntity
  8
0
  6
Continuous
 62
     7
370
    25
100
AcDbLine
 10
715.6880528278349
 20
209.113034026604
 30
0.0
 11
716.2380528278347
 21
209.113034026604
 31
0.0
  0
LINE
  5
4BA
102
{ACAD_REACTORS
330
495
102
}
330
2
100
AcDbEntity
  8
0
  6
Continuous
 62
     7
370
    25
100
AcDbLine
 10
717.1380528278342
 20
209.113034026604
 30
0.0
 11
718.6880528302147
 21
209.113034026604
 31
0.0
  0
LINE
  5
4BB
330
2
100
AcDbEntity
  8
0
  6
Continuous
 62
     7
370
    25
100
AcDbLine
 10
720.3380528281748
 20
209.488034026604
 30
0.0
 11
720.6880528281741
 21
209.488034026604
 31
0.0
  0
LINE
  5
4BC
330
2
100
AcDbEntity
  8
0
  6
Continuous
 62
     7
370
    25
100
AcDbLine
 10
720.338052828175
 20
211.288034026604
 30
0.0
 11
720.688052828175
 21
211.288034026604
 31
0.0
  0
LINE
  5
4BD
102
{ACAD_REACTORS
330
495
102
}
330
2
100
AcDbEntity
  8
0
370
    25
100
AcDbLine
 10
717.6932343133744
 20
210.388034026604
 30
0.0
 11
717.1880528278343
 21
209.513034026604
 31
0.0
  0
LINE
  5
4BE
102
{ACAD_REACTORS
330
495
102
}
330
2
100
AcDbEntity
  8
0
  6
Continuous
 62
     7
370
    25
100
AcDbLine
 10
709.1894257041944
 20
208.7356561349949
 30
0.0
 11
710.5358837091412
 21
209.513034026604
 31
0.0
  0
LINE
  5
4BF
102
{ACAD_REACTORS
330
495
102
}
330
2
100
AcDbEntity
  8
0
  6
Continuous
 62
     7
370
    25
100
AcDbLine
 10
709.1894257041944
 20
212.0404119182131
 30
0.0
 11
710.5358837091412
 21
211.2630340266041
 31
0.0
  0
LINE
  5
4C0
102
{ACAD_REACTORS
330
495
102
}
330
2
100
AcDbEntity
  8
0
  6
Continuous
 62
     7
370
    25
100
AcDbLine
 10
714.1480528290744
 20
212.1380340279945
 30
0.0
 11
715.6880528278342
 21
212.1380340279944
 31
0.0
  0
LINE
  5
4C1
102
{ACAD_REACTORS
330
495
102
}
330
2
100
AcDbEntity
  8
0
  6
Continuous
 62
     7
370
    25
100
AcDbLine
 10
714.1480528290744
 20
211.8880340266039
 30
0.0
 11
714.1480528290744
 21
212.1379553946737
 31
0.0
  0
LINE
  5
4C2
102
{ACAD_REACTORS
330
495
102
}
330
2
100
AcDbEntity
  8
0
  6
Continuous
 62
     7
370
    25
100
AcDbLine
 10
710.1880528278344
 20
211.8880340266039
 30
0.0
 11
710.1880528278349
 21
212.1380340279951
 31
0.0
  0
LINE
  5
4C3
102
{ACAD_REACTORS
330
495
102
}
330
2
100
AcDbEntity
  8
0
  6
Continuous
 62
     7
370
    25
100
AcDbLine
 10
715.6880528278349
 20
211.6630340266037
 30
0.0
 11
715.6880528278342
 21
212.1380340279944
 31
0.0
  0
LINE
  5
4C4
102
{ACAD_REACTORS
330
495
102
}
330
2
100
AcDbEntity
  8
0
  6
Continuous
 62
     7
370
    25
100
AcDbLine
 10
715.6880528278349
 20
211.6630340266037
 30
0.0
 11
718.6880528302147
 21
211.6630340266037
 31
0.0
  0
LINE
  5
4C5
330
2
100
AcDbEntity
  8
0
  6
Continuous
 62
     7
370
    25
100
AcDbLine
 10
717.1880528278339
 20
210.388034026604
 30
0.0
 11
717.1880528278339
 21
211.2630340266041
 31
0.0
  0
LINE
  5
4C6
102
{ACAD_REACTORS
330
495
102
}
330
2
100
AcDbEntity
  8
0
370
    25
100
AcDbLine
 10
717.6932343133739
 20
210.388034026604
 30
0.0
 11
717.1880528278343
 21
211.263034026604
 31
0.0
  0
LINE
  5
4C7
330
2
100
AcDbEntity
  8
0
  6
Continuous
 62
     7
370
    25
100
AcDbLine
 10
710.5337778214058
 20
211.263034026604
 30
0.0
 11
710.5337778214052
 21
209.513034026604
 31
0.0
  0
DIMENSION
  5
4C8
330
2
100
AcDbEntity
  8
DIM
100
AcDbDimension
  2
*D5
 10
712.1680528284549
 20
208.888034026604
 30
0.0
 11
712.1680528284549
 21
206.4662294233404
 31
0.0
 70
   160
  1
{\fISOCPEUR|b0|i0|c0|p34;%%C}D
 71
     5
 42
2.999999999999885
 73
     0
 74
     0
 75
     0
  3
01
100
AcDbAlignedDimension
 13
712.1680528284549
 23
211.8880340266039
 33
0.0
 14
712.1680528284549
 24
208.888034026604
 34
0.0
 50
90.0
100
AcDbRotatedDimension
1001
ACAD
1000
DSTYLE
1002
{
1070
    44
1040
0.2
1070
   147
1040
0.2
1070
   140
1040
1.199999999999999
1070
    41
1040
1.0
1002
}
  0
ARC
  5
4C9
330
2
100
AcDbEntity
  8
0
  6
Continuous
 62
     7
370
    25
100
AcDbCircle
 10
716.6880528278343
 20
208.5773083010325
 30
0.0
 40
1.038307581353496
100
AcDbArc
 50
64.31662641441953
 51
115.6833735855804
  0
SPLINE
  5
4CA
102
{ACAD_REACTORS
330
495
102
}
330
2
100
AcDbEntity
  8
hat
100
AcDbSpline
210
0.0
220
0.0
230
1.0
 70
     8
 71
     3
 72
    12
 73
     8
 74
     6
 42
0.0000000001
 43
0.0000000001
 44
0.0000000001
 40
0.0
 40
0.0
 40
0.0
 40
0.0
 40
0.6706583961904223
 40
1.243596316644528
 40
1.969963546498718
 40
2.477404360928159
 40
2.933140830322216
 40
2.933140830322216
 40
2.933140830322216
 40
2.933140830322216
 10
717.7592768705691
 20
211.6630340266037
 30
0.0
 10
717.9947040396126
 20
211.5003636162446
 30
0.0
 10
718.4312546918131
 20
211.1987252198586
 30
0.0
 10
717.656741911819
 20
210.6085765447281
 30
0.0
 10
718.4560650976851
 20
210.0214849273359
 30
0.0
 10
717.7949201721427
 20
209.5623930875363
 30
0.0
 10
718.0067545101216
 20
209.2573622575871
 30
0.0
 10
718.1069859367847
 20
209.113034026604
 30
0.0
 11
717.7592768705691
 21
211.6630340266037
 31
0.0
 11
718.1963969143842
 21
211.154399824376
 31
0.0
 11
717.9281639815849
 21
210.6481301783807
 31
0.0
 11
718.1963969143842
 21
209.9731039223225
 31
0.0
 11
717.9380988257682
 21
209.5363221947215
 31
0.0
 11
718.1069859367847
 21
209.113034026604
 31
0.0
  0
SPLINE
  5
4CB
330
2
100
AcDbEntity
  8
0
  6
Continuous
 62
     7
370
    25
100
AcDbSpline
210
0.0
220
0.0
230
1.0
 70
     8
 71
     3
 72
    12
 73
     8
 74
     6
 42
0.0000000001
 43
0.0000000001
 44
0.0000000001
 12
0.6051282559960845
 22
0.7961280008862502
 32
0.0
 13
0.8526548681690409
 23
-0.5224745695128478
 33
0.0
 40
0.0
 40
0.0
 40
0.0
 40
0.0
 40
0.0051723733242142
 40
0.0753170065392613
 40
0.194075908330946
 40
0.367579543683087
 40
0.5915287742021956
 40
0.5915287742021956
 40
0.5915287742021956
 40
0.5915287742021956
 10
692.313309451059
 20
192.1371006848007
 30
0.0
 10
692.3143527674754
 20
192.1384733085455
 30
0.0
 10
692.3308473265121
 20
192.1576384253825
 30
0.0
 10
692.4046746872221
 20
192.1645105973193
 30
0.0
 10
692.5174016827038
 20
192.1299982645276
 30
0.0
 10
692.6760704859847
 20
192.0585979366503
 30
0.0
 10
692.7904199609498
 20
191.9922787194753
 30
0.0
 10
692.8540704281581
 20
191.9532761268726
 30
0.0
 11
692.313309451059
 21
192.1371006848007
 31
0.0
 11
692.3166756175556
 21
192.1410278172052
 31
0.0
 11
692.3843751741046
 21
192.1593864558243
 31
0.0
 11
692.5001957524187
 21
192.133132496242
 31
0.0
 11
692.659075438113
 21
192.063413367202
 31
0.0
 11
692.8540704281581
 21
191.9532761268726
 31
0.0
  0
SPLINE
  5
4CC
330
2
100
AcDbEntity
  8
0
  6
Continuous
 62
     7
370
    25
100
AcDbSpline
210
0.0
220
0.0
230
1.0
 70
     8
 71
     3
 72
    11
 73
     7
 74
     5
 42
0.0000000001
 43
0.0000000001
 44
0.0000000001
 12
0.5393574476510593
 22
0.8420769226521617
 32
0.0
 13
0.8526548691160817
 23
-0.5224745679673201
 33
0.0
 40
0.0
 40
0.0
 40
0.0
 40
0.0
 40
0.0096823576863545
 40
0.0638243234413488
 40
0.1600001766397262
 40
0.2969115803259572
 40
0.2969115803259572
 40
0.2969115803259572
 40
0.2969115803259572
 10
696.5789200604856
 20
195.9616879765303
 30
0.0
 10
696.580660811062
 20
195.9644057398518
 30
0.0
 10
696.595190557455
 20
195.9811286990289
 30
0.0
 10
696.6579477868826
 20
195.9666166161677
 30
0.0
 10
696.7408951611592
 20
195.9339138996388
 30
0.0
 10
696.8104890506593
 20
195.8939876893625
 30
0.0
 10
696.8494017756561
 20
195.8701434471989
 30
0.0
 11
696.5789200604856
 21
195.9616879765303
 31
0.0
 11
696.5853109733838
 21
195.9689615095573
 31
0.0
 11
696.6394434046153
 21
195.9699775532455
 31
0.0
 11
696.7295198590573
 21
195.9362725522278
 31
0.0
 11
696.8494017756561
 21
195.8701434471989
 31
0.0
  0
SPLINE
  5
4CD
330
2
100
AcDbEntity
  8
0
  6
Continuous
 62
     7
370
    25
100
AcDbSpline
210
0.0
220
0.0
230
1.0
 70
     8
 71
     3
 72
    18
 73
    14
 74
    12
 42
0.0000000001
 43
0.0000000001
 44
0.0000000001
 12
0.7217724596552382
 22
0.6921304186952251
 32
0.0
 13
-0.8526548684434704
 23
0.5224745690649914
 33
0.0
 40
0.0
 40
0.0
 40
0.0
 40
0.0
 40
0.0084009331472254
 40
0.06868590226319
 40
0.1725495518833568
 40
0.3226049704266889
 40
0.5136497968520645
 40
0.7371737123709064
 40
0.9826206573945109
 40
1.238170222977322
 40
1.491438079024256
 40
1.730166432950316
 40
1.94291571197562
 40
1.94291571197562
 40
1.94291571197562
 40
1.94291571197562
 10
694.3557065484768
 20
190.3974512326357
 30
0.0
 10
694.3577277358704
 20
190.3993894130945
 30
0.0
 10
694.3727086708766
 20
190.4173396916893
 30
0.0
 10
694.3592150252143
 20
190.4829128852531
 30
0.0
 10
694.3121578381379
 20
190.571599346197
 30
0.0
 10
694.224635117657
 20
190.6943607741888
 30
0.0
 10
694.1026704511549
 20
190.8368107672976
 30
0.0
 10
693.9501246180466
 20
190.9958546144501
 30
0.0
 10
693.774921390727
 20
191.1620639246454
 30
0.0
 10
693.5855327426783
 20
191.3275625517991
 30
0.0
 10
693.3914467982914
 20
191.4839452930913
 30
0.0
 10
693.2023629628462
 20
191.6234627590799
 30
0.0
 10
693.0768851734175
 20
191.7067398951624
 30
0.0
 10
693.0164179372446
 20
191.7437919244549
 30
0.0
 11
694.3557065484768
 21
190.3974512326357
 31
0.0
 11
694.3610878930602
 21
190.4039023417045
 31
0.0
 11
694.3610384906706
 21
190.4641872905783
 31
0.0
 11
694.3170820108407
 21
190.5582908802728
 31
0.0
 11
694.2314226200574
 21
190.6814943599511
 31
0.0
 11
694.1083556351027
 21
190.8276197955127
 31
0.0
 11
693.9540521481299
 21
190.9893398459607
 31
0.0
 11
693.7762495811047
 21
191.1585451945188
 31
0.0
 11
693.5838636975512
 21
191.3267511762166
 31
0.0
 11
693.3865415290251
 21
191.4855232415012
 31
0.0
 11
693.1941776331346
 21
191.6268998963141
 31
0.0
 11
693.0164179372446
 21
191.7437919244549
 31
0.0
  0
SPLINE
  5
4CE
330
2
100
AcDbEntity
  8
0
  6
Continuous
 62
     7
370
    25
100
AcDbSpline
210
0.0
220
0.0
230
1.0
 70
     8
 71
     3
 72
    11
 73
     7
 74
     5
 42
0.0000000001
 43
0.0000000001
 44
0.0000000001
 12
0.7217724585086961
 22
0.6921304198908704
 32
0.0
 13
0.8526548687111436
 23
-0.5224745686281606
 33
0.0
 40
0.0
 40
0.0
 40
0.0
 40
0.0
 40
0.0420637076604211
 40
0.1288662562836177
 40
0.2623426353714213
 40
0.4392063108465149
 40
0.4392063108465149
 40
0.4392063108465149
 40
0.4392063108465149
 10
692.6151371461078
 20
191.8797794539526
 30
0.0
 10
692.6252572880051
 20
191.8894839778343
 30
0.0
 10
692.6688692560018
 20
191.9054325792257
 30
0.0
 10
692.7555053352204
 20
191.8782111165836
 30
0.0
 10
692.8761450757455
 20
191.8270617715674
 30
0.0
 10
692.9661500459139
 20
191.7745941819715
 30
0.0
 10
693.0164179372446
 20
191.7437919244549
 30
0.0
 11
692.6151371461078
 21
191.8797794539526
 31
0.0
 11
692.6536159509374
 21
191.8967717192822
 31
0.0
 11
692.739186320411
 21
191.8821979649401
 31
0.0
 11
692.8621760546184
 21
191.8303378737911
 31
0.0
 11
693.0164179372446
 21
191.7437919244549
 31
0.0
  0
SPLINE
  5
4CF
330
2
100
AcDbEntity
  8
0
  6
Continuous
 62
     7
370
    25
100
AcDbSpline
210
0.0
220
0.0
230
1.0
 70
     8
 71
     3
 72
    16
 73
    12
 74
    10
 42
0.0000000001
 43
0.0000000001
 44
0.0000000001
 12
0.8526548685600523
 22
-0.5224745688747347
 32
0.0
 13
-0.2442363493916579
 23
-0.969715734447903
 33
0.0
 40
0.0
 40
0.0
 40
0.0
 40
0.0
 40
0.1300054093290888
 40
0.2787374393518316
 40
0.4531872599908828
 40
0.6582128736638585
 40
0.8949667916421898
 40
1.163261019193685
 40
1.462011228534598
 40
1.781144599892534
 40
2.097094650975846
 40
2.097094650975846
 40
2.097094650975846
 40
2.097094650975846
 10
702.0505047803879
 20
202.2693946354632
 30
0.0
 10
702.0874546954558
 20
202.246753128733
 30
0.0
 10
702.1606619640891
 20
202.1881187874347
 30
0.0
 10
702.2582379191829
 20
202.0718555084342
 30
0.0
 10
702.3483833829551
 20
201.9198224008606
 30
0.0
 10
702.4277306345791
 20
201.7297321549746
 30
0.0
 10
702.4915461143194
 20
201.5012417498402
 30
0.0
 10
702.5341904792529
 20
201.2361806676109
 30
0.0
 10
702.5491583076346
 20
200.94056354483
 30
0.0
 10
702.5303448623034
 20
200.629218413356
 30
0.0
 10
702.4926464260833
 20
200.4202243469206
 30
0.0
 10
702.4669242637277
 20
200.3180971016422
 30
0.0
 11
702.0505047803879
 21
202.2693946354632
 31
0.0
 11
702.1528738446367
 21
202.1892573710998
 31
0.0
 11
702.2496445710848
 21
202.0763120601861
 31
0.0
 11
702.3398049416401
 21
201.9269673331204
 31
0.0
 11
702.4199447317791
 21
201.7382529555588
 31
0.0
 11
702.4846253087416
 21
201.5105056380293
 31
0.0
 11
702.5279840446821
 21
201.2457381691909
 31
0.0
 11
702.5434641614488
 21
200.9473892902486
 31
0.0
 11
702.5239922211189
 21
200.6288505135603
 31
0.0
 11
702.4669242637277
 21
200.3180971016422
 31
0.0
  0
SPLINE
  5
4D0
330
2
100
AcDbEntity
  8
0
  6
Continuous
 62
     7
370
    25
100
AcDbSpline
210
0.0
220
0.0
230
1.0
 70
     8
 71
     3
 72
    20
 73
    16
 74
    14
 42
0.0000000001
 43
0.0000000001
 44
0.0000000001
 12
-0.8526548679476974
 22
0.5224745698740704
 32
0.0
 13
0.9118732870663986
 23
0.4104718118637642
 33
0.0
 40
0.0
 40
0.0
 40
0.0
 40
0.0
 40
0.2112752581482759
 40
0.4524447241414452
 40
0.7145773936549097
 40
0.9862435324955296
 40
1.255270707060141
 40
1.511886738447429
 40
1.749692769330009
 40
1.962420938485365
 40
2.142829259701379
 40
2.284666123300529
 40
2.385653261077649
 40
2.449653634659856
 40
2.495026364900113
 40
2.495026364900113
 40
2.495026364900113
 40
2.495026364900113
 10
691.2971534956683
 20
187.1027511572792
 30
0.0
 10
691.2371052032226
 20
187.1395464738212
 30
0.0
 10
691.1107720248128
 20
187.2220468654741
 30
0.0
 10
690.91701954756
 20
187.3606897822993
 30
0.0
 10
690.7126515033634
 20
187.518783458591
 30
0.0
 10
690.5066839777266
 20
187.6897199824669
 30
0.0
 10
690.3079289729165
 20
187.8662263173376
 30
0.0
 10
690.1235629582116
 20
188.041747229854
 30
0.0
 10
689.9591630438068
 20
188.2106828186902
 30
0.0
 10
689.81939487178
 20
188.3682048135199
 30
0.0
 10
689.7093814380951
 20
188.5080470959918
 30
0.0
 10
689.6312754371412
 20
188.6275477126808
 30
0.0
 10
689.5894635843703
 20
188.7179568391349
 30
0.0
 10
689.5756485033464
 20
188.7949838589546
 30
0.0
 10
689.6073312029244
 20
188.8217807488022
 30
0.0
 10
689.6211225964803
 20
188.8279888243992
 30
0.0
 11
691.2971534956683
 21
187.1027511572792
 31
0.0
 11
691.1199164141262
 21
187.2177479034595
 31
0.0
 11
690.923562339779
 21
187.3577757178917
 31
0.0
 11
690.7160870524194
 21
187.5179866462372
 31
0.0
 11
690.5069994013037
 21
187.6914364808969
 31
0.0
 11
690.3059078786717
 21
187.8701480367062
 31
0.0
 11
690.1202203597755
 21
188.0472692745382
 31
0.0
 11
689.9547085339293
 21
188.218025076282
 31
0.0
 11
689.8140632074995
 21
188.37762509541
 31
0.0
 11
689.7035802599616
 21
188.5202458536022
 31
0.0
 11
689.6277361710607
 21
188.6401014753078
 31
0.0
 11
689.5887872679073
 21
188.7332754252056
 31
0.0
 11
689.5877330581789
 21
188.7972671157639
 31
0.0
 11
689.6211225964803
 21
188.8279888243992
 31
0.0
  0
SPLINE
  5
4D1
330
2
100
AcDbEntity
  8
0
  6
Continuous
 62
     7
370
    25
100
AcDbSpline
210
0.0
220
0.0
230
1.0
 70
     8
 71
     3
 72
    12
 73
     8
 74
     6
 42
0.0000000001
 43
0.0000000001
 44
0.0000000001
 12
0.6051282559960845
 22
0.7961280008862502
 32
0.0
 13
0.8526548681690409
 23
-0.5224745695128478
 33
0.0
 40
0.0
 40
0.0
 40
0.0
 40
0.0
 40
0.0051723733245995
 40
0.075317004381932
 40
0.1940759083544958
 40
0.3675795437065111
 40
0.5915287742251215
 40
0.5915287742251215
 40
0.5915287742251215
 40
0.5915287742251215
 10
689.5297669035498
 20
188.8693452368853
 30
0.0
 10
689.5308102199662
 20
188.8707178606302
 30
0.0
 10
689.5473047785239
 20
188.8898829769242
 30
0.0
 10
689.6211321388417
 20
188.8967551496484
 30
0.0
 10
689.7338591346152
 20
188.8622428168864
 30
0.0
 10
689.8925279384371
 20
188.790842488748
 30
0.0
 10
690.0068774134406
 20
188.7245232715599
 30
0.0
 10
690.0705278806488
 20
188.6855206789573
 30
0.0
 11
689.5297669035498
 21
188.8693452368853
 31
0.0
 11
689.5331330700465
 21
188.8732723692901
 31
0.0
 11
689.6008326243599
 21
188.8916310079092
 31
0.0
 11
689.7166532049102
 21
188.865377048327
 31
0.0
 11
689.8755328906045
 21
188.7956579192873
 31
0.0
 11
690.0705278806488
 21
188.6855206789573
 31
0.0
  0
SPLINE
  5
4D2
330
2
100
AcDbEntity
  8
0
  6
Continuous
 62
     7
370
    25
100
AcDbSpline
210
0.0
220
0.0
230
1.0
 70
     8
 71
     3
 72
    18
 73
    14
 74
    12
 42
0.0000000001
 43
0.0000000001
 44
0.0000000001
 12
0.6051282550325159
 22
0.7961280016186484
 32
0.0
 13
-0.8526548684658536
 23
0.5224745690284628
 33
0.0
 40
0.0
 40
0.0
 40
0.0
 40
0.0
 40
0.0597307089791146
 40
0.1688230207861459
 40
0.3327081912158126
 40
0.5481765034639273
 40
0.8074492179565734
 40
1.100109116539511
 40
1.413992440241667
 40
1.735885701185166
 40
2.052187553853761
 40
2.349566978112323
 40
2.615623611216067
 40
2.615623611216067
 40
2.615623611216067
 40
2.615623611216067
 10
691.8739916960156
 20
186.8723745538726
 30
0.0
 10
691.8860399425811
 20
186.8882256505308
 30
0.0
 10
691.893312330049
 20
186.9499165820007
 30
0.0
 10
691.8456039865453
 20
187.051615131089
 30
0.0
 10
691.7598550232335
 20
187.1898449954946
 30
0.0
 10
691.6269347660474
 20
187.3568063621896
 30
0.0
 10
691.4559407322212
 20
187.5470504981765
 30
0.0
 10
691.2522267674606
 20
187.7516888683696
 30
0.0
 10
691.0250576196973
 20
187.9619521320194
 30
0.0
 10
690.784085616289
 20
188.168588695197
 30
0.0
 10
690.5398427502052
 20
188.3626272294522
 30
0.0
 10
690.3029787835238
 20
188.5356434368264
 30
0.0
 10
690.1461460418166
 20
188.6391847373846
 30
0.0
 10
690.0705278806488
 20
188.6855206789573
 30
0.0
 11
691.8739916960156
 21
186.8723745538726
 31
0.0
 11
691.8872452674759
 21
186.9306162952502
 31
0.0
 11
691.8520588228376
 21
187.0338783241336
 31
0.0
 11
691.7666040154399
 21
187.1737204672071
 31
0.0
 11
691.6346156275499
 21
187.3440309455848
 31
0.0
 11
691.461862187333
 21
187.5373663778615
 31
0.0
 11
691.2558938472256
 21
187.7452770777111
 31
0.0
 11
691.0257124147777
 21
187.9586763491591
 31
0.0
 11
690.7813779194484
 21
188.1682376190374
 31
0.0
 11
690.5335689532441
 21
188.3648020569971
 31
0.0
 11
690.2931159564785
 21
188.5397788506548
 31
0.0
 11
690.0705278806488
 21
188.6855206789573
 31
0.0
  0
SPLINE
  5
4D3
330
2
100
AcDbEntity
  8
0
  6
Continuous
 62
     7
370
    25
100
AcDbSpline
210
0.0
220
0.0
230
1.0
 70
     8
 71
     3
 72
    11
 73
     7
 74
     5
 42
0.0000000001
 43
0.0000000001
 44
0.0000000001
 12
0.7217724572110394
 22
0.6921304212441024
 32
0.0
 13
0.8526548683723632
 23
-0.522474569181035
 33
0.0
 40
0.0
 40
0.0
 40
0.0
 40
0.0
 40
0.0391516039228041
 40
0.1199447454218075
 40
0.2441804531517713
 40
0.4087997184675471
 40
0.4087997184675471
 40
0.4087997184675471
 40
0.4087997184675471
 10
696.3568471244967
 20
196.1503382016167
 30
0.0
 10
696.3662666409524
 20
196.1593708736552
 30
0.0
 10
696.4068593186758
 20
196.1742153409947
 30
0.0
 10
696.4874975151491
 20
196.1488784393658
 30
0.0
 10
696.599785274306
 20
196.1012702054816
 30
0.0
 10
696.6835591307028
 20
196.0524349869429
 30
0.0
 10
696.7303469367026
 20
196.0237651937013
 30
0.0
 11
696.3568471244967
 21
196.1503382016167
 31
0.0
 11
696.3926620112601
 21
196.1661540789509
 31
0.0
 11
696.4723082781805
 21
196.1525892760068
 31
0.0
 11
696.5867833398572
 21
196.1043194994454
 31
0.0
 11
696.7303469367026
 21
196.0237651937013
 31
0.0
  0
SPLINE
  5
4D4
330
2
100
AcDbEntity
  8
0
  6
Continuous
 62
     7
370
    25
100
AcDbSpline
210
0.0
220
0.0
230
1.0
 70
     8
 71
     3
 72
    13
 73
     9
 74
     7
 42
0.0000000001
 43
0.0000000001
 44
0.0000000001
 12
0.649287085276343
 22
0.7605434115771109
 32
0.0
 13
0.8526548681004754
 23
-0.5224745696247433
 33
0.0
 40
0.0
 40
0.0
 40
0.0
 40
0.0
 40
0.0230358935754228
 40
0.190639804638228
 40
0.3306754569845246
 40
0.4528282188880605
 40
0.5680202768656827
 40
0.6864573244635323
 40
0.6864573244635323
 40
0.6864573244635323
 40
0.6864573244635323
 10
701.4426946027675
 20
202.1221708315622
 30
0.0
 10
701.4476802388328
 20
202.128010763925
 30
0.0
 10
701.4895342799905
 20
202.1758061246657
 30
0.0
 10
701.5715010547291
 20
202.2512062651283
 30
0.0
 10
701.7001285285061
 20
202.318539835545
 30
0.0
 10
701.8261338361514
 20
202.3407287903501
 30
0.0
 10
701.9452656613649
 20
202.323273275798
 30
0.0
 10
702.0168428053219
 20
202.290021417287
 30
0.0
 10
702.0505047803879
 20
202.2693946354632
 30
0.0
 11
701.4426946027675
 21
202.1221708315622
 31
0.0
 11
701.457873937612
 21
202.1394982718375
 31
0.0
 11
701.5830281322096
 21
202.250976962977
 31
0.0
 11
701.7080695699076
 21
202.3140215724728
 31
0.0
 11
701.8285177341936
 21
202.334357180671
 31
0.0
 11
701.9425618649568
 21
202.3181353910168
 31
0.0
 11
702.0505047803879
 21
202.2693946354632
 31
0.0
  0
SPLINE
  5
4D5
330
2
100
AcDbEntity
  8
0
  6
Continuous
 62
     7
370
    25
100
AcDbSpline
210
0.0
220
0.0
230
1.0
 70
     8
 71
     3
 72
    19
 73
    15
 74
    13
 42
0.0000000001
 43
0.0000000001
 44
0.0000000001
 12
0.6125651864282588
 22
-0.7904200733635962
 32
0.0
 13
-0.8548840384026414
 23
0.5188191215485328
 33
0.0
 40
0.0
 40
0.0
 40
0.0
 40
0.0
 40
0.0714263725780822
 40
0.1498099424448836
 40
0.2387026748432999
 40
0.3395032223065893
 40
0.4473245647386771
 40
0.5565463091182025
 40
0.6575321160625025
 40
0.7488746171560392
 40
0.8284892195396791
 40
0.8978262736089183
 40
0.9580189980924169
 40
1.01550591288717
 40
1.01550591288717
 40
1.01550591288717
 40
1.01550591288717
 10
696.2008484707843
 20
193.0242719922933
 30
0.0
 10
696.2154329071957
 20
193.0054530460755
 30
0.0
 10
696.2382288056326
 20
192.9592919296124
 30
0.0
 10
696.2438487838047
 20
192.8783802029219
 30
0.0
 10
696.224007184402
 20
192.7903845365667
 30
0.0
 10
696.1835850331682
 20
192.6993774222163
 30
0.0
 10
696.1282240754925
 20
192.6088081693517
 30
0.0
 10
696.0647569649601
 20
192.5237468365087
 30
0.0
 10
695.9985225784333
 20
192.4480072682414
 30
0.0
 10
695.9331050857283
 20
192.385040463192
 30
0.0
 10
695.8688600423913
 20
192.3367412664747
 30
0.0
 10
695.8055231320228
 20
192.3059770530725
 30
0.0
 10
695.7419717797433
 20
192.2979385163837
 30
0.0
 10
695.7035548919226
 20
192.3117088865604
 30
0.0
 10
695.6871733432977
 20
192.3216506567719
 30
0.0
 11
696.2008484707843
 21
193.0242719922933
 31
0.0
 11
696.232789995115
 21
192.9603856422403
 31
0.0
 11
696.2400180798207
 21
192.8823360502071
 31
0.0
 11
696.2223120324287
 21
192.7952245483316
 31
0.0
 11
696.1826730358624
 21
192.702544991146
 31
0.0
 11
696.1271081789459
 21
192.6101437543593
 31
0.0
 11
696.0619736798013
 21
192.5224688636181
 31
0.0
 11
695.9952957392943
 21
192.4466257000901
 31
0.0
 11
695.9289757168927
 21
192.3838156122484
 31
0.0
 11
695.864602497812
 21
192.3369693362183
 31
0.0
 11
695.8013813946885
 21
192.3084962052551
 31
0.0
 11
695.7414637361132
 21
192.3027483124583
 31
0.0
 11
695.6871733432977
 21
192.3216506567719
 31
0.0
  0
SPLINE
  5
4D6
330
2
100
AcDbEntity
  8
0
  6
Continuous
 62
     7
370
    25
100
AcDbSpline
210
0.0
220
0.0
230
1.0
 70
     8
 71
     3
 72
    13
 73
     9
 74
     7
 42
0.0000000001
 43
0.0000000001
 44
0.0000000001
 12
-0.2090564587525931
 22
-0.9779035724721662
 32
0.0
 13
-0.852654865590636
 23
0.5224745737206879
 33
0.0
 40
0.0
 40
0.0
 40
0.0
 40
0.0
 40
0.0119480122795776
 40
0.0616138436425876
 40
0.1371942875080219
 40
0.2523734787141988
 40
0.4048338746398965
 40
0.586722535564046
 40
0.586722535564046
 40
0.586722535564046
 40
0.586722535564046
 10
691.819824646006
 20
186.9557805970681
 30
0.0
 10
691.8189920429606
 20
186.9518859291041
 30
0.0
 10
691.8124856983123
 20
186.9322031513908
 30
0.0
 10
691.771759975138
 20
186.9002436753804
 30
0.0
 10
691.6879876904657
 20
186.9139458350668
 30
0.0
 10
691.5807569911726
 20
186.9489819878098
 30
0.0
 10
691.4451926497219
 20
187.0154321268959
 30
0.0
 10
691.3488495795792
 20
187.0710737570855
 30
0.0
 10
691.2971534956683
 20
187.1027511572792
 30
0.0
 11
691.819824646006
 21
186.9557805970681
 31
0.0
 11
691.8160255436222
 21
186.9444526749943
 31
0.0
 11
691.7784366702607
 21
186.911990829631
 31
0.0
 11
691.7028634987757
 21
186.9130392792486
 31
0.0
 11
691.5929426615694
 21
186.9474435759972
 31
0.0
 11
691.4550002417978
 21
187.012374779231
 31
0.0
 11
691.2971534956683
 21
187.1027511572792
 31
0.0
  0
SPLINE
  5
4D7
330
2
100
AcDbEntity
  8
0
  6
Continuous
 62
     7
370
    25
100
AcDbSpline
210
0.0
220
0.0
230
1.0
 70
     8
 71
     3
 72
    10
 73
     6
 74
     4
 42
0.0000000001
 43
0.0000000001
 44
0.0000000001
 12
0.6477828279472411
 22
0.7618250506623387
 32
0.0
 13
0.6490941118240166
 23
0.7607081135332995
 33
0.0
 40
0.0
 40
0.0
 40
0.0
 40
0.0
 40
0.0278386519190262
 40
0.1110092336428864
 40
0.1417038272033579
 40
0.1417038272033579
 40
0.1417038272033579
 40
0.1417038272033579
 10
695.6475157722187
 20
192.6590092139558
 30
0.0
 10
695.6535269057742
 20
192.666078608092
 30
0.0
 10
695.6774636309038
 20
192.6942967137759
 30
0.0
 10
695.7080956746595
 20
192.7302521583353
 30
0.0
 10
695.7327612281424
 20
192.7590999847967
 30
0.0
 10
695.7394024547908
 20
192.7668831935844
 30
0.0
 11
695.6475157722187
 21
192.6590092139558
 31
0.0
 11
695.6655362831924
 21
192.6802283497751
 31
0.0
 11
695.719466793164
 21
192.7435437962198
 31
0.0
 11
695.7394024547908
 21
192.7668831935844
 31
0.0
  0
SPLINE
  5
4D8
330
2
100
AcDbEntity
  8
0
  6
Continuous
 62
     7
370
    25
100
AcDbSpline
210
0.0
220
0.0
230
1.0
 70
     8
 71
     3
 72
    16
 73
    12
 74
    10
 42
0.0000000001
 43
0.0000000001
 44
0.0000000001
 12
0.5393574466367496
 22
0.8420769233018358
 32
0.0
 13
-0.8526548685179356
 23
0.5224745689434673
 33
0.0
 40
0.0
 40
0.0
 40
0.0
 40
0.0
 40
0.0295293767700535
 40
0.1022704045388454
 40
0.217757501072842
 40
0.3709389053680752
 40
0.5524863638464435
 40
0.7506729492514226
 40
0.9524818876078917
 40
1.144622508971562
 40
1.314540150691071
 40
1.314540150691071
 40
1.314540150691071
 40
1.314540150691071
 10
697.7548426334019
 20
194.9592829290709
 30
0.0
 10
697.7601515964871
 20
194.9675715979834
 30
0.0
 10
697.7689993947349
 20
195.0029807743783
 30
0.0
 10
697.7288443764761
 20
195.069632372939
 30
0.0
 10
697.667131720896
 20
195.162200327062
 30
0.0
 10
697.5668982434264
 20
195.2758315952073
 30
0.0
 10
697.4427511338736
 20
195.4023423757871
 30
0.0
 10
697.2995315998698
 20
195.5333142426426
 30
0.0
 10
697.1479390728765
 20
195.6597664172761
 30
0.0
 10
696.9979365907043
 20
195.7731494897109
 30
0.0
 10
696.8976954771425
 20
195.8405508983278
 30
0.0
 10
696.8494017756561
 20
195.8701434471989
 30
0.0
 11
697.7548426334019
 21
194.9592829290709
 31
0.0
 11
697.762951089625
 21
194.9876772424119
 31
0.0
 11
697.7368292929496
 21
195.0555661874568
 31
0.0
 11
697.6718664839872
 21
195.1510497091638
 31
0.0
 11
697.5724897736227
 21
195.2676207692902
 31
0.0
 11
697.445471518337
 21
195.397335234575
 31
0.0
 11
697.2994678050627
 21
195.5313532868837
 31
0.0
 11
697.1444285416589
 21
195.6605418096084
 31
0.0
 11
696.9909194000619
 21
195.7760968260471
 31
0.0
 11
696.8494017756561
 21
195.8701434471989
 31
0.0
  0
SPLINE
  5
4D9
330
2
100
AcDbEntity
  8
0
  6
Continuous
 62
     7
370
    25
100
AcDbSpline
210
0.0
220
0.0
230
1.0
 70
     8
 71
     3
 72
    18
 73
    14
 74
    12
 42
0.0000000001
 43
0.0000000001
 44
0.0000000001
 12
0.7217724593546492
 22
0.6921304190086875
 32
0.0
 13
-0.8526548685302145
 23
0.5224745689234286
 33
0.0
 40
0.0
 40
0.0
 40
0.0
 40
0.0
 40
0.0078193271583496
 40
0.0639307227270012
 40
0.1606038116886763
 40
0.3002707783750095
 40
0.478089424706032
 40
0.6861386071119169
 40
0.9145930724337148
 40
1.152450744845215
 40
1.388184670660196
 40
1.610385678925342
 40
1.808406161809696
 40
1.808406161809696
 40
1.808406161809696
 40
1.808406161809696
 10
697.9769155693912
 20
194.7706327039845
 30
0.0
 10
697.9787968277223
 20
194.7724367020453
 30
0.0
 10
697.9927406206302
 20
194.7891442685062
 30
0.0
 10
697.9801811487168
 20
194.8501777792523
 30
0.0
 10
697.9363817697962
 20
194.9327244091958
 30
0.0
 10
697.8549183127371
 20
195.0469869686062
 30
0.0
 10
697.741397353375
 20
195.1795750381743
 30
0.0
 10
697.5994123874984
 20
195.3276081597266
 30
0.0
 10
697.4363386132012
 20
195.4823106705396
 30
0.0
 10
697.2600614869569
 20
195.6363516999696
 30
0.0
 10
697.0794122622282
 20
195.7819079444301
 30
0.0
 10
696.9034188442168
 20
195.9117665063466
 30
0.0
 10
696.786627979636
 20
195.9892783048903
 30
0.0
 10
696.7303469367026
 20
196.0237651937013
 30
0.0
 11
697.9769155693912
 21
194.7706327039845
 31
0.0
 11
697.9819243575453
 21
194.7766371955064
 31
0.0
 11
697.981878375011
 21
194.832748572234
 31
0.0
 11
697.9409650372804
 21
194.9203372982502
 31
0.0
 11
697.8612359114962
 21
195.035011306138
 31
0.0
 11
697.7466889479045
 21
195.1710203650823
 31
0.0
 11
697.603068011475
 21
195.3215444127254
 31
0.0
 11
697.4375748517839
 21
195.4790355452406
 31
0.0
 11
697.2585079908173
 21
195.6355964970408
 31
0.0
 11
697.0748465890785
 21
195.783376648927
 31
0.0
 11
696.8958001913675
 21
195.9149656892789
 31
0.0
 11
696.7303469367026
 21
196.0237651937013
 31
0.0
  0
SPLINE
  5
4DA
330
2
100
AcDbEntity
  8
0
  6
Continuous
 62
     7
370
    25
100
AcDbSpline
210
0.0
220
0.0
230
1.0
 70
     8
 71
     3
 72
    18
 73
    14
 74
    12
 42
0.0000000001
 43
0.0000000001
 44
0.0000000001
 12
0.6051282550325159
 22
0.7961280016186484
 32
0.0
 13
-0.8526548684658536
 23
0.5224745690284628
 33
0.0
 40
0.0
 40
0.0
 40
0.0
 40
0.0
 40
0.0597307067997528
 40
0.1688230200011084
 40
0.3327081896898945
 40
0.5481765019375733
 40
0.8074492164309646
 40
1.100109115013021
 40
1.413992438715172
 40
1.735885699657647
 40
2.052187552327897
 40
2.349566977901507
 40
2.61562360978053
 40
2.61562360978053
 40
2.61562360978053
 40
2.61562360978053
 10
694.6575342435237
 20
190.140130004023
 30
0.0
 10
694.6695824896496
 20
190.1559811001029
 30
0.0
 10
694.6768548771887
 20
190.2176720307925
 30
0.0
 10
694.6291465385954
 20
190.3193705815696
 30
0.0
 10
694.5433975686821
 20
190.457600442541
 30
0.0
 10
694.4104773142509
 20
190.6245618104927
 30
0.0
 10
694.2394832794985
 20
190.8148059459599
 30
0.0
 10
694.0357693150501
 20
191.0194443163392
 30
0.0
 10
693.808600167143
 20
191.2297075798607
 30
0.0
 10
693.5676281639717
 20
191.4363441433525
 30
0.0
 10
693.3233852967756
 20
191.6303826767984
 30
0.0
 10
693.0865213326296
 20
191.8033988878138
 30
0.0
 10
692.9296885889779
 20
191.9069401855132
 30
0.0
 10
692.8540704281581
 20
191.9532761268726
 30
0.0
 11
694.6575342435237
 21
190.140130004023
 31
0.0
 11
694.670787814985
 21
190.1983717431653
 31
0.0
 11
694.6356013725825
 21
190.3016337742836
 31
0.0
 11
694.5501465629486
 21
190.4414759151223
 31
0.0
 11
694.418158175059
 21
190.6117863934998
 31
0.0
 11
694.2454047348411
 21
190.8051218257766
 31
0.0
 11
694.0394363947348
 21
191.0130325256261
 31
0.0
 11
693.809254962287
 21
191.2264317970742
 31
0.0
 11
693.5649204669593
 21
191.4359930669528
 31
0.0
 11
693.3171115007532
 21
191.6325575049127
 31
0.0
 11
693.0766585039877
 21
191.8075343008057
 31
0.0
 11
692.8540704281581
 21
191.9532761268726
 31
0.0
  0
SPLINE
  5
4DB
330
2
100
AcDbEntity
  8
0
  6
Continuous
 62
     7
370
    25
100
AcDbSpline
210
0.0
220
0.0
230
1.0
 70
     8
 71
     3
 72
    10
 73
     6
 74
     4
 42
0.0000000001
 43
0.0000000001
 44
0.0000000001
 12
0.8732276254399817
 22
-0.4873125425929965
 32
0.0
 13
0.8978549919648306
 23
0.4402912824526893
 33
0.0
 40
0.0
 40
0.0
 40
0.0
 40
0.0
 40
0.0538038665193025
 40
0.1347013073015158
 40
0.1802759588556533
 40
0.1802759588556533
 40
0.1802759588556533
 40
0.1802759588556533
 10
695.6814147304807
 20
192.9599032436114
 30
0.0
 10
695.697075738014
 20
192.9511634772798
 30
0.0
 10
695.7373642880589
 20
192.9300296935275
 30
0.0
 10
695.7908389550603
 20
192.9093838367839
 30
0.0
 10
695.8364948131893
 20
192.8964697575885
 30
0.0
 10
695.8501346226576
 20
192.9031584648486
 30
0.0
 11
695.6814147304807
 21
192.9599032436114
 31
0.0
 11
695.7292076673567
 21
192.9351910758151
 31
0.0
 11
695.8046474510464
 21
192.9059808898869
 31
0.0
 11
695.8501346226576
 21
192.9031584648486
 31
0.0
  0
SPLINE
  5
4DC
330
2
100
AcDbEntity
  8
0
  6
Continuous
 62
     7
370
    25
100
AcDbSpline
210
0.0
220
0.0
230
1.0
 70
     8
 71
     3
 72
    11
 73
     7
 74
     5
 42
0.0000000001
 43
0.0000000001
 44
0.0000000001
 12
0.7217724598642607
 22
0.6921304184772508
 32
0.0
 13
0.8526548693793223
 23
-0.5224745675377233
 33
0.0
 40
0.0
 40
0.0
 40
0.0
 40
0.0
 40
0.0410930054339037
 40
0.1258924183482593
 40
0.2562885725670504
 40
0.4290707772586986
 40
0.4290707772586986
 40
0.4290707772586986
 40
0.4290707772586986
 10
695.1942839508205
 20
194.866902450586
 30
0.0
 10
695.2041705506921
 20
194.8763830236018
 30
0.0
 10
695.246776088503
 20
194.8919635794342
 30
0.0
 10
695.3314128727607
 20
194.8653703047589
 30
0.0
 10
695.4492686179316
 20
194.8154013276406
 30
0.0
 10
695.5371965506882
 20
194.7641445308409
 30
0.0
 10
695.5863044134123
 20
194.7340530949494
 30
0.0
 11
695.1942839508205
 21
194.866902450586
 31
0.0
 11
695.2318747822182
 21
194.8835025858389
 31
0.0
 11
695.31547045084
 21
194.8692651486294
 31
0.0
 11
695.4356219593809
 21
194.8186018282644
 31
0.0
 11
695.5863044134123
 21
194.7340530949494
 31
0.0
  0
SPLINE
  5
4DD
330
2
100
AcDbEntity
  8
0
  6
Continuous
 62
     7
370
    25
100
AcDbSpline
210
0.0
220
0.0
230
1.0
 70
     8
 71
     3
 72
    12
 73
     8
 74
     6
 42
0.0000000001
 43
0.0000000001
 44
0.0000000001
 12
0.6051282559960845
 22
0.7961280008862502
 32
0.0
 13
0.8526548681690409
 23
-0.5224745695128478
 33
0.0
 40
0.0
 40
0.0
 40
0.0
 40
0.0
 40
0.0051723733234774
 40
0.0753170037957442
 40
0.1940759050947617
 40
0.3675795424935779
 40
0.591528774112536
 40
0.591528774112536
 40
0.591528774112536
 40
0.591528774112536
 10
693.1943904599379
 20
193.1714506965638
 30
0.0
 10
693.195433776354
 20
193.1728233203084
 30
0.0
 10
693.2119283347609
 20
193.1919884365187
 30
0.0
 10
693.2857556948215
 20
193.1988606051147
 30
0.0
 10
693.3984826900975
 20
193.1643482774959
 30
0.0
 10
693.5571514950896
 20
193.0929479488559
 30
0.0
 10
693.6715009695159
 20
193.0266287291946
 30
0.0
 10
693.7351514370369
 20
192.9876261364003
 30
0.0
 11
693.1943904599379
 21
193.1714506965638
 31
0.0
 11
693.1977566264331
 21
193.1753778289685
 31
0.0
 11
693.2654561807463
 21
193.1937364653526
 31
0.0
 11
693.381276759062
 21
193.1674825080054
 31
0.0
 11
693.5401564469914
 21
193.0977633789657
 31
0.0
 11
693.7351514370369
 21
192.9876261364003
 31
0.0
  0
SPLINE
  5
4DE
330
2
100
AcDbEntity
  8
0
  6
Continuous
 62
     7
370
    25
100
AcDbSpline
210
0.0
220
0.0
230
1.0
 70
     8
 71
     3
 72
    16
 73
    12
 74
    10
 42
0.0000000001
 43
0.0000000001
 44
0.0000000001
 12
0.8526548683005438
 22
-0.5224745692982408
 32
0.0
 13
-0.2779604537810687
 23
-0.9605925182583
 33
0.0
 40
0.0
 40
0.0
 40
0.0
 40
0.0
 40
0.0927243800650101
 40
0.199614454604632
 40
0.3253965190953558
 40
0.4723667234457545
 40
0.6404577885870732
 40
0.8287675940054645
 40
1.036595658096043
 40
1.260012533524677
 40
1.482625266499657
 40
1.482625266499657
 40
1.482625266499657
 40
1.482625266499657
 10
701.9733409154132
 20
201.8365228462936
 30
0.0
 10
701.9996948801041
 20
201.8203741361143
 30
0.0
 10
702.0519196760854
 20
201.7780533043032
 30
0.0
 10
702.1209473659048
 20
201.6936783791213
 30
0.0
 10
702.1839298856958
 20
201.5833300856839
 30
0.0
 10
702.2381622142388
 20
201.4463042847896
 30
0.0
 10
702.2802679762878
 20
201.2834818701124
 30
0.0
 10
702.3065549622871
 20
201.0968696066719
 30
0.0
 10
702.3128532975345
 20
200.8900172835037
 30
0.0
 10
702.2947673063969
 20
200.6723441781304
 30
0.0
 10
702.2640841764064
 20
200.5263085935512
 30
0.0
 10
702.2434583309814
 20
200.4550285516296
 30
0.0
 11
701.9733409154132
 21
201.8365228462936
 31
0.0
 11
702.0460817085139
 21
201.7790199100423
 31
0.0
 11
702.1146693636667
 21
201.6970368532822
 31
0.0
 11
702.1779274995841
 21
201.5883191638853
 31
0.0
 11
702.232864640815
 21
201.4520027984695
 31
0.0
 11
702.2756388317202
 21
201.2894451939942
 31
0.0
 11
702.3023851611583
 21
201.1030445054807
 31
0.0
 11
702.3089062230467
 21
200.8953187729017
 31
0.0
 11
702.2901420722083
 21
200.6726912659094
 31
0.0
 11
702.2434583309814
 21
200.4550285516296
 31
0.0
  0
SPLINE
  5
4DF
330
2
100
AcDbEntity
  8
0
  6
Continuous
 62
     7
370
    25
100
AcDbSpline
210
0.0
220
0.0
230
1.0
 70
     8
 71
     3
 72
    12
 73
     8
 74
     6
 42
0.0000000001
 43
0.0000000001
 44
0.0000000001
 12
0.6051282559960845
 22
0.7961280008862502
 32
0.0
 13
0.8526548681690409
 23
-0.5224745695128478
 33
0.0
 40
0.0
 40
0.0
 40
0.0
 40
0.0
 40
0.0051723750208503
 40
0.0753170054928753
 40
0.1940759089719038
 40
0.3675795443239292
 40
0.591528775941308
 40
0.591528775941308
 40
0.591528775941308
 40
0.591528775941308
 10
690.0629050931525
 20
189.4952258151447
 30
0.0
 10
690.063948409911
 20
189.4965984393397
 30
0.0
 10
690.0804429600559
 20
189.5157635634495
 30
0.0
 10
690.1542703343061
 20
189.5226357211452
 30
0.0
 10
690.266997321693
 20
189.4881234015461
 30
0.0
 10
690.425666129853
 20
189.4167230678239
 30
0.0
 10
690.5400156027297
 20
189.3504038500108
 30
0.0
 10
690.6036660702502
 20
189.3114012572168
 30
0.0
 11
690.0629050931525
 21
189.4952258151447
 31
0.0
 11
690.0662712596481
 21
189.4991529497846
 31
0.0
 11
690.1339708139611
 21
189.5175115861686
 31
0.0
 11
690.249791394512
 21
189.4912576288214
 31
0.0
 11
690.4086710802062
 21
189.4215384997814
 31
0.0
 11
690.6036660702502
 21
189.3114012572168
 31
0.0
  0
SPLINE
  5
4E0
330
2
100
AcDbEntity
  8
0
  6
Continuous
 62
     7
370
    25
100
AcDbSpline
210
0.0
220
0.0
230
1.0
 70
     8
 71
     3
 72
    13
 73
     9
 74
     7
 42
0.0000000001
 43
0.0000000001
 44
0.0000000001
 12
0.6494678921309987
 22
0.7603890169452196
 32
0.0
 13
0.8526548693411005
 23
-0.5224745676000996
 33
0.0
 40
0.0
 40
0.0
 40
0.0
 40
0.0
 40
0.0318725265921144
 40
0.1964314585492165
 40
0.334303634084037
 40
0.4549656754778458
 40
0.5690123307197147
 40
0.6863238372002046
 40
0.6863238372002046
 40
0.6863238372002046
 40
0.6863238372002046
 10
701.0459892190913
 20
201.65646101734
 30
0.0
 10
701.0528892799789
 20
201.6645395237277
 30
0.0
 10
701.0962674756236
 20
201.7135644023269
 30
0.0
 10
701.1799405906359
 20
201.7888850361587
 30
0.0
 10
701.3072234420501
 20
201.853862301053
 30
0.0
 10
701.4317589141263
 20
201.8747589443051
 30
0.0
 10
701.5495108928231
 20
201.8569645738785
 30
0.0
 10
701.620335817731
 20
201.8239680531114
 30
0.0
 10
701.6536778934744
 20
201.8035372935704
 30
0.0
 11
701.0459892190913
 21
201.65646101734
 31
0.0
 11
701.0671185289279
 21
201.6803233352742
 31
0.0
 11
701.1911461067302
 21
201.7884750899126
 31
0.0
 11
701.3148575378427
 21
201.8493373820055
 31
0.0
 11
701.433985783
 21
201.8685152191897
 31
0.0
 11
701.5468234891507
 21
201.8519534667912
 31
0.0
 11
701.6536778934744
 21
201.8035372935704
 31
0.0
  0
SPLINE
  5
4E1
330
2
100
AcDbEntity
  8
0
  6
Continuous
 62
     7
370
    25
100
AcDbSpline
210
0.0
220
0.0
230
1.0
 70
     8
 71
     3
 72
    11
 73
     7
 74
     5
 42
0.0000000001
 43
0.0000000001
 44
0.0000000001
 12
0.7217724572110394
 22
0.6921304212441024
 32
0.0
 13
0.8526548683723632
 23
-0.522474569181035
 33
0.0
 40
0.0
 40
0.0
 40
0.0
 40
0.0
 40
0.0391516039226542
 40
0.1199447454219747
 40
0.2441804531520874
 40
0.4087997184679625
 40
0.4087997184679625
 40
0.4087997184679625
 40
0.4087997184679625
 10
702.0698437240834
 20
202.8571427307801
 30
0.0
 10
702.079263240539
 20
202.8661754028186
 30
0.0
 10
702.1198559182628
 20
202.881019870158
 30
0.0
 10
702.200494114736
 20
202.8556829685294
 30
0.0
 10
702.3127818738929
 20
202.8080747346448
 30
0.0
 10
702.3965557302901
 20
202.7592395161062
 30
0.0
 10
702.4433435362898
 20
202.7305697228646
 30
0.0
 11
702.0698437240834
 21
202.8571427307801
 31
0.0
 11
702.1056586108467
 21
202.8729586081142
 31
0.0
 11
702.1853048777675
 21
202.8593938051702
 31
0.0
 11
702.2997799394443
 21
202.8111240286087
 31
0.0
 11
702.4433435362898
 21
202.7305697228646
 31
0.0
  0
SPLINE
  5
4E2
330
2
100
AcDbEntity
  8
0
  6
Continuous
 62
     7
370
    25
100
AcDbSpline
210
0.0
220
0.0
230
1.0
 70
     8
 71
     3
 72
    18
 73
    14
 74
    12
 42
0.0000000001
 43
0.0000000001
 44
0.0000000001
 12
0.7217724595681272
 22
0.6921304187860669
 32
0.0
 13
-0.8526548686458449
 23
0.522474568734725
 33
0.0
 40
0.0
 40
0.0
 40
0.0
 40
0.0
 40
0.0082070639121934
 40
0.0671008418473535
 40
0.1685676362929375
 40
0.3151602381630024
 40
0.5017963378904018
 40
0.7201620101166281
 40
0.9599447936721549
 40
1.20959706216302
 40
1.457020275619271
 40
1.690239514925674
 40
1.898079195450836
 40
1.898079195450836
 40
1.898079195450836
 40
1.898079195450836
 10
696.8946863666205
 20
193.4187818038308
 30
0.0
 10
696.8966609108557
 20
193.4206752566916
 30
0.0
 10
696.9112961333943
 20
193.4382112964142
 30
0.0
 10
696.8981138724235
 20
193.5022712633406
 30
0.0
 10
696.8521426282799
 20
193.5889111137163
 30
0.0
 10
696.7666396599659
 20
193.708839585649
 30
0.0
 10
696.6474895628529
 20
193.8480022709379
 30
0.0
 10
696.4984640198978
 20
194.003375877379
 30
0.0
 10
696.3273039432029
 20
194.165749587433
 30
0.0
 10
696.142285800315
 20
194.3274290128151
 30
0.0
 10
695.9526787647478
 20
194.4802029256856
 30
0.0
 10
695.7679584005668
 20
194.6165007564034
 30
0.0
 10
695.6453762519116
 20
194.6978561124666
 30
0.0
 10
695.5863044134123
 20
194.7340530949494
 30
0.0
 11
696.8946863666205
 21
193.4187818038308
 31
0.0
 11
696.8999435257273
 21
193.4250840396392
 31
0.0
 11
696.8998952610538
 21
193.4839777977974
 31
0.0
 11
696.8569531641601
 21
193.5759097655205
 31
0.0
 11
696.773270528376
 21
193.6962700886808
 31
0.0
 11
696.6530435505417
 21
193.839023398703
 31
0.0
 11
696.5023009137499
 21
193.9970114497064
 31
0.0
 11
696.3286014832482
 21
194.1623120580932
 31
0.0
 11
696.1406552723997
 21
194.3266363624134
 31
0.0
 11
695.9478866935487
 21
194.4817444588004
 31
0.0
 11
695.7599619629728
 21
194.6198585754599
 31
0.0
 11
695.5863044134123
 21
194.7340530949494
 31
0.0
  0
SPLINE
  5
4E3
330
2
100
AcDbEntity
  8
0
  6
Continuous
 62
     7
370
    25
100
AcDbSpline
210
0.0
220
0.0
230
1.0
 70
     8
 71
     3
 72
    18
 73
    14
 74
    12
 42
0.0000000001
 43
0.0000000001
 44
0.0000000001
 12
0.6051282550325159
 22
0.7961280016186484
 32
0.0
 13
-0.8526548684658536
 23
0.5224745690284628
 33
0.0
 40
0.0
 40
0.0
 40
0.0
 40
0.0
 40
0.0597307089792759
 40
0.1688230207861336
 40
0.3327081893086266
 40
0.5481765033233127
 40
0.8074492178177461
 40
1.100109116399682
 40
1.413992441740845
 40
1.735885700987035
 40
2.05218755365595
 40
2.349566977915039
 40
2.615623609793473
 40
2.615623609793473
 40
2.615623609793473
 40
2.615623609793473
 10
695.5386152524034
 20
191.1744800135509
 30
0.0
 10
695.5506634989689
 20
191.1903311102092
 30
0.0
 10
695.5579358864008
 20
191.2520220416557
 30
0.0
 10
695.5102275435031
 20
191.3537205903744
 30
0.0
 10
695.4244785781128
 20
191.4919504533969
 30
0.0
 10
695.2915583235172
 20
191.6589118219401
 30
0.0
 10
695.1205642882883
 20
191.8491559575847
 30
0.0
 10
694.9168503239609
 20
192.0537943289592
 30
0.0
 10
694.6896811739159
 20
192.2640575901058
 30
0.0
 10
694.448709172737
 20
192.470694155819
 30
0.0
 10
694.2044663063177
 20
192.6647326887547
 30
0.0
 10
693.9676023408044
 20
192.8377488971128
 30
0.0
 10
693.8107695978564
 20
192.941290195041
 30
0.0
 10
693.7351514370369
 20
192.9876261364003
 30
0.0
 11
695.5386152524034
 21
191.1744800135509
 31
0.0
 11
695.5518688238639
 21
191.2327217549286
 31
0.0
 11
695.516682379226
 21
191.335983783812
 31
0.0
 11
695.431227571828
 21
191.4758259246502
 31
0.0
 11
695.2992391839376
 21
191.6461364052626
 31
0.0
 11
695.1264857437187
 21
191.8394718375399
 31
0.0
 11
694.9205174036124
 21
192.0473825373892
 31
0.0
 11
694.6903359689297
 21
192.2607818088375
 31
0.0
 11
694.4460014758365
 21
192.4703430787158
 31
0.0
 11
694.198192509632
 21
192.6669075166756
 31
0.0
 11
693.9577395128655
 21
192.8418843103331
 31
0.0
 11
693.7351514370369
 21
192.9876261364003
 31
0.0
  0
SPLINE
  5
4E4
330
2
100
AcDbEntity
  8
0
  6
Continuous
 62
     7
370
    25
100
AcDbSpline
210
0.0
220
0.0
230
1.0
 70
     8
 71
     3
 72
    15
 73
    11
 74
     9
 42
0.0000000001
 43
0.0000000001
 44
0.0000000001
 12
0.8526548687041486
 22
-0.5224745686395761
 32
0.0
 13
-0.1095295769127357
 23
-0.9939835369770049
 33
0.0
 40
0.0
 40
0.0
 40
0.0
 40
0.0
 40
0.128659164416423
 40
0.2756264522279397
 40
0.4476964436489274
 40
0.649651134259739
 40
0.8827276356123212
 40
1.146749015984511
 40
1.440726842986629
 40
1.754463722243353
 40
1.754463722243353
 40
1.754463722243353
 40
1.754463722243353
 10
701.6536778934744
 20
201.8035372935704
 30
0.0
 10
701.6902451811221
 20
201.781130246427
 30
0.0
 10
701.7626978252296
 20
201.7232530430624
 30
0.0
 10
701.8594098970226
 20
201.6086782934991
 30
0.0
 10
701.9488936209816
 20
201.4590704423992
 30
0.0
 10
702.0279211239973
 20
201.2721614249322
 30
0.0
 10
702.0919212099762
 20
201.0475574792691
 30
0.0
 10
702.1354415004802
 20
200.786943734268
 30
0.0
 10
702.1521927373124
 20
200.496312940612
 30
0.0
 10
702.1416795305856
 20
200.2934922347696
 30
0.0
 10
702.1302250413699
 20
200.1895424704617
 30
0.0
 11
701.6536778934744
 21
201.8035372935704
 31
0.0
 11
701.75507197466
 21
201.7243386768599
 31
0.0
 11
701.8509903478211
 21
201.6129876581093
 31
0.0
 11
701.9404688661458
 21
201.4660125693832
 31
0.0
 11
702.0202492473003
 21
201.2804841676692
 31
0.0
 11
702.0850950614235
 21
201.0566099264679
 31
0.0
 11
702.1293214438871
 21
200.7963190960727
 31
0.0
 11
702.1466201841949
 21
200.502850671276
 31
0.0
 11
702.1302250413699
 21
200.1895424704617
 31
0.0
  0
SPLINE
  5
4E5
330
2
100
AcDbEntity
  8
0
  6
Continuous
 62
     7
370
    25
100
AcDbSpline
210
0.0
220
0.0
230
1.0
 70
     8
 71
     3
 72
     9
 73
     5
 74
     3
 42
0.0000000001
 43
0.0000000001
 44
0.0000000001
 12
0.6471537650326164
 22
-0.7623594981398929
 32
0.0
 13
0.5655154566843536
 23
-0.8247376966351708
 33
0.0
 40
0.0
 40
0.0
 40
0.0
 40
0.0
 40
0.0942442374980039
 40
0.1767421477966848
 40
0.1767421477966848
 40
0.1767421477966848
 40
0.1767421477966848
 10
699.0925196833159
 20
196.6234111580343
 30
0.0
 10
699.1128498543591
 20
196.5994618281671
 30
0.0
 10
699.1501546699981
 20
196.5538405271529
 30
0.0
 10
699.1852000741554
 20
196.5064347360062
 30
0.0
 10
699.2007513552947
 20
196.4837550238339
 30
0.0
 11
699.0925196833159
 21
196.6234111580343
 31
0.0
 11
699.1519915290138
 21
196.5503011322453
 31
0.0
 11
699.2007513552947
 21
196.4837550238339
 31
0.0
  0
SPLINE
  5
4E6
330
2
100
AcDbEntity
  8
0
  6
Continuous
 62
     7
370
    25
100
AcDbSpline
210
0.0
220
0.0
230
1.0
 70
     8
 71
     3
 72
    18
 73
    14
 74
    12
 42
0.0000000001
 43
0.0000000001
 44
0.0000000001
 12
0.6051282550325159
 22
0.7961280016186484
 32
0.0
 13
-0.8526548684658536
 23
0.5224745690284628
 33
0.0
 40
0.0
 40
0.0
 40
0.0
 40
0.0
 40
0.0597307089793491
 40
0.1688230207860135
 40
0.3327081893093202
 40
0.5481765033233774
 40
0.8074492178167808
 40
1.100109116399459
 40
1.413992438582387
 40
1.735885700980154
 40
2.052187553648374
 40
2.349566977908023
 40
2.615623609787484
 40
2.615623609787484
 40
2.615623609787484
 40
2.615623609787484
 10
692.4071298856175
 20
187.498255134367
 30
0.0
 10
692.419178132183
 20
187.5141062310253
 30
0.0
 10
692.4264505196159
 20
187.5757971624716
 30
0.0
 10
692.3787421767165
 20
187.6774957111904
 30
0.0
 10
692.2929932113256
 20
187.8157255742119
 30
0.0
 10
692.1600729567342
 20
187.9826869427591
 30
0.0
 10
691.989078921491
 20
188.1729310783875
 30
0.0
 10
691.7853649579712
 20
188.3775694490864
 30
0.0
 10
691.5581958077073
 20
188.5878327099866
 30
0.0
 10
691.3172238068288
 20
188.7944692760443
 30
0.0
 10
691.0729809395189
 20
188.9885078095553
 30
0.0
 10
690.8361169740218
 20
189.161524017933
 30
0.0
 10
690.6792842310701
 20
189.2650653158573
 30
0.0
 10
690.6036660702502
 20
189.3114012572168
 30
0.0
 11
692.4071298856175
 21
187.498255134367
 31
0.0
 11
692.4203834570785
 21
187.5564968757447
 31
0.0
 11
692.3851970124401
 21
187.6597589046277
 31
0.0
 11
692.2997422050412
 21
187.7996010454663
 31
0.0
 11
692.1677538171519
 21
187.9699115260788
 31
0.0
 11
691.9950003769339
 21
188.1632469583555
 31
0.0
 11
691.7890320368269
 21
188.3711576582052
 31
0.0
 11
691.5588506043786
 21
188.5845569274181
 31
0.0
 11
691.3145161090506
 21
188.7941181995318
 31
0.0
 11
691.066707142847
 21
188.9906826374916
 31
0.0
 11
690.8262541460799
 21
189.1656594311493
 31
0.0
 11
690.6036660702502
 21
189.3114012572168
 31
0.0
  0
SPLINE
  5
4E7
330
2
100
AcDbEntity
  8
0
  6
Continuous
 62
     7
370
    25
100
AcDbSpline
210
0.0
220
0.0
230
1.0
 70
     8
 71
     3
 72
    19
 73
    15
 74
    13
 42
0.0000000001
 43
0.0000000001
 44
0.0000000001
 12
-0.6125651882788837
 22
0.7904200719293862
 32
0.0
 13
0.8517649684151388
 23
-0.5239240771149551
 33
0.0
 40
0.0
 40
0.0
 40
0.0
 40
0.0
 40
0.078179034310255
 40
0.171809294685868
 40
0.276279535631952
 40
0.38758549232672
 40
0.4992899056411362
 40
0.6082572461820595
 40
0.7097492606512815
 40
0.8068777947988728
 40
0.9001610310769752
 40
0.9913009077520484
 40
1.076918665809917
 40
1.154329167012309
 40
1.154329167012309
 40
1.154329167012309
 40
1.154329167012309
 10
695.6396503761133
 20
192.3654503306151
 30
0.0
 10
695.6236871244893
 20
192.386048423256
 30
0.0
 10
695.5961080332753
 20
192.4371463663182
 30
0.0
 10
695.5711352604959
 20
192.5263297214657
 30
0.0
 10
695.5619764898289
 20
192.6296377529746
 30
0.0
 10
695.5721413650902
 20
192.738967280625
 30
0.0
 10
695.6040028089716
 20
192.8457918041218
 30
0.0
 10
695.6571549891021
 20
192.9402521071023
 30
0.0
 10
695.7277923944186
 20
193.0159014560589
 30
0.0
 10
695.8097522904223
 20
193.0699626363614
 30
0.0
 10
695.8984495232612
 20
193.1029212807063
 30
0.0
 10
695.9884897851455
 20
193.1148344522233
 30
0.0
 10
696.073555576387
 20
193.105855313557
 30
0.0
 10
696.1250052496332
 20
193.0854838092274
 30
0.0
 10
696.1469837673371
 20
193.0719647340936
 30
0.0
 11
695.6396503761133
 21
192.3654503306151
 31
0.0
 11
695.6010831713577
 21
192.4334542431718
 31
0.0
 11
695.5748051766702
 21
192.5233213264293
 31
0.0
 11
695.5652460622347
 21
192.6273533146567
 31
0.0
 11
695.5757363676962
 21
192.7381638262838
 31
0.0
 11
695.6081676846975
 21
192.8450566961652
 31
0.0
 11
695.6620366059669
 21
192.939777446932
 31
0.0
 11
695.7314459854599
 21
193.0138245065591
 31
0.0
 11
695.8125290255289
 21
193.0672987317413
 31
0.0
 11
695.8999930162099
 21
193.0997303907285
 31
0.0
 11
695.9903898329256
 21
193.1113447201543
 31
0.0
 11
696.0754437884975
 21
193.1015352789657
 31
0.0
 11
696.1469837673371
 21
193.0719647340936
 31
0.0
  0
SPLINE
  5
4E8
330
2
100
AcDbEntity
  8
0
  6
Continuous
 62
     7
370
    25
100
AcDbSpline
210
0.0
220
0.0
230
1.0
 70
     8
 71
     3
 72
    11
 73
     7
 74
     5
 42
0.0000000001
 43
0.0000000001
 44
0.0000000001
 12
0.8684318200751814
 22
-0.4958086060980666
 32
0.0
 13
0.7217724593320884
 23
0.6921304190322147
 33
0.0
 40
0.0
 40
0.0
 40
0.0
 40
0.0
 40
0.086358605817305
 40
0.2105943135474618
 40
0.2913874550465581
 40
0.3305390589695243
 40
0.3305390589695243
 40
0.3305390589695243
 40
0.3305390589695243
 10
697.6707209015184
 20
194.857178646615
 30
0.0
 10
697.6957197552613
 20
194.8429061999567
 30
0.0
 10
697.7578672677996
 20
194.8096359284546
 30
0.0
 10
697.8462419941654
 20
194.7720895480169
 30
0.0
 10
697.9269058317993
 20
194.7467558737851
 30
0.0
 10
697.9674960529077
 20
194.7616000319748
 30
0.0
 10
697.9769155693912
 20
194.7706327039845
 30
0.0
 11
697.6707209015184
 21
194.857178646615
 31
0.0
 11
697.7469793540301
 21
194.816651406156
 31
0.0
 11
697.8614544157069
 21
194.7683816295944
 31
0.0
 11
697.9411006826275
 21
194.7548168266504
 31
0.0
 11
697.9769155693912
 21
194.7706327039845
 31
0.0
  0
SPLINE
  5
4E9
330
2
100
AcDbEntity
  8
0
  6
Continuous
 62
     7
370
    25
100
AcDbSpline
210
0.0
220
0.0
230
1.0
 70
     8
 71
     3
 72
    12
 73
     8
 74
     6
 42
0.0000000001
 43
0.0000000001
 44
0.0000000001
 12
-0.6235931312429123
 22
0.7817490688620359
 32
0.0
 13
0.7217724596876021
 23
0.6921304186614753
 33
0.0
 40
0.0
 40
0.0
 40
0.0
 40
0.0
 40
0.0304866691539543
 40
0.1701536358404895
 40
0.2668267248015412
 40
0.3229381203728208
 40
0.330757448962567
 40
0.330757448962567
 40
0.330757448962567
 40
0.330757448962567
 10
696.4913344704553
 20
195.8619656863641
 30
0.0
 10
696.4849973779624
 20
195.869909994772
 30
0.0
 10
696.4500830661643
 20
195.9144736467488
 30
0.0
 10
696.3973201755278
 20
195.9882904085405
 30
0.0
 10
696.3535894985938
 20
196.070787377991
 30
0.0
 10
696.3410218547764
 20
196.1318267943689
 30
0.0
 10
696.3549658658202
 20
196.1485342032265
 30
0.0
 10
696.3568471244967
 20
196.1503382016167
 30
0.0
 11
696.4913344704553
 21
195.8619656863641
 31
0.0
 11
696.4725267823912
 21
195.8859595994628
 31
0.0
 11
696.3927976566074
 21
196.0006336073511
 31
0.0
 11
696.3518843188775
 21
196.0882223333669
 31
0.0
 11
696.3518383341074
 21
196.1443337100953
 31
0.0
 11
696.3568471244967
 21
196.1503382016167
 31
0.0
  0
SPLINE
  5
4EA
330
2
100
AcDbEntity
  8
0
  6
Continuous
 62
     7
370
    25
100
AcDbSpline
210
0.0
220
0.0
230
1.0
 70
     8
 71
     3
 72
     9
 73
     5
 74
     3
 42
0.0000000001
 43
0.0000000001
 44
0.0000000001
 12
0.4107658119563176
 22
0.9117408884808595
 32
0.0
 13
0.6492870851028325
 23
0.7605434117252394
 33
0.0
 40
0.0
 40
0.0
 40
0.0
 40
0.0
 40
0.166955609131699
 40
0.3477931737598129
 40
0.3477931737598129
 40
0.3477931737598129
 40
0.3477931737598129
 10
701.2610364655006
 20
201.8265702293687
 30
0.0
 10
701.2838963509491
 20
201.8773103145043
 30
0.0
 10
701.336970201489
 20
201.9806237937621
 30
0.0
 10
701.4035561043627
 20
202.0763258921054
 30
0.0
 10
701.4426946027675
 20
202.1221708315622
 30
0.0
 11
701.2610364655006
 21
201.8265702293687
 31
0.0
 11
701.3379655227161
 21
201.9747461234152
 31
0.0
 11
701.4426946027675
 21
202.1221708315622
 31
0.0
  0
SPLINE
  5
4EB
330
2
100
AcDbEntity
  8
0
  6
Continuous
 62
     7
370
    25
100
AcDbSpline
210
0.0
220
0.0
230
1.0
 70
     8
 71
     3
 72
    18
 73
    14
 74
    12
 42
0.0000000001
 43
0.0000000001
 44
0.0000000001
 12
0.7217724593546492
 22
0.6921304190086875
 32
0.0
 13
-0.8526548685302145
 23
0.5224745689234286
 33
0.0
 40
0.0
 40
0.0
 40
0.0
 40
0.0
 40
0.0078193285899862
 40
0.0639307241605548
 40
0.1606038131224001
 40
0.3002707798081827
 40
0.4780894261384454
 40
0.6861386085457636
 40
0.9145930722474835
 40
1.152450744659714
 40
1.38818467221581
 40
1.610385680481441
 40
1.808406163365448
 40
1.808406163365448
 40
1.808406163365448
 40
1.808406163365448
 10
703.6899121689782
 20
201.4774372331479
 30
0.0
 10
703.6917934276539
 20
201.479241231539
 30
0.0
 10
703.7057372271184
 20
201.4959487933365
 30
0.0
 10
703.6931777432794
 20
201.5569823112179
 30
0.0
 10
703.6493783718124
 20
201.6395289370068
 30
0.0
 10
703.5679149113416
 20
201.7537914982967
 30
0.0
 10
703.4543939533738
 20
201.8863795672235
 30
0.0
 10
703.3124089870255
 20
202.0344126882189
 30
0.0
 10
703.1493352149819
 20
202.1891152003756
 30
0.0
 10
702.9730580885444
 20
202.3431562298032
 30
0.0
 10
702.7924088620044
 20
202.4887124728935
 30
0.0
 10
702.6164154438722
 20
202.6185710355973
 30
0.0
 10
702.499624579223
 20
202.6960828340537
 30
0.0
 10
702.4433435362898
 20
202.7305697228646
 30
0.0
 11
703.6899121689782
 21
201.4774372331479
 31
0.0
 11
703.6949209593675
 21
201.4834417246696
 31
0.0
 11
703.6948749745979
 21
201.5395531013973
 31
0.0
 11
703.6539616368671
 21
201.6271418274135
 31
0.0
 11
703.5742325110841
 21
201.7418158353015
 31
0.0
 11
703.4596855474933
 21
201.8778248942456
 31
0.0
 11
703.3160646110617
 21
202.0283489418887
 31
0.0
 11
703.1505714536067
 21
202.1858400744036
 31
0.0
 11
702.9715045926393
 21
202.342401026204
 31
0.0
 11
702.7878431886659
 21
202.4901811780902
 31
0.0
 11
702.6087967909543
 21
202.6217702184423
 31
0.0
 11
702.4433435362898
 21
202.7305697228646
 31
0.0
  0
SPLINE
  5
4EC
330
2
100
AcDbEntity
  8
0
  6
Continuous
 62
     7
370
    25
100
AcDbSpline
210
0.0
220
0.0
230
1.0
 70
     8
 71
     3
 72
     8
 73
     4
 74
     2
 42
0.0000000001
 43
0.0000000001
 44
0.0000000001
 12
0.5741487262888107
 22
0.8187510244884805
 32
0.0
 13
0.5552793448690739
 23
0.8316639039670846
 33
0.0
 40
0.0
 40
0.0
 40
0.0
 40
0.0
 40
0.0187082088244458
 40
0.0187082088244458
 40
0.0187082088244458
 40
0.0187082088244458
 10
695.8576280166621
 20
192.9143497871448
 30
0.0
 10
695.8612084480847
 20
192.9194555755252
 30
0.0
 10
695.8647345668557
 20
192.9246000124563
 30
0.0
 10
695.8681973275023
 20
192.929786326452
 30
0.0
 11
695.8576280166621
 21
192.9143497871448
 31
0.0
 11
695.8681973275023
 21
192.929786326452
 31
0.0
  0
SPLINE
  5
4ED
330
2
100
AcDbEntity
  8
0
  6
Continuous
 62
     7
370
    25
100
AcDbSpline
210
0.0
220
0.0
230
1.0
 70
     8
 71
     3
 72
    10
 73
     6
 74
     4
 42
0.0000000001
 43
0.0000000001
 44
0.0000000001
 12
0.6490941109463338
 22
0.7607081142822051
 32
0.0
 13
0.5741486852074253
 23
0.8187510532967788
 33
0.0
 40
0.0
 40
0.0
 40
0.0
 40
0.0
 40
0.0535716231509096
 40
0.1340948048663007
 40
0.189066954622104
 40
0.189066954622104
 40
0.189066954622104
 40
0.189066954622104
 10
695.7394024547908
 20
192.7668831935844
 30
0.0
 10
695.7509934631579
 20
192.7804673163931
 30
0.0
 10
695.7799463692172
 20
192.8145200193809
 30
0.0
 10
695.8200145046298
 20
192.8631813882725
 30
0.0
 10
695.8471072874937
 20
192.8993469519733
 30
0.0
 10
695.8576280166621
 20
192.9143497871448
 30
0.0
 11
695.7394024547908
 21
192.7668831935844
 31
0.0
 11
695.7740418051717
 21
192.8077492456596
 31
0.0
 11
695.8248565156313
 21
192.8702140196885
 31
0.0
 11
695.8576280166621
 21
192.9143497871448
 31
0.0
  0
SPLINE
  5
4EE
330
2
100
AcDbEntity
  8
0
  6
Continuous
 62
     7
370
    25
100
AcDbSpline
210
0.0
220
0.0
230
1.0
 70
     8
 71
     3
 72
    19
 73
    15
 74
    13
 42
0.0000000001
 43
0.0000000001
 44
0.0000000001
 12
0.8526548678407346
 22
-0.5224745700486288
 32
0.0
 13
-0.2090564587779828
 23
-0.9779035724667384
 33
0.0
 40
0.0
 40
0.0
 40
0.0
 40
0.0
 40
0.2112752600241531
 40
0.4524447260169557
 40
0.714577395532051
 40
0.9862435343707296
 40
1.255270707265623
 40
1.511886738652271
 40
1.749692771091118
 40
1.962420938769435
 40
2.142829259984614
 40
2.28466612477862
 40
2.385653262555505
 40
2.438540190519339
 40
2.438540190519339
 40
2.438540190519339
 40
2.438540190519339
 10
690.1066051038967
 20
188.638968633479
 30
0.0
 10
690.166653396868
 20
188.602173316598
 30
0.0
 10
690.2929865776031
 20
188.5196729147485
 30
0.0
 10
690.4867390509013
 20
188.3810300561767
 30
0.0
 10
690.6911071117762
 20
188.2229361349865
 30
0.0
 10
690.8970745723564
 20
188.0520005687391
 30
0.0
 10
691.0958298134215
 20
187.8754907266738
 30
0.0
 10
691.2801950009485
 20
187.6999819861233
 30
0.0
 10
691.444597659538
 20
187.5310060355889
 30
0.0
 10
691.5843572238332
 20
187.3736107316904
 30
0.0
 10
691.6943956372217
 20
187.2334006817939
 30
0.0
 10
691.7724364343879
 20
187.1148600582835
 30
0.0
 10
691.8128775235833
 20
187.0256100600844
 30
0.0
 10
691.823510097298
 20
186.9730200356656
 30
0.0
 10
691.819824646006
 20
186.9557805970681
 30
0.0
 11
690.1066051038967
 21
188.638968633479
 31
0.0
 11
690.2838421876747
 21
188.5239718872983
 31
0.0
 11
690.4801962620218
 21
188.3839440728664
 31
0.0
 11
690.6876715493831
 21
188.2237331445206
 31
0.0
 11
690.896759200497
 21
188.0502833098616
 31
0.0
 11
691.0978507208944
 21
187.8715717540515
 31
0.0
 11
691.2835382397902
 21
187.6944505162201
 31
0.0
 11
691.4490500678721
 21
187.5236947144759
 31
0.0
 11
691.5896953920677
 21
187.3640946953478
 31
0.0
 11
691.7001783396042
 21
187.2214739371556
 31
0.0
 11
691.7760224307397
 21
187.10161831545
 31
0.0
 11
691.8149713338935
 21
187.0084443655526
 31
0.0
 11
691.819824646006
 21
186.9557805970681
 31
0.0
  0
SPLINE
  5
4EF
330
2
100
AcDbEntity
  8
0
  6
Continuous
 62
     7
370
    25
100
AcDbSpline
210
0.0
220
0.0
230
1.0
 70
     8
 71
     3
 72
    18
 73
    14
 74
    12
 42
0.0000000001
 43
0.0000000001
 44
0.0000000001
 12
-0.8526548684658536
 22
0.5224745690284628
 32
0.0
 13
0.6051282550325159
 23
0.7961280016186484
 33
0.0
 40
0.0
 40
0.0
 40
0.0
 40
0.0
 40
0.2660566318776729
 40
0.5634360561367453
 40
0.8797379088059251
 40
1.201631168052645
 40
1.515514493393423
 40
1.808174391976121
 40
2.067447106470127
 40
2.282915420483329
 40
2.446800589006991
 40
2.555892900813986
 40
2.615623609792846
 40
2.615623609792846
 40
2.615623609792846
 40
2.615623609792846
 10
691.3332307189159
 20
187.0561991140359
 30
0.0
 10
691.2576125580965
 20
187.102535055395
 30
0.0
 10
691.1007798151496
 20
187.2060763533238
 30
0.0
 10
690.8639158496355
 20
187.3790925616812
 30
0.0
 10
690.6196729832169
 20
187.5731310946179
 30
0.0
 10
690.3787009820371
 20
187.7797676603303
 30
0.0
 10
690.1515318319922
 20
187.9900309214774
 30
0.0
 10
689.9478178676645
 20
188.1946692928517
 30
0.0
 10
689.776823832435
 20
188.3849134284952
 30
0.0
 10
689.6439035778424
 20
188.5518747970405
 30
0.0
 10
689.5581546124506
 20
188.6901046600618
 30
0.0
 10
689.5104462695521
 20
188.7918032087807
 30
0.0
 10
689.5177186569843
 20
188.8534941402271
 30
0.0
 10
689.5297669035498
 20
188.8693452368853
 30
0.0
 11
691.3332307189159
 21
187.0561991140359
 31
0.0
 11
691.1106426430882
 21
187.2019409401031
 31
0.0
 11
690.8701896463217
 21
187.3769177337606
 31
0.0
 11
690.6223806801172
 21
187.5734821717208
 31
0.0
 11
690.3780461870232
 21
187.783043441599
 31
0.0
 11
690.1478647523409
 21
187.9964427130471
 31
0.0
 11
689.9418964122337
 21
188.2043534128967
 31
0.0
 11
689.7691429720151
 21
188.3976888451736
 31
0.0
 11
689.6371545841271
 21
188.567999325786
 31
0.0
 11
689.5516997767274
 21
188.7078414666246
 31
0.0
 11
689.5165133320893
 21
188.811103495508
 31
0.0
 11
689.5297669035498
 21
188.8693452368853
 31
0.0
  0
SPLINE
  5
4F0
330
2
100
AcDbEntity
  8
0
  6
Continuous
 62
     7
370
    25
100
AcDbSpline
210
0.0
220
0.0
230
1.0
 70
     8
 71
     3
 72
    12
 73
     8
 74
     6
 42
0.0000000001
 43
0.0000000001
 44
0.0000000001
 12
0.8526548681690409
 22
-0.5224745695128478
 32
0.0
 13
0.6051282559960845
 23
0.7961280008862502
 33
0.0
 40
0.0
 40
0.0
 40
0.0
 40
0.0
 40
0.2239492316184664
 40
0.3974528690176406
 40
0.5162117703171456
 40
0.5863564007896543
 40
0.5915287741129806
 40
0.5915287741129806
 40
0.5915287741129806
 40
0.5915287741129806
 10
691.3332307189159
 20
187.0561991140359
 30
0.0
 10
691.3968811864366
 20
187.0171965212417
 30
0.0
 10
691.5112306608632
 20
186.9508773015807
 30
0.0
 10
691.6698994658556
 20
186.879476972941
 30
0.0
 10
691.7826264611314
 20
186.8449646453213
 30
0.0
 10
691.8564538211925
 20
186.8518368139182
 30
0.0
 10
691.8729483795995
 20
186.871001930128
 30
0.0
 10
691.8739916960156
 20
186.8723745538726
 30
0.0
 11
691.3332307189159
 21
187.0561991140359
 31
0.0
 11
691.5282257089611
 21
186.9460618714711
 31
0.0
 11
691.6871053968909
 21
186.8763427424313
 31
0.0
 11
691.802925975207
 21
186.8500887850839
 31
0.0
 11
691.8706255295204
 21
186.8684474214681
 31
0.0
 11
691.8739916960156
 21
186.8723745538726
 31
0.0
  0
SPLINE
  5
4F1
330
2
100
AcDbEntity
  8
0
  6
Continuous
 62
     7
370
    25
100
AcDbSpline
210
0.0
220
0.0
230
1.0
 70
     8
 71
     3
 72
    11
 73
     7
 74
     5
 42
0.0000000001
 43
0.0000000001
 44
0.0000000001
 12
-0.6202185170687652
 22
0.7844290860779079
 32
0.0
 13
0.605128253444496
 23
0.7961280028256851
 33
0.0
 40
0.0
 40
0.0
 40
0.0
 40
0.0
 40
0.1212000425950767
 40
0.2850852111176882
 40
0.3941775229246118
 40
0.4539082319039634
 40
0.4539082319039634
 40
0.4539082319039634
 40
0.4539082319039634
 10
692.4929218572891
 20
191.7384252338423
 30
0.0
 10
692.4678650203933
 20
191.7701161800574
 30
0.0
 10
692.4109354971691
 20
191.84639334114
 30
0.0
 10
692.3416894992755
 20
191.9578431976193
 30
0.0
 10
692.2939897547506
 20
192.0595607266478
 30
0.0
 10
692.301261204525
 20
192.1212495881183
 30
0.0
 10
692.313309451059
 20
192.1371006848007
 30
0.0
 11
692.4929218572891
 21
191.7384252338423
 31
0.0
 11
692.4206971316347
 21
191.8357547737015
 31
0.0
 11
692.3352423242364
 21
191.9755969145397
 31
0.0
 11
692.3000558795981
 21
192.078858943423
 31
0.0
 11
692.313309451059
 21
192.1371006848007
 31
0.0
  0
SPLINE
  5
4F2
330
2
100
AcDbEntity
  8
0
  6
Continuous
 62
     7
370
    25
100
AcDbSpline
210
0.0
220
0.0
230
1.0
 70
     8
 71
     3
 72
    12
 73
     8
 74
     6
 42
0.0000000001
 43
0.0000000001
 44
0.0000000001
 12
0.8741057085952997
 22
-0.4857357411197051
 32
0.0
 13
0.6051282569494535
 23
0.7961280001616048
 33
0.0
 40
0.0
 40
0.0
 40
0.0
 40
0.0
 40
0.0863394533347841
 40
0.2598430886865772
 40
0.3786019899859085
 40
0.4487466226142739
 40
0.4539189961804741
 40
0.4539189961804741
 40
0.4539189961804741
 40
0.4539189961804741
 10
694.2354795974647
 20
190.2542467810217
 30
0.0
 10
694.260636200477
 20
190.2402673949038
 30
0.0
 10
694.3369803169041
 20
190.19971645574
 30
0.0
 10
694.4534629148228
 20
190.147205240925
 30
0.0
 10
694.5661662060277
 20
190.1127237338262
 30
0.0
 10
694.639996425632
 20
190.1195921967766
 30
0.0
 10
694.6564909270569
 20
190.1387573802152
 30
0.0
 10
694.6575342435237
 20
190.140130004023
 30
0.0
 11
694.2354795974647
 21
190.2542467810217
 31
0.0
 11
694.3117682587062
 21
190.2138173193863
 31
0.0
 11
694.4706479444
 21
190.1440981903461
 31
0.0
 11
694.586468522716
 21
190.117844232999
 31
0.0
 11
694.6541680792631
 21
190.1362028693832
 31
0.0
 11
694.6575342435237
 21
190.140130004023
 31
0.0
  0
SPLINE
  5
4F3
330
2
100
AcDbEntity
  8
0
  6
Continuous
 62
     7
370
    25
100
AcDbSpline
210
0.0
220
0.0
230
1.0
 70
     8
 71
     3
 72
    10
 73
     6
 74
     4
 42
0.0000000001
 43
0.0000000001
 44
0.0000000001
 12
0.6915488324688325
 22
0.7223297116352026
 32
0.0
 13
0.6477828337774343
 23
0.7618250457049026
 33
0.0
 40
0.0
 40
0.0
 40
0.0
 40
0.0
 40
0.0028329956195382
 40
0.0688887082211602
 40
0.1164431107297261
 40
0.1164431107297261
 40
0.1164431107297261
 40
0.1164431107297261
 10
695.5704488702187
 20
192.5717320144695
 30
0.0
 10
695.571101921823
 20
192.5724141334391
 30
0.0
 10
695.5869539908514
 20
192.5890277753784
 30
0.0
 10
695.6126602667868
 20
192.6181349319603
 30
0.0
 10
695.6372474636801
 20
192.6469331690009
 30
0.0
 10
695.6475157722187
 20
192.6590092139558
 30
0.0
 11
695.5704488702187
 21
192.5717320144695
 31
0.0
 11
695.5724046411618
 21
192.5737816056966
 31
0.0
 11
695.6165777789259
 21
192.6228946494567
 31
0.0
 11
695.6475157722187
 21
192.6590092139558
 31
0.0
  0
SPLINE
  5
4F4
330
2
100
AcDbEntity
  8
0
  6
Continuous
 62
     7
370
    25
100
AcDbSpline
210
0.0
220
0.0
230
1.0
 70
     8
 71
     3
 72
    12
 73
     8
 74
     6
 42
0.0000000001
 43
0.0000000001
 44
0.0000000001
 12
0.9118732869118547
 22
0.4104718122070873
 32
0.0
 13
0.8526548667226613
 23
-0.5224745718732739
 33
0.0
 40
0.0
 40
0.0
 40
0.0
 40
0.0
 40
0.004545599191019
 40
0.0801260452914352
 40
0.1953052343644705
 40
0.3477656302894179
 40
0.5296542912136237
 40
0.5296542912136237
 40
0.5296542912136237
 40
0.5296542912136237
 10
689.6211225964803
 20
188.8279888243992
 30
0.0
 10
689.6225042666388
 20
188.8286107711784
 30
0.0
 10
689.6472381900489
 20
188.8388866897889
 30
0.0
 10
689.7161011609908
 20
188.8277862696082
 30
0.0
 10
689.8228609844852
 20
188.7927325591498
 30
0.0
 10
689.9586200693964
 20
188.7262896818634
 30
0.0
 10
690.0549090199172
 20
188.6706460335606
 30
0.0
 10
690.1066051038967
 20
188.638968633479
 30
0.0
 11
689.6211225964803
 21
188.8279888243992
 31
0.0
 11
689.6253219293051
 21
188.8297289611272
 31
0.0
 11
689.7008951030252
 21
188.8286805115096
 31
0.0
 11
689.8108159379963
 21
188.7942762147606
 31
0.0
 11
689.9487583577671
 21
188.7293450115271
 31
0.0
 11
690.1066051038967
 21
188.638968633479
 31
0.0
  0
SPLINE
  5
4F5
330
2
100
AcDbEntity
  8
0
  6
Continuous
 62
     7
370
    25
100
AcDbSpline
210
0.0
220
0.0
230
1.0
 70
     8
 71
     3
 72
    11
 73
     7
 74
     5
 42
0.0000000001
 43
0.0000000001
 44
0.0000000001
 12
0.8092791028883572
 22
0.587424321617871
 32
0.0
 13
0.8526548690010111
 23
-0.52247456815511
 33
0.0
 40
0.0
 40
0.0
 40
0.0
 40
0.0
 40
0.0949911677972135
 40
0.1825606398008078
 40
0.2646667477214709
 40
0.3488460017318281
 40
0.3488460017318281
 40
0.3488460017318281
 40
0.3488460017318281
 10
701.6457182367502
 20
201.8176871355269
 30
0.0
 10
701.6713430257692
 20
201.8362871762946
 30
0.0
 10
701.725066652902
 20
201.8666819617892
 30
0.0
 10
701.8129003164532
 20
201.8853654815392
 30
0.0
 10
701.8982898398818
 20
201.8746353046837
 30
0.0
 10
701.9494156318129
 20
201.8511833527558
 30
0.0
 10
701.9733409154132
 20
201.8365228462936
 30
0.0
 11
701.6457182367502
 21
201.8176871355269
 31
0.0
 11
701.729108481552
 21
201.8631776733494
 31
0.0
 11
701.814917078641
 21
201.8806504262117
 31
0.0
 11
701.8964203117231
 21
201.8707188626359
 31
0.0
 11
701.9733409154132
 21
201.8365228462936
 31
0.0
  0
SPLINE
  5
4F6
330
2
100
AcDbEntity
  8
0
  6
Continuous
 62
     7
370
    25
100
AcDbSpline
210
0.0
220
0.0
230
1.0
 70
     8
 71
     3
 72
     8
 73
     4
 74
     2
 42
0.0000000001
 43
0.0000000001
 44
0.0000000001
 12
0.8012987367192785
 22
0.598264435289353
 32
0.0
 13
0.8092790720151239
 23
0.5874243641511134
 33
0.0
 40
0.0
 40
0.0
 40
0.0
 40
0.0
 40
0.0056789021500914
 40
0.0056789021500914
 40
0.0056789021500914
 40
0.0056789021500914
 10
701.6411450533137
 20
201.8143202492968
 30
0.0
 10
701.6426618856866
 20
201.8154527443594
 30
0.0
 10
701.6441862978628
 20
201.8165751603654
 30
0.0
 10
701.6457182367502
 20
201.8176871355269
 30
0.0
 11
701.6411450533137
 21
201.8143202492968
 31
0.0
 11
701.6457182367502
 21
201.8176871355269
 31
0.0
  0
LINE
  5
4F7
330
2
100
AcDbEntity
  8
0
  6
Continuous
 62
     7
370
    25
100
AcDbLine
 10
702.2434583309807
 20
200.4550285516297
 30
0.0
 11
702.4669242637277
 21
200.3180971016425
 31
0.0
  0
LINE
  5
4F8
330
2
100
AcDbEntity
  8
0
  6
Continuous
 62
     7
370
    25
100
AcDbLine
 10
694.6577543056703
 20
190.1399979953465
 30
0.0
 11
695.5388353145488
 21
191.1743480071098
 31
0.0
  0
LINE
  5
4F9
330
2
100
AcDbEntity
  8
0
  6
Continuous
 62
     7
370
    25
100
AcDbLine
 10
691.8742117581613
 20
186.8722425474314
 30
0.0
 11
692.4073499477636
 21
187.4981231279256
 31
0.0
  0
LINE
  5
4FA
330
2
100
AcDbEntity
  8
0
  6
Continuous
 62
     7
370
    25
100
AcDbLine
 10
692.2255305721087
 20
187.895359613004
 30
0.0
 11
694.3562973878329
 21
190.3967853151463
 31
0.0
  0
LINE
  5
4FB
330
2
100
AcDbEntity
  8
0
  6
Continuous
 62
     7
370
    25
100
AcDbLine
 10
695.3404951063022
 20
191.5929020572743
 30
0.0
 11
696.8952635712565
 21
193.4181312511063
 31
0.0
  0
LINE
  5
4FC
330
2
100
AcDbEntity
  8
0
  6
Continuous
 62
     7
370
    25
100
AcDbLine
 10
697.9774655045885
 20
194.7700128874952
 30
0.0
 11
703.6904621041757
 21
201.4768174144232
 31
0.0
  0
LINE
  5
4FD
330
2
100
AcDbEntity
  8
0
  6
Continuous
 62
     7
370
    25
100
AcDbLine
 10
702.4669242637277
 20
200.3180971016425
 30
0.0
 11
699.2007513552937
 21
196.4837550238343
 31
0.0
  0
LINE
  5
4FE
330
2
100
AcDbEntity
  8
0
  6
Continuous
 62
     7
370
    25
100
AcDbLine
 10
696.7275729953868
 20
193.7505297407912
 30
0.0
 11
696.9331023976637
 21
193.9918121395412
 31
0.0
  0
LINE
  5
4FF
330
2
100
AcDbEntity
  8
0
  6
Continuous
 62
     7
370
    25
100
AcDbLine
 10
699.092519683315
 20
196.6234111580343
 30
0.0
 11
702.130225041369
 21
200.1895424704617
 31
0.0
  0
LINE
  5
500
330
2
100
AcDbEntity
  8
0
  6
Continuous
 62
     7
370
    25
100
AcDbLine
 10
702.1376155558234
 20
200.3307738305688
 30
0.0
 11
702.2434583309807
 21
200.4550285516297
 31
0.0
  0
LINE
  5
501
330
2
100
AcDbEntity
  8
0
  6
Continuous
 62
     7
370
    25
100
AcDbLine
 10
695.5487654632434
 20
194.7551164015657
 30
0.0
 11
695.6789614193221
 21
194.9079606775259
 31
0.0
  0
LINE
  5
502
330
2
100
AcDbEntity
  8
0
  6
Continuous
 62
     7
370
    25
100
AcDbLine
 10
701.4413873639296
 20
202.1206282641628
 30
0.0
 11
702.0692937888865
 21
202.8577625472696
 31
0.0
  0
LINE
  5
503
330
2
100
AcDbEntity
  8
0
  6
Continuous
 62
     7
370
    25
100
AcDbLine
 10
696.3562971892987
 20
196.1509580181064
 30
0.0
 11
701.0442958762752
 21
201.6544604753419
 31
0.0
  0
LINE
  5
504
330
2
100
AcDbEntity
  8
0
  6
Continuous
 62
     7
370
    25
100
AcDbLine
 10
693.6387344175772
 20
193.0420844821449
 30
0.0
 11
695.1937067461836
 21
194.8675530010759
 31
0.0
  0
LINE
  5
505
330
2
100
AcDbEntity
  8
0
  6
Continuous
 62
     7
370
    25
100
AcDbLine
 10
690.4838347183465
 20
189.3790845057465
 30
0.0
 11
692.6145463067499
 21
191.8804453736776
 31
0.0
  0
LINE
  5
506
330
2
100
AcDbEntity
  8
0
  6
Continuous
 62
     7
370
    25
100
AcDbLine
 10
696.1469804480652
 20
193.071959340556
 30
0.0
 11
696.2008484707835
 21
193.0242719922937
 31
0.0
  0
LINE
  5
507
330
2
100
AcDbEntity
  8
0
  6
Continuous
 62
     7
370
    25
100
AcDbLine
 10
695.8681973275023
 20
192.929786326452
 30
0.0
 11
695.7313018150601
 21
193.0136707046824
 31
0.0
  0
LINE
  5
508
330
2
100
AcDbEntity
  8
0
  6
Continuous
 62
     7
370
    25
100
AcDbLine
 10
692.3130893889137
 20
192.1372326912424
 30
0.0
 11
693.1941703977916
 21
193.1715827030058
 31
0.0
  0
LINE
  5
509
330
2
100
AcDbEntity
  8
0
  6
Continuous
 62
     7
370
    25
100
AcDbLine
 10
689.5295468414047
 20
188.8694772433274
 30
0.0
 11
690.0626850310059
 21
189.4953578238214
 31
0.0
  0
LINE
  5
50A
330
2
100
AcDbEntity
  8
0
  6
Continuous
 62
     7
370
    25
100
AcDbLine
 10
695.6871731287183
 20
192.3216503058456
 30
0.0
 11
695.6396503761133
 21
192.3654503306152
 31
0.0
  0
LINE
  5
50B
330
2
100
AcDbEntity
  8
DIM
 62
     0
100
AcDbLine
 10
694.8494454055317
 20
195.0756674687758
 30
0.0
 11
694.8272904669354
 21
194.7548192763432
 31
0.0
  0
LINE
  5
50C
330
2
100
AcDbEntity
  8
0
  6
Continuous
 62
     0
370
    25
100
AcDbLine
 10
695.6571028447183
 20
194.912379918803
 30
0.0
 11
695.5149568380655
 21
194.720963132058
 31
0.0
  0
LINE
  5
50D
330
2
100
AcDbEntity
  8
DIM
 62
     0
100
AcDbLine
 10
694.8272904669354
 20
194.7548192763432
 30
0.0
 11
694.9823454498472
 21
194.59992585556
 31
0.0
  0
LINE
  5
50E
330
2
100
AcDbEntity
  8
DIM
 62
     0
100
AcDbLine
 10
694.8494454055317
 20
195.0756674687758
 30
0.0
 11
695.7797457157429
 21
194.8875846863696
 31
0.0
  0
LINE
  5
50F
330
2
100
AcDbEntity
  8
DIM
 62
     0
100
AcDbLine
 10
696.0455517218263
 20
195.8611985780689
 30
0.0
 11
694.8494454055317
 21
195.0756674687758
 31
0.0
  0
SPLINE
  5
510
330
2
100
AcDbEntity
  8
0
  6
Continuous
 62
     0
370
    25
100
AcDbSpline
210
0.0
220
0.0
230
1.0
 70
     8
 71
     3
 72
    19
 73
    15
 74
    13
 42
0.0000000001
 43
0.0000000001
 44
0.0000000001
 12
-0.4833491116098826
 22
0.8754276876509774
 32
0.0
 13
-0.5499835124643627
 23
-0.8351755121035113
 33
0.0
 40
0.0
 40
0.0
 40
0.0
 40
0.0
 40
0.1495094770348219
 40
0.3430819381715129
 40
0.5713863938373041
 40
0.8222931963519183
 40
1.08206785864667
 40
1.336373618147969
 40
1.571243641211833
 40
1.774069805256936
 40
1.934718671988183
 40
2.0473452989454
 40
2.116446213213774
 40
2.123294734582842
 40
2.123294734582842
 40
2.123294734582842
 40
2.123294734582842
 10
697.7694416099167
 20
194.7109292779395
 30
0.0
 10
697.745353185616
 20
194.7545575231936
 30
0.0
 10
697.677977212695
 20
194.8477605230743
 30
0.0
 10
697.5502293595239
 20
194.9891530343847
 30
0.0
 10
697.3873503665926
 20
195.1436311680814
 30
0.0
 10
697.1986571575907
 20
195.3021447346906
 30
0.0
 10
696.9947722688691
 20
195.4555117292938
 30
0.0
 10
696.7875622653233
 20
195.5949152199506
 30
0.0
 10
696.5886644954391
 20
195.71228889731
 30
0.0
 10
696.4105372803573
 20
195.801596937075
 30
0.0
 10
696.2602414522377
 20
195.857326594452
 30
0.0
 10
696.1508235993232
 20
195.8810546802715
 30
0.0
 10
696.0806591196368
 20
195.8684874127327
 30
0.0
 10
696.0651287669586
 20
195.8482062625978
 30
0.0
 10
696.063873242346
 20
195.8462996901506
 30
0.0
 11
697.7694416099167
 21
194.7109292779395
 31
0.0
 11
697.6848589194432
 21
194.834212902949
 31
0.0
 11
697.5563494974176
 21
194.9789734851569
 31
0.0
 11
697.3913818444223
 21
195.1367980648081
 31
0.0
 11
697.1995432808824
 21
195.2985144495285
 31
0.0
 11
696.9919827675806
 21
195.4547242715252
 31
0.0
 11
696.7807629681266
 21
195.5963491832963
 31
0.0
 11
696.5781592075241
 21
195.7151584587075
 31
0.0
 11
696.3959460790365
 21
195.8042473392035
 31
0.0
 11
696.2447131511252
 21
195.8584382969123
 31
0.0
 11
696.1332495274696
 21
195.8745819551509
 31
0.0
 11
696.0680330724817
 21
195.8517400998948
 31
0.0
 11
696.063873242346
 21
195.8462996901506
 31
0.0
  0
LINE
  5
511
330
2
100
AcDbEntity
  8
DIM
 62
     0
100
AcDbLine
 10
695.7797457157429
 20
194.8875846863696
 30
0.0
 11
696.8651069263191
 21
194.1241815878329
 31
0.0
  0
LINE
  5
512
330
2
100
AcDbEntity
  8
DIM
 62
     0
100
AcDbLine
 10
696.8651069263191
 20
194.1241815878329
 30
0.0
 11
697.2970335497084
 21
193.2833331061604
 31
0.0
  0
LINE
  5
513
330
2
100
AcDbEntity
  8
DIM
 62
     0
100
AcDbLine
 10
697.2970335497084
 20
193.2833331061604
 30
0.0
 11
697.7732582153866
 21
194.6994992494522
 31
0.0
  0
LINE
  5
514
330
2
100
AcDbEntity
  8
DIM
 62
     0
100
AcDbLine
 10
697.0976805245091
 20
193.0841836638644
 30
0.0
 11
696.8097314147328
 21
193.1726957068901
 31
0.0
  0
LINE
  5
515
330
2
100
AcDbEntity
  8
DIM
 62
     0
100
AcDbLine
 10
697.2970335497084
 20
193.2722691007822
 30
0.0
 11
697.0976805245091
 21
193.0841836638644
 31
0.0
  0
LINE
  5
516
330
2
100
AcDbEntity
  8
0
  6
Continuous
 62
     7
370
    25
100
AcDbLine
 10
697.6681872579048
 20
194.8547691490971
 30
0.0
 11
697.7563970965361
 21
194.9583235857015
 31
0.0
  0
LINE
  5
517
330
2
100
AcDbEntity
  8
0
  6
Continuous
 62
     7
370
    25
100
AcDbLine
 10
696.4297741043974
 20
195.7893814580715
 30
0.0
 11
696.5773655951164
 21
195.9626473199
 31
0.0
  0
MTEXT
  5
518
330
2
100
AcDbEntity
  8
图框
100
AcDbMText
 10
689.6703861892229
 20
228.8229327704302
 30
0.0
 40
0.6000023545570477
 41
4.555173628074112
 46
1.3522221868162
 71
     5
 72
     5
  1
{\C4;CDSF-0.50}
  7
Romans字体
 73
     1
 44
1.0
1001
ACAD
1000
ACAD_MTEXT_DEFINED_HEIGHT_BEGIN
1070
    46
1040
1.3522221868162
1000
ACAD_MTEXT_DEFINED_HEIGHT_END
  0
MTEXT
  5
519
330
2
100
AcDbEntity
  8
图框
100
AcDbMText
 10
689.6703861898896
 20
227.4707105836149
 30
0.0
 40
0.6000023545570477
 41
4.555173628074112
 46
1.3522221868162
 71
     5
 72
     5
  1
{\C4;CDSF-0.75}
  7
Romans字体
 73
     1
 44
1.0
1001
ACAD
1000
ACAD_MTEXT_DEFINED_HEIGHT_BEGIN
1070
    46
1040
1.3522221868162
1000
ACAD_MTEXT_DEFINED_HEIGHT_END
  0
MTEXT
  5
51A
330
2
100
AcDbEntity
  8
图框
100
AcDbMText
 10
689.6703861892229
 20
226.1140562790624
 30
0.0
 40
0.6000023545570477
 41
4.555173628074112
 46
1.3522221868162
 71
     5
 72
     5
  1
{\C4;CDSF-1.0}
  7
Romans字体
 73
     1
 44
1.0
1001
ACAD
1000
ACAD_MTEXT_DEFINED_HEIGHT_BEGIN
1070
    46
1040
1.3522221868162
1000
ACAD_MTEXT_DEFINED_HEIGHT_END
  0
MTEXT
  5
51B
330
2
100
AcDbEntity
  8
图框
100
AcDbMText
 10
689.6703861892229
 20
224.7662662099845
 30
0.0
 40
0.6000023545570477
 41
4.555173628074112
 46
1.3522221868162
 71
     5
 72
     5
  1
{\C4;CDSF-1.5}
  7
Romans字体
 73
     1
 44
1.0
1001
ACAD
1000
ACAD_MTEXT_DEFINED_HEIGHT_BEGIN
1070
    46
1040
1.3522221868162
1000
ACAD_MTEXT_DEFINED_HEIGHT_END
  0
MTEXT
  5
51C
330
2
100
AcDbEntity
  8
图框
100
AcDbMText
 10
712.4333897610878
 20
228.8229327704315
 30
0.0
 40
0.6000023545570477
 41
2.432903725062594
 46
1.35222218681682
 71
     5
 72
     5
  1
{\C4;2.6}
  7
Romans字体
 73
     1
 44
1.0
1001
ACAD
1000
ACAD_MTEXT_DEFINED_HEIGHT_BEGIN
1070
    46
1040
1.35222218681682
1000
ACAD_MTEXT_DEFINED_HEIGHT_END
  0
MTEXT
  5
51D
330
2
100
AcDbEntity
  8
图框
100
AcDbMText
 10
712.4333897610878
 20
227.4707105836162
 30
0.0
 40
0.6000023545570477
 41
2.432903725062594
 46
1.35222218681682
 71
     5
 72
     5
  1
{\C4;2.6}
  7
Romans字体
 73
     1
 44
1.0
1001
ACAD
1000
ACAD_MTEXT_DEFINED_HEIGHT_BEGIN
1070
    46
1040
1.35222218681682
1000
ACAD_MTEXT_DEFINED_HEIGHT_END
  0
MTEXT
  5
51E
330
2
100
AcDbEntity
  8
图框
100
AcDbMText
 10
712.4333897610878
 20
226.118488396801
 30
0.0
 40
0.6000023545570477
 41
2.432903725062594
 46
1.35222218681682
 71
     5
 72
     5
  1
{\C4;2.6}
  7
Romans字体
 73
     1
 44
1.0
1001
ACAD
1000
ACAD_MTEXT_DEFINED_HEIGHT_BEGIN
1070
    46
1040
1.35222218681682
1000
ACAD_MTEXT_DEFINED_HEIGHT_END
  0
LINE
  5
51F
330
2
100
AcDbEntity
  8
图框
370
    35
380
     1
100
AcDbLine
 10
711.2169378985562
 20
233.5556303528675
 30
0.0
 11
711.2169378985562
 21
222.7320634679176
 31
0.0
  0
MTEXT
  5
520
330
2
100
AcDbEntity
  8
图框
100
AcDbMText
 10
714.8662934861505
 20
232.2034482017612
 30
0.0
 40
0.6000023545570477
 41
2.432903725062574
 46
2.704364302212435
 71
     5
 72
     5
  1
{\C4;h}
  7
Romans字体
 73
     1
 44
1.0
1001
ACAD
1000
ACAD_MTEXT_DEFINED_HEIGHT_BEGIN
1070
    46
1040
2.704364302212435
1000
ACAD_MTEXT_DEFINED_HEIGHT_END
  0
MTEXT
  5
521
330
2
100
AcDbEntity
  8
图框
100
AcDbMText
 10
694.981390003018
 20
223.4155213811977
 30
0.0
 40
0.6000023545570477
 41
6.066833998183262
 46
1.352222186816343
 71
     5
 72
     5
  1
{\C4;1010171201001}
  7
Romans字体
 73
     1
 44
1.0
1001
ACAD
1000
ACAD_MTEXT_DEFINED_HEIGHT_BEGIN
1070
    46
1040
1.352222186816343
1000
ACAD_MTEXT_DEFINED_HEIGHT_END
  0
MTEXT
  5
522
330
2
100
AcDbEntity
  8
图框
100
AcDbMText
 10
712.4333897610878
 20
223.414054015737
 30
0.0
 40
0.59999791584616
 41
2.432903725062594
 46
1.35515691773857
 71
     5
 72
     5
  1
{\C4;3.2}
  7
Romans字体
 73
     1
 44
1.0
1001
ACAD
1000
ACAD_MTEXT_DEFINED_HEIGHT_BEGIN
1070
    46
1040
1.35515691773857
1000
ACAD_MTEXT_DEFINED_HEIGHT_END
  0
MTEXT
  5
523
330
2
100
AcDbEntity
  8
图框
100
AcDbMText
 10
699.9696376246228
 20
223.4154413097105
 30
0.0
 40
0.6000023545570477
 41
3.90966124635945
 46
1.352222186816528
 71
     5
 72
     5
  1
{\C4;0.63}
  7
Romans字体
 73
     1
 44
1.0
1001
ACAD
1000
ACAD_MTEXT_DEFINED_HEIGHT_BEGIN
1070
    46
1040
1.352222186816528
1000
ACAD_MTEXT_DEFINED_HEIGHT_END
  0
MTEXT
  5
524
330
2
100
AcDbEntity
  8
图框
100
AcDbMText
 10
703.8792988719825
 20
223.415521381198
 30
0.0
 40
0.6000023545570477
 41
3.909661247026225
 46
1.3522221868165
 71
     5
 72
     5
  1
{\C4;2.5}
  7
Romans字体
 73
     1
 44
1.0
1001
ACAD
1000
ACAD_MTEXT_DEFINED_HEIGHT_BEGIN
1070
    46
1040
1.3522221868165
1000
ACAD_MTEXT_DEFINED_HEIGHT_END
  0
MTEXT
  5
525
330
2
100
AcDbEntity
  8
图框
100
AcDbMText
 10
707.309081833495
 20
223.415521381198
 30
0.0
 40
0.6000023545570477
 41
2.949904678664851
 46
1.352222186816635
 71
     5
 72
     5
  1
{\C4;14}
  7
Romans字体
 73
     1
 44
1.0
1001
ACAD
1000
ACAD_MTEXT_DEFINED_HEIGHT_BEGIN
1070
    46
1040
1.352222186816635
1000
ACAD_MTEXT_DEFINED_HEIGHT_END
  0
MTEXT
  5
526
330
2
100
AcDbEntity
  8
图框
100
AcDbMText
 10
710.0004860356915
 20
223.415521381198
 30
0.0
 40
0.6000023545570477
 41
2.43290372572948
 46
1.352222186816667
 71
     5
 72
     5
  1
{\C4;2.25}
  7
Romans字体
 73
     1
 44
1.0
1001
ACAD
1000
ACAD_MTEXT_DEFINED_HEIGHT_BEGIN
1070
    46
1040
1.352222186816667
1000
ACAD_MTEXT_DEFINED_HEIGHT_END
  0
MTEXT
  5
527
330
2
100
AcDbEntity
  8
图框
100
AcDbMText
 10
689.6703861892229
 20
223.415521381198
 30
0.0
 40
0.6000023545570477
 41
4.555173628074112
 46
1.3522221868162
 71
     5
 72
     5
  1
{\C4;CDSF-2.5}
  7
Romans字体
 73
     1
 44
1.0
1001
ACAD
1000
ACAD_MTEXT_DEFINED_HEIGHT_BEGIN
1070
    46
1040
1.3522221868162
1000
ACAD_MTEXT_DEFINED_HEIGHT_END
  0
MTEXT
  5
528
330
2
100
AcDbEntity
  8
图框
100
AcDbMText
 10
714.8662934861505
 20
230.1751549572467
 30
0.0
 40
0.6000023545570477
 41
2.432903725062594
 46
1.35222218681682
 71
     5
 72
     5
  1
{\C4;8}
  7
Romans字体
 73
     1
 44
1.0
1001
ACAD
1000
ACAD_MTEXT_DEFINED_HEIGHT_BEGIN
1070
    46
1040
1.35222218681682
1000
ACAD_MTEXT_DEFINED_HEIGHT_END
  0
MTEXT
  5
529
330
2
100
AcDbEntity
  8
图框
100
AcDbMText
 10
718.9970967216585
 20
228.8229327704315
 30
0.0
 40
0.6000023545570477
 41
5.828702745953751
 46
1.35222218681682
 71
     5
 72
     5
  1
{\C4;8}
  7
Romans字体
 73
     1
 44
1.0
1001
ACAD
1000
ACAD_MTEXT_DEFINED_HEIGHT_BEGIN
1070
    46
1040
1.35222218681682
1000
ACAD_MTEXT_DEFINED_HEIGHT_END
  0
MTEXT
  5
52A
330
2
100
AcDbEntity
  8
图框
100
AcDbMText
 10
714.8662934861505
 20
228.8229327704314
 30
0.0
 40
0.6000023545570477
 41
2.432903725062594
 46
1.35222218681682
 71
     5
 72
     5
  1
{\C4;8}
  7
Romans字体
 73
     1
 44
1.0
1001
ACAD
1000
ACAD_MTEXT_DEFINED_HEIGHT_BEGIN
1070
    46
1040
1.35222218681682
1000
ACAD_MTEXT_DEFINED_HEIGHT_END
  0
MTEXT
  5
52B
330
2
100
AcDbEntity
  8
图框
100
AcDbMText
 10
718.9970967216585
 20
227.4707105836162
 30
0.0
 40
0.6000023545570477
 41
5.828702745953751
 46
1.35222218681682
 71
     5
 72
     5
  1
{\C4;8}
  7
Romans字体
 73
     1
 44
1.0
1001
ACAD
1000
ACAD_MTEXT_DEFINED_HEIGHT_BEGIN
1070
    46
1040
1.35222218681682
1000
ACAD_MTEXT_DEFINED_HEIGHT_END
  0
MTEXT
  5
52C
330
2
100
AcDbEntity
  8
图框
100
AcDbMText
 10
714.8662934861505
 20
227.4707105836161
 30
0.0
 40
0.6000023545570477
 41
2.432903725062594
 46
1.35222218681682
 71
     5
 72
     5
  1
{\C4;8}
  7
Romans字体
 73
     1
 44
1.0
1001
ACAD
1000
ACAD_MTEXT_DEFINED_HEIGHT_BEGIN
1070
    46
1040
1.35222218681682
1000
ACAD_MTEXT_DEFINED_HEIGHT_END
  0
MTEXT
  5
52D
330
2
100
AcDbEntity
  8
图框
100
AcDbMText
 10
718.9970916753062
 20
226.118488396801
 30
0.0
 40
0.6000023545570477
 41
5.828702745953751
 46
1.35222218681682
 71
     5
 72
     5
  1
{\C4;8}
  7
Romans字体
 73
     1
 44
1.0
1001
ACAD
1000
ACAD_MTEXT_DEFINED_HEIGHT_BEGIN
1070
    46
1040
1.35222218681682
1000
ACAD_MTEXT_DEFINED_HEIGHT_END
  0
MTEXT
  5
52E
330
2
100
AcDbEntity
  8
图框
100
AcDbMText
 10
714.8662884397983
 20
226.118488396801
 30
0.0
 40
0.6000023545570477
 41
2.432903725062594
 46
1.35222218681682
 71
     5
 72
     5
  1
{\C4;8}
  7
Romans字体
 73
     1
 44
1.0
1001
ACAD
1000
ACAD_MTEXT_DEFINED_HEIGHT_BEGIN
1070
    46
1040
1.35222218681682
1000
ACAD_MTEXT_DEFINED_HEIGHT_END
  0
MTEXT
  5
52F
330
2
100
AcDbEntity
  8
图框
100
AcDbMText
 10
718.9970899839996
 20
224.7588793543688
 30
0.0
 40
0.6000023545570477
 41
5.828702745953751
 46
1.35222218681682
 71
     5
 72
     5
  1
{\C4;8}
  7
Romans字体
 73
     1
 44
1.0
1001
ACAD
1000
ACAD_MTEXT_DEFINED_HEIGHT_BEGIN
1070
    46
1040
1.35222218681682
1000
ACAD_MTEXT_DEFINED_HEIGHT_END
  0
MTEXT
  5
530
330
2
100
AcDbEntity
  8
图框
100
AcDbMText
 10
714.866286748492
 20
224.7588793543688
 30
0.0
 40
0.6000023545570477
 41
2.432903725062594
 46
1.35222218681682
 71
     5
 72
     5
  1
{\C4;8}
  7
Romans字体
 73
     1
 44
1.0
1001
ACAD
1000
ACAD_MTEXT_DEFINED_HEIGHT_BEGIN
1070
    46
1040
1.35222218681682
1000
ACAD_MTEXT_DEFINED_HEIGHT_END
  0
MTEXT
  5
531
330
2
100
AcDbEntity
  8
图框
100
AcDbMText
 10
718.9970883037698
 20
223.4081745613259
 30
0.0
 40
0.6000023545570477
 41
5.828702745953751
 46
1.35222218681682
 71
     5
 72
     5
  1
{\C4;6}
  7
Romans字体
 73
     1
 44
1.0
1001
ACAD
1000
ACAD_MTEXT_DEFINED_HEIGHT_BEGIN
1070
    46
1040
1.35222218681682
1000
ACAD_MTEXT_DEFINED_HEIGHT_END
  0
MTEXT
  5
532
330
2
100
AcDbEntity
  8
图框
100
AcDbMText
 10
714.8662850682621
 20
223.4081745613258
 30
0.0
 40
0.6000023545570477
 41
2.432903725062594
 46
1.35222218681682
 71
     5
 72
     5
  1
{\C4;6}
  7
Romans字体
 73
     1
 44
1.0
1001
ACAD
1000
ACAD_MTEXT_DEFINED_HEIGHT_BEGIN
1070
    46
1040
1.35222218681682
1000
ACAD_MTEXT_DEFINED_HEIGHT_END
  0
MTEXT
  5
533
330
2
100
AcDbEntity
  8
图框
 62
     3
100
AcDbMText
 10
755.6951633939371
 20
191.9592824318357
 30
0.0
 40
0.746378394635083
 41
8.403098007973925
 46
2.218038889596384
 71
     5
 72
     5
  1
{\C4;1010171200401}
  7
Romans字体
 73
     1
 44
1.0
1001
ACAD
1000
ACAD_MTEXT_DEFINED_HEIGHT_BEGIN
1070
    46
1040
2.218038889596384
1000
ACAD_MTEXT_DEFINED_HEIGHT_END
  0
INSERT
  5
534
330
2
100
AcDbEntity
  8
DIM
100
AcDbBlockReference
  2
A4图框-NEW
 10
478.1645864144677
 20
64.67193803782953
 30
0.0
 41
0.25
 42
0.25
 43
0.25
  0
MTEXT
  5
535
330
2
100
AcDbEntity
  8
图框
 62
     3
100
AcDbMText
 10
744.1045329778311
 20
188.5594394545718
 30
0.0
 40
0.746378394635083
 41
2.707336787601192
 46
1.971523801091308
 71
     5
 72
     5
  1
0.72g
  7
Romans字体
 73
     1
 44
1.0
1001
ACAD
1000
ACAD_MTEXT_DEFINED_HEIGHT_BEGIN
1070
    46
1040
1.971523801091308
1000
ACAD_MTEXT_DEFINED_HEIGHT_END
  0
MTEXT
  5
536
330
2
100
AcDbEntity
  8
图框
 62
     3
100
AcDbMText
 10
738.6817468353596
 20
188.6323735126634
 30
0.0
 40
0.7463783937585367
 41
2.707337108597616
 46
1.971523650302624
 71
     5
 72
     5
  1
4:1
  7
Romans字体
 73
     1
 44
1.0
1001
ACAD
1000
ACAD_MTEXT_DEFINED_HEIGHT_BEGIN
1070
    46
1040
1.971523650302624
1000
ACAD_MTEXT_DEFINED_HEIGHT_END
  0
MTEXT
  5
537
330
2
100
AcDbEntity
  8
图框
 62
     3
100
AcDbMText
 10
755.6951630680059
 20
194.1541449140563
 30
0.0
 40
0.7463783937585367
 41
8.403097998105339
 46
2.171686376421464
 71
     5
 72
     5
  1
CDSF-0.5
  7
Romans字体
 73
     1
 44
1.0
1001
ACAD
1000
ACAD_MTEXT_DEFINED_HEIGHT_BEGIN
1070
    46
1040
2.171686376421464
1000
ACAD_MTEXT_DEFINED_HEIGHT_END
  0
ENDSEC
  0
SECTION
  2
OBJECTS
  0
DICTIONARY
  5
B
330
0
100
AcDbDictionary
281
     1
  3
ACAD_COLOR
350
221
  3
ACAD_GROUP
350
20E
  3
ACAD_LAYOUT
350
1EF
  3
ACAD_MATERIAL
350
D
  3
ACAD_MLEADERSTYLE
350
283
  3
ACAD_MLINESTYLE
350
20F
  3
ACAD_PLOTSETTINGS
350
210
  3
ACAD_PLOTSTYLENAME
350
A
  3
ACAD_SCALELIST
350
222
  3
ACAD_TABLESTYLE
350
223
  3
ACAD_VISUALSTYLE
350
208
  3
ACDB_RECOMPOSE_DATA
350
273
  3
AcDbVariableDictionary
350
24B
  0
DICTIONARY
  5
209
330
205
100
AcDbDictionary
280
     1
281
     1
  0
DICTIONARY
  5
1FA
330
1F9
100
AcDbDictionary
280
     1
281
     1
  3
ACAD_LAYERFILTERS
360
6D9
  3
ACAD_LAYERSTATES
360
1FC
  3
ACLYDICTIONARY
360
6D8
  0
DICTIONARY
  5
7
330
6
100
AcDbDictionary
280
     1
281
     1
  3
ADSK_XREC_LAYER_RECONCILED
360
8
  0
DICTIONARY
  5
18
330
17
100
AcDbDictionary
280
     1
281
     1
  3
ADSK_XREC_LAYER_RECONCILED
360
19
  0
DICTIONARY
  5
26
330
25
100
AcDbDictionary
280
     1
281
     1
  3
ADSK_XREC_LAYER_RECONCILED
360
27
  0
DICTIONARY
  5
3
330
2
100
AcDbDictionary
280
     1
281
     1
  3
ACAD_SORTENTS
360
24A
  0
DICTIONARY
  5
992
330
293
100
AcDbDictionary
280
     1
281
     1
  0
DICTIONARY
  5
9F4
330
8FD
100
AcDbDictionary
280
     1
281
     1
  3
ACAD_MTEXT_2008_RT
360
9F5
  0
DICTIONARY
  5
9F6
330
941
100
AcDbDictionary
280
     1
281
     1
  3
ACAD_MTEXT_2008_RT
360
9F7
  0
DICTIONARY
  5
9F8
330
942
100
AcDbDictionary
280
     1
281
     1
  3
ACAD_MTEXT_2008_RT
360
9F9
  0
DICTIONARY
  5
9FA
330
967
100
AcDbDictionary
280
     1
281
     1
  3
ACAD_MTEXT_2008_RT
360
9FB
  0
DICTIONARY
  5
9FC
330
96A
100
AcDbDictionary
280
     1
281
     1
  3
ACAD_MTEXT_2008_RT
360
9FD
  0
DICTIONARY
  5
9FE
330
96B
100
AcDbDictionary
280
     1
281
     1
  3
ACAD_MTEXT_2008_RT
360
9FF
  0
DICTIONARY
  5
A00
330
975
100
AcDbDictionary
280
     1
281
     1
  3
ACAD_MTEXT_2008_RT
360
A01
  0
DICTIONARY
  5
A02
330
976
100
AcDbDictionary
280
     1
281
     1
  3
ACAD_MTEXT_2008_RT
360
A03
  0
DICTIONARY
  5
A04
330
977
100
AcDbDictionary
280
     1
281
     1
  3
ACAD_MTEXT_2008_RT
360
A05
  0
DICTIONARY
  5
A06
330
985
100
AcDbDictionary
280
     1
281
     1
  3
ACAD_MTEXT_2008_RT
360
A07
  0
DICTIONARY
  5
A08
330
986
100
AcDbDictionary
280
     1
281
     1
  3
ACAD_MTEXT_2008_RT
360
A09
  0
DICTIONARY
  5
A0A
330
987
100
AcDbDictionary
280
     1
281
     1
  3
ACAD_MTEXT_2008_RT
360
A0B
  0
DICTIONARY
  5
9F2
330
480
100
AcDbDictionary
280
     1
281
     1
  3
ACAD_MTEXT_2008_RT
360
9F3
  0
DICTIONARY
  5
4A4
330
4A3
100
AcDbDictionary
280
     1
281
     1
  3
ACAD_DIMASSOC
360
4A5
  0
DICTIONARY
  5
221
102
{ACAD_REACTORS
330
B
102
}
330
B
100
AcDbDictionary
281
     1
  0
DICTIONARY
  5
20E
102
{ACAD_REACTORS
330
B
102
}
330
B
100
AcDbDictionary
281
     1
  0
DICTIONARY
  5
1EF
102
{ACAD_REACTORS
330
B
102
}
330
B
100
AcDbDictionary
281
     1
  3
Layout1
350
1F4
  3
Layout2
350
1F8
  3
Model
350
1EE
  0
DICTIONARY
  5
D
102
{ACAD_REACTORS
330
B
102
}
330
B
100
AcDbDictionary
281
     1
  3
ByBlock
350
219
  3
ByLayer
350
211
  3
Global
350
C
  0
DICTIONARY
  5
283
102
{ACAD_REACTORS
330
B
102
}
330
B
100
AcDbDictionary
281
     1
  3
Standard
350
284
  0
DICTIONARY
  5
20F
102
{ACAD_REACTORS
330
B
102
}
330
B
100
AcDbDictionary
281
     1
  3
Standard
350
224
  0
DICTIONARY
  5
210
102
{ACAD_REACTORS
330
B
102
}
330
B
100
AcDbDictionary
281
     1
  0
ACDBDICTIONARYWDFLT
  5
A
102
{ACAD_REACTORS
330
B
102
}
330
B
100
AcDbDictionary
281
     1
  3
Normal
350
9
100
AcDbDictionaryWithDefault
340
9
  0
DICTIONARY
  5
222
102
{ACAD_REACTORS
330
B
102
}
330
B
100
AcDbDictionary
281
     1
  3
A0
350
229
  3
A1
350
22A
  3
A2
350
22B
  3
A3
350
22C
  3
A4
350
22D
  3
A5
350
22E
  3
A6
350
22F
  3
A7
350
230
  3
A8
350
231
  3
A9
350
232
  3
B0
350
233
  3
B1
350
234
  3
B2
350
235
  3
B3
350
236
  3
B4
350
237
  3
B5
350
238
  3
B6
350
239
  3
B7
350
23A
  3
B8
350
23B
  3
B9
350
23C
  3
C0
350
23D
  3
C1
350
23E
  3
C2
350
23F
  3
C3
350
240
  3
C4
350
241
  3
C5
350
242
  3
C6
350
243
  3
C7
350
244
  3
C8
350
245
  3
C9
350
246
  3
D0
350
247
  3
D1
350
248
  3
D2
350
249
  0
DICTIONARY
  5
223
102
{ACAD_REACTORS
330
B
102
}
330
B
100
AcDbDictionary
281
     1
  3
Standard
350
225
  0
DICTIONARY
  5
208
102
{ACAD_REACTORS
330
B
102
}
330
B
100
AcDbDictionary
281
     1
  3
2dWireframe
350
207
  3
3D Hidden
350
27B
  3
3dWireframe
350
228
  3
Basic
350
27A
  3
Brighten
350
27E
  3
ColorChange
350
282
  3
Conceptual
350
27C
  3
Dim
350
27D
  3
Facepattern
350
281
  3
Flat
350
276
  3
FlatWithEdges
350
277
  3
Gouraud
350
278
  3
GouraudWithEdges
350
279
  3
Linepattern
350
280
  3
Realistic
350
227
  3
Thicken
350
27F
  0
XRECORD
  5
273
102
{ACAD_REACTORS
330
B
102
}
330
B
100
AcDbXrecord
280
     1
 90
        1
330
225
330
480
330
8FD
330
941
330
942
330
967
330
96A
330
96B
330
975
330
976
330
977
330
985
330
986
330
987
  0
DICTIONARY
  5
24B
102
{ACAD_REACTORS
330
B
102
}
330
B
100
AcDbDictionary
281
     1
  3
CANNOSCALE
350
24E
  3
CMLEADERSTYLE
350
24D
  3
CTABLESTYLE
350
24C
  3
DIMASSOC
350
5D8
  3
HIDETEXT
350
5D7
  3
INDEXCTL
350
5D6
  3
LIGHTINGUNITS
350
24F
  3
MSLTSCALE
350
5D4
  3
SORTENTS
350
5D5
  0
DICTIONARY
  5
6D9
102
{ACAD_REACTORS
330
1FA
102
}
330
1FA
100
AcDbDictionary
281
     1
  0
DICTIONARY
  5
1FC
102
{ACAD_REACTORS
330
1FA
102
}
330
1FA
100
AcDbDictionary
281
     1
  0
DICTIONARY
  5
6D8
102
{ACAD_REACTORS
330
1FA
102
}
330
1FA
100
AcDbDictionary
281
     1
1001
ACAD
1000
<All
  0
XRECORD
  5
8
102
{ACAD_REACTORS
330
7
102
}
330
7
100
AcDbXrecord
280
     1
290
     1
  0
XRECORD
  5
19
102
{ACAD_REACTORS
330
18
102
}
330
18
100
AcDbXrecord
280
     1
290
     1
  0
XRECORD
  5
27
102
{ACAD_REACTORS
330
26
102
}
330
26
100
AcDbXrecord
280
     1
290
     1
  0
SORTENTSTABLE
  5
24A
102
{ACAD_REACTORS
330
3
102
}
330
3
100
AcDbSortentsTable
330
2
  0
XRECORD
  5
9F5
102
{ACAD_REACTORS
330
9F4
102
}
330
9F4
100
AcDbXrecord
280
     1
 40
1527.0
  1
\pxqc;BQ LUO
  0
XRECORD
  5
9F7
102
{ACAD_REACTORS
330
9F6
102
}
330
9F6
100
AcDbXrecord
280
     1
 40
3624820.0
  1
\pxqc;档案员{\H0.7x;\P\Fromans|c134;Filing Clerk\fFangSong_GB2312|b0|i0|c134|p49; }
  0
XRECORD
  5
9F9
102
{ACAD_REACTORS
330
9F8
102
}
330
9F8
100
AcDbXrecord
280
     1
 40
2054623.0
  1
\pxqc;日期{\Fromans|c134;/Date}
  0
XRECORD
  5
9FB
102
{ACAD_REACTORS
330
9FA
102
}
330
9FA
100
AcDbXrecord
280
     1
 40
1836818.0
  1
\pxsm0.7;{\fFangSong_GB2312|b0|i0|c134|p49;标准化}\PStand.
  0
XRECORD
  5
9FD
102
{ACAD_REACTORS
330
9FC
102
}
330
9FC
100
AcDbXrecord
280
     1
 40
1476476.0
  1
\pxsm0.7;签名\P{\Fromans|c134;Signature} 
  0
XRECORD
  5
9FF
102
{ACAD_REACTORS
330
9FE
102
}
330
9FE
100
AcDbXrecord
280
     1
 40
1354713.0
  1
\pxsm0.7,qc;处数\P{\Fromans|c134;Number }
  0
XRECORD
  5
A01
102
{ACAD_REACTORS
330
A00
102
}
330
A00
100
AcDbXrecord
280
     1
 40
1692934.0
  1
\pxsm0.7;标记\P{\Fromans|c134;Mark}
  0
XRECORD
  5
A03
102
{ACAD_REACTORS
330
A02
102
}
330
A02
100
AcDbXrecord
280
     1
 40
1391581.0
  1
\pxsm0.7;审核\P{\Fromans|c134;Checked}
  0
XRECORD
  5
A05
102
{ACAD_REACTORS
330
A04
102
}
330
A04
100
AcDbXrecord
280
     1
 40
1546703.0
  1
\pxsm0.7;绘图\P{\Fromans|c134;Drawn\Ftxt|c134; }
  0
XRECORD
  5
A07
102
{ACAD_REACTORS
330
A06
102
}
330
A06
100
AcDbXrecord
280
     1
 40
1293614.0
  1
\pxsm0.7;批准\P{\Fromans|c134;Approved}
  0
XRECORD
  5
A09
102
{ACAD_REACTORS
330
A08
102
}
330
A08
100
AcDbXrecord
280
     1
 40
1583427.0
  1
\pxsm0.7;工艺\P{\Fromans|c134;Process}
  0
XRECORD
  5
A0B
102
{ACAD_REACTORS
330
A0A
102
}
330
A0A
100
AcDbXrecord
280
     1
 40
1435325.0
  1
\pxsm0.7;日期\P{\Fromans|c134;Date}
  0
XRECORD
  5
9F3
102
{ACAD_REACTORS
330
9F2
102
}
330
9F2
100
AcDbXrecord
280
     1
 40
322393930.0
  1
\A1;\pxql;{\f仿宋_GB2312|b0|i0|c134|p49;技术参数}:\P\pq*;- {\f仿宋_GB2312|b0|i0|c134|p49;材料}: {\f仿宋_GB2312|b0|i0|c134|p49;铜合金}\P- {\f仿宋_GB2312|b0|i0|c134|p49;表面处理}: {\f仿宋_GB2312|b0|i0|c134|p49;镀银}\P\pql;- {\f仿宋_GB2312|b0|i0|c134|p49;额定电流}: 10A\P- {\f仿宋_GB231
  1
2|b0|i0|c134|p49;接触电阻}: ≤3mΩ\P- {\f仿宋_GB2312|b0|i0|c134|p49;线径范围}: 0.5mm{\H0.7x;\S2^ ;}(20 AWG)\P\pq*;- {\f仿宋_GB2312|b0|i0|c134|p49;可插拔次数}: {\f仿宋_GB2312|b0|i0|c134|p49;≥}500\P\P\pql;Technical specification:\P- Material: copper alloy\P- Surface: hard-s
  1
ilver plated\P- Rated current: 10A\P- Contact resistance: ≤3mΩ\P- Wire gauge: 0.5mm{\H0.7x;\S2^ ;}(20 AWG)\P- Mating cycles: {\f仿宋_GB2312|b0|i0|c134|p49;≥}500
  0
DIMASSOC
  5
4A5
102
{ACAD_REACTORS
330
4A4
102
}
330
4A4
100
AcDbDimAssoc
330
4A3
 90
        3
 70
     0
 71
     0
  1
AcDbOsnapPointRef
 72
     1
331
49B
 73
     2
 91
        0
 40
1.0
 10
0.0
 20
0.0
 30
2.000000000000000E+50
 75
     0
  1
AcDbOsnapPointRef
 72
    13
331
49C
 73
     2
 91
        0
 40
0.0
 10
0.0
 20
0.0
 30
2.000000000000000E+50
 75
     0
  0
LAYOUT
  5
1F4
102
{ACAD_REACTORS
330
1EF
102
}
330
1EF
100
AcDbPlotSettings
  1

  2
none_device
  4

  6

 40
0.0
 41
0.0
 42
0.0
 43
0.0
 44
0.0
 45
0.0
 46
0.0
 47
0.0
 48
0.0
 49
0.0
140
0.0
141
0.0
142
1.0
143
1.0
 70
   688
 72
     0
 73
     0
 74
     5
  7

 75
    16
147
1.0
 76
     0
 77
     2
 78
   300
148
0.0
149
0.0
100
AcDbLayout
  1
Layout1
 70
     1
 71
     1
 10
0.0
 20
0.0
 11
12.0
 21
9.0
 12
0.0
 22
0.0
 32
0.0
 14
1.000000000000000E+20
 24
1.000000000000000E+20
 34
1.000000000000000E+20
 15
-1.000000000000000E+20
 25
-1.000000000000000E+20
 35
-1.000000000000000E+20
146
0.0
 13
0.0
 23
0.0
 33
0.0
 16
1.0
 26
0.0
 36
0.0
 17
0.0
 27
1.0
 37
0.0
 76
     0
330
1F1
  0
LAYOUT
  5
1F8
102
{ACAD_REACTORS
330
1EF
102
}
330
1EF
100
AcDbPlotSettings
  1

  2
none_device
  4

  6

 40
0.0
 41
0.0
 42
0.0
 43
0.0
 44
0.0
 45
0.0
 46
0.0
 47
0.0
 48
0.0
 49
0.0
140
0.0
141
0.0
142
1.0
143
1.0
 70
   688
 72
     0
 73
     0
 74
     5
  7

 75
    16
147
1.0
 76
     0
 77
     2
 78
   300
148
0.0
149
0.0
100
AcDbLayout
  1
Layout2
 70
     1
 71
     2
 10
0.0
 20
0.0
 11
0.0
 21
0.0
 12
0.0
 22
0.0
 32
0.0
 14
0.0
 24
0.0
 34
0.0
 15
0.0
 25
0.0
 35
0.0
146
0.0
 13
0.0
 23
0.0
 33
0.0
 16
1.0
 26
0.0
 36
0.0
 17
0.0
 27
1.0
 37
0.0
 76
     0
330
1F5
  0
LAYOUT
  5
1EE
102
{ACAD_REACTORS
330
1EF
102
}
330
1EF
100
AcDbPlotSettings
  1

  2
Adobe PDF Converter.pc3
  4
A4
  6

 40
3.174999952316281
 41
3.174999952316281
 42
3.17498779296875
 43
3.175003051757812
 44
297.0318298339844
 45
209.9733276367186
 46
0.0000000000000076
 47
1.630241740247063
 48
246.9897427644609
 49
39.36804549891383
140
544.952097801264
141
244.7492402188181
142
1.0
143
1.025046328645055
 70
  3764
 72
     1
 73
     0
 74
     4
  7
monochrome.ctb
 75
     0
147
0.9755656618192436
 76
     1
 77
     2
 78
   300
148
-246.9897427644609
149
-39.36804549891383
100
AcDbLayout
  1
Model
 70
     1
 71
     0
 10
0.0
 20
0.0
 11
12.0
 21
9.0
 12
0.0
 22
0.0
 32
0.0
 14
1.000000000000000E+20
 24
1.000000000000000E+20
 34
1.000000000000000E+20
 15
-1.000000000000000E+20
 25
-1.000000000000000E+20
 35
-1.000000000000000E+20
146
0.0
 13
0.0
 23
0.0
 33
0.0
 16
1.0
 26
0.0
 36
0.0
 17
0.0
 27
1.0
 37
0.0
 76
     0
330
2
331
206
1001
ACAD_PSEXT
1000
Adobe PDF Converter.pc3
1000
Adobe PDF Converter
1000
桌面\*.pdf
1000

1070
     0
  0
MATERIAL
  5
219
102
{ACAD_XDICTIONARY
360
21A
102
}
102
{ACAD_REACTORS
330
D
102
}
330
D
100
AcDbMaterial
  1
ByBlock
 72
     0
 43
0.0208333333333333
 43
0.0
 43
0.0
 43
0.0
 43
0.0
 43
0.0208333333333333
 43
0.0
 43
0.0
 43
0.0
 43
0.0
 43
1.0
 43
0.0
 43
0.0
 43
0.0
 43
0.0
 43
1.0
 77
     0
 47
0.0208333333333333
 47
0.0
 47
0.0
 47
0.0
 47
0.0
 47
0.0208333333333333
 47
0.0
 47
0.0
 47
0.0
 47
0.0
 47
1.0
 47
0.0
 47
0.0
 47
0.0
 47
0.0
 47
1.0
171
     0
 49
0.0208333333333333
 49
0.0
 49
0.0
 49
0.0
 49
0.0
 49
0.0208333333333333
 49
0.0
 49
0.0
 49
0.0
 49
0.0
 49
1.0
 49
0.0
 49
0.0
 49
0.0
 49
0.0
 49
1.0
175
     0
142
0.0208333333333333
142
0.0
142
0.0
142
0.0
142
0.0
142
0.0208333333333333
142
0.0
142
0.0
142
0.0
142
0.0
142
1.0
142
0.0
142
0.0
142
0.0
142
0.0
142
1.0
179
     0
144
0.0208333333333333
144
0.0
144
0.0
144
0.0
144
0.0
144
0.0208333333333333
144
0.0
144
0.0
144
0.0
144
0.0
144
1.0
144
0.0
144
0.0
144
0.0
144
0.0
144
1.0
147
0.0208333333333333
147
0.0
147
0.0
147
0.0
147
0.0
147
0.0208333333333333
147
0.0
147
0.0
147
0.0
147
0.0
147
1.0
147
0.0
147
0.0
147
0.0
147
0.0
147
1.0
  0
MATERIAL
  5
211
102
{ACAD_XDICTIONARY
360
212
102
}
102
{ACAD_REACTORS
330
D
102
}
330
D
100
AcDbMaterial
  1
ByLayer
 72
     0
 43
0.0208333333333333
 43
0.0
 43
0.0
 43
0.0
 43
0.0
 43
0.0208333333333333
 43
0.0
 43
0.0
 43
0.0
 43
0.0
 43
1.0
 43
0.0
 43
0.0
 43
0.0
 43
0.0
 43
1.0
 77
     0
 47
0.0208333333333333
 47
0.0
 47
0.0
 47
0.0
 47
0.0
 47
0.0208333333333333
 47
0.0
 47
0.0
 47
0.0
 47
0.0
 47
1.0
 47
0.0
 47
0.0
 47
0.0
 47
0.0
 47
1.0
171
     0
 49
0.0208333333333333
 49
0.0
 49
0.0
 49
0.0
 49
0.0
 49
0.0208333333333333
 49
0.0
 49
0.0
 49
0.0
 49
0.0
 49
1.0
 49
0.0
 49
0.0
 49
0.0
 49
0.0
 49
1.0
175
     0
142
0.0208333333333333
142
0.0
142
0.0
142
0.0
142
0.0
142
0.0208333333333333
142
0.0
142
0.0
142
0.0
142
0.0
142
1.0
142
0.0
142
0.0
142
0.0
142
0.0
142
1.0
179
     0
144
0.0208333333333333
144
0.0
144
0.0
144
0.0
144
0.0
144
0.0208333333333333
144
0.0
144
0.0
144
0.0
144
0.0
144
1.0
144
0.0
144
0.0
144
0.0
144
0.0
144
1.0
147
0.0208333333333333
147
0.0
147
0.0
147
0.0
147
0.0
147
0.0208333333333333
147
0.0
147
0.0
147
0.0
147
0.0
147
1.0
147
0.0
147
0.0
147
0.0
147
0.0
147
1.0
  0
MATERIAL
  5
C
102
{ACAD_XDICTIONARY
360
E
102
}
102
{ACAD_REACTORS
330
D
102
}
330
D
100
AcDbMaterial
  1
Global
 72
     0
 43
0.0208333333333333
 43
0.0
 43
0.0
 43
0.0
 43
0.0
 43
0.0208333333333333
 43
0.0
 43
0.0
 43
0.0
 43
0.0
 43
1.0
 43
0.0
 43
0.0
 43
0.0
 43
0.0
 43
1.0
 77
     0
 47
0.0208333333333333
 47
0.0
 47
0.0
 47
0.0
 47
0.0
 47
0.0208333333333333
 47
0.0
 47
0.0
 47
0.0
 47
0.0
 47
1.0
 47
0.0
 47
0.0
 47
0.0
 47
0.0
 47
1.0
171
     0
 49
0.0208333333333333
 49
0.0
 49
0.0
 49
0.0
 49
0.0
 49
0.0208333333333333
 49
0.0
 49
0.0
 49
0.0
 49
0.0
 49
1.0
 49
0.0
 49
0.0
 49
0.0
 49
0.0
 49
1.0
175
     0
142
0.0208333333333333
142
0.0
142
0.0
142
0.0
142
0.0
142
0.0208333333333333
142
0.0
142
0.0
142
0.0
142
0.0
142
1.0
142
0.0
142
0.0
142
0.0
142
0.0
142
1.0
179
     0
144
0.0208333333333333
144
0.0
144
0.0
144
0.0
144
0.0
144
0.0208333333333333
144
0.0
144
0.0
144
0.0
144
0.0
144
1.0
144
0.0
144
0.0
144
0.0
144
0.0
144
1.0
147
0.0208333333333333
147
0.0
147
0.0
147
0.0
147
0.0
147
0.0208333333333333
147
0.0
147
0.0
147
0.0
147
0.0
147
1.0
147
0.0
147
0.0
147
0.0
147
0.0
147
1.0
  0
MLEADERSTYLE
  5
284
102
{ACAD_REACTORS
330
283
102
}
330
283
100
AcDbMLeaderStyle
170
     2
171
     1
172
     0
 90
        2
 40
0.0
 41
0.0
173
     1
 91
-1056964608
340
201
 92
       -2
290
     1
 42
0.09
291
     1
 43
0.36
  3
Standard
 44
0.18
300

342
46
174
     1
178
     6
175
     1
176
     0
 93
-1056964608
 45
0.18
292
     0
297
     0
 46
0.18
 94
-1056964608
 47
1.0
 49
1.0
140
1.0
293
     1
141
0.0
294
     1
177
     0
142
1.0
295
     0
296
     0
143
0.125
1001
ACAD_MLEADERVER
1070
     2
  0
MLINESTYLE
  5
224
102
{ACAD_REACTORS
330
20F
102
}
330
20F
100
AcDbMlineStyle
  2
STANDARD
 70
     0
  3

 62
   256
 51
90.0
 52
90.0
 71
     2
 49
0.5
 62
   256
  6
BYLAYER
 49
-0.5
 62
   256
  6
BYLAYER
  0
ACDBPLACEHOLDER
  5
9
102
{ACAD_REACTORS
330
A
102
}
330
A
  0
SCALE
  5
229
102
{ACAD_REACTORS
330
222
102
}
330
222
100
AcDbScale
 70
     0
300
1:1
140
1.0
141
1.0
290
     1
  0
SCALE
  5
22A
102
{ACAD_REACTORS
330
222
102
}
330
222
100
AcDbScale
 70
     0
300
1:2
140
1.0
141
2.0
290
     0
  0
SCALE
  5
22B
102
{ACAD_REACTORS
330
222
102
}
330
222
100
AcDbScale
 70
     0
300
1:4
140
1.0
141
4.0
290
     0
  0
SCALE
  5
22C
102
{ACAD_REACTORS
330
222
102
}
330
222
100
AcDbScale
 70
     0
300
1:5
140
1.0
141
5.0
290
     0
  0
SCALE
  5
22D
102
{ACAD_REACTORS
330
222
102
}
330
222
100
AcDbScale
 70
     0
300
1:8
140
1.0
141
8.0
290
     0
  0
SCALE
  5
22E
102
{ACAD_REACTORS
330
222
102
}
330
222
100
AcDbScale
 70
     0
300
1:10
140
1.0
141
10.0
290
     0
  0
SCALE
  5
22F
102
{ACAD_REACTORS
330
222
102
}
330
222
100
AcDbScale
 70
     0
300
1:16
140
1.0
141
16.0
290
     0
  0
SCALE
  5
230
102
{ACAD_REACTORS
330
222
102
}
330
222
100
AcDbScale
 70
     0
300
1:20
140
1.0
141
20.0
290
     0
  0
SCALE
  5
231
102
{ACAD_REACTORS
330
222
102
}
330
222
100
AcDbScale
 70
     0
300
1:30
140
1.0
141
30.0
290
     0
  0
SCALE
  5
232
102
{ACAD_REACTORS
330
222
102
}
330
222
100
AcDbScale
 70
     0
300
1:40
140
1.0
141
40.0
290
     0
  0
SCALE
  5
233
102
{ACAD_REACTORS
330
222
102
}
330
222
100
AcDbScale
 70
     0
300
1:50
140
1.0
141
50.0
290
     0
  0
SCALE
  5
234
102
{ACAD_REACTORS
330
222
102
}
330
222
100
AcDbScale
 70
     0
300
1:100
140
1.0
141
100.0
290
     0
  0
SCALE
  5
235
102
{ACAD_REACTORS
330
222
102
}
330
222
100
AcDbScale
 70
     0
300
2:1
140
2.0
141
1.0
290
     0
  0
SCALE
  5
236
102
{ACAD_REACTORS
330
222
102
}
330
222
100
AcDbScale
 70
     0
300
4:1
140
4.0
141
1.0
290
     0
  0
SCALE
  5
237
102
{ACAD_REACTORS
330
222
102
}
330
222
100
AcDbScale
 70
     0
300
8:1
140
8.0
141
1.0
290
     0
  0
SCALE
  5
238
102
{ACAD_REACTORS
330
222
102
}
330
222
100
AcDbScale
 70
     0
300
10:1
140
10.0
141
1.0
290
     0
  0
SCALE
  5
239
102
{ACAD_REACTORS
330
222
102
}
330
222
100
AcDbScale
 70
     0
300
100:1
140
100.0
141
1.0
290
     0
  0
SCALE
  5
23A
102
{ACAD_REACTORS
330
222
102
}
330
222
100
AcDbScale
 70
     0
300
1/128" = 1'-0"
140
0.0078125
141
12.0
290
     0
  0
SCALE
  5
23B
102
{ACAD_REACTORS
330
222
102
}
330
222
100
AcDbScale
 70
     0
300
1/64" = 1'-0"
140
0.015625
141
12.0
290
     0
  0
SCALE
  5
23C
102
{ACAD_REACTORS
330
222
102
}
330
222
100
AcDbScale
 70
     0
300
1/32" = 1'-0"
140
0.03125
141
12.0
290
     0
  0
SCALE
  5
23D
102
{ACAD_REACTORS
330
222
102
}
330
222
100
AcDbScale
 70
     0
300
1/16" = 1'-0"
140
0.0625
141
12.0
290
     0
  0
SCALE
  5
23E
102
{ACAD_REACTORS
330
222
102
}
330
222
100
AcDbScale
 70
     0
300
3/32" = 1'-0"
140
0.09375
141
12.0
290
     0
  0
SCALE
  5
23F
102
{ACAD_REACTORS
330
222
102
}
330
222
100
AcDbScale
 70
     0
300
1/8" = 1'-0"
140
0.125
141
12.0
290
     0
  0
SCALE
  5
240
102
{ACAD_REACTORS
330
222
102
}
330
222
100
AcDbScale
 70
     0
300
3/16" = 1'-0"
140
0.1875
141
12.0
290
     0
  0
SCALE
  5
241
102
{ACAD_REACTORS
330
222
102
}
330
222
100
AcDbScale
 70
     0
300
1/4" = 1'-0"
140
0.25
141
12.0
290
     0
  0
SCALE
  5
242
102
{ACAD_REACTORS
330
222
102
}
330
222
100
AcDbScale
 70
     0
300
3/8" = 1'-0"
140
0.375
141
12.0
290
     0
  0
SCALE
  5
243
102
{ACAD_REACTORS
330
222
102
}
330
222
100
AcDbScale
 70
     0
300
1/2" = 1'-0"
140
0.5
141
12.0
290
     0
  0
SCALE
  5
244
102
{ACAD_REACTORS
330
222
102
}
330
222
100
AcDbScale
 70
     0
300
3/4" = 1'-0"
140
0.75
141
12.0
290
     0
  0
SCALE
  5
245
102
{ACAD_REACTORS
330
222
102
}
330
222
100
AcDbScale
 70
     0
300
1" = 1'-0"
140
1.0
141
12.0
290
     0
  0
SCALE
  5
246
102
{ACAD_REACTORS
330
222
102
}
330
222
100
AcDbScale
 70
     0
300
1-1/2" = 1'-0"
140
1.5
141
12.0
290
     0
  0
SCALE
  5
247
102
{ACAD_REACTORS
330
222
102
}
330
222
100
AcDbScale
 70
     0
300
3" = 1'-0"
140
3.0
141
12.0
290
     0
  0
SCALE
  5
248
102
{ACAD_REACTORS
330
222
102
}
330
222
100
AcDbScale
 70
     0
300
6" = 1'-0"
140
6.0
141
12.0
290
     0
  0
SCALE
  5
249
102
{ACAD_REACTORS
330
222
102
}
330
222
100
AcDbScale
 70
     0
300
1'-0" = 1'-0"
140
12.0
141
12.0
290
     0
  0
TABLESTYLE
  5
225
102
{ACAD_XDICTIONARY
360
226
102
}
102
{ACAD_REACTORS
330
223
102
}
330
223
100
AcDbTableStyle
  3
Standard
 70
     0
 71
     0
 40
0.06
 41
0.06
280
     0
281
     0
  7
Standard
140
0.18
170
     2
 62
     0
 63
     7
283
     0
 90
      512
 91
        0
  1

274
    -2
284
     1
 64
     0
275
    -2
285
     1
 65
     0
276
    -2
286
     1
 66
     0
277
    -2
287
     1
 67
     0
278
    -2
288
     1
 68
     0
279
    -2
289
     1
 69
     0
  7
Standard
140
0.25
170
     5
 62
     0
 63
     7
283
     0
 90
      512
 91
        0
  1

274
    -2
284
     1
 64
     0
275
    -2
285
     1
 65
     0
276
    -2
286
     1
 66
     0
277
    -2
287
     1
 67
     0
278
    -2
288
     1
 68
     0
279
    -2
289
     1
 69
     0
  7
Standard
140
0.18
170
     5
 62
     0
 63
     7
283
     0
 90
      512
 91
        0
  1

274
    -2
284
     1
 64
     0
275
    -2
285
     1
 65
     0
276
    -2
286
     1
 66
     0
277
    -2
287
     1
 67
     0
278
    -2
288
     1
 68
     0
279
    -2
289
     1
 69
     0
  0
VISUALSTYLE
  5
207
102
{ACAD_REACTORS
330
208
102
}
330
208
100
AcDbVisualStyle
  2
2dWireframe
 70
     4
 71
     0
 72
     2
 73
     0
 90
        0
 40
-0.6
 41
-30.0
 62
     5
 63
     7
 74
     1
 91
        4
 64
     7
 65
   257
 75
     1
175
     1
 42
1.0
 92
        0
 66
   257
 43
1.0
 76
     1
 77
     6
 78
     2
 67
     7
 79
     5
170
     0
171
     0
290
     0
174
     0
 93
        1
 44
0.0
173
     0
291
     0
 45
0.0
1001
ACAD
1000
AcDbSavedByObjectVersion
1070
     0
1000
AcDbSavedByObjectVersion
1070
     0
1000
AcDbSavedByObjectVersion
1070
     0
1000
AcDbSavedByObjectVersion
1070
     0
1000
AcDbSavedByObjectVersion
1070
     0
1000
AcDbSavedByObjectVersion
1070
     0
1000
AcDbSavedByObjectVersion
1070
     0
1000
AcDbSavedByObjectVersion
1070
     0
1000
AcDbSavedByObjectVersion
1070
     0
1000
AcDbSavedByObjectVersion
1070
     0
1000
AcDbSavedByObjectVersion
1070
     0
1000
AcDbSavedByObjectVersion
1070
     0
1000
AcDbSavedByObjectVersion
1070
     0
1000
AcDbSavedByObjectVersion
1070
     0
1000
AcDbSavedByObjectVersion
1070
     0
1000
AcDbSavedByObjectVersion
1070
     0
1000
AcDbSavedByObjectVersion
1070
     0
1000
AcDbSavedByObjectVersion
1070
     0
1000
AcDbSavedByObjectVersion
1070
     0
1000
AcDbSavedByObjectVersion
1070
     0
1000
AcDbSavedByObjectVersion
1070
     0
1000
AcDbSavedByObjectVersion
1070
     0
1000
AcDbSavedByObjectVersion
1070
     0
1000
AcDbSavedByObjectVersion
1070
     0
1000
AcDbSavedByObjectVersion
1070
     0
1000
AcDbSavedByObjectVersion
1070
     0
1000
AcDbSavedByObjectVersion
1070
     0
1000
AcDbSavedByObjectVersion
1070
     0
1000
AcDbSavedByObjectVersion
1070
     0
  0
VISUALSTYLE
  5
27B
102
{ACAD_REACTORS
330
208
102
}
330
208
100
AcDbVisualStyle
  2
3D Hidden
 70
     6
 71
     1
 72
     2
 73
     2
 90
        0
 40
-0.6
 41
-30.0
 62
     5
 63
     7
 74
     2
 91
        2
 64
     7
 65
   257
 75
     2
175
     1
 42
40.0
 92
        0
 66
   257
 43
1.0
 76
     1
 77
     6
 78
     2
 67
     7
 79
     3
170
     0
171
     0
290
     0
174
     0
 93
        1
 44
0.0
173
     0
291
     0
 45
0.0
1001
ACAD
1000
AcDbSavedByObjectVersion
1070
     0
1000
AcDbSavedByObjectVersion
1070
     0
1000
AcDbSavedByObjectVersion
1070
     0
  0
VISUALSTYLE
  5
228
102
{ACAD_REACTORS
330
208
102
}
330
208
100
AcDbVisualStyle
  2
3dWireframe
 70
     5
 71
     0
 72
     2
 73
     0
 90
        0
 40
-0.6
 41
-30.0
 62
     5
 63
     7
 74
     1
 91
        4
 64
     7
 65
   257
 75
     1
175
     1
 42
1.0
 92
        0
 66
   257
 43
1.0
 76
     1
 77
     6
 78
     2
 67
     7
 79
     5
170
     0
171
     0
290
     0
174
     0
 93
        1
 44
0.0
173
     0
291
     0
 45
0.0
1001
ACAD
1000
AcDbSavedByObjectVersion
1070
     0
1000
AcDbSavedByObjectVersion
1070
     0
1000
AcDbSavedByObjectVersion
1070
     0
1000
AcDbSavedByObjectVersion
1070
     0
1000
AcDbSavedByObjectVersion
1070
     0
1000
AcDbSavedByObjectVersion
1070
     0
1000
AcDbSavedByObjectVersion
1070
     0
1000
AcDbSavedByObjectVersion
1070
     0
1000
AcDbSavedByObjectVersion
1070
     0
1000
AcDbSavedByObjectVersion
1070
     0
1000
AcDbSavedByObjectVersion
1070
     0
1000
AcDbSavedByObjectVersion
1070
     0
1000
AcDbSavedByObjectVersion
1070
     0
1000
AcDbSavedByObjectVersion
1070
     0
1000
AcDbSavedByObjectVersion
1070
     0
1000
AcDbSavedByObjectVersion
1070
     0
1000
AcDbSavedByObjectVersion
1070
     0
1000
AcDbSavedByObjectVersion
1070
     0
1000
AcDbSavedByObjectVersion
1070
     0
1000
AcDbSavedByObjectVersion
1070
     0
1000
AcDbSavedByObjectVersion
1070
     0
1000
AcDbSavedByObjectVersion
1070
     0
1000
AcDbSavedByObjectVersion
1070
     0
1000
AcDbSavedByObjectVersion
1070
     0
1000
AcDbSavedByObjectVersion
1070
     0
1000
AcDbSavedByObjectVersion
1070
     0
1000
AcDbSavedByObjectVersion
1070
     0
1000
AcDbSavedByObjectVersion
1070
     0
1000
AcDbSavedByObjectVersion
1070
     0
  0
VISUALSTYLE
  5
27A
102
{ACAD_REACTORS
330
208
102
}
330
208
100
AcDbVisualStyle
  2
Basic
 70
     7
 71
     1
 72
     0
 73
     1
 90
        0
 40
-0.6
 41
-30.0
 62
     5
 63
     7
 74
     0
 91
        4
 64
     7
 65
   257
 75
     1
175
     1
 42
1.0
 92
        8
 66
     7
 43
1.0
 76
     1
 77
     6
 78
     2
 67
     7
 79
     5
170
     0
171
     0
290
     0
174
     0
 93
        1
 44
0.0
173
     0
291
     1
 45
0.0
1001
ACAD
1000
AcDbSavedByObjectVersion
1070
     0
1000
AcDbSavedByObjectVersion
1070
     0
1000
AcDbSavedByObjectVersion
1070
     0
  0
VISUALSTYLE
  5
27E
102
{ACAD_REACTORS
330
208
102
}
330
208
100
AcDbVisualStyle
  2
Brighten
 70
    12
 71
     2
 72
     2
 73
     0
 90
        0
 40
-0.6
 41
-30.0
 62
     5
 63
     7
 74
     1
 91
        4
 64
     7
 65
   257
 75
     1
175
     1
 42
1.0
 92
        8
 66
     7
 43
1.0
 76
     1
 77
     6
 78
     2
 67
     7
 79
     5
170
     0
171
     0
290
     0
174
     0
 93
        1
 44
50.0
173
     0
291
     1
 45
0.0
1001
ACAD
1000
AcDbSavedByObjectVersion
1070
     0
1000
AcDbSavedByObjectVersion
1070
     0
1000
AcDbSavedByObjectVersion
1070
     0
  0
VISUALSTYLE
  5
282
102
{ACAD_REACTORS
330
208
102
}
330
208
100
AcDbVisualStyle
  2
ColorChange
 70
    16
 71
     2
 72
     2
 73
     3
 90
        0
 40
-0.6
 41
-30.0
 62
     5
 63
     8
 74
     1
 91
        4
 64
     7
 65
   257
 75
     1
175
     1
 42
1.0
 92
        8
 66
     8
 43
1.0
 76
     1
 77
     6
 78
     2
 67
     7
 79
     5
170
     0
171
     0
290
     0
174
     0
 93
        1
 44
0.0
173
     0
291
     1
 45
0.0
1001
ACAD
1000
AcDbSavedByObjectVersion
1070
     0
1000
AcDbSavedByObjectVersion
1070
     0
1000
AcDbSavedByObjectVersion
1070
     0
  0
VISUALSTYLE
  5
27C
102
{ACAD_REACTORS
330
208
102
}
330
208
100
AcDbVisualStyle
  2
Conceptual
 70
     9
 71
     3
 72
     2
 73
     0
 90
        0
 40
-0.6
 41
-30.0
 62
     5
 63
     7
 74
     2
 91
        2
 64
     7
 65
   257
 75
     1
175
     1
 42
40.0
 92
        8
 66
     7
 43
1.0
 76
     1
 77
     6
 78
     2
 67
     7
 79
     3
170
     0
171
     0
290
     0
174
     0
 93
        1
 44
0.0
173
     0
291
     0
 45
0.0
1001
ACAD
1000
AcDbSavedByObjectVersion
1070
     0
1000
AcDbSavedByObjectVersion
1070
     0
1000
AcDbSavedByObjectVersion
1070
     0
  0
VISUALSTYLE
  5
27D
102
{ACAD_REACTORS
330
208
102
}
330
208
100
AcDbVisualStyle
  2
Dim
 70
    11
 71
     2
 72
     2
 73
     0
 90
        0
 40
-0.6
 41
-30.0
 62
     5
 63
     7
 74
     1
 91
        4
 64
     7
 65
   257
 75
     1
175
     1
 42
1.0
 92
        8
 66
     7
 43
1.0
 76
     1
 77
     6
 78
     2
 67
     7
 79
     5
170
     0
171
     0
290
     0
174
     0
 93
        1
 44
-50.0
173
     0
291
     1
 45
0.0
1001
ACAD
1000
AcDbSavedByObjectVersion
1070
     0
1000
AcDbSavedByObjectVersion
1070
     0
1000
AcDbSavedByObjectVersion
1070
     0
  0
VISUALSTYLE
  5
281
102
{ACAD_REACTORS
330
208
102
}
330
208
100
AcDbVisualStyle
  2
Facepattern
 70
    15
 71
     2
 72
     2
 73
     0
 90
        0
 40
-0.6
 41
-30.0
 62
     5
 63
     7
 74
     1
 91
        4
 64
     7
 65
   257
 75
     1
175
     1
 42
1.0
 92
        8
 66
     7
 43
1.0
 76
     1
 77
     6
 78
     2
 67
     7
 79
     5
170
     0
171
     0
290
     0
174
     0
 93
        1
 44
0.0
173
     0
291
     1
 45
0.0
1001
ACAD
1000
AcDbSavedByObjectVersion
1070
     0
1000
AcDbSavedByObjectVersion
1070
     0
1000
AcDbSavedByObjectVersion
1070
     0
  0
VISUALSTYLE
  5
276
102
{ACAD_REACTORS
330
208
102
}
330
208
100
AcDbVisualStyle
  2
Flat
 70
     0
 71
     2
 72
     1
 73
     1
 90
        2
 40
-0.6
 41
30.0
 62
     5
 63
     7
 74
     0
 91
        4
 64
     7
 65
   257
 75
     1
175
     1
 42
1.0
 92
        8
 66
     7
 43
1.0
 76
     1
 77
     6
 78
     2
 67
     7
 79
     5
170
     0
171
     0
290
     0
174
     0
 93
       13
 44
0.0
173
     0
291
     1
 45
0.0
1001
ACAD
1000
AcDbSavedByObjectVersion
1070
     0
1000
AcDbSavedByObjectVersion
1070
     0
1000
AcDbSavedByObjectVersion
1070
     0
  0
VISUALSTYLE
  5
277
102
{ACAD_REACTORS
330
208
102
}
330
208
100
AcDbVisualStyle
  2
FlatWithEdges
 70
     1
 71
     2
 72
     1
 73
     1
 90
        2
 40
-0.6
 41
30.0
 62
     5
 63
     7
 74
     1
 91
        4
 64
     7
 65
   257
 75
     1
175
     1
 42
1.0
 92
        0
 66
   257
 43
1.0
 76
     1
 77
     6
 78
     2
 67
     7
 79
     5
170
     0
171
     0
290
     0
174
     0
 93
       13
 44
0.0
173
     0
291
     1
 45
0.0
1001
ACAD
1000
AcDbSavedByObjectVersion
1070
     0
1000
AcDbSavedByObjectVersion
1070
     0
1000
AcDbSavedByObjectVersion
1070
     0
  0
VISUALSTYLE
  5
278
102
{ACAD_REACTORS
330
208
102
}
330
208
100
AcDbVisualStyle
  2
Gouraud
 70
     2
 71
     2
 72
     2
 73
     1
 90
        2
 40
-0.6
 41
30.0
 62
     5
 63
     7
 74
     0
 91
        4
 64
     7
 65
   257
 75
     1
175
     1
 42
1.0
 92
        0
 66
     7
 43
1.0
 76
     1
 77
     6
 78
     2
 67
     7
 79
     5
170
     0
171
     0
290
     0
174
     0
 93
       13
 44
0.0
173
     0
291
     1
 45
0.0
1001
ACAD
1000
AcDbSavedByObjectVersion
1070
     0
1000
AcDbSavedByObjectVersion
1070
     0
1000
AcDbSavedByObjectVersion
1070
     0
  0
VISUALSTYLE
  5
279
102
{ACAD_REACTORS
330
208
102
}
330
208
100
AcDbVisualStyle
  2
GouraudWithEdges
 70
     3
 71
     2
 72
     2
 73
     1
 90
        2
 40
-0.6
 41
30.0
 62
     5
 63
     7
 74
     1
 91
        4
 64
     7
 65
   257
 75
     1
175
     1
 42
1.0
 92
        0
 66
   257
 43
1.0
 76
     1
 77
     6
 78
     2
 67
     7
 79
     5
170
     0
171
     0
290
     0
174
     0
 93
       13
 44
0.0
173
     0
291
     1
 45
0.0
1001
ACAD
1000
AcDbSavedByObjectVersion
1070
     0
1000
AcDbSavedByObjectVersion
1070
     0
1000
AcDbSavedByObjectVersion
1070
     0
  0
VISUALSTYLE
  5
280
102
{ACAD_REACTORS
330
208
102
}
330
208
100
AcDbVisualStyle
  2
Linepattern
 70
    14
 71
     2
 72
     2
 73
     0
 90
        0
 40
-0.6
 41
-30.0
 62
     5
 63
     7
 74
     1
 91
        4
 64
     7
 65
   257
 75
     7
175
     7
 42
1.0
 92
        8
 66
     7
 43
1.0
 76
     1
 77
     6
 78
     2
 67
     7
 79
     5
170
     0
171
     0
290
     0
174
     0
 93
        1
 44
0.0
173
     0
291
     1
 45
0.0
1001
ACAD
1000
AcDbSavedByObjectVersion
1070
     0
1000
AcDbSavedByObjectVersion
1070
     0
1000
AcDbSavedByObjectVersion
1070
     0
  0
VISUALSTYLE
  5
227
102
{ACAD_REACTORS
330
208
102
}
330
208
100
AcDbVisualStyle
  2
Realistic
 70
     8
 71
     2
 72
     2
 73
     0
 90
        0
 40
-0.6
 41
-30.0
 62
     5
 63
     7
 74
     1
 91
        0
 64
     7
 65
   257
 75
     1
175
     1
 42
1.0
 92
        8
 66
     8
 43
1.0
 76
     1
 77
     6
 78
     2
 67
     7
 79
     5
170
     0
171
     0
290
     0
174
     0
 93
       13
 44
0.0
173
     0
291
     0
 45
0.0
1001
ACAD
1000
AcDbSavedByObjectVersion
1070
     0
1000
AcDbSavedByObjectVersion
1070
     0
1000
AcDbSavedByObjectVersion
1070
     0
1000
AcDbSavedByObjectVersion
1070
     0
1000
AcDbSavedByObjectVersion
1070
     0
1000
AcDbSavedByObjectVersion
1070
     0
1000
AcDbSavedByObjectVersion
1070
     0
1000
AcDbSavedByObjectVersion
1070
     0
1000
AcDbSavedByObjectVersion
1070
     0
1000
AcDbSavedByObjectVersion
1070
     0
1000
AcDbSavedByObjectVersion
1070
     0
1000
AcDbSavedByObjectVersion
1070
     0
1000
AcDbSavedByObjectVersion
1070
     0
1000
AcDbSavedByObjectVersion
1070
     0
1000
AcDbSavedByObjectVersion
1070
     0
1000
AcDbSavedByObjectVersion
1070
     0
1000
AcDbSavedByObjectVersion
1070
     0
1000
AcDbSavedByObjectVersion
1070
     0
1000
AcDbSavedByObjectVersion
1070
     0
1000
AcDbSavedByObjectVersion
1070
     0
1000
AcDbSavedByObjectVersion
1070
     0
1000
AcDbSavedByObjectVersion
1070
     0
1000
AcDbSavedByObjectVersion
1070
     0
1000
AcDbSavedByObjectVersion
1070
     0
1000
AcDbSavedByObjectVersion
1070
     0
1000
AcDbSavedByObjectVersion
1070
     0
1000
AcDbSavedByObjectVersion
1070
     0
1000
AcDbSavedByObjectVersion
1070
     0
1000
AcDbSavedByObjectVersion
1070
     0
  0
VISUALSTYLE
  5
27F
102
{ACAD_REACTORS
330
208
102
}
330
208
100
AcDbVisualStyle
  2
Thicken
 70
    13
 71
     2
 72
     2
 73
     0
 90
        0
 40
-0.6
 41
-30.0
 62
     5
 63
     7
 74
     1
 91
        4
 64
     7
 65
   257
 75
     1
175
     1
 42
1.0
 92
       12
 66
     7
 43
1.0
 76
     1
 77
     6
 78
     2
 67
     7
 79
     5
170
     0
171
     0
290
     0
174
     0
 93
        1
 44
0.0
173
     0
291
     1
 45
0.0
1001
ACAD
1000
AcDbSavedByObjectVersion
1070
     0
1000
AcDbSavedByObjectVersion
1070
     0
1000
AcDbSavedByObjectVersion
1070
     0
  0
DICTIONARYVAR
  5
24E
102
{ACAD_REACTORS
330
24B
102
}
330
24B
100
DictionaryVariables
280
     0
  1
1:1
  0
DICTIONARYVAR
  5
24D
102
{ACAD_REACTORS
330
24B
102
}
330
24B
100
DictionaryVariables
280
     0
  1
STANDARD
  0
DICTIONARYVAR
  5
24C
102
{ACAD_REACTORS
330
24B
102
}
330
24B
100
DictionaryVariables
280
     0
  1
STANDARD
  0
DICTIONARYVAR
  5
5D8
102
{ACAD_REACTORS
330
24B
102
}
330
24B
100
DictionaryVariables
280
     0
  1
1
  0
DICTIONARYVAR
  5
5D7
102
{ACAD_REACTORS
330
24B
102
}
330
24B
100
DictionaryVariables
280
     0
  1
1
  0
DICTIONARYVAR
  5
5D6
102
{ACAD_REACTORS
330
24B
102
}
330
24B
100
DictionaryVariables
280
     0
  1
0
  0
DICTIONARYVAR
  5
24F
102
{ACAD_REACTORS
330
24B
102
}
330
24B
100
DictionaryVariables
280
     0
  1
0
  0
DICTIONARYVAR
  5
5D4
102
{ACAD_REACTORS
330
24B
102
}
330
24B
100
DictionaryVariables
280
     0
  1
1
  0
DICTIONARYVAR
  5
5D5
102
{ACAD_REACTORS
330
24B
102
}
330
24B
100
DictionaryVariables
280
     0
  1
127
  0
DICTIONARY
  5
21A
330
219
100
AcDbDictionary
280
     1
281
     1
  3
ACAD_XREC_ROUNDTRIP
360
5FF
  3
BUMPTILE
360
21B
  3
DIFFUSETILE
360
21C
  3
OPACITYTILE
360
21D
  3
REFLECTIONTILE
360
21E
  3
REFRACTIONTILE
360
21F
  3
SPECULARTILE
360
220
  0
DICTIONARY
  5
212
330
211
100
AcDbDictionary
280
     1
281
     1
  3
ACAD_XREC_ROUNDTRIP
360
5FE
  3
BUMPTILE
360
213
  3
DIFFUSETILE
360
214
  3
OPACITYTILE
360
215
  3
REFLECTIONTILE
360
216
  3
REFRACTIONTILE
360
217
  3
SPECULARTILE
360
218
  0
DICTIONARY
  5
E
330
C
100
AcDbDictionary
280
     1
281
     1
  3
ACAD_XREC_ROUNDTRIP
360
5F7
  3
BUMPTILE
360
F
  3
DIFFUSETILE
360
10
  3
OPACITYTILE
360
11
  3
REFLECTIONTILE
360
12
  3
REFRACTIONTILE
360
13
  3
SPECULARTILE
360
14
  0
DICTIONARY
  5
226
330
225
100
AcDbDictionary
280
     1
281
     1
  3
ACAD_ROUNDTRIP_2008_TABLESTYLE_CELLSTYLEMAP
360
9F1
  0
XRECORD
  5
5FF
102
{ACAD_REACTORS
330
21A
102
}
330
21A
100
AcDbXrecord
280
     1
102
MATERIAL
148
0.0
149
0.0
149
0.0
 93
        0
 94
      127
282
     0
 72
     0
 77
     0
171
     0
175
     0
179
     0
273
     0
  0
XRECORD
  5
21B
102
{ACAD_REACTORS
330
21A
102
}
330
21A
100
AcDbXrecord
280
     1
270
     1
271
     1
  0
XRECORD
  5
21C
102
{ACAD_REACTORS
330
21A
102
}
330
21A
100
AcDbXrecord
280
     1
270
     1
271
     1
  0
XRECORD
  5
21D
102
{ACAD_REACTORS
330
21A
102
}
330
21A
100
AcDbXrecord
280
     1
270
     1
271
     1
  0
XRECORD
  5
21E
102
{ACAD_REACTORS
330
21A
102
}
330
21A
100
AcDbXrecord
280
     1
270
     1
271
     1
  0
XRECORD
  5
21F
102
{ACAD_REACTORS
330
21A
102
}
330
21A
100
AcDbXrecord
280
     1
270
     1
271
     1
  0
XRECORD
  5
220
102
{ACAD_REACTORS
330
21A
102
}
330
21A
100
AcDbXrecord
280
     1
270
     1
271
     1
  0
XRECORD
  5
5FE
102
{ACAD_REACTORS
330
212
102
}
330
212
100
AcDbXrecord
280
     1
102
MATERIAL
148
0.0
149
0.0
149
0.0
 93
        0
 94
      127
282
     0
 72
     0
 77
     0
171
     0
175
     0
179
     0
273
     0
  0
XRECORD
  5
213
102
{ACAD_REACTORS
330
212
102
}
330
212
100
AcDbXrecord
280
     1
270
     1
271
     1
  0
XRECORD
  5
214
102
{ACAD_REACTORS
330
212
102
}
330
212
100
AcDbXrecord
280
     1
270
     1
271
     1
  0
XRECORD
  5
215
102
{ACAD_REACTORS
330
212
102
}
330
212
100
AcDbXrecord
280
     1
270
     1
271
     1
  0
XRECORD
  5
216
102
{ACAD_REACTORS
330
212
102
}
330
212
100
AcDbXrecord
280
     1
270
     1
271
     1
  0
XRECORD
  5
217
102
{ACAD_REACTORS
330
212
102
}
330
212
100
AcDbXrecord
280
     1
270
     1
271
     1
  0
XRECORD
  5
218
102
{ACAD_REACTORS
330
212
102
}
330
212
100
AcDbXrecord
280
     1
270
     1
271
     1
  0
XRECORD
  5
5F7
102
{ACAD_REACTORS
330
E
102
}
330
E
100
AcDbXrecord
280
     1
102
MATERIAL
148
0.0
149
0.0
149
0.0
 93
        0
 94
      127
282
     0
 72
     0
 77
     0
171
     0
175
     0
179
     0
273
     0
  0
XRECORD
  5
F
102
{ACAD_REACTORS
330
E
102
}
330
E
100
AcDbXrecord
280
     1
270
     1
271
     1
  0
XRECORD
  5
10
102
{ACAD_REACTORS
330
E
102
}
330
E
100
AcDbXrecord
280
     1
270
     1
271
     1
  0
XRECORD
  5
11
102
{ACAD_REACTORS
330
E
102
}
330
E
100
AcDbXrecord
280
     1
270
     1
271
     1
  0
XRECORD
  5
12
102
{ACAD_REACTORS
330
E
102
}
330
E
100
AcDbXrecord
280
     1
270
     1
271
     1
  0
XRECORD
  5
13
102
{ACAD_REACTORS
330
E
102
}
330
E
100
AcDbXrecord
280
     1
270
     1
271
     1
  0
XRECORD
  5
14
102
{ACAD_REACTORS
330
E
102
}
330
E
100
AcDbXrecord
280
     1
270
     1
271
     1
  0
CELLSTYLEMAP
  5
9F1
102
{ACAD_REACTORS
330
226
102
}
330
226
100
AcDbCellStyleMap
 90
        3
300
CELLSTYLE
  1
TABLEFORMAT_BEGIN
 90
        5
170
     1
 91
        0
 92
    32768
 62
   257
 93
        1
300
CONTENTFORMAT
  1
CONTENTFORMAT_BEGIN
 90
        0
 91
        0
 92
      512
 93
        0
300

 40
0.0
140
1.0
 94
        5
 62
     0
340
46
144
0.25
309
CONTENTFORMAT_END
171
     1
301
MARGIN
  1
CELLMARGIN_BEGIN
 40
0.06
 40
0.06
 40
0.06
 40
0.06
 40
0.18
 40
0.18
309
CELLMARGIN_END
 94
        6
 95
        1
302
GRIDFORMAT
  1
GRIDFORMAT_BEGIN
 90
        0
 91
        1
 62
     0
 92
       -2
340
0
 93
        0
 40
0.045
309
GRIDFORMAT_END
 95
        2
302
GRIDFORMAT
  1
GRIDFORMAT_BEGIN
 90
        0
 91
        1
 62
     0
 92
       -2
340
0
 93
        0
 40
0.045
309
GRIDFORMAT_END
 95
        4
302
GRIDFORMAT
  1
GRIDFORMAT_BEGIN
 90
        0
 91
        1
 62
     0
 92
       -2
340
0
 93
        0
 40
0.045
309
GRIDFORMAT_END
 95
        8
302
GRIDFORMAT
  1
GRIDFORMAT_BEGIN
 90
        0
 91
        1
 62
     0
 92
       -2
340
0
 93
        0
 40
0.045
309
GRIDFORMAT_END
 95
       16
302
GRIDFORMAT
  1
GRIDFORMAT_BEGIN
 90
        0
 91
        1
 62
     0
 92
       -2
340
0
 93
        0
 40
0.045
309
GRIDFORMAT_END
 95
       32
302
GRIDFORMAT
  1
GRIDFORMAT_BEGIN
 90
        0
 91
        1
 62
     0
 92
       -2
340
0
 93
        0
 40
0.045
309
GRIDFORMAT_END
309
TABLEFORMAT_END
  1
CELLSTYLE_BEGIN
 90
        1
 91
        1
300
_TITLE
309
CELLSTYLE_END
300
CELLSTYLE
  1
TABLEFORMAT_BEGIN
 90
        5
170
     1
 91
        0
 92
        0
 62
   257
 93
        1
300
CONTENTFORMAT
  1
CONTENTFORMAT_BEGIN
 90
        0
 91
        0
 92
      512
 93
        0
300

 40
0.0
140
1.0
 94
        5
 62
     0
340
46
144
0.18
309
CONTENTFORMAT_END
171
     1
301
MARGIN
  1
CELLMARGIN_BEGIN
 40
0.06
 40
0.06
 40
0.06
 40
0.06
 40
0.18
 40
0.18
309
CELLMARGIN_END
 94
        6
 95
        1
302
GRIDFORMAT
  1
GRIDFORMAT_BEGIN
 90
        0
 91
        1
 62
     0
 92
       -2
340
0
 93
        0
 40
0.045
309
GRIDFORMAT_END
 95
        2
302
GRIDFORMAT
  1
GRIDFORMAT_BEGIN
 90
        0
 91
        1
 62
     0
 92
       -2
340
0
 93
        0
 40
0.045
309
GRIDFORMAT_END
 95
        4
302
GRIDFORMAT
  1
GRIDFORMAT_BEGIN
 90
        0
 91
        1
 62
     0
 92
       -2
340
0
 93
        0
 40
0.045
309
GRIDFORMAT_END
 95
        8
302
GRIDFORMAT
  1
GRIDFORMAT_BEGIN
 90
        0
 91
        1
 62
     0
 92
       -2
340
0
 93
        0
 40
0.045
309
GRIDFORMAT_END
 95
       16
302
GRIDFORMAT
  1
GRIDFORMAT_BEGIN
 90
        0
 91
        1
 62
     0
 92
       -2
340
0
 93
        0
 40
0.045
309
GRIDFORMAT_END
 95
       32
302
GRIDFORMAT
  1
GRIDFORMAT_BEGIN
 90
        0
 91
        1
 62
     0
 92
       -2
340
0
 93
        0
 40
0.045
309
GRIDFORMAT_END
309
TABLEFORMAT_END
  1
CELLSTYLE_BEGIN
 90
        2
 91
        1
300
_HEADER
309
CELLSTYLE_END
300
CELLSTYLE
  1
TABLEFORMAT_BEGIN
 90
        5
170
     1
 91
        0
 92
        0
 62
   257
 93
        1
300
CONTENTFORMAT
  1
CONTENTFORMAT_BEGIN
 90
        0
 91
        0
 92
      512
 93
        0
300

 40
0.0
140
1.0
 94
        2
 62
     0
340
46
144
0.18
309
CONTENTFORMAT_END
171
     1
301
MARGIN
  1
CELLMARGIN_BEGIN
 40
0.06
 40
0.06
 40
0.06
 40
0.06
 40
0.18
 40
0.18
309
CELLMARGIN_END
 94
        6
 95
        1
302
GRIDFORMAT
  1
GRIDFORMAT_BEGIN
 90
        0
 91
        1
 62
     0
 92
       -2
340
0
 93
        0
 40
0.045
309
GRIDFORMAT_END
 95
        2
302
GRIDFORMAT
  1
GRIDFORMAT_BEGIN
 90
        0
 91
        1
 62
     0
 92
       -2
340
0
 93
        0
 40
0.045
309
GRIDFORMAT_END
 95
        4
302
GRIDFORMAT
  1
GRIDFORMAT_BEGIN
 90
        0
 91
        1
 62
     0
 92
       -2
340
0
 93
        0
 40
0.045
309
GRIDFORMAT_END
 95
        8
302
GRIDFORMAT
  1
GRIDFORMAT_BEGIN
 90
        0
 91
        1
 62
     0
 92
       -2
340
0
 93
        0
 40
0.045
309
GRIDFORMAT_END
 95
       16
302
GRIDFORMAT
  1
GRIDFORMAT_BEGIN
 90
        0
 91
        1
 62
     0
 92
       -2
340
0
 93
        0
 40
0.045
309
GRIDFORMAT_END
 95
       32
302
GRIDFORMAT
  1
GRIDFORMAT_BEGIN
 90
        0
 91
        1
 62
     0
 92
       -2
340
0
 93
        0
 40
0.045
309
GRIDFORMAT_END
309
TABLEFORMAT_END
  1
CELLSTYLE_BEGIN
 90
        3
 91
        2
300
_DATA
309
CELLSTYLE_END
  0
ENDSEC
  0
EOF
