  0
SECTION
  2
HEADER
  9
$ACADVER
  1
AC1021
  9
$ACADMAINTVER
 70
    25
  9
$DWGCODEPAGE
  3
ANSI_936
  9
$LASTSAVEDBY
  1
zb.ye
  9
$INSBASE
 10
0.0
 20
0.0
 30
0.0
  9
$EXTMIN
 10
694.1615865267817
 20
183.7409245542785
 30
-0.0000000349181948
  9
$EXTMAX
 10
768.4196081878558
 20
236.2669302240758
 30
0.0000000814935746
  9
$LIMMIN
 10
0.0
 20
0.0
  9
$LIMMAX
 10
12.0
 20
9.0
  9
$ORTHOMODE
 70
     0
  9
$REGENMODE
 70
     1
  9
$FILLMODE
 70
     1
  9
$QTEXTMODE
 70
     0
  9
$MIRRTEXT
 70
     1
  9
$LTSCALE
 40
1.0
  9
$ATTMODE
 70
     1
  9
$TEXTSIZE
 40
0.2
  9
$TRACEWID
 40
0.05
  9
$TEXTSTYLE
  7
Standard
  9
$CLAYER
  8
0
  9
$CELTYPE
  6
ByLayer
  9
$CECOLOR
 62
   256
  9
$CELTSCALE
 40
1.0
  9
$DISPSILH
 70
     0
  9
$DIMSCALE
 40
1.0
  9
$DIMASZ
 40
1.5
  9
$DIMEXO
 40
0.2
  9
$DIMDLI
 40
0.2
  9
$DIMRND
 40
0.0
  9
$DIMDLE
 40
0.0
  9
$DIMEXE
 40
0.5
  9
$DIMTP
 40
0.0
  9
$DIMTM
 40
0.0
  9
$DIMTXT
 40
2.0
  9
$DIMCEN
 40
0.0
  9
$DIMTSZ
 40
0.0
  9
$DIMTOL
 70
     0
  9
$DIMLIM
 70
     0
  9
$DIMTIH
 70
     0
  9
$DIMTOH
 70
     0
  9
$DIMSE1
 70
     0
  9
$DIMSE2
 70
     0
  9
$DIMTAD
 70
     1
  9
$DIMZIN
 70
     8
  9
$DIMBLK
  1

  9
$DIMASO
 70
     1
  9
$DIMSHO
 70
     1
  9
$DIMPOST
  1

  9
$DIMAPOST
  1

  9
$DIMALT
 70
     0
  9
$DIMALTD
 70
     2
  9
$DIMALTF
 40
25.4
  9
$DIMLFAC
 40
1.0
  9
$DIMTOFL
 70
     0
  9
$DIMTVP
 40
0.0
  9
$DIMTIX
 70
     0
  9
$DIMSOXD
 70
     0
  9
$DIMSAH
 70
     0
  9
$DIMBLK1
  1

  9
$DIMBLK2
  1

  9
$DIMSTYLE
  2
01
  9
$DIMCLRD
 70
     1
  9
$DIMCLRE
 70
     6
  9
$DIMCLRT
 70
     4
  9
$DIMTFAC
 40
1.0
  9
$DIMGAP
 40
0.5
  9
$DIMJUST
 70
     0
  9
$DIMSD1
 70
     0
  9
$DIMSD2
 70
     0
  9
$DIMTOLJ
 70
     1
  9
$DIMTZIN
 70
     0
  9
$DIMALTZ
 70
     0
  9
$DIMALTTZ
 70
     0
  9
$DIMUPT
 70
     0
  9
$DIMDEC
 70
     1
  9
$DIMTDEC
 70
     1
  9
$DIMALTU
 70
     2
  9
$DIMALTTD
 70
     2
  9
$DIMTXSTY
  7
Romans字体
  9
$DIMAUNIT
 70
     0
  9
$DIMADEC
 70
     2
  9
$DIMALTRND
 40
0.0
  9
$DIMAZIN
 70
     2
  9
$DIMDSEP
 70
    46
  9
$DIMATFIT
 70
     3
  9
$DIMFRAC
 70
     0
  9
$DIMLDRBLK
  1

  9
$DIMLUNIT
 70
     2
  9
$DIMLWD
 70
    -2
  9
$DIMLWE
 70
    -2
  9
$DIMTMOVE
 70
     0
  9
$DIMFXL
 40
1.0
  9
$DIMFXLON
 70
     0
  9
$DIMJOGANG
 40
0.7853981633974483
  9
$DIMTFILL
 70
     0
  9
$DIMTFILLCLR
 70
     0
  9
$DIMARCSYM
 70
     0
  9
$DIMLTYPE
  6

  9
$DIMLTEX1
  6

  9
$DIMLTEX2
  6

  9
$LUNITS
 70
     2
  9
$LUPREC
 70
     4
  9
$SKETCHINC
 40
0.1
  9
$FILLETRAD
 40
0.5
  9
$AUNITS
 70
     0
  9
$AUPREC
 70
     0
  9
$MENU
  1
.
  9
$ELEVATION
 40
0.0
  9
$PELEVATION
 40
0.0
  9
$THICKNESS
 40
0.0
  9
$LIMCHECK
 70
     0
  9
$CHAMFERA
 40
0.5
  9
$CHAMFERB
 40
0.5
  9
$CHAMFERC
 40
1.0
  9
$CHAMFERD
 40
0.0
  9
$SKPOLY
 70
     0
  9
$TDCREATE
 40
2456524.383632987
  9
$TDUCREATE
 40
2456524.050299653
  9
$TDUPDATE
 40
2460290.638807304
  9
$TDUUPDATE
 40
2460290.305473970
  9
$TDINDWG
 40
1.5054047338
  9
$TDUSRTIMER
 40
1.5053856134
  9
$USRTIMER
 70
     1
  9
$ANGBASE
 50
0.0
  9
$ANGDIR
 70
     0
  9
$PDMODE
 70
     0
  9
$PDSIZE
 40
0.0
  9
$PLINEWID
 40
0.0
  9
$SPLFRAME
 70
     0
  9
$SPLINETYPE
 70
     6
  9
$SPLINESEGS
 70
     8
  9
$HANDSEED
  5
D0A
  9
$SURFTAB1
 70
     6
  9
$SURFTAB2
 70
     6
  9
$SURFTYPE
 70
     6
  9
$SURFU
 70
     6
  9
$SURFV
 70
     6
  9
$UCSBASE
  2

  9
$UCSNAME
  2

  9
$UCSORG
 10
0.0
 20
0.0
 30
0.0
  9
$UCSXDIR
 10
1.0
 20
0.0
 30
0.0
  9
$UCSYDIR
 10
0.0
 20
1.0
 30
0.0
  9
$UCSORTHOREF
  2

  9
$UCSORTHOVIEW
 70
     0
  9
$UCSORGTOP
 10
0.0
 20
0.0
 30
0.0
  9
$UCSORGBOTTOM
 10
0.0
 20
0.0
 30
0.0
  9
$UCSORGLEFT
 10
0.0
 20
0.0
 30
0.0
  9
$UCSORGRIGHT
 10
0.0
 20
0.0
 30
0.0
  9
$UCSORGFRONT
 10
0.0
 20
0.0
 30
0.0
  9
$UCSORGBACK
 10
0.0
 20
0.0
 30
0.0
  9
$PUCSBASE
  2

  9
$PUCSNAME
  2

  9
$PUCSORG
 10
0.0
 20
0.0
 30
0.0
  9
$PUCSXDIR
 10
1.0
 20
0.0
 30
0.0
  9
$PUCSYDIR
 10
0.0
 20
1.0
 30
0.0
  9
$PUCSORTHOREF
  2

  9
$PUCSORTHOVIEW
 70
     0
  9
$PUCSORGTOP
 10
0.0
 20
0.0
 30
0.0
  9
$PUCSORGBOTTOM
 10
0.0
 20
0.0
 30
0.0
  9
$PUCSORGLEFT
 10
0.0
 20
0.0
 30
0.0
  9
$PUCSORGRIGHT
 10
0.0
 20
0.0
 30
0.0
  9
$PUCSORGFRONT
 10
0.0
 20
0.0
 30
0.0
  9
$PUCSORGBACK
 10
0.0
 20
0.0
 30
0.0
  9
$USERI1
 70
     0
  9
$USERI2
 70
     0
  9
$USERI3
 70
     0
  9
$USERI4
 70
     0
  9
$USERI5
 70
     0
  9
$USERR1
 40
0.0
  9
$USERR2
 40
0.0
  9
$USERR3
 40
0.0
  9
$USERR4
 40
0.0
  9
$USERR5
 40
0.0
  9
$WORLDVIEW
 70
     1
  9
$SHADEDGE
 70
     3
  9
$SHADEDIF
 70
    70
  9
$TILEMODE
 70
     1
  9
$MAXACTVP
 70
    64
  9
$PINSBASE
 10
0.0
 20
0.0
 30
0.0
  9
$PLIMCHECK
 70
     0
  9
$PEXTMIN
 10
1.000000000000000E+20
 20
1.000000000000000E+20
 30
1.000000000000000E+20
  9
$PEXTMAX
 10
-1.000000000000000E+20
 20
-1.000000000000000E+20
 30
-1.000000000000000E+20
  9
$PLIMMIN
 10
0.0
 20
0.0
  9
$PLIMMAX
 10
12.0
 20
9.0
  9
$UNITMODE
 70
     0
  9
$VISRETAIN
 70
     1
  9
$PLINEGEN
 70
     0
  9
$PSLTSCALE
 70
     1
  9
$TREEDEPTH
 70
  3020
  9
$CMLSTYLE
  2
Standard
  9
$CMLJUST
 70
     0
  9
$CMLSCALE
 40
1.0
  9
$PROXYGRAPHICS
 70
     1
  9
$MEASUREMENT
 70
     0
  9
$CELWEIGHT
370
    -1
  9
$ENDCAPS
280
     0
  9
$JOINSTYLE
280
     0
  9
$LWDISPLAY
290
     0
  9
$INSUNITS
 70
     4
  9
$HYPERLINKBASE
  1

  9
$STYLESHEET
  1
monochrome.ctb
  9
$XEDIT
290
     1
  9
$CEPSNTYPE
380
     0
  9
$PSTYLEMODE
290
     1
  9
$FINGERPRINTGUID
  2
{8BA79343-A0ED-4B91-9B49-FE5C278F362A}
  9
$VERSIONGUID
  2
{1E90F5B8-4C2F-458A-B331-A36428D6D70D}
  9
$EXTNAMES
290
     1
  9
$PSVPSCALE
 40
0.0
  9
$OLESTARTUP
290
     0
  9
$SORTENTS
280
   127
  9
$INDEXCTL
280
     0
  9
$HIDETEXT
280
     1
  9
$XCLIPFRAME
290
     0
  9
$HALOGAP
280
     0
  9
$OBSCOLOR
 70
   257
  9
$OBSLTYPE
280
     0
  9
$INTERSECTIONDISPLAY
280
     0
  9
$INTERSECTIONCOLOR
 70
   257
  9
$DIMASSOC
280
     1
  9
$PROJECTNAME
  1

  9
$CAMERADISPLAY
290
     0
  9
$LENSLENGTH
 40
50.0
  9
$CAMERAHEIGHT
 40
0.0
  9
$STEPSPERSEC
 40
2.0
  9
$STEPSIZE
 40
6.0
  9
$3DDWFPREC
 40
2.0
  9
$PSOLWIDTH
 40
0.25
  9
$PSOLHEIGHT
 40
4.0
  9
$LOFTANG1
 40
1.570795999999999
  9
$LOFTANG2
 40
1.570795999999999
  9
$LOFTMAG1
 40
0.0
  9
$LOFTMAG2
 40
0.0
  9
$LOFTPARAM
 70
     7
  9
$LOFTNORMALS
280
     1
  9
$LATITUDE
 40
37.795
  9
$LONGITUDE
 40
-122.394
  9
$NORTHDIRECTION
 40
0.0
  9
$TIMEZONE
 70
 -8000
  9
$LIGHTGLYPHDISPLAY
280
     1
  9
$TILEMODELIGHTSYNCH
280
     1
  9
$CMATERIAL
347
228
  9
$SOLIDHIST
280
     1
  9
$SHOWHIST
280
     1
  9
$DWFFRAME
280
     2
  9
$DGNFRAME
280
     0
  9
$REALWORLDSCALE
290
     1
  9
$INTERFERECOLOR
 62
     1
  9
$INTERFEREOBJVS
345
23E
  9
$INTERFEREVPVS
346
23F
  9
$CSHADOW
280
     0
  9
$SHADOWPLANELOCATION
 40
0.0
  0
ENDSEC
  0
SECTION
  2
CLASSES
  0
CLASS
  1
ACDBDICTIONARYWDFLT
  2
AcDbDictionaryWithDefault
  3
ObjectDBX Classes
 90
        0
 91
        1
280
     0
281
     0
  0
CLASS
  1
VISUALSTYLE
  2
AcDbVisualStyle
  3
ObjectDBX Classes
 90
     4095
 91
       16
280
     0
281
     0
  0
CLASS
  1
MATERIAL
  2
AcDbMaterial
  3
ObjectDBX Classes
 90
     1153
 91
        3
280
     0
281
     0
  0
CLASS
  1
TABLESTYLE
  2
AcDbTableStyle
  3
ObjectDBX Classes
 90
     4095
 91
        1
280
     0
281
     0
  0
CLASS
  1
SCALE
  2
AcDbScale
  3
ObjectDBX Classes
 90
     1153
 91
       33
280
     0
281
     0
  0
CLASS
  1
MLEADERSTYLE
  2
AcDbMLeaderStyle
  3
ACDB_MLEADERSTYLE_CLASS
 90
     4095
 91
        1
280
     0
281
     0
  0
CLASS
  1
CELLSTYLEMAP
  2
AcDbCellStyleMap
  3
ObjectDBX Classes
 90
     1152
 91
        4
280
     0
281
     0
  0
CLASS
  1
DICTIONARYVAR
  2
AcDbDictionaryVar
  3
ObjectDBX Classes
 90
        0
 91
       11
280
     0
281
     0
  0
CLASS
  1
SORTENTSTABLE
  2
AcDbSortentsTable
  3
ObjectDBX Classes
 90
        0
 91
        1
280
     0
281
     0
  0
CLASS
  1
ACAD_EVALUATION_GRAPH
  2
AcDbEvalGraph
  3
ObjectDBX Classes
 90
     1153
 91
        1
280
     0
281
     0
  0
CLASS
  1
ACAECUSTOBJ
  2
AcAeEditorObj
  3
AcAeEditorObj
 90
     1024
 91
        1
280
     1
281
     0
  0
CLASS
  1
ACDB_DYNAMICBLOCKPURGEPREVENTER_VERSION
  2
AcDbDynamicBlockPurgePreventer
  3
ObjectDBX Classes
 90
     1153
 91
        1
280
     0
281
     0
  0
CLASS
  1
MENTALRAYRENDERSETTINGS
  2
AcDbMentalRayRenderSettings
  3
SCENEOE
 90
     1024
 91
        0
280
     0
281
     0
  0
CLASS
  1
ACDB_BLOCKREPRESENTATION_DATA
  2
AcDbBlockRepresentationData
  3
ObjectDBX Classes
 90
     1153
 91
        0
280
     0
281
     0
  0
CLASS
  1
DIMASSOC
  2
AcDbDimAssoc
  3
"AcDbDimAssoc|Product Desc:     AcDim ARX App For Dimension|Company:          Autodesk, Inc.|WEB Address:      www.autodesk.com"
 90
        0
 91
        1
280
     0
281
     0
  0
CLASS
  1
ACDB_MTEXTOBJECTCONTEXTDATA_CLASS
  2
AcDbMTextObjectContextData
  3
ObjectDBX Classes
 90
     1153
 91
        1
280
     0
281
     0
  0
ENDSEC
  0
SECTION
  2
TABLES
  0
TABLE
  2
VPORT
  5
21C
102
{ACAD_XDICTIONARY
360
220
102
}
330
0
100
AcDbSymbolTable
 70
     1
  0
VPORT
  5
21D
330
21C
100
AcDbSymbolTableRecord
100
AcDbViewportTableRecord
  2
*Active
 70
     0
 10
0.0
 20
0.0
 11
1.0
 21
1.0
 12
626.3251004854102
 22
61.50169662057937
 13
0.0
 23
0.0
 14
0.5
 24
0.5
 15
0.5
 25
0.5
 16
0.0
 26
0.0
 36
1.0
 17
104.9654968719086
 27
148.5022307685978
 37
0.0
 40
53.09168029723863
 41
2.426395939086294
 42
50.0
 43
0.0
 44
0.0
 50
0.0
 51
0.0
 71
     0
 72
   100
 73
     1
 74
     3
 75
     0
 76
     0
 77
     0
 78
     0
281
     0
 65
     1
110
0.0
120
0.0
130
0.0
111
1.0
121
0.0
131
0.0
112
0.0
122
1.0
132
0.0
 79
     0
146
0.0
348
21E
 60
     3
 61
     5
292
     1
282
     1
141
0.0
142
0.0
 63
   250
421
  3355443
  0
ENDTAB
  0
TABLE
  2
LTYPE
  5
217
330
0
100
AcDbSymbolTable
 70
     2
  0
LTYPE
  5
218
330
217
100
AcDbSymbolTableRecord
100
AcDbLinetypeTableRecord
  2
ByBlock
 70
     0
  3

 72
    65
 73
     0
 40
0.0
  0
LTYPE
  5
219
330
217
100
AcDbSymbolTableRecord
100
AcDbLinetypeTableRecord
  2
ByLayer
 70
     0
  3

 72
    65
 73
     0
 40
0.0
  0
LTYPE
  5
15
330
217
100
AcDbSymbolTableRecord
100
AcDbLinetypeTableRecord
  2
Continuous
 70
     0
  3
Solid line
 72
    65
 73
     0
 40
0.0
  0
LTYPE
  5
163
330
217
100
AcDbSymbolTableRecord
100
AcDbLinetypeTableRecord
  2
CENTER
 70
     0
  3
Center ____ _ ____ _ ____ _ ____ _ ____ _ ____
 72
    65
 73
     4
 40
2.0
 49
1.25
 74
     0
 49
-0.25
 74
     0
 49
0.25
 74
     0
 49
-0.25
 74
     0
  0
ENDTAB
  0
TABLE
  2
LAYER
  5
210
102
{ACAD_XDICTIONARY
360
211
102
}
330
0
100
AcDbSymbolTable
 70
     8
  0
LAYER
  5
6
102
{ACAD_XDICTIONARY
360
7
102
}
330
210
100
AcDbSymbolTableRecord
100
AcDbLayerTableRecord
  2
0
 70
     0
 62
     7
  6
Continuous
370
    30
390
9
347
C
  0
LAYER
  5
17
102
{ACAD_XDICTIONARY
360
18
102
}
330
210
100
AcDbSymbolTableRecord
100
AcDbLayerTableRecord
  2
图层 1
 70
     0
 62
     7
  6
Continuous
370
    -3
390
9
347
C
  0
LAYER
  5
25
102
{ACAD_XDICTIONARY
360
26
102
}
330
210
100
AcDbSymbolTableRecord
100
AcDbLayerTableRecord
  2
图框
 70
     0
 62
     7
  6
Continuous
370
    20
390
9
347
C
  0
LAYER
  5
113
330
210
100
AcDbSymbolTableRecord
100
AcDbLayerTableRecord
  2
Defpoints
 70
     0
 62
     7
  6
Continuous
290
     0
370
    -3
390
9
347
C
  0
LAYER
  5
107
330
210
100
AcDbSymbolTableRecord
100
AcDbLayerTableRecord
  2
DIM
 70
     0
 62
     3
  6
Continuous
370
    15
390
9
347
C
1001
AcAecLayerStandard
1000

1000

  0
LAYER
  5
EC
330
210
100
AcDbSymbolTableRecord
100
AcDbLayerTableRecord
  2
打标文字
 70
     0
 62
     3
  6
Continuous
370
    20
390
9
347
C
  0
LAYER
  5
184
330
210
100
AcDbSymbolTableRecord
100
AcDbLayerTableRecord
  2
CEN
 70
     0
 62
     1
  6
CENTER
370
    15
390
9
347
C
1001
AcAecLayerStandard
1000

1000

  0
LAYER
  5
CEE
102
{ACAD_XDICTIONARY
360
CF0
102
}
330
210
100
AcDbSymbolTableRecord
100
AcDbLayerTableRecord
  2
图框 @ 1
 70
     0
 62
     7
  6
Continuous
370
    20
390
9
347
C
1001
AcadAnnotativeDecomposition
1000
AnnotativeData
1002
{
1070
     1
1070
     1
1002
}
  0
ENDTAB
  0
TABLE
  2
STYLE
  5
215
330
0
100
AcDbSymbolTable
 70
     5
  0
STYLE
  5
46
330
215
100
AcDbSymbolTableRecord
100
AcDbTextStyleTableRecord
  2
Standard
 70
     0
 40
0.0
 41
0.75
 50
0.0
 71
     0
 42
0.2
  3
SIMFANG.TTF
  4

1001
ACAD
1000
FangSong_GB2312
1071
    34353
  0
STYLE
  5
28
330
215
100
AcDbSymbolTableRecord
100
AcDbTextStyleTableRecord
  2
Romans字体
 70
     0
 40
0.0
 41
0.75
 50
0.0
 71
     0
 42
0.2
  3
romans.shx
  4

  0
STYLE
  5
48
330
215
100
AcDbSymbolTableRecord
100
AcDbTextStyleTableRecord
  2
工程字
 70
     0
 40
0.0
 41
1.0
 50
0.0
 71
     0
 42
3.5
  3
gbenor.shx
  4
gbcbig.shx
  0
STYLE
  5
4A
330
215
100
AcDbSymbolTableRecord
100
AcDbTextStyleTableRecord
  2
Chinese
 70
     0
 40
0.0
 41
1.0
 50
0.0
 71
     0
 42
2.5
  3
PMingLiU.ttf
  4

1001
ACAD
1000
PMingLiU
1071
    34834
  0
ENDTAB
  0
TABLE
  2
VIEW
  5
21A
330
0
100
AcDbSymbolTable
 70
     0
  0
ENDTAB
  0
TABLE
  2
UCS
  5
21B
330
0
100
AcDbSymbolTable
 70
     0
  0
ENDTAB
  0
TABLE
  2
APPID
  5
221
330
0
100
AcDbSymbolTable
 70
    12
  0
APPID
  5
29
330
221
100
AcDbSymbolTableRecord
100
AcDbRegAppTableRecord
  2
ACAD
 70
     0
  0
APPID
  5
35
330
221
100
AcDbSymbolTableRecord
100
AcDbRegAppTableRecord
  2
AcDbBlockRepETag
 70
     0
  0
APPID
  5
207
330
221
100
AcDbSymbolTableRecord
100
AcDbRegAppTableRecord
  2
ACAD_PSEXT
 70
     0
  0
APPID
  5
108
330
221
100
AcDbSymbolTableRecord
100
AcDbRegAppTableRecord
  2
AcAecLayerStandard
 70
     0
  0
APPID
  5
118
330
221
100
AcDbSymbolTableRecord
100
AcDbRegAppTableRecord
  2
ACAD_DSTYLE_DIMJAG
 70
     0
  0
APPID
  5
119
330
221
100
AcDbSymbolTableRecord
100
AcDbRegAppTableRecord
  2
ACAD_DSTYLE_DIMTALN
 70
     0
  0
APPID
  5
29D
330
221
100
AcDbSymbolTableRecord
100
AcDbRegAppTableRecord
  2
ACAD_MLEADERVER
 70
     0
  0
APPID
  5
391
330
221
100
AcDbSymbolTableRecord
100
AcDbRegAppTableRecord
  2
AcDbDynamicBlockGUID
 70
     0
  0
APPID
  5
C02
330
221
100
AcDbSymbolTableRecord
100
AcDbRegAppTableRecord
  2
AcadAnnotative
 70
     0
  0
APPID
  5
CA0
330
221
100
AcDbSymbolTableRecord
100
AcDbRegAppTableRecord
  2
ACAUTHENVIRON
 70
     0
  0
APPID
  5
CA3
330
221
100
AcDbSymbolTableRecord
100
AcDbRegAppTableRecord
  2
AcDbDynamicBlockTrueName
 70
     0
  0
APPID
  5
CEF
330
221
100
AcDbSymbolTableRecord
100
AcDbRegAppTableRecord
  2
AcadAnnotativeDecomposition
 70
     0
  0
ENDTAB
  0
TABLE
  2
DIMSTYLE
  5
222
330
0
100
AcDbSymbolTable
 70
     3
100
AcDbDimStyleTable
 71
     2
340
117
340
223
  0
DIMSTYLE
105
223
330
222
100
AcDbSymbolTableRecord
100
AcDbDimStyleTableRecord
  2
Standard
 70
     0
340
46
  0
DIMSTYLE
105
117
102
{ACAD_REACTORS
330
751
330
76D
330
76E
330
790
330
79C
330
79F
102
}
330
222
100
AcDbSymbolTableRecord
100
AcDbDimStyleTableRecord
  2
01
 70
     0
 41
1.5
 42
0.2
 43
0.2
 44
0.5
 73
     0
 74
     0
 77
     1
 78
     8
 79
     2
140
2.0
141
0.0
147
0.5
176
     1
177
     6
178
     4
179
     2
271
     1
272
     1
340
28
1001
ACAD_DSTYLE_DIMJAG
1070
   388
1040
1.5
1001
ACAD_DSTYLE_DIMTALN
1070
   392
1070
     0
  0
ENDTAB
  0
TABLE
  2
BLOCK_RECORD
  5
1
330
0
100
AcDbSymbolTable
 70
    10
  0
BLOCK_RECORD
  5
2
102
{ACAD_XDICTIONARY
360
3
102
}
330
1
100
AcDbSymbolTableRecord
100
AcDbBlockTableRecord
  2
*Model_Space
340
205
 70
     0
280
     1
281
     0
  0
BLOCK_RECORD
  5
208
330
1
100
AcDbSymbolTableRecord
100
AcDbBlockTableRecord
  2
*Paper_Space
340
20B
 70
     0
280
     1
281
     0
  0
BLOCK_RECORD
  5
20C
330
1
100
AcDbSymbolTableRecord
100
AcDbBlockTableRecord
  2
*Paper_Space0
340
20F
 70
     0
280
     1
281
     0
  0
BLOCK_RECORD
  5
2AC
102
{ACAD_XDICTIONARY
360
C9F
102
}
330
1
100
AcDbSymbolTableRecord
100
AcDbBlockTableRecord
  2
A4图框-NEW
340
0
310
2800000020000000200000000100080000000000000400000000000000000000000000000000000000000000000080000080000000808000800000008000800080800000C0C0C000C0DCC000F0CAA6000020400000206000002080000020A0000020C0000020E00000400000004020000040400000406000004080000040A0
310
000040C0000040E00000600000006020000060400000606000006080000060A0000060C0000060E00000800000008020000080400000806000008080000080A0000080C0000080E00000A0000000A0200000A0400000A0600000A0800000A0A00000A0C00000A0E00000C0000000C0200000C0400000C0600000C0800000C0
310
A00000C0C00000C0E00000E0000000E0200000E0400000E0600000E0800000E0A00000E0C00000E0E00040000000400020004000400040006000400080004000A0004000C0004000E00040200000402020004020400040206000402080004020A0004020C0004020E000404000004040200040404000404060004040800040
310
40A0004040C0004040E00040600000406020004060400040606000406080004060A0004060C0004060E00040800000408020004080400040806000408080004080A0004080C0004080E00040A0000040A0200040A0400040A0600040A0800040A0A00040A0C00040A0E00040C0000040C0200040C0400040C0600040C08000
310
40C0A00040C0C00040C0E00040E0000040E0200040E0400040E0600040E0800040E0A00040E0C00040E0E00080000000800020008000400080006000800080008000A0008000C0008000E00080200000802020008020400080206000802080008020A0008020C0008020E00080400000804020008040400080406000804080
310
008040A0008040C0008040E00080600000806020008060400080606000806080008060A0008060C0008060E00080800000808020008080400080806000808080008080A0008080C0008080E00080A0000080A0200080A0400080A0600080A0800080A0A00080A0C00080A0E00080C0000080C0200080C0400080C0600080C0
310
800080C0A00080C0C00080C0E00080E0000080E0200080E0400080E0600080E0800080E0A00080E0C00080E0E000C0000000C0002000C0004000C0006000C0008000C000A000C000C000C000E000C0200000C0202000C0204000C0206000C0208000C020A000C020C000C020E000C0400000C0402000C0404000C0406000C0
310
408000C040A000C040C000C040E000C0600000C0602000C0604000C0606000C0608000C060A000C060C000C060E000C0800000C0802000C0804000C0806000C0808000C080A000C080C000C080E000C0A00000C0A02000C0A04000C0A06000C0A08000C0A0A000C0A0C000C0A0E000C0C00000C0C02000C0C04000C0C06000
310
C0C08000C0C0A000F0FBFF00A4A0A000808080000000FF0000FF000000FFFF00FF000000FF00FF00FFFF0000FFFFFF0000000000000000000000000000000000000000000000000000000000000000000000000000000000000000000000000000000000000000000000000000000000000000000000000000000000000000
310
000000000000000000000000000000000000000000000000000000000000000000000000000000000000000000000000000000000000000000000000000000000000000000000000000000000000000000000000000000000000000000000000000000000000000000000000000000000000F9F9F9F9F9F9F9F9F9F9F9F9F9
310
F9F9F9F9F9F9F9F9F9F9F9F9F9F9FF00000000F9FF000000000000000000FFFFFFFFFFFFFFFFFFFFFFFFF9FAFAFAFF00000000F9FF000000000000000000FFFFFFFFFFFFFFFFFFFFFFFFFFFFFFFFFF00000000F9FD000000000000000000FFFFFFFFFFFFFFFFFFFFFFFFFFFFFFFFFF00000000F9FF000000000000000000FF
310
FFFFFFFFFFFFFFFFFFFFFFFFFFFFFFFF00000000F9FD000000000000000000FFFFFFFFFFFFFFFFFFFFFFFFFFFFFFFFFF00000000F9FF00000000000000000000000000000000000000000000000000FF00000000F9FD00000000000000000000000000000000000000000000000000FF00000000F9FF000000000000000000
310
00000000000000000000000000000000FF00000000F9FD00000000000000000000000000000000000000000000000000FF00000000F9FF00000000000000000000000000000000000000000000000000FF00000000F9FD00000000000000000000000000000000000000000000000000FF00000000F9FD0000000000000000
310
0000000000000000000000000000000000FF00000000F9FF00000000000000000000000000000000000000000000000000FF00000000F9FD00000000000000000000000000000000000000000000000000FF00000000F9FF00000000000000000000000000000000000000000000000000FF00000000F9FD00000000000000
310
000000000000000000000000000000000000FF00000000F9FF00000000000000000000000000000000000000000000000000FF00000000F9FFFFFFFFFFFFFFFFFFFFFFFFFFFFFFFFFFFFFFFFFFFFFFFFFFFFFF00000000F9FFFFFFF9F9F9F9F9F9F9F9F9F9F9F9F9F9F9F9F9F9F9F9F9F9F9F9000000000000000000000000
310
00000000000000000000000000000000000000000000000000000000000000000000000000000000000000000000000000000000000000000000000000000000000000000000000000000000000000000000000000000000000000000000000000000000000000000000000000000000000000000000000000000000000000
310
0000000000000000000000000000000000000000000000000000000000000000000000000000000000000000000000000000000000000000
102
{BLKREFS
331
565
102
}
 70
     4
280
     1
281
     0
1001
AcDbDynamicBlockGUID
1000
{B0DA84DC-7A0A-4CD2-9CD8-69CE05B53731}
1001
AcDbBlockRepETag
1070
     1
1071
      149
  0
BLOCK_RECORD
  5
7A0
330
1
100
AcDbSymbolTableRecord
100
AcDbBlockTableRecord
  2
*D2
340
0
 70
     0
280
     1
281
     0
  0
BLOCK_RECORD
  5
7AD
330
1
100
AcDbSymbolTableRecord
100
AcDbBlockTableRecord
  2
*D3
340
0
 70
     0
280
     1
281
     0
  0
BLOCK_RECORD
  5
7BA
330
1
100
AcDbSymbolTableRecord
100
AcDbBlockTableRecord
  2
*D4
340
0
 70
     0
280
     1
281
     0
  0
BLOCK_RECORD
  5
7C7
330
1
100
AcDbSymbolTableRecord
100
AcDbBlockTableRecord
  2
*D5
340
0
 70
     0
280
     1
281
     0
  0
BLOCK_RECORD
  5
7D4
330
1
100
AcDbSymbolTableRecord
100
AcDbBlockTableRecord
  2
*D6
340
0
 70
     0
280
     1
281
     0
  0
BLOCK_RECORD
  5
808
330
1
100
AcDbSymbolTableRecord
100
AcDbBlockTableRecord
  2
*D7
340
0
 70
     0
280
     1
281
     0
  0
ENDTAB
  0
ENDSEC
  0
SECTION
  2
BLOCKS
  0
BLOCK
  5
5
330
2
100
AcDbEntity
  8
0
100
AcDbBlockBegin
  2
*Model_Space
 70
     0
 10
0.0
 20
0.0
 30
0.0
  3
*Model_Space
  1

  0
ENDBLK
  5
204
330
2
100
AcDbEntity
  8
0
100
AcDbBlockEnd
  0
BLOCK
  5
209
330
208
100
AcDbEntity
 67
     1
  8
0
100
AcDbBlockBegin
  2
*Paper_Space
 70
     0
 10
0.0
 20
0.0
 30
0.0
  3
*Paper_Space
  1

  0
ENDBLK
  5
20A
330
208
100
AcDbEntity
 67
     1
  8
0
100
AcDbBlockEnd
  0
BLOCK
  5
20D
330
20C
100
AcDbEntity
 67
     1
  8
0
100
AcDbBlockBegin
  2
*Paper_Space0
 70
     0
 10
0.0
 20
0.0
 30
0.0
  3
*Paper_Space0
  1

  0
ENDBLK
  5
20E
330
20C
100
AcDbEntity
 67
     1
  8
0
100
AcDbBlockEnd
  0
BLOCK
  5
2AE
330
2AC
100
AcDbEntity
  8
0
100
AcDbBlockBegin
  2
A4图框-NEW
 70
     0
 10
0.0
 20
0.0
 30
0.0
  3
A4图框-NEW
  1

  0
MTEXT
  5
C0A
102
{ACAD_XDICTIONARY
360
CF2
102
}
330
2AC
100
AcDbEntity
  8
图框
 62
     3
100
AcDbMText
 10
967.6594956750133
 20
499.7664151964293
 30
0.0
 40
2.985513575034151
 41
15.50176341157864
 46
6.292658374511018
 71
     5
 72
     5
  1
BQ LUO
  7
Romans字体
 73
     1
 44
1.0
1001
AcDbBlockRepETag
1070
     1
1071
        0
1005
C0A
1001
ACAD
1000
ACAD_MTEXT_DEFINED_HEIGHT_BEGIN
1070
    46
1040
6.292658374511018
1000
ACAD_MTEXT_DEFINED_HEIGHT_END
  0
MTEXT
  5
C0B
330
2AC
100
AcDbEntity
  8
图框
 62
     3
100
AcDbMText
 10
983.041569333247
 20
499.7664151964293
 30
0.0
 40
2.487927979195124
 41
15.26238390489062
 46
6.292658374511042
 71
     5
 72
     5
  1
{\W0.7;18.10.2010}
  7
Romans字体
 73
     1
 44
1.0
1001
AcDbBlockRepETag
1070
     1
1071
        1
1005
C0B
1001
ACAD
1000
ACAD_MTEXT_DEFINED_HEIGHT_BEGIN
1070
    46
1040
6.292658374511042
1000
ACAD_MTEXT_DEFINED_HEIGHT_END
  0
MTEXT
  5
C0C
330
2AC
100
AcDbEntity
  8
图框
 62
     3
100
AcDbMText
 10
1012.477254728976
 20
487.1810984474071
 30
0.0
 40
2.985513575034151
 41
17.64876416884615
 46
6.292658374511455
 71
     5
 72
     5
  1
YY LIN
  7
Romans字体
 73
     1
 44
1.0
1001
AcDbBlockRepETag
1070
     1
1071
        2
1005
C0C
1001
ACAD
1000
ACAD_MTEXT_DEFINED_HEIGHT_BEGIN
1070
    46
1040
6.292658374511455
1000
ACAD_MTEXT_DEFINED_HEIGHT_END
  0
MTEXT
  5
C0D
330
2AC
100
AcDbEntity
  8
图框
 62
     3
100
AcDbMText
 10
1028.977802139886
 20
487.1810984474071
 30
0.0
 40
2.487927979195124
 41
15.35233065297276
 46
6.292658374511495
 71
     5
 72
     5
  1
{\W0.7;18.10.2010}
  7
Romans字体
 73
     1
 44
1.0
1001
AcDbBlockRepETag
1070
     1
1071
        3
1005
C0D
1001
ACAD
1000
ACAD_MTEXT_DEFINED_HEIGHT_BEGIN
1070
    46
1040
6.292658374511495
1000
ACAD_MTEXT_DEFINED_HEIGHT_END
  0
MTEXT
  5
C0E
330
2AC
100
AcDbEntity
  8
图框
 62
     3
100
AcDbMText
 10
1063.722665487208
 20
525.4145966538831
 30
0.0
 40
2.985513575034151
 41
32.4973914334545
 46
11.82914190181707
 71
     5
 72
     5
  1
-
  7
Romans字体
 73
     1
 44
1.0
1001
AcDbBlockRepETag
1070
     1
1071
        4
1005
C0E
1001
ACAD
1000
ACAD_MTEXT_DEFINED_HEIGHT_BEGIN
1070
    46
1040
11.82914190181707
1000
ACAD_MTEXT_DEFINED_HEIGHT_END
  0
MTEXT
  5
C0F
330
2AC
100
AcDbEntity
  8
图框
 62
     3
100
AcDbMText
 10
1063.727338552349
 20
513.5854547520641
 30
0.0
 40
2.985513575034151
 41
32.48804530317308
 46
11.82914190182139
 71
     5
 72
     5
  1
-
  7
Romans字体
 73
     1
 44
1.0
1001
AcDbBlockRepETag
1070
     1
1071
        5
1005
C0F
1001
ACAD
1000
ACAD_MTEXT_DEFINED_HEIGHT_BEGIN
1070
    46
1040
11.82914190182139
1000
ACAD_MTEXT_DEFINED_HEIGHT_END
  0
MTEXT
  5
C10
330
2AC
100
AcDbEntity
  8
图框
 62
     3
100
AcDbMText
 10
1110.122306614152
 20
526.8006839312707
 30
0.0
 40
2.985513575034151
 41
33.61239199242139
 46
9.05696734704178
 71
     5
 72
     5
  1
-
  7
Romans字体
 73
     1
 44
1.0
1001
AcDbBlockRepETag
1070
     1
1071
        6
1005
C10
1001
ACAD
1000
ACAD_MTEXT_DEFINED_HEIGHT_BEGIN
1070
    46
1040
9.05696734704178
1000
ACAD_MTEXT_DEFINED_HEIGHT_END
  0
MTEXT
  5
C11
330
2AC
100
AcDbEntity
  8
图框
 62
     3
100
AcDbMText
 10
1110.122306614152
 20
500.2775205517162
 30
0.0
 40
2.985513575034151
 41
33.61239199242139
 46
8.871557304763419
 71
     5
 72
     5
  1
-
  7
Romans字体
 73
     1
 44
1.0
1001
AcDbBlockRepETag
1070
     1
1071
        7
1005
C11
1001
ACAD
1000
ACAD_MTEXT_DEFINED_HEIGHT_BEGIN
1070
    46
1040
8.871557304763419
1000
ACAD_MTEXT_DEFINED_HEIGHT_END
  0
MTEXT
  5
C12
330
2AC
100
AcDbEntity
  8
图框
 62
     3
100
AcDbMText
 10
967.6594956750133
 20
493.4737568219182
 30
0.0
 40
2.985513575034151
 41
15.50176341157864
 46
6.292658374510335
 71
     5
 72
     5
  1
P RAO
  7
Romans字体
 73
     1
 44
1.0
1001
AcDbBlockRepETag
1070
     1
1071
        8
1005
C12
1001
ACAD
1000
ACAD_MTEXT_DEFINED_HEIGHT_BEGIN
1070
    46
1040
6.292658374510335
1000
ACAD_MTEXT_DEFINED_HEIGHT_END
  0
MTEXT
  5
C13
330
2AC
100
AcDbEntity
  8
图框
 62
     3
100
AcDbMText
 10
983.041569333247
 20
493.2441970450405
 30
0.0
 40
2.487927979195124
 41
15.26238390489051
 46
6.751777928266487
 71
     5
 72
     5
  1
{\W0.7;18.10.2010}
  7
Romans字体
 73
     1
 44
1.0
1001
AcDbBlockRepETag
1070
     1
1071
        9
1005
C13
1001
ACAD
1000
ACAD_MTEXT_DEFINED_HEIGHT_BEGIN
1070
    46
1040
6.751777928266487
1000
ACAD_MTEXT_DEFINED_HEIGHT_END
  0
MTEXT
  5
C14
330
2AC
100
AcDbEntity
  8
图框
 62
     3
100
AcDbMText
 10
1012.477254728976
 20
499.7664151964291
 30
0.0
 40
2.985513575034151
 41
17.64876416884615
 46
6.292658374511397
 71
     5
 72
     5
  1
-
  7
Romans字体
 73
     1
 44
1.0
1001
AcDbBlockRepETag
1070
     1
1071
       10
1005
C14
1001
ACAD
1000
ACAD_MTEXT_DEFINED_HEIGHT_BEGIN
1070
    46
1040
6.292658374511397
1000
ACAD_MTEXT_DEFINED_HEIGHT_END
  0
MTEXT
  5
C15
330
2AC
100
AcDbEntity
  8
图框
 62
     3
100
AcDbMText
 10
1028.977802139886
 20
499.7664151964289
 30
0.0
 40
2.487927979195124
 41
15.35233065297265
 46
6.292658374511382
 71
     5
 72
     5
  1
-
  7
Romans字体
 73
     1
 44
1.0
1001
AcDbBlockRepETag
1070
     1
1071
       11
1005
C15
1001
ACAD
1000
ACAD_MTEXT_DEFINED_HEIGHT_BEGIN
1070
    46
1040
6.292658374511382
1000
ACAD_MTEXT_DEFINED_HEIGHT_END
  0
MTEXT
  5
C16
330
2AC
100
AcDbEntity
  8
图框
 62
     3
100
AcDbMText
 10
967.6594956750133
 20
487.1810984474071
 30
0.0
 40
2.985513575034151
 41
15.50176341157863
 46
6.292658374511478
 71
     5
 72
     5
  1
-
  7
Romans字体
 73
     1
 44
1.0
1001
AcDbBlockRepETag
1070
     1
1071
       12
1005
C16
1001
ACAD
1000
ACAD_MTEXT_DEFINED_HEIGHT_BEGIN
1070
    46
1040
6.292658374511478
1000
ACAD_MTEXT_DEFINED_HEIGHT_END
  0
MTEXT
  5
C17
330
2AC
100
AcDbEntity
  8
图框
 62
     3
100
AcDbMText
 10
983.041569333247
 20
487.1810984474071
 30
0.0
 40
2.487927979195124
 41
15.26238390489062
 46
6.292658374511495
 71
     5
 72
     5
  1
-
  7
Romans字体
 73
     1
 44
1.0
1001
AcDbBlockRepETag
1070
     1
1071
       13
1005
C17
1001
ACAD
1000
ACAD_MTEXT_DEFINED_HEIGHT_BEGIN
1070
    46
1040
6.292658374511495
1000
ACAD_MTEXT_DEFINED_HEIGHT_END
  0
MTEXT
  5
C18
330
2AC
100
AcDbEntity
  8
图框
 62
     3
100
AcDbMText
 10
1074.556686986741
 20
495.8417418993361
 30
0.0
 40
2.985513575034151
 41
10.82934843438978
 46
7.886094601210427
 71
     5
 72
     5
  1
-
  7
Romans字体
 73
     1
 44
1.0
1001
AcDbBlockRepETag
1070
     1
1071
       14
1005
C18
1001
ACAD
1000
ACAD_MTEXT_DEFINED_HEIGHT_BEGIN
1070
    46
1040
7.886094601210427
1000
ACAD_MTEXT_DEFINED_HEIGHT_END
  0
LINE
  5
C19
330
2AC
100
AcDbEntity
  8
图框
370
    -3
100
AcDbLine
 10
1036.653967466372
 20
499.7847891999413
 30
0.0
 11
1079.971361203936
 21
499.7847891999413
 31
0.0
1001
AcDbBlockRepETag
1070
     1
1071
       15
1005
C19
  0
MTEXT
  5
C1A
330
2AC
100
AcDbEntity
  8
图框
 62
     1
370
    20
100
AcDbMText
 10
1108.26336443907
 20
491.5162596080882
 30
0.0
 40
2.699054613030988
 41
82.30831305643079
 46
0.0
 71
     5
 72
     5
  1
{\fSimHei|b0|i0|c134|p2;厦门唯恩电气有限公司}
 73
     1
 44
1.0
1001
AcDbBlockRepETag
1070
     1
1071
       16
1005
C1A
  0
MTEXT
  5
C1B
330
2AC
100
AcDbEntity
  8
图框
 62
     3
370
    20
100
AcDbMText
 10
1108.435451459908
 20
487.298967726064
 30
0.0
 40
1.652482416141417
 41
68.08558693693567
 46
0.0
 71
     5
 72
     5
  1
{\fArial Narrow|b0|i0|c0|p34;XIAMEN WAIN ELECTRICAL CO.LTD}
  7
工程字
 73
     1
 44
1.0
1001
AcDbBlockRepETag
1070
     1
1071
       17
1005
C1B
  0
MTEXT
  5
C1C
330
2AC
100
AcDbEntity
  8
图框
 62
     1
370
    20
100
AcDbMText
 10
1085.711816899387
 20
491.0944802995856
 30
0.0
 40
2.005930044038334
 41
5.047240019334847
 46
0.0
 71
     1
 72
     5
  1
{\fArial|b0|i0|c0|p34;A}
  7
Chinese
 73
     1
 44
1.0
1001
AcDbBlockRepETag
1070
     1
1071
       18
1005
C1C
  0
MTEXT
  5
C1D
330
2AC
100
AcDbEntity
  8
图框
 62
     1
370
    20
100
AcDbMText
 10
1088.213485935716
 20
491.0944802995856
 30
0.0
 40
2.005930044038334
 41
5.047240019334847
 46
0.0
 71
     1
 72
     5
  1
{\fArial|b0|i0|c0|p34;I}
  7
Chinese
 73
     1
 44
1.0
1001
AcDbBlockRepETag
1070
     1
1071
       19
1005
C1D
  0
MTEXT
  5
C1E
330
2AC
100
AcDbEntity
  8
图框
 62
     1
370
    20
100
AcDbMText
 10
1089.142375222864
 20
491.0822866326808
 30
0.0
 40
2.005930044038334
 41
5.047240019334847
 46
0.0
 71
     1
 72
     5
  1
{\fArial|b0|i0|c0|p34;N}
  7
Chinese
 73
     1
 44
1.0
1001
AcDbBlockRepETag
1070
     1
1071
       20
1005
C1E
  0
MTEXT
  5
C1F
330
2AC
100
AcDbEntity
  8
图框
100
AcDbMText
 10
1069.142012769545
 20
487.9667319294409
 30
0.0
 40
2.252848170144607
 41
21.65869686878327
 46
7.863925338579296
 71
     5
 72
     5
  1
{\W0.5;\C1;All Dimensions in mm\POriginal Size DIN A 4}
  7
Romans字体
 73
     1
 44
1.0
1001
AcDbBlockRepETag
1070
     1
1071
       21
1005
C1F
1001
ACAD
1000
ACAD_MTEXT_DEFINED_HEIGHT_BEGIN
1070
    46
1040
7.863925338579296
1000
ACAD_MTEXT_DEFINED_HEIGHT_END
  0
MTEXT
  5
C20
330
2AC
100
AcDbEntity
  8
图框
  6
ByBlock
 62
     6
370
    18
100
AcDbMText
 10
1127.40434942308
 20
508.7896535755975
 30
0.0
 40
2.651776162684904
 41
2.557913877927211
 46
0.0
 71
     1
 72
     5
  1
A
  7
Romans字体
 11
0.0000000000000001
 21
1.0
 31
0.0
 73
     1
 44
1.0
1001
AcDbBlockRepETag
1070
     1
1071
       22
1005
C20
  0
MTEXT
  5
C21
330
2AC
100
AcDbEntity
  8
图框
 62
     6
100
AcDbMText
 10
1127.40434942308
 20
556.3746573232886
 30
0.0
 40
2.651776162684904
 41
2.557913877927211
 46
0.0
 71
     1
 72
     5
  1
B
  7
Romans字体
 11
0.0000000000000001
 21
1.0
 31
0.0
 73
     1
 44
1.0
1001
AcDbBlockRepETag
1070
     1
1071
       23
1005
C21
  0
MTEXT
  5
C22
330
2AC
100
AcDbEntity
  8
图框
 62
     6
100
AcDbMText
 10
1127.40434942308
 20
607.5539372630998
 30
0.0
 40
2.651776162684904
 41
2.557913877927211
 46
0.0
 71
     1
 72
     5
  1
C
  7
Romans字体
 11
0.0000000000000001
 21
1.0
 31
0.0
 73
     1
 44
1.0
1001
AcDbBlockRepETag
1070
     1
1071
       24
1005
C22
  0
MTEXT
  5
C23
330
2AC
100
AcDbEntity
  8
图框
 62
     6
100
AcDbMText
 10
1127.40434942308
 20
658.7332172029115
 30
0.0
 40
2.651776162684904
 41
2.557913877927211
 46
0.0
 71
     1
 72
     5
  1
D
  7
Romans字体
 11
0.0000000000000001
 21
1.0
 31
0.0
 73
     1
 44
1.0
1001
AcDbBlockRepETag
1070
     1
1071
       25
1005
C23
  0
LINE
  5
C24
330
2AC
100
AcDbEntity
  8
图框
 62
     6
100
AcDbLine
 10
1130.411601781241
 20
634.0726090796082
 30
0.0
 11
1126.928502610363
 21
634.0726090796082
 31
0.0
1001
AcDbBlockRepETag
1070
     1
1071
       26
1005
C24
  0
LINE
  5
C25
330
2AC
100
AcDbEntity
  8
图框
 62
     6
100
AcDbLine
 10
1130.411601781241
 20
582.89332913979
 30
0.0
 11
1126.928502610363
 21
582.89332913979
 31
0.0
1001
AcDbBlockRepETag
1070
     1
1071
       27
1005
C25
  0
MTEXT
  5
C26
330
2AC
100
AcDbEntity
  8
图框
 62
     6
100
AcDbMText
 10
1105.329704038389
 20
483.6164543011163
 30
0.0
 40
2.651776162684904
 41
2.557913877927211
 46
0.0
 71
     1
 72
     5
  1
6
  7
Romans字体
 73
     1
 44
1.0
1001
AcDbBlockRepETag
1070
     1
1071
       28
1005
C26
  0
LINE
  5
C27
330
2AC
100
AcDbEntity
  8
图框
 62
     6
100
AcDbLine
 10
1081.088565155284
 20
484.0347692601515
 30
0.0
 11
1081.088565155284
 21
480.5347692601475
 31
0.0
1001
AcDbBlockRepETag
1070
     1
1071
       29
1005
C27
  0
MTEXT
  5
C28
330
2AC
100
AcDbEntity
  8
图框
 62
     6
100
AcDbMText
 10
1055.900596365941
 20
483.520053108993
 30
0.0
 40
2.651776162684904
 41
2.557913877927211
 46
0.0
 71
     1
 72
     5
  1
5
  7
Romans字体
 73
     1
 44
1.0
1001
AcDbBlockRepETag
1070
     1
1071
       30
1005
C28
  0
LINE
  5
C29
330
2AC
100
AcDbEntity
  8
图框
 62
     6
100
AcDbLine
 10
1031.553386436349
 20
484.0347692601515
 30
0.0
 11
1031.553386436349
 21
480.5347692601475
 31
0.0
1001
AcDbBlockRepETag
1070
     1
1071
       31
1005
C29
  0
MTEXT
  5
C2A
330
2AC
100
AcDbEntity
  8
图框
 62
     6
100
AcDbMText
 10
1006.383180575197
 20
483.5687958215896
 30
0.0
 40
2.651776162684904
 41
2.557913877927211
 46
0.0
 71
     1
 72
     5
  1
4
  7
Romans字体
 73
     1
 44
1.0
1001
AcDbBlockRepETag
1070
     1
1071
       32
1005
C2A
  0
LINE
  5
C2B
330
2AC
100
AcDbEntity
  8
图框
 62
     6
100
AcDbLine
 10
982.0182077173887
 20
484.0347692601515
 30
0.0
 11
982.0182077173887
 21
480.5347692601475
 31
0.0
1001
AcDbBlockRepETag
1070
     1
1071
       33
1005
C2B
  0
MTEXT
  5
C2C
330
2AC
100
AcDbEntity
  8
图框
 62
     6
100
AcDbMText
 10
956.8302389280352
 20
483.5989680297948
 30
0.0
 40
2.651776162684904
 41
2.557913877927211
 46
0.0
 71
     1
 72
     5
  1
3
  7
Romans字体
 73
     1
 44
1.0
1001
AcDbBlockRepETag
1070
     1
1071
       34
1005
C2C
  0
LINE
  5
C2D
330
2AC
100
AcDbEntity
  8
图框
 62
     6
100
AcDbLine
 10
932.4830289984245
 20
484.0347692601515
 30
0.0
 11
932.4830289984245
 21
480.5347692601475
 31
0.0
1001
AcDbBlockRepETag
1070
     1
1071
       35
1005
C2D
  0
MTEXT
  5
C2E
330
2AC
100
AcDbEntity
  8
图框
 62
     6
100
AcDbMText
 10
906.0252349826365
 20
483.6475250013156
 30
0.0
 40
2.651776162684904
 41
2.557913877927211
 46
0.0
 71
     1
 72
     5
  1
2
  7
Romans字体
 73
     1
 44
1.0
1001
AcDbBlockRepETag
1070
     1
1071
       36
1005
C2E
  0
LINE
  5
C2F
330
2AC
100
AcDbEntity
  8
图框
 62
     6
100
AcDbLine
 10
882.9478502794648
 20
484.0347692601515
 30
0.0
 11
882.9478502794648
 21
480.5347692601475
 31
0.0
1001
AcDbBlockRepETag
1070
     1
1071
       37
1005
C2F
  0
MTEXT
  5
C30
330
2AC
100
AcDbEntity
  8
图框
 62
     6
100
AcDbMText
 10
857.7598814901191
 20
483.651829494754
 30
0.0
 40
2.651776162684904
 41
2.557913877927211
 46
0.0
 71
     1
 72
     5
  1
1
  7
Romans字体
 73
     1
 44
1.0
1001
AcDbBlockRepETag
1070
     1
1071
       38
1005
C30
  0
LINE
  5
C31
330
2AC
100
AcDbEntity
  8
图框
370
    50
100
AcDbLine
 10
836.8548209370597
 20
484.0347692601515
 30
0.0
 11
1126.928502610363
 21
484.0347692601515
 31
0.0
1001
AcDbBlockRepETag
1070
     1
1071
       39
1005
C31
  0
LINE
  5
C32
330
2AC
100
AcDbEntity
  8
图框
370
    50
100
AcDbLine
 10
836.9128518455362
 20
484.0178684310246
 30
0.0
 11
836.9128518455394
 21
675.0207195125422
 31
0.0
1001
AcDbBlockRepETag
1070
     1
1071
       40
1005
C32
  0
MTEXT
  5
C33
330
2AC
100
AcDbEntity
  8
图框
 62
     6
100
AcDbMText
 10
833.8475685789031
 20
658.7332172029115
 30
0.0
 40
2.651776162684904
 41
2.557913877927211
 46
0.0
 71
     1
 72
     5
  1
D
  7
Romans字体
 11
0.0000000000000001
 21
1.0
 31
0.0
 73
     1
 44
1.0
1001
AcDbBlockRepETag
1070
     1
1071
       41
1005
C33
  0
LINE
  5
C34
330
2AC
100
AcDbEntity
  8
图框
 62
     6
100
AcDbLine
 10
836.9128518455386
 20
634.0726090796082
 30
0.0
 11
833.4128518455365
 21
634.0726090796082
 31
0.0
1001
AcDbBlockRepETag
1070
     1
1071
       42
1005
C34
  0
MTEXT
  5
C35
330
2AC
100
AcDbEntity
  8
图框
 62
     6
100
AcDbMText
 10
833.9039177480142
 20
607.5539372630998
 30
0.0
 40
2.651776162684904
 41
2.557913877927211
 46
0.0
 71
     1
 72
     5
  1
C
  7
Romans字体
 11
0.0000000000000001
 21
1.0
 31
0.0
 73
     1
 44
1.0
1001
AcDbBlockRepETag
1070
     1
1071
       43
1005
C35
  0
LINE
  5
C36
330
2AC
100
AcDbEntity
  8
图框
 62
     6
100
AcDbLine
 10
836.9128518455378
 20
582.89332913979
 30
0.0
 11
833.4128518455365
 21
582.89332913979
 31
0.0
1001
AcDbBlockRepETag
1070
     1
1071
       44
1005
C36
  0
MTEXT
  5
C37
330
2AC
100
AcDbEntity
  8
图框
 62
     6
100
AcDbMText
 10
833.9039177480142
 20
556.3746573232886
 30
0.0
 40
2.651776162684904
 41
2.557913877927211
 46
0.0
 71
     1
 72
     5
  1
B
  7
Romans字体
 11
0.0000000000000001
 21
1.0
 31
0.0
 73
     1
 44
1.0
1001
AcDbBlockRepETag
1070
     1
1071
       45
1005
C37
  0
LINE
  5
C38
330
2AC
100
AcDbEntity
  8
图框
 62
     6
100
AcDbLine
 10
836.9128518455367
 20
531.714049199969
 30
0.0
 11
833.4128518455365
 21
531.714049199969
 31
0.0
1001
AcDbBlockRepETag
1070
     1
1071
       46
1005
C38
  0
MTEXT
  5
C39
330
2AC
100
AcDbEntity
  8
图框
 62
     6
100
AcDbMText
 10
833.9039177480142
 20
508.7896535755975
 30
0.0
 40
2.651776162684904
 41
2.557913877927211
 46
0.0
 71
     1
 72
     5
  1
A
  7
Romans字体
 11
0.0000000000000001
 21
1.0
 31
0.0
 73
     1
 44
1.0
1001
AcDbBlockRepETag
1070
     1
1071
       47
1005
C39
  0
LINE
  5
C3A
330
2AC
100
AcDbEntity
  8
图框
370
    -3
100
AcDbLine
 10
836.9128518455394
 20
675.0207195125422
 30
0.0
 11
836.9128518455394
 21
684.5021384922564
 31
0.0
1001
AcDbBlockRepETag
1070
     1
1071
       48
1005
C3A
  0
LINE
  5
C3B
330
2AC
100
AcDbEntity
  8
图框
370
    -3
100
AcDbLine
 10
842.6237321475781
 20
675.5347692601515
 30
0.0
 11
842.6237321475781
 21
685.0161882398658
 31
0.0
1001
AcDbBlockRepETag
1070
     1
1071
       49
1005
C3B
  0
LINE
  5
C3C
330
2AC
100
AcDbEntity
  8
图框
370
    -3
100
AcDbLine
 10
848.3346124496179
 20
675.5347692601515
 30
0.0
 11
848.3346124496179
 21
685.0161882398658
 31
0.0
1001
AcDbBlockRepETag
1070
     1
1071
       50
1005
C3C
  0
LINE
  5
C3D
330
2AC
100
AcDbEntity
  8
图框
370
    -3
100
AcDbLine
 10
854.0454927516588
 20
675.5347692601515
 30
0.0
 11
854.0454927516588
 21
685.0161882398658
 31
0.0
1001
AcDbBlockRepETag
1070
     1
1071
       51
1005
C3D
  0
LINE
  5
C3E
330
2AC
100
AcDbEntity
  8
图框
370
    -3
100
AcDbLine
 10
861.5351874539182
 20
675.5347692601515
 30
0.0
 11
861.5351874539182
 21
686.7901958362482
 31
0.0
1001
AcDbBlockRepETag
1070
     1
1071
       52
1005
C3E
  0
MTEXT
  5
C3F
330
2AC
100
AcDbEntity
  8
图框
 62
     6
100
AcDbMText
 10
1105.329704038389
 20
678.859919059449
 30
0.0
 40
2.651776162684904
 41
2.557913877927211
 46
0.0
 71
     1
 72
     5
  1
6
  7
Romans字体
 73
     1
 44
1.0
1001
AcDbBlockRepETag
1070
     1
1071
       53
1005
C3F
  0
LINE
  5
C40
330
2AC
100
AcDbEntity
  8
图框
 62
     6
100
AcDbLine
 10
1081.088565155284
 20
679.0347692601516
 30
0.0
 11
1081.088565155284
 21
675.5347692601515
 31
0.0
1001
AcDbBlockRepETag
1070
     1
1071
       54
1005
C40
  0
MTEXT
  5
C41
330
2AC
100
AcDbEntity
  8
图框
 62
     6
100
AcDbMText
 10
1055.900596365941
 20
678.859919059449
 30
0.0
 40
2.651776162684904
 41
2.557913877927211
 46
0.0
 71
     1
 72
     5
  1
5
  7
Romans字体
 73
     1
 44
1.0
1001
AcDbBlockRepETag
1070
     1
1071
       55
1005
C41
  0
LINE
  5
C42
330
2AC
100
AcDbEntity
  8
图框
 62
     6
100
AcDbLine
 10
1031.553386436349
 20
679.0347692601516
 30
0.0
 11
1031.553386436349
 21
675.5347692601515
 31
0.0
1001
AcDbBlockRepETag
1070
     1
1071
       56
1005
C42
  0
MTEXT
  5
C43
330
2AC
100
AcDbEntity
  8
图框
 62
     6
100
AcDbMText
 10
1006.36541764698
 20
678.7312083656147
 30
0.0
 40
2.651776162684904
 41
2.557913877927211
 46
0.0
 71
     1
 72
     5
  1
4
  7
Romans字体
 73
     1
 44
1.0
1001
AcDbBlockRepETag
1070
     1
1071
       57
1005
C43
  0
LINE
  5
C44
330
2AC
100
AcDbEntity
  8
图框
 62
     6
100
AcDbLine
 10
982.0182077173887
 20
679.0347692601516
 30
0.0
 11
982.0182077173887
 21
675.5347692601515
 31
0.0
1001
AcDbBlockRepETag
1070
     1
1071
       58
1005
C44
  0
MTEXT
  5
C45
330
2AC
100
AcDbEntity
  8
图框
 62
     6
100
AcDbMText
 10
956.8302389280352
 20
678.859919059449
 30
0.0
 40
2.651776162684904
 41
2.557913877927211
 46
0.0
 71
     1
 72
     5
  1
3
  7
Romans字体
 73
     1
 44
1.0
1001
AcDbBlockRepETag
1070
     1
1071
       59
1005
C45
  0
LINE
  5
C46
330
2AC
100
AcDbEntity
  8
图框
 62
     6
100
AcDbLine
 10
932.4830289984245
 20
679.0347692601516
 30
0.0
 11
932.4830289984245
 21
675.5347692601515
 31
0.0
1001
AcDbBlockRepETag
1070
     1
1071
       60
1005
C46
  0
MTEXT
  5
C47
330
2AC
100
AcDbEntity
  8
图框
 62
     6
100
AcDbMText
 10
907.295060209082
 20
678.859919059449
 30
0.0
 40
2.651776162684904
 41
2.557913877927211
 46
0.0
 71
     1
 72
     5
  1
2
  7
Romans字体
 73
     1
 44
1.0
1001
AcDbBlockRepETag
1070
     1
1071
       61
1005
C47
  0
LINE
  5
C48
330
2AC
100
AcDbEntity
  8
图框
 62
     6
100
AcDbLine
 10
882.9478502794648
 20
678.7962435131815
 30
0.0
 11
882.9478502794648
 21
675.5347692601515
 31
0.0
1001
AcDbBlockRepETag
1070
     1
1071
       62
1005
C48
  0
MTEXT
  5
C49
330
2AC
100
AcDbEntity
  8
图框
 62
     6
100
AcDbMText
 10
862.6286629643733
 20
678.859919059449
 30
0.0
 40
2.651776162684904
 41
2.557913877927211
 46
0.0
 71
     1
 72
     5
  1
1
  7
Romans字体
 73
     1
 44
1.0
1001
AcDbBlockRepETag
1070
     1
1071
       63
1005
C49
  0
LINE
  5
C4A
330
2AC
100
AcDbEntity
  8
图框
370
    -3
100
AcDbLine
 10
836.9128518455394
 20
675.0207195125422
 30
0.0
 11
836.9128518455394
 21
686.7901958362482
 31
0.0
1001
AcDbBlockRepETag
1070
     1
1071
       64
1005
C4A
  0
LINE
  5
C4B
330
2AC
100
AcDbEntity
  8
图框
370
    50
100
AcDbLine
 10
836.9128518455394
 20
675.5347692601515
 30
0.0
 11
1126.928502610363
 21
675.5347692601515
 31
0.0
1001
AcDbBlockRepETag
1070
     1
1071
       65
1005
C4B
  0
LINE
  5
C4C
330
2AC
100
AcDbEntity
  8
图框
370
    -3
100
AcDbLine
 10
842.6237321475781
 20
675.5347692601515
 30
0.0
 11
842.6237321475781
 21
686.7901958362482
 31
0.0
1001
AcDbBlockRepETag
1070
     1
1071
       66
1005
C4C
  0
LINE
  5
C4D
330
2AC
100
AcDbEntity
  8
图框
370
    -3
100
AcDbLine
 10
848.3346124496179
 20
675.5347692601515
 30
0.0
 11
848.3346124496179
 21
686.7901958362482
 31
0.0
1001
AcDbBlockRepETag
1070
     1
1071
       67
1005
C4D
  0
MTEXT
  5
C4E
102
{ACAD_XDICTIONARY
360
CF4
102
}
330
2AC
100
AcDbEntity
  8
图框
100
AcDbMText
 10
857.7903401027889
 20
686.7901958362482
 30
0.0
 40
1.958998408821398
 41
11.25542657609672
 46
7.489694702258906
 71
     4
 72
     5
  1
\pi2.6646;{\fSimSun|b0|i0|c134|p2;档案员\fFangSong_GB2312|b0|i0|c134|p49;\H0.7x;\P\pi1.4159;\Fromans|c134;Filing Clerk\fFangSong_GB2312|b0|i0|c134|p49; }
 11
-0.0000000000000002
 21
-1.0
 31
0.0
 73
     1
 44
1.0
1001
AcDbBlockRepETag
1070
     1
1071
       68
1005
C4E
1001
ACAD
1000
ACAD_MTEXT_DEFINED_HEIGHT_BEGIN
1070
    46
1040
7.489694702258906
1000
ACAD_MTEXT_DEFINED_HEIGHT_END
  0
MTEXT
  5
C4F
102
{ACAD_XDICTIONARY
360
CF6
102
}
330
2AC
100
AcDbEntity
  8
图框
100
AcDbMText
 10
845.479172298598
 20
686.7901958362482
 30
0.0
 40
1.958998408821398
 41
11.25542657609672
 46
5.710880302039671
 71
     4
 72
     5
  1
\pi0.63465;{\fSimSun|b0|i0|c134|p2;日期\Fromans|c134;/Date}
 11
-0.0000000000000002
 21
-1.0
 31
0.0
 73
     1
 44
1.0
1001
AcDbBlockRepETag
1070
     1
1071
       69
1005
C4F
1001
ACAD
1000
ACAD_MTEXT_DEFINED_HEIGHT_BEGIN
1070
    46
1040
5.710880302039671
1000
ACAD_MTEXT_DEFINED_HEIGHT_END
  0
LINE
  5
C50
330
2AC
100
AcDbEntity
  8
图框
370
    -3
100
AcDbLine
 10
854.0454927516588
 20
675.5347692601515
 30
0.0
 11
854.0454927516588
 21
686.7901958362482
 31
0.0
1001
AcDbBlockRepETag
1070
     1
1071
       70
1005
C50
  0
LINE
  5
C51
330
2AC
100
AcDbEntity
  8
图框
370
    -3
100
AcDbLine
 10
1036.653967466372
 20
531.3291676047914
 30
0.0
 11
1036.653967466372
 21
484.0126019753161
 31
0.0
1001
AcDbBlockRepETag
1070
     1
1071
       71
1005
C51
  0
LINE
  5
C52
330
2AC
100
AcDbEntity
  8
图框
370
    -3
100
AcDbLine
 10
1047.483315900763
 20
507.6708838011533
 30
0.0
 11
1047.483315900763
 21
491.8986945987308
 31
0.0
1001
AcDbBlockRepETag
1070
     1
1071
       72
1005
C52
  0
LINE
  5
C53
330
2AC
100
AcDbEntity
  8
图框
370
    -3
100
AcDbLine
 10
1058.312664335153
 20
507.6708838011533
 30
0.0
 11
1058.312664335153
 21
484.0347692601515
 31
0.0
1001
AcDbBlockRepETag
1070
     1
1071
       73
1005
C53
  0
LINE
  5
C54
330
2AC
100
AcDbEntity
  8
图框
370
    25
100
AcDbLine
 10
1048.474135214456
 20
488.1095628329926
 30
0.0
 11
1054.946420288459
 21
488.1095628329926
 31
0.0
1001
AcDbBlockRepETag
1070
     1
1071
       74
1005
C54
  0
LINE
  5
C55
330
2AC
100
AcDbEntity
  8
图框
370
    25
100
AcDbLine
 10
1054.232527365989
 20
487.0761716842634
 30
0.0
 11
1049.156490914508
 21
486.4576273751
 31
0.0
1001
AcDbBlockRepETag
1070
     1
1071
       75
1005
C55
  0
LINE
  5
C56
330
2AC
100
AcDbEntity
  8
图框
370
    25
100
AcDbLine
 10
1054.232527365989
 20
489.1429539817209
 30
0.0
 11
1049.156490914508
 21
489.7614982908846
 31
0.0
1001
AcDbBlockRepETag
1070
     1
1071
       76
1005
C56
  0
LINE
  5
C57
330
2AC
100
AcDbEntity
  8
图框
370
    25
100
AcDbLine
 10
1049.156490914508
 20
489.7614982908846
 30
0.0
 11
1049.156490914508
 21
486.4576273751
 31
0.0
1001
AcDbBlockRepETag
1070
     1
1071
       77
1005
C57
  0
LINE
  5
C58
330
2AC
100
AcDbEntity
  8
图框
370
    25
100
AcDbLine
 10
1054.232527365989
 20
489.1429539817209
 30
0.0
 11
1054.232527365989
 21
487.0761716842634
 31
0.0
1001
AcDbBlockRepETag
1070
     1
1071
       78
1005
C58
  0
CIRCLE
  5
C59
330
2AC
100
AcDbEntity
  8
图框
370
    25
100
AcDbCircle
 10
1042.502700458579
 20
488.1095628329926
 30
0.0
 40
1.651935457891863
1001
AcDbBlockRepETag
1070
     1
1071
       79
1005
C59
  0
CIRCLE
  5
C5A
330
2AC
100
AcDbEntity
  8
图框
370
    25
100
AcDbCircle
 10
1042.502700458579
 20
488.1095628329926
 30
0.0
 40
1.033391148728775
1001
AcDbBlockRepETag
1070
     1
1071
       80
1005
C5A
  0
LINE
  5
C5B
330
2AC
100
AcDbEntity
  8
图框
370
    25
100
AcDbLine
 10
1040.136872078216
 20
488.1095628329926
 30
0.0
 11
1044.868528838943
 21
488.1095628329926
 31
0.0
1001
AcDbBlockRepETag
1070
     1
1071
       81
1005
C5B
  0
LINE
  5
C5C
330
2AC
100
AcDbEntity
  8
图框
370
    25
100
AcDbLine
 10
1042.502700458579
 20
490.475391213355
 30
0.0
 11
1042.502700458579
 21
485.743734452629
 31
0.0
1001
AcDbBlockRepETag
1070
     1
1071
       82
1005
C5C
  0
LINE
  5
C5D
330
2AC
100
AcDbEntity
  8
图框
370
    -3
100
AcDbLine
 10
1069.142012769546
 20
507.6708838011533
 30
0.0
 11
1069.142012769546
 21
491.8986945987308
 31
0.0
1001
AcDbBlockRepETag
1070
     1
1071
       83
1005
C5D
  0
MTEXT
  5
C5E
330
2AC
100
AcDbEntity
  8
图框
100
AcDbMText
 10
1086.643735910939
 20
526.8006839312707
 30
0.0
 40
2.154898249703542
 41
13.34474941400573
 46
9.056967347041775
 71
     5
 72
     5
  1
图号{\Ftxt|c134;\P\Fromans|c134;\W0.65;Drawing No.}
 73
     1
 44
1.0
1001
AcDbBlockRepETag
1070
     1
1071
       84
1005
C5E
1001
ACAD
1000
ACAD_MTEXT_DEFINED_HEIGHT_BEGIN
1070
    46
1040
9.056967347041775
1000
ACAD_MTEXT_DEFINED_HEIGHT_END
  0
LINE
  5
C5F
330
2AC
100
AcDbEntity
  8
图框
370
    -3
100
AcDbLine
 10
1093.316110617942
 20
531.3291676047914
 30
0.0
 11
1093.316110617942
 21
495.8417418993347
 31
0.0
1001
AcDbBlockRepETag
1070
     1
1071
       85
1005
C5F
  0
LINE
  5
C60
330
2AC
100
AcDbEntity
  8
图框
370
    -3
100
AcDbLine
 10
1047.473969770481
 20
531.3291676047914
 30
0.0
 11
1047.473969770481
 21
507.6708838011533
 31
0.0
1001
AcDbBlockRepETag
1070
     1
1071
       86
1005
C60
  0
MTEXT
  5
C61
330
2AC
100
AcDbEntity
  8
图框
100
AcDbMText
 10
1063.72733855235
 20
503.7278365005473
 30
0.0
 40
2.252848170144607
 41
10.82934843439208
 46
7.886094601212128
 71
     5
 72
     5
  1
重量\P{\Fromans|c134;Weight}
 73
     1
 44
1.0
1001
AcDbBlockRepETag
1070
     1
1071
       87
1005
C61
1001
ACAD
1000
ACAD_MTEXT_DEFINED_HEIGHT_BEGIN
1070
    46
1040
7.886094601212128
1000
ACAD_MTEXT_DEFINED_HEIGHT_END
  0
LINE
  5
C62
330
2AC
100
AcDbEntity
  8
图框
370
    -3
100
AcDbLine
 10
1036.653967466372
 20
519.5000257029746
 30
0.0
 11
1079.971361203936
 21
519.5000257029746
 31
0.0
1001
AcDbBlockRepETag
1070
     1
1071
       88
1005
C62
  0
MTEXT
  5
C63
330
2AC
100
AcDbEntity
  8
图框
100
AcDbMText
 10
1074.556686986741
 20
503.7278365005473
 30
0.0
 40
2.252848170144607
 41
10.82934843438984
 46
7.886094601212141
 71
     5
 72
     5
  1
数量\P{\Fromans|c134;Qty.}
 73
     1
 44
1.0
1001
AcDbBlockRepETag
1070
     1
1071
       89
1005
C63
1001
ACAD
1000
ACAD_MTEXT_DEFINED_HEIGHT_BEGIN
1070
    46
1040
7.886094601212141
1000
ACAD_MTEXT_DEFINED_HEIGHT_END
  0
LINE
  5
C64
330
2AC
100
AcDbEntity
  8
图框
370
    -3
100
AcDbLine
 10
1079.971361203936
 20
495.8417418993347
 30
0.0
 11
1126.928502610363
 21
495.8417418993342
 31
0.0
1001
AcDbBlockRepETag
1070
     1
1071
       90
1005
C64
  0
LINE
  5
C65
330
2AC
100
AcDbEntity
  8
图框
370
    -3
100
AcDbLine
 10
1079.971361203936
 20
504.7132992040975
 30
0.0
 11
1126.928502610363
 21
504.7132992040975
 31
0.0
1001
AcDbBlockRepETag
1070
     1
1071
       91
1005
C65
  0
MTEXT
  5
C66
330
2AC
100
AcDbEntity
  8
图框
100
AcDbMText
 10
1052.893317052817
 20
503.7278365005473
 30
0.0
 40
2.252848170144607
 41
10.83869456467139
 46
7.886094601212101
 71
     5
 72
     5
  1
版本\P{\Fromans|c134;REV.}
 73
     1
 44
1.0
1001
AcDbBlockRepETag
1070
     1
1071
       92
1005
C66
1001
ACAD
1000
ACAD_MTEXT_DEFINED_HEIGHT_BEGIN
1070
    46
1040
7.886094601212101
1000
ACAD_MTEXT_DEFINED_HEIGHT_END
  0
MTEXT
  5
C67
330
2AC
100
AcDbEntity
  8
图框
100
AcDbMText
 10
1042.068641683568
 20
503.7278365005473
 30
0.0
 40
2.252848170144607
 41
10.8293484343908
 46
7.886094601212136
 71
     5
 72
     5
  1
比例\P{\Fromans|c134;Scale}
 73
     1
 44
1.0
1001
AcDbBlockRepETag
1070
     1
1071
       93
1005
C67
1001
ACAD
1000
ACAD_MTEXT_DEFINED_HEIGHT_BEGIN
1070
    46
1040
7.886094601212136
1000
ACAD_MTEXT_DEFINED_HEIGHT_END
  0
LINE
  5
C68
330
2AC
100
AcDbEntity
  8
图框
370
    -3
100
AcDbLine
 10
1036.653967466372
 20
507.6708838011533
 30
0.0
 11
1079.971361203936
 21
507.6708838011533
 31
0.0
1001
AcDbBlockRepETag
1070
     1
1071
       94
1005
C68
  0
LINE
  5
C69
330
2AC
100
AcDbEntity
  8
图框
370
    -3
100
AcDbLine
 10
1036.653967466372
 20
491.8986945987308
 30
0.0
 11
1079.971361203936
 21
491.8986945987308
 31
0.0
1001
AcDbBlockRepETag
1070
     1
1071
       95
1005
C69
  0
LINE
  5
C6A
330
2AC
100
AcDbEntity
  8
图框
370
    -3
100
AcDbLine
 10
1079.971361203936
 20
531.3291676047914
 30
0.0
 11
1079.971361203936
 21
484.0125999975168
 31
0.0
1001
AcDbBlockRepETag
1070
     1
1071
       96
1005
C6A
  0
MTEXT
  5
C6B
330
2AC
100
AcDbEntity
  8
图框
100
AcDbMText
 10
1042.063968618426
 20
525.4145966538832
 30
0.0
 40
2.252848170144607
 41
10.82000230410933
 46
11.82914190181708
 71
     5
 72
     5
  1
表面处理\P{\Fromans|c134;Finish}
 73
     1
 44
1.0
1001
AcDbBlockRepETag
1070
     1
1071
       97
1005
C6B
1001
ACAD
1000
ACAD_MTEXT_DEFINED_HEIGHT_BEGIN
1070
    46
1040
11.82914190181708
1000
ACAD_MTEXT_DEFINED_HEIGHT_END
  0
MTEXT
  5
C6C
330
2AC
100
AcDbEntity
  8
图框
100
AcDbMText
 10
1042.063968618426
 20
513.5854547520639
 30
0.0
 40
2.252848170144607
 41
10.82000230410933
 46
11.8291419018212
 71
     5
 72
     5
  1
材料\P{\Fromans|c134;Material}
 73
     1
 44
1.0
1001
AcDbBlockRepETag
1070
     1
1071
       98
1005
C6C
1001
ACAD
1000
ACAD_MTEXT_DEFINED_HEIGHT_BEGIN
1070
    46
1040
11.8291419018212
1000
ACAD_MTEXT_DEFINED_HEIGHT_END
  0
LINE
  5
C6D
330
2AC
100
AcDbEntity
  8
图框
370
    -3
100
AcDbLine
 10
1079.971361203936
 20
522.27220025775
 30
0.0
 11
1126.928502610363
 21
522.27220025775
 31
0.0
1001
AcDbBlockRepETag
1070
     1
1071
       99
1005
C6D
  0
LINE
  5
C6E
330
2AC
100
AcDbEntity
  8
图框
370
    -3
100
AcDbLine
 10
1079.971361203936
 20
513.5854547520641
 30
0.0
 11
1126.928502610363
 21
513.5854547520639
 31
0.0
1001
AcDbBlockRepETag
1070
     1
1071
      100
1005
C6E
  0
MTEXT
  5
C6F
330
2AC
100
AcDbEntity
  8
图框
100
AcDbMText
 10
1086.643735910939
 20
517.9288275049072
 30
0.0
 40
1.958998408821398
 41
13.34474941400573
 46
8.686745505685811
 71
     5
 72
     5
  1
产品代号\P{\Fromans|c134;Part Code}
 73
     1
 44
1.0
1001
AcDbBlockRepETag
1070
     1
1071
      101
1005
C6F
1001
ACAD
1000
ACAD_MTEXT_DEFINED_HEIGHT_BEGIN
1070
    46
1040
8.686745505685811
1000
ACAD_MTEXT_DEFINED_HEIGHT_END
  0
LINE
  5
C70
330
2AC
100
AcDbEntity
  8
图框
370
    -3
100
AcDbLine
 10
946.9285026103634
 20
525.7982263931411
 30
0.0
 11
1036.653967466372
 21
525.7982263931411
 31
0.0
1001
AcDbBlockRepETag
1070
     1
1071
      102
1005
C70
  0
LINE
  5
C71
330
2AC
100
AcDbEntity
  8
图框
370
    -3
100
AcDbLine
 10
946.9285026103634
 20
520.2672851814959
 30
0.0
 11
1036.653967466372
 21
520.2672851814959
 31
0.0
1001
AcDbBlockRepETag
1070
     1
1071
      103
1005
C71
  0
LINE
  5
C72
330
2AC
100
AcDbEntity
  8
图框
370
    35
100
AcDbLine
 10
946.9285026103634
 20
531.3291676047914
 30
0.0
 11
1126.928502610363
 21
531.3291676047914
 31
0.0
1001
AcDbBlockRepETag
1070
     1
1071
      104
1005
C72
  0
LINE
  5
C73
330
2AC
100
AcDbEntity
  8
图框
370
    -3
100
AcDbLine
 10
990.6727612856927
 20
509.2054027581959
 30
0.0
 11
990.6727612856927
 21
484.0347692601515
 31
0.0
1001
AcDbBlockRepETag
1070
     1
1071
      105
1005
C73
  0
MTEXT
  5
C74
102
{ACAD_XDICTIONARY
360
CF8
102
}
330
2AC
100
AcDbEntity
  8
图框
100
AcDbMText
 10
997.1628169651232
 20
499.816589978722
 30
0.0
 40
2.252848170144607
 41
12.98011135886052
 46
6.19230880992475
 71
     5
 72
     5
  1
{\fSimSun|b0|i0|c134|p2;标准化}\PStand.
  7
Romans字体
 73
     1
 44
1.0
1001
AcDbBlockRepETag
1070
     1
1071
      106
1005
C74
1001
ACAD
1000
ACAD_MTEXT_DEFINED_HEIGHT_BEGIN
1070
    46
1040
6.19230880992475
1000
ACAD_MTEXT_DEFINED_HEIGHT_END
  0
LINE
  5
C75
330
2AC
100
AcDbEntity
  8
图框
370
    -3
100
AcDbLine
 10
975.4103773808022
 20
509.2054027581959
 30
0.0
 11
975.4103773808022
 21
484.0347692601515
 31
0.0
1001
AcDbBlockRepETag
1070
     1
1071
      107
1005
C75
  0
MTEXT
  5
C76
330
2AC
100
AcDbEntity
  8
图框
100
AcDbMText
 10
984.5089229802068
 20
511.9708733640202
 30
0.0
 40
2.448748011026752
 41
38.287899328693
 46
5.530941211648832
 71
     5
 72
     5
  1
  变更描述{\Fromans|c134;/Description}
 73
     1
 44
1.0
1001
AcDbBlockRepETag
1070
     1
1071
      108
1005
C76
1001
ACAD
1000
ACAD_MTEXT_DEFINED_HEIGHT_BEGIN
1070
    46
1040
5.530941211648832
1000
ACAD_MTEXT_DEFINED_HEIGHT_END
  0
MTEXT
  5
C77
102
{ACAD_XDICTIONARY
360
CFA
102
}
330
2AC
100
AcDbEntity
  8
图框
100
AcDbMText
 10
1012.466086049227
 20
511.9708733640202
 30
0.0
 40
1.958998408821398
 41
17.6264268093469
 46
5.530941211648825
 71
     5
 72
     5
  1
{\fSimSun|b0|i0|c134|p2;签名\P\Fromans|c134;Signature} 
 73
     1
 44
1.0
1001
AcDbBlockRepETag
1070
     1
1071
      109
1005
C77
1001
ACAD
1000
ACAD_MTEXT_DEFINED_HEIGHT_BEGIN
1070
    46
1040
5.530941211648825
1000
ACAD_MTEXT_DEFINED_HEIGHT_END
  0
MTEXT
  5
C78
102
{ACAD_XDICTIONARY
360
CFC
102
}
330
2AC
100
AcDbEntity
  8
图框
100
AcDbMText
 10
960.7558556394856
 20
511.9708733640202
 30
0.0
 40
1.958998408821398
 41
9.218235352749283
 46
5.530941211648841
 71
     5
 72
     5
  1
{\fSimSun|b0|i0|c134|p2;处数\P\Fromans|c134;Number }
 73
     1
 44
1.0
1001
AcDbBlockRepETag
1070
     1
1071
      110
1005
C78
1001
ACAD
1000
ACAD_MTEXT_DEFINED_HEIGHT_BEGIN
1070
    46
1040
5.530941211648841
1000
ACAD_MTEXT_DEFINED_HEIGHT_END
  0
LINE
  5
C79
330
2AC
100
AcDbEntity
  8
图框
370
    -3
100
AcDbLine
 10
946.9285026103634
 20
514.7363439698449
 30
0.0
 11
1036.653967466372
 21
514.7363439698449
 31
0.0
1001
AcDbBlockRepETag
1070
     1
1071
      111
1005
C79
  0
LINE
  5
C7A
330
2AC
100
AcDbEntity
  8
图框
370
    -3
100
AcDbLine
 10
946.9285026103634
 20
509.2054027581959
 30
0.0
 11
1036.653967466372
 21
509.2054027581959
 31
0.0
1001
AcDbBlockRepETag
1070
     1
1071
      112
1005
C7A
  0
LINE
  5
C7B
330
2AC
100
AcDbEntity
  8
图框
370
    -3
100
AcDbLine
 10
946.9285026103634
 20
502.9127443836848
 30
0.0
 11
1036.653967466372
 21
502.9127443836848
 31
0.0
1001
AcDbBlockRepETag
1070
     1
1071
      113
1005
C7B
  0
LINE
  5
C7C
330
2AC
100
AcDbEntity
  8
图框
370
    -3
100
AcDbLine
 10
946.9285026103634
 20
496.620086009173
 30
0.0
 11
1036.653967466372
 21
496.620086009173
 31
0.0
1001
AcDbBlockRepETag
1070
     1
1071
      114
1005
C7C
  0
LINE
  5
C7D
330
2AC
100
AcDbEntity
  8
图框
370
    35
380
     1
100
AcDbLine
 10
946.9285026103634
 20
531.3291676047914
 30
0.0
 11
946.9285026103634
 21
484.0347692601515
 31
0.0
1001
AcDbBlockRepETag
1070
     1
1071
      115
1005
C7D
  0
LINE
  5
C7E
330
2AC
100
AcDbEntity
  8
图框
370
    -3
100
AcDbLine
 10
1021.301636813399
 20
531.3291676047914
 30
0.0
 11
1021.301636813399
 21
484.0347692601515
 31
0.0
1001
AcDbBlockRepETag
1070
     1
1071
      116
1005
C7E
  0
LINE
  5
C7F
330
2AC
100
AcDbEntity
  8
图框
370
    -3
100
AcDbLine
 10
1003.652872644553
 20
531.3291676047914
 30
0.0
 11
1003.652872644553
 21
484.0347692601515
 31
0.0
1001
AcDbBlockRepETag
1070
     1
1071
      117
1005
C7F
  0
LINE
  5
C80
330
2AC
100
AcDbEntity
  8
图框
370
    -3
100
AcDbLine
 10
965.3649733158603
 20
531.3291676047914
 30
0.0
 11
965.3649733158603
 21
509.2054027581959
 31
0.0
1001
AcDbBlockRepETag
1070
     1
1071
      118
1005
C80
  0
LINE
  5
C81
330
2AC
100
AcDbEntity
  8
图框
370
    -3
100
AcDbLine
 10
956.1467379631109
 20
531.3291676047914
 30
0.0
 11
956.1467379631109
 21
509.2054027581959
 31
0.0
1001
AcDbBlockRepETag
1070
     1
1071
      119
1005
C81
  0
MTEXT
  5
C82
102
{ACAD_XDICTIONARY
360
CFE
102
}
330
2AC
100
AcDbEntity
  8
图框
100
AcDbMText
 10
951.537620286737
 20
511.9708733640202
 30
0.0
 40
1.958998408821398
 41
9.218235352747692
 46
5.530941211648832
 71
     5
 72
     5
  1
{\fSimSun|b0|i0|c134|p2;标记\P\Fromans|c134;Mark}
 73
     1
 44
1.0
1001
AcDbBlockRepETag
1070
     1
1071
      120
1005
C82
1001
ACAD
1000
ACAD_MTEXT_DEFINED_HEIGHT_BEGIN
1070
    46
1040
5.530941211648832
1000
ACAD_MTEXT_DEFINED_HEIGHT_END
  0
MTEXT
  5
C83
102
{ACAD_XDICTIONARY
360
D00
102
}
330
2AC
100
AcDbEntity
  8
图框
100
AcDbMText
 10
953.4185582897936
 20
493.4737568219182
 30
0.0
 40
2.252848170144607
 41
12.98011135886041
 46
6.292658374510382
 71
     5
 72
     5
  1
{\fSimSun|b0|i0|c134|p2;审核\P\Fromans|c134;Checked}
 73
     1
 44
1.0
1001
AcDbBlockRepETag
1070
     1
1071
      121
1005
C83
1001
ACAD
1000
ACAD_MTEXT_DEFINED_HEIGHT_BEGIN
1070
    46
1040
6.292658374510382
1000
ACAD_MTEXT_DEFINED_HEIGHT_END
  0
MTEXT
  5
C84
102
{ACAD_XDICTIONARY
360
D02
102
}
330
2AC
100
AcDbEntity
  8
图框
100
AcDbMText
 10
953.4185582897936
 20
499.8775635376777
 30
0.0
 40
2.252848170144607
 41
12.98011135886041
 46
6.070361692014189
 71
     5
 72
     5
  1
{\fSimSun|b0|i0|c134|p2;绘图\P\Fromans|c134;Drawn\Ftxt|c134; }
 73
     1
 44
1.0
1001
AcDbBlockRepETag
1070
     1
1071
      122
1005
C84
1001
ACAD
1000
ACAD_MTEXT_DEFINED_HEIGHT_BEGIN
1070
    46
1040
6.070361692014189
1000
ACAD_MTEXT_DEFINED_HEIGHT_END
  0
ARC
  5
C85
330
2AC
100
AcDbEntity
  8
图框
 62
     4
370
    35
100
AcDbCircle
 10
1086.900627017421
 20
490.0179944151195
 30
0.0
 40
4.063310408393665
100
AcDbArc
 50
18.95237904564806
 51
161.0476209543519
1001
AcDbBlockRepETag
1070
     1
1071
      123
1005
C85
  0
ARC
  5
C86
330
2AC
100
AcDbEntity
  8
图框
 62
     4
370
    35
100
AcDbCircle
 10
1086.900627017421
 20
490.0179944151195
 30
0.0
 40
4.063310408393665
100
AcDbArc
 50
198.952379045648
 51
341.0476209543519
1001
AcDbBlockRepETag
1070
     1
1071
      124
1005
C86
  0
LINE
  5
C87
330
2AC
100
AcDbEntity
  8
图框
 62
     4
370
    35
100
AcDbLine
 10
1083.057593369548
 20
488.6983035966752
 30
0.0
 11
1090.74366066529
 21
488.6983035966752
 31
0.0
1001
AcDbBlockRepETag
1070
     1
1071
      125
1005
C87
  0
LINE
  5
C88
330
2AC
100
AcDbEntity
  8
图框
 62
     4
370
    35
100
AcDbLine
 10
1083.057593369548
 20
491.3376852335652
 30
0.0
 11
1090.74366066529
 21
491.3376852335652
 31
0.0
1001
AcDbBlockRepETag
1070
     1
1071
      126
1005
C88
  0
MTEXT
  5
C89
330
2AC
100
AcDbEntity
  8
图框
 62
     1
370
    20
100
AcDbMText
 10
1083.034582879669
 20
491.0506288081688
 30
0.0
 40
2.005930044038334
 41
5.047240019334847
 46
0.0
 71
     1
 72
     5
  1
{\fArial|b0|i0|c0|p34;W}
  7
Chinese
 73
     1
 44
1.0
1001
AcDbBlockRepETag
1070
     1
1071
      127
1005
C89
  0
LINE
  5
C8A
330
2AC
100
AcDbEntity
  8
图框
370
    -3
100
AcDbLine
 10
946.9285026103634
 20
490.327427634663
 30
0.0
 11
1036.653967466372
 21
490.327427634663
 31
0.0
1001
AcDbBlockRepETag
1070
     1
1071
      128
1005
C8A
  0
LINE
  5
C8B
330
2AC
100
AcDbEntity
  8
图框
370
    -3
100
AcDbLine
 10
959.9086139692238
 20
509.2054027581959
 30
0.0
 11
959.9086139692238
 21
484.0347692601515
 31
0.0
1001
AcDbBlockRepETag
1070
     1
1071
      129
1005
C8B
  0
MTEXT
  5
C8C
330
2AC
100
AcDbEntity
  8
图框
100
AcDbMText
 10
967.6594956750129
 20
506.0590735709403
 30
0.0
 40
2.252848170144607
 41
15.50176341157869
 46
6.292658374511246
 71
     5
 72
     5
  1
姓名{\Fromans|c134;/Name\Ftxt|c134; }
 73
     1
 44
1.0
1001
AcDbBlockRepETag
1070
     1
1071
      130
1005
C8C
1001
ACAD
1000
ACAD_MTEXT_DEFINED_HEIGHT_BEGIN
1070
    46
1040
6.292658374511246
1000
ACAD_MTEXT_DEFINED_HEIGHT_END
  0
MTEXT
  5
C8D
330
2AC
100
AcDbEntity
  8
图框
100
AcDbMText
 10
983.0415693332477
 20
506.0590735709403
 30
0.0
 40
2.252848170144607
 41
15.26238390489042
 46
6.2926583745112
 71
     5
 72
     5
  1
日期{\Fromans|c134;/Date}
 73
     1
 44
1.0
1001
AcDbBlockRepETag
1070
     1
1071
      131
1005
C8D
1001
ACAD
1000
ACAD_MTEXT_DEFINED_HEIGHT_BEGIN
1070
    46
1040
6.2926583745112
1000
ACAD_MTEXT_DEFINED_HEIGHT_END
  0
LINE
  5
C8E
330
2AC
100
AcDbEntity
  8
图框
370
    -3
100
AcDbLine
 10
946.9285026103634
 20
509.2054027581959
 30
0.0
 11
959.9086139692238
 21
502.9127443836848
 31
0.0
1001
AcDbBlockRepETag
1070
     1
1071
      132
1005
C8E
  0
MTEXT
  5
C8F
330
2AC
100
AcDbEntity
  8
图框
100
AcDbMText
 10
1012.931405110086
 20
506.0185715840725
 30
0.0
 40
2.252848170144607
 41
16.93492221063566
 46
0.0
 71
     5
 72
     5
  1
姓名{\Fromans|c134;/Name}
 73
     1
 44
1.0
1001
AcDbBlockRepETag
1070
     1
1071
      133
1005
C8F
  0
MTEXT
  5
C90
330
2AC
100
AcDbEntity
  8
图框
100
AcDbMText
 10
1028.977802139886
 20
506.0590735709403
 30
0.0
 40
2.252848170144607
 41
15.35233065297283
 46
6.292658374511256
 71
     5
 72
     5
  1
日期{\Fromans|c134;/Date}
 73
     1
 44
1.0
1001
AcDbBlockRepETag
1070
     1
1071
      134
1005
C90
1001
ACAD
1000
ACAD_MTEXT_DEFINED_HEIGHT_BEGIN
1070
    46
1040
6.292658374511256
1000
ACAD_MTEXT_DEFINED_HEIGHT_END
  0
LINE
  5
C91
330
2AC
100
AcDbEntity
  8
图框
370
    -3
100
AcDbLine
 10
1003.652872644553
 20
502.9127443836848
 30
0.0
 11
990.6727612856927
 21
509.2054027581959
 31
0.0
1001
AcDbBlockRepETag
1070
     1
1071
      135
1005
C91
  0
MTEXT
  5
C92
102
{ACAD_XDICTIONARY
360
D04
102
}
330
2AC
100
AcDbEntity
  8
图框
100
AcDbMText
 10
997.1628169651232
 20
487.1810984474071
 30
0.0
 40
2.252848170144607
 41
12.98011135886052
 46
6.292658374511517
 71
     5
 72
     5
  1
{\fSimSun|b0|i0|c134|p2;批准\P\Fromans|c134;Approved}
 73
     1
 44
1.0
1001
AcDbBlockRepETag
1070
     1
1071
      136
1005
C92
1001
ACAD
1000
ACAD_MTEXT_DEFINED_HEIGHT_BEGIN
1070
    46
1040
6.292658374511517
1000
ACAD_MTEXT_DEFINED_HEIGHT_END
  0
MTEXT
  5
C93
102
{ACAD_XDICTIONARY
360
D06
102
}
330
2AC
100
AcDbEntity
  8
图框
100
AcDbMText
 10
953.4185582897936
 20
487.1810984474071
 30
0.0
 40
2.252848170144607
 41
12.98011135886041
 46
6.292658374511495
 71
     5
 72
     5
  1
{\fSimSun|b0|i0|c134|p2;工艺\P\Fromans|c134;Process}
 73
     1
 44
1.0
1001
AcDbBlockRepETag
1070
     1
1071
      137
1005
C93
1001
ACAD
1000
ACAD_MTEXT_DEFINED_HEIGHT_BEGIN
1070
    46
1040
6.292658374511495
1000
ACAD_MTEXT_DEFINED_HEIGHT_END
  0
MTEXT
  5
C94
102
{ACAD_XDICTIONARY
360
D08
102
}
330
2AC
100
AcDbEntity
  8
图框
100
AcDbMText
 10
1028.977802139886
 20
511.8287965307664
 30
0.0
 40
1.958998408821398
 41
15.3523306529728
 46
5.246787545140668
 71
     5
 72
     5
  1
{\fSimSun|b0|i0|c134|p2;日期\P\Fromans|c134;Date}
 73
     1
 44
1.0
1001
AcDbBlockRepETag
1070
     1
1071
      138
1005
C94
1001
ACAD
1000
ACAD_MTEXT_DEFINED_HEIGHT_BEGIN
1070
    46
1040
5.246787545140668
1000
ACAD_MTEXT_DEFINED_HEIGHT_END
  0
MTEXT
  5
C95
330
2AC
100
AcDbEntity
  8
图框
100
AcDbMText
 10
1086.643735910939
 20
509.1493769780809
 30
0.0
 40
2.154898249703542
 41
13.34474941400573
 46
8.87215554796615
 71
     5
 72
     5
  1
产品料号\P{\Fromans|c134;Part No.}
 73
     1
 44
1.0
1001
AcDbBlockRepETag
1070
     1
1071
      139
1005
C95
1001
ACAD
1000
ACAD_MTEXT_DEFINED_HEIGHT_BEGIN
1070
    46
1040
8.87215554796615
1000
ACAD_MTEXT_DEFINED_HEIGHT_END
  0
MTEXT
  5
C96
330
2AC
100
AcDbEntity
  8
图框
100
AcDbMText
 10
1086.643735910939
 20
500.2775205517163
 30
0.0
 40
1.958998408821398
 41
13.34474941400573
 46
8.871557304763321
 71
     5
 72
     5
  1
产品名称\P{\Fromans|c134;Part Name}
 73
     1
 44
1.0
1001
AcDbBlockRepETag
1070
     1
1071
      140
1005
C96
1001
ACAD
1000
ACAD_MTEXT_DEFINED_HEIGHT_BEGIN
1070
    46
1040
8.871557304763321
1000
ACAD_MTEXT_DEFINED_HEIGHT_END
  0
LINE
  5
C97
330
2AC
100
AcDbEntity
  8
图框
 62
     1
370
    18
100
AcDbLine
 10
833.4128518455365
 20
690.5347692601515
 30
0.0
 11
833.4128518455365
 21
480.5347692601515
 31
0.0
1001
AcDbBlockRepETag
1070
     1
1071
      141
1005
C97
  0
LINE
  5
C98
330
2AC
100
AcDbEntity
  8
图框
 62
     1
370
    18
100
AcDbLine
 10
833.4128518455365
 20
480.5347692601515
 30
0.0
 11
1130.411601781236
 21
480.5347692601515
 31
0.0
1001
AcDbBlockRepETag
1070
     1
1071
      142
1005
C98
  0
LINE
  5
C99
330
2AC
100
AcDbEntity
  8
图框
 62
     1
370
    18
100
AcDbLine
 10
833.4128518455365
 20
690.5347692601515
 30
0.0
 11
1130.411601781236
 21
690.5347692601515
 31
0.0
1001
AcDbBlockRepETag
1070
     1
1071
      143
1005
C99
  0
LINE
  5
C9A
330
2AC
100
AcDbEntity
  8
图框
 62
     1
370
    18
100
AcDbLine
 10
1130.411601781236
 20
480.5347692601515
 30
0.0
 11
1130.411601781236
 21
690.5347692601515
 31
0.0
1001
AcDbBlockRepETag
1070
     1
1071
      144
1005
C9A
  0
LINE
  5
C9B
330
2AC
100
AcDbEntity
  8
图框
370
    18
100
AcDbLine
 10
836.9128518455394
 20
686.7901958362482
 30
0.0
 11
861.5351874539182
 21
686.7901958362482
 31
0.0
1001
AcDbBlockRepETag
1070
     1
1071
      145
1005
C9B
  0
LINE
  5
C9C
330
2AC
100
AcDbEntity
  8
图框
370
    50
100
AcDbLine
 10
1126.928502610363
 20
484.3410054693078
 30
0.0
 11
1126.928502610363
 21
675.5347692601515
 31
0.0
1001
AcDbBlockRepETag
1070
     1
1071
      146
1005
C9C
  0
MTEXT
  5
C9D
330
2AC
100
AcDbEntity
  8
图框
 62
     3
100
AcDbMText
 10
1052.897990117958
 20
495.8417418993364
 30
0.0
 40
2.985513575034151
 41
10.82934843439114
 46
7.886094601211307
 71
     5
 72
     5
  1
V1.1
  7
Romans字体
 73
     1
 44
1.0
1001
AcDbBlockRepETag
1070
     1
1071
      147
1005
C9D
1001
ACAD
1000
ACAD_MTEXT_DEFINED_HEIGHT_BEGIN
1070
    46
1040
7.886094601211307
1000
ACAD_MTEXT_DEFINED_HEIGHT_END
  0
LINE
  5
C9E
330
2AC
100
AcDbEntity
  8
图框
 62
     6
100
AcDbLine
 10
1126.911601781236
 20
531.714049199969
 30
0.0
 11
1130.411601781236
 21
531.714049199969
 31
0.0
1001
AcDbBlockRepETag
1070
     1
1071
      148
1005
C9E
  0
ENDBLK
  5
344
330
2AC
100
AcDbEntity
  8
0
100
AcDbBlockEnd
  0
BLOCK
  5
7A1
330
7A0
100
AcDbEntity
  8
0
100
AcDbBlockBegin
  2
*D2
 70
     1
 10
0.0
 20
0.0
 30
0.0
  3
*D2
  1

  0
LINE
  5
8B3
330
7A0
100
AcDbEntity
  8
DIM
 62
     6
370
    -2
100
AcDbLine
 10
734.4264785867848
 20
207.9782205227631
 30
0.0
 11
739.4359284833842
 21
207.9782205227631
 31
0.0
  0
LINE
  5
8B4
330
7A0
100
AcDbEntity
  8
DIM
 62
     6
370
    -2
100
AcDbLine
 10
734.4264785867848
 20
206.378220522363
 30
0.0
 11
739.4359284833842
 21
206.378220522363
 31
0.0
  0
LINE
  5
8B5
330
7A0
100
AcDbEntity
  8
DIM
 62
     1
370
    -2
100
AcDbLine
 10
739.2359284833842
 20
205.378220522363
 30
0.0
 11
739.2359284833842
 21
204.378220522363
 31
0.0
  0
LINE
  5
8B6
330
7A0
100
AcDbEntity
  8
DIM
 62
     1
370
    -2
100
AcDbLine
 10
739.2359284833842
 20
208.9782205227631
 30
0.0
 11
739.2359284833842
 21
213.0782205227632
 31
0.0
  0
SOLID
  5
8B7
330
7A0
100
AcDbEntity
  8
DIM
 62
     1
100
AcDbTrace
 10
739.0692618167175
 20
205.378220522363
 30
0.0
 11
739.4025951500508
 21
205.378220522363
 31
0.0
 12
739.2359284833842
 22
206.378220522363
 32
0.0
 13
739.2359284833842
 23
206.378220522363
 33
0.0
  0
SOLID
  5
8B8
330
7A0
100
AcDbEntity
  8
DIM
 62
     1
100
AcDbTrace
 10
739.0692618167175
 20
208.9782205227631
 30
0.0
 11
739.4025951500508
 21
208.9782205227631
 31
0.0
 12
739.2359284833842
 22
207.9782205227631
 32
0.0
 13
739.2359284833842
 23
207.9782205227631
 33
0.0
  0
MTEXT
  5
8B9
330
7A0
100
AcDbEntity
  8
DIM
 62
     4
100
AcDbMText
 10
738.4359284833842
 20
211.5282205227633
 30
0.0
 40
1.199999999999999
 41
0.0
 46
0.0
 71
     5
 72
     1
  1
\A1;%%c1.6
  7
Romans字体
 11
0.0000000000000001
 21
1.0
 31
0.0
 73
     1
 44
1.0
  0
POINT
  5
8BA
330
7A0
100
AcDbEntity
  8
Defpoints
 62
     0
100
AcDbPoint
 10
734.2264785867845
 20
207.9782205227631
 30
0.0
  0
POINT
  5
8BB
330
7A0
100
AcDbEntity
  8
Defpoints
 62
     0
100
AcDbPoint
 10
734.2264785867845
 20
206.378220522363
 30
0.0
  0
POINT
  5
8BC
330
7A0
100
AcDbEntity
  8
Defpoints
 62
     0
100
AcDbPoint
 10
739.2359284833842
 20
206.378220522363
 30
0.0
  0
ENDBLK
  5
7A2
330
7A0
100
AcDbEntity
  8
0
100
AcDbBlockEnd
  0
BLOCK
  5
7AE
330
7AD
100
AcDbEntity
  8
0
100
AcDbBlockBegin
  2
*D3
 70
     1
 10
0.0
 20
0.0
 30
0.0
  3
*D3
  1

  0
LINE
  5
8D1
330
7AD
100
AcDbEntity
  8
DIM
 62
     6
370
    -2
100
AcDbLine
 10
710.3738025301907
 20
208.7782205229633
 30
0.0
 11
705.8319300783247
 21
208.7782205229633
 31
0.0
  0
LINE
  5
8D2
330
7AD
100
AcDbEntity
  8
DIM
 62
     6
370
    -2
100
AcDbLine
 10
710.3738025301907
 20
205.5782205221627
 30
0.0
 11
705.8319300783247
 21
205.5782205221627
 31
0.0
  0
LINE
  5
8D3
330
7AD
100
AcDbEntity
  8
DIM
 62
     1
370
    -2
100
AcDbLine
 10
706.0319300783247
 20
206.5782205221627
 30
0.0
 11
706.0319300783247
 21
207.7782205229633
 31
0.0
  0
LINE
  5
8D4
330
7AD
100
AcDbEntity
  8
DIM
 62
     1
370
    -2
100
AcDbLine
 10
706.0319300783247
 20
208.7782205229633
 30
0.0
 11
706.0319300783247
 21
212.8782205229633
 31
0.0
  0
SOLID
  5
8D5
330
7AD
100
AcDbEntity
  8
DIM
 62
     1
100
AcDbTrace
 10
705.8652634116581
 20
206.5782205221627
 30
0.0
 11
706.1985967449913
 21
206.5782205221627
 31
0.0
 12
706.0319300783247
 22
205.5782205221627
 32
0.0
 13
706.0319300783247
 23
205.5782205221627
 33
0.0
  0
SOLID
  5
8D6
330
7AD
100
AcDbEntity
  8
DIM
 62
     1
100
AcDbTrace
 10
705.8652634116581
 20
207.7782205229633
 30
0.0
 11
706.1985967449913
 21
207.7782205229633
 31
0.0
 12
706.0319300783247
 22
208.7782205229633
 32
0.0
 13
706.0319300783247
 23
208.7782205229633
 33
0.0
  0
MTEXT
  5
8D7
330
7AD
100
AcDbEntity
  8
DIM
 62
     4
100
AcDbMText
 10
705.2319300783246
 20
211.3282205229634
 30
0.0
 40
1.199999999999999
 41
0.0
 46
0.0
 71
     5
 72
     1
  1
\A1;%%c3.2
  7
Romans字体
 11
0.0000000000000001
 21
1.0
 31
0.0
 73
     1
 44
1.0
  0
POINT
  5
8D8
330
7AD
100
AcDbEntity
  8
Defpoints
 62
     0
100
AcDbPoint
 10
710.5738025301907
 20
208.7782205229633
 30
0.0
  0
POINT
  5
8D9
330
7AD
100
AcDbEntity
  8
Defpoints
 62
     0
100
AcDbPoint
 10
710.5738025301907
 20
205.5782205221627
 30
0.0
  0
POINT
  5
8DA
330
7AD
100
AcDbEntity
  8
Defpoints
 62
     0
100
AcDbPoint
 10
706.0319300783247
 20
205.5782205221627
 30
0.0
  0
ENDBLK
  5
7AF
330
7AD
100
AcDbEntity
  8
0
100
AcDbBlockEnd
  0
BLOCK
  5
7BB
330
7BA
100
AcDbEntity
  8
0
100
AcDbBlockBegin
  2
*D4
 70
     1
 10
0.0
 20
0.0
 30
0.0
  3
*D4
  1

  0
LINE
  5
8C7
330
7BA
100
AcDbEntity
  8
DIM
 62
     6
370
    -2
100
AcDbLine
 10
710.7346464484349
 20
208.0532205225631
 30
0.0
 11
708.2031377299204
 21
208.0532205225631
 31
0.0
  0
LINE
  5
8C8
330
7BA
100
AcDbEntity
  8
DIM
 62
     6
370
    -2
100
AcDbLine
 10
710.7346464484343
 20
206.3032205225631
 30
0.0
 11
708.2031377299204
 21
206.3032205225631
 31
0.0
  0
LINE
  5
8C9
330
7BA
100
AcDbEntity
  8
DIM
 62
     1
370
    -2
100
AcDbLine
 10
708.4031377299202
 20
205.3032205225631
 30
0.0
 11
708.4031377299202
 21
204.3032205225631
 31
0.0
  0
LINE
  5
8CA
330
7BA
100
AcDbEntity
  8
DIM
 62
     1
370
    -2
100
AcDbLine
 10
708.4031377299202
 20
209.0532205225631
 30
0.0
 11
708.4031377299202
 21
211.9060776654202
 31
0.0
  0
SOLID
  5
8CB
330
7BA
100
AcDbEntity
  8
DIM
 62
     1
100
AcDbTrace
 10
708.2364710632538
 20
205.3032205225631
 30
0.0
 11
708.569804396587
 21
205.3032205225631
 31
0.0
 12
708.4031377299202
 22
206.3032205225631
 32
0.0
 13
708.4031377299202
 23
206.3032205225631
 33
0.0
  0
SOLID
  5
8CC
330
7BA
100
AcDbEntity
  8
DIM
 62
     1
100
AcDbTrace
 10
708.2364710632538
 20
209.0532205225631
 30
0.0
 11
708.569804396587
 21
209.0532205225631
 31
0.0
 12
708.4031377299202
 22
208.0532205225631
 32
0.0
 13
708.4031377299202
 23
208.0532205225631
 33
0.0
  0
MTEXT
  5
8CD
330
7BA
100
AcDbEntity
  8
DIM
 62
     4
100
AcDbMText
 10
707.6031377299202
 20
210.9796490939918
 30
0.0
 40
1.199999999999999
 41
0.0
 46
0.0
 71
     5
 72
     1
  1
\A1;{\fISOCPEUR|b0|i0|c0|p34;%%C}d
  7
Romans字体
 11
0.0000000000000001
 21
1.0
 31
0.0
 73
     1
 44
1.0
  0
POINT
  5
8CE
330
7BA
100
AcDbEntity
  8
Defpoints
 62
     0
100
AcDbPoint
 10
710.9346464484349
 20
208.0532205225631
 30
0.0
  0
POINT
  5
8CF
330
7BA
100
AcDbEntity
  8
Defpoints
 62
     0
100
AcDbPoint
 10
710.9346464484342
 20
206.3032205225631
 30
0.0
  0
POINT
  5
8D0
330
7BA
100
AcDbEntity
  8
Defpoints
 62
     0
100
AcDbPoint
 10
708.4031377299202
 20
206.3032205225631
 30
0.0
  0
ENDBLK
  5
7BC
330
7BA
100
AcDbEntity
  8
0
100
AcDbBlockEnd
  0
BLOCK
  5
7C8
330
7C7
100
AcDbEntity
  8
0
100
AcDbBlockBegin
  2
*D5
 70
     1
 10
0.0
 20
0.0
 30
0.0
  3
*D5
  1

  0
LINE
  5
8BD
330
7C7
100
AcDbEntity
  8
DIM
 62
     6
370
    -2
100
AcDbLine
 10
713.7160675032722
 20
208.6782205225631
 30
0.0
 11
713.9155555363741
 21
208.6782205225631
 31
0.0
  0
LINE
  5
8BE
330
7C7
100
AcDbEntity
  8
DIM
 62
     6
370
    -2
100
AcDbLine
 10
713.7738025301904
 20
205.6782205225632
 30
0.0
 11
713.9155555363741
 21
205.6782205225632
 31
0.0
  0
LINE
  5
8BF
330
7C7
100
AcDbEntity
  8
DIM
 62
     1
370
    -2
100
AcDbLine
 10
713.715555536374
 20
207.6782205225631
 30
0.0
 11
713.715555536374
 21
206.6782205225632
 31
0.0
  0
LINE
  5
8C0
330
7C7
100
AcDbEntity
  8
DIM
 62
     1
370
    -2
100
AcDbLine
 10
713.715555536374
 20
205.6782205225632
 30
0.0
 11
713.715555536374
 21
201.843220522563
 31
0.0
  0
SOLID
  5
8C1
330
7C7
100
AcDbEntity
  8
DIM
 62
     1
100
AcDbTrace
 10
713.5488888697071
 20
207.6782205225631
 30
0.0
 11
713.8822222030406
 21
207.6782205225631
 31
0.0
 12
713.715555536374
 22
208.6782205225631
 32
0.0
 13
713.715555536374
 23
208.6782205225631
 33
0.0
  0
SOLID
  5
8C2
330
7C7
100
AcDbEntity
  8
DIM
 62
     1
100
AcDbTrace
 10
713.5488888697071
 20
206.6782205225632
 30
0.0
 11
713.8822222030406
 21
206.6782205225632
 31
0.0
 12
713.715555536374
 22
205.6782205225632
 32
0.0
 13
713.715555536374
 23
205.6782205225632
 33
0.0
  0
MTEXT
  5
8C3
330
7C7
100
AcDbEntity
  8
DIM
 62
     4
100
AcDbMText
 10
712.915555536374
 20
202.8339348082774
 30
0.0
 40
1.199999999999999
 41
0.0
 46
0.0
 71
     5
 72
     1
  1
\A1;{\fISOCPEUR|b0|i0|c0|p34;%%C}D
  7
Romans字体
 11
0.0000000000000001
 21
1.0
 31
0.0
 73
     1
 44
1.0
  0
POINT
  5
8C4
330
7C7
100
AcDbEntity
  8
Defpoints
 62
     0
100
AcDbPoint
 10
713.5160675032722
 20
208.6782205225631
 30
0.0
  0
POINT
  5
8C5
330
7C7
100
AcDbEntity
  8
Defpoints
 62
     0
100
AcDbPoint
 10
713.5738025301904
 20
205.6782205225632
 30
0.0
  0
POINT
  5
8C6
330
7C7
100
AcDbEntity
  8
Defpoints
 62
     0
100
AcDbPoint
 10
713.715555536374
 20
205.6782205225632
 30
0.0
  0
ENDBLK
  5
7C9
330
7C7
100
AcDbEntity
  8
0
100
AcDbBlockEnd
  0
BLOCK
  5
7D5
330
7D4
100
AcDbEntity
  8
0
100
AcDbBlockBegin
  2
*D6
 70
     1
 10
0.0
 20
0.0
 30
0.0
  3
*D6
  1

  0
LINE
  5
8A1
330
7D4
100
AcDbEntity
  8
DIM
 62
     6
370
    -2
100
AcDbLine
 10
710.5738025301907
 20
208.9782205229633
 30
0.0
 11
710.5738025301907
 21
214.2326986544828
 31
0.0
  0
LINE
  5
8A2
330
7D4
100
AcDbEntity
  8
DIM
 62
     6
370
    -2
100
AcDbLine
 10
735.5594431760311
 20
207.3782205225631
 30
0.0
 11
735.5594431760311
 21
214.2326986544828
 31
0.0
  0
LINE
  5
8A3
330
7D4
100
AcDbEntity
  8
DIM
 62
     1
370
    -2
100
AcDbLine
 10
711.5738025301907
 20
214.0326986544828
 30
0.0
 11
734.5594431760312
 21
214.0326986544828
 31
0.0
  0
SOLID
  5
8A4
330
7D4
100
AcDbEntity
  8
DIM
 62
     1
100
AcDbTrace
 10
711.5738025301907
 20
214.1993653211494
 30
0.0
 11
711.5738025301907
 21
213.8660319878161
 31
0.0
 12
710.5738025301907
 22
214.0326986544828
 32
0.0
 13
710.5738025301907
 23
214.0326986544828
 33
0.0
  0
SOLID
  5
8A5
330
7D4
100
AcDbEntity
  8
DIM
 62
     1
100
AcDbTrace
 10
734.5594431760312
 20
214.1993653211494
 30
0.0
 11
734.5594431760312
 21
213.8660319878161
 31
0.0
 12
735.5594431760311
 22
214.0326986544828
 32
0.0
 13
735.5594431760311
 23
214.0326986544828
 33
0.0
  0
MTEXT
  5
8A6
330
7D4
100
AcDbEntity
  8
DIM
 62
     4
100
AcDbMText
 10
723.0666228531108
 20
214.8326986544828
 30
0.0
 40
1.199999999999999
 41
0.0
 46
0.0
 71
     5
 72
     1
  1
\A1;25
  7
Romans字体
 73
     1
 44
1.0
  0
POINT
  5
8A7
330
7D4
100
AcDbEntity
  8
Defpoints
 62
     0
100
AcDbPoint
 10
710.5738025301907
 20
208.7782205229633
 30
0.0
  0
POINT
  5
8A8
330
7D4
100
AcDbEntity
  8
Defpoints
 62
     0
100
AcDbPoint
 10
735.5594431760311
 20
207.1782205225631
 30
0.0
  0
POINT
  5
8A9
330
7D4
100
AcDbEntity
  8
Defpoints
 62
     0
100
AcDbPoint
 10
735.5594431760311
 20
214.0326986544828
 30
0.0
  0
ENDBLK
  5
7D6
330
7D4
100
AcDbEntity
  8
0
100
AcDbBlockEnd
  0
BLOCK
  5
809
330
808
100
AcDbEntity
  8
0
100
AcDbBlockBegin
  2
*D7
 70
     1
 10
0.0
 20
0.0
 30
0.0
  3
*D7
  1

  0
LINE
  5
8AA
330
808
100
AcDbEntity
  8
DIM
 62
     6
370
    -2
100
AcDbLine
 10
710.5738025301907
 20
208.9782205229633
 30
0.0
 11
710.5738025301907
 21
211.494757193766
 31
0.0
  0
LINE
  5
8AB
330
808
100
AcDbEntity
  8
DIM
 62
     6
370
    -2
100
AcDbLine
 10
718.5738025301904
 20
208.2532205225631
 30
0.0
 11
718.5738025301904
 21
211.494757193766
 31
0.0
  0
LINE
  5
8AC
330
808
100
AcDbEntity
  8
DIM
 62
     1
370
    -2
100
AcDbLine
 10
711.5738025301907
 20
211.294757193766
 30
0.0
 11
717.5738025301902
 21
211.294757193766
 31
0.0
  0
SOLID
  5
8AD
330
808
100
AcDbEntity
  8
DIM
 62
     1
100
AcDbTrace
 10
711.5738025301907
 20
211.4614238604326
 30
0.0
 11
711.5738025301907
 21
211.1280905270993
 31
0.0
 12
710.5738025301907
 22
211.294757193766
 32
0.0
 13
710.5738025301907
 23
211.294757193766
 33
0.0
  0
SOLID
  5
8AE
330
808
100
AcDbEntity
  8
DIM
 62
     1
100
AcDbTrace
 10
717.5738025301902
 20
211.4614238604326
 30
0.0
 11
717.5738025301902
 21
211.1280905270993
 31
0.0
 12
718.5738025301904
 22
211.294757193766
 32
0.0
 13
718.5738025301904
 23
211.294757193766
 33
0.0
  0
MTEXT
  5
8AF
330
808
100
AcDbEntity
  8
DIM
 62
     4
100
AcDbMText
 10
714.5738025301906
 20
212.094757193766
 30
0.0
 40
1.199999999999999
 41
0.0
 46
0.0
 71
     5
 72
     1
  1
\A1;8
  7
Romans字体
 73
     1
 44
1.0
  0
POINT
  5
8B0
330
808
100
AcDbEntity
  8
Defpoints
 62
     0
100
AcDbPoint
 10
710.5738025301907
 20
208.7782205229633
 30
0.0
  0
POINT
  5
8B1
330
808
100
AcDbEntity
  8
Defpoints
 62
     0
100
AcDbPoint
 10
718.5738025301904
 20
208.0532205225631
 30
0.0
  0
POINT
  5
8B2
330
808
100
AcDbEntity
  8
Defpoints
 62
     0
100
AcDbPoint
 10
718.5738025301904
 20
211.294757193766
 30
0.0
  0
ENDBLK
  5
80A
330
808
100
AcDbEntity
  8
0
100
AcDbBlockEnd
  0
ENDSEC
  0
SECTION
  2
ENTITIES
  0
HATCH
  5
16
330
2
100
AcDbEntity
  8
图层 1
 62
     7
100
AcDbHatch
 10
0.0
 20
0.0
 30
0.0
210
0.0
220
0.0
230
1.0
  2
SOLID
 70
     1
 71
     0
 91
        1
 92
        1
 93
        2
 72
     4
 94
        3
 73
     0
 74
     0
 95
       17
 96
       13
 40
0.0
 40
0.0
 40
0.0
 40
0.0
 40
0.3527780104152769
 40
0.3527780104152769
 40
0.3527780104152769
 40
0.7055560208305538
 40
0.7055560208305538
 40
0.7055560208305538
 40
1.058334031245828
 40
1.058334031245828
 40
1.058334031245828
 40
1.411112041661104
 40
1.411112041661104
 40
1.411112041661104
 40
1.411112041661104
 10
11.07013262565829
 20
29.50312817963231
 10
11.07013262565829
 20
29.50312817963231
 10
10.9431807732774
 20
29.50312817963231
 10
10.9431807732774
 20
29.50312817963231
 10
10.9431807732774
 20
29.50312817963231
 10
10.85843136843155
 20
29.22786486877117
 10
10.85843136843155
 20
29.22786486877117
 10
10.85843136843155
 20
29.22786486877117
 10
10.90080607085448
 20
29.2068497724476
 10
10.90080607085448
 20
29.2068497724476
 10
10.94455881238059
 20
29.31571486159919
 10
11.00346998404173
 20
29.40907701083995
 10
11.07013262565829
 20
29.50312817963231
 72
     1
 10
11.07013262565829
 20
29.50312817963231
 11
11.07013262565829
 21
29.50312817963231
 97
        0
 75
     0
 76
     1
 98
        0
450
        0
451
        0
460
0.0
461
0.0
452
        0
462
0.0
453
        0
470

  0
HATCH
  5
1A
330
2
100
AcDbEntity
  8
图层 1
 62
     7
100
AcDbHatch
 10
0.0
 20
0.0
 30
0.0
210
0.0
220
0.0
230
1.0
  2
SOLID
 70
     1
 71
     0
 91
        1
 92
        1
 93
        2
 72
     4
 94
        3
 73
     0
 74
     0
 95
       47
 96
       43
 40
0.0
 40
0.0
 40
0.0
 40
0.0
 40
0.3527780104152769
 40
0.3527780104152769
 40
0.3527780104152769
 40
0.7055560208305538
 40
0.7055560208305538
 40
0.7055560208305538
 40
1.058334031245828
 40
1.058334031245828
 40
1.058334031245828
 40
1.411112041661104
 40
1.411112041661104
 40
1.411112041661104
 40
1.763890052076384
 40
1.763890052076384
 40
1.763890052076384
 40
2.116668062491659
 40
2.116668062491659
 40
2.116668062491659
 40
2.469446072906936
 40
2.469446072906936
 40
2.469446072906936
 40
2.822224083322215
 40
2.822224083322215
 40
2.822224083322215
 40
3.175002093737492
 40
3.175002093737492
 40
3.175002093737492
 40
3.527780104152768
 40
3.527780104152768
 40
3.527780104152768
 40
3.880558114568044
 40
3.880558114568044
 40
3.880558114568044
 40
4.233336124983321
 40
4.233336124983321
 40
4.233336124983321
 40
4.586114135398599
 40
4.586114135398599
 40
4.586114135398599
 40
4.938892145813873
 40
4.938892145813873
 40
4.938892145813873
 40
4.938892145813873
 10
162.8986914070121
 20
257.4895347631509
 10
162.8986914070121
 20
257.4895347631509
 10
162.9200510131114
 20
257.4471600607279
 10
162.9200510131114
 20
257.4471600607279
 10
162.9200510131114
 20
257.4471600607279
 10
162.9200510131114
 20
257.404785358305
 10
162.9200510131114
 20
257.404785358305
 10
162.9200510131114
 20
257.404785358305
 10
162.8986914070121
 20
257.36258291077
 10
162.8986914070121
 20
257.36258291077
 10
162.8986914070121
 20
257.36258291077
 10
162.8986914070121
 20
257.320208208347
 10
162.8986914070121
 20
257.320208208347
 10
162.8986914070121
 20
257.320208208347
 10
162.8563167045891
 20
257.2990208571356
 10
162.8563167045891
 20
257.2990208571356
 10
162.8563167045891
 20
257.2990208571356
 10
162.8139420021662
 20
257.2563016449369
 10
162.8139420021662
 20
257.2563016449369
 10
162.8139420021662
 20
257.2563016449369
 10
162.7295371070961
 20
257.2563016449369
 10
162.7295371070961
 20
257.2563016449369
 10
162.7295371070961
 20
257.2563016449369
 10
162.6658027985738
 20
257.2778335059241
 10
162.6658027985738
 20
257.2778335059241
 10
162.6658027985738
 20
257.2778335059241
 10
162.6237726059267
 20
257.2990208571356
 10
162.6237726059267
 20
257.2990208571356
 10
162.6237726059267
 20
257.2990208571356
 10
162.5813979035038
 20
257.3413955595585
 10
162.5813979035038
 20
257.3413955595585
 10
162.5813979035038
 20
257.3413955595585
 10
162.5813979035038
 20
257.4895347631509
 10
162.5813979035038
 20
257.4895347631509
 10
162.5813979035038
 20
257.4895347631509
 10
162.6447877022503
 20
257.5525800521216
 10
162.6447877022503
 20
257.5525800521216
 10
162.6447877022503
 20
257.5525800521216
 10
162.7081775009967
 20
257.5525800521216
 10
162.7081775009967
 20
257.5525800521216
 10
162.8749202324821
 20
257.5424170137356
 10
162.7918933765152
 20
257.5939212252171
 10
162.8986914070121
 20
257.4895347631509
 72
     1
 10
162.8986914070121
 20
257.4895347631509
 11
162.8986914070121
 21
257.4895347631509
 97
        0
 75
     0
 76
     1
 98
        0
450
        0
451
        0
460
0.0
461
0.0
452
        0
462
0.0
453
        0
470

  0
HATCH
  5
1B
330
2
100
AcDbEntity
  8
图层 1
 62
     7
100
AcDbHatch
 10
0.0
 20
0.0
 30
0.0
210
0.0
220
0.0
230
1.0
  2
SOLID
 70
     1
 71
     0
 91
        1
 92
        1
 93
        2
 72
     4
 94
        3
 73
     0
 74
     0
 95
       56
 96
       52
 40
0.0
 40
0.0
 40
0.0
 40
0.0
 40
0.3527780104152769
 40
0.3527780104152769
 40
0.3527780104152769
 40
0.7055560208305538
 40
0.7055560208305538
 40
0.7055560208305538
 40
1.058334031245828
 40
1.058334031245828
 40
1.058334031245828
 40
1.411112041661104
 40
1.411112041661104
 40
1.411112041661104
 40
1.763890052076384
 40
1.763890052076384
 40
1.763890052076384
 40
2.116668062491659
 40
2.116668062491659
 40
2.116668062491659
 40
2.469446072906936
 40
2.469446072906936
 40
2.469446072906936
 40
2.822224083322215
 40
2.822224083322215
 40
2.822224083322215
 40
3.175002093737492
 40
3.175002093737492
 40
3.175002093737492
 40
3.527780104152768
 40
3.527780104152768
 40
3.527780104152768
 40
3.880558114568044
 40
3.880558114568044
 40
3.880558114568044
 40
4.233336124983321
 40
4.233336124983321
 40
4.233336124983321
 40
4.586114135398599
 40
4.586114135398599
 40
4.586114135398599
 40
4.938892145813873
 40
4.938892145813873
 40
4.938892145813873
 40
5.291670156229153
 40
5.291670156229153
 40
5.291670156229153
 40
5.64444816664443
 40
5.64444816664443
 40
5.64444816664443
 40
5.997226177059705
 40
5.997226177059705
 40
5.997226177059705
 40
5.997226177059705
 10
185.4837187788815
 20
241.4451977396596
 10
185.4837187788815
 20
241.4451977396596
 10
185.4837187788815
 20
241.4028230372367
 10
185.4837187788815
 20
241.4028230372367
 10
185.4837187788815
 20
241.4028230372367
 10
185.5047338752051
 20
241.3604483348137
 10
185.5047338752051
 20
241.3604483348137
 10
185.4520238795082
 20
241.2782827532863
 10
185.4671823096433
 20
241.1897437409066
 10
185.335579575289
 20
241.2119646214456
 10
185.335579575289
 20
241.2119646214456
 10
185.2932048728662
 20
241.2119646214456
 10
185.2932048728662
 20
241.2119646214456
 10
185.2932048728662
 20
241.2119646214456
 10
185.2294705643439
 20
241.2334964824328
 10
185.2294705643439
 20
241.2334964824328
 10
185.2294705643439
 20
241.2334964824328
 10
185.1660807655974
 20
241.2543393238685
 10
185.1660807655974
 20
241.2543393238685
 10
185.1660807655974
 20
241.2543393238685
 10
185.1450656692739
 20
241.2758711848558
 10
185.1450656692739
 20
241.2758711848558
 10
185.1450656692739
 20
241.2758711848558
 10
185.1450656692739
 20
241.2967140262914
 10
185.1450656692739
 20
241.2967140262914
 10
185.1450656692739
 20
241.2967140262914
 10
185.1237060631745
 20
241.3604483348137
 10
185.1237060631745
 20
241.3604483348137
 10
185.1237060631745
 20
241.3604483348137
 10
185.1237060631745
 20
241.4028230372367
 10
185.1237060631745
 20
241.4028230372367
 10
185.1237060631745
 20
241.4028230372367
 10
185.1660807655974
 20
241.4875724420825
 10
185.1660807655974
 20
241.4875724420825
 10
185.1660807655974
 20
241.4875724420825
 10
185.2084554680203
 20
241.5085875384061
 10
185.2084554680203
 20
241.5085875384061
 10
185.2084554680203
 20
241.5085875384061
 10
185.2718452667668
 20
241.5297748896175
 10
185.2718452667668
 20
241.5297748896175
 10
185.2718452667668
 20
241.5297748896175
 10
185.3565946716127
 20
241.5297748896175
 10
185.3565946716127
 20
241.5297748896175
 10
185.3565946716127
 20
241.5297748896175
 10
185.4199844703592
 20
241.5085875384061
 10
185.4199844703592
 20
241.5085875384061
 10
185.4199844703592
 20
241.5085875384061
 10
185.4623591727821
 20
241.4875724420825
 10
185.4623591727821
 20
241.4875724420825
 10
185.4623591727821
 20
241.4875724420825
 10
185.4837187788815
 20
241.4451977396596
 10
185.4837187788815
 20
241.4451977396596
 72
     1
 10
185.4837187788815
 20
241.4451977396596
 11
185.4837187788815
 21
241.4451977396596
 97
        0
 75
     0
 76
     1
 98
        0
450
        0
451
        0
460
0.0
461
0.0
452
        0
462
0.0
453
        0
470

  0
HATCH
  5
1C
330
2
100
AcDbEntity
  8
图层 1
 62
     7
100
AcDbHatch
 10
0.0
 20
0.0
 30
0.0
210
0.0
220
0.0
230
1.0
  2
SOLID
 70
     1
 71
     0
 91
        1
 92
        1
 93
        2
 72
     4
 94
        3
 73
     0
 74
     0
 95
       38
 96
       34
 40
0.0
 40
0.0
 40
0.0
 40
0.0
 40
0.3527780104152769
 40
0.3527780104152769
 40
0.3527780104152769
 40
0.7055560208305538
 40
0.7055560208305538
 40
0.7055560208305538
 40
1.058334031245828
 40
1.058334031245828
 40
1.058334031245828
 40
1.411112041661104
 40
1.411112041661104
 40
1.411112041661104
 40
1.763890052076384
 40
1.763890052076384
 40
1.763890052076384
 40
2.116668062491659
 40
2.116668062491659
 40
2.116668062491659
 40
2.469446072906936
 40
2.469446072906936
 40
2.469446072906936
 40
2.822224083322215
 40
2.822224083322215
 40
2.822224083322215
 40
3.175002093737492
 40
3.175002093737492
 40
3.175002093737492
 40
3.527780104152768
 40
3.527780104152768
 40
3.527780104152768
 40
3.880558114568044
 40
3.880558114568044
 40
3.880558114568044
 40
3.880558114568044
 10
185.907121293335
 20
220.1937677098971
 10
185.9005756075949
 20
220.0449394867532
 10
185.9329595265197
 20
220.1136691870245
 10
185.864746590912
 20
219.9817219428946
 10
185.864746590912
 20
219.9817219428946
 10
185.822371888489
 20
219.9605345916831
 10
185.822371888489
 20
219.9605345916831
 10
185.822371888489
 20
219.9605345916831
 10
185.6528730787974
 20
219.9605345916831
 10
185.6528730787974
 20
219.9605345916831
 10
185.6528730787974
 20
219.9605345916831
 10
185.5894832800509
 20
220.002909294106
 10
185.5894832800509
 20
220.002909294106
 10
185.5894832800509
 20
220.002909294106
 10
185.5681236739515
 20
220.0240966453175
 10
185.5681236739515
 20
220.0240966453175
 10
185.5681236739515
 20
220.0240966453175
 10
185.5681236739515
 20
220.045283996529
 10
185.5681236739515
 20
220.045283996529
 10
185.5681236739515
 20
220.045283996529
 10
185.547108577628
 20
220.0876586989519
 10
185.547108577628
 20
220.0876586989519
 10
185.547108577628
 20
220.0876586989519
 10
185.547108577628
 20
220.1513930074742
 10
185.547108577628
 20
220.1513930074742
 10
185.547108577628
 20
220.1513930074742
 10
185.5894832800509
 20
220.23614241232
 10
185.5894832800509
 20
220.23614241232
 10
185.5894832800509
 20
220.23614241232
 10
185.6318579824738
 20
220.2573297635315
 10
185.6318579824738
 20
220.2573297635315
 10
185.7055830744942
 20
220.2566407439799
 10
185.8416644359337
 20
220.3310548555519
 10
185.907121293335
 20
220.1937677098971
 72
     1
 10
185.907121293335
 20
220.1937677098971
 11
185.907121293335
 21
220.1937677098971
 97
        0
 75
     0
 76
     1
 98
        0
450
        0
451
        0
460
0.0
461
0.0
452
        0
462
0.0
453
        0
470

  0
HATCH
  5
1D
330
2
100
AcDbEntity
  8
图层 1
 62
     7
100
AcDbHatch
 10
0.0
 20
0.0
 30
0.0
210
0.0
220
0.0
230
1.0
  2
SOLID
 70
     1
 71
     0
 91
        1
 92
        1
 93
        2
 72
     4
 94
        3
 73
     0
 74
     0
 95
       50
 96
       46
 40
0.0
 40
0.0
 40
0.0
 40
0.0
 40
0.3527780104152769
 40
0.3527780104152769
 40
0.3527780104152769
 40
0.7055560208305538
 40
0.7055560208305538
 40
0.7055560208305538
 40
1.058334031245828
 40
1.058334031245828
 40
1.058334031245828
 40
1.411112041661104
 40
1.411112041661104
 40
1.411112041661104
 40
1.763890052076384
 40
1.763890052076384
 40
1.763890052076384
 40
2.116668062491659
 40
2.116668062491659
 40
2.116668062491659
 40
2.469446072906936
 40
2.469446072906936
 40
2.469446072906936
 40
2.822224083322215
 40
2.822224083322215
 40
2.822224083322215
 40
3.175002093737492
 40
3.175002093737492
 40
3.175002093737492
 40
3.527780104152768
 40
3.527780104152768
 40
3.527780104152768
 40
3.880558114568044
 40
3.880558114568044
 40
3.880558114568044
 40
4.233336124983321
 40
4.233336124983321
 40
4.233336124983321
 40
4.586114135398599
 40
4.586114135398599
 40
4.586114135398599
 40
4.938892145813873
 40
4.938892145813873
 40
4.938892145813873
 40
5.291670156229153
 40
5.291670156229153
 40
5.291670156229153
 40
5.291670156229153
 10
180.9117295442905
 20
208.9327766684477
 10
180.9117295442905
 20
208.9327766684477
 10
180.9117295442905
 20
208.7637946234197
 10
180.9117295442905
 20
208.7637946234197
 10
181.2273004989198
 20
208.6749111012643
 10
181.3833634273555
 20
208.6776671794706
 10
181.6948002646751
 20
208.5097186637701
 10
181.9542161258496
 20
208.4294478860095
 10
182.1388733656765
 20
208.2134402565853
 10
182.3297317814676
 20
208.02292635057
 10
182.3297317814676
 20
208.02292635057
 10
182.435496282637
 20
208.065301052993
 10
182.435496282637
 20
208.065301052993
 10
182.288390608372
 20
208.2733849575739
 10
182.3752070718726
 20
208.2134402565853
 10
182.1605774815516
 20
208.3824223016133
 10
182.1605774815516
 20
208.3824223016133
 10
182.1182027791287
 20
208.4247970040363
 10
182.1182027791287
 20
208.4247970040363
 10
182.1182027791287
 20
208.4247970040363
 10
182.0968431730294
 20
208.467516216235
 10
182.0968431730294
 20
208.467516216235
 10
182.0968431730294
 20
208.467516216235
 10
182.0544684706064
 20
208.4883590576707
 10
182.0544684706064
 20
208.4883590576707
 10
182.0544684706064
 20
208.4883590576707
 10
181.9910786718599
 20
208.5305615052057
 10
181.9910786718599
 20
208.5305615052057
 10
181.9910786718599
 20
208.5305615052057
 10
181.948703969437
 20
208.552093366193
 10
181.948703969437
 20
208.552093366193
 10
181.948703969437
 20
208.552093366193
 10
181.9063292670141
 20
208.5729362076286
 10
181.9063292670141
 20
208.5729362076286
 10
181.9063292670141
 20
208.5729362076286
 10
181.8639545645911
 20
208.6156554198274
 10
181.8639545645911
 20
208.6156554198274
 10
181.8639545645911
 20
208.6156554198274
 10
181.821924371944
 20
208.6368427710388
 10
181.821924371944
 20
208.6368427710388
 10
181.6637943848536
 20
208.6742220817127
 10
181.5452830219797
 20
208.8092699138248
 10
181.3771622513911
 20
208.8061693258427
 10
181.2803550043924
 20
208.8573290275484
 10
181.0126709085988
 20
208.8971199066528
 10
180.9117295442905
 20
208.9327766684477
 72
     1
 10
180.9117295442905
 20
208.9327766684477
 11
180.9117295442905
 21
208.9327766684477
 97
        0
 75
     0
 76
     1
 98
        0
450
        0
451
        0
460
0.0
461
0.0
452
        0
462
0.0
453
        0
470

  0
HATCH
  5
1E
330
2
100
AcDbEntity
  8
图层 1
 62
     7
100
AcDbHatch
 10
0.0
 20
0.0
 30
0.0
210
0.0
220
0.0
230
1.0
  2
SOLID
 70
     1
 71
     0
 91
        1
 92
        1
 93
        2
 72
     4
 94
        3
 73
     0
 74
     0
 95
       38
 96
       34
 40
0.0
 40
0.0
 40
0.0
 40
0.0
 40
0.3527780104152769
 40
0.3527780104152769
 40
0.3527780104152769
 40
0.7055560208305538
 40
0.7055560208305538
 40
0.7055560208305538
 40
1.058334031245828
 40
1.058334031245828
 40
1.058334031245828
 40
1.411112041661104
 40
1.411112041661104
 40
1.411112041661104
 40
1.763890052076384
 40
1.763890052076384
 40
1.763890052076384
 40
2.116668062491659
 40
2.116668062491659
 40
2.116668062491659
 40
2.469446072906936
 40
2.469446072906936
 40
2.469446072906936
 40
2.822224083322215
 40
2.822224083322215
 40
2.822224083322215
 40
3.175002093737492
 40
3.175002093737492
 40
3.175002093737492
 40
3.527780104152768
 40
3.527780104152768
 40
3.527780104152768
 40
3.880558114568044
 40
3.880558114568044
 40
3.880558114568044
 40
3.880558114568044
 10
189.145513185819
 20
166.8326485368285
 10
189.207869455238
 20
166.740492171803
 10
189.1317327947871
 20
166.6833035490209
 10
189.103138483396
 20
166.6209472796017
 10
189.103138483396
 20
166.6209472796017
 10
189.0607637809731
 20
166.5997599283903
 10
189.0607637809731
 20
166.5997599283903
 10
189.0607637809731
 20
166.5997599283903
 10
188.9973739822266
 20
166.5785725771788
 10
188.9973739822266
 20
166.5785725771788
 10
188.9973739822266
 20
166.5785725771788
 10
188.9549992798037
 20
166.5997599283903
 10
188.9549992798037
 20
166.5997599283903
 10
188.9549992798037
 20
166.5997599283903
 10
188.8916094810572
 20
166.5997599283903
 10
188.8916094810572
 20
166.5997599283903
 10
188.8916094810572
 20
166.5997599283903
 10
188.8492347786343
 20
166.6209472796017
 10
188.8492347786343
 20
166.6209472796017
 10
188.8492347786343
 20
166.6209472796017
 10
188.8278751725349
 20
166.6633219820247
 10
188.8278751725349
 20
166.6633219820247
 10
188.8278751725349
 20
166.6633219820247
 10
188.8068600762114
 20
166.6845093332361
 10
188.8068600762114
 20
166.6845093332361
 10
188.8068600762114
 20
166.6845093332361
 10
188.8068600762114
 20
166.8326485368285
 10
188.8068600762114
 20
166.8326485368285
 10
188.8068600762114
 20
166.8326485368285
 10
188.8702498749578
 20
166.896038335575
 10
188.8702498749578
 20
166.896038335575
 10
189.0228677056355
 20
166.8819134347673
 10
189.0686875058164
 20
166.9411691162043
 10
189.145513185819
 20
166.8326485368285
 72
     1
 10
189.145513185819
 20
166.8326485368285
 11
189.145513185819
 21
166.8326485368285
 97
        0
 75
     0
 76
     1
 98
        0
450
        0
451
        0
460
0.0
461
0.0
452
        0
462
0.0
453
        0
470

  0
HATCH
  5
1F
330
2
100
AcDbEntity
  8
图层 1
 62
     7
100
AcDbHatch
 10
0.0
 20
0.0
 30
0.0
210
0.0
220
0.0
230
1.0
  2
SOLID
 70
     1
 71
     0
 91
        1
 92
        1
 93
        2
 72
     4
 94
        3
 73
     0
 74
     0
 95
       68
 96
       64
 40
0.0
 40
0.0
 40
0.0
 40
0.0
 40
0.3527780104152769
 40
0.3527780104152769
 40
0.3527780104152769
 40
0.7055560208305538
 40
0.7055560208305538
 40
0.7055560208305538
 40
1.058334031245828
 40
1.058334031245828
 40
1.058334031245828
 40
1.411112041661104
 40
1.411112041661104
 40
1.411112041661104
 40
1.763890052076384
 40
1.763890052076384
 40
1.763890052076384
 40
2.116668062491659
 40
2.116668062491659
 40
2.116668062491659
 40
2.469446072906936
 40
2.469446072906936
 40
2.469446072906936
 40
2.822224083322215
 40
2.822224083322215
 40
2.822224083322215
 40
3.175002093737492
 40
3.175002093737492
 40
3.175002093737492
 40
3.527780104152768
 40
3.527780104152768
 40
3.527780104152768
 40
3.880558114568044
 40
3.880558114568044
 40
3.880558114568044
 40
4.233336124983321
 40
4.233336124983321
 40
4.233336124983321
 40
4.586114135398599
 40
4.586114135398599
 40
4.586114135398599
 40
4.938892145813873
 40
4.938892145813873
 40
4.938892145813873
 40
5.291670156229153
 40
5.291670156229153
 40
5.291670156229153
 40
5.64444816664443
 40
5.64444816664443
 40
5.64444816664443
 40
5.997226177059705
 40
5.997226177059705
 40
5.997226177059705
 40
6.350004187474984
 40
6.350004187474984
 40
6.350004187474984
 40
6.702782197890257
 40
6.702782197890257
 40
6.702782197890257
 40
7.055560208305537
 40
7.055560208305537
 40
7.055560208305537
 40
7.408338218720808
 40
7.408338218720808
 40
7.408338218720808
 40
7.408338218720808
 10
174.7732543591544
 20
135.4846705078077
 10
174.7732543591544
 20
135.4846705078077
 10
174.7732543591544
 20
135.3789060066383
 10
174.7732543591544
 20
135.3789060066383
 10
174.7732543591544
 20
135.3789060066383
 10
174.8156290615773
 20
135.3789060066383
 10
174.8156290615773
 20
135.3789060066383
 10
174.8156290615773
 20
135.3789060066383
 10
174.8580037640002
 20
135.3578909103147
 10
174.8580037640002
 20
135.3578909103147
 10
174.8580037640002
 20
135.3578909103147
 10
174.9213935627468
 20
135.3578909103147
 10
174.9213935627468
 20
135.3578909103147
 10
174.9213935627468
 20
135.3578909103147
 10
174.9637682651697
 20
135.3365313042154
 10
174.9637682651697
 20
135.3365313042154
 10
174.9637682651697
 20
135.3365313042154
 10
174.9847833614933
 20
135.3365313042154
 10
174.9847833614933
 20
135.3365313042154
 10
174.9847833614933
 20
135.3365313042154
 10
175.0271580639162
 20
135.3155162078918
 10
175.0271580639162
 20
135.3155162078918
 10
175.0271580639162
 20
135.3155162078918
 10
175.0485176700155
 20
135.2941566017924
 10
175.0485176700155
 20
135.2941566017924
 10
175.0485176700155
 20
135.2941566017924
 10
175.0695327663391
 20
135.2941566017924
 10
175.0695327663391
 20
135.2941566017924
 10
175.0695327663391
 20
135.2941566017924
 10
175.0908923724385
 20
135.2731415054689
 10
175.0908923724385
 20
135.2731415054689
 10
175.0908923724385
 20
135.2731415054689
 10
175.1332670748614
 20
135.2731415054689
 10
175.1332670748614
 20
135.2731415054689
 10
175.1332670748614
 20
135.2731415054689
 10
175.154282171185
 20
135.2517818993695
 10
175.154282171185
 20
135.2517818993695
 10
175.154282171185
 20
135.2517818993695
 10
175.154282171185
 20
135.3578909103147
 10
175.154282171185
 20
135.3578909103147
 10
175.154282171185
 20
135.3578909103147
 10
175.1332670748614
 20
135.3789060066383
 10
175.1332670748614
 20
135.3789060066383
 10
175.1332670748614
 20
135.3789060066383
 10
175.0908923724385
 20
135.3789060066383
 10
175.0908923724385
 20
135.3789060066383
 10
175.0908923724385
 20
135.3789060066383
 10
175.0908923724385
 20
135.3999211029619
 10
175.0908923724385
 20
135.3999211029619
 10
175.0908923724385
 20
135.3999211029619
 10
175.0695327663391
 20
135.3999211029619
 10
175.0695327663391
 20
135.3999211029619
 10
175.0695327663391
 20
135.3999211029619
 10
175.0271580639162
 20
135.4212807090612
 10
175.0271580639162
 20
135.4212807090612
 10
175.0271580639162
 20
135.4212807090612
 10
175.0061429675926
 20
135.4212807090612
 10
175.0061429675926
 20
135.4212807090612
 10
175.0061429675926
 20
135.4212807090612
 10
174.9637682651697
 20
135.4422958053848
 10
174.9637682651697
 20
135.4422958053848
 10
174.8996894468716
 20
135.4498750204523
 10
174.8394002361073
 20
135.4860485469109
 10
174.7732543591544
 20
135.4846705078077
 72
     1
 10
174.7732543591544
 20
135.4846705078077
 11
174.7732543591544
 21
135.4846705078077
 97
        0
 75
     0
 76
     1
 98
        0
450
        0
451
        0
460
0.0
461
0.0
452
        0
462
0.0
453
        0
470

  0
HATCH
  5
20
330
2
100
AcDbEntity
  8
图层 1
 62
     7
100
AcDbHatch
 10
0.0
 20
0.0
 30
0.0
210
0.0
220
0.0
230
1.0
  2
SOLID
 70
     1
 71
     0
 91
        1
 92
        1
 93
        2
 72
     4
 94
        3
 73
     0
 74
     0
 95
       29
 96
       25
 40
0.0
 40
0.0
 40
0.0
 40
0.0
 40
0.3527780104152769
 40
0.3527780104152769
 40
0.3527780104152769
 40
0.7055560208305538
 40
0.7055560208305538
 40
0.7055560208305538
 40
1.058334031245828
 40
1.058334031245828
 40
1.058334031245828
 40
1.411112041661104
 40
1.411112041661104
 40
1.411112041661104
 40
1.763890052076384
 40
1.763890052076384
 40
1.763890052076384
 40
2.116668062491659
 40
2.116668062491659
 40
2.116668062491659
 40
2.469446072906936
 40
2.469446072906936
 40
2.469446072906936
 40
2.822224083322215
 40
2.822224083322215
 40
2.822224083322215
 40
2.822224083322215
 10
175.4929352807925
 20
164.0174869039101
 10
175.4929352807925
 20
164.0174869039101
 10
175.5139503771161
 20
163.9751122014871
 10
175.5139503771161
 20
163.9751122014871
 10
175.5139503771161
 20
163.9751122014871
 10
175.5139503771161
 20
163.9327374990642
 10
175.5139503771161
 20
163.9327374990642
 10
175.5139503771161
 20
163.9327374990642
 10
175.4929352807925
 20
163.8903627966413
 10
175.4929352807925
 20
163.8903627966413
 10
175.4929352807925
 20
163.8903627966413
 10
175.471920184469
 20
163.8691754454298
 10
175.471920184469
 20
163.8691754454298
 10
175.471920184469
 20
163.8691754454298
 10
175.4505605783696
 20
163.8269729978948
 10
175.4505605783696
 20
163.8269729978948
 10
175.3571984291289
 20
163.7715069239916
 10
175.272449024283
 20
163.8195660377152
 10
175.1966568736079
 20
163.8691754454298
 10
175.208370205985
 20
163.9930267098286
 10
175.1563492298397
 20
164.0216210212197
 10
175.2600466723544
 20
164.0596893514451
 10
175.3330827448232
 20
164.1094710140476
 10
175.4357466580104
 20
164.0753645462439
 10
175.4929352807925
 20
164.0174869039101
 72
     1
 10
175.4929352807925
 20
164.0174869039101
 11
175.4929352807925
 21
164.0174869039101
 97
        0
 75
     0
 76
     1
 98
        0
450
        0
451
        0
460
0.0
461
0.0
452
        0
462
0.0
453
        0
470

  0
HATCH
  5
21
330
2
100
AcDbEntity
  8
图层 1
 62
     7
100
AcDbHatch
 10
0.0
 20
0.0
 30
0.0
210
0.0
220
0.0
230
1.0
  2
SOLID
 70
     1
 71
     0
 91
        1
 92
        1
 93
        2
 72
     4
 94
        3
 73
     0
 74
     0
 95
       11
 96
        7
 40
0.0
 40
0.0
 40
0.0
 40
0.0
 40
0.3527780104152769
 40
0.3527780104152769
 40
0.3527780104152769
 40
0.7055560208305538
 40
0.7055560208305538
 40
0.7055560208305538
 40
0.7055560208305538
 10
174.9213935627468
 20
174.5369206529582
 10
174.9213935627468
 20
174.5369206529582
 10
174.9213935627468
 20
174.3043765542958
 10
174.9213935627468
 20
174.3043765542958
 10
174.9213935627468
 20
174.3043765542958
 10
174.9213935627468
 20
174.5369206529582
 10
174.9213935627468
 20
174.5369206529582
 72
     1
 10
174.9213935627468
 20
174.5369206529582
 11
174.9213935627468
 21
174.5369206529582
 97
        0
 75
     0
 76
     1
 98
        0
450
        0
451
        0
460
0.0
461
0.0
452
        0
462
0.0
453
        0
470

  0
HATCH
  5
22
330
2
100
AcDbEntity
  8
图层 1
 62
     7
100
AcDbHatch
 10
0.0
 20
0.0
 30
0.0
210
0.0
220
0.0
230
1.0
  2
SOLID
 70
     1
 71
     0
 91
        1
 92
        1
 93
        2
 72
     4
 94
        3
 73
     0
 74
     0
 95
      131
 96
      127
 40
0.0
 40
0.0
 40
0.0
 40
0.0
 40
0.3527780104152769
 40
0.3527780104152769
 40
0.3527780104152769
 40
0.7055560208305538
 40
0.7055560208305538
 40
0.7055560208305538
 40
1.058334031245828
 40
1.058334031245828
 40
1.058334031245828
 40
1.411112041661104
 40
1.411112041661104
 40
1.411112041661104
 40
1.763890052076384
 40
1.763890052076384
 40
1.763890052076384
 40
2.116668062491659
 40
2.116668062491659
 40
2.116668062491659
 40
2.469446072906936
 40
2.469446072906936
 40
2.469446072906936
 40
2.822224083322215
 40
2.822224083322215
 40
2.822224083322215
 40
3.175002093737492
 40
3.175002093737492
 40
3.175002093737492
 40
3.527780104152768
 40
3.527780104152768
 40
3.527780104152768
 40
3.880558114568044
 40
3.880558114568044
 40
3.880558114568044
 40
4.233336124983321
 40
4.233336124983321
 40
4.233336124983321
 40
4.586114135398599
 40
4.586114135398599
 40
4.586114135398599
 40
4.938892145813873
 40
4.938892145813873
 40
4.938892145813873
 40
5.291670156229153
 40
5.291670156229153
 40
5.291670156229153
 40
5.64444816664443
 40
5.64444816664443
 40
5.64444816664443
 40
5.997226177059705
 40
5.997226177059705
 40
5.997226177059705
 40
6.350004187474984
 40
6.350004187474984
 40
6.350004187474984
 40
6.702782197890257
 40
6.702782197890257
 40
6.702782197890257
 40
7.055560208305537
 40
7.055560208305537
 40
7.055560208305537
 40
7.408338218720808
 40
7.408338218720808
 40
7.408338218720808
 40
7.76111622913609
 40
7.76111622913609
 40
7.76111622913609
 40
8.113894239551369
 40
8.113894239551369
 40
8.113894239551369
 40
8.466672249966642
 40
8.466672249966642
 40
8.466672249966642
 40
8.819450260381922
 40
8.819450260381922
 40
8.819450260381922
 40
9.172228270797198
 40
9.172228270797198
 40
9.172228270797198
 40
9.525006281212476
 40
9.525006281212476
 40
9.525006281212476
 40
9.877784291627751
 40
9.877784291627751
 40
9.877784291627751
 40
10.23056230204303
 40
10.23056230204303
 40
10.23056230204303
 40
10.58334031245831
 40
10.58334031245831
 40
10.58334031245831
 40
10.93611832287358
 40
10.93611832287358
 40
10.93611832287358
 40
11.28889633328886
 40
11.28889633328886
 40
11.28889633328886
 40
11.64167434370414
 40
11.64167434370414
 40
11.64167434370414
 40
11.99445235411941
 40
11.99445235411941
 40
11.99445235411941
 40
12.34723036453469
 40
12.34723036453469
 40
12.34723036453469
 40
12.70000837494997
 40
12.70000837494997
 40
12.70000837494997
 40
13.05278638536524
 40
13.05278638536524
 40
13.05278638536524
 40
13.40556439578052
 40
13.40556439578052
 40
13.40556439578052
 40
13.7583424061958
 40
13.7583424061958
 40
13.7583424061958
 40
14.11112041661107
 40
14.11112041661107
 40
14.11112041661107
 40
14.46389842702635
 40
14.46389842702635
 40
14.46389842702635
 40
14.81667643744163
 40
14.81667643744163
 40
14.81667643744163
 40
14.81667643744163
 10
173.3972823146245
 20
126.8274843518258
 10
173.3972823146245
 20
126.8274843518258
 10
173.3972823146245
 20
126.7217198506564
 10
173.3972823146245
 20
126.7217198506564
 10
173.3972823146245
 20
126.7217198506564
 10
173.4186419207238
 20
126.7217198506564
 10
173.4186419207238
 20
126.7217198506564
 10
173.4186419207238
 20
126.7217198506564
 10
173.4820317194703
 20
126.7007047543328
 10
173.4820317194703
 20
126.7007047543328
 10
173.4820317194703
 20
126.7007047543328
 10
173.5244064218933
 20
126.6793451482334
 10
173.5244064218933
 20
126.6793451482334
 10
173.5244064218933
 20
126.6793451482334
 10
173.5877962206398
 20
126.6793451482334
 10
173.5877962206398
 20
126.6793451482334
 10
173.5877962206398
 20
126.6793451482334
 10
173.6301709230627
 20
126.6583300519099
 10
173.6301709230627
 20
126.6583300519099
 10
173.7955356154449
 20
126.5911506456296
 10
173.759706598762
 20
126.6380039751379
 10
173.9478089363468
 20
126.5525655507404
 10
173.9478089363468
 20
126.5525655507404
 10
173.9688240326703
 20
126.4464565397952
 10
173.9688240326703
 20
126.4464565397952
 10
173.9688240326703
 20
126.4464565397952
 10
174.0325583411926
 20
126.5101908483175
 10
174.0325583411926
 20
126.5101908483175
 10
174.0325583411926
 20
126.5101908483175
 10
174.0749330436156
 20
126.5101908483175
 10
174.0749330436156
 20
126.5101908483175
 10
174.0749330436156
 20
126.5101908483175
 10
174.1593379386856
 20
126.4678161458946
 10
174.1593379386856
 20
126.4678161458946
 10
174.1593379386856
 20
126.4678161458946
 10
174.180697544785
 20
126.4464565397952
 10
174.180697544785
 20
126.4464565397952
 10
174.2464989119621
 20
126.3982251711837
 10
174.3298702777047
 20
126.3716979184474
 10
174.3922265471239
 20
126.3196769423022
 10
174.608234176548
 20
126.2059887162895
 10
174.7749769080334
 20
126.0278771622029
 10
174.9637682651697
 20
125.8749148217494
 10
174.9637682651697
 20
125.8749148217494
 10
175.0061429675926
 20
125.9172895241723
 10
175.0061429675926
 20
125.9172895241723
 10
174.961356696739
 20
125.9631093243532
 10
174.782211613325
 20
126.1246844092016
 10
174.7308796567315
 20
126.1501781326105
 10
174.7308796567315
 20
126.1501781326105
 10
174.6885049543085
 20
126.1925528350335
 10
174.6885049543085
 20
126.1925528350335
 10
174.6885049543085
 20
126.1925528350335
 10
174.667489857985
 20
126.2349275374564
 10
174.667489857985
 20
126.2349275374564
 10
174.667489857985
 20
126.2349275374564
 10
174.625115155562
 20
126.2559426337799
 10
174.625115155562
 20
126.2559426337799
 10
174.625115155562
 20
126.2559426337799
 10
174.5827404531391
 20
126.2983173362029
 10
174.5827404531391
 20
126.2983173362029
 10
174.5827404531391
 20
126.2983173362029
 10
174.5403657507162
 20
126.3196769423022
 10
174.5403657507162
 20
126.3196769423022
 10
174.5403657507162
 20
126.3196769423022
 10
174.4979910482932
 20
126.3620516447252
 10
174.4979910482932
 20
126.3620516447252
 10
174.4735308542117
 20
126.3875453681341
 10
174.3247026310678
 20
126.4695386947736
 10
174.2864620459544
 20
126.4888312422181
 10
174.2864620459544
 20
126.4888312422181
 10
174.2654469496308
 20
126.5101908483175
 10
174.2654469496308
 20
126.5101908483175
 10
174.2654469496308
 20
126.5101908483175
 10
174.2230722472079
 20
126.5312059446411
 10
174.2230722472079
 20
126.5312059446411
 10
174.2230722472079
 20
126.5312059446411
 10
174.2017126411085
 20
126.5525655507404
 10
174.2017126411085
 20
126.5525655507404
 10
174.2017126411085
 20
126.5525655507404
 10
174.1383228423621
 20
126.573580647064
 10
174.1383228423621
 20
126.573580647064
 10
174.1383228423621
 20
126.573580647064
 10
174.1169632362627
 20
126.5945957433876
 10
174.1169632362627
 20
126.5945957433876
 10
174.1169632362627
 20
126.5945957433876
 10
174.0959481399391
 20
126.7007047543328
 10
174.0959481399391
 20
126.7007047543328
 10
174.0959481399391
 20
126.7007047543328
 10
174.0325583411926
 20
126.6369704458105
 10
174.0325583411926
 20
126.6369704458105
 10
174.0325583411926
 20
126.6369704458105
 10
173.9901836387697
 20
126.6369704458105
 10
173.9901836387697
 20
126.6369704458105
 10
173.9901836387697
 20
126.6369704458105
 10
173.9054342339239
 20
126.6793451482334
 10
173.9054342339239
 20
126.6793451482334
 10
173.9054342339239
 20
126.6793451482334
 10
173.8420444351773
 20
126.7007047543328
 10
173.8420444351773
 20
126.7007047543328
 10
173.8420444351773
 20
126.7007047543328
 10
173.7996697327544
 20
126.7217198506564
 10
173.7996697327544
 20
126.7217198506564
 10
173.7996697327544
 20
126.7217198506564
 10
173.7572950303315
 20
126.7217198506564
 10
173.7572950303315
 20
126.7217198506564
 10
173.7572950303315
 20
126.7217198506564
 10
173.6725456254856
 20
126.7640945530793
 10
173.6725456254856
 20
126.7640945530793
 10
173.6725456254856
 20
126.7640945530793
 10
173.6515305291621
 20
126.7640945530793
 10
173.6515305291621
 20
126.7640945530793
 10
173.6515305291621
 20
126.7640945530793
 10
173.5667811243162
 20
126.7851096494029
 10
173.5667811243162
 20
126.7851096494029
 10
173.5667811243162
 20
126.7851096494029
 10
173.5033913255697
 20
126.8064692555022
 10
173.5033913255697
 20
126.8064692555022
 10
173.5033913255697
 20
126.8064692555022
 10
173.4396570170474
 20
126.8064692555022
 10
173.4396570170474
 20
126.8064692555022
 10
173.4396570170474
 20
126.8064692555022
 10
173.4186419207238
 20
126.8274843518258
 10
173.4186419207238
 20
126.8274843518258
 10
173.4186419207238
 20
126.8274843518258
 10
173.3972823146245
 20
126.8274843518258
 10
173.3972823146245
 20
126.8274843518258
 72
     1
 10
173.3972823146245
 20
126.8274843518258
 11
173.3972823146245
 21
126.8274843518258
 97
        0
 75
     0
 76
     1
 98
        0
450
        0
451
        0
460
0.0
461
0.0
452
        0
462
0.0
453
        0
470

  0
HATCH
  5
23
330
2
100
AcDbEntity
  8
图层 1
 62
     7
100
AcDbHatch
 10
0.0
 20
0.0
 30
0.0
210
0.0
220
0.0
230
1.0
  2
SOLID
 70
     1
 71
     0
 91
        1
 92
        1
 93
        2
 72
     4
 94
        3
 73
     0
 74
     0
 95
       47
 96
       43
 40
0.0
 40
0.0
 40
0.0
 40
0.0
 40
0.3527780104152769
 40
0.3527780104152769
 40
0.3527780104152769
 40
0.7055560208305538
 40
0.7055560208305538
 40
0.7055560208305538
 40
1.058334031245828
 40
1.058334031245828
 40
1.058334031245828
 40
1.411112041661104
 40
1.411112041661104
 40
1.411112041661104
 40
1.763890052076384
 40
1.763890052076384
 40
1.763890052076384
 40
2.116668062491659
 40
2.116668062491659
 40
2.116668062491659
 40
2.469446072906936
 40
2.469446072906936
 40
2.469446072906936
 40
2.822224083322215
 40
2.822224083322215
 40
2.822224083322215
 40
3.175002093737492
 40
3.175002093737492
 40
3.175002093737492
 40
3.527780104152768
 40
3.527780104152768
 40
3.527780104152768
 40
3.880558114568044
 40
3.880558114568044
 40
3.880558114568044
 40
4.233336124983321
 40
4.233336124983321
 40
4.233336124983321
 40
4.586114135398599
 40
4.586114135398599
 40
4.586114135398599
 40
4.938892145813873
 40
4.938892145813873
 40
4.938892145813873
 40
4.938892145813873
 10
180.1920486226523
 20
255.6479577566324
 10
180.1920486226523
 20
255.6479577566324
 10
180.2130637189759
 20
255.6055830542095
 10
180.2130637189759
 20
255.6055830542095
 10
180.2130637189759
 20
255.6055830542095
 10
180.2130637189759
 20
255.5210059042515
 10
180.2130637189759
 20
255.5210059042515
 10
180.2130637189759
 20
255.5210059042515
 10
180.1920486226523
 20
255.4786312018286
 10
180.1920486226523
 20
255.4786312018286
 10
180.1920486226523
 20
255.4786312018286
 10
180.1496739202294
 20
255.4359119896299
 10
180.1496739202294
 20
255.4359119896299
 10
180.1496739202294
 20
255.4359119896299
 10
180.1283143141301
 20
255.4147246384184
 10
180.1283143141301
 20
255.4147246384184
 10
180.1283143141301
 20
255.4147246384184
 10
180.0225498129606
 20
255.4147246384184
 10
180.0225498129606
 20
255.4147246384184
 10
180.0225498129606
 20
255.4147246384184
 10
179.9591600142141
 20
255.4359119896299
 10
179.9591600142141
 20
255.4359119896299
 10
179.9591600142141
 20
255.4359119896299
 10
179.9167853117912
 20
255.4570993408414
 10
179.9167853117912
 20
255.4570993408414
 10
179.9167853117912
 20
255.4570993408414
 10
179.8957702154676
 20
255.4786312018286
 10
179.8957702154676
 20
255.4786312018286
 10
179.8957702154676
 20
255.4786312018286
 10
179.8744106093683
 20
255.4994740432643
 10
179.8744106093683
 20
255.4994740432643
 10
179.8744106093683
 20
255.4994740432643
 10
179.8744106093683
 20
255.6479577566324
 10
179.8744106093683
 20
255.6479577566324
 10
179.9608825630931
 20
255.7323626517025
 10
180.045631967939
 20
255.7085914771726
 10
180.1496739202294
 20
255.7115198102668
 10
180.1496739202294
 20
255.7115198102668
 10
180.170689016553
 20
255.6688005980681
 10
180.170689016553
 20
255.6688005980681
 10
180.170689016553
 20
255.6688005980681
 10
180.1920486226523
 20
255.6479577566324
 10
180.1920486226523
 20
255.6479577566324
 72
     1
 10
180.1920486226523
 20
255.6479577566324
 11
180.1920486226523
 21
255.6479577566324
 97
        0
 75
     0
 76
     1
 98
        0
450
        0
451
        0
460
0.0
461
0.0
452
        0
462
0.0
453
        0
470

  0
MTEXT
  5
481
330
2
100
AcDbEntity
  8
图框
100
AcDbMText
 10
697.3155213050792
 20
229.1302094497314
 30
0.0
 40
0.6000023545570477
 41
4.555173628074112
 46
1.3522221868162
 71
     5
 72
     5
  1
{\C4;CDSM-0.37}
  7
Romans字体
 73
     1
 44
1.0
1001
ACAD
1000
ACAD_MTEXT_DEFINED_HEIGHT_BEGIN
1070
    46
1040
1.3522221868162
1000
ACAD_MTEXT_DEFINED_HEIGHT_END
  0
MTEXT
  5
482
330
2
100
AcDbEntity
  8
图框
100
AcDbMText
 10
702.626525118208
 20
229.1302094497314
 30
0.0
 40
0.6000023545570477
 41
6.066833998183262
 46
1.352222186816343
 71
     5
 72
     5
  1
{\C4;1010171100301}
  7
Romans字体
 73
     1
 44
1.0
1001
ACAD
1000
ACAD_MTEXT_DEFINED_HEIGHT_BEGIN
1070
    46
1040
1.352222186816343
1000
ACAD_MTEXT_DEFINED_HEIGHT_END
  0
MTEXT
  5
483
330
2
100
AcDbEntity
  8
图框
100
AcDbMText
 10
702.626525118208
 20
227.777987262915
 30
0.0
 40
0.6000023545570477
 41
6.066833998183262
 46
1.352222186816343
 71
     5
 72
     5
  1
{\C4;1010171100401}
  7
Romans字体
 73
     1
 44
1.0
1001
ACAD
1000
ACAD_MTEXT_DEFINED_HEIGHT_BEGIN
1070
    46
1040
1.352222186816343
1000
ACAD_MTEXT_DEFINED_HEIGHT_END
  0
MTEXT
  5
484
330
2
100
AcDbEntity
  8
图框
100
AcDbMText
 10
702.626525118208
 20
226.4257650760997
 30
0.0
 40
0.6000023545570477
 41
6.066833998183262
 46
1.352222186816343
 71
     5
 72
     5
  1
{\C4;1010171100601}
  7
Romans字体
 73
     1
 44
1.0
1001
ACAD
1000
ACAD_MTEXT_DEFINED_HEIGHT_BEGIN
1070
    46
1040
1.352222186816343
1000
ACAD_MTEXT_DEFINED_HEIGHT_END
  0
MTEXT
  5
485
330
2
100
AcDbEntity
  8
图框
100
AcDbMText
 10
702.626525118208
 20
225.0735428892845
 30
0.0
 40
0.6000023545570477
 41
6.066833998183262
 46
1.352222186816343
 71
     5
 72
     5
  1
{\C4;1010171100801}
  7
Romans字体
 73
     1
 44
1.0
1001
ACAD
1000
ACAD_MTEXT_DEFINED_HEIGHT_BEGIN
1070
    46
1040
1.352222186816343
1000
ACAD_MTEXT_DEFINED_HEIGHT_END
  0
MTEXT
  5
486
330
2
100
AcDbEntity
  8
图框
100
AcDbMText
 10
702.626525118208
 20
223.7213207024693
 30
0.0
 40
0.6000023545570477
 41
6.066833998183262
 46
1.352222186816343
 71
     5
 72
     5
  1
{\C4;1010171100901}
  7
Romans字体
 73
     1
 44
1.0
1001
ACAD
1000
ACAD_MTEXT_DEFINED_HEIGHT_BEGIN
1070
    46
1040
1.352222186816343
1000
ACAD_MTEXT_DEFINED_HEIGHT_END
  0
LINE
  5
487
330
2
100
AcDbEntity
  8
图框
370
    -3
100
AcDbLine
 10
705.6599421166326
 20
231.1585427299549
 30
0.0
 11
716.429169288016
 21
231.1585427299549
 31
0.0
  0
LINE
  5
488
330
2
100
AcDbEntity
  8
图框
370
    -3
100
AcDbLine
 10
695.037934491042
 20
229.8063205431396
 30
0.0
 11
727.1236794847623
 21
229.8063205431404
 31
0.0
  0
LINE
  5
489
330
2
100
AcDbEntity
  8
图框
370
    -3
100
AcDbLine
 10
695.037934491042
 20
228.4540983563235
 30
0.0
 11
727.1236794847623
 21
228.4540983563235
 31
0.0
  0
MTEXT
  5
48A
330
2
100
AcDbEntity
  8
图框
100
AcDbMText
 10
712.9994453978993
 20
231.8346538233974
 30
0.0
 40
0.6000023545570477
 41
6.859684067146692
 46
1.352222186885061
 71
     5
 72
     5
  1
{\f仿宋_GB2312|b0|i0|c134|p49;\C4;线径\Fromans|c134;/Wire Gauge}
  7
Romans字体
 73
     1
 44
1.0
1001
ACAD
1000
ACAD_MTEXT_DEFINED_HEIGHT_BEGIN
1070
    46
1040
1.352222186885061
1000
ACAD_MTEXT_DEFINED_HEIGHT_END
  0
LINE
  5
48B
330
2
100
AcDbEntity
  8
图框
370
    -3
100
AcDbLine
 10
695.037934491042
 20
227.1018761695085
 30
0.0
 11
727.1236794847623
 21
227.1018761695083
 31
0.0
  0
MTEXT
  5
48C
330
2
100
AcDbEntity
  8
图框
100
AcDbMText
 10
714.9542169490175
 20
230.4823966025883
 30
0.0
 40
0.6000023545570477
 41
2.949904677997924
 46
1.352152118895874
 71
     5
 72
     5
  1
{\C4;AWG}
  7
Romans字体
 73
     1
 44
1.0
1001
ACAD
1000
ACAD_MTEXT_DEFINED_HEIGHT_BEGIN
1070
    46
1040
1.352152118895874
1000
ACAD_MTEXT_DEFINED_HEIGHT_END
  0
MTEXT
  5
48D
330
2
100
AcDbEntity
  8
图框
100
AcDbMText
 10
711.5244339868389
 20
230.4824316365475
 30
0.0
 40
0.6000023545570477
 41
3.909661246359366
 46
1.352222186814757
 71
     5
 72
     5
  1
\A1;{\C4;mm\H0.7x;\S2^  ;}
  7
Romans字体
 73
     1
 44
1.0
1001
ACAD
1000
ACAD_MTEXT_DEFINED_HEIGHT_BEGIN
1070
    46
1040
1.352222186814757
1000
ACAD_MTEXT_DEFINED_HEIGHT_END
  0
MTEXT
  5
48E
330
2
100
AcDbEntity
  8
图框
100
AcDbMText
 10
711.5244339871725
 20
229.1302094497317
 30
0.0
 40
0.6000023545570477
 41
3.909661247026225
 46
1.3522221868165
 71
     5
 72
     5
  1
{\C4;0.14-0.37}
  7
Romans字体
 73
     1
 44
1.0
1001
ACAD
1000
ACAD_MTEXT_DEFINED_HEIGHT_BEGIN
1070
    46
1040
1.3522221868165
1000
ACAD_MTEXT_DEFINED_HEIGHT_END
  0
MTEXT
  5
48F
330
2
100
AcDbEntity
  8
图框
100
AcDbMText
 10
711.5244339871725
 20
227.777987262916
 30
0.0
 40
0.6000023545570477
 41
3.909661247026225
 46
1.352222186815229
 71
     5
 72
     5
  1
{\C4;0.5}
  7
Romans字体
 73
     1
 44
1.0
1001
ACAD
1000
ACAD_MTEXT_DEFINED_HEIGHT_BEGIN
1070
    46
1040
1.352222186815229
1000
ACAD_MTEXT_DEFINED_HEIGHT_END
  0
MTEXT
  5
490
330
2
100
AcDbEntity
  8
图框
100
AcDbMText
 10
714.954216949351
 20
229.1302094497319
 30
0.0
 40
0.6000023545570477
 41
2.949904678664851
 46
1.352222186816635
 71
     5
 72
     5
  1
{\C4;26-22}
  7
Romans字体
 73
     1
 44
1.0
1001
ACAD
1000
ACAD_MTEXT_DEFINED_HEIGHT_BEGIN
1070
    46
1040
1.352222186816635
1000
ACAD_MTEXT_DEFINED_HEIGHT_END
  0
MTEXT
  5
491
330
2
100
AcDbEntity
  8
图框
100
AcDbMText
 10
714.9542169496843
 20
227.777987262916
 30
0.0
 40
0.6000023545570477
 41
2.949904677998123
 46
1.352222186815164
 71
     5
 72
     5
  1
{\C4;20}
  7
Romans字体
 73
     1
 44
1.0
1001
ACAD
1000
ACAD_MTEXT_DEFINED_HEIGHT_BEGIN
1070
    46
1040
1.352222186815164
1000
ACAD_MTEXT_DEFINED_HEIGHT_END
  0
MTEXT
  5
492
330
2
100
AcDbEntity
  8
图框
100
AcDbMText
 10
702.6265251175414
 20
231.1585026942461
 30
0.0
 40
0.6000023545570477
 41
6.066833998183262
 46
2.704364302212839
 71
     5
 72
     5
  1
{\f仿宋_GB2312|b0|i0|c134|p49;\C4;产品料号\Fromans|c134;\PPart NO.}
  7
Romans字体
 73
     1
 44
1.0
1001
ACAD
1000
ACAD_MTEXT_DEFINED_HEIGHT_BEGIN
1070
    46
1040
2.704364302212839
1000
ACAD_MTEXT_DEFINED_HEIGHT_END
  0
MTEXT
  5
493
330
2
100
AcDbEntity
  8
图框
100
AcDbMText
 10
717.6456211508807
 20
231.1585026942464
 30
0.0
 40
0.6000023545570477
 41
2.432903725729715
 46
2.704364302212435
 71
     5
 72
     5
  1
{\C4;d}
  7
Romans字体
 73
     1
 44
1.0
1001
ACAD
1000
ACAD_MTEXT_DEFINED_HEIGHT_BEGIN
1070
    46
1040
2.704364302212435
1000
ACAD_MTEXT_DEFINED_HEIGHT_END
  0
MTEXT
  5
494
330
2
100
AcDbEntity
  8
图框
100
AcDbMText
 10
717.6456211508807
 20
229.1302094497319
 30
0.0
 40
0.6000023545570477
 41
2.43290372572948
 46
1.352222186816667
 71
     5
 72
     5
  1
{\C4;0.9}
  7
Romans字体
 73
     1
 44
1.0
1001
ACAD
1000
ACAD_MTEXT_DEFINED_HEIGHT_BEGIN
1070
    46
1040
1.352222186816667
1000
ACAD_MTEXT_DEFINED_HEIGHT_END
  0
MTEXT
  5
495
330
2
100
AcDbEntity
  8
图框
100
AcDbMText
 10
717.6456211508807
 20
227.7779872629158
 30
0.0
 40
0.6000023545570477
 41
2.43290372572947
 46
1.352222186815196
 71
     5
 72
     5
  1
{\C4;1.15}
  7
Romans字体
 73
     1
 44
1.0
1001
ACAD
1000
ACAD_MTEXT_DEFINED_HEIGHT_BEGIN
1070
    46
1040
1.352222186815196
1000
ACAD_MTEXT_DEFINED_HEIGHT_END
  0
LINE
  5
496
330
2
100
AcDbEntity
  8
图框
370
    35
100
AcDbLine
 10
695.037934491042
 20
223.0422748781386
 30
0.0
 11
727.1236794847623
 21
223.0422748781394
 31
0.0
  0
MTEXT
  5
497
330
2
100
AcDbEntity
  8
图框
100
AcDbMText
 10
720.0785248762773
 20
231.1585026942464
 30
0.0
 40
0.6000023545570477
 41
2.432903725062574
 46
2.704364302212435
 71
     5
 72
     5
  1
{\C4;D}
  7
Romans字体
 73
     1
 44
1.0
1001
ACAD
1000
ACAD_MTEXT_DEFINED_HEIGHT_BEGIN
1070
    46
1040
2.704364302212435
1000
ACAD_MTEXT_DEFINED_HEIGHT_END
  0
MTEXT
  5
498
330
2
100
AcDbEntity
  8
图框
100
AcDbMText
 10
720.0785248762773
 20
229.1302094497319
 30
0.0
 40
0.6000023545570477
 41
2.432903725062595
 46
1.35222218681682
 71
     5
 72
     5
  1
{\C4;2.6}
  7
Romans字体
 73
     1
 44
1.0
1001
ACAD
1000
ACAD_MTEXT_DEFINED_HEIGHT_BEGIN
1070
    46
1040
1.35222218681682
1000
ACAD_MTEXT_DEFINED_HEIGHT_END
  0
LINE
  5
499
330
2
100
AcDbEntity
  8
图框
370
    35
380
     1
100
AcDbLine
 10
718.862073013746
 20
232.5107649168399
 30
0.0
 11
718.862073013746
 21
223.0422748781392
 31
0.0
  0
LINE
  5
49A
330
2
100
AcDbEntity
  8
图框
370
    -3
100
AcDbLine
 10
716.4291692886827
 20
232.5107649168399
 30
0.0
 11
716.4291692886837
 21
223.0422748781391
 31
0.0
  0
LINE
  5
49B
330
2
100
AcDbEntity
  8
图框
370
    -3
100
AcDbLine
 10
713.4792646106852
 20
231.1585527335233
 30
0.0
 11
713.4792646106851
 21
223.042274878139
 31
0.0
  0
LINE
  5
49C
330
2
100
AcDbEntity
  8
图框
370
    -3
100
AcDbLine
 10
699.5931081191161
 20
223.0422748781387
 30
0.0
 11
699.5931081191161
 21
231.1585527335226
 31
0.0
  0
LINE
  5
49D
330
2
100
AcDbEntity
  8
图框
370
    -3
100
AcDbLine
 10
705.6599421172992
 20
223.0422748781389
 30
0.0
 11
705.6599421172992
 21
232.5107649168397
 31
0.0
  0
MTEXT
  5
49E
330
2
100
AcDbEntity
  8
图框
100
AcDbMText
 10
711.5244339875057
 20
226.4257650761007
 30
0.0
 40
0.59999791584616
 41
3.909661246359378
 46
1.352222186815279
 71
     5
 72
     5
  1
{\C4;0.75}
  7
Romans字体
 73
     1
 44
1.0
1001
ACAD
1000
ACAD_MTEXT_DEFINED_HEIGHT_BEGIN
1070
    46
1040
1.352222186815279
1000
ACAD_MTEXT_DEFINED_HEIGHT_END
  0
MTEXT
  5
49F
330
2
100
AcDbEntity
  8
图框
100
AcDbMText
 10
714.9542169496843
 20
226.4257650761007
 30
0.0
 40
0.59999791584616
 41
2.949904677998274
 46
1.35222218681521
 71
     5
 72
     5
  1
{\C4;18}
  7
Romans字体
 73
     1
 44
1.0
1001
ACAD
1000
ACAD_MTEXT_DEFINED_HEIGHT_BEGIN
1070
    46
1040
1.35222218681521
1000
ACAD_MTEXT_DEFINED_HEIGHT_END
  0
MTEXT
  5
4A0
330
2
100
AcDbEntity
  8
图框
100
AcDbMText
 10
717.6456211512146
 20
226.4257650761007
 30
0.0
 40
0.59999791584616
 41
2.432903725062625
 46
1.352222186815245
 71
     5
 72
     5
  1
{\C4;1.3}
  7
Romans字体
 73
     1
 44
1.0
1001
ACAD
1000
ACAD_MTEXT_DEFINED_HEIGHT_BEGIN
1070
    46
1040
1.352222186815245
1000
ACAD_MTEXT_DEFINED_HEIGHT_END
  0
MTEXT
  5
4A1
330
2
100
AcDbEntity
  8
图框
100
AcDbMText
 10
711.5244339875057
 20
225.0713668661607
 30
0.0
 40
0.59999791584616
 41
3.909661246359378
 46
1.347870140565607
 71
     5
 72
     5
  1
{\C4;1.0}
  7
Romans字体
 73
     1
 44
1.0
1001
ACAD
1000
ACAD_MTEXT_DEFINED_HEIGHT_BEGIN
1070
    46
1040
1.347870140565607
1000
ACAD_MTEXT_DEFINED_HEIGHT_END
  0
MTEXT
  5
4A2
330
2
100
AcDbEntity
  8
图框
100
AcDbMText
 10
714.954216949351
 20
225.0713268304171
 30
0.0
 40
0.59999791584616
 41
2.94990467733168
 46
1.347790069078369
 71
     5
 72
     5
  1
{\C4;18}
  7
Romans字体
 73
     1
 44
1.0
1001
ACAD
1000
ACAD_MTEXT_DEFINED_HEIGHT_BEGIN
1070
    46
1040
1.347790069078369
1000
ACAD_MTEXT_DEFINED_HEIGHT_END
  0
MTEXT
  5
4A3
330
2
100
AcDbEntity
  8
图框
100
AcDbMText
 10
717.6456211508815
 20
225.0735428892854
 30
0.0
 40
0.59999791584616
 41
2.43290372572923
 46
1.352222186815245
 71
     5
 72
     5
  1
{\C4;1.45}
  7
Romans字体
 73
     1
 44
1.0
1001
ACAD
1000
ACAD_MTEXT_DEFINED_HEIGHT_BEGIN
1070
    46
1040
1.352222186815245
1000
ACAD_MTEXT_DEFINED_HEIGHT_END
  0
MTEXT
  5
4A4
330
2
100
AcDbEntity
  8
图框
100
AcDbMText
 10
720.0785248762773
 20
223.7198533370086
 30
0.0
 40
0.59999791584616
 41
2.432903725062594
 46
1.35515691773857
 71
     5
 72
     5
  1
{\C4;3.0}
  7
Romans字体
 73
     1
 44
1.0
1001
ACAD
1000
ACAD_MTEXT_DEFINED_HEIGHT_BEGIN
1070
    46
1040
1.35515691773857
1000
ACAD_MTEXT_DEFINED_HEIGHT_END
  0
LINE
  5
4A5
330
2
100
AcDbEntity
  8
图框
370
    -3
100
AcDbLine
 10
716.429169288016
 20
232.5106848453525
 30
0.0
 11
716.4291692880168
 21
223.0422748781391
 31
0.0
  0
LINE
  5
4A6
330
2
100
AcDbEntity
  8
图框
370
    -3
100
AcDbLine
 10
713.4792646100183
 20
231.158472662036
 30
0.0
 11
713.4792646100183
 21
223.042274878139
 31
0.0
  0
LINE
  5
4A7
330
2
100
AcDbEntity
  8
图框
370
    -3
100
AcDbLine
 10
699.5931081184495
 20
223.0422748781387
 30
0.0
 11
699.5931081184495
 21
232.5106848453525
 31
0.0
  0
LINE
  5
4A8
330
2
100
AcDbEntity
  8
图框
370
    -3
100
AcDbLine
 10
705.6599421166326
 20
223.0422748781389
 30
0.0
 11
705.6599421166326
 21
232.5106848453525
 31
0.0
  0
LINE
  5
4A9
330
2
100
AcDbEntity
  8
图框
370
    35
380
     1
100
AcDbLine
 10
727.1236794847623
 20
232.5106848453529
 30
0.0
 11
727.1236677063896
 21
223.0422748781394
 31
0.0
  0
LINE
  5
4AA
330
2
100
AcDbEntity
  8
图框
370
    -3
100
AcDbLine
 10
695.037934491042
 20
225.7496539826932
 30
0.0
 11
727.1236794847623
 21
225.7496539826931
 31
0.0
  0
LINE
  5
4AB
330
2
100
AcDbEntity
  8
图框
370
    -3
100
AcDbLine
 10
695.037934491042
 20
224.397431795878
 30
0.0
 11
727.1236794847623
 21
224.3974317958778
 31
0.0
  0
MTEXT
  5
4AC
102
{ACAD_XDICTIONARY
360
CEC
102
}
330
2
100
AcDbEntity
  8
打标文字
 62
     3
100
AcDbMText
 10
745.9781426713775
 20
217.2023516717356
 30
0.0
 40
0.75
 41
21.56370451087032
 46
26.95590277395973
 71
     1
 72
     5
  3
\A1;{\f仿宋_GB2312|b0|i0|c134|p49;技术参数}:\P- {\f仿宋_GB2312|b0|i0|c134|p49;材料}: {\f仿宋_GB2312|b0|i0|c134|p49;铜合金}\P- {\f仿宋_GB2312|b0|i0|c134|p49;表面处理}: {\f仿宋_GB2312|b0|i0|c134|p49;镀银}\P- {\f仿宋_GB2312|b0|i0|c134|p49;额定电流}: 10A\P- {\f仿宋_GB2312|b0|i0|c134|p49
  3
;接触电阻}: ≤3mΩ\P- {\f仿宋_GB2312|b0|i0|c134|p49;线径范围}: 1.5mm{\H0.7x;\S2^ ;}(16 AWG)\P- {\f仿宋_GB2312|b0|i0|c134|p49;可插拔次数}: {\f仿宋_GB2312|b0|i0|c134|p49;≥}500\P\PTechnical specification:\P- Material: copper alloy\P- Surface: hard-silver plated\P- Rated curr
  1
ent: 10A\P- Contact resistance: ≤3mΩ\P- Wire gauge: 1.5mm{\H0.7x;\S2^ ;}(16 AWG)\P- Mating cycles: {\f仿宋_GB2312|b0|i0|c134|p49;≥}500
  7
Romans字体
 73
     1
 44
1.0
1001
ACAD
1000
ACAD_MTEXT_DEFINED_HEIGHT_BEGIN
1070
    46
1040
26.95590277395973
1000
ACAD_MTEXT_DEFINED_HEIGHT_END
  0
MTEXT
  5
4AD
330
2
100
AcDbEntity
  8
图框
100
AcDbMText
 10
697.3155213047459
 20
231.1585477317386
 30
0.0
 40
0.6000023545570477
 41
4.555173627407302
 46
2.704274227227899
 71
     5
 72
     5
  1
{\f仿宋_GB2312|b0|i0|c134|p49;\C4;产品代号\fFangSong_GB2312|b0|i0|c134|p49;\P\Fromans|c134;Part Code}
  7
Romans字体
 73
     1
 44
1.0
1001
ACAD
1000
ACAD_MTEXT_DEFINED_HEIGHT_BEGIN
1070
    46
1040
2.704274227227899
1000
ACAD_MTEXT_DEFINED_HEIGHT_END
  0
MTEXT
  5
4AE
330
2
100
AcDbEntity
  8
图框
100
AcDbMText
 10
707.6147727404792
 20
231.8346137876538
 30
0.0
 40
0.6000023545570477
 41
3.909661246359441
 46
1.352142115397727
 71
     5
 72
     5
  1
{\f仿宋_GB2312|b0|i0|c134|p49;\C4;重量\Fromans|c134;/Weight}
  7
Romans字体
 73
     1
 44
1.0
1001
ACAD
1000
ACAD_MTEXT_DEFINED_HEIGHT_BEGIN
1070
    46
1040
1.352142115397727
1000
ACAD_MTEXT_DEFINED_HEIGHT_END
  0
MTEXT
  5
4AF
330
2
100
AcDbEntity
  8
图框
100
AcDbMText
 10
707.6147727404792
 20
230.4824316365474
 30
0.0
 40
0.6000023545570477
 41
3.909661246359381
 46
1.352222186814967
 71
     5
 72
     5
  1
{\C4;g}
  7
Romans字体
 73
     1
 44
1.0
1001
ACAD
1000
ACAD_MTEXT_DEFINED_HEIGHT_BEGIN
1070
    46
1040
1.352222186814967
1000
ACAD_MTEXT_DEFINED_HEIGHT_END
  0
LINE
  5
4B0
330
2
100
AcDbEntity
  8
图框
370
    -3
100
AcDbLine
 10
709.5696033636591
 20
232.5106848453525
 30
0.0
 11
709.5696033636587
 21
223.042274878139
 31
0.0
  0
MTEXT
  5
4B1
102
{ACAD_XDICTIONARY
360
C03
102
}
330
2
100
AcDbEntity
  8
图框 @ 1
100
AcDbMText
 10
724.2093281117852
 20
231.1585026942464
 30
0.0
 40
0.6000023545570477
 41
5.828702745953783
 46
2.704364302212259
 71
     5
 72
     5
  1
{\f仿宋_GB2312|b0|i0|c134|p49;\C4;剥线长度\Fromans|c134;\PStripping Length}
  7
Romans字体
 73
     1
 44
1.0
1001
AcadAnnotative
1000
AnnotativeData
1002
{
1070
     1
1070
     0
1002
}
1001
ACAD
1000
ACAD_MTEXT_DEFINED_HEIGHT_BEGIN
1070
    46
1040
2.704364302212259
1000
ACAD_MTEXT_DEFINED_HEIGHT_END
  0
LINE
  5
4B2
330
2
100
AcDbEntity
  8
图框
370
    35
380
     1
100
AcDbLine
 10
721.2949767388084
 20
232.5106848453525
 30
0.0
 11
721.2949767388084
 21
223.0422748781393
 31
0.0
  0
MTEXT
  5
4B3
330
2
100
AcDbEntity
  8
图框
100
AcDbMText
 10
724.2093281117852
 20
229.1302094497319
 30
0.0
 40
0.6000023545570477
 41
5.828702745953752
 46
1.35222218681682
 71
     5
 72
     5
  1
{\C4;8}
  7
Romans字体
 73
     1
 44
1.0
1001
ACAD
1000
ACAD_MTEXT_DEFINED_HEIGHT_BEGIN
1070
    46
1040
1.35222218681682
1000
ACAD_MTEXT_DEFINED_HEIGHT_END
  0
MTEXT
  5
4B4
330
2
100
AcDbEntity
  8
图框
100
AcDbMText
 10
707.6147727398123
 20
229.1301293782442
 30
0.0
 40
0.6000023545570477
 41
3.90966124635945
 46
1.352222186816528
 71
     5
 72
     5
  1
{\C4;0.68}
  7
Romans字体
 73
     1
 44
1.0
1001
ACAD
1000
ACAD_MTEXT_DEFINED_HEIGHT_BEGIN
1070
    46
1040
1.352222186816528
1000
ACAD_MTEXT_DEFINED_HEIGHT_END
  0
MTEXT
  5
4B5
330
2
100
AcDbEntity
  8
图框
100
AcDbMText
 10
707.6147727398123
 20
227.7779071914276
 30
0.0
 40
0.6000023545570477
 41
3.90966124635945
 46
1.352222186816528
 71
     5
 72
     5
  1
{\C4;0.66}
  7
Romans字体
 73
     1
 44
1.0
1001
ACAD
1000
ACAD_MTEXT_DEFINED_HEIGHT_BEGIN
1070
    46
1040
1.352222186816528
1000
ACAD_MTEXT_DEFINED_HEIGHT_END
  0
MTEXT
  5
4B6
330
2
100
AcDbEntity
  8
图框
100
AcDbMText
 10
707.6147727398123
 20
226.4256850046125
 30
0.0
 40
0.6000023545570477
 41
3.90966124635945
 46
1.352222186816528
 71
     5
 72
     5
  1
{\C4;0.64}
  7
Romans字体
 73
     1
 44
1.0
1001
ACAD
1000
ACAD_MTEXT_DEFINED_HEIGHT_BEGIN
1070
    46
1040
1.352222186816528
1000
ACAD_MTEXT_DEFINED_HEIGHT_END
  0
MTEXT
  5
4B7
330
2
100
AcDbEntity
  8
图框
100
AcDbMText
 10
707.6147727398123
 20
225.0734628177973
 30
0.0
 40
0.6000023545570477
 41
3.90966124635945
 46
1.352222186816528
 71
     5
 72
     5
  1
{\C4;0.62}
  7
Romans字体
 73
     1
 44
1.0
1001
ACAD
1000
ACAD_MTEXT_DEFINED_HEIGHT_BEGIN
1070
    46
1040
1.352222186816528
1000
ACAD_MTEXT_DEFINED_HEIGHT_END
  0
MTEXT
  5
4B8
330
2
100
AcDbEntity
  8
图框
100
AcDbMText
 10
707.6147727398123
 20
223.7212406309821
 30
0.0
 40
0.6000023545570477
 41
3.90966124635945
 46
1.352222186816528
 71
     5
 72
     5
  1
{\C4;0.62}
  7
Romans字体
 73
     1
 44
1.0
1001
ACAD
1000
ACAD_MTEXT_DEFINED_HEIGHT_BEGIN
1070
    46
1040
1.352222186816528
1000
ACAD_MTEXT_DEFINED_HEIGHT_END
  0
MTEXT
  5
4B9
330
2
100
AcDbEntity
  8
图框
100
AcDbMText
 10
711.5244339871722
 20
223.7213207024694
 30
0.0
 40
0.6000023545570477
 41
3.909661247026225
 46
1.3522221868165
 71
     5
 72
     5
  1
{\C4;1.5}
  7
Romans字体
 73
     1
 44
1.0
1001
ACAD
1000
ACAD_MTEXT_DEFINED_HEIGHT_BEGIN
1070
    46
1040
1.3522221868165
1000
ACAD_MTEXT_DEFINED_HEIGHT_END
  0
MTEXT
  5
4BA
330
2
100
AcDbEntity
  8
图框
100
AcDbMText
 10
714.9542169486842
 20
223.7213207024694
 30
0.0
 40
0.6000023545570477
 41
2.949904678664851
 46
1.352222186816635
 71
     5
 72
     5
  1
{\C4;16}
  7
Romans字体
 73
     1
 44
1.0
1001
ACAD
1000
ACAD_MTEXT_DEFINED_HEIGHT_BEGIN
1070
    46
1040
1.352222186816635
1000
ACAD_MTEXT_DEFINED_HEIGHT_END
  0
MTEXT
  5
4BB
330
2
100
AcDbEntity
  8
图框
100
AcDbMText
 10
717.6456211508807
 20
223.7213207024694
 30
0.0
 40
0.6000023545570477
 41
2.43290372572948
 46
1.352222186816667
 71
     5
 72
     5
  1
{\C4;1.75}
  7
Romans字体
 73
     1
 44
1.0
1001
ACAD
1000
ACAD_MTEXT_DEFINED_HEIGHT_BEGIN
1070
    46
1040
1.352222186816667
1000
ACAD_MTEXT_DEFINED_HEIGHT_END
  0
MTEXT
  5
4BC
330
2
100
AcDbEntity
  8
图框
100
AcDbMText
 10
697.3155213044122
 20
227.7779872629153
 30
0.0
 40
0.6000023545570477
 41
4.555173628074112
 46
1.3522221868162
 71
     5
 72
     5
  1
{\C4;CDSM-0.50}
  7
Romans字体
 73
     1
 44
1.0
1001
ACAD
1000
ACAD_MTEXT_DEFINED_HEIGHT_BEGIN
1070
    46
1040
1.3522221868162
1000
ACAD_MTEXT_DEFINED_HEIGHT_END
  0
MTEXT
  5
4BD
330
2
100
AcDbEntity
  8
图框
100
AcDbMText
 10
697.3155213050792
 20
226.4257650761001
 30
0.0
 40
0.6000023545570477
 41
4.555173628074112
 46
1.3522221868162
 71
     5
 72
     5
  1
{\C4;CDSM-0.75}
  7
Romans字体
 73
     1
 44
1.0
1001
ACAD
1000
ACAD_MTEXT_DEFINED_HEIGHT_BEGIN
1070
    46
1040
1.3522221868162
1000
ACAD_MTEXT_DEFINED_HEIGHT_END
  0
MTEXT
  5
4BE
330
2
100
AcDbEntity
  8
图框
100
AcDbMText
 10
697.3155213044122
 20
225.0691107715476
 30
0.0
 40
0.6000023545570477
 41
4.555173628074112
 46
1.3522221868162
 71
     5
 72
     5
  1
{\C4;CDSM-1.0}
  7
Romans字体
 73
     1
 44
1.0
1001
ACAD
1000
ACAD_MTEXT_DEFINED_HEIGHT_BEGIN
1070
    46
1040
1.3522221868162
1000
ACAD_MTEXT_DEFINED_HEIGHT_END
  0
MTEXT
  5
4BF
330
2
100
AcDbEntity
  8
图框
100
AcDbMText
 10
697.3155213044122
 20
223.7213207024696
 30
0.0
 40
0.6000023545570477
 41
4.555173628074112
 46
1.3522221868162
 71
     5
 72
     5
  1
{\C4;CDSM-1.5}
  7
Romans字体
 73
     1
 44
1.0
1001
ACAD
1000
ACAD_MTEXT_DEFINED_HEIGHT_BEGIN
1070
    46
1040
1.3522221868162
1000
ACAD_MTEXT_DEFINED_HEIGHT_END
  0
MTEXT
  5
4C0
330
2
100
AcDbEntity
  8
图框
100
AcDbMText
 10
720.0785248762773
 20
227.7779872629167
 30
0.0
 40
0.6000023545570477
 41
2.432903725062595
 46
1.35222218681682
 71
     5
 72
     5
  1
{\C4;2.6}
  7
Romans字体
 73
     1
 44
1.0
1001
ACAD
1000
ACAD_MTEXT_DEFINED_HEIGHT_BEGIN
1070
    46
1040
1.35222218681682
1000
ACAD_MTEXT_DEFINED_HEIGHT_END
  0
MTEXT
  5
4C1
330
2
100
AcDbEntity
  8
图框
100
AcDbMText
 10
720.0785248762773
 20
226.4257650761014
 30
0.0
 40
0.6000023545570477
 41
2.432903725062595
 46
1.35222218681682
 71
     5
 72
     5
  1
{\C4;2.6}
  7
Romans字体
 73
     1
 44
1.0
1001
ACAD
1000
ACAD_MTEXT_DEFINED_HEIGHT_BEGIN
1070
    46
1040
1.35222218681682
1000
ACAD_MTEXT_DEFINED_HEIGHT_END
  0
MTEXT
  5
4C2
330
2
100
AcDbEntity
  8
图框
100
AcDbMText
 10
720.0785248762773
 20
225.0735428892863
 30
0.0
 40
0.6000023545570477
 41
2.432903725062595
 46
1.35222218681682
 71
     5
 72
     5
  1
{\C4;2.6}
  7
Romans字体
 73
     1
 44
1.0
1001
ACAD
1000
ACAD_MTEXT_DEFINED_HEIGHT_BEGIN
1070
    46
1040
1.35222218681682
1000
ACAD_MTEXT_DEFINED_HEIGHT_END
  0
SPLINE
  5
511
330
2
100
AcDbEntity
  8
0
100
AcDbSpline
210
0.0
220
0.0
230
1.0
 70
     8
 71
     3
 72
     9
 73
     5
 74
     3
 42
0.0000000001
 43
0.0000000001
 44
0.0000000001
 12
-0.8754276894017763
 22
-0.4833491084388875
 32
0.0
 13
-0.8351755117349476
 23
0.5499835130240435
 33
0.0
 40
0.0
 40
0.0
 40
0.0
 40
0.0
 40
0.082771759736293
 40
0.1287137485353473
 40
0.1287137485353473
 40
0.1287137485353473
 40
0.1287137485353473
 10
705.4720261928582
 20
192.3152697596161
 30
0.0
 10
705.4478726294004
 20
192.3019338741919
 30
0.0
 10
705.4088650099332
 20
192.2810788422137
 30
0.0
 10
705.3623331476464
 20
192.2866210348679
 30
0.0
 10
705.349543272978
 20
192.2950434803329
 30
0.0
 11
705.4720261928582
 21
192.3152697596161
 31
0.0
 11
705.3945919314709
 21
192.2860276773845
 31
0.0
 11
705.349543272978
 21
192.2950434803329
 31
0.0
  0
SPLINE
  5
512
330
2
100
AcDbEntity
  8
0
100
AcDbSpline
210
0.0
220
0.0
230
1.0
 70
     8
 71
     3
 72
    19
 73
    15
 74
    13
 42
0.0000000001
 43
0.0000000001
 44
0.0000000001
 12
0.8754276874351161
 22
0.4833491120008442
 32
0.0
 13
-0.7953120721302828
 23
0.6062002209862976
 33
0.0
 40
0.0
 40
0.0
 40
0.0
 40
0.0
 40
0.14672797393791
 40
0.3345709548650228
 40
0.5558607585816393
 40
0.8005469873474579
 40
1.057124846750741
 40
1.313388573784967
 40
1.557150674356615
 40
1.776961729044724
 40
1.962867652452549
 40
2.107355785051701
 40
2.207228940359829
 40
2.269275304198678
 40
2.269275304198678
 40
2.269275304198678
 40
2.269275304198678
 10
699.3187694025205
 20
196.5825149193938
 30
0.0
 10
699.3615859794893
 20
196.60615519803
 30
0.0
 10
699.4529696184789
 20
196.6710580844295
 30
0.0
 10
699.5918835770785
 20
196.7938309563094
 30
0.0
 10
699.7440069879212
 20
196.9501731795378
 30
0.0
 10
699.9016446531135
 20
197.1324064902715
 30
0.0
 10
700.0569277183404
 20
197.3316637459557
 30
0.0
 10
700.2020656065806
 20
197.5380354788152
 30
0.0
 10
700.3299702350367
 20
197.7412090646391
 30
0.0
 10
700.4340923660496
 20
197.9311485634772
 30
0.0
 10
700.5105948731422
 20
198.0981834851245
 30
0.0
 10
700.5538543418106
 20
198.235356709286
 30
0.0
 10
700.5698742003215
 20
198.3368138414904
 30
0.0
 10
700.5486771492982
 20
198.3929624287499
 30
0.0
 10
700.5322284085671
 20
198.4054999352401
 30
0.0
 11
699.3187694025205
 21
196.5825149193938
 31
0.0
 11
699.4402448511107
 21
196.6648120258176
 31
0.0
 11
699.5820382183234
 21
196.7880176527105
 31
0.0
 11
699.7370393949339
 21
196.9459537552276
 31
0.0
 11
699.8974759718006
 21
197.1307007588594
 31
0.0
 11
700.0553029918836
 21
197.3329946778676
 31
0.0
 11
700.2026063487869
 21
197.5426916469408
 31
0.0
 11
700.3319996381848
 21
197.7492765891169
 31
0.0
 11
700.4369945373639
 21
197.9423904697922
 31
0.0
 11
700.5123261633825
 21
198.1123497545621
 31
0.0
 11
700.5542170786355
 21
198.2506319720785
 31
0.0
 11
700.5605666923522
 21
198.3503030790095
 31
0.0
 11
700.5322284085671
 21
198.4054999352401
 31
0.0
  0
SPLINE
  5
513
330
2
100
AcDbEntity
  8
0
100
AcDbSpline
210
0.0
220
0.0
230
1.0
 70
     8
 71
     3
 72
    22
 73
    18
 74
    16
 42
0.0000000001
 43
0.0000000001
 44
0.0000000001
 12
-0.9943330378783949
 22
0.1063099702921711
 32
0.0
 13
0.8754277012683346
 23
0.4833490869465252
 33
0.0
 40
0.0
 40
0.0
 40
0.0
 40
0.0
 40
0.0169180325229989
 40
0.0658659894362277
 40
0.1345019751598491
 40
0.2346166551975713
 40
0.3663474917780976
 40
0.5273033824674731
 40
0.7132704542925499
 40
0.9168738863798107
 40
1.129600597410458
 40
1.344755668829427
 40
1.556221438157793
 40
1.755773093344933
 40
1.933631157009845
 40
2.082069602678368
 40
2.19699817373681
 40
2.19699817373681
 40
2.19699817373681
 40
2.19699817373681
 10
699.2224823638022
 20
196.5870811294132
 30
0.0
 10
699.2168749775777
 20
196.5876806479248
 30
0.0
 10
699.1951868793329
 20
196.5927346215365
 30
0.0
 10
699.1607394831548
 20
196.6288981013964
 30
0.0
 10
699.1605654884733
 20
196.7051296591918
 30
0.0
 10
699.1808803386707
 20
196.8024280539979
 30
0.0
 10
699.2265663944742
 20
196.9259802578373
 30
0.0
 10
699.2944982563041
 20
197.0702776670716
 30
0.0
 10
699.3834656427882
 20
197.2309749251762
 30
0.0
 10
699.4897917241371
 20
197.40134053302
 30
0.0
 10
699.6093581178183
 20
197.5746714027762
 30
0.0
 10
699.7378729257991
 20
197.7447580550631
 30
0.0
 10
699.8709498161963
 20
197.9056551195965
 30
0.0
 10
700.0032749451252
 20
198.0507487695761
 30
0.0
 10
700.1286736009912
 20
198.1734232817887
 30
0.0
 10
700.2411491567942
 20
198.2683566961661
 30
0.0
 10
700.3138756908024
 20
198.3181291040472
 30
0.0
 10
700.3474129090597
 20
198.3366459773423
 30
0.0
 11
699.2224823638022
 21
196.5870811294132
 31
0.0
 11
699.2060515083736
 21
196.5911118631344
 31
0.0
 11
699.170984050746
 21
196.6252611808658
 31
0.0
 11
699.1625003170402
 21
196.6933708336227
 31
0.0
 11
699.1808482285287
 21
196.7917898526336
 31
0.0
 11
699.2246859269839
 21
196.9160125136112
 31
0.0
 11
699.292418333048
 21
197.0620231978654
 31
0.0
 11
699.3819409313466
 21
197.2250245972369
 31
0.0
 11
699.4894563887552
 21
197.3979256787139
 31
0.0
 11
699.6101323061027
 21
197.5731112276563
 31
0.0
 11
699.7398639801927
 21
197.7447544550063
 31
0.0
 11
699.8748074288727
 21
197.9075673453313
 31
0.0
 11
700.009601625527
 21
198.0547114503313
 31
0.0
 11
700.1372837835732
 21
198.178528885805
 31
0.0
 11
700.2514671061335
 21
198.2733768747219
 31
0.0
 11
700.3474129090597
 21
198.3366459773423
 31
0.0
  0
SPLINE
  5
514
330
2
100
AcDbEntity
  8
0
100
AcDbSpline
210
0.0
220
0.0
230
1.0
 70
     8
 71
     3
 72
    10
 73
     6
 74
     4
 42
0.0000000001
 43
0.0000000001
 44
0.0000000001
 12
-0.8754276886621536
 22
-0.4833491097784702
 32
0.0
 13
-0.7953120692931933
 23
0.6062002247084532
 33
0.0
 40
0.0
 40
0.0
 40
0.0
 40
0.0
 40
0.1021079663638473
 40
0.1667214274402812
 40
0.1681780306940864
 40
0.1681780306940864
 40
0.1681780306940864
 40
0.1681780306940864
 10
702.080088644514
 20
194.5319606810643
 30
0.0
 10
702.050292597518
 20
194.5155094161832
 30
0.0
 10
702.0010254870859
 20
194.4903939172589
 30
0.0
 10
701.9380877823967
 20
194.4918262741259
 30
0.0
 10
701.9203467412487
 20
194.5049115363431
 30
0.0
 10
701.9199605898661
 20
194.5052058674164
 30
0.0
 11
702.080088644514
 21
194.5319606810643
 31
0.0
 11
701.9850224029474
 21
194.4946988170563
 31
0.0
 11
701.9211323861508
 21
194.5043406584785
 31
0.0
 11
701.9199605898661
 21
194.5052058674164
 31
0.0
  0
SPLINE
  5
515
330
2
100
AcDbEntity
  8
0
100
AcDbSpline
210
0.0
220
0.0
230
1.0
 70
     8
 71
     3
 72
    11
 73
     7
 74
     5
 42
0.0000000001
 43
0.0000000001
 44
0.0000000001
 12
0.8754276927496482
 22
0.4833491023753202
 32
0.0
 13
0.4371230271640349
 23
-0.8994017228819114
 33
0.0
 40
0.0
 40
0.0
 40
0.0
 40
0.0
 40
0.0849607362013077
 40
0.1440291687301141
 40
0.1929771256084542
 40
0.1938117485073737
 40
0.1938117485073737
 40
0.1938117485073737
 40
0.1938117485073737
 10
700.3474129090597
 20
198.3366459773423
 30
0.0
 10
700.3722052361487
 20
198.3503345425356
 30
0.0
 10
700.4148891608471
 20
198.3703801478476
 30
0.0
 10
700.4843645271141
 20
198.3800762245194
 30
0.0
 10
700.5128036330228
 20
198.3503757650924
 30
0.0
 10
700.5201330624458
 20
198.3355004429765
 30
0.0
 10
700.5202546734085
 20
198.3352502225521
 30
0.0
 11
700.3474129090597
 21
198.3366459773423
 31
0.0
 11
700.4257530866432
 21
198.369526720522
 31
0.0
 11
700.4848182498947
 21
198.37014817968
 31
0.0
 11
700.5198857056929
 21
198.3359988601201
 31
0.0
 11
700.5202546734085
 21
198.3352502225521
 31
0.0
  0
SPLINE
  5
516
330
2
100
AcDbEntity
  8
0
100
AcDbSpline
210
0.0
220
0.0
230
1.0
 70
     8
 71
     3
 72
    10
 73
     6
 74
     4
 42
0.0000000001
 43
0.0000000001
 44
0.0000000001
 12
-0.8754276886621536
 22
-0.4833491097784702
 32
0.0
 13
-0.7953120692931933
 23
0.6062002247084532
 33
0.0
 40
0.0
 40
0.0
 40
0.0
 40
0.0
 40
0.1021079663638722
 40
0.1667214274404251
 40
0.1681780306939418
 40
0.1681780306939418
 40
0.1681780306939418
 40
0.1681780306939418
 10
699.3187694025205
 20
196.5825149193938
 30
0.0
 10
699.2889733555244
 20
196.5660636545127
 30
0.0
 10
699.2397062450991
 20
196.5409481555973
 30
0.0
 10
699.1767685403939
 20
196.5423805124453
 30
0.0
 10
699.1590274992553
 20
196.5554657746728
 30
0.0
 10
699.1586413478727
 20
196.555760105746
 30
0.0
 11
699.3187694025205
 21
196.5825149193938
 31
0.0
 11
699.2237031609536
 21
196.5452530553863
 31
0.0
 11
699.1598131441568
 21
196.5548948968078
 31
0.0
 11
699.1586413478727
 21
196.555760105746
 31
0.0
  0
SPLINE
  5
517
330
2
100
AcDbEntity
  8
0
100
AcDbSpline
210
0.0
220
0.0
230
1.0
 70
     8
 71
     3
 72
    17
 73
    13
 74
    11
 42
0.0000000001
 43
0.0000000001
 44
0.0000000001
 12
0.875427687319704
 22
0.4833491122098751
 32
0.0
 13
-0.4150857200972829
 23
0.9097823063630771
 33
0.0
 40
0.0
 40
0.0
 40
0.0
 40
0.0
 40
0.08764637458066
 40
0.2024969122230352
 40
0.3379381744021367
 40
0.4854577593635659
 40
0.6355509218816918
 40
0.7785085780620959
 40
0.905193741913782
 40
1.00786005598413
 40
1.081254079338241
 40
1.117497884077476
 40
1.117497884077476
 40
1.117497884077476
 40
1.117497884077476
 10
712.8815172646262
 20
187.1554336908918
 30
0.0
 10
712.9070932856266
 20
187.1695549566724
 30
0.0
 10
712.9617578032168
 20
187.2098782374162
 30
0.0
 10
713.0444531886636
 20
187.2864303890262
 30
0.0
 10
713.134431306284
 20
187.384030533788
 30
0.0
 10
713.2255195733153
 20
187.4961107368022
 30
0.0
 10
713.3115256538167
 20
187.6152286275039
 30
0.0
 10
713.386740985587
 20
187.733382133877
 30
0.0
 10
713.445968493906
 20
187.842369310744
 30
0.0
 10
713.4863803008945
 20
187.935586684514
 30
0.0
 10
713.5037880438423
 20
188.0036076091858
 30
0.0
 10
713.5044024886529
 20
188.042067603705
 30
0.0
 10
713.4993877267231
 20
188.053058927794
 30
0.0
 11
712.8815172646262
 21
187.1554336908918
 31
0.0
 11
712.9534562215862
 21
187.2055003809026
 31
0.0
 11
713.0384383502247
 21
187.282757638224
 31
0.0
 11
713.1306722579079
 21
187.3819405085906
 31
0.0
 11
713.2238723535492
 21
187.4962898422994
 31
0.0
 11
713.3116872074338
 21
187.6180129250402
 31
0.0
 11
713.3881323806291
 21
187.7388145266675
 31
0.0
 11
713.447998262015
 21
187.8504622180275
 31
0.0
 11
713.4872050913992
 21
187.9453473937634
 31
0.0
 11
713.5030809864947
 21
188.017003786493
 31
0.0
 11
713.4993877267231
 21
188.053058927794
 31
0.0
  0
SPLINE
  5
518
330
2
100
AcDbEntity
  8
0
100
AcDbSpline
210
0.0
220
0.0
230
1.0
 70
     8
 71
     3
 72
    17
 73
    13
 74
    11
 42
0.0000000001
 43
0.0000000001
 44
0.0000000001
 12
0.8754276876050573
 22
0.4833491116930519
 32
0.0
 13
-0.2990217411305899
 23
0.9542462985682631
 33
0.0
 40
0.0
 40
0.0
 40
0.0
 40
0.0
 40
0.0876463750373718
 40
0.202496912679835
 40
0.3379381736134222
 40
0.4854577611479215
 40
0.6355509221832938
 40
0.7785085783636483
 40
0.9051937422151127
 40
1.007860057975607
 40
1.081254081329582
 40
1.112989102057481
 40
1.112989102057481
 40
1.112989102057481
 40
1.112989102057481
 10
706.1191027939521
 20
192.1771991726645
 30
0.0
 10
706.1446788150941
 20
192.1913204385036
 30
0.0
 10
706.1993433420749
 20
192.2316437356212
 30
0.0
 10
706.2820386842373
 20
192.3081957701542
 30
0.0
 10
706.3720169979328
 20
192.4057964676085
 30
0.0
 10
706.4631044390763
 20
192.5178743584786
 30
0.0
 10
706.549113654195
 20
192.6370010153169
 30
0.0
 10
706.6243182140781
 20
192.7551243822918
 30
0.0
 10
706.6835790039913
 20
192.8642046841317
 30
0.0
 10
706.7239005169538
 20
192.9571694055922
 30
0.0
 10
706.7411335938476
 20
193.0242914624681
 30
0.0
 10
706.7418053397298
 20
193.0603453165484
 30
0.0
 10
706.7386421860121
 20
193.0704396585699
 30
0.0
 11
706.1191027939521
 21
192.1771991726645
 31
0.0
 11
706.1910417527414
 21
192.2272658608465
 31
0.0
 11
706.2760238813797
 21
192.3045231181681
 31
0.0
 11
706.3682577872341
 21
192.4037059885345
 31
0.0
 11
706.4614578847044
 21
192.518055324072
 31
0.0
 11
706.5492727385891
 21
192.6397784049844
 31
0.0
 11
706.6257179117842
 21
192.7605800066118
 31
0.0
 11
706.6855837931703
 21
192.8722276979715
 31
0.0
 11
706.7247906225543
 21
192.9671128755362
 31
0.0
 11
706.7406665176497
 21
193.0387692682657
 31
0.0
 11
706.7386421860121
 21
193.0704396585699
 31
0.0
  0
SPLINE
  5
519
330
2
100
AcDbEntity
  8
0
100
AcDbSpline
210
0.0
220
0.0
230
1.0
 70
     8
 71
     3
 72
    18
 73
    14
 74
    12
 42
0.0000000001
 43
0.0000000001
 44
0.0000000001
 12
0.8754276874214127
 22
0.4833491120256634
 32
0.0
 13
-0.2810371795378294
 23
0.9596968811647883
 33
0.0
 40
0.0
 40
0.0
 40
0.0
 40
0.0
 40
0.12232593575596
 40
0.2807034051729089
 40
0.467497958487254
 40
0.672785342363146
 40
0.885328246776671
 40
1.093396596478342
 40
1.285562980563203
 40
1.451511658592665
 40
1.58295164046422
 40
1.675100698884094
 40
1.704192990400569
 40
1.704192990400569
 40
1.704192990400569
 40
1.704192990400569
 10
705.6410865547618
 20
192.189725622389
 30
0.0
 10
705.6767823917787
 20
192.2094343331974
 30
0.0
 10
705.7530393908382
 20
192.2645600927019
 30
0.0
 10
705.8687241798367
 20
192.3690812831152
 30
0.0
 10
705.995115340348
 20
192.5023448956553
 30
0.0
 10
706.1248084356038
 20
192.6567345720491
 30
0.0
 10
706.2502898272629
 20
192.8235326285235
 30
0.0
 10
706.3643497145928
 20
192.9931285245694
 30
0.0
 10
706.4603745570165
 20
193.1556642934192
 30
0.0
 10
706.5334690886848
 20
193.3019967564326
 30
0.0
 10
706.579002142647
 20
193.4234093676438
 30
0.0
 10
706.596643553906
 20
193.5073165910937
 30
0.0
 10
706.5914673191749
 20
193.5478755859119
 30
0.0
 10
706.5887419806569
 20
193.5571821797234
 30
0.0
 11
705.6410865547618
 21
192.189725622389
 31
0.0
 11
705.7419549752243
 21
192.2589296418675
 31
0.0
 11
705.8603954515762
 21
192.3640737162628
 31
0.0
 11
705.9895246531092
 21
192.4990472487029
 31
0.0
 11
706.1218380587894
 21
192.6560060734179
 31
0.0
 11
706.2496460931397
 21
192.8258283115731
 31
0.0
 11
706.3655210227814
 21
192.9986445111266
 31
0.0
 11
706.4627286117542
 21
193.1644112261762
 31
0.0
 11
706.5356195139784
 21
193.3134946931089
 31
0.0
 11
706.5799575702849
 21
193.4372307250372
 31
0.0
 11
706.5931660179352
 21
193.5284282353011
 31
0.0
 11
706.5887419806569
 21
193.5571821797234
 31
0.0
  0
SPLINE
  5
51A
330
2
100
AcDbEntity
  8
0
100
AcDbSpline
210
0.0
220
0.0
230
1.0
 70
     8
 71
     3
 72
    19
 73
    15
 74
    13
 42
0.0000000001
 43
0.0000000001
 44
0.0000000001
 12
0.8754276876509774
 22
0.4833491116098828
 32
0.0
 13
-0.8351755121035115
 23
0.5499835124643623
 33
0.0
 40
0.0
 40
0.0
 40
0.0
 40
0.0
 40
0.122325935755376
 40
0.2807034039590219
 40
0.4674979585939923
 40
0.6727853424702643
 40
0.8853282479837053
 40
1.093396596667189
 40
1.285562979173831
 40
1.451511658846388
 40
1.582951640717634
 40
1.675100699137909
 40
1.731637810811436
 40
1.737241146477381
 40
1.737241146477381
 40
1.737241146477381
 40
1.737241146477381
 10
705.4720261928582
 20
192.3152697596161
 30
0.0
 10
705.5077220298842
 20
192.3349784704075
 30
0.0
 10
705.5839790297867
 20
192.3901042664338
 30
0.0
 10
705.6996638117676
 20
192.4946252372105
 30
0.0
 10
705.8260550120657
 20
192.6278898677905
 30
0.0
 10
705.9557479301995
 20
192.7822752206106
 30
0.0
 10
706.0812300166944
 20
192.9490901295642
 30
0.0
 10
706.19528741814
 20
193.1186255870113
 30
0.0
 10
706.2913204268887
 20
193.2813601260072
 30
0.0
 10
706.3643906412417
 20
193.4271005747106
 30
0.0
 10
706.4099876336406
 20
193.550069888626
 30
0.0
 10
706.4294015220397
 20
193.6395935864669
 30
0.0
 10
706.4191192122336
 20
193.6970008880262
 30
0.0
 10
706.4025255439421
 20
193.7097075402187
 30
0.0
 10
706.4009656210307
 20
193.7107347876291
 30
0.0
 11
705.4720261928582
 21
192.3152697596161
 31
0.0
 11
705.5728946133203
 21
192.3844737790942
 31
0.0
 11
705.6913350896727
 21
192.4896178516613
 31
0.0
 11
705.8204642912051
 21
192.6245913859297
 31
0.0
 11
705.9527776968857
 21
192.7815502106448
 31
0.0
 11
706.0805857330649
 21
192.9513724488002
 31
0.0
 11
706.1964606608777
 21
193.1241886483541
 31
0.0
 11
706.2936682498502
 21
193.2899553615743
 31
0.0
 11
706.3665591520738
 21
193.4390388303363
 31
0.0
 11
706.4108972083812
 21
193.5627748622639
 31
0.0
 11
706.4241056560311
 21
193.6539723725283
 31
0.0
 11
706.4054168653671
 21
193.707331290245
 31
0.0
 11
706.4009656210307
 21
193.7107347876291
 31
0.0
  0
SPLINE
  5
51B
330
2
100
AcDbEntity
  8
0
100
AcDbSpline
210
0.0
220
0.0
230
1.0
 70
     8
 71
     3
 72
    18
 73
    14
 74
    12
 42
0.0000000001
 43
0.0000000001
 44
0.0000000001
 12
0.8754276877391646
 22
0.4833491114501606
 32
0.0
 13
-0.8506056208650335
 23
0.5258042199838366
 33
0.0
 40
0.0
 40
0.0
 40
0.0
 40
0.0
 40
0.0958632233146443
 40
0.2214809980117455
 40
0.3696198774174833
 40
0.5309694260419534
 40
0.6951338212083637
 40
0.8514937576693959
 40
0.990055656585679
 40
1.102346936436915
 40
1.182621650385708
 40
1.231154943984133
 40
1.240725880832047
 40
1.240725880832047
 40
1.240725880832047
 40
1.240725880832047
 10
705.5872342652105
 20
192.5117324382675
 30
0.0
 10
705.615208038519
 20
192.5271775728708
 30
0.0
 10
705.6749973582879
 20
192.5712810758679
 30
0.0
 10
705.7654454284787
 20
192.6550104870156
 30
0.0
 10
705.8638590238379
 20
192.7617583434098
 30
0.0
 10
705.9634866862018
 20
192.8843557240271
 30
0.0
 10
706.0575563323557
 20
193.0146042877055
 30
0.0
 10
706.139821395017
 20
193.1439606164689
 30
0.0
 10
706.2046067612284
 20
193.262776232873
 30
0.0
 10
706.2487928491909
 20
193.3657884135446
 30
0.0
 10
706.2685944558239
 20
193.4406162300649
 30
0.0
 10
706.2685309235543
 20
193.4935412488369
 30
0.0
 10
706.2530522493606
 20
193.5061013286126
 30
0.0
 10
706.2503385518007
 20
193.5077788082739
 30
0.0
 11
705.5872342652105
 21
192.5117324382675
 31
0.0
 11
705.6659175018999
 21
192.5664928788096
 31
0.0
 11
705.7588667044692
 21
192.6509930034342
 31
0.0
 11
705.859747538826
 21
192.7594742684115
 31
0.0
 11
705.9616851452627
 21
192.8845438539839
 31
0.0
 11
706.0577326404422
 21
193.0176784749888
 31
0.0
 11
706.1413445498247
 21
193.1498052260255
 31
0.0
 11
706.206822857476
 21
193.2719198895938
 31
0.0
 11
706.2497053261431
 21
193.3757005496979
 31
0.0
 11
706.2670695864611
 21
193.4540747301604
 31
0.0
 11
706.2577322932737
 21
193.501701356573
 31
0.0
 11
706.2503385518007
 21
193.5077788082739
 31
0.0
  0
SPLINE
  5
51C
330
2
100
AcDbEntity
  8
0
100
AcDbSpline
210
0.0
220
0.0
230
1.0
 70
     8
 71
     3
 72
     9
 73
     5
 74
     3
 42
0.0000000001
 43
0.0000000001
 44
0.0000000001
 12
-0.8754276841497944
 22
-0.4833491179511222
 32
0.0
 13
-0.8506056186638359
 23
0.5258042235447649
 33
0.0
 40
0.0
 40
0.0
 40
0.0
 40
0.0
 40
0.0627752134890725
 40
0.0917852890840163
 40
0.0917852890840163
 40
0.0917852890840163
 40
0.0917852890840163
 10
705.5872342652105
 20
192.5117324382675
 30
0.0
 10
705.5689158786216
 20
192.5016183235778
 30
0.0
 10
705.5401711338443
 20
192.4851874741291
 30
0.0
 10
705.5083957199748
 20
192.4929149195969
 30
0.0
 10
705.5001703422085
 20
192.4979994596879
 30
0.0
 11
705.5872342652105
 21
192.5117324382675
 31
0.0
 11
705.5281791292697
 21
192.490443512799
 31
0.0
 11
705.5001703422085
 21
192.4979994596879
 31
0.0
  0
SPLINE
  5
51D
330
2
100
AcDbEntity
  8
0
100
AcDbSpline
210
0.0
220
0.0
230
1.0
 70
     8
 71
     3
 72
    12
 73
     8
 74
     6
 42
0.0000000001
 43
0.0000000001
 44
0.0000000001
 12
0.2924484276269705
 22
0.9562812960518012
 32
0.0
 13
-0.8028428605125748
 23
0.5961906920809703
 33
0.0
 40
0.0
 40
0.0
 40
0.0
 40
0.0
 40
0.0692980060579653
 40
0.1687779323961392
 40
0.2705998479692565
 40
0.3730351572264754
 40
0.4741902248109082
 40
0.4741902248109082
 40
0.4741902248109082
 40
0.4741902248109082
 10
704.3832114849448
 20
194.2002970879539
 30
0.0
 10
704.3899668492478
 20
194.2223865503029
 30
0.0
 10
704.4008031475704
 20
194.2780257845777
 30
0.0
 10
704.396810145062
 20
194.3692262854925
 30
0.0
 10
704.3665249579548
 20
194.4669629482191
 30
0.0
 10
704.3128993247883
 20
194.5546742557698
 30
0.0
 10
704.2635974236754
 20
194.6025849943619
 30
0.0
 10
704.2365268824037
 20
194.6226875642788
 30
0.0
 11
704.3832114849448
 21
194.2002970879539
 31
0.0
 11
704.3966186792631
 21
194.2682857692481
 31
0.0
 11
704.3926683341035
 21
194.3676872305923
 31
0.0
 11
704.3627348063655
 21
194.4650098199955
 31
0.0
 11
704.3092431305705
 21
194.552369039333
 31
0.0
 11
704.2365268824037
 21
194.6226875642788
 31
0.0
  0
SPLINE
  5
51E
330
2
100
AcDbEntity
  8
0
100
AcDbSpline
210
0.0
220
0.0
230
1.0
 70
     8
 71
     3
 72
    19
 73
    15
 74
    13
 42
0.0000000001
 43
0.0000000001
 44
0.0000000001
 12
0.8754276874351161
 22
0.4833491120008442
 32
0.0
 13
-0.7953120721302828
 23
0.6062002209862976
 33
0.0
 40
0.0
 40
0.0
 40
0.0
 40
0.0
 40
0.1467279739378462
 40
0.3345709548653768
 40
0.5558607573015236
 40
0.8005469872655147
 40
1.057124846668753
 40
1.31338857520036
 40
1.557150673250725
 40
1.776961727938992
 40
1.962867652087263
 40
2.107355786437134
 40
2.207228939920351
 40
2.269275305386289
 40
2.269275305386289
 40
2.269275305386289
 40
2.269275305386289
 10
702.080088644514
 20
194.5319606810643
 30
0.0
 10
702.1229052214827
 20
194.5556009597005
 30
0.0
 10
702.2142888603987
 20
194.6205038461711
 30
0.0
 10
702.3532028191162
 20
194.7432767173471
 30
0.0
 10
702.5053262279317
 20
194.8996189424838
 30
0.0
 10
702.6629638953064
 20
195.0818522512156
 30
0.0
 10
702.8182469607751
 20
195.2811095079527
 30
0.0
 10
702.9633848476899
 20
195.487481241292
 30
0.0
 10
703.0912894757574
 20
195.6906548269843
 30
0.0
 10
703.1954116056129
 20
195.880594325706
 30
0.0
 10
703.271914115829
 20
196.0476292467874
 30
0.0
 10
703.3151735836112
 20
196.1848024718242
 30
0.0
 10
703.3311934416445
 20
196.2862596040338
 30
0.0
 10
703.309996391723
 20
196.3424081919205
 30
0.0
 10
703.2935476505607
 20
196.3549456987395
 30
0.0
 11
702.080088644514
 21
194.5319606810643
 31
0.0
 11
702.2015640931043
 21
194.614257787488
 31
0.0
 11
702.3433574603174
 21
194.737463414381
 31
0.0
 11
702.4983586350997
 21
194.8953995168982
 31
0.0
 11
702.6587952137942
 21
195.0801465205296
 31
0.0
 11
702.8166222338772
 21
195.2824404395377
 31
0.0
 11
702.9639255907812
 21
195.4921374104403
 31
0.0
 11
703.0933188783493
 21
195.6987223507875
 31
0.0
 11
703.1983137775287
 21
195.8918362314628
 31
0.0
 11
703.2736454053766
 21
196.0617955162319
 31
0.0
 11
703.3155363206292
 21
196.2000777355777
 31
0.0
 11
703.3218859343461
 21
196.2997488406801
 31
0.0
 11
703.2935476505607
 21
196.3549456987395
 31
0.0
  0
SPLINE
  5
51F
330
2
100
AcDbEntity
  8
0
100
AcDbSpline
210
0.0
220
0.0
230
1.0
 70
     8
 71
     3
 72
    19
 73
    15
 74
    13
 42
0.0000000001
 43
0.0000000001
 44
0.0000000001
 12
0.8754276873818323
 22
0.4833491120973504
 32
0.0
 13
-0.7953120720493013
 23
0.6062002210925421
 33
0.0
 40
0.0
 40
0.0
 40
0.0
 40
0.0
 40
0.1375574737662886
 40
0.3136602681303819
 40
0.5211194598585801
 40
0.7505127996321411
 40
0.9910545424626246
 40
1.231301788607757
 40
1.459828756184713
 40
1.665901619554936
 40
1.840188423526395
 40
1.975646047977702
 40
2.069277130246375
 40
2.127445597681455
 40
2.127445597681455
 40
2.127445597681455
 40
2.127445597681455
 10
702.1130052376597
 20
194.5880928752258
 30
0.0
 10
702.1531457780402
 20
194.6102556361616
 30
0.0
 10
702.2388179380213
 20
194.6711020931408
 30
0.0
 10
702.3690497758925
 20
194.786201657903
 30
0.0
 10
702.5116654707602
 20
194.9327724953851
 30
0.0
 10
702.659450784512
 20
195.1036162220622
 30
0.0
 10
702.8050286584072
 20
195.2904199000561
 30
0.0
 10
702.9410954278969
 20
195.4838934000307
 30
0.0
 10
703.0610060178741
 20
195.6743686363536
 30
0.0
 10
703.1586205127261
 20
195.8524369174103
 30
0.0
 10
703.2303416162323
 20
196.0090321555795
 30
0.0
 10
703.2708973646647
 20
196.1376320538961
 30
0.0
 10
703.2859159852367
 20
196.2327481156002
 30
0.0
 10
703.2660437484443
 20
196.2853874158899
 30
0.0
 10
703.2506230536563
 20
196.2971413284965
 30
0.0
 11
702.1130052376597
 21
194.5880928752258
 31
0.0
 11
702.2268884687703
 21
194.6652464121557
 31
0.0
 11
702.3598197509892
 21
194.7807516864529
 31
0.0
 11
702.5051333533771
 21
194.9288167842767
 31
0.0
 11
702.6555426454449
 21
195.1020170994962
 31
0.0
 11
702.8035054767737
 21
195.2916676481089
 31
0.0
 11
702.9416023746708
 21
195.4882585585588
 31
0.0
 11
703.0629085824521
 21
195.681931940477
 31
0.0
 11
703.1613412991752
 21
195.8629762038385
 31
0.0
 11
703.2319646997107
 21
196.0223130336532
 31
0.0
 11
703.2712374317317
 21
196.1519526130323
 31
0.0
 11
703.2771901958486
 21
196.2453942748656
 31
0.0
 11
703.2506230536563
 21
196.2971413284965
 31
0.0
  0
SPLINE
  5
520
330
2
100
AcDbEntity
  8
0
100
AcDbSpline
210
0.0
220
0.0
230
1.0
 70
     8
 71
     3
 72
    10
 73
     6
 74
     4
 42
0.0000000001
 43
0.0000000001
 44
0.0000000001
 12
-0.8754276889593365
 22
-0.483349109240221
 32
0.0
 13
-0.7953120739395036
 23
0.6062002186126673
 33
0.0
 40
0.0
 40
0.0
 40
0.0
 40
0.0
 40
0.0957262194568278
 40
0.1563013392460371
 40
0.1576669055801284
 40
0.1576669055801284
 40
0.1576669055801284
 40
0.1576669055801284
 10
702.1130052376597
 20
194.5880928752258
 30
0.0
 10
702.0850714433024
 20
194.5726698142574
 30
0.0
 10
702.0388835184503
 20
194.5491240193461
 30
0.0
 10
701.9798794401182
 20
194.5504668845475
 30
0.0
 10
701.9632472020727
 20
194.5627343021227
 30
0.0
 10
701.9628851849415
 20
194.5630102376595
 30
0.0
 11
702.1130052376597
 21
194.5880928752258
 31
0.0
 11
702.0238806356197
 21
194.5531598764609
 31
0.0
 11
701.9639837451014
 21
194.5621991045088
 31
0.0
 11
701.9628851849415
 21
194.5630102376595
 31
0.0
  0
SPLINE
  5
521
330
2
100
AcDbEntity
  8
0
100
AcDbSpline
210
0.0
220
0.0
230
1.0
 70
     8
 71
     3
 72
    10
 73
     6
 74
     4
 42
0.0000000001
 43
0.0000000001
 44
0.0000000001
 12
-0.8469686877542088
 22
-0.5316427766498042
 32
0.0
 13
-0.6735213031941149
 23
-0.739167811896393
 33
0.0
 40
0.0
 40
0.0
 40
0.0
 40
0.0
 40
0.0696759471624371
 40
0.1881155650944938
 40
0.2757987433212248
 40
0.2757987433212248
 40
0.2757987433212248
 40
0.2757987433212248
 10
704.3256068544082
 20
194.7945515735091
 30
0.0
 10
704.3059357392295
 20
194.7822040021707
 30
0.0
 10
704.2557428966766
 20
194.7443174740153
 30
0.0
 10
704.1881902091614
 20
194.681797601535
 30
0.0
 10
704.140805124284
 20
194.6320098340743
 30
0.0
 10
704.1211196281282
 20
194.6104056397443
 30
0.0
 11
704.3256068544082
 21
194.7945515735091
 31
0.0
 11
704.2693187568758
 21
194.7534859225444
 31
0.0
 11
704.1816809363174
 21
194.6738143749024
 31
0.0
 11
704.1211196281282
 21
194.6104056397443
 31
0.0
  0
SPLINE
  5
522
330
2
100
AcDbEntity
  8
0
100
AcDbSpline
210
0.0
220
0.0
230
1.0
 70
     8
 71
     3
 72
    15
 73
    11
 74
     9
 42
0.0000000001
 43
0.0000000001
 44
0.0000000001
 12
0.80284285977323
 22
-0.5961906930765877
 32
0.0
 13
-0.8754483997932444
 23
-0.483311596487657
 33
0.0
 40
0.0
 40
0.0
 40
0.0
 40
0.0
 40
0.0918004029838898
 40
0.1874318662989256
 40
0.2810716669121777
 40
0.3705717900357877
 40
0.4562359771226837
 40
0.5405151347560785
 40
0.6256583567794688
 40
0.6997997811158223
 40
0.6997997811158223
 40
0.6997997811158223
 40
0.6997997811158223
 10
704.5849206067472
 20
194.815045883549
 30
0.0
 10
704.6094877061006
 20
194.7968023682558
 30
0.0
 10
704.6562474190095
 20
194.754774274153
 30
0.0
 10
704.7139104249882
 20
194.6802544254181
 30
0.0
 10
704.755242810609
 20
194.5961936473672
 30
0.0
 10
704.7748113609989
 20
194.5077071993907
 30
0.0
 10
704.7691078013979
 20
194.4201052401007
 30
0.0
 10
704.737268856566
 20
194.3397299797772
 30
0.0
 10
704.6849203577181
 20
194.2760799813387
 30
0.0
 10
704.6411463820788
 20
194.2450727315634
 30
0.0
 10
704.6195107183144
 20
194.2331282615095
 30
0.0
 11
704.5849206067472
 21
194.815045883549
 31
0.0
 11
704.6532988699906
 21
194.7537945398591
 31
0.0
 11
704.7115702645477
 21
194.6779669633968
 31
0.0
 11
704.7522433270164
 21
194.5936217545921
 31
0.0
 11
704.7707562090663
 21
194.5060572341666
 31
0.0
 11
704.7646369290518
 21
194.4206118869477
 31
0.0
 11
704.7335988317172
 21
194.3422562047973
 31
0.0
 11
704.6798301110102
 21
194.2762388364004
 31
0.0
 11
704.6195107183144
 21
194.2331282615095
 31
0.0
  0
SPLINE
  5
523
330
2
100
AcDbEntity
  8
0
100
AcDbSpline
210
0.0
220
0.0
230
1.0
 70
     8
 71
     3
 72
    12
 73
     8
 74
     6
 42
0.0000000001
 43
0.0000000001
 44
0.0000000001
 12
0.8752944478716147
 22
0.4835903530108156
 32
0.0
 13
0.8028428599942511
 23
-0.5961906927789559
 33
0.0
 40
0.0
 40
0.0
 40
0.0
 40
0.0
 40
0.011963341867249
 40
0.0864256279580947
 40
0.1639609573352327
 40
0.2475059138803699
 40
0.3345250466497287
 40
0.3345250466497287
 40
0.3345250466497287
 40
0.3345250466497287
 10
704.2715626066932
 20
194.863469570496
 30
0.0
 10
704.2750530889313
 20
194.8653980227349
 30
0.0
 10
704.3006280679691
 20
194.878657859724
 30
0.0
 10
704.3543073168892
 20
194.8941908264236
 30
0.0
 10
704.4339341212729
 20
194.8897051088225
 30
0.0
 10
704.5128270816315
 20
194.8622918633106
 30
0.0
 10
704.5616330436049
 20
194.8323392158992
 30
0.0
 10
704.5849206067472
 20
194.815045883549
 30
0.0
 11
704.2715626066932
 21
194.863469570496
 31
0.0
 11
704.2821855645682
 21
194.868971780472
 31
0.0
 11
704.3536903296613
 21
194.8897491869236
 31
0.0
 11
704.4311535738707
 21
194.8864065684628
 31
0.0
 11
704.5104191864338
 21
194.8600110682946
 31
0.0
 11
704.5849206067472
 21
194.815045883549
 31
0.0
  0
SPLINE
  5
524
330
2
100
AcDbEntity
  8
0
100
AcDbSpline
210
0.0
220
0.0
230
1.0
 70
     8
 71
     3
 72
     9
 73
     5
 74
     3
 42
0.0000000001
 43
0.0000000001
 44
0.0000000001
 12
-0.8754276839387614
 22
-0.4833491183333391
 32
0.0
 13
-0.9838175396998167
 23
0.1791732362240509
 33
0.0
 40
0.0
 40
0.0
 40
0.0
 40
0.0
 40
0.0573944809566923
 40
0.0667824578357913
 40
0.0667824578357913
 40
0.0667824578357913
 40
0.0667824578357913
 10
712.8815172646262
 20
187.1554336908918
 30
0.0
 10
712.864769025448
 20
187.1461865003026
 30
0.0
 10
712.8436288565738
 20
187.1340638918637
 30
0.0
 10
712.8212589861623
 20
187.1363195875767
 30
0.0
 10
712.8181803007237
 20
187.1368802789764
 30
0.0
 11
712.8815172646262
 21
187.1554336908918
 31
0.0
 11
712.8275239965396
 21
187.1359695329184
 31
0.0
 11
712.8181803007237
 21
187.1368802789764
 31
0.0
  0
SPLINE
  5
525
330
2
100
AcDbEntity
  8
0
100
AcDbSpline
210
0.0
220
0.0
230
1.0
 70
     8
 71
     3
 72
     9
 73
     5
 74
     3
 42
0.0000000001
 43
0.0000000001
 44
0.0000000001
 12
-0.875427686494463
 22
-0.4833491137045274
 32
0.0
 13
-0.9950020597904478
 23
0.0998543990656703
 33
0.0
 40
0.0
 40
0.0
 40
0.0
 40
0.0
 40
0.0573944798558951
 40
0.0622517520911494
 40
0.0622517520911494
 40
0.0622517520911494
 40
0.0622517520911494
 10
706.1191027939521
 20
192.1771991726645
 30
0.0
 10
706.1023545550462
 20
192.1679519823412
 30
0.0
 10
706.0826659025202
 20
192.1566176645423
 30
0.0
 10
706.0618711942876
 20
192.1578509586844
 30
0.0
 10
706.0602601956612
 20
192.1580126320178
 30
0.0
 11
706.1191027939521
 21
192.1771991726645
 31
0.0
 11
706.0651095276949
 21
192.1577350128625
 31
0.0
 11
706.0602601956612
 21
192.1580126320178
 31
0.0
  0
SPLINE
  5
526
330
2
100
AcDbEntity
  8
0
100
AcDbSpline
210
0.0
220
0.0
230
1.0
 70
     8
 71
     3
 72
     9
 73
     5
 74
     3
 42
0.0000000001
 43
0.0000000001
 44
0.0000000001
 12
-0.8754276905827719
 22
-0.4833491062999027
 32
0.0
 13
-0.9988160153893433
 23
0.0486473781591055
 33
0.0
 40
0.0
 40
0.0
 40
0.0
 40
0.0
 40
0.0827717597359018
 40
0.0954813372232552
 40
0.0954813372232552
 40
0.0954813372232552
 40
0.0954813372232552
 10
705.6410865547618
 20
192.189725622389
 30
0.0
 10
705.6169329912714
 20
192.1763897370239
 30
0.0
 10
705.5871641449386
 20
192.1605404263147
 30
0.0
 10
705.5551755927232
 20
192.1600910420144
 30
0.0
 10
705.5509440828755
 20
192.1602971378885
 30
0.0
 11
705.6410865547618
 21
192.189725622389
 31
0.0
 11
705.5636522933751
 21
192.160483540157
 31
0.0
 11
705.5509440828755
 21
192.1602971378885
 31
0.0
  0
SPLINE
  5
527
330
2
100
AcDbEntity
  8
0
100
AcDbSpline
210
0.0
220
0.0
230
1.0
 70
     8
 71
     3
 72
     9
 73
     5
 74
     3
 42
0.0000000001
 43
0.0000000001
 44
0.0000000001
 12
-0.4150857326850771
 22
0.90978230061993
 32
0.0
 13
-0.8510537227391361
 23
0.52507862364779
 33
0.0
 40
0.0
 40
0.0
 40
0.0
 40
0.0
 40
0.0089190554094073
 40
0.0177005198949248
 40
0.0177005198949248
 40
0.0177005198949248
 40
0.0177005198949248
 10
713.4993877267231
 20
188.053058927794
 30
0.0
 10
713.4981536691733
 20
188.0557637273772
 30
0.0
 10
713.4949483796739
 20
188.0608538492497
 30
0.0
 10
713.4902486812001
 20
188.0645840539254
 30
0.0
 10
713.4877575151863
 20
188.066121040354
 30
0.0
 11
713.4993877267231
 21
188.053058927794
 31
0.0
 11
713.4945440310521
 21
188.0605481307985
 31
0.0
 11
713.4877575151863
 21
188.066121040354
 31
0.0
  0
SPLINE
  5
528
330
2
100
AcDbEntity
  8
0
100
AcDbSpline
210
0.0
220
0.0
230
1.0
 70
     8
 71
     3
 72
    19
 73
    15
 74
    13
 42
0.0000000001
 43
0.0000000001
 44
0.0000000001
 12
-0.7953120721302828
 22
0.6062002209862976
 32
0.0
 13
0.8754276874351161
 23
0.4833491120008442
 33
0.0
 40
0.0
 40
0.0
 40
0.0
 40
0.0
 40
0.062046365465738
 40
0.1619195190650665
 40
0.3064076528844403
 40
0.4923135753614273
 40
0.7121246300494433
 40
0.9558867296500475
 40
1.212150458181306
 40
1.468728317584342
 40
1.71341454754932
 40
1.9347043499848
 40
2.122547330911905
 40
2.26927530485026
 40
2.26927530485026
 40
2.26927530485026
 40
2.26927530485026
 10
699.1586413478727
 20
196.555760105746
 30
0.0
 10
699.1421926067105
 20
196.5682976125649
 30
0.0
 10
699.1209955563036
 20
196.6244462005367
 30
0.0
 10
699.1370154181061
 20
196.725903332245
 30
0.0
 10
699.1802748810371
 20
196.8630765576936
 30
0.0
 10
699.2567773937755
 20
197.030111477246
 30
0.0
 10
699.3608995229608
 20
197.2200509760262
 30
0.0
 10
699.4888041502014
 20
197.4232245629458
 30
0.0
 10
699.6339420377251
 20
197.6295962964842
 30
0.0
 10
699.7892251031101
 20
197.8288535532815
 30
0.0
 10
699.9468627705052
 20
198.0110868619989
 30
0.0
 10
700.0989861793161
 20
198.1674290871388
 30
0.0
 10
700.2379001380347
 20
198.2902019583136
 30
0.0
 10
700.3292837769499
 20
198.355104844785
 30
0.0
 10
700.3721003539189
 20
198.3787451234213
 30
0.0
 11
699.1586413478727
 21
196.555760105746
 31
0.0
 11
699.1303030640871
 21
196.6109569638051
 31
0.0
 11
699.1366526796325
 21
196.7106280689073
 31
0.0
 11
699.1785435930561
 21
196.8489102882529
 31
0.0
 11
699.2538752209046
 21
197.0188695711936
 31
0.0
 11
699.3588701200833
 21
197.211983451869
 31
0.0
 11
699.4882634076518
 21
197.4185683940451
 31
0.0
 11
699.6355667645558
 21
197.6282653649473
 31
0.0
 11
699.7933937846388
 21
197.8305592839552
 31
0.0
 11
699.9538303633336
 21
198.0153062875877
 31
0.0
 11
700.1088315381157
 21
198.1732423901042
 31
0.0
 11
700.2506249053285
 21
198.2964480169969
 31
0.0
 11
700.3721003539189
 21
198.3787451234213
 31
0.0
  0
SPLINE
  5
529
330
2
100
AcDbEntity
  8
0
100
AcDbSpline
210
0.0
220
0.0
230
1.0
 70
     8
 71
     3
 72
     9
 73
     5
 74
     3
 42
0.0000000001
 43
0.0000000001
 44
0.0000000001
 12
-0.2810371587168253
 22
0.959696887262001
 32
0.0
 13
-0.8356487301234134
 23
0.54926423499362
 33
0.0
 40
0.0
 40
0.0
 40
0.0
 40
0.0
 40
0.0284409546252124
 40
0.0340801589609166
 40
0.0340801589609166
 40
0.0340801589609166
 40
0.0340801589609166
 10
706.5887419806569
 20
193.5571821797234
 30
0.0
 10
706.5860776589638
 20
193.5662804115982
 30
0.0
 10
706.5806665968946
 20
193.5772955766989
 30
0.0
 10
706.5715667410469
 20
193.5841779431581
 30
0.0
 10
706.5699959430662
 20
193.5852104142433
 30
0.0
 11
706.5887419806569
 21
193.5571821797234
 31
0.0
 11
706.574477227271
 21
193.5817871530181
 31
0.0
 11
706.5699959430662
 21
193.5852104142433
 31
0.0
  0
SPLINE
  5
52A
330
2
100
AcDbEntity
  8
0
100
AcDbSpline
210
0.0
220
0.0
230
1.0
 70
     8
 71
     3
 72
     9
 73
     5
 74
     3
 42
0.0000000001
 43
0.0000000001
 44
0.0000000001
 12
-0.8351755117349476
 22
0.5499835130240435
 32
0.0
 13
-0.8754276894017763
 23
-0.4833491084388875
 33
0.0
 40
0.0
 40
0.0
 40
0.0
 40
0.0
 40
0.0459419887987199
 40
0.1287137485353242
 40
0.1287137485353242
 40
0.1287137485353242
 40
0.1287137485353242
 10
706.4009656210307
 20
193.7107347876291
 30
0.0
 10
706.3881757463624
 20
193.719157233094
 30
0.0
 10
706.3416438840759
 20
193.7246994257497
 30
0.0
 10
706.3026362646089
 20
193.7038443937698
 30
0.0
 10
706.278482701151
 20
193.6905085083456
 30
0.0
 11
706.4009656210307
 21
193.7107347876291
 31
0.0
 11
706.3559169625383
 21
193.7197505905781
 31
0.0
 11
706.278482701151
 21
193.6905085083456
 31
0.0
  0
SPLINE
  5
52B
330
2
100
AcDbEntity
  8
0
100
AcDbSpline
210
0.0
220
0.0
230
1.0
 70
     8
 71
     3
 72
     9
 73
     5
 74
     3
 42
0.0000000001
 43
0.0000000001
 44
0.0000000001
 12
-0.7953120735842801
 22
0.6062002190787074
 32
0.0
 13
0.1012271348859624
 23
0.9948633409482829
 33
0.0
 40
0.0
 40
0.0
 40
0.0
 40
0.0
 40
0.062046365465589
 40
0.1155944289018568
 40
0.1155944289018568
 40
0.1155944289018568
 40
0.1155944289018568
 10
701.9199605898661
 20
194.5052058674164
 30
0.0
 10
701.9035118486739
 20
194.5177433741958
 30
0.0
 10
701.8885323587845
 20
194.558091621507
 30
0.0
 10
701.8881001185035
 20
194.5961656388528
 30
0.0
 10
701.8899069575169
 20
194.6139233072833
 30
0.0
 11
701.9199605898661
 21
194.5052058674164
 31
0.0
 11
701.8916223060803
 21
194.5604027254752
 31
0.0
 11
701.8899069575169
 21
194.6139233072833
 31
0.0
  0
SPLINE
  5
52C
330
2
100
AcDbEntity
  8
0
100
AcDbSpline
210
0.0
220
0.0
230
1.0
 70
     8
 71
     3
 72
     8
 73
     4
 74
     0
 42
0.0000000001
 43
0.0000000001
 40
0.0948020263355762
 40
0.0948020263355762
 40
0.0948020263355762
 40
0.0948020263355762
 40
0.177176885747706
 40
0.177176885747706
 40
0.177176885747706
 40
0.177176885747706
 10
706.2120128548703
 20
193.6476389092823
 30
0.0
 10
706.2333472336155
 20
193.6632126468352
 30
0.0
 10
706.2554064666637
 20
193.6777674475534
 30
0.0
 10
706.278482701151
 20
193.6905085083456
 30
0.0
  0
SPLINE
  5
52D
330
2
100
AcDbEntity
  8
0
100
AcDbSpline
210
0.0
220
0.0
230
1.0
 70
     8
 71
     3
 72
    11
 73
     7
 74
     0
 42
0.0000000001
 43
0.0000000001
 40
0.0
 40
0.0
 40
0.0
 40
0.0
 40
0.0058368079853051
 40
0.0647296326449272
 40
0.1607182351658714
 40
0.2582784275376029
 40
0.2582784275376029
 40
0.2582784275376029
 40
0.2582784275376029
 10
705.349543272978
 20
192.2950434803329
 30
0.0
 10
705.3479833500647
 20
192.2960707277399
 30
0.0
 10
705.331389591103
 20
192.308777283824
 30
0.0
 10
705.3211120501543
 20
192.3661896405665
 30
0.0
 10
705.3378746397222
 20
192.4436039616865
 30
0.0
 10
705.3582133348227
 20
192.5024758410277
 30
0.0
 10
705.3696237877952
 20
192.5316686658108
 30
0.0
  0
SPLINE
  5
52E
330
2
100
AcDbEntity
  8
0
100
AcDbSpline
210
0.0
220
0.0
230
1.0
 70
     8
 71
     3
 72
    10
 73
     6
 74
     4
 42
0.0000000001
 43
0.0000000001
 44
0.0000000001
 12
-0.7953120691179623
 22
0.6062002249383497
 32
0.0
 13
-0.9241408258153755
 23
-0.382052004393742
 33
0.0
 40
0.0
 40
0.0
 40
0.0
 40
0.0
 40
0.0014566032536336
 40
0.0660700643305894
 40
0.1154781484160848
 40
0.1154781484160848
 40
0.1154781484160848
 40
0.1154781484160848
 10
703.2935476505607
 20
196.3549456987395
 30
0.0
 10
703.2931614991782
 20
196.3552400298128
 30
0.0
 10
703.2754225892563
 20
196.3683268009691
 30
0.0
 10
703.231872700139
 20
196.3690736984748
 30
0.0
 10
703.1961823755688
 20
196.3582290418331
 30
0.0
 10
703.1809623663592
 20
196.3519368893138
 30
0.0
 11
703.2935476505607
 21
196.3549456987395
 31
0.0
 11
703.2923758542758
 21
196.3558109076768
 31
0.0
 11
703.2284858374788
 21
196.3654527490995
 31
0.0
 11
703.1809623663592
 21
196.3519368893138
 31
0.0
  0
SPLINE
  5
52F
330
2
100
AcDbEntity
  8
0
100
AcDbSpline
210
0.0
220
0.0
230
1.0
 70
     8
 71
     3
 72
    10
 73
     6
 74
     4
 42
0.0000000001
 43
0.0000000001
 44
0.0000000001
 12
-0.7953120692931933
 22
0.6062002247084532
 32
0.0
 13
-0.8754276886621536
 23
-0.4833491097784702
 33
0.0
 40
0.0
 40
0.0
 40
0.0
 40
0.0
 40
0.0014566043399583
 40
0.0660700654176627
 40
0.1681780317806446
 40
0.1681780317806446
 40
0.1681780317806446
 40
0.1681780317806446
 10
700.5322284085671
 20
198.4054999352401
 30
0.0
 10
700.5318422568966
 20
198.4057942665328
 30
0.0
 10
700.5141012357
 20
198.4188795564074
 30
0.0
 10
700.4511634963653
 20
198.4203118669546
 30
0.0
 10
700.4018964009145
 20
198.3951963883022
 30
0.0
 10
700.3721003539189
 20
198.3787451234213
 30
0.0
 11
700.5322284085671
 21
198.4054999352401
 31
0.0
 11
700.5310566122825
 21
198.4063651460066
 31
0.0
 11
700.4671665954847
 21
198.416006987429
 31
0.0
 11
700.3721003539189
 21
198.3787451234213
 31
0.0
  0
SPLINE
  5
530
330
2
100
AcDbEntity
  8
0
100
AcDbSpline
210
0.0
220
0.0
230
1.0
 70
     8
 71
     3
 72
    11
 73
     7
 74
     5
 42
0.0000000001
 43
0.0000000001
 44
0.0000000001
 12
-0.8028428582195219
 22
0.5961906951688433
 32
0.0
 13
-0.9922863361082077
 23
-0.1239670406719021
 33
0.0
 40
0.0
 40
0.0
 40
0.0
 40
0.0
 40
0.0774388020874699
 40
0.1535393089977454
 40
0.2225610737941119
 40
0.2468698236948504
 40
0.2468698236948504
 40
0.2468698236948504
 40
0.2468698236948504
 10
704.4360854085588
 20
194.7328696370308
 30
0.0
 10
704.4153616788238
 20
194.748259068114
 30
0.0
 10
704.3722914087128
 20
194.7762610575616
 30
0.0
 10
704.3039158465712
 20
194.8061779216797
 30
0.0
 10
704.2473364546728
 20
194.8157424978522
 30
0.0
 10
704.2162047530442
 20
194.8137684947735
 30
0.0
 10
704.208164339586
 20
194.8127640001777
 30
0.0
 11
704.4360854085588
 21
194.7328696370308
 31
0.0
 11
704.3708729681942
 21
194.7746321284608
 31
0.0
 11
704.3006749666548
 21
194.8040179708321
 31
0.0
 11
704.2324241671142
 21
194.8143054572927
 31
0.0
 11
704.208164339586
 21
194.8127640001777
 31
0.0
  0
SPLINE
  5
531
330
2
100
AcDbEntity
  8
0
100
AcDbSpline
210
0.0
220
0.0
230
1.0
 70
     8
 71
     3
 72
    20
 73
    16
 74
    14
 42
0.0000000001
 43
0.0000000001
 44
0.0000000001
 12
0.4371230310110132
 22
-0.8994017210122208
 32
0.0
 13
-0.8754277010375371
 23
-0.483349087364539
 33
0.0
 40
0.0
 40
0.0
 40
0.0
 40
0.0
 40
0.0678480329678516
 40
0.1679627151388788
 40
0.2996935517196274
 40
0.4606494407502562
 40
0.6466165125748301
 40
0.8502199452490344
 40
1.06294665581105
 40
1.278101727230541
 40
1.489567496558551
 40
1.689119153094412
 40
1.866977214173316
 40
2.015415662417105
 40
2.130344232469316
 40
2.130344232469316
 40
2.130344232469316
 40
2.130344232469316
 10
700.5202546734085
 20
198.3352502225521
 30
0.0
 10
700.5301406526815
 20
198.3149093433459
 30
0.0
 10
700.5302715162916
 20
198.2557102401371
 30
0.0
 10
700.5099808690273
 20
198.1589007292182
 30
0.0
 10
700.4643065268854
 20
198.0352543376558
 30
0.0
 10
700.3963704255779
 20
197.8909910127642
 30
0.0
 10
700.3074044496568
 20
197.7302824090162
 30
0.0
 10
700.2010779375293
 20
197.559920297989
 30
0.0
 10
700.0815116646919
 20
197.3865884219281
 30
0.0
 10
699.9529968238188
 20
197.2165020453537
 30
0.0
 10
699.8199199412936
 20
197.0556049087973
 30
0.0
 10
699.6875948122168
 20
196.910511275294
 30
0.0
 10
699.5621961557588
 20
196.7878367595984
 30
0.0
 10
699.4497206011539
 20
196.6929033448348
 30
0.0
 10
699.3769940653341
 20
196.643130938621
 30
0.0
 10
699.3434568473793
 20
196.6246140654721
 30
0.0
 11
700.5202546734085
 21
198.3352502225521
 31
0.0
 11
700.5283694412277
 21
198.2678892091924
 31
0.0
 11
700.5100215279107
 21
198.1694701883523
 31
0.0
 11
700.4661838294546
 21
198.0452475273748
 31
0.0
 11
700.3984514233908
 21
197.899236844949
 31
0.0
 11
700.3089288250929
 21
197.7362354455777
 31
0.0
 11
700.2014133695129
 21
197.5633343622724
 31
0.0
 11
700.0807374503366
 21
197.3881488151588
 31
0.0
 11
699.9510057762468
 21
197.2165055878081
 31
0.0
 11
699.8160623275672
 21
197.0536926974832
 31
0.0
 11
699.6812681309124
 21
196.9065485906546
 31
0.0
 11
699.5535859746952
 21
196.7827311570094
 31
0.0
 11
699.4394026503059
 21
196.687883166264
 31
0.0
 11
699.3434568473793
 21
196.6246140654721
 31
0.0
  0
SPLINE
  5
532
330
2
100
AcDbEntity
  8
0
100
AcDbSpline
210
0.0
220
0.0
230
1.0
 70
     8
 71
     3
 72
    19
 73
    15
 74
    13
 42
0.0000000001
 43
0.0000000001
 44
0.0000000001
 12
0.8754276872645178
 22
0.4833491123098268
 32
0.0
 13
-0.8351755120604387
 23
0.5499835125297704
 33
0.0
 40
0.0
 40
0.0
 40
0.0
 40
0.0
 40
0.1248223838011965
 40
0.2864320459600596
 40
0.4770387346601435
 40
0.6865156554199653
 40
0.9033961707224012
 40
1.115710813173867
 40
1.311798960431241
 40
1.481134345453845
 40
1.615256778121797
 40
1.709286427427483
 40
1.766977357243152
 40
1.772695048333332
 40
1.772695048333332
 40
1.772695048333332
 40
1.772695048333332
 10
704.3367279664307
 20
193.1381976239429
 30
0.0
 10
704.3731522900206
 20
193.1583085534118
 30
0.0
 10
704.4509655555001
 20
193.2145593659986
 30
0.0
 10
704.5690112506295
 20
193.3212134193482
 30
0.0
 10
704.6979818632528
 20
193.4571977359218
 30
0.0
 10
704.8303215746471
 20
193.6147338102328
 30
0.0
 10
704.9583645221176
 20
193.7849531030831
 30
0.0
 10
705.0747496227771
 20
193.9579484707609
 30
0.0
 10
705.1727424925802
 20
194.1240041201682
 30
0.0
 10
705.2473039350862
 20
194.2727188663979
 30
0.0
 10
705.2938314764248
 20
194.3981977539596
 30
0.0
 10
705.3136415715251
 20
194.4895484731698
 30
0.0
 10
705.3031494099559
 20
194.5481273402775
 30
0.0
 10
705.2862171010932
 20
194.5610933201128
 30
0.0
 10
705.2846253425652
 20
194.5621415320559
 30
0.0
 11
704.3367279664307
 21
193.1381976239429
 31
0.0
 11
704.4396549262362
 21
193.208813970797
 31
0.0
 11
704.56051255498
 21
193.3161038420688
 31
0.0
 11
704.6922770463392
 21
193.4538319386724
 31
0.0
 11
704.8272907245973
 21
193.6139940035138
 31
0.0
 11
704.9577070886059
 21
193.7872820005495
 31
0.0
 11
705.0759468102661
 21
193.9636250628485
 31
0.0
 11
705.1751382302726
 21
194.1327747707759
 31
0.0
 11
705.2495167003622
 21
194.284900757405
 31
0.0
 11
705.2947596158197
 21
194.4111620164898
 31
0.0
 11
705.3082376231027
 21
194.5042206983429
 31
0.0
 11
705.2891674288836
 21
194.5586685731907
 31
0.0
 11
705.2846253425652
 21
194.5621415320559
 31
0.0
  0
SPLINE
  5
533
330
2
100
AcDbEntity
  8
0
100
AcDbSpline
210
0.0
220
0.0
230
1.0
 70
     8
 71
     3
 72
     9
 73
     5
 74
     3
 42
0.0000000001
 43
0.0000000001
 44
0.0000000001
 12
-0.8754276860889659
 22
-0.4833491144389522
 32
0.0
 13
-0.8351755078795637
 23
0.5499835188786232
 33
0.0
 40
0.0
 40
0.0
 40
0.0
 40
0.0
 40
0.0844609794417029
 40
0.1313405591098676
 40
0.1313405591098676
 40
0.1313405591098676
 40
0.1313405591098676
 10
704.3367279664307
 20
193.1381976239429
 30
0.0
 10
704.312081473165
 20
193.1245895774036
 30
0.0
 10
704.2722777793488
 20
193.1033089348816
 30
0.0
 10
704.2247962874146
 20
193.1089642323195
 30
0.0
 10
704.2117453951617
 20
193.1175585643827
 30
0.0
 11
704.3367279664307
 21
193.1381976239429
 31
0.0
 11
704.2577134133604
 21
193.1083587658658
 31
0.0
 11
704.2117453951617
 21
193.1175585643827
 31
0.0
  0
SPLINE
  5
534
330
2
100
AcDbEntity
  8
0
100
AcDbSpline
210
0.0
220
0.0
230
1.0
 70
     8
 71
     3
 72
    15
 73
    11
 74
     9
 42
0.0000000001
 43
0.0000000001
 44
0.0000000001
 12
-0.8028428601767924
 22
0.5961906925331421
 32
0.0
 13
0.8752944481988771
 23
0.4835903524184733
 33
0.0
 40
0.0
 40
0.0
 40
0.0
 40
0.0
 40
0.0903094644862572
 40
0.1848643435489728
 40
0.2813106549790906
 40
0.3776085776172775
 40
0.4708305573425835
 40
0.5586285182005612
 40
0.639563410114591
 40
0.7035313551536577
 40
0.7035313551536577
 40
0.7035313551536577
 40
0.7035313551536577
 10
704.2557546862645
 20
194.2537239437617
 30
0.0
 10
704.2315865833414
 20
194.2716711644864
 30
0.0
 10
704.1872513746727
 20
194.3158821146337
 30
0.0
 10
704.141361840117
 20
194.3989187821668
 30
0.0
 10
704.1173044192158
 20
194.4925628637075
 30
0.0
 10
704.1147258728474
 20
194.5885874615745
 30
0.0
 10
704.1317732571791
 20
194.6801470886634
 30
0.0
 10
704.1662697215874
 20
194.7611994333692
 30
0.0
 10
704.2137951009646
 20
194.8236982604818
 30
0.0
 10
704.2528990109748
 20
194.8531581434677
 30
0.0
 10
704.2715626066932
 20
194.863469570496
 30
0.0
 11
704.2557546862645
 21
194.2537239437617
 31
0.0
 11
704.1916532784758
 21
194.3173384774415
 31
0.0
 11
704.1453866245523
 21
194.3998007226771
 31
0.0
 11
704.1208979793972
 21
194.4930862909443
 31
0.0
 11
704.1181472099942
 21
194.5893449174259
 31
0.0
 11
704.1354775991078
 21
194.6809418339519
 31
0.0
 11
704.1704877055673
 21
194.7614575117825
 31
0.0
 11
704.220227146449
 21
194.8253045536083
 31
0.0
 11
704.2715626066932
 21
194.863469570496
 31
0.0
  0
SPLINE
  5
535
330
2
100
AcDbEntity
  8
0
100
AcDbSpline
210
0.0
220
0.0
230
1.0
 70
     8
 71
     3
 72
    12
 73
     8
 74
     6
 42
0.0000000001
 43
0.0000000001
 44
0.0000000001
 12
-0.8754483987047402
 22
-0.4833115984593234
 32
0.0
 13
-0.8028428607933062
 23
0.5961906917029315
 33
0.0
 40
0.0
 40
0.0
 40
0.0
 40
0.0
 40
0.0144689173164687
 40
0.1065996891419507
 40
0.2004419312939442
 40
0.2938118881821889
 40
0.3833418095328267
 40
0.3833418095328267
 40
0.3833418095328267
 40
0.3833418095328267
 10
704.6195107183144
 20
194.2331282615095
 30
0.0
 10
704.6152884548157
 20
194.2307972629907
 30
0.0
 10
704.5838108977899
 20
194.2143068191269
 30
0.0
 10
704.5196002652071
 20
194.192768459824
 30
0.0
 10
704.4255978239877
 20
194.1870581591836
 30
0.0
 10
704.334218923652
 20
194.2065093008895
 30
0.0
 10
704.2797141723257
 20
194.2359316418489
 30
0.0
 10
704.2557546862645
 20
194.2537239437617
 30
0.0
 11
704.6195107183144
 21
194.2331282615095
 31
0.0
 11
704.6066942629722
 21
194.2264134986116
 31
0.0
 11
704.5194106261093
 21
194.1969237401667
 31
0.0
 11
704.4257360665957
 21
194.191316306525
 31
0.0
 11
704.3344853949442
 21
194.2110966951075
 31
0.0
 11
704.2557546862645
 21
194.2537239437617
 31
0.0
  0
SPLINE
  5
536
330
2
100
AcDbEntity
  8
0
100
AcDbSpline
210
0.0
220
0.0
230
1.0
 70
     8
 71
     3
 72
    12
 73
     8
 74
     6
 42
0.0000000001
 43
0.0000000001
 44
0.0000000001
 12
0.4995066139888705
 22
0.8663100730000625
 32
0.0
 13
-0.7953120719709269
 23
0.6062002211953664
 33
0.0
 40
0.0
 40
0.0
 40
0.0
 40
0.0
 40
0.1938846325854644
 40
0.379790555062553
 40
0.5242786894121673
 40
0.624151842895137
 40
0.6861982083609933
 40
0.6861982083609933
 40
0.6861982083609933
 40
0.6861982083609933
 10
704.2334227028873
 20
194.8841867691934
 30
0.0
 10
704.265704921663
 20
194.940174839263
 30
0.0
 10
704.3260902143688
 20
195.0514997554779
 30
0.0
 10
704.3989822601661
 20
195.2106692561104
 30
0.0
 10
704.4422428128557
 20
195.3478414082502
 30
0.0
 10
704.4582624981525
 20
195.4492987111797
 30
0.0
 10
704.4370654698608
 20
195.5054472776779
 30
0.0
 10
704.4206167287017
 20
195.5179847845011
 30
0.0
 11
704.2334227028873
 21
194.8841867691934
 31
0.0
 11
704.3253828556692
 21
195.0548753190529
 31
0.0
 11
704.4007144835172
 21
195.2248346019939
 31
0.0
 11
704.4426053987697
 21
195.3631168213395
 31
0.0
 11
704.4489550124867
 21
195.4627879264416
 31
0.0
 11
704.4206167287017
 21
195.5179847845011
 31
0.0
  0
SPLINE
  5
537
330
2
100
AcDbEntity
  8
0
100
AcDbSpline
210
0.0
220
0.0
230
1.0
 70
     8
 71
     3
 72
     9
 73
     5
 74
     3
 42
0.0000000001
 43
0.0000000001
 44
0.0000000001
 12
0.5277670053373216
 22
0.8493891852839166
 32
0.0
 13
0.4995066182757566
 23
0.8663100705282824
 33
0.0
 40
0.0
 40
0.0
 40
0.0
 40
0.0
 40
0.1040712631128602
 40
0.1300096531135828
 40
0.1300096531135828
 40
0.1300096531135828
 40
0.1300096531135828
 10
704.1665971018162
 20
194.7726695096785
 30
0.0
 10
704.1849055614411
 20
194.8021351781408
 30
0.0
 10
704.2073244434589
 20
194.8392302999239
 30
0.0
 10
704.2291039037297
 20
194.8766965397031
 30
0.0
 10
704.2334227028873
 20
194.8841867691934
 30
0.0
 11
704.1665971018162
 21
194.7726695096785
 31
0.0
 11
704.2203879564903
 21
194.8617614383777
 31
0.0
 11
704.2334227028873
 21
194.8841867691934
 31
0.0
  0
SPLINE
  5
538
330
2
100
AcDbEntity
  8
0
100
AcDbSpline
210
0.0
220
0.0
230
1.0
 70
     8
 71
     3
 72
    14
 73
    10
 74
     8
 42
0.0000000001
 43
0.0000000001
 44
0.0000000001
 12
0.8754276873744318
 22
0.4833491121107539
 32
0.0
 13
0.5277670065668759
 23
0.8493891845199343
 33
0.0
 40
0.0
 40
0.0
 40
0.0
 40
0.0
 40
0.1467279729124539
 40
0.3345709538397457
 40
0.55586075758045
 40
0.8005469875451042
 40
1.057124845506285
 40
1.313388574038125
 40
1.453103770331445
 40
1.453103770331445
 40
1.453103770331445
 40
1.453103770331445
 10
703.2071577226547
 20
193.6949997686548
 30
0.0
 10
703.2499742993214
 20
193.7186400471311
 30
0.0
 10
703.3413579378979
 20
193.7835429226298
 30
0.0
 10
703.4802719043458
 20
193.9063158467776
 30
0.0
 10
703.6323952746646
 20
194.0626578297629
 30
0.0
 10
703.7900331035382
 20
194.2448921858811
 30
0.0
 10
703.945315527878
 20
194.444145274961
 30
0.0
 10
704.0704963382384
 20
194.6221503964274
 30
0.0
 10
704.1420180781764
 20
194.7331119841303
 30
0.0
 10
704.1665971018162
 20
194.7726695096785
 30
0.0
 11
703.2071577226547
 21
193.6949997686548
 31
0.0
 11
703.3286331712453
 21
193.7772968732498
 31
0.0
 11
703.4704265384581
 21
193.9005025001428
 31
0.0
 11
703.6254277132402
 21
194.0584386044881
 31
0.0
 11
703.7858642919352
 21
194.24318560812
 31
0.0
 11
703.9436913120182
 21
194.4454795252991
 31
0.0
 11
704.0909946689222
 21
194.655176496202
 31
0.0
 11
704.1665971018162
 21
194.7726695096785
 31
0.0
  0
SPLINE
  5
539
330
2
100
AcDbEntity
  8
0
100
AcDbSpline
210
0.0
220
0.0
230
1.0
 70
     8
 71
     3
 72
    10
 73
     6
 74
     4
 42
0.0000000001
 43
0.0000000001
 44
0.0000000001
 12
-0.8754276886621536
 22
-0.4833491097784702
 32
0.0
 13
-0.7953120692931933
 23
0.6062002247084532
 33
0.0
 40
0.0
 40
0.0
 40
0.0
 40
0.0
 40
0.1021079670303838
 40
0.1667214283800138
 40
0.1681780316341455
 40
0.1681780316341455
 40
0.1681780316341455
 40
0.1681780316341455
 10
703.2071577226547
 20
193.6949997686548
 30
0.0
 10
703.1773616754643
 20
193.6785485036663
 30
0.0
 10
703.1280945653543
 20
193.65343300109
 30
0.0
 10
703.0651568606258
 20
193.6548653616989
 30
0.0
 10
703.0474158193895
 20
193.6679506239331
 30
0.0
 10
703.0470296680067
 20
193.6682449550064
 30
0.0
 11
703.2071577226547
 21
193.6949997686548
 31
0.0
 11
703.1120914810891
 21
193.6577379028177
 31
0.0
 11
703.0482014642923
 21
193.6673797460692
 31
0.0
 11
703.0470296680067
 21
193.6682449550064
 31
0.0
  0
SPLINE
  5
53A
330
2
100
AcDbEntity
  8
0
100
AcDbSpline
210
0.0
220
0.0
230
1.0
 70
     8
 71
     3
 72
    19
 73
    15
 74
    13
 42
0.0000000001
 43
0.0000000001
 44
0.0000000001
 12
0.8754276874351161
 22
0.4833491120008442
 32
0.0
 13
-0.7953120721302828
 23
0.6062002209862976
 33
0.0
 40
0.0
 40
0.0
 40
0.0
 40
0.0
 40
0.1467279729124281
 40
0.3345709538398096
 40
0.5558607588617831
 40
0.8005469876270053
 40
1.05712484558823
 40
1.31338857411994
 40
1.557150674690563
 40
1.776961729378688
 40
1.962867651114853
 40
2.10735578546444
 40
2.207228938947694
 40
2.269275304413457
 40
2.269275304413457
 40
2.269275304413457
 40
2.269275304413457
 10
699.8823039415907
 20
196.1640344631888
 30
0.0
 10
699.9251205182603
 20
196.1876747416598
 30
0.0
 10
700.0165041582664
 20
196.2525776259195
 30
0.0
 10
700.1554181165489
 20
196.3753504985767
 30
0.0
 10
700.3075415264687
 20
196.5316927232294
 30
0.0
 10
700.4651791915805
 20
196.7139260339104
 30
0.0
 10
700.6204622586218
 20
196.9131832882492
 30
0.0
 10
700.7656001449695
 20
197.1195550224791
 30
0.0
 10
700.8935047743038
 20
197.3227286083147
 30
0.0
 10
700.9976269044998
 20
197.5126681069689
 30
0.0
 10
701.0741294129431
 20
197.679703027943
 30
0.0
 10
701.1173888807209
 20
197.8168762521059
 30
0.0
 10
701.1334087387167
 20
197.9183333843322
 30
0.0
 10
701.1122116887993
 20
197.9744819722165
 30
0.0
 10
701.0957629476371
 20
197.9870194790354
 30
0.0
 11
699.8823039415907
 21
196.1640344631888
 31
0.0
 11
700.0037793901809
 21
196.2463315677844
 31
0.0
 11
700.145572757394
 21
196.3695371946772
 31
0.0
 11
700.3005739340052
 21
196.5274732990226
 31
0.0
 11
700.461010510871
 21
196.7122203026544
 31
0.0
 11
700.618837530954
 21
196.9145142198336
 31
0.0
 11
700.7661408878577
 21
197.1242111907365
 31
0.0
 11
700.8955341772548
 21
197.3307961329119
 31
0.0
 11
701.0005290764337
 21
197.5239100135873
 31
0.0
 11
701.0758607024532
 21
197.6938692965283
 31
0.0
 11
701.1177516177057
 21
197.8321515158739
 31
0.0
 11
701.1241012314227
 21
197.9318226209763
 31
0.0
 11
701.0957629476371
 21
197.9870194790354
 31
0.0
  0
SPLINE
  5
53B
330
2
100
AcDbEntity
  8
0
100
AcDbSpline
210
0.0
220
0.0
230
1.0
 70
     8
 71
     3
 72
    10
 73
     6
 74
     4
 42
0.0000000001
 43
0.0000000001
 44
0.0000000001
 12
-0.8754276886621536
 22
-0.4833491097784702
 32
0.0
 13
-0.7953120692931933
 23
0.6062002247084532
 33
0.0
 40
0.0
 40
0.0
 40
0.0
 40
0.0
 40
0.1021079670306287
 40
0.166721428380405
 40
0.1681780316342216
 40
0.1681780316342216
 40
0.1681780316342216
 40
0.1681780316342216
 10
699.8823039415907
 20
196.1640344631888
 30
0.0
 10
699.8525078944002
 20
196.1475831982003
 30
0.0
 10
699.8032407842924
 20
196.1224676956289
 30
0.0
 10
699.7403030795581
 20
196.1239000562272
 30
0.0
 10
699.7225620383253
 20
196.1369853184676
 30
0.0
 10
699.7221758869427
 20
196.1372796495409
 30
0.0
 11
699.8823039415907
 21
196.1640344631888
 31
0.0
 11
699.7872377000248
 21
196.1267725973519
 31
0.0
 11
699.7233476832279
 21
196.1364144406036
 31
0.0
 11
699.7221758869427
 21
196.1372796495409
 31
0.0
  0
SPLINE
  5
53C
330
2
100
AcDbEntity
  8
0
100
AcDbSpline
210
0.0
220
0.0
230
1.0
 70
     8
 71
     3
 72
     9
 73
     5
 74
     3
 42
0.0000000001
 43
0.0000000001
 44
0.0000000001
 12
-0.8754276904792186
 22
-0.4833491064874555
 32
0.0
 13
-0.9943330386653085
 23
0.1063099629320504
 33
0.0
 40
0.0
 40
0.0
 40
0.0
 40
0.0
 40
0.0849607345148445
 40
0.1278481114697918
 40
0.1278481114697918
 40
0.1278481114697918
 40
0.1278481114697918
 10
699.3434568473793
 20
196.6246140654721
 30
0.0
 10
699.3186645208467
 20
196.610925500434
 30
0.0
 10
699.2797512694113
 20
196.5930027118329
 30
0.0
 10
699.2366971424181
 20
196.5855613442617
 30
0.0
 10
699.2224823638022
 20
196.5870811294132
 30
0.0
 11
699.3434568473793
 21
196.6246140654721
 31
0.0
 11
699.2651166716244
 21
196.5917333222932
 31
0.0
 11
699.2224823638022
 21
196.5870811294132
 31
0.0
  0
LINE
  5
53D
330
2
100
AcDbEntity
  8
0
100
AcDbLine
 10
713.9257063648641
 20
187.0246277120159
 30
0.0
 11
712.8180215700276
 21
187.1360087076436
 31
0.0
  0
LINE
  5
53E
330
2
100
AcDbEntity
  8
0
100
AcDbLine
 10
712.8180215700276
 20
187.1360087076436
 30
0.0
 11
712.8014441637112
 21
187.1420537548368
 31
0.0
  0
LINE
  5
53F
330
2
100
AcDbEntity
  8
0
100
AcDbLine
 10
699.7221577397607
 20
196.1372745892512
 30
0.0
 11
699.1586232006902
 21
196.5557550454561
 31
0.0
  0
LINE
  5
540
330
2
100
AcDbEntity
  8
0
100
AcDbLine
 10
703.0470115208246
 20
193.6682398947167
 30
0.0
 11
701.9199424426844
 21
194.5052008071265
 31
0.0
  0
LINE
  5
541
330
2
100
AcDbEntity
  8
0
100
AcDbLine
 10
701.9628681734437
 20
194.5630054937524
 30
0.0
 11
699.8329427532417
 21
196.1446870064305
 31
0.0
  0
LINE
  5
542
330
2
100
AcDbEntity
  8
0
100
AcDbLine
 10
704.2116137453367
 20
193.1172914736289
 30
0.0
 11
703.3256020120552
 21
193.7752433265311
 31
0.0
  0
LINE
  5
543
330
2
100
AcDbEntity
  8
0
100
AcDbLine
 10
705.5184746185284
 20
192.1692375942767
 30
0.0
 11
705.349414256625
 21
192.2947817315042
 31
0.0
  0
LINE
  5
544
330
2
100
AcDbEntity
  8
0
100
AcDbLine
 10
705.4996543115414
 20
192.4970981319507
 30
0.0
 11
705.4571362466122
 21
192.5286720248986
 31
0.0
  0
LINE
  5
545
330
2
100
AcDbEntity
  8
0
100
AcDbLine
 10
712.8014441637112
 20
187.1420537548368
 30
0.0
 11
706.0474144612308
 21
192.1575927102771
 31
0.0
  0
LINE
  5
546
330
2
100
AcDbEntity
  8
0
100
AcDbLine
 10
705.550911254087
 20
192.1596230879285
 30
0.0
 11
705.5184746185284
 21
192.1692375942767
 31
0.0
  0
LINE
  5
547
330
2
100
AcDbEntity
  8
0
100
AcDbLine
 10
706.0602128023092
 20
192.1575403736786
 30
0.0
 11
705.550911254087
 21
192.1596230879285
 31
0.0
  0
LINE
  5
548
330
2
100
AcDbEntity
  8
0
100
AcDbLine
 10
706.737976411372
 20
193.0702310308945
 30
0.0
 11
706.588736779549
 21
193.5571806563332
 31
0.0
  0
LINE
  5
549
330
2
100
AcDbEntity
  8
0
100
AcDbLine
 10
713.4882558394117
 20
188.0669287298738
 30
0.0
 11
706.7342261387607
 21
193.0824676871428
 31
0.0
  0
LINE
  5
54A
330
2
100
AcDbEntity
  8
0
100
AcDbLine
 10
706.2508545824672
 20
193.5086801360112
 30
0.0
 11
706.2196170037069
 21
193.5318771458123
 31
0.0
  0
LINE
  5
54B
330
2
100
AcDbEntity
  8
0
100
AcDbLine
 10
706.5701549992882
 20
193.5854523992304
 30
0.0
 11
706.4010946373847
 21
193.7109965364578
 31
0.0
  0
LINE
  5
54C
330
2
100
AcDbEntity
  8
0
100
AcDbLine
 10
705.284756992391
 20
194.5624086209809
 30
0.0
 11
704.3987348331207
 21
195.2203682170223
 31
0.0
  0
LINE
  5
54D
330
2
100
AcDbEntity
  8
0
100
AcDbLine
 10
703.2506400669832
 20
196.2971460724034
 30
0.0
 11
701.1207246740918
 21
197.8788201400367
 31
0.0
  0
LINE
  5
54E
330
2
100
AcDbEntity
  8
0
100
AcDbLine
 10
701.0957810948191
 20
197.9870245393248
 30
0.0
 11
700.5322465557492
 21
198.4055049955298
 31
0.0
  0
LINE
  5
54F
330
2
100
AcDbEntity
  8
0
100
AcDbLine
 10
704.4206348758836
 20
195.5179898447904
 30
0.0
 11
703.2935657977427
 21
196.3549507590288
 31
0.0
  0
LINE
  5
550
330
2
100
AcDbEntity
  8
0
100
AcDbLine
 10
704.2365268824037
 20
194.6226875642786
 30
0.0
 11
704.4360854085588
 21
194.7328696370306
 31
0.0
  0
LINE
  5
551
330
2
100
AcDbEntity
  8
0
100
AcDbLine
 10
704.2365268824037
 20
194.6226875642786
 30
0.0
 11
704.1331524902199
 21
194.4464046932737
 31
0.0
  0
LINE
  5
552
330
2
100
AcDbEntity
  8
0
100
AcDbLine
 10
713.9257063648641
 20
187.0246277120159
 30
0.0
 11
713.4988354803302
 21
188.0528069667026
 31
0.0
  0
SPLINE
  5
553
330
2
100
AcDbEntity
  8
0
100
AcDbSpline
210
0.0
220
0.0
230
1.0
 70
     8
 71
     3
 72
    11
 73
     7
 74
     5
 42
0.0000000001
 43
0.0000000001
 44
0.0000000001
 12
0.8762233566787822
 22
-0.4819052077022697
 32
0.0
 13
-0.4643534656286029
 23
-0.8856499641273103
 33
0.0
 40
0.0
 40
0.0
 40
0.0
 40
0.0
 40
0.008714121916804
 40
0.0574418910968826
 40
0.1440001589753245
 40
0.2672204222926598
 40
0.2672204222926598
 40
0.2672204222926598
 40
0.2672204222926598
 10
706.222084560522
 20
193.637102952522
 30
0.0
 10
706.2246297329075
 20
193.6357031589446
 30
0.0
 10
706.2405202629546
 20
193.6236609216576
 30
0.0
 10
706.2312613159869
 20
193.5664331406364
 30
0.0
 10
706.2068811274643
 20
193.4899812511414
 30
0.0
 10
706.1752115465225
 20
193.4250864043626
 30
0.0
 10
706.1561389610869
 20
193.3887097304337
 30
0.0
 11
706.222084560522
 21
193.637102952522
 31
0.0
 11
706.2290003208337
 21
193.6318012376964
 31
0.0
 11
706.2331669812738
 21
193.5832519387309
 31
0.0
 11
706.2083153281454
 21
193.5003379527279
 31
0.0
 11
706.1561389610869
 21
193.3887097304337
 31
0.0
  0
LINE
  5
554
330
2
100
AcDbEntity
  8
0
100
AcDbLine
 10
705.3601477253728
 20
194.5387704098473
 30
0.0
 11
706.222084560522
 21
193.637102952522
 31
0.0
  0
SPLINE
  5
555
330
2
100
AcDbEntity
  8
0
100
AcDbSpline
210
0.0
220
0.0
230
1.0
 70
     8
 71
     3
 72
    16
 73
    12
 74
    10
 42
0.0000000001
 43
0.0000000001
 44
0.0000000001
 12
0.8762233572592529
 22
-0.4819052066468296
 32
0.0
 13
0.4643534666425237
 23
0.8856499635957034
 33
0.0
 40
0.0
 40
0.0
 40
0.0
 40
0.0
 40
0.0265764390938794
 40
0.0920433640857973
 40
0.1959817509663821
 40
0.3338450148312354
 40
0.497237727461838
 40
0.6756056543270813
 40
0.8572336988475976
 40
1.03016025807498
 40
1.183086135622382
 40
1.183086135622382
 40
1.183086135622382
 40
1.183086135622382
 10
705.3926274749565
 20
192.5208749909019
 30
0.0
 10
705.4003897738521
 20
192.5166058827774
 30
0.0
 10
705.4327187594903
 20
192.5107893317267
 30
0.0
 10
705.4901572389289
 20
192.5508550097631
 30
0.0
 10
705.5695723715345
 20
192.6118372357336
 30
0.0
 10
705.6655864039263
 20
192.7086770303419
 30
0.0
 10
705.7717285005071
 20
192.8277653004948
 30
0.0
 10
705.880730036491
 20
192.9642486022716
 30
0.0
 10
705.9851695774547
 20
193.1079790587453
 30
0.0
 10
706.0779687840141
 20
193.2494959995608
 30
0.0
 10
706.132468407294
 20
193.3435634644728
 30
0.0
 10
706.1561389610869
 20
193.3887097304337
 30
0.0
 11
705.3926274749565
 21
192.5208749909019
 31
0.0
 11
705.4186127371431
 21
192.5153006511201
 31
0.0
 11
705.4780059723532
 21
192.5428390221535
 31
0.0
 11
705.5598438668862
 21
192.6069151275731
 31
0.0
 11
705.6585493089992
 21
192.703162284522
 31
0.0
 11
705.7673956784825
 21
192.825021409708
 31
0.0
 11
705.8789652827595
 21
192.9641880031695
 31
0.0
 11
705.9856548304202
 21
193.1111780945917
 31
0.0
 11
706.0801936120951
 21
193.255974550507
 31
0.0
 11
706.1561389610869
 21
193.3887097304337
 31
0.0
  0
LINE
  5
556
330
2
100
AcDbEntity
  8
0
100
AcDbLine
 10
704.2683263745053
 20
193.0484139238104
 30
0.0
 11
705.3926274749565
 21
192.5208749909019
 31
0.0
  0
SPLINE
  5
557
330
2
100
AcDbEntity
  8
0
100
AcDbSpline
210
0.0
220
0.0
230
1.0
 70
     8
 71
     3
 72
    16
 73
    12
 74
     0
 42
0.0000000001
 43
0.0000000001
 40
0.0
 40
0.0
 40
0.0
 40
0.0
 40
0.068271439039087
 40
0.068271439039087
 40
0.1365428780781739
 40
0.1365428780781739
 40
0.2048143171172609
 40
0.2048143171172609
 40
0.3413571951954348
 40
0.3413571951954348
 40
0.3656853215271653
 40
0.3656853215271653
 40
0.3656853215271653
 40
0.3656853215271653
 10
705.3321583196356
 20
194.5269076480601
 30
0.0
 10
705.3422882672117
 20
194.5176671287041
 30
0.0
 10
705.3465372079307
 20
194.4970490852776
 30
0.0
 10
705.3419723994697
 20
194.4580878743113
 30
0.0
 10
705.3350602956007
 20
194.4364775352398
 30
0.0
 10
705.3220745116592
 20
194.3952521306121
 30
0.0
 10
705.3149254258352
 20
194.3751300252737
 30
0.0
 10
705.2913814454207
 20
194.3154358464701
 30
0.0
 10
705.2726606523616
 20
194.2762804081974
 30
0.0
 10
705.2492553575582
 20
194.2306876990928
 30
0.0
 10
705.2456805869566
 20
194.2238086182078
 30
0.0
 10
705.2420818878999
 20
194.216944907844
 30
0.0
  0
SPLINE
  5
558
330
2
100
AcDbEntity
  8
0
100
AcDbSpline
210
0.0
220
0.0
230
1.0
 70
     8
 71
     3
 72
    16
 73
    12
 74
     0
 42
0.0000000001
 43
0.0000000001
 40
0.0
 40
0.0
 40
0.0
 40
0.0
 40
0.062602226540079
 40
0.062602226540079
 40
0.1252044530801579
 40
0.1252044530801579
 40
0.1878066796202368
 40
0.1878066796202368
 40
0.3247692506015984
 40
0.3247692506015984
 40
0.3656853215271653
 40
0.3656853215271653
 40
0.3656853215271653
 40
0.3656853215271653
 10
705.3515674661189
 20
194.5481849841904
 30
0.0
 10
705.3725898153444
 20
194.5290084362883
 30
0.0
 10
705.3748926801573
 20
194.5044260658646
 30
0.0
 10
705.3719763989554
 20
194.4569202575145
 30
0.0
 10
705.3653960818929
 20
194.4371862433212
 30
0.0
 10
705.3532287516368
 20
194.39809972757
 30
0.0
 10
705.3468777616557
 20
194.3789837867821
 30
0.0
 10
705.3242601495053
 20
194.3186105634852
 30
0.0
 10
705.3056071689117
 20
194.2782472770516
 30
0.0
 10
705.2797523969347
 20
194.2269447761013
 30
0.0
 10
705.273695863397
 20
194.2152197484834
 30
0.0
 10
705.2675886068733
 20
194.2035715280467
 30
0.0
  0
SPLINE
  5
559
330
2
100
AcDbEntity
  8
0
100
AcDbSpline
210
0.0
220
0.0
230
1.0
 70
     8
 71
     3
 72
    10
 73
     6
 74
     0
 42
0.0000000001
 43
0.0000000001
 40
0.2411329027578508
 40
0.2411329027578508
 40
0.2411329027578508
 40
0.2411329027578508
 40
0.2726328170966257
 40
0.2726328170966257
 40
0.2818955530933262
 40
0.2818955530933262
 40
0.2818955530933262
 40
0.2818955530933262
 10
705.3007267213822
 20
194.5566025851672
 30
0.0
 10
705.3128493760951
 20
194.5598649680677
 30
0.0
 10
705.3258506743467
 20
194.5618573766811
 30
0.0
 10
705.3441551182827
 20
194.5538669458601
 30
0.0
 10
705.3481738503493
 20
194.5512806341884
 30
0.0
 10
705.3515674661189
 20
194.5481849841904
 30
0.0
  0
SPLINE
  5
55A
330
2
100
AcDbEntity
  8
0
100
AcDbSpline
210
0.0
220
0.0
230
1.0
 70
     8
 71
     3
 72
    22
 73
    18
 74
     0
 42
0.0000000001
 43
0.0000000001
 40
0.0
 40
0.0
 40
0.0
 40
0.0
 40
0.052915054816513
 40
0.052915054816513
 40
0.105830109633026
 40
0.105830109633026
 40
0.2048994418961127
 40
0.2048994418961127
 40
0.3039687741591994
 40
0.3039687741591994
 40
0.5906882738913822
 40
0.5906882738913822
 40
0.8774077736235648
 40
0.8774077736235648
 40
1.450846773087928
 40
1.450846773087928
 40
1.617681132486946
 40
1.617681132486946
 40
1.617681132486946
 40
1.617681132486946
 10
704.2623172642087
 20
193.0809117551866
 30
0.0
 10
704.2687639741102
 20
193.0750310783984
 30
0.0
 10
704.2810986231676
 20
193.0759274142946
 30
0.0
 10
704.3131526194665
 20
193.0873119883007
 30
0.0
 10
704.3279898579121
 20
193.0946370487255
 30
0.0
 10
704.3674709316412
 20
193.1178731918641
 30
0.0
 10
704.3919851809852
 20
193.1363654710751
 30
0.0
 10
704.4409499488
 20
193.175659500349
 30
0.0
 10
704.4648749248199
 20
193.1966323074983
 30
0.0
 10
704.5550078192343
 20
193.2798908998992
 30
0.0
 10
704.6172930740985
 20
193.3464376475267
 30
0.0
 10
704.738283057348
 20
193.4836559404627
 30
0.0
 10
704.7963256984218
 20
193.554359102664
 30
0.0
 10
704.9647385275302
 20
193.7710756208852
 30
0.0
 10
705.0699047725827
 20
193.9213268264575
 30
0.0
 10
705.1911760736422
 20
194.1237499526685
 30
0.0
 10
705.2174434352963
 20
194.169952592222
 30
0.0
 10
705.2420818879091
 20
194.2169449078618
 30
0.0
  0
SPLINE
  5
55B
330
2
100
AcDbEntity
  8
0
100
AcDbSpline
210
0.0
220
0.0
230
1.0
 70
     8
 71
     3
 72
    24
 73
    20
 74
     0
 42
0.0000000001
 43
0.0000000001
 40
0.0
 40
0.0
 40
0.0
 40
0.0
 40
0.0336660361682034
 40
0.0336660361682034
 40
0.0673320723364068
 40
0.0673320723364068
 40
0.1310519666916519
 40
0.1310519666916519
 40
0.194771861046897
 40
0.194771861046897
 40
0.3222116497573872
 40
0.3222116497573872
 40
0.5763441207315349
 40
0.5763441207315349
 40
1.084609062679827
 40
1.084609062679827
 40
1.59287400462812
 40
1.59287400462812
 40
1.617681132486946
 40
1.617681132486946
 40
1.617681132486946
 40
1.617681132486946
 10
704.2429081177346
 20
193.0596344190478
 30
0.0
 10
704.2562919647297
 20
193.0474256986987
 30
0.0
 10
704.2727483418988
 20
193.0470322069431
 30
0.0
 10
704.2981382079432
 20
193.0508082942374
 30
0.0
 10
704.3102362873852
 20
193.0554569873847
 30
0.0
 10
704.3419398282231
 20
193.0688867636816
 30
0.0
 10
704.3599261016849
 20
193.079523261178
 30
0.0
 10
704.3942583343342
 20
193.1022944228131
 30
0.0
 10
704.4107047220543
 20
193.1146825497534
 30
0.0
 10
704.4590752237446
 20
193.1529583727819
 30
0.0
 10
704.4905357282274
 20
193.1807311966323
 30
0.0
 10
704.5802043160538
 20
193.2650805850649
 30
0.0
 10
704.6360949340317
 20
193.324625044913
 30
0.0
 10
704.7985248566397
 20
193.5077058378709
 30
0.0
 10
704.8995454528141
 20
193.6360927603105
 30
0.0
 10
705.0896539738229
 20
193.9013728703232
 30
0.0
 10
705.1789621205116
 20
194.0382776092434
 30
0.0
 10
705.2601357283642
 20
194.1894440474945
 30
0.0
 10
705.2638798316926
 20
194.1964978722176
 30
0.0
 10
705.2675886068641
 20
194.2035715280286
 30
0.0
  0
SPLINE
  5
55C
330
2
100
AcDbEntity
  8
0
100
AcDbSpline
210
0.0
220
0.0
230
1.0
 70
     8
 71
     3
 72
     8
 73
     4
 74
     0
 42
0.0000000001
 43
0.0000000001
 40
0.2305708090866159
 40
0.2305708090866159
 40
0.2305708090866159
 40
0.2305708090866159
 40
0.2817094252584755
 40
0.2817094252584755
 40
0.2817094252584755
 40
0.2817094252584755
 10
704.2220070706392
 20
193.1160579530855
 30
0.0
 10
704.2221396528002
 20
193.0960500154419
 30
0.0
 10
704.2253633408208
 20
193.0765556951232
 30
0.0
 10
704.2433840529183
 20
193.0601172350576
 30
0.0
  0
SPLINE
  5
55D
330
2
100
AcDbEntity
  8
0
100
AcDbSpline
210
0.0
220
0.0
230
1.0
 70
     8
 71
     3
 72
     8
 73
     4
 74
     0
 42
0.0000000001
 43
0.0000000001
 40
0.2305708090866159
 40
0.2305708090866159
 40
0.2305708090866159
 40
0.2305708090866159
 40
0.2817094252584755
 40
0.2817094252584755
 40
0.2817094252584755
 40
0.2817094252584755
 10
704.2508064383528
 20
193.1162487914654
 30
0.0
 10
704.2508983306841
 20
193.1023813448497
 30
0.0
 10
704.2554282209184
 20
193.0881128908646
 30
0.0
 10
704.2627931993843
 20
193.0813945712033
 30
0.0
  0
LINE
  5
55E
330
2
100
AcDbEntity
  8
0
100
AcDbLine
 10
705.2807835058831
 20
194.22905441483
 30
0.0
 11
705.2378133807151
 21
194.2609640075139
 31
0.0
  0
LINE
  5
55F
330
2
100
AcDbEntity
  8
0
100
AcDbLine
 10
704.5295574277215
 20
193.2174915743642
 30
0.0
 11
704.4859270446131
 21
193.2498914742145
 31
0.0
  0
MTEXT
  5
560
330
2
100
AcDbEntity
  8
图框
100
AcDbMText
 10
724.2093281117852
 20
227.7779872629167
 30
0.0
 40
0.6000023545570477
 41
5.828702745953752
 46
1.35222218681682
 71
     5
 72
     5
  1
{\C4;8}
  7
Romans字体
 73
     1
 44
1.0
1001
ACAD
1000
ACAD_MTEXT_DEFINED_HEIGHT_BEGIN
1070
    46
1040
1.35222218681682
1000
ACAD_MTEXT_DEFINED_HEIGHT_END
  0
MTEXT
  5
561
330
2
100
AcDbEntity
  8
图框
100
AcDbMText
 10
724.2093281117852
 20
226.4257650761014
 30
0.0
 40
0.6000023545570477
 41
5.828702745953752
 46
1.35222218681682
 71
     5
 72
     5
  1
{\C4;8}
  7
Romans字体
 73
     1
 44
1.0
1001
ACAD
1000
ACAD_MTEXT_DEFINED_HEIGHT_BEGIN
1070
    46
1040
1.35222218681682
1000
ACAD_MTEXT_DEFINED_HEIGHT_END
  0
MTEXT
  5
562
330
2
100
AcDbEntity
  8
图框
100
AcDbMText
 10
724.2093180191807
 20
225.0735428892863
 30
0.0
 40
0.6000023545570477
 41
5.828702745953752
 46
1.35222218681682
 71
     5
 72
     5
  1
{\C4;8}
  7
Romans字体
 73
     1
 44
1.0
1001
ACAD
1000
ACAD_MTEXT_DEFINED_HEIGHT_BEGIN
1070
    46
1040
1.35222218681682
1000
ACAD_MTEXT_DEFINED_HEIGHT_END
  0
MTEXT
  5
563
330
2
100
AcDbEntity
  8
图框
100
AcDbMText
 10
724.2093281117852
 20
223.7183859715478
 30
0.0
 40
0.6000023545570477
 41
5.828702745953752
 46
1.35222218681682
 71
     5
 72
     5
  1
{\C4;8}
  7
Romans字体
 73
     1
 44
1.0
1001
ACAD
1000
ACAD_MTEXT_DEFINED_HEIGHT_BEGIN
1070
    46
1040
1.35222218681682
1000
ACAD_MTEXT_DEFINED_HEIGHT_END
  0
MTEXT
  5
564
330
2
100
AcDbEntity
  8
图框
 62
     3
100
AcDbMText
 10
763.340298509127
 20
190.9143369243208
 30
0.0
 40
0.746378394635083
 41
8.403098007973925
 46
2.218038889596384
 71
     5
 72
     5
  1
{\C4;1010171100901}
  7
Romans字体
 73
     1
 44
1.0
1001
ACAD
1000
ACAD_MTEXT_DEFINED_HEIGHT_BEGIN
1070
    46
1040
2.218038889596384
1000
ACAD_MTEXT_DEFINED_HEIGHT_END
  0
INSERT
  5
565
330
2
100
AcDbEntity
  8
DIM
100
AcDbBlockReference
  2
A4图框-NEW
 10
485.8097215296575
 20
63.62699253031472
 30
0.0
 41
0.25
 42
0.25
 43
0.25
  0
MTEXT
  5
566
330
2
100
AcDbEntity
  8
图框
 62
     3
100
AcDbMText
 10
751.7324861345242
 20
187.5149373487759
 30
0.0
 40
0.746378394635083
 41
2.707336787601192
 46
1.971523801091308
 71
     5
 72
     5
  1
0.62g
  7
Romans字体
 73
     1
 44
1.0
1001
ACAD
1000
ACAD_MTEXT_DEFINED_HEIGHT_BEGIN
1070
    46
1040
1.971523801091308
1000
ACAD_MTEXT_DEFINED_HEIGHT_END
  0
MTEXT
  5
567
330
2
100
AcDbEntity
  8
图框
 62
     3
100
AcDbMText
 10
746.3268819505493
 20
187.5874280051485
 30
0.0
 40
0.7463783937585367
 41
2.707337108597616
 46
1.971523650302624
 71
     5
 72
     5
  1
4:1
  7
Romans字体
 73
     1
 44
1.0
1001
ACAD
1000
ACAD_MTEXT_DEFINED_HEIGHT_BEGIN
1070
    46
1040
1.971523650302624
1000
ACAD_MTEXT_DEFINED_HEIGHT_END
  0
MTEXT
  5
568
330
2
100
AcDbEntity
  8
图框
 62
     3
100
AcDbMText
 10
763.3402981831955
 20
193.1091994065414
 30
0.0
 40
0.7463783937585367
 41
8.403097998105339
 46
2.171686376421464
 71
     5
 72
     5
  1
CDSM-1.5
  7
Romans字体
 73
     1
 44
1.0
1001
ACAD
1000
ACAD_MTEXT_DEFINED_HEIGHT_BEGIN
1070
    46
1040
2.171686376421464
1000
ACAD_MTEXT_DEFINED_HEIGHT_END
  0
DIMENSION
  5
751
330
2
100
AcDbEntity
  8
DIM
100
AcDbDimension
  2
*D2
 10
739.2359284833842
 20
206.378220522363
 30
0.0
 11
739.2359284833842
 21
211.5282205227633
 31
0.0
 70
   160
  1
%%c<>
 71
     5
 42
1.600000000400086
 73
     0
 74
     0
 75
     0
  3
01
100
AcDbAlignedDimension
 13
734.2264785867845
 23
207.9782205227631
 33
0.0
 14
734.2264785867845
 24
206.378220522363
 34
0.0
 50
270.0
100
AcDbRotatedDimension
1001
ACAD
1000
DSTYLE
1002
{
1070
    41
1040
1.0
1070
    44
1040
0.2
1070
   140
1040
1.199999999999999
1070
   147
1040
0.2
1002
}
  0
HATCH
  5
752
330
2
100
AcDbEntity
  8
0
100
AcDbHatch
 10
0.0
 20
0.0
 30
0.0
210
0.0
220
0.0
230
1.0
  2
ANSI31
 70
     0
 71
     0
 91
        3
 92
        7
 72
     0
 73
     1
 93
       12
 10
717.6238025301902
 20
208.0532205225631
 10
717.6238025301902
 20
208.4432205225632
 10
717.5738025306907
 20
208.4432205225632
 10
717.5738025306912
 20
208.7782205229633
 10
716.9738025306912
 20
208.7782205229633
 10
715.5738025301907
 20
208.7782205229631
 10
715.5738025301907
 20
208.6782205225631
 10
711.4583324763533
 20
208.6782205225631
 10
711.4005974492031
 20
208.7782205229631
 10
710.5738025301907
 20
208.7782205229633
 10
710.5738025301907
 20
208.678220522563
 10
710.9346464484349
 20
208.0532205225631
 97
        0
 92
        7
 72
     0
 73
     1
 93
        7
 10
718.5738025301904
 20
208.0532205225631
 10
718.5738025301906
 20
207.9032205225624
 10
718.9923814753517
 20
207.1782205225631
 10
719.2738025317307
 20
207.1782205225631
 10
719.2738025317307
 20
208.4432205225632
 10
718.5238025301908
 20
208.4432205225632
 10
718.5238025301904
 20
208.0532205225631
 97
        0
 92
        7
 72
     0
 73
     1
 93
       17
 10
719.2738025317307
 20
206.8432205217736
 10
719.2738025317312
 20
207.1782205225631
 10
718.9923814753517
 20
207.1782205225631
 10
718.5738025301904
 20
206.4532205225635
 10
718.5738025301901
 20
206.3032205225631
 10
710.9346464484349
 20
206.3032205225631
 10
710.5738025301907
 20
205.6782205225635
 10
710.5738025301907
 20
205.5782205221635
 10
711.4005974492027
 20
205.5782205221635
 10
711.4583324763522
 20
205.6782205225632
 10
715.5738025301904
 20
205.6782205225632
 10
715.5738025301904
 20
205.5782205221631
 10
716.7738025306909
 20
205.578220522163
 10
717.473802530011
 20
205.5782205221635
 10
717.5738025306907
 20
205.5782205221628
 10
717.5738025306907
 20
205.9132205225633
 10
719.2738025317307
 20
205.9132205225632
 97
        0
 75
     0
 76
     1
 52
0.0
 41
0.1
 77
     0
 78
     1
 53
45.0
 43
3741.822393675536
 44
427.4592561448831
 45
-0.2245064030267288
 46
0.2245064030267288
 79
     0
 47
0.0091907311078154
 98
        3
 10
711.7195579615287
 20
208.2968432113589
 10
718.8214952875086
 20
208.0478375211746
 10
718.9870565375493
 20
206.5313668518416
1001
ACAD
1010
0.0
1020
0.0
1030
0.0
  0
LINE
  5
753
330
2
100
AcDbEntity
  8
0
100
AcDbLine
 10
717.473802530011
 20
205.5782205221635
 30
0.0
 11
715.5738025301904
 21
205.5782205221635
 31
0.0
  0
LINE
  5
754
330
2
100
AcDbEntity
  8
0
100
AcDbLine
 10
711.4005974492027
 20
205.5782205221635
 30
0.0
 11
710.5738025301907
 21
205.5782205221635
 31
0.0
  0
LINE
  5
755
330
2
100
AcDbEntity
  8
0
100
AcDbLine
 10
721.6738025291302
 20
205.9532205214636
 30
0.0
 11
721.2738025296911
 21
205.9532205214631
 31
0.0
  0
LINE
  5
756
330
2
100
AcDbEntity
  8
0
100
AcDbLine
 10
734.0320034514977
 20
206.3782205223633
 30
0.0
 11
722.2738025305507
 21
206.3782205223633
 31
0.0
  0
LINE
  5
757
330
2
100
AcDbEntity
  8
0
100
AcDbLine
 10
722.2738025305507
 20
206.3782205223633
 30
0.0
 11
721.6738025291307
 21
205.9532205214631
 31
0.0
  0
LINE
  5
758
330
2
100
AcDbEntity
  8
0
100
AcDbLine
 10
734.0320034514977
 20
207.9782205227629
 30
0.0
 11
722.2738025305507
 21
207.9782205227635
 31
0.0
  0
LINE
  5
759
330
2
100
AcDbEntity
  8
0
100
AcDbLine
 10
722.2738025305507
 20
207.9782205227635
 30
0.0
 11
721.6738025291307
 21
208.4032205211233
 31
0.0
  0
LINE
  5
75A
330
2
100
AcDbEntity
  8
0
100
AcDbLine
 10
722.2738025305507
 20
206.3782205223638
 30
0.0
 11
722.2738025305507
 21
207.9782205227635
 31
0.0
  0
LINE
  5
75B
330
2
100
AcDbEntity
  8
0
100
AcDbLine
 10
721.6738025291292
 20
208.4032205211233
 30
0.0
 11
721.2738025296911
 21
208.4032205211233
 31
0.0
  0
LINE
  5
75C
330
2
100
AcDbEntity
  8
0
100
AcDbLine
 10
717.473802530011
 20
208.7782205229633
 30
0.0
 11
715.5738025301912
 21
208.7782205229631
 31
0.0
  0
LINE
  5
75D
330
2
100
AcDbEntity
  8
0
100
AcDbLine
 10
711.4005974492036
 20
208.7782205229631
 30
0.0
 11
710.5738025301907
 21
208.7782205229633
 31
0.0
  0
LINE
  5
75E
330
2
100
AcDbEntity
  8
0
100
AcDbLine
 10
721.6738025291307
 20
205.9532205214631
 30
0.0
 11
721.6738025291307
 21
208.4032205211233
 31
0.0
  0
LINE
  5
75F
330
2
100
AcDbEntity
  8
0
100
AcDbLine
 10
721.2738025296911
 20
205.9532205214631
 30
0.0
 11
721.2738025296911
 21
208.4032205211233
 31
0.0
  0
LINE
  5
760
330
2
100
AcDbEntity
  8
0
100
AcDbLine
 10
719.2738025291906
 20
205.9282205232035
 30
0.0
 11
719.2738025291906
 21
208.4282205219234
 31
0.0
  0
LINE
  5
761
330
2
100
AcDbEntity
  8
0
100
AcDbLine
 10
710.5738025301907
 20
205.5782205221635
 30
0.0
 11
710.5738025301907
 21
208.7782205229633
 31
0.0
  0
LINE
  5
762
330
2
100
AcDbEntity
  8
0
100
AcDbLine
 10
719.2738025317307
 20
208.0732205207233
 30
0.0
 11
719.2738025317307
 21
208.4632205205035
 31
0.0
  0
LINE
  5
763
330
2
100
AcDbEntity
  8
0
100
AcDbLine
 10
719.2738025317307
 20
205.4432205229236
 30
0.0
 11
719.2738025317307
 21
206.8432205217736
 31
0.0
  0
LINE
  5
764
330
2
100
AcDbEntity
  8
0
100
AcDbLine
 10
719.2738025317307
 20
205.4432205229236
 30
0.0
 11
720.923802529691
 21
206.0372205224467
 31
0.0
  0
LINE
  5
765
330
2
100
AcDbEntity
  8
0
100
AcDbLine
 10
719.2738025317307
 20
208.9432205206235
 30
0.0
 11
720.923802529691
 21
208.3492205211
 31
0.0
  0
LINE
  5
766
330
2
100
AcDbEntity
  8
0
100
AcDbLine
 10
719.2738025317307
 20
208.9432205206235
 30
0.0
 11
719.2738025317307
 21
207.5432205217735
 31
0.0
  0
LINE
  5
767
330
2
100
AcDbEntity
  8
0
100
AcDbLine
 10
719.2738025317307
 20
206.8432205217736
 30
0.0
 11
720.923802529691
 21
206.8432205217736
 31
0.0
  0
LINE
  5
768
330
2
100
AcDbEntity
  8
0
100
AcDbLine
 10
719.2738025317307
 20
207.5432205217735
 30
0.0
 11
720.923802529691
 21
207.5432205217735
 31
0.0
  0
LINE
  5
769
330
2
100
AcDbEntity
  8
0
100
AcDbLine
 10
720.923802529691
 20
207.5432205217735
 30
0.0
 11
720.923802529691
 21
208.3492205211004
 31
0.0
  0
LINE
  5
76A
330
2
100
AcDbEntity
  8
0
100
AcDbLine
 10
720.923802529691
 20
206.0372205224467
 30
0.0
 11
720.923802529691
 21
206.8432205217736
 31
0.0
  0
LINE
  5
76B
330
2
100
AcDbEntity
  8
0
100
AcDbLine
 10
719.2738025317307
 20
208.4632205205035
 30
0.0
 11
719.2738025317307
 21
205.9232205205039
 31
0.0
  0
LINE
  5
76C
330
2
100
AcDbEntity
  8
0
100
AcDbLine
 10
718.5738025301901
 20
207.1782205225631
 30
0.0
 11
718.5738025301901
 21
206.4532205225631
 31
0.0
  0
DIMENSION
  5
76D
330
2
100
AcDbEntity
  8
DIM
100
AcDbDimension
  2
*D3
 10
706.0319300783247
 20
205.5782205221627
 30
0.0
 11
706.0319300783247
 21
211.3282205229634
 31
0.0
 70
   160
  1
%%c<>
 71
     5
 42
3.200000000800598
 73
     0
 74
     0
 75
     0
  3
01
100
AcDbAlignedDimension
 13
710.5738025301907
 23
208.7782205229633
 33
0.0
 14
710.5738025301907
 24
205.5782205221627
 34
0.0
 50
270.0
100
AcDbRotatedDimension
1001
ACAD
1000
DSTYLE
1002
{
1070
    41
1040
1.0
1070
    44
1040
0.2
1070
   140
1040
1.199999999999999
1070
   147
1040
0.2
1002
}
  0
DIMENSION
  5
76E
330
2
100
AcDbEntity
  8
DIM
100
AcDbDimension
  2
*D4
 10
708.4031377299202
 20
206.3032205225631
 30
0.0
 11
708.4031377299202
 21
210.9796490939918
 31
0.0
 70
   160
  1
{\fISOCPEUR|b0|i0|c0|p34;%%C}d
 71
     5
 42
1.75
 73
     0
 74
     0
 75
     0
  3
01
100
AcDbAlignedDimension
 13
710.9346464484349
 23
208.0532205225631
 33
0.0
 14
710.9346464484342
 24
206.3032205225631
 34
0.0
 50
270.0
100
AcDbRotatedDimension
1001
ACAD
1000
DSTYLE
1002
{
1070
    41
1040
1.0
1070
    44
1040
0.2
1070
   140
1040
1.199999999999999
1070
   147
1040
0.2
1002
}
  0
LINE
  5
76F
330
2
100
AcDbEntity
  8
CEN
100
AcDbLine
 10
709.6727798546377
 20
207.1782205225631
 30
0.0
 11
736.5743800255946
 21
207.1782205225631
 31
0.0
  0
LINE
  5
770
330
2
100
AcDbEntity
  8
0
100
AcDbLine
 10
711.4583324763522
 20
205.6782205225632
 30
0.0
 11
715.5738025301904
 21
205.6782205225632
 31
0.0
  0
LINE
  5
771
330
2
100
AcDbEntity
  8
0
100
AcDbLine
 10
711.4583324763533
 20
208.6782205225631
 30
0.0
 11
715.5738025301907
 21
208.6782205225631
 31
0.0
  0
LINE
  5
772
330
2
100
AcDbEntity
  8
0
100
AcDbLine
 10
710.9346464484349
 20
206.3032205225631
 30
0.0
 11
718.5738025301901
 21
206.3032205225631
 31
0.0
  0
LINE
  5
773
330
2
100
AcDbEntity
  8
0
100
AcDbLine
 10
710.9346464484349
 20
208.0532205225631
 30
0.0
 11
717.6238025301906
 21
208.0532205225631
 31
0.0
  0
LINE
  5
774
330
2
100
AcDbEntity
  8
0
100
AcDbLine
 10
718.5238025301908
 20
208.0532205225631
 30
0.0
 11
718.5738025301904
 21
208.0532205225631
 31
0.0
  0
LINE
  5
775
330
2
100
AcDbEntity
  8
0
100
AcDbLine
 10
717.5738025306912
 20
205.9132205225633
 30
0.0
 11
719.2738025317307
 21
205.9132205225632
 31
0.0
  0
LINE
  5
776
330
2
100
AcDbEntity
  8
0
100
AcDbLine
 10
720.923802529691
 20
206.2782205225631
 30
0.0
 11
721.2738025296911
 21
206.2782205225631
 31
0.0
  0
LINE
  5
777
330
2
100
AcDbEntity
  8
DIM
100
AcDbLine
 10
734.2536981141395
 20
207.9782205227635
 30
0.0
 11
734.0320034514977
 21
207.9782205227635
 31
0.0
  0
ARC
  5
778
330
2
100
AcDbEntity
  8
0
100
AcDbCircle
 10
734.0320034514977
 20
207.3782205223633
 30
0.0
 40
1.0
100
AcDbArc
 50
270.0
 51
295.0000000000065
  0
LINE
  5
779
330
2
100
AcDbEntity
  8
0
100
AcDbLine
 10
735.3862286545527
 20
206.9063281864518
 30
0.0
 11
734.4546217132386
 21
206.4719127353265
 31
0.0
  0
LINE
  5
77A
330
2
100
AcDbEntity
  8
0
100
AcDbLine
 10
735.3862286545527
 20
207.450112858674
 30
0.0
 11
734.4546217132386
 21
207.8845283097994
 31
0.0
  0
LINE
  5
77B
330
2
100
AcDbEntity
  8
DIM
100
AcDbLine
 10
734.4546217132392
 20
207.884528309799
 30
0.0
 11
734.2536981141395
 21
207.9782205227635
 31
0.0
  0
ARC
  5
77C
330
2
100
AcDbEntity
  8
0
100
AcDbCircle
 10
734.0320034514977
 20
206.978220522763
 30
0.0
 40
1.0
100
AcDbArc
 50
64.99999999999352
 51
90.0
  0
ARC
  5
77D
330
2
100
AcDbEntity
  8
0
100
AcDbCircle
 10
735.2594431760311
 20
207.1782205225631
 30
0.0
 40
0.3
100
AcDbArc
 50
295.0000000000065
 51
64.99999999999352
  0
LINE
  5
77E
330
2
100
AcDbEntity
  8
0
100
AcDbLine
 10
717.5738025306912
 20
208.7782205229633
 30
0.0
 11
716.9738025306912
 21
208.7782205229633
 31
0.0
  0
LINE
  5
77F
330
2
100
AcDbEntity
  8
0
100
AcDbLine
 10
716.7738025306909
 20
208.7782205229633
 30
0.0
 11
715.5738025301907
 21
208.7782205229633
 31
0.0
  0
LINE
  5
780
330
2
100
AcDbEntity
  8
0
100
AcDbLine
 10
718.5738025301907
 20
207.1782205225634
 30
0.0
 11
718.5738025301901
 21
206.3032205225631
 31
0.0
  0
LINE
  5
781
330
2
100
AcDbEntity
  8
0
100
AcDbLine
 10
717.5738025306907
 20
208.4432205225632
 30
0.0
 11
717.5738025306912
 21
208.7782205229636
 31
0.0
  0
LINE
  5
782
330
2
100
AcDbEntity
  8
0
100
AcDbLine
 10
718.5238025301908
 20
208.4432205225633
 30
0.0
 11
718.5238025301908
 21
208.0532205225631
 31
0.0
  0
LINE
  5
783
330
2
100
AcDbEntity
  8
0
100
AcDbLine
 10
717.6238025301906
 20
208.4282205244633
 30
0.0
 11
717.6238025301906
 21
208.0532205225631
 31
0.0
  0
LINE
  5
784
330
2
100
AcDbEntity
  8
0
100
AcDbLine
 10
718.5738025301901
 20
206.4532205225631
 30
0.0
 11
718.9923814753517
 21
207.1782205225631
 31
0.0
  0
LINE
  5
785
330
2
100
AcDbEntity
  8
0
100
AcDbLine
 10
711.4583324763533
 20
208.6782205225631
 30
0.0
 11
711.4005974492031
 21
208.7782205229633
 31
0.0
  0
ARC
  5
786
330
2
100
AcDbEntity
  8
0
100
AcDbCircle
 10
718.0738025319386
 20
209.7384928887874
 30
0.0
 40
1.371214972617714
100
AcDbArc
 50
250.8418897617235
 51
289.1581102382764
  0
ARC
  5
787
330
2
100
AcDbEntity
  8
0
100
AcDbCircle
 10
718.0738025269441
 20
209.348492925287
 30
0.0
 40
1.371215006604042
100
AcDbArc
 50
250.8418903214047
 51
289.1581096785953
  0
LINE
  5
788
330
2
100
AcDbEntity
  8
0
100
AcDbLine
 10
715.5738025301907
 20
208.7782205229633
 30
0.0
 11
715.5738025301907
 21
208.6782205225631
 31
0.0
  0
LINE
  5
789
330
2
100
AcDbEntity
  8
0
100
AcDbLine
 10
717.5738025306907
 20
205.5782205221628
 30
0.0
 11
716.9738025306912
 21
205.578220522163
 31
0.0
  0
LINE
  5
78A
330
2
100
AcDbEntity
  8
0
100
AcDbLine
 10
716.7738025306909
 20
205.578220522163
 30
0.0
 11
715.5738025301904
 21
205.5782205221631
 31
0.0
  0
LINE
  5
78B
330
2
100
AcDbEntity
  8
0
100
AcDbLine
 10
717.5738025306907
 20
205.9132205225633
 30
0.0
 11
717.5738025306907
 21
205.5782205221625
 31
0.0
  0
LINE
  5
78C
330
2
100
AcDbEntity
  8
0
100
AcDbLine
 10
711.4583324763522
 20
205.6782205225632
 30
0.0
 11
711.4005974492027
 21
205.5782205221635
 31
0.0
  0
LINE
  5
78D
330
2
100
AcDbEntity
  8
0
100
AcDbLine
 10
715.5738025301904
 20
205.5782205221631
 30
0.0
 11
715.5738025301904
 21
205.6782205225632
 31
0.0
  0
LINE
  5
78E
330
2
100
AcDbEntity
  8
0
100
AcDbLine
 10
717.6238025301902
 20
208.4432205237777
 30
0.0
 11
717.6238025301902
 21
208.0532205225631
 31
0.0
  0
LINE
  5
78F
330
2
100
AcDbEntity
  8
CEN
 48
0.5
100
AcDbLine
 10
718.0738025301904
 20
207.4614005993191
 30
0.0
 11
718.0738025301904
 21
208.6967631015652
 31
0.0
  0
DIMENSION
  5
790
330
2
100
AcDbEntity
  8
DIM
100
AcDbDimension
  2
*D5
 10
713.715555536374
 20
205.6782205225632
 30
0.0
 11
713.715555536374
 21
202.8339348082774
 31
0.0
 70
   160
  1
{\fISOCPEUR|b0|i0|c0|p34;%%C}D
 71
     5
 42
2.999999999999912
 73
     0
 74
     0
 75
     0
  3
01
100
AcDbAlignedDimension
 13
713.5160675032722
 23
208.6782205225631
 33
0.0
 14
713.5738025301904
 24
205.6782205225632
 34
0.0
 50
90.0
100
AcDbRotatedDimension
1001
ACAD
1000
DSTYLE
1002
{
1070
    41
1040
1.0
1070
    44
1040
0.2
1070
   140
1040
1.199999999999999
1070
   147
1040
0.2
1002
}
  0
LINE
  5
791
330
2
100
AcDbEntity
  8
0
100
AcDbLine
 10
720.923802529691
 20
208.0782205225632
 30
0.0
 11
721.2738025296911
 21
208.0782205225632
 31
0.0
  0
LINE
  5
792
330
2
100
AcDbEntity
  8
0
100
AcDbLine
 10
710.5738025301907
 20
205.6782205225635
 30
0.0
 11
710.9346464484349
 21
206.3032205225631
 31
0.0
  0
LINE
  5
793
330
2
100
AcDbEntity
  8
0
100
AcDbLine
 10
710.9346464484342
 20
206.3032205225631
 30
0.0
 11
710.934646448435
 21
207.3282205225633
 31
0.0
  0
LINE
  5
794
330
2
100
AcDbEntity
  8
0
100
AcDbLine
 10
718.5738025301901
 20
207.1782205225631
 30
0.0
 11
718.5738025301901
 21
207.6282205225632
 31
0.0
  0
LINE
  5
795
330
2
100
AcDbEntity
  8
0
100
AcDbLine
 10
717.5738025306912
 20
208.4432205225632
 30
0.0
 11
717.6238025336862
 21
208.4432205225632
 31
0.0
  0
LINE
  5
796
330
2
100
AcDbEntity
  8
0
100
AcDbLine
 10
718.5238025301903
 20
208.4432205225632
 30
0.0
 11
719.2738025317307
 21
208.4432205225632
 31
0.0
  0
LINE
  5
797
330
2
100
AcDbEntity
  8
0
100
AcDbLine
 10
718.5738025301901
 20
207.1782205225631
 30
0.0
 11
718.5738025301901
 21
207.9032205225631
 31
0.0
  0
LINE
  5
798
102
{ACAD_REACTORS
330
79E
102
}
330
2
100
AcDbEntity
  8
0
100
AcDbLine
 10
718.5738025301907
 20
207.178220522563
 30
0.0
 11
718.5738025301904
 21
208.0532205225631
 31
0.0
  0
LINE
  5
799
330
2
100
AcDbEntity
  8
0
100
AcDbLine
 10
718.5738025301901
 20
207.9032205225631
 30
0.0
 11
718.9923814753517
 21
207.1782205225631
 31
0.0
  0
LINE
  5
79A
330
2
100
AcDbEntity
  8
0
100
AcDbLine
 10
710.5738025301907
 20
208.6782205225628
 30
0.0
 11
710.9346464484349
 21
208.0532205225631
 31
0.0
  0
LINE
  5
79B
330
2
100
AcDbEntity
  8
0
100
AcDbLine
 10
710.9346464484349
 20
208.0532205225631
 30
0.0
 11
710.934646448435
 21
207.3282205225631
 31
0.0
  0
DIMENSION
  5
79C
102
{ACAD_XDICTIONARY
360
79D
102
}
102
{ACAD_REACTORS
330
79E
102
}
330
2
100
AcDbEntity
  8
DIM
100
AcDbDimension
  2
*D7
 10
718.5738025301904
 20
211.294757193766
 30
0.0
 11
714.5738025301906
 21
212.094757193766
 31
0.0
 70
    32
 71
     5
 42
7.999999999999543
 73
     0
 74
     0
 75
     0
  3
01
100
AcDbAlignedDimension
 13
710.5738025301907
 23
208.7782205229633
 33
0.0
 14
718.5738025301904
 24
208.0532205225631
 34
0.0
100
AcDbRotatedDimension
1001
ACAD
1000
DSTYLE
1002
{
1070
    41
1040
1.0
1070
    44
1040
0.2
1070
   140
1040
1.199999999999999
1070
   147
1040
0.2
1002
}
  0
DIMENSION
  5
79F
330
2
100
AcDbEntity
  8
DIM
100
AcDbDimension
  2
*D6
 10
735.5594431760311
 20
214.0326986544828
 30
0.0
 11
723.0666228531108
 21
214.8326986544828
 31
0.0
 70
    32
 71
     5
 42
24.98564064584036
 73
     0
 74
     0
 75
     0
  3
01
100
AcDbAlignedDimension
 13
710.5738025301907
 23
208.7782205229633
 33
0.0
 14
735.5594431760311
 24
207.1782205225631
 34
0.0
100
AcDbRotatedDimension
1001
ACAD
1000
DSTYLE
1002
{
1070
    41
1040
1.0
1070
    44
1040
0.2
1070
   140
1040
1.199999999999999
1070
   147
1040
0.2
1002
}
  0
ENDSEC
  0
SECTION
  2
OBJECTS
  0
DICTIONARY
  5
B
330
0
100
AcDbDictionary
281
     1
  3
ACAD_COLOR
350
238
  3
ACAD_GROUP
350
225
  3
ACAD_LAYOUT
350
206
  3
ACAD_MATERIAL
350
D
  3
ACAD_MLEADERSTYLE
350
29B
  3
ACAD_MLINESTYLE
350
226
  3
ACAD_PLOTSETTINGS
350
227
  3
ACAD_PLOTSTYLENAME
350
A
  3
ACAD_SCALELIST
350
239
  3
ACAD_TABLESTYLE
350
23A
  3
ACAD_VISUALSTYLE
350
21F
  3
ACDB_RECOMPOSE_DATA
350
28B
  3
AcDbVariableDictionary
350
262
  0
DICTIONARY
  5
220
330
21C
100
AcDbDictionary
280
     1
281
     1
  0
DICTIONARY
  5
211
330
210
100
AcDbDictionary
280
     1
281
     1
  3
ACAD_LAYERFILTERS
360
896
  3
ACAD_LAYERSTATES
360
213
  3
ACLYDICTIONARY
360
895
  0
DICTIONARY
  5
7
330
6
100
AcDbDictionary
280
     1
281
     1
  3
ADSK_XREC_LAYER_RECONCILED
360
8
  0
DICTIONARY
  5
18
330
17
100
AcDbDictionary
280
     1
281
     1
  3
ADSK_XREC_LAYER_RECONCILED
360
19
  0
DICTIONARY
  5
26
330
25
100
AcDbDictionary
280
     1
281
     1
  3
ADSK_XREC_LAYER_RECONCILED
360
27
  0
DICTIONARY
  5
CF0
330
CEE
100
AcDbDictionary
280
     1
281
     1
  3
ASDK_XREC_ANNO_SCALE_INFO
360
CF1
  0
DICTIONARY
  5
3
330
2
100
AcDbDictionary
280
     1
281
     1
  3
ACAD_SORTENTS
360
261
  0
DICTIONARY
  5
C9F
330
2AC
100
AcDbDictionary
280
     1
281
     1
  0
DICTIONARY
  5
CF2
330
C0A
100
AcDbDictionary
280
     1
281
     1
  3
ACAD_MTEXT_2008_RT
360
CF3
  0
DICTIONARY
  5
CF4
330
C4E
100
AcDbDictionary
280
     1
281
     1
  3
ACAD_MTEXT_2008_RT
360
CF5
  0
DICTIONARY
  5
CF6
330
C4F
100
AcDbDictionary
280
     1
281
     1
  3
ACAD_MTEXT_2008_RT
360
CF7
  0
DICTIONARY
  5
CF8
330
C74
100
AcDbDictionary
280
     1
281
     1
  3
ACAD_MTEXT_2008_RT
360
CF9
  0
DICTIONARY
  5
CFA
330
C77
100
AcDbDictionary
280
     1
281
     1
  3
ACAD_MTEXT_2008_RT
360
CFB
  0
DICTIONARY
  5
CFC
330
C78
100
AcDbDictionary
280
     1
281
     1
  3
ACAD_MTEXT_2008_RT
360
CFD
  0
DICTIONARY
  5
CFE
330
C82
100
AcDbDictionary
280
     1
281
     1
  3
ACAD_MTEXT_2008_RT
360
CFF
  0
DICTIONARY
  5
D00
330
C83
100
AcDbDictionary
280
     1
281
     1
  3
ACAD_MTEXT_2008_RT
360
D01
  0
DICTIONARY
  5
D02
330
C84
100
AcDbDictionary
280
     1
281
     1
  3
ACAD_MTEXT_2008_RT
360
D03
  0
DICTIONARY
  5
D04
330
C92
100
AcDbDictionary
280
     1
281
     1
  3
ACAD_MTEXT_2008_RT
360
D05
  0
DICTIONARY
  5
D06
330
C93
100
AcDbDictionary
280
     1
281
     1
  3
ACAD_MTEXT_2008_RT
360
D07
  0
DICTIONARY
  5
D08
330
C94
100
AcDbDictionary
280
     1
281
     1
  3
ACAD_MTEXT_2008_RT
360
D09
  0
DICTIONARY
  5
CEC
330
4AC
100
AcDbDictionary
280
     1
281
     1
  3
ACAD_MTEXT_2008_RT
360
CED
  0
DICTIONARY
  5
C03
330
4B1
100
AcDbDictionary
280
     1
281
     1
  3
AcDbContextDataManager
360
C04
  0
DICTIONARY
  5
79D
330
79C
100
AcDbDictionary
280
     1
281
     1
  3
ACAD_DIMASSOC
360
79E
  0
DICTIONARY
  5
238
102
{ACAD_REACTORS
330
B
102
}
330
B
100
AcDbDictionary
281
     1
  0
DICTIONARY
  5
225
102
{ACAD_REACTORS
330
B
102
}
330
B
100
AcDbDictionary
281
     1
  0
DICTIONARY
  5
206
102
{ACAD_REACTORS
330
B
102
}
330
B
100
AcDbDictionary
281
     1
  3
Layout1
350
20B
  3
Layout2
350
20F
  3
Model
350
205
  0
DICTIONARY
  5
D
102
{ACAD_REACTORS
330
B
102
}
330
B
100
AcDbDictionary
281
     1
  3
ByBlock
350
230
  3
ByLayer
350
228
  3
Global
350
C
  0
DICTIONARY
  5
29B
102
{ACAD_REACTORS
330
B
102
}
330
B
100
AcDbDictionary
281
     1
  3
Standard
350
29C
  0
DICTIONARY
  5
226
102
{ACAD_REACTORS
330
B
102
}
330
B
100
AcDbDictionary
281
     1
  3
Standard
350
23B
  0
DICTIONARY
  5
227
102
{ACAD_REACTORS
330
B
102
}
330
B
100
AcDbDictionary
281
     1
  0
ACDBDICTIONARYWDFLT
  5
A
102
{ACAD_REACTORS
330
B
102
}
330
B
100
AcDbDictionary
281
     1
  3
Normal
350
9
100
AcDbDictionaryWithDefault
340
9
  0
DICTIONARY
  5
239
102
{ACAD_REACTORS
330
B
102
}
330
B
100
AcDbDictionary
281
     1
  3
A0
350
240
  3
A1
350
241
  3
A2
350
242
  3
A3
350
243
  3
A4
350
244
  3
A5
350
245
  3
A6
350
246
  3
A7
350
247
  3
A8
350
248
  3
A9
350
249
  3
B0
350
24A
  3
B1
350
24B
  3
B2
350
24C
  3
B3
350
24D
  3
B4
350
24E
  3
B5
350
24F
  3
B6
350
250
  3
B7
350
251
  3
B8
350
252
  3
B9
350
253
  3
C0
350
254
  3
C1
350
255
  3
C2
350
256
  3
C3
350
257
  3
C4
350
258
  3
C5
350
259
  3
C6
350
25A
  3
C7
350
25B
  3
C8
350
25C
  3
C9
350
25D
  3
D0
350
25E
  3
D1
350
25F
  3
D2
350
260
  0
DICTIONARY
  5
23A
102
{ACAD_REACTORS
330
B
102
}
330
B
100
AcDbDictionary
281
     1
  3
Standard
350
23C
  0
DICTIONARY
  5
21F
102
{ACAD_REACTORS
330
B
102
}
330
B
100
AcDbDictionary
281
     1
  3
2dWireframe
350
21E
  3
3D Hidden
350
293
  3
3dWireframe
350
23F
  3
Basic
350
292
  3
Brighten
350
296
  3
ColorChange
350
29A
  3
Conceptual
350
294
  3
Dim
350
295
  3
Facepattern
350
299
  3
Flat
350
28E
  3
FlatWithEdges
350
28F
  3
Gouraud
350
290
  3
GouraudWithEdges
350
291
  3
Linepattern
350
298
  3
Realistic
350
23E
  3
Thicken
350
297
  0
XRECORD
  5
28B
102
{ACAD_REACTORS
330
B
102
}
330
B
100
AcDbXrecord
280
     1
 90
        1
330
23C
330
4AC
330
4B1
330
C0A
330
C4E
330
C4F
330
C74
330
C77
330
C78
330
C82
330
C83
330
C84
330
C92
330
C93
330
C94
  0
DICTIONARY
  5
262
102
{ACAD_REACTORS
330
B
102
}
330
B
100
AcDbDictionary
281
     1
  3
CANNOSCALE
350
265
  3
CMLEADERSTYLE
350
264
  3
CTABLESTYLE
350
263
  3
DIMASSOC
350
625
  3
HIDETEXT
350
624
  3
INDEXCTL
350
623
  3
LIGHTINGUNITS
350
266
  3
MSLTSCALE
350
621
  3
SORTENTS
350
622
  0
DICTIONARY
  5
896
102
{ACAD_REACTORS
330
211
102
}
330
211
100
AcDbDictionary
281
     1
  0
DICTIONARY
  5
213
102
{ACAD_REACTORS
330
211
102
}
330
211
100
AcDbDictionary
281
     1
  0
DICTIONARY
  5
895
102
{ACAD_REACTORS
330
211
102
}
330
211
100
AcDbDictionary
281
     1
1001
ACAD
1000
<All
  0
XRECORD
  5
8
102
{ACAD_REACTORS
330
7
102
}
330
7
100
AcDbXrecord
280
     1
290
     1
  0
XRECORD
  5
19
102
{ACAD_REACTORS
330
18
102
}
330
18
100
AcDbXrecord
280
     1
290
     1
  0
XRECORD
  5
27
102
{ACAD_REACTORS
330
26
102
}
330
26
100
AcDbXrecord
280
     1
290
     1
  0
XRECORD
  5
CF1
102
{ACAD_REACTORS
330
CF0
102
}
330
CF0
100
AcDbXrecord
280
     1
 70
     1
340
240
340
25
 70
    -1
  0
SORTENTSTABLE
  5
261
102
{ACAD_REACTORS
330
3
102
}
330
3
100
AcDbSortentsTable
330
2
  0
XRECORD
  5
CF3
102
{ACAD_REACTORS
330
CF2
102
}
330
CF2
100
AcDbXrecord
280
     1
 40
1527.0
  1
\pxqc;BQ LUO
  0
XRECORD
  5
CF5
102
{ACAD_REACTORS
330
CF4
102
}
330
CF4
100
AcDbXrecord
280
     1
 40
3624820.0
  1
\pxqc;档案员{\H0.7x;\P\Fromans|c134;Filing Clerk\fFangSong_GB2312|b0|i0|c134|p49; }
  0
XRECORD
  5
CF7
102
{ACAD_REACTORS
330
CF6
102
}
330
CF6
100
AcDbXrecord
280
     1
 40
2054623.0
  1
\pxqc;日期{\Fromans|c134;/Date}
  0
XRECORD
  5
CF9
102
{ACAD_REACTORS
330
CF8
102
}
330
CF8
100
AcDbXrecord
280
     1
 40
1836818.0
  1
\pxsm0.7;{\fFangSong_GB2312|b0|i0|c134|p49;标准化}\PStand.
  0
XRECORD
  5
CFB
102
{ACAD_REACTORS
330
CFA
102
}
330
CFA
100
AcDbXrecord
280
     1
 40
1476476.0
  1
\pxsm0.7;签名\P{\Fromans|c134;Signature} 
  0
XRECORD
  5
CFD
102
{ACAD_REACTORS
330
CFC
102
}
330
CFC
100
AcDbXrecord
280
     1
 40
1354713.0
  1
\pxsm0.7,qc;处数\P{\Fromans|c134;Number }
  0
XRECORD
  5
CFF
102
{ACAD_REACTORS
330
CFE
102
}
330
CFE
100
AcDbXrecord
280
     1
 40
1692934.0
  1
\pxsm0.7;标记\P{\Fromans|c134;Mark}
  0
XRECORD
  5
D01
102
{ACAD_REACTORS
330
D00
102
}
330
D00
100
AcDbXrecord
280
     1
 40
1391581.0
  1
\pxsm0.7;审核\P{\Fromans|c134;Checked}
  0
XRECORD
  5
D03
102
{ACAD_REACTORS
330
D02
102
}
330
D02
100
AcDbXrecord
280
     1
 40
1546703.0
  1
\pxsm0.7;绘图\P{\Fromans|c134;Drawn\Ftxt|c134; }
  0
XRECORD
  5
D05
102
{ACAD_REACTORS
330
D04
102
}
330
D04
100
AcDbXrecord
280
     1
 40
1293614.0
  1
\pxsm0.7;批准\P{\Fromans|c134;Approved}
  0
XRECORD
  5
D07
102
{ACAD_REACTORS
330
D06
102
}
330
D06
100
AcDbXrecord
280
     1
 40
1583427.0
  1
\pxsm0.7;工艺\P{\Fromans|c134;Process}
  0
XRECORD
  5
D09
102
{ACAD_REACTORS
330
D08
102
}
330
D08
100
AcDbXrecord
280
     1
 40
1435325.0
  1
\pxsm0.7;日期\P{\Fromans|c134;Date}
  0
XRECORD
  5
CED
102
{ACAD_REACTORS
330
CEC
102
}
330
CEC
100
AcDbXrecord
280
     1
 40
322399272.0
  1
\A1;\pxql;{\f仿宋_GB2312|b0|i0|c134|p49;技术参数}:\P\pq*;- {\f仿宋_GB2312|b0|i0|c134|p49;材料}: {\f仿宋_GB2312|b0|i0|c134|p49;铜合金}\P- {\f仿宋_GB2312|b0|i0|c134|p49;表面处理}: {\f仿宋_GB2312|b0|i0|c134|p49;镀银}\P\pql;- {\f仿宋_GB2312|b0|i0|c134|p49;额定电流}: 10A\P- {\f仿宋_GB231
  1
2|b0|i0|c134|p49;接触电阻}: ≤3mΩ\P- {\f仿宋_GB2312|b0|i0|c134|p49;线径范围}: 1.5mm{\H0.7x;\S2^ ;}(16 AWG)\P\pq*;- {\f仿宋_GB2312|b0|i0|c134|p49;可插拔次数}: {\f仿宋_GB2312|b0|i0|c134|p49;≥}500\P\P\pql;Technical specification:\P- Material: copper alloy\P- Surface: hard-s
  1
ilver plated\P- Rated current: 10A\P- Contact resistance: ≤3mΩ\P- Wire gauge: 1.5mm{\H0.7x;\S2^ ;}(16 AWG)\P- Mating cycles: {\f仿宋_GB2312|b0|i0|c134|p49;≥}500
  0
DICTIONARY
  5
C04
102
{ACAD_REACTORS
330
C03
102
}
330
C03
100
AcDbDictionary
281
     1
  3
ACDB_ANNOTATIONSCALES
350
C05
  0
DIMASSOC
  5
79E
102
{ACAD_REACTORS
330
79D
102
}
330
79D
100
AcDbDimAssoc
330
79C
 90
        2
 70
     0
 71
     0
  1
AcDbOsnapPointRef
 72
     1
331
798
 73
     2
 91
        0
 40
1.0
 10
0.0
 20
0.0
 30
2.000000000000000E+50
 75
     0
  0
LAYOUT
  5
20B
102
{ACAD_REACTORS
330
206
102
}
330
206
100
AcDbPlotSettings
  1

  2
none_device
  4

  6

 40
0.0
 41
0.0
 42
0.0
 43
0.0
 44
0.0
 45
0.0
 46
0.0
 47
0.0
 48
0.0
 49
0.0
140
0.0
141
0.0
142
1.0
143
1.0
 70
   688
 72
     0
 73
     0
 74
     5
  7

 75
    16
147
1.0
 76
     0
 77
     2
 78
   300
148
0.0
149
0.0
100
AcDbLayout
  1
Layout1
 70
     1
 71
     1
 10
0.0
 20
0.0
 11
12.0
 21
9.0
 12
0.0
 22
0.0
 32
0.0
 14
1.000000000000000E+20
 24
1.000000000000000E+20
 34
1.000000000000000E+20
 15
-1.000000000000000E+20
 25
-1.000000000000000E+20
 35
-1.000000000000000E+20
146
0.0
 13
0.0
 23
0.0
 33
0.0
 16
1.0
 26
0.0
 36
0.0
 17
0.0
 27
1.0
 37
0.0
 76
     0
330
208
  0
LAYOUT
  5
20F
102
{ACAD_REACTORS
330
206
102
}
330
206
100
AcDbPlotSettings
  1

  2
none_device
  4

  6

 40
0.0
 41
0.0
 42
0.0
 43
0.0
 44
0.0
 45
0.0
 46
0.0
 47
0.0
 48
0.0
 49
0.0
140
0.0
141
0.0
142
1.0
143
1.0
 70
   688
 72
     0
 73
     0
 74
     5
  7

 75
    16
147
1.0
 76
     0
 77
     2
 78
   300
148
0.0
149
0.0
100
AcDbLayout
  1
Layout2
 70
     1
 71
     2
 10
0.0
 20
0.0
 11
0.0
 21
0.0
 12
0.0
 22
0.0
 32
0.0
 14
0.0
 24
0.0
 34
0.0
 15
0.0
 25
0.0
 35
0.0
146
0.0
 13
0.0
 23
0.0
 33
0.0
 16
1.0
 26
0.0
 36
0.0
 17
0.0
 27
1.0
 37
0.0
 76
     0
330
20C
  0
LAYOUT
  5
205
102
{ACAD_REACTORS
330
206
102
}
330
206
100
AcDbPlotSettings
  1

  2
Adobe PDF Converter.pc3
  4
A4
  6

 40
3.174999952316281
 41
3.174999952316281
 42
3.17498779296875
 43
3.175003051757812
 44
297.0318298339844
 45
209.9733276367186
 46
0.0000000000000076
 47
1.630241740247063
 48
246.9897427644609
 49
39.36804549891383
140
544.952097801264
141
244.7492402188181
142
1.0
143
1.025046328645055
 70
  3764
 72
     1
 73
     0
 74
     4
  7
monochrome.ctb
 75
     0
147
0.9755656618192436
 76
     1
 77
     2
 78
   300
148
-246.9897427644609
149
-39.36804549891383
100
AcDbLayout
  1
Model
 70
     1
 71
     0
 10
0.0
 20
0.0
 11
12.0
 21
9.0
 12
0.0
 22
0.0
 32
0.0
 14
1.000000000000000E+20
 24
1.000000000000000E+20
 34
1.000000000000000E+20
 15
-1.000000000000000E+20
 25
-1.000000000000000E+20
 35
-1.000000000000000E+20
146
0.0
 13
0.0
 23
0.0
 33
0.0
 16
1.0
 26
0.0
 36
0.0
 17
0.0
 27
1.0
 37
0.0
 76
     0
330
2
331
21D
1001
ACAD_PSEXT
1000
Adobe PDF Converter.pc3
1000
Adobe PDF Converter
1000
桌面\*.pdf
1000

1070
     0
  0
MATERIAL
  5
230
102
{ACAD_XDICTIONARY
360
231
102
}
102
{ACAD_REACTORS
330
D
102
}
330
D
100
AcDbMaterial
  1
ByBlock
 72
     0
 43
0.0208333333333333
 43
0.0
 43
0.0
 43
0.0
 43
0.0
 43
0.0208333333333333
 43
0.0
 43
0.0
 43
0.0
 43
0.0
 43
1.0
 43
0.0
 43
0.0
 43
0.0
 43
0.0
 43
1.0
 77
     0
 47
0.0208333333333333
 47
0.0
 47
0.0
 47
0.0
 47
0.0
 47
0.0208333333333333
 47
0.0
 47
0.0
 47
0.0
 47
0.0
 47
1.0
 47
0.0
 47
0.0
 47
0.0
 47
0.0
 47
1.0
171
     0
 49
0.0208333333333333
 49
0.0
 49
0.0
 49
0.0
 49
0.0
 49
0.0208333333333333
 49
0.0
 49
0.0
 49
0.0
 49
0.0
 49
1.0
 49
0.0
 49
0.0
 49
0.0
 49
0.0
 49
1.0
175
     0
142
0.0208333333333333
142
0.0
142
0.0
142
0.0
142
0.0
142
0.0208333333333333
142
0.0
142
0.0
142
0.0
142
0.0
142
1.0
142
0.0
142
0.0
142
0.0
142
0.0
142
1.0
179
     0
144
0.0208333333333333
144
0.0
144
0.0
144
0.0
144
0.0
144
0.0208333333333333
144
0.0
144
0.0
144
0.0
144
0.0
144
1.0
144
0.0
144
0.0
144
0.0
144
0.0
144
1.0
147
0.0208333333333333
147
0.0
147
0.0
147
0.0
147
0.0
147
0.0208333333333333
147
0.0
147
0.0
147
0.0
147
0.0
147
1.0
147
0.0
147
0.0
147
0.0
147
0.0
147
1.0
  0
MATERIAL
  5
228
102
{ACAD_XDICTIONARY
360
229
102
}
102
{ACAD_REACTORS
330
D
102
}
330
D
100
AcDbMaterial
  1
ByLayer
 72
     0
 43
0.0208333333333333
 43
0.0
 43
0.0
 43
0.0
 43
0.0
 43
0.0208333333333333
 43
0.0
 43
0.0
 43
0.0
 43
0.0
 43
1.0
 43
0.0
 43
0.0
 43
0.0
 43
0.0
 43
1.0
 77
     0
 47
0.0208333333333333
 47
0.0
 47
0.0
 47
0.0
 47
0.0
 47
0.0208333333333333
 47
0.0
 47
0.0
 47
0.0
 47
0.0
 47
1.0
 47
0.0
 47
0.0
 47
0.0
 47
0.0
 47
1.0
171
     0
 49
0.0208333333333333
 49
0.0
 49
0.0
 49
0.0
 49
0.0
 49
0.0208333333333333
 49
0.0
 49
0.0
 49
0.0
 49
0.0
 49
1.0
 49
0.0
 49
0.0
 49
0.0
 49
0.0
 49
1.0
175
     0
142
0.0208333333333333
142
0.0
142
0.0
142
0.0
142
0.0
142
0.0208333333333333
142
0.0
142
0.0
142
0.0
142
0.0
142
1.0
142
0.0
142
0.0
142
0.0
142
0.0
142
1.0
179
     0
144
0.0208333333333333
144
0.0
144
0.0
144
0.0
144
0.0
144
0.0208333333333333
144
0.0
144
0.0
144
0.0
144
0.0
144
1.0
144
0.0
144
0.0
144
0.0
144
0.0
144
1.0
147
0.0208333333333333
147
0.0
147
0.0
147
0.0
147
0.0
147
0.0208333333333333
147
0.0
147
0.0
147
0.0
147
0.0
147
1.0
147
0.0
147
0.0
147
0.0
147
0.0
147
1.0
  0
MATERIAL
  5
C
102
{ACAD_XDICTIONARY
360
E
102
}
102
{ACAD_REACTORS
330
D
102
}
330
D
100
AcDbMaterial
  1
Global
 72
     0
 43
0.0208333333333333
 43
0.0
 43
0.0
 43
0.0
 43
0.0
 43
0.0208333333333333
 43
0.0
 43
0.0
 43
0.0
 43
0.0
 43
1.0
 43
0.0
 43
0.0
 43
0.0
 43
0.0
 43
1.0
 77
     0
 47
0.0208333333333333
 47
0.0
 47
0.0
 47
0.0
 47
0.0
 47
0.0208333333333333
 47
0.0
 47
0.0
 47
0.0
 47
0.0
 47
1.0
 47
0.0
 47
0.0
 47
0.0
 47
0.0
 47
1.0
171
     0
 49
0.0208333333333333
 49
0.0
 49
0.0
 49
0.0
 49
0.0
 49
0.0208333333333333
 49
0.0
 49
0.0
 49
0.0
 49
0.0
 49
1.0
 49
0.0
 49
0.0
 49
0.0
 49
0.0
 49
1.0
175
     0
142
0.0208333333333333
142
0.0
142
0.0
142
0.0
142
0.0
142
0.0208333333333333
142
0.0
142
0.0
142
0.0
142
0.0
142
1.0
142
0.0
142
0.0
142
0.0
142
0.0
142
1.0
179
     0
144
0.0208333333333333
144
0.0
144
0.0
144
0.0
144
0.0
144
0.0208333333333333
144
0.0
144
0.0
144
0.0
144
0.0
144
1.0
144
0.0
144
0.0
144
0.0
144
0.0
144
1.0
147
0.0208333333333333
147
0.0
147
0.0
147
0.0
147
0.0
147
0.0208333333333333
147
0.0
147
0.0
147
0.0
147
0.0
147
1.0
147
0.0
147
0.0
147
0.0
147
0.0
147
1.0
  0
MLEADERSTYLE
  5
29C
102
{ACAD_REACTORS
330
29B
102
}
330
29B
100
AcDbMLeaderStyle
170
     2
171
     1
172
     0
 90
        2
 40
0.0
 41
0.0
173
     1
 91
-1056964608
340
218
 92
       -2
290
     1
 42
0.09
291
     1
 43
0.36
  3
Standard
 44
0.18
300

342
46
174
     1
178
     6
175
     1
176
     0
 93
-1056964608
 45
0.18
292
     0
297
     0
 46
0.18
 94
-1056964608
 47
1.0
 49
1.0
140
1.0
293
     1
141
0.0
294
     1
177
     0
142
1.0
295
     0
296
     0
143
0.125
1001
ACAD_MLEADERVER
1070
     2
  0
MLINESTYLE
  5
23B
102
{ACAD_REACTORS
330
226
102
}
330
226
100
AcDbMlineStyle
  2
STANDARD
 70
     0
  3

 62
   256
 51
90.0
 52
90.0
 71
     2
 49
0.5
 62
   256
  6
BYLAYER
 49
-0.5
 62
   256
  6
BYLAYER
  0
ACDBPLACEHOLDER
  5
9
102
{ACAD_REACTORS
330
A
102
}
330
A
  0
SCALE
  5
240
102
{ACAD_REACTORS
330
239
102
}
330
239
100
AcDbScale
 70
     0
300
1:1
140
1.0
141
1.0
290
     1
  0
SCALE
  5
241
102
{ACAD_REACTORS
330
239
102
}
330
239
100
AcDbScale
 70
     0
300
1:2
140
1.0
141
2.0
290
     0
  0
SCALE
  5
242
102
{ACAD_REACTORS
330
239
102
}
330
239
100
AcDbScale
 70
     0
300
1:4
140
1.0
141
4.0
290
     0
  0
SCALE
  5
243
102
{ACAD_REACTORS
330
239
102
}
330
239
100
AcDbScale
 70
     0
300
1:5
140
1.0
141
5.0
290
     0
  0
SCALE
  5
244
102
{ACAD_REACTORS
330
239
102
}
330
239
100
AcDbScale
 70
     0
300
1:8
140
1.0
141
8.0
290
     0
  0
SCALE
  5
245
102
{ACAD_REACTORS
330
239
102
}
330
239
100
AcDbScale
 70
     0
300
1:10
140
1.0
141
10.0
290
     0
  0
SCALE
  5
246
102
{ACAD_REACTORS
330
239
102
}
330
239
100
AcDbScale
 70
     0
300
1:16
140
1.0
141
16.0
290
     0
  0
SCALE
  5
247
102
{ACAD_REACTORS
330
239
102
}
330
239
100
AcDbScale
 70
     0
300
1:20
140
1.0
141
20.0
290
     0
  0
SCALE
  5
248
102
{ACAD_REACTORS
330
239
102
}
330
239
100
AcDbScale
 70
     0
300
1:30
140
1.0
141
30.0
290
     0
  0
SCALE
  5
249
102
{ACAD_REACTORS
330
239
102
}
330
239
100
AcDbScale
 70
     0
300
1:40
140
1.0
141
40.0
290
     0
  0
SCALE
  5
24A
102
{ACAD_REACTORS
330
239
102
}
330
239
100
AcDbScale
 70
     0
300
1:50
140
1.0
141
50.0
290
     0
  0
SCALE
  5
24B
102
{ACAD_REACTORS
330
239
102
}
330
239
100
AcDbScale
 70
     0
300
1:100
140
1.0
141
100.0
290
     0
  0
SCALE
  5
24C
102
{ACAD_REACTORS
330
239
102
}
330
239
100
AcDbScale
 70
     0
300
2:1
140
2.0
141
1.0
290
     0
  0
SCALE
  5
24D
102
{ACAD_REACTORS
330
239
102
}
330
239
100
AcDbScale
 70
     0
300
4:1
140
4.0
141
1.0
290
     0
  0
SCALE
  5
24E
102
{ACAD_REACTORS
330
239
102
}
330
239
100
AcDbScale
 70
     0
300
8:1
140
8.0
141
1.0
290
     0
  0
SCALE
  5
24F
102
{ACAD_REACTORS
330
239
102
}
330
239
100
AcDbScale
 70
     0
300
10:1
140
10.0
141
1.0
290
     0
  0
SCALE
  5
250
102
{ACAD_REACTORS
330
239
102
}
330
239
100
AcDbScale
 70
     0
300
100:1
140
100.0
141
1.0
290
     0
  0
SCALE
  5
251
102
{ACAD_REACTORS
330
239
102
}
330
239
100
AcDbScale
 70
     0
300
1/128" = 1'-0"
140
0.0078125
141
12.0
290
     0
  0
SCALE
  5
252
102
{ACAD_REACTORS
330
239
102
}
330
239
100
AcDbScale
 70
     0
300
1/64" = 1'-0"
140
0.015625
141
12.0
290
     0
  0
SCALE
  5
253
102
{ACAD_REACTORS
330
239
102
}
330
239
100
AcDbScale
 70
     0
300
1/32" = 1'-0"
140
0.03125
141
12.0
290
     0
  0
SCALE
  5
254
102
{ACAD_REACTORS
330
239
102
}
330
239
100
AcDbScale
 70
     0
300
1/16" = 1'-0"
140
0.0625
141
12.0
290
     0
  0
SCALE
  5
255
102
{ACAD_REACTORS
330
239
102
}
330
239
100
AcDbScale
 70
     0
300
3/32" = 1'-0"
140
0.09375
141
12.0
290
     0
  0
SCALE
  5
256
102
{ACAD_REACTORS
330
239
102
}
330
239
100
AcDbScale
 70
     0
300
1/8" = 1'-0"
140
0.125
141
12.0
290
     0
  0
SCALE
  5
257
102
{ACAD_REACTORS
330
239
102
}
330
239
100
AcDbScale
 70
     0
300
3/16" = 1'-0"
140
0.1875
141
12.0
290
     0
  0
SCALE
  5
258
102
{ACAD_REACTORS
330
239
102
}
330
239
100
AcDbScale
 70
     0
300
1/4" = 1'-0"
140
0.25
141
12.0
290
     0
  0
SCALE
  5
259
102
{ACAD_REACTORS
330
239
102
}
330
239
100
AcDbScale
 70
     0
300
3/8" = 1'-0"
140
0.375
141
12.0
290
     0
  0
SCALE
  5
25A
102
{ACAD_REACTORS
330
239
102
}
330
239
100
AcDbScale
 70
     0
300
1/2" = 1'-0"
140
0.5
141
12.0
290
     0
  0
SCALE
  5
25B
102
{ACAD_REACTORS
330
239
102
}
330
239
100
AcDbScale
 70
     0
300
3/4" = 1'-0"
140
0.75
141
12.0
290
     0
  0
SCALE
  5
25C
102
{ACAD_REACTORS
330
239
102
}
330
239
100
AcDbScale
 70
     0
300
1" = 1'-0"
140
1.0
141
12.0
290
     0
  0
SCALE
  5
25D
102
{ACAD_REACTORS
330
239
102
}
330
239
100
AcDbScale
 70
     0
300
1-1/2" = 1'-0"
140
1.5
141
12.0
290
     0
  0
SCALE
  5
25E
102
{ACAD_REACTORS
330
239
102
}
330
239
100
AcDbScale
 70
     0
300
3" = 1'-0"
140
3.0
141
12.0
290
     0
  0
SCALE
  5
25F
102
{ACAD_REACTORS
330
239
102
}
330
239
100
AcDbScale
 70
     0
300
6" = 1'-0"
140
6.0
141
12.0
290
     0
  0
SCALE
  5
260
102
{ACAD_REACTORS
330
239
102
}
330
239
100
AcDbScale
 70
     0
300
1'-0" = 1'-0"
140
12.0
141
12.0
290
     0
  0
TABLESTYLE
  5
23C
102
{ACAD_XDICTIONARY
360
23D
102
}
102
{ACAD_REACTORS
330
23A
102
}
330
23A
100
AcDbTableStyle
  3
Standard
 70
     0
 71
     0
 40
0.06
 41
0.06
280
     0
281
     0
  7
Standard
140
0.18
170
     2
 62
     0
 63
     7
283
     0
 90
      512
 91
        0
  1

274
    -2
284
     1
 64
     0
275
    -2
285
     1
 65
     0
276
    -2
286
     1
 66
     0
277
    -2
287
     1
 67
     0
278
    -2
288
     1
 68
     0
279
    -2
289
     1
 69
     0
  7
Standard
140
0.25
170
     5
 62
     0
 63
     7
283
     0
 90
      512
 91
        0
  1

274
    -2
284
     1
 64
     0
275
    -2
285
     1
 65
     0
276
    -2
286
     1
 66
     0
277
    -2
287
     1
 67
     0
278
    -2
288
     1
 68
     0
279
    -2
289
     1
 69
     0
  7
Standard
140
0.18
170
     5
 62
     0
 63
     7
283
     0
 90
      512
 91
        0
  1

274
    -2
284
     1
 64
     0
275
    -2
285
     1
 65
     0
276
    -2
286
     1
 66
     0
277
    -2
287
     1
 67
     0
278
    -2
288
     1
 68
     0
279
    -2
289
     1
 69
     0
  0
VISUALSTYLE
  5
21E
102
{ACAD_REACTORS
330
21F
102
}
330
21F
100
AcDbVisualStyle
  2
2dWireframe
 70
     4
 71
     0
 72
     2
 73
     0
 90
        0
 40
-0.6
 41
-30.0
 62
     5
 63
     7
 74
     1
 91
        4
 64
     7
 65
   257
 75
     1
175
     1
 42
1.0
 92
        0
 66
   257
 43
1.0
 76
     1
 77
     6
 78
     2
 67
     7
 79
     5
170
     0
171
     0
290
     0
174
     0
 93
        1
 44
0.0
173
     0
291
     0
 45
0.0
1001
ACAD
1000
AcDbSavedByObjectVersion
1070
     0
1000
AcDbSavedByObjectVersion
1070
     0
1000
AcDbSavedByObjectVersion
1070
     0
1000
AcDbSavedByObjectVersion
1070
     0
1000
AcDbSavedByObjectVersion
1070
     0
1000
AcDbSavedByObjectVersion
1070
     0
1000
AcDbSavedByObjectVersion
1070
     0
1000
AcDbSavedByObjectVersion
1070
     0
1000
AcDbSavedByObjectVersion
1070
     0
1000
AcDbSavedByObjectVersion
1070
     0
1000
AcDbSavedByObjectVersion
1070
     0
1000
AcDbSavedByObjectVersion
1070
     0
1000
AcDbSavedByObjectVersion
1070
     0
1000
AcDbSavedByObjectVersion
1070
     0
1000
AcDbSavedByObjectVersion
1070
     0
1000
AcDbSavedByObjectVersion
1070
     0
1000
AcDbSavedByObjectVersion
1070
     0
1000
AcDbSavedByObjectVersion
1070
     0
1000
AcDbSavedByObjectVersion
1070
     0
1000
AcDbSavedByObjectVersion
1070
     0
1000
AcDbSavedByObjectVersion
1070
     0
1000
AcDbSavedByObjectVersion
1070
     0
1000
AcDbSavedByObjectVersion
1070
     0
1000
AcDbSavedByObjectVersion
1070
     0
1000
AcDbSavedByObjectVersion
1070
     0
1000
AcDbSavedByObjectVersion
1070
     0
1000
AcDbSavedByObjectVersion
1070
     0
1000
AcDbSavedByObjectVersion
1070
     0
1000
AcDbSavedByObjectVersion
1070
     0
1000
AcDbSavedByObjectVersion
1070
     0
1000
AcDbSavedByObjectVersion
1070
     0
1000
AcDbSavedByObjectVersion
1070
     0
1000
AcDbSavedByObjectVersion
1070
     0
1000
AcDbSavedByObjectVersion
1070
     0
1000
AcDbSavedByObjectVersion
1070
     0
  0
VISUALSTYLE
  5
293
102
{ACAD_REACTORS
330
21F
102
}
330
21F
100
AcDbVisualStyle
  2
3D Hidden
 70
     6
 71
     1
 72
     2
 73
     2
 90
        0
 40
-0.6
 41
-30.0
 62
     5
 63
     7
 74
     2
 91
        2
 64
     7
 65
   257
 75
     2
175
     1
 42
40.0
 92
        0
 66
   257
 43
1.0
 76
     1
 77
     6
 78
     2
 67
     7
 79
     3
170
     0
171
     0
290
     0
174
     0
 93
        1
 44
0.0
173
     0
291
     0
 45
0.0
1001
ACAD
1000
AcDbSavedByObjectVersion
1070
     0
1000
AcDbSavedByObjectVersion
1070
     0
1000
AcDbSavedByObjectVersion
1070
     0
1000
AcDbSavedByObjectVersion
1070
     0
  0
VISUALSTYLE
  5
23F
102
{ACAD_REACTORS
330
21F
102
}
330
21F
100
AcDbVisualStyle
  2
3dWireframe
 70
     5
 71
     0
 72
     2
 73
     0
 90
        0
 40
-0.6
 41
-30.0
 62
     5
 63
     7
 74
     1
 91
        4
 64
     7
 65
   257
 75
     1
175
     1
 42
1.0
 92
        0
 66
   257
 43
1.0
 76
     1
 77
     6
 78
     2
 67
     7
 79
     5
170
     0
171
     0
290
     0
174
     0
 93
        1
 44
0.0
173
     0
291
     0
 45
0.0
1001
ACAD
1000
AcDbSavedByObjectVersion
1070
     0
1000
AcDbSavedByObjectVersion
1070
     0
1000
AcDbSavedByObjectVersion
1070
     0
1000
AcDbSavedByObjectVersion
1070
     0
1000
AcDbSavedByObjectVersion
1070
     0
1000
AcDbSavedByObjectVersion
1070
     0
1000
AcDbSavedByObjectVersion
1070
     0
1000
AcDbSavedByObjectVersion
1070
     0
1000
AcDbSavedByObjectVersion
1070
     0
1000
AcDbSavedByObjectVersion
1070
     0
1000
AcDbSavedByObjectVersion
1070
     0
1000
AcDbSavedByObjectVersion
1070
     0
1000
AcDbSavedByObjectVersion
1070
     0
1000
AcDbSavedByObjectVersion
1070
     0
1000
AcDbSavedByObjectVersion
1070
     0
1000
AcDbSavedByObjectVersion
1070
     0
1000
AcDbSavedByObjectVersion
1070
     0
1000
AcDbSavedByObjectVersion
1070
     0
1000
AcDbSavedByObjectVersion
1070
     0
1000
AcDbSavedByObjectVersion
1070
     0
1000
AcDbSavedByObjectVersion
1070
     0
1000
AcDbSavedByObjectVersion
1070
     0
1000
AcDbSavedByObjectVersion
1070
     0
1000
AcDbSavedByObjectVersion
1070
     0
1000
AcDbSavedByObjectVersion
1070
     0
1000
AcDbSavedByObjectVersion
1070
     0
1000
AcDbSavedByObjectVersion
1070
     0
1000
AcDbSavedByObjectVersion
1070
     0
1000
AcDbSavedByObjectVersion
1070
     0
1000
AcDbSavedByObjectVersion
1070
     0
1000
AcDbSavedByObjectVersion
1070
     0
1000
AcDbSavedByObjectVersion
1070
     0
1000
AcDbSavedByObjectVersion
1070
     0
1000
AcDbSavedByObjectVersion
1070
     0
1000
AcDbSavedByObjectVersion
1070
     0
  0
VISUALSTYLE
  5
292
102
{ACAD_REACTORS
330
21F
102
}
330
21F
100
AcDbVisualStyle
  2
Basic
 70
     7
 71
     1
 72
     0
 73
     1
 90
        0
 40
-0.6
 41
-30.0
 62
     5
 63
     7
 74
     0
 91
        4
 64
     7
 65
   257
 75
     1
175
     1
 42
1.0
 92
        8
 66
     7
 43
1.0
 76
     1
 77
     6
 78
     2
 67
     7
 79
     5
170
     0
171
     0
290
     0
174
     0
 93
        1
 44
0.0
173
     0
291
     1
 45
0.0
1001
ACAD
1000
AcDbSavedByObjectVersion
1070
     0
1000
AcDbSavedByObjectVersion
1070
     0
1000
AcDbSavedByObjectVersion
1070
     0
1000
AcDbSavedByObjectVersion
1070
     0
  0
VISUALSTYLE
  5
296
102
{ACAD_REACTORS
330
21F
102
}
330
21F
100
AcDbVisualStyle
  2
Brighten
 70
    12
 71
     2
 72
     2
 73
     0
 90
        0
 40
-0.6
 41
-30.0
 62
     5
 63
     7
 74
     1
 91
        4
 64
     7
 65
   257
 75
     1
175
     1
 42
1.0
 92
        8
 66
     7
 43
1.0
 76
     1
 77
     6
 78
     2
 67
     7
 79
     5
170
     0
171
     0
290
     0
174
     0
 93
        1
 44
50.0
173
     0
291
     1
 45
0.0
1001
ACAD
1000
AcDbSavedByObjectVersion
1070
     0
1000
AcDbSavedByObjectVersion
1070
     0
1000
AcDbSavedByObjectVersion
1070
     0
1000
AcDbSavedByObjectVersion
1070
     0
  0
VISUALSTYLE
  5
29A
102
{ACAD_REACTORS
330
21F
102
}
330
21F
100
AcDbVisualStyle
  2
ColorChange
 70
    16
 71
     2
 72
     2
 73
     3
 90
        0
 40
-0.6
 41
-30.0
 62
     5
 63
     8
 74
     1
 91
        4
 64
     7
 65
   257
 75
     1
175
     1
 42
1.0
 92
        8
 66
     8
 43
1.0
 76
     1
 77
     6
 78
     2
 67
     7
 79
     5
170
     0
171
     0
290
     0
174
     0
 93
        1
 44
0.0
173
     0
291
     1
 45
0.0
1001
ACAD
1000
AcDbSavedByObjectVersion
1070
     0
1000
AcDbSavedByObjectVersion
1070
     0
1000
AcDbSavedByObjectVersion
1070
     0
1000
AcDbSavedByObjectVersion
1070
     0
  0
VISUALSTYLE
  5
294
102
{ACAD_REACTORS
330
21F
102
}
330
21F
100
AcDbVisualStyle
  2
Conceptual
 70
     9
 71
     3
 72
     2
 73
     0
 90
        0
 40
-0.6
 41
-30.0
 62
     5
 63
     7
 74
     2
 91
        2
 64
     7
 65
   257
 75
     1
175
     1
 42
40.0
 92
        8
 66
     7
 43
1.0
 76
     1
 77
     6
 78
     2
 67
     7
 79
     3
170
     0
171
     0
290
     0
174
     0
 93
        1
 44
0.0
173
     0
291
     0
 45
0.0
1001
ACAD
1000
AcDbSavedByObjectVersion
1070
     0
1000
AcDbSavedByObjectVersion
1070
     0
1000
AcDbSavedByObjectVersion
1070
     0
1000
AcDbSavedByObjectVersion
1070
     0
  0
VISUALSTYLE
  5
295
102
{ACAD_REACTORS
330
21F
102
}
330
21F
100
AcDbVisualStyle
  2
Dim
 70
    11
 71
     2
 72
     2
 73
     0
 90
        0
 40
-0.6
 41
-30.0
 62
     5
 63
     7
 74
     1
 91
        4
 64
     7
 65
   257
 75
     1
175
     1
 42
1.0
 92
        8
 66
     7
 43
1.0
 76
     1
 77
     6
 78
     2
 67
     7
 79
     5
170
     0
171
     0
290
     0
174
     0
 93
        1
 44
-50.0
173
     0
291
     1
 45
0.0
1001
ACAD
1000
AcDbSavedByObjectVersion
1070
     0
1000
AcDbSavedByObjectVersion
1070
     0
1000
AcDbSavedByObjectVersion
1070
     0
1000
AcDbSavedByObjectVersion
1070
     0
  0
VISUALSTYLE
  5
299
102
{ACAD_REACTORS
330
21F
102
}
330
21F
100
AcDbVisualStyle
  2
Facepattern
 70
    15
 71
     2
 72
     2
 73
     0
 90
        0
 40
-0.6
 41
-30.0
 62
     5
 63
     7
 74
     1
 91
        4
 64
     7
 65
   257
 75
     1
175
     1
 42
1.0
 92
        8
 66
     7
 43
1.0
 76
     1
 77
     6
 78
     2
 67
     7
 79
     5
170
     0
171
     0
290
     0
174
     0
 93
        1
 44
0.0
173
     0
291
     1
 45
0.0
1001
ACAD
1000
AcDbSavedByObjectVersion
1070
     0
1000
AcDbSavedByObjectVersion
1070
     0
1000
AcDbSavedByObjectVersion
1070
     0
1000
AcDbSavedByObjectVersion
1070
     0
  0
VISUALSTYLE
  5
28E
102
{ACAD_REACTORS
330
21F
102
}
330
21F
100
AcDbVisualStyle
  2
Flat
 70
     0
 71
     2
 72
     1
 73
     1
 90
        2
 40
-0.6
 41
30.0
 62
     5
 63
     7
 74
     0
 91
        4
 64
     7
 65
   257
 75
     1
175
     1
 42
1.0
 92
        8
 66
     7
 43
1.0
 76
     1
 77
     6
 78
     2
 67
     7
 79
     5
170
     0
171
     0
290
     0
174
     0
 93
       13
 44
0.0
173
     0
291
     1
 45
0.0
1001
ACAD
1000
AcDbSavedByObjectVersion
1070
     0
1000
AcDbSavedByObjectVersion
1070
     0
1000
AcDbSavedByObjectVersion
1070
     0
1000
AcDbSavedByObjectVersion
1070
     0
  0
VISUALSTYLE
  5
28F
102
{ACAD_REACTORS
330
21F
102
}
330
21F
100
AcDbVisualStyle
  2
FlatWithEdges
 70
     1
 71
     2
 72
     1
 73
     1
 90
        2
 40
-0.6
 41
30.0
 62
     5
 63
     7
 74
     1
 91
        4
 64
     7
 65
   257
 75
     1
175
     1
 42
1.0
 92
        0
 66
   257
 43
1.0
 76
     1
 77
     6
 78
     2
 67
     7
 79
     5
170
     0
171
     0
290
     0
174
     0
 93
       13
 44
0.0
173
     0
291
     1
 45
0.0
1001
ACAD
1000
AcDbSavedByObjectVersion
1070
     0
1000
AcDbSavedByObjectVersion
1070
     0
1000
AcDbSavedByObjectVersion
1070
     0
1000
AcDbSavedByObjectVersion
1070
     0
  0
VISUALSTYLE
  5
290
102
{ACAD_REACTORS
330
21F
102
}
330
21F
100
AcDbVisualStyle
  2
Gouraud
 70
     2
 71
     2
 72
     2
 73
     1
 90
        2
 40
-0.6
 41
30.0
 62
     5
 63
     7
 74
     0
 91
        4
 64
     7
 65
   257
 75
     1
175
     1
 42
1.0
 92
        0
 66
     7
 43
1.0
 76
     1
 77
     6
 78
     2
 67
     7
 79
     5
170
     0
171
     0
290
     0
174
     0
 93
       13
 44
0.0
173
     0
291
     1
 45
0.0
1001
ACAD
1000
AcDbSavedByObjectVersion
1070
     0
1000
AcDbSavedByObjectVersion
1070
     0
1000
AcDbSavedByObjectVersion
1070
     0
1000
AcDbSavedByObjectVersion
1070
     0
  0
VISUALSTYLE
  5
291
102
{ACAD_REACTORS
330
21F
102
}
330
21F
100
AcDbVisualStyle
  2
GouraudWithEdges
 70
     3
 71
     2
 72
     2
 73
     1
 90
        2
 40
-0.6
 41
30.0
 62
     5
 63
     7
 74
     1
 91
        4
 64
     7
 65
   257
 75
     1
175
     1
 42
1.0
 92
        0
 66
   257
 43
1.0
 76
     1
 77
     6
 78
     2
 67
     7
 79
     5
170
     0
171
     0
290
     0
174
     0
 93
       13
 44
0.0
173
     0
291
     1
 45
0.0
1001
ACAD
1000
AcDbSavedByObjectVersion
1070
     0
1000
AcDbSavedByObjectVersion
1070
     0
1000
AcDbSavedByObjectVersion
1070
     0
1000
AcDbSavedByObjectVersion
1070
     0
  0
VISUALSTYLE
  5
298
102
{ACAD_REACTORS
330
21F
102
}
330
21F
100
AcDbVisualStyle
  2
Linepattern
 70
    14
 71
     2
 72
     2
 73
     0
 90
        0
 40
-0.6
 41
-30.0
 62
     5
 63
     7
 74
     1
 91
        4
 64
     7
 65
   257
 75
     7
175
     7
 42
1.0
 92
        8
 66
     7
 43
1.0
 76
     1
 77
     6
 78
     2
 67
     7
 79
     5
170
     0
171
     0
290
     0
174
     0
 93
        1
 44
0.0
173
     0
291
     1
 45
0.0
1001
ACAD
1000
AcDbSavedByObjectVersion
1070
     0
1000
AcDbSavedByObjectVersion
1070
     0
1000
AcDbSavedByObjectVersion
1070
     0
1000
AcDbSavedByObjectVersion
1070
     0
  0
VISUALSTYLE
  5
23E
102
{ACAD_REACTORS
330
21F
102
}
330
21F
100
AcDbVisualStyle
  2
Realistic
 70
     8
 71
     2
 72
     2
 73
     0
 90
        0
 40
-0.6
 41
-30.0
 62
     5
 63
     7
 74
     1
 91
        0
 64
     7
 65
   257
 75
     1
175
     1
 42
1.0
 92
        8
 66
     8
 43
1.0
 76
     1
 77
     6
 78
     2
 67
     7
 79
     5
170
     0
171
     0
290
     0
174
     0
 93
       13
 44
0.0
173
     0
291
     0
 45
0.0
1001
ACAD
1000
AcDbSavedByObjectVersion
1070
     0
1000
AcDbSavedByObjectVersion
1070
     0
1000
AcDbSavedByObjectVersion
1070
     0
1000
AcDbSavedByObjectVersion
1070
     0
1000
AcDbSavedByObjectVersion
1070
     0
1000
AcDbSavedByObjectVersion
1070
     0
1000
AcDbSavedByObjectVersion
1070
     0
1000
AcDbSavedByObjectVersion
1070
     0
1000
AcDbSavedByObjectVersion
1070
     0
1000
AcDbSavedByObjectVersion
1070
     0
1000
AcDbSavedByObjectVersion
1070
     0
1000
AcDbSavedByObjectVersion
1070
     0
1000
AcDbSavedByObjectVersion
1070
     0
1000
AcDbSavedByObjectVersion
1070
     0
1000
AcDbSavedByObjectVersion
1070
     0
1000
AcDbSavedByObjectVersion
1070
     0
1000
AcDbSavedByObjectVersion
1070
     0
1000
AcDbSavedByObjectVersion
1070
     0
1000
AcDbSavedByObjectVersion
1070
     0
1000
AcDbSavedByObjectVersion
1070
     0
1000
AcDbSavedByObjectVersion
1070
     0
1000
AcDbSavedByObjectVersion
1070
     0
1000
AcDbSavedByObjectVersion
1070
     0
1000
AcDbSavedByObjectVersion
1070
     0
1000
AcDbSavedByObjectVersion
1070
     0
1000
AcDbSavedByObjectVersion
1070
     0
1000
AcDbSavedByObjectVersion
1070
     0
1000
AcDbSavedByObjectVersion
1070
     0
1000
AcDbSavedByObjectVersion
1070
     0
1000
AcDbSavedByObjectVersion
1070
     0
1000
AcDbSavedByObjectVersion
1070
     0
1000
AcDbSavedByObjectVersion
1070
     0
1000
AcDbSavedByObjectVersion
1070
     0
1000
AcDbSavedByObjectVersion
1070
     0
1000
AcDbSavedByObjectVersion
1070
     0
  0
VISUALSTYLE
  5
297
102
{ACAD_REACTORS
330
21F
102
}
330
21F
100
AcDbVisualStyle
  2
Thicken
 70
    13
 71
     2
 72
     2
 73
     0
 90
        0
 40
-0.6
 41
-30.0
 62
     5
 63
     7
 74
     1
 91
        4
 64
     7
 65
   257
 75
     1
175
     1
 42
1.0
 92
       12
 66
     7
 43
1.0
 76
     1
 77
     6
 78
     2
 67
     7
 79
     5
170
     0
171
     0
290
     0
174
     0
 93
        1
 44
0.0
173
     0
291
     1
 45
0.0
1001
ACAD
1000
AcDbSavedByObjectVersion
1070
     0
1000
AcDbSavedByObjectVersion
1070
     0
1000
AcDbSavedByObjectVersion
1070
     0
1000
AcDbSavedByObjectVersion
1070
     0
  0
DICTIONARYVAR
  5
265
102
{ACAD_REACTORS
330
262
102
}
330
262
100
DictionaryVariables
280
     0
  1
1:1
  0
DICTIONARYVAR
  5
264
102
{ACAD_REACTORS
330
262
102
}
330
262
100
DictionaryVariables
280
     0
  1
STANDARD
  0
DICTIONARYVAR
  5
263
102
{ACAD_REACTORS
330
262
102
}
330
262
100
DictionaryVariables
280
     0
  1
STANDARD
  0
DICTIONARYVAR
  5
625
102
{ACAD_REACTORS
330
262
102
}
330
262
100
DictionaryVariables
280
     0
  1
1
  0
DICTIONARYVAR
  5
624
102
{ACAD_REACTORS
330
262
102
}
330
262
100
DictionaryVariables
280
     0
  1
1
  0
DICTIONARYVAR
  5
623
102
{ACAD_REACTORS
330
262
102
}
330
262
100
DictionaryVariables
280
     0
  1
0
  0
DICTIONARYVAR
  5
266
102
{ACAD_REACTORS
330
262
102
}
330
262
100
DictionaryVariables
280
     0
  1
0
  0
DICTIONARYVAR
  5
621
102
{ACAD_REACTORS
330
262
102
}
330
262
100
DictionaryVariables
280
     0
  1
1
  0
DICTIONARYVAR
  5
622
102
{ACAD_REACTORS
330
262
102
}
330
262
100
DictionaryVariables
280
     0
  1
127
  0
DICTIONARY
  5
C05
102
{ACAD_REACTORS
330
C04
102
}
330
C04
100
AcDbDictionary
281
     1
  0
DICTIONARY
  5
231
330
230
100
AcDbDictionary
280
     1
281
     1
  3
ACAD_XREC_ROUNDTRIP
360
64C
  3
BUMPTILE
360
232
  3
DIFFUSETILE
360
233
  3
OPACITYTILE
360
234
  3
REFLECTIONTILE
360
235
  3
REFRACTIONTILE
360
236
  3
SPECULARTILE
360
237
  0
DICTIONARY
  5
229
330
228
100
AcDbDictionary
280
     1
281
     1
  3
ACAD_XREC_ROUNDTRIP
360
64B
  3
BUMPTILE
360
22A
  3
DIFFUSETILE
360
22B
  3
OPACITYTILE
360
22C
  3
REFLECTIONTILE
360
22D
  3
REFRACTIONTILE
360
22E
  3
SPECULARTILE
360
22F
  0
DICTIONARY
  5
E
330
C
100
AcDbDictionary
280
     1
281
     1
  3
ACAD_XREC_ROUNDTRIP
360
644
  3
BUMPTILE
360
F
  3
DIFFUSETILE
360
10
  3
OPACITYTILE
360
11
  3
REFLECTIONTILE
360
12
  3
REFRACTIONTILE
360
13
  3
SPECULARTILE
360
14
  0
DICTIONARY
  5
23D
330
23C
100
AcDbDictionary
280
     1
281
     1
  3
ACAD_ROUNDTRIP_2008_TABLESTYLE_CELLSTYLEMAP
360
CEB
  0
XRECORD
  5
64C
102
{ACAD_REACTORS
330
231
102
}
330
231
100
AcDbXrecord
280
     1
102
MATERIAL
148
0.0
149
0.0
149
0.0
 93
        0
 94
      127
282
     0
 72
     0
 77
     0
171
     0
175
     0
179
     0
273
     0
  0
XRECORD
  5
232
102
{ACAD_REACTORS
330
231
102
}
330
231
100
AcDbXrecord
280
     1
270
     1
271
     1
  0
XRECORD
  5
233
102
{ACAD_REACTORS
330
231
102
}
330
231
100
AcDbXrecord
280
     1
270
     1
271
     1
  0
XRECORD
  5
234
102
{ACAD_REACTORS
330
231
102
}
330
231
100
AcDbXrecord
280
     1
270
     1
271
     1
  0
XRECORD
  5
235
102
{ACAD_REACTORS
330
231
102
}
330
231
100
AcDbXrecord
280
     1
270
     1
271
     1
  0
XRECORD
  5
236
102
{ACAD_REACTORS
330
231
102
}
330
231
100
AcDbXrecord
280
     1
270
     1
271
     1
  0
XRECORD
  5
237
102
{ACAD_REACTORS
330
231
102
}
330
231
100
AcDbXrecord
280
     1
270
     1
271
     1
  0
XRECORD
  5
64B
102
{ACAD_REACTORS
330
229
102
}
330
229
100
AcDbXrecord
280
     1
102
MATERIAL
148
0.0
149
0.0
149
0.0
 93
        0
 94
      127
282
     0
 72
     0
 77
     0
171
     0
175
     0
179
     0
273
     0
  0
XRECORD
  5
22A
102
{ACAD_REACTORS
330
229
102
}
330
229
100
AcDbXrecord
280
     1
270
     1
271
     1
  0
XRECORD
  5
22B
102
{ACAD_REACTORS
330
229
102
}
330
229
100
AcDbXrecord
280
     1
270
     1
271
     1
  0
XRECORD
  5
22C
102
{ACAD_REACTORS
330
229
102
}
330
229
100
AcDbXrecord
280
     1
270
     1
271
     1
  0
XRECORD
  5
22D
102
{ACAD_REACTORS
330
229
102
}
330
229
100
AcDbXrecord
280
     1
270
     1
271
     1
  0
XRECORD
  5
22E
102
{ACAD_REACTORS
330
229
102
}
330
229
100
AcDbXrecord
280
     1
270
     1
271
     1
  0
XRECORD
  5
22F
102
{ACAD_REACTORS
330
229
102
}
330
229
100
AcDbXrecord
280
     1
270
     1
271
     1
  0
XRECORD
  5
644
102
{ACAD_REACTORS
330
E
102
}
330
E
100
AcDbXrecord
280
     1
102
MATERIAL
148
0.0
149
0.0
149
0.0
 93
        0
 94
      127
282
     0
 72
     0
 77
     0
171
     0
175
     0
179
     0
273
     0
  0
XRECORD
  5
F
102
{ACAD_REACTORS
330
E
102
}
330
E
100
AcDbXrecord
280
     1
270
     1
271
     1
  0
XRECORD
  5
10
102
{ACAD_REACTORS
330
E
102
}
330
E
100
AcDbXrecord
280
     1
270
     1
271
     1
  0
XRECORD
  5
11
102
{ACAD_REACTORS
330
E
102
}
330
E
100
AcDbXrecord
280
     1
270
     1
271
     1
  0
XRECORD
  5
12
102
{ACAD_REACTORS
330
E
102
}
330
E
100
AcDbXrecord
280
     1
270
     1
271
     1
  0
XRECORD
  5
13
102
{ACAD_REACTORS
330
E
102
}
330
E
100
AcDbXrecord
280
     1
270
     1
271
     1
  0
XRECORD
  5
14
102
{ACAD_REACTORS
330
E
102
}
330
E
100
AcDbXrecord
280
     1
270
     1
271
     1
  0
CELLSTYLEMAP
  5
CEB
102
{ACAD_REACTORS
330
23D
102
}
330
23D
100
AcDbCellStyleMap
 90
        3
300
CELLSTYLE
  1
TABLEFORMAT_BEGIN
 90
        5
170
     1
 91
        0
 92
    32768
 62
   257
 93
        1
300
CONTENTFORMAT
  1
CONTENTFORMAT_BEGIN
 90
        0
 91
        0
 92
      512
 93
        0
300

 40
0.0
140
1.0
 94
        5
 62
     0
340
46
144
0.25
309
CONTENTFORMAT_END
171
     1
301
MARGIN
  1
CELLMARGIN_BEGIN
 40
0.06
 40
0.06
 40
0.06
 40
0.06
 40
0.18
 40
0.18
309
CELLMARGIN_END
 94
        6
 95
        1
302
GRIDFORMAT
  1
GRIDFORMAT_BEGIN
 90
        0
 91
        1
 62
     0
 92
       -2
340
0
 93
        0
 40
0.045
309
GRIDFORMAT_END
 95
        2
302
GRIDFORMAT
  1
GRIDFORMAT_BEGIN
 90
        0
 91
        1
 62
     0
 92
       -2
340
0
 93
        0
 40
0.045
309
GRIDFORMAT_END
 95
        4
302
GRIDFORMAT
  1
GRIDFORMAT_BEGIN
 90
        0
 91
        1
 62
     0
 92
       -2
340
0
 93
        0
 40
0.045
309
GRIDFORMAT_END
 95
        8
302
GRIDFORMAT
  1
GRIDFORMAT_BEGIN
 90
        0
 91
        1
 62
     0
 92
       -2
340
0
 93
        0
 40
0.045
309
GRIDFORMAT_END
 95
       16
302
GRIDFORMAT
  1
GRIDFORMAT_BEGIN
 90
        0
 91
        1
 62
     0
 92
       -2
340
0
 93
        0
 40
0.045
309
GRIDFORMAT_END
 95
       32
302
GRIDFORMAT
  1
GRIDFORMAT_BEGIN
 90
        0
 91
        1
 62
     0
 92
       -2
340
0
 93
        0
 40
0.045
309
GRIDFORMAT_END
309
TABLEFORMAT_END
  1
CELLSTYLE_BEGIN
 90
        1
 91
        1
300
_TITLE
309
CELLSTYLE_END
300
CELLSTYLE
  1
TABLEFORMAT_BEGIN
 90
        5
170
     1
 91
        0
 92
        0
 62
   257
 93
        1
300
CONTENTFORMAT
  1
CONTENTFORMAT_BEGIN
 90
        0
 91
        0
 92
      512
 93
        0
300

 40
0.0
140
1.0
 94
        5
 62
     0
340
46
144
0.18
309
CONTENTFORMAT_END
171
     1
301
MARGIN
  1
CELLMARGIN_BEGIN
 40
0.06
 40
0.06
 40
0.06
 40
0.06
 40
0.18
 40
0.18
309
CELLMARGIN_END
 94
        6
 95
        1
302
GRIDFORMAT
  1
GRIDFORMAT_BEGIN
 90
        0
 91
        1
 62
     0
 92
       -2
340
0
 93
        0
 40
0.045
309
GRIDFORMAT_END
 95
        2
302
GRIDFORMAT
  1
GRIDFORMAT_BEGIN
 90
        0
 91
        1
 62
     0
 92
       -2
340
0
 93
        0
 40
0.045
309
GRIDFORMAT_END
 95
        4
302
GRIDFORMAT
  1
GRIDFORMAT_BEGIN
 90
        0
 91
        1
 62
     0
 92
       -2
340
0
 93
        0
 40
0.045
309
GRIDFORMAT_END
 95
        8
302
GRIDFORMAT
  1
GRIDFORMAT_BEGIN
 90
        0
 91
        1
 62
     0
 92
       -2
340
0
 93
        0
 40
0.045
309
GRIDFORMAT_END
 95
       16
302
GRIDFORMAT
  1
GRIDFORMAT_BEGIN
 90
        0
 91
        1
 62
     0
 92
       -2
340
0
 93
        0
 40
0.045
309
GRIDFORMAT_END
 95
       32
302
GRIDFORMAT
  1
GRIDFORMAT_BEGIN
 90
        0
 91
        1
 62
     0
 92
       -2
340
0
 93
        0
 40
0.045
309
GRIDFORMAT_END
309
TABLEFORMAT_END
  1
CELLSTYLE_BEGIN
 90
        2
 91
        1
300
_HEADER
309
CELLSTYLE_END
300
CELLSTYLE
  1
TABLEFORMAT_BEGIN
 90
        5
170
     1
 91
        0
 92
        0
 62
   257
 93
        1
300
CONTENTFORMAT
  1
CONTENTFORMAT_BEGIN
 90
        0
 91
        0
 92
      512
 93
        0
300

 40
0.0
140
1.0
 94
        2
 62
     0
340
46
144
0.18
309
CONTENTFORMAT_END
171
     1
301
MARGIN
  1
CELLMARGIN_BEGIN
 40
0.06
 40
0.06
 40
0.06
 40
0.06
 40
0.18
 40
0.18
309
CELLMARGIN_END
 94
        6
 95
        1
302
GRIDFORMAT
  1
GRIDFORMAT_BEGIN
 90
        0
 91
        1
 62
     0
 92
       -2
340
0
 93
        0
 40
0.045
309
GRIDFORMAT_END
 95
        2
302
GRIDFORMAT
  1
GRIDFORMAT_BEGIN
 90
        0
 91
        1
 62
     0
 92
       -2
340
0
 93
        0
 40
0.045
309
GRIDFORMAT_END
 95
        4
302
GRIDFORMAT
  1
GRIDFORMAT_BEGIN
 90
        0
 91
        1
 62
     0
 92
       -2
340
0
 93
        0
 40
0.045
309
GRIDFORMAT_END
 95
        8
302
GRIDFORMAT
  1
GRIDFORMAT_BEGIN
 90
        0
 91
        1
 62
     0
 92
       -2
340
0
 93
        0
 40
0.045
309
GRIDFORMAT_END
 95
       16
302
GRIDFORMAT
  1
GRIDFORMAT_BEGIN
 90
        0
 91
        1
 62
     0
 92
       -2
340
0
 93
        0
 40
0.045
309
GRIDFORMAT_END
 95
       32
302
GRIDFORMAT
  1
GRIDFORMAT_BEGIN
 90
        0
 91
        1
 62
     0
 92
       -2
340
0
 93
        0
 40
0.045
309
GRIDFORMAT_END
309
TABLEFORMAT_END
  1
CELLSTYLE_BEGIN
 90
        3
 91
        2
300
_DATA
309
CELLSTYLE_END
  0
ENDSEC
  0
EOF
